  0
SECTION
  2
HEADER
  9
$ACADVER
  1
AC1015
  9
$ACADMAINTVER
 70
     6
  9
$DWGCODEPAGE
  3
ANSI_1252
  9
$INSBASE
 10
0.0
 20
0.0
 30
0.0
  9
$EXTMIN
 10
1339.042238459965
 20
-552.5812653343061
 30
0.0
  9
$EXTMAX
 10
1536.561825558483
 20
-265.5812653343061
 30
0.0
  9
$LIMMIN
 10
0.0
 20
0.0
  9
$LIMMAX
 10
12.0
 20
9.0
  9
$ORTHOMODE
 70
     0
  9
$REGENMODE
 70
     1
  9
$FILLMODE
 70
     1
  9
$QTEXTMODE
 70
     0
  9
$MIRRTEXT
 70
     1
  9
$LTSCALE
 40
1.0
  9
$ATTMODE
 70
     1
  9
$TEXTSIZE
 40
0.2
  9
$TRACEWID
 40
0.05
  9
$TEXTSTYLE
  7
Standard
  9
$CLAYER
  8
0
  9
$CELTYPE
  6
ByLayer
  9
$CECOLOR
 62
   256
  9
$CELTSCALE
 40
1.0
  9
$DISPSILH
 70
     0
  9
$DIMSCALE
 40
1.0
  9
$DIMASZ
 40
0.18
  9
$DIMEXO
 40
0.0625
  9
$DIMDLI
 40
0.38
  9
$DIMRND
 40
0.0
  9
$DIMDLE
 40
0.0
  9
$DIMEXE
 40
0.18
  9
$DIMTP
 40
0.0
  9
$DIMTM
 40
0.0
  9
$DIMTXT
 40
0.18
  9
$DIMCEN
 40
0.09
  9
$DIMTSZ
 40
0.0
  9
$DIMTOL
 70
     0
  9
$DIMLIM
 70
     0
  9
$DIMTIH
 70
     1
  9
$DIMTOH
 70
     1
  9
$DIMSE1
 70
     0
  9
$DIMSE2
 70
     0
  9
$DIMTAD
 70
     0
  9
$DIMZIN
 70
     0
  9
$DIMBLK
  1

  9
$DIMASO
 70
     1
  9
$DIMSHO
 70
     1
  9
$DIMPOST
  1

  9
$DIMAPOST
  1

  9
$DIMALT
 70
     0
  9
$DIMALTD
 70
     2
  9
$DIMALTF
 40
25.4
  9
$DIMLFAC
 40
1.0
  9
$DIMTOFL
 70
     0
  9
$DIMTVP
 40
0.0
  9
$DIMTIX
 70
     0
  9
$DIMSOXD
 70
     0
  9
$DIMSAH
 70
     0
  9
$DIMBLK1
  1

  9
$DIMBLK2
  1

  9
$DIMSTYLE
  2
Standard
  9
$DIMCLRD
 70
     0
  9
$DIMCLRE
 70
     0
  9
$DIMCLRT
 70
     0
  9
$DIMTFAC
 40
1.0
  9
$DIMGAP
 40
0.09
  9
$DIMJUST
 70
     0
  9
$DIMSD1
 70
     0
  9
$DIMSD2
 70
     0
  9
$DIMTOLJ
 70
     1
  9
$DIMTZIN
 70
     0
  9
$DIMALTZ
 70
     0
  9
$DIMALTTZ
 70
     0
  9
$DIMUPT
 70
     0
  9
$DIMDEC
 70
     4
  9
$DIMTDEC
 70
     4
  9
$DIMALTU
 70
     2
  9
$DIMALTTD
 70
     2
  9
$DIMTXSTY
  7
Standard
  9
$DIMAUNIT
 70
     0
  9
$DIMADEC
 70
     0
  9
$DIMALTRND
 40
0.0
  9
$DIMAZIN
 70
     0
  9
$DIMDSEP
 70
    46
  9
$DIMATFIT
 70
     3
  9
$DIMFRAC
 70
     0
  9
$DIMLDRBLK
  1

  9
$DIMLUNIT
 70
     2
  9
$DIMLWD
 70
    -2
  9
$DIMLWE
 70
    -2
  9
$DIMTMOVE
 70
     0
  9
$LUNITS
 70
     2
  9
$LUPREC
 70
     4
  9
$SKETCHINC
 40
0.1
  9
$FILLETRAD
 40
0.5
  9
$AUNITS
 70
     0
  9
$AUPREC
 70
     0
  9
$MENU
  1
.
  9
$ELEVATION
 40
0.0
  9
$PELEVATION
 40
0.0
  9
$THICKNESS
 40
0.0
  9
$LIMCHECK
 70
     0
  9
$CHAMFERA
 40
0.5
  9
$CHAMFERB
 40
0.5
  9
$CHAMFERC
 40
1.0
  9
$CHAMFERD
 40
0.0
  9
$SKPOLY
 70
     0
  9
$TDCREATE
 40
2454326.350001898
  9
$TDUCREATE
 40
2454326.266668565
  9
$TDUPDATE
 40
2454326.35000191
  9
$TDUUPDATE
 40
2454326.266668576
  9
$TDINDWG
 40
0.0000000116
  9
$TDUSRTIMER
 40
0.0000000116
  9
$USRTIMER
 70
     1
  9
$ANGBASE
 50
0.0
  9
$ANGDIR
 70
     0
  9
$PDMODE
 70
     0
  9
$PDSIZE
 40
0.0
  9
$PLINEWID
 40
0.0
  9
$SPLFRAME
 70
     0
  9
$SPLINETYPE
 70
     6
  9
$SPLINESEGS
 70
     8
  9
$HANDSEED
  5
460
  9
$SURFTAB1
 70
     6
  9
$SURFTAB2
 70
     6
  9
$SURFTYPE
 70
     6
  9
$SURFU
 70
     6
  9
$SURFV
 70
     6
  9
$UCSBASE
  2

  9
$UCSNAME
  2

  9
$UCSORG
 10
0.0
 20
0.0
 30
0.0
  9
$UCSXDIR
 10
1.0
 20
0.0
 30
0.0
  9
$UCSYDIR
 10
0.0
 20
1.0
 30
0.0
  9
$UCSORTHOREF
  2

  9
$UCSORTHOVIEW
 70
     0
  9
$UCSORGTOP
 10
0.0
 20
0.0
 30
0.0
  9
$UCSORGBOTTOM
 10
0.0
 20
0.0
 30
0.0
  9
$UCSORGLEFT
 10
0.0
 20
0.0
 30
0.0
  9
$UCSORGRIGHT
 10
0.0
 20
0.0
 30
0.0
  9
$UCSORGFRONT
 10
0.0
 20
0.0
 30
0.0
  9
$UCSORGBACK
 10
0.0
 20
0.0
 30
0.0
  9
$PUCSBASE
  2

  9
$PUCSNAME
  2

  9
$PUCSORG
 10
0.0
 20
0.0
 30
0.0
  9
$PUCSXDIR
 10
1.0
 20
0.0
 30
0.0
  9
$PUCSYDIR
 10
0.0
 20
1.0
 30
0.0
  9
$PUCSORTHOREF
  2

  9
$PUCSORTHOVIEW
 70
     0
  9
$PUCSORGTOP
 10
0.0
 20
0.0
 30
0.0
  9
$PUCSORGBOTTOM
 10
0.0
 20
0.0
 30
0.0
  9
$PUCSORGLEFT
 10
0.0
 20
0.0
 30
0.0
  9
$PUCSORGRIGHT
 10
0.0
 20
0.0
 30
0.0
  9
$PUCSORGFRONT
 10
0.0
 20
0.0
 30
0.0
  9
$PUCSORGBACK
 10
0.0
 20
0.0
 30
0.0
  9
$USERI1
 70
     0
  9
$USERI2
 70
     0
  9
$USERI3
 70
     0
  9
$USERI4
 70
     0
  9
$USERI5
 70
     0
  9
$USERR1
 40
14.5
  9
$USERR2
 40
0.0
  9
$USERR3
 40
0.0
  9
$USERR4
 40
0.0
  9
$USERR5
 40
0.0
  9
$WORLDVIEW
 70
     1
  9
$SHADEDGE
 70
     3
  9
$SHADEDIF
 70
    70
  9
$TILEMODE
 70
     1
  9
$MAXACTVP
 70
    64
  9
$PINSBASE
 10
0.0
 20
0.0
 30
0.0
  9
$PLIMCHECK
 70
     0
  9
$PEXTMIN
 10
1.00000000000000E+20
 20
1.00000000000000E+20
 30
1.00000000000000E+20
  9
$PEXTMAX
 10
-1.00000000000000E+20
 20
-1.00000000000000E+20
 30
-1.00000000000000E+20
  9
$PLIMMIN
 10
0.0
 20
0.0
  9
$PLIMMAX
 10
12.0
 20
9.0
  9
$UNITMODE
 70
     0
  9
$VISRETAIN
 70
     1
  9
$PLINEGEN
 70
     0
  9
$PSLTSCALE
 70
     1
  9
$TREEDEPTH
 70
  3020
  9
$CMLSTYLE
  2
Standard
  9
$CMLJUST
 70
     0
  9
$CMLSCALE
 40
1.0
  9
$PROXYGRAPHICS
 70
     1
  9
$MEASUREMENT
 70
     1
  9
$CELWEIGHT
370
    -1
  9
$ENDCAPS
280
     0
  9
$JOINSTYLE
280
     0
  9
$LWDISPLAY
290
     0
  9
$INSUNITS
 70
     1
  9
$HYPERLINKBASE
  1

  9
$STYLESHEET
  1

  9
$XEDIT
290
     1
  9
$CEPSNTYPE
380
     0
  9
$PSTYLEMODE
290
     1
  9
$FINGERPRINTGUID
  2
{7B6E0AEE-5FC4-44BA-ACC4-D8A63CE8E538}
  9
$VERSIONGUID
  2
{FAEB1C32-E019-11D5-929B-00C0DF256EC4}
  9
$EXTNAMES
290
     1
  9
$PSVPSCALE
 40
0.0
  9
$OLESTARTUP
290
     0
  0
ENDSEC
  0
SECTION
  2
CLASSES
  0
CLASS
  1
ACDBDICTIONARYWDFLT
  2
AcDbDictionaryWithDefault
  3
ObjectDBX Classes
 90
        0
280
     0
281
     0
  0
CLASS
  1

  2
exOdDbCircle
  3

 90
        0
280
     0
281
     1
  0
CLASS
  1

  2
exOdDbSpline
  3

 90
        0
280
     0
281
     1
  0
CLASS
  1

  2
exOdDbPolyline
  3

 90
        0
280
     0
281
     1
  0
CLASS
  1
ACDBPLACEHOLDER
  2
AcDbPlaceHolder
  3
ObjectDBX Classes
 90
        0
280
     0
281
     0
  0
CLASS
  1
LAYOUT
  2
AcDbLayout
  3
ObjectDBX Classes
 90
        0
280
     0
281
     0
  0
ENDSEC
  0
SECTION
  2
TABLES
  0
TABLE
  2
VPORT
  5
8
330
0
100
AcDbSymbolTable
 70
     1
  0
VPORT
  5
29
330
8
100
AcDbSymbolTableRecord
100
AcDbViewportTableRecord
  2
*Active
 70
     0
 10
0.0
 20
0.0
 11
1.0
 21
1.0
 12
1437.802032009224
 22
-409.0812653343061
 13
0.0
 23
0.0
 14
0.5
 24
0.5
 15
0.5
 25
0.5
 16
0.0
 26
0.0
 36
1.0
 17
0.0
 27
0.0
 37
0.0
 40
315.7
 41
1.60267857142857
 42
50.0
 43
0.0
 44
0.0
 50
0.0
 51
0.0
 71
     0
 72
   100
 73
     1
 74
     3
 75
     0
 76
     0
 77
     0
 78
     0
281
     0
 65
     1
110
0.0
120
0.0
130
0.0
111
1.0
121
0.0
131
0.0
112
0.0
122
1.0
132
0.0
 79
     0
146
0.0
  0
ENDTAB
  0
TABLE
  2
LTYPE
  5
5
330
0
100
AcDbSymbolTable
 70
     8
  0
LTYPE
  5
14
330
5
100
AcDbSymbolTableRecord
100
AcDbLinetypeTableRecord
  2
ByBlock
 70
     0
  3

 72
    65
 73
     0
 40
0.0
  0
LTYPE
  5
15
330
5
100
AcDbSymbolTableRecord
100
AcDbLinetypeTableRecord
  2
ByLayer
 70
     0
  3

 72
    65
 73
     0
 40
0.0
  0
LTYPE
  5
16
330
5
100
AcDbSymbolTableRecord
100
AcDbLinetypeTableRecord
  2
Continuous
 70
     0
  3
Solid line
 72
    65
 73
     0
 40
0.0
  0
LTYPE
  5
2A
330
5
100
AcDbSymbolTableRecord
100
AcDbLinetypeTableRecord
  2
DASHED
 70
     0
  3
Dashed
 72
    65
 73
     2
 40
15.0
 49
7.0
 74
     0
 49
-8.0
 74
     0
  0
LTYPE
  5
2B
330
5
100
AcDbSymbolTableRecord
100
AcDbLinetypeTableRecord
  2
DOTTED
 70
     0
  3
Dotted
 72
    65
 73
     2
 40
1.0
 49
0.0
 74
     0
 49
-1.0
 74
     0
  0
LTYPE
  5
2C
330
5
100
AcDbSymbolTableRecord
100
AcDbLinetypeTableRecord
  2
DOT_CENTER
 70
     0
  3
Dot_Center
 72
    65
 73
     4
 40
14.0
 49
12.0
 74
     0
 49
-1.0
 74
     0
 49
0.0
 74
     0
 49
-1.0
 74
     0
  0
LTYPE
  5
2D
330
5
100
AcDbSymbolTableRecord
100
AcDbLinetypeTableRecord
  2
LONG_DASHED
 70
     0
  3
Long_Dashed
 72
    65
 73
     2
 40
15.0
 49
10.0
 74
     0
 49
-5.0
 74
     0
  0
LTYPE
  5
2E
330
5
100
AcDbSymbolTableRecord
100
AcDbLinetypeTableRecord
  2
DASH_CENTER
 70
     0
  3
Dash_Center
 72
    65
 73
     4
 40
14.0
 49
11.0
 74
     0
 49
-1.0
 74
     0
 49
1.0
 74
     0
 49
-1.0
 74
     0
  0
LTYPE
  5
2F
330
5
100
AcDbSymbolTableRecord
100
AcDbLinetypeTableRecord
  2
PHANTOM
 70
     0
  3
Phantom
 72
    65
 73
     6
 40
13.0
 49
10.0
 74
     0
 49
-1.0
 74
     0
 49
0.0
 74
     0
 49
-1.0
 74
     0
 49
0.0
 74
     0
 49
-1.0
 74
     0
  0
LTYPE
  5
30
330
5
100
AcDbSymbolTableRecord
100
AcDbLinetypeTableRecord
  2
CENTER_DASH_DASH
 70
     0
  3
Center_Dash_Dash
 72
    65
 73
     6
 40
14.0
 49
9.0
 74
     0
 49
-1.0
 74
     0
 49
1.0
 74
     0
 49
-1.0
 74
     0
 49
1.0
 74
     0
 49
-1.0
 74
     0
  0
ENDTAB
  0
TABLE
  2
LAYER
  5
2
330
0
100
AcDbSymbolTable
 70
     3
  0
LAYER
  5
10
330
2
100
AcDbSymbolTableRecord
100
AcDbLayerTableRecord
  2
0
 70
     0
 62
     7
  6
Continuous
370
    -3
390
F
  0
LAYER
  5
31
330
2
100
AcDbSymbolTableRecord
100
AcDbLayerTableRecord
  2
1
 70
     0
 62
     7
  6
Continuous
370
    -3
390
F
  0
LAYER
  5
32
330
2
100
AcDbSymbolTableRecord
100
AcDbLayerTableRecord
  2
EBENE_1
 70
     0
 62
     7
  6
Continuous
370
    -3
390
F
  0
ENDTAB
  0
TABLE
  2
STYLE
  5
3
330
0
100
AcDbSymbolTable
 70
     8
  0
STYLE
  5
11
330
3
100
AcDbSymbolTableRecord
100
AcDbTextStyleTableRecord
  2
Standard
 70
     0
 40
0.0
 41
1.0
 50
0.0
 71
     0
 42
0.2
  3
txt
  4

  0
STYLE
  5
158
330
3
100
AcDbSymbolTableRecord
100
AcDbTextStyleTableRecord
  2
CONVERTER_11
 70
     0
 40
0.0
 41
0.792
 50
0.0
 71
     0
 42
0.2
  3
txt.shx
  4

  0
STYLE
  5
161
330
3
100
AcDbSymbolTableRecord
100
AcDbTextStyleTableRecord
  2
CONVERTER_12
 70
     0
 40
0.0
 41
0.9
 50
0.0
 71
     0
 42
0.2
  3
txt.shx
  4

  0
STYLE
  5
243
330
3
100
AcDbSymbolTableRecord
100
AcDbTextStyleTableRecord
  2
CONVERTER_13
 70
     0
 40
0.0
 41
0.72
 50
0.0
 71
     0
 42
0.2
  3
txt.shx
  4

  0
STYLE
  5
247
330
3
100
AcDbSymbolTableRecord
100
AcDbTextStyleTableRecord
  2
CONVERTER_14
 70
     0
 40
0.0
 41
0.99
 50
0.0
 71
     0
 42
0.2
  3
txt.shx
  4

  0
STYLE
  5
251
330
3
100
AcDbSymbolTableRecord
100
AcDbTextStyleTableRecord
  2
CONVERTER_15
 70
     0
 40
0.0
 41
0.765
 50
0.0
 71
     0
 42
0.2
  3
txt.shx
  4

  0
STYLE
  5
262
330
3
100
AcDbSymbolTableRecord
100
AcDbTextStyleTableRecord
  2
CONVERTER_16
 70
     0
 40
0.0
 41
0.675
 50
0.0
 71
     0
 42
0.2
  3
txt.shx
  4

  0
STYLE
  5
28D
330
3
100
AcDbSymbolTableRecord
100
AcDbTextStyleTableRecord
  2
CONVERTER_17
 70
     0
 40
0.0
 41
0.81
 50
0.0
 71
     0
 42
0.2
  3
txt.shx
  4

  0
ENDTAB
  0
TABLE
  2
VIEW
  5
6
330
0
100
AcDbSymbolTable
 70
     0
  0
ENDTAB
  0
TABLE
  2
UCS
  5
7
330
0
100
AcDbSymbolTable
 70
     0
  0
ENDTAB
  0
TABLE
  2
APPID
  5
9
330
0
100
AcDbSymbolTable
 70
     1
  0
APPID
  5
12
330
9
100
AcDbSymbolTableRecord
100
AcDbRegAppTableRecord
  2
ACAD
 70
     0
  0
ENDTAB
  0
TABLE
  2
DIMSTYLE
  5
A
330
0
100
AcDbSymbolTable
 70
    23
100
AcDbDimStyleTable
  0
DIMSTYLE
105
27
330
A
100
AcDbSymbolTableRecord
100
AcDbDimStyleTableRecord
  2
Standard
 70
     0
340
11
  0
DIMSTYLE
105
165
102
{ACAD_REACTORS
330
166
102
}
330
A
100
AcDbSymbolTableRecord
100
AcDbDimStyleTableRecord
  2
ME10_DIM_10
 70
     0
  3
(<>)
 41
14.0
 42
0.0
 44
10.0
 47
1.0
 48
1.0
 71
     1
 73
     0
 74
     0
 77
     1
 78
     8
140
14.0
146
0.6
147
10.0
172
     1
173
     1
176
     3
177
     3
178
     4
271
     2
272
     0
340
161
  0
DIMSTYLE
105
170
102
{ACAD_REACTORS
330
171
102
}
330
A
100
AcDbSymbolTableRecord
100
AcDbDimStyleTableRecord
  2
ME10_DIM_11
 70
     0
  3
(<>)
 41
14.0
 42
0.0
 44
10.0
 47
0.2
 48
0.2
 71
     1
 73
     0
 74
     0
 77
     1
 78
     8
140
14.0
146
0.6
147
10.0
172
     1
173
     1
176
     3
177
     3
178
     4
271
     2
272
     1
340
161
  0
DIMSTYLE
105
17B
102
{ACAD_REACTORS
330
17C
102
}
330
A
100
AcDbSymbolTableRecord
100
AcDbDimStyleTableRecord
  2
ME10_DIM_12
 70
     0
 41
14.0
 42
0.0
 44
10.0
 47
1.0
 48
1.0
 71
     1
 73
     0
 74
     0
 77
     1
 78
     8
140
14.0
146
0.6
147
10.0
172
     1
173
     1
176
     3
177
     3
178
     4
271
     2
272
     0
340
161
  0
DIMSTYLE
105
187
102
{ACAD_REACTORS
330
188
102
}
330
A
100
AcDbSymbolTableRecord
100
AcDbDimStyleTableRecord
  2
ME10_DIM_13
 70
     0
 41
14.0
 42
0.0
 44
10.0
 47
0.2
 48
0.2
 71
     1
 73
     0
 74
     0
 77
     1
 78
     8
140
14.0
146
0.6
147
10.0
172
     1
173
     1
176
     3
177
     3
178
     4
271
     2
272
     1
340
161
  0
DIMSTYLE
105
192
102
{ACAD_REACTORS
330
193
102
}
330
A
100
AcDbSymbolTableRecord
100
AcDbDimStyleTableRecord
  2
ME10_DIM_14
 70
     0
  3
(<>)
 41
14.0
 42
0.0
 44
10.0
 47
1.0
 48
1.0
 71
     1
 73
     0
 74
     0
 77
     1
 78
     8
140
14.0
146
0.6
147
10.0
172
     1
173
     1
176
     3
177
     3
178
     4
271
     2
272
     0
340
161
  0
DIMSTYLE
105
19D
102
{ACAD_REACTORS
330
19E
102
}
330
A
100
AcDbSymbolTableRecord
100
AcDbDimStyleTableRecord
  2
ME10_DIM_15
 70
     0
  3
(<>)
 41
14.0
 42
0.0
 44
10.0
 47
0.2
 48
0.2
 71
     1
 73
     0
 74
     0
 77
     1
 78
     8
140
14.0
146
0.6
147
10.0
172
     1
173
     1
176
     3
177
     3
178
     4
271
     2
272
     1
340
161
  0
DIMSTYLE
105
1A8
102
{ACAD_REACTORS
330
1A9
102
}
330
A
100
AcDbSymbolTableRecord
100
AcDbDimStyleTableRecord
  2
ME10_DIM_16
 70
     0
 41
14.0
 42
0.0
 44
10.0
 47
1.0
 48
1.0
 71
     1
 73
     0
 74
     0
 77
     1
 78
     8
140
14.0
146
0.6
147
10.0
172
     1
173
     1
176
     3
177
     3
178
     4
271
     2
272
     0
340
161
  0
DIMSTYLE
105
1B4
102
{ACAD_REACTORS
330
1B5
102
}
330
A
100
AcDbSymbolTableRecord
100
AcDbDimStyleTableRecord
  2
ME10_DIM_17
 70
     0
 41
14.0
 42
0.0
 44
10.0
 47
0.2
 48
0.2
 71
     1
 73
     0
 74
     0
 77
     1
 78
     8
140
14.0
146
0.6
147
10.0
172
     1
173
     1
176
     3
177
     3
178
     4
271
     2
272
     1
340
161
  0
DIMSTYLE
105
3B7
102
{ACAD_REACTORS
330
3B8
102
}
330
A
100
AcDbSymbolTableRecord
100
AcDbDimStyleTableRecord
  2
ME10_DIM_18
 70
     0
 41
2.8
 42
0.0
 44
2.0
 73
     0
 74
     0
 77
     1
 78
     8
140
2.8
147
2.0
172
     1
173
     1
176
     3
177
     3
178
     4
271
     2
340
161
  0
DIMSTYLE
105
3C2
102
{ACAD_REACTORS
330
3C3
102
}
330
A
100
AcDbSymbolTableRecord
100
AcDbDimStyleTableRecord
  2
ME10_DIM_19
 70
     0
 41
2.8
 42
0.0
 44
2.0
 47
0.1
 48
0.1
 71
     1
 73
     0
 74
     0
 77
     1
 78
     8
140
2.8
146
0.6
147
2.0
172
     1
173
     1
176
     3
177
     3
178
     4
271
     2
272
     1
340
161
  0
DIMSTYLE
105
3CF
102
{ACAD_REACTORS
330
3D0
102
}
330
A
100
AcDbSymbolTableRecord
100
AcDbDimStyleTableRecord
  2
ME10_DIM_20
 70
     0
 41
2.8
 42
0.0
 44
2.0
 73
     0
 74
     0
 77
     1
 78
     8
140
2.8
147
2.0
172
     1
173
     1
176
     3
177
     3
178
     4
271
     2
340
161
  0
DIMSTYLE
105
3DB
102
{ACAD_REACTORS
330
3DC
102
}
330
A
100
AcDbSymbolTableRecord
100
AcDbDimStyleTableRecord
  2
ME10_DIM_21
 70
     0
  3
ø<>
 41
2.8
 42
0.0
 44
2.0
 73
     0
 74
     0
 77
     1
 78
     8
140
2.8
147
2.0
172
     1
173
     1
176
     3
177
     3
178
     4
271
     2
340
161
  0
DIMSTYLE
105
3E6
102
{ACAD_REACTORS
330
3E7
102
}
330
A
100
AcDbSymbolTableRecord
100
AcDbDimStyleTableRecord
  2
ME10_DIM_22
 70
     0
 41
2.8
 42
0.0
 44
2.0
 73
     0
 74
     0
 77
     1
 78
     8
140
2.8
147
2.0
172
     1
173
     1
176
     3
177
     3
178
     4
271
     2
340
161
  0
DIMSTYLE
105
3F3
102
{ACAD_REACTORS
330
3F4
102
}
330
A
100
AcDbSymbolTableRecord
100
AcDbDimStyleTableRecord
  2
ME10_DIM_23
 70
     0
 41
2.8
 42
0.0
 44
2.0
 73
     0
 74
     0
 77
     1
 78
     8
140
2.8
147
2.0
172
     1
173
     1
176
     3
177
     3
178
     4
271
     2
340
161
  0
DIMSTYLE
105
400
102
{ACAD_REACTORS
330
401
102
}
330
A
100
AcDbSymbolTableRecord
100
AcDbDimStyleTableRecord
  2
ME10_DIM_24
 70
     0
  3
M<>
 41
2.8
 42
0.0
 44
2.0
 73
     0
 74
     0
 77
     1
 78
     8
140
2.8
147
2.0
172
     1
173
     1
176
     3
177
     3
178
     4
271
     2
340
161
  0
DIMSTYLE
105
40D
102
{ACAD_REACTORS
330
40E
102
}
330
A
100
AcDbSymbolTableRecord
100
AcDbDimStyleTableRecord
  2
ME10_DIM_25
 70
     0
  3
ø<>
 41
2.8
 42
0.0
 44
2.0
 73
     0
 74
     0
 77
     1
 78
     8
140
2.8
147
2.0
172
     1
173
     1
176
     3
177
     3
178
     4
271
     2
340
161
  0
DIMSTYLE
105
418
102
{ACAD_REACTORS
330
419
102
}
330
A
100
AcDbSymbolTableRecord
100
AcDbDimStyleTableRecord
  2
ME10_DIM_26
 70
     0
 41
3.5
 42
0.0
 44
2.0
 47
0.5
 48
0.5
 71
     1
 73
     0
 74
     0
 77
     1
 78
     8
140
3.5
146
0.6
147
2.0
172
     1
173
     1
176
     3
177
     3
178
     4
271
     2
272
     1
340
161
  0
DIMSTYLE
105
425
102
{ACAD_REACTORS
330
426
102
}
330
A
100
AcDbSymbolTableRecord
100
AcDbDimStyleTableRecord
  2
ME10_DIM_27
 70
     0
 41
2.8
 42
0.0
 44
2.0
 73
     0
 74
     0
 77
     1
 78
     8
140
2.8
147
2.0
172
     1
173
     1
176
     3
177
     3
178
     4
271
     2
340
161
  0
DIMSTYLE
105
430
102
{ACAD_REACTORS
330
431
102
}
330
A
100
AcDbSymbolTableRecord
100
AcDbDimStyleTableRecord
  2
ME10_DIM_28
 70
     0
 41
2.8
 42
0.0
 44
2.0
 73
     0
 74
     0
 77
     1
 78
     8
140
2.8
147
2.0
172
     1
173
     1
176
     3
177
     3
178
     4
271
     2
340
161
  0
DIMSTYLE
105
43B
102
{ACAD_REACTORS
330
43C
102
}
330
A
100
AcDbSymbolTableRecord
100
AcDbDimStyleTableRecord
  2
ME10_DIM_29
 70
     0
 41
3.5
 42
0.0
 44
2.0
 47
0.2
 48
0.2
 71
     1
 73
     0
 74
     0
 77
     1
 78
     8
140
3.5
146
0.6
147
2.0
172
     1
173
     1
176
     3
177
     3
178
     4
271
     2
272
     1
340
161
  0
DIMSTYLE
105
446
102
{ACAD_REACTORS
330
447
102
}
330
A
100
AcDbSymbolTableRecord
100
AcDbDimStyleTableRecord
  2
ME10_DIM_30
 70
     0
 41
3.5
 42
0.0
 44
2.0
 47
1.0
 48
1.0
 71
     1
 73
     0
 74
     0
 77
     1
 78
     8
140
3.5
146
0.6
147
2.0
172
     1
173
     1
176
     3
177
     3
178
     4
271
     2
272
     0
340
161
  0
DIMSTYLE
105
453
102
{ACAD_REACTORS
330
454
102
}
330
A
100
AcDbSymbolTableRecord
100
AcDbDimStyleTableRecord
  2
ME10_DIM_31
 70
     0
 41
2.8
 42
0.0
 44
2.0
 73
     0
 74
     0
 77
     1
 78
     8
140
2.8
147
2.0
172
     1
173
     1
176
     3
177
     3
178
     4
271
     2
340
161
  0
ENDTAB
  0
TABLE
  2
BLOCK_RECORD
  5
1
330
0
100
AcDbSymbolTable
 70
    26
  0
BLOCK_RECORD
  5
1F
330
1
100
AcDbSymbolTableRecord
100
AcDbBlockTableRecord
  2
*Model_Space
340
22
  0
BLOCK_RECORD
  5
1B
330
1
100
AcDbSymbolTableRecord
100
AcDbBlockTableRecord
  2
*Paper_Space
340
1E
  0
BLOCK_RECORD
  5
23
330
1
100
AcDbSymbolTableRecord
100
AcDbBlockTableRecord
  2
*Paper_Space0
340
26
  0
BLOCK_RECORD
  5
33
330
1
100
AcDbSymbolTableRecord
100
AcDbBlockTableRecord
  2
SYMB
340
0
102
{BLKREFS
331
3D
102
}
  0
BLOCK_RECORD
  5
36
330
1
100
AcDbSymbolTableRecord
100
AcDbBlockTableRecord
  2
a4kl
340
0
102
{BLKREFS
331
3A
102
}
  0
BLOCK_RECORD
  5
39
330
1
100
AcDbSymbolTableRecord
100
AcDbBlockTableRecord
  2
rahmen
340
0
102
{BLKREFS
331
3E
102
}
  0
BLOCK_RECORD
  5
15B
330
1
100
AcDbSymbolTableRecord
100
AcDbBlockTableRecord
  2
*D4
340
0
  0
BLOCK_RECORD
  5
167
330
1
100
AcDbSymbolTableRecord
100
AcDbBlockTableRecord
  2
*D5
340
0
  0
BLOCK_RECORD
  5
172
330
1
100
AcDbSymbolTableRecord
100
AcDbBlockTableRecord
  2
*D6
340
0
  0
BLOCK_RECORD
  5
17D
330
1
100
AcDbSymbolTableRecord
100
AcDbBlockTableRecord
  2
*D7
340
0
  0
BLOCK_RECORD
  5
189
330
1
100
AcDbSymbolTableRecord
100
AcDbBlockTableRecord
  2
*D8
340
0
  0
BLOCK_RECORD
  5
194
330
1
100
AcDbSymbolTableRecord
100
AcDbBlockTableRecord
  2
*D9
340
0
  0
BLOCK_RECORD
  5
19F
330
1
100
AcDbSymbolTableRecord
100
AcDbBlockTableRecord
  2
*D10
340
0
  0
BLOCK_RECORD
  5
1AA
330
1
100
AcDbSymbolTableRecord
100
AcDbBlockTableRecord
  2
*D11
340
0
  0
BLOCK_RECORD
  5
3AE
330
1
100
AcDbSymbolTableRecord
100
AcDbBlockTableRecord
  2
*D12
340
0
  0
BLOCK_RECORD
  5
3B9
330
1
100
AcDbSymbolTableRecord
100
AcDbBlockTableRecord
  2
*D13
340
0
  0
BLOCK_RECORD
  5
3C4
330
1
100
AcDbSymbolTableRecord
100
AcDbBlockTableRecord
  2
*D14
340
0
  0
BLOCK_RECORD
  5
3D1
330
1
100
AcDbSymbolTableRecord
100
AcDbBlockTableRecord
  2
*D15
340
0
  0
BLOCK_RECORD
  5
3DD
330
1
100
AcDbSymbolTableRecord
100
AcDbBlockTableRecord
  2
*D16
340
0
  0
BLOCK_RECORD
  5
3E8
330
1
100
AcDbSymbolTableRecord
100
AcDbBlockTableRecord
  2
*D17
340
0
  0
BLOCK_RECORD
  5
3F5
330
1
100
AcDbSymbolTableRecord
100
AcDbBlockTableRecord
  2
*D18
340
0
  0
BLOCK_RECORD
  5
402
330
1
100
AcDbSymbolTableRecord
100
AcDbBlockTableRecord
  2
*D19
340
0
  0
BLOCK_RECORD
  5
40F
330
1
100
AcDbSymbolTableRecord
100
AcDbBlockTableRecord
  2
*D20
340
0
  0
BLOCK_RECORD
  5
41A
330
1
100
AcDbSymbolTableRecord
100
AcDbBlockTableRecord
  2
*D21
340
0
  0
BLOCK_RECORD
  5
427
330
1
100
AcDbSymbolTableRecord
100
AcDbBlockTableRecord
  2
*D22
340
0
  0
BLOCK_RECORD
  5
432
330
1
100
AcDbSymbolTableRecord
100
AcDbBlockTableRecord
  2
*D23
340
0
  0
BLOCK_RECORD
  5
43D
330
1
100
AcDbSymbolTableRecord
100
AcDbBlockTableRecord
  2
*D24
340
0
  0
BLOCK_RECORD
  5
448
330
1
100
AcDbSymbolTableRecord
100
AcDbBlockTableRecord
  2
*D25
340
0
  0
ENDTAB
  0
ENDSEC
  0
SECTION
  2
BLOCKS
  0
BLOCK
  5
20
330
1F
100
AcDbEntity
  8
0
100
AcDbBlockBegin
  2
*Model_Space
 70
     0
 71
     0
 10
0.0
 20
0.0
 30
0.0
  3
*Model_Space
  1

  0
ENDBLK
  5
21
330
1F
100
AcDbEntity
  8
0
100
AcDbBlockEnd
  0
BLOCK
  5
1C
330
1B
100
AcDbEntity
 67
     1
  8
0
100
AcDbBlockBegin
  2
*Paper_Space
 70
     0
 71
     0
 10
0.0
 20
0.0
 30
0.0
  3
*Paper_Space
  1

  0
ENDBLK
  5
1D
330
1B
100
AcDbEntity
 67
     1
  8
0
100
AcDbBlockEnd
  0
BLOCK
  5
24
330
23
100
AcDbEntity
  8
0
100
AcDbBlockBegin
  2
*Paper_Space0
 70
     0
 71
     0
 10
0.0
 20
0.0
 30
0.0
  3
*Paper_Space0
  1

  0
ENDBLK
  5
25
330
23
100
AcDbEntity
  8
0
100
AcDbBlockEnd
  0
BLOCK
  5
34
330
33
100
AcDbEntity
  8
0
100
AcDbBlockBegin
  2
SYMB
 70
     0
 71
     0
 10
6822.085127792411
 20
-2273.69366633196
 30
0.0
  3
SYMB
  1

  0
LINE
  5
3F
330
33
100
AcDbEntity
  8
1
  6
Continuous
 62
     4
100
AcDbLine
 10
7381.097210189418
 20
-2319.491825951949
 30
0.0
 11
7381.097210189418
 21
-2349.491825951949
 31
0.0
  0
LINE
  5
40
330
33
100
AcDbEntity
  8
0
  6
Continuous
 62
     3
100
AcDbLine
 10
7407.640900809461
 20
-2335.591912094268
 30
0.0
 11
7408.179258878557
 21
-2336.130485127976
 31
0.0
  0
LINE
  5
41
330
33
100
AcDbEntity
  8
1
  6
Continuous
 62
     3
100
AcDbLine
 10
7381.097210189419
 20
-2335.591912094268
 30
0.0
 11
7407.640900809461
 21
-2335.591912094268
 31
0.0
  0
LINE
  5
42
330
33
100
AcDbEntity
  8
1
  6
DOT_CENTER
 62
     3
100
AcDbLine
 10
7352.697127792409
 20
-2403.298317837094
 30
0.0
 11
7352.697127792409
 21
-2417.6853340668
 31
0.0
  0
LINE
  5
43
330
33
100
AcDbEntity
  8
1
  6
DOT_CENTER
 62
     3
100
AcDbLine
 10
7345.503619677557
 20
-2410.491825951947
 30
0.0
 11
7359.890635907263
 21
-2410.491825951947
 31
0.0
  0
LINE
  5
44
330
33
100
AcDbEntity
  8
1
  6
Continuous
 62
     3
100
AcDbLine
 10
7354.815799795968
 20
-2408.373153948392
 30
0.0
 11
7350.578455788856
 21
-2412.610497955503
 31
0.0
  0
LINE
  5
45
330
33
100
AcDbEntity
  8
1
  6
Continuous
 62
     3
100
AcDbLine
 10
7350.578455788856
 20
-2408.373153948392
 30
0.0
 11
7354.815799795968
 21
-2412.610497955503
 31
0.0
  0
LINE
  5
46
330
33
100
AcDbEntity
  8
1
  6
DOT_CENTER
 62
     3
100
AcDbLine
 10
7352.697127792409
 20
-2387.298317837094
 30
0.0
 11
7352.697127792409
 21
-2401.6853340668
 31
0.0
  0
LINE
  5
47
330
33
100
AcDbEntity
  8
1
  6
DOT_CENTER
 62
     3
100
AcDbLine
 10
7345.503619677557
 20
-2394.491825951947
 30
0.0
 11
7359.890635907263
 21
-2394.491825951947
 31
0.0
  0
LINE
  5
48
330
33
100
AcDbEntity
  8
1
  6
Continuous
 62
     3
100
AcDbLine
 10
7354.815799795968
 20
-2392.373153948392
 30
0.0
 11
7350.578455788856
 21
-2396.610497955503
 31
0.0
  0
LINE
  5
49
330
33
100
AcDbEntity
  8
1
  6
Continuous
 62
     3
100
AcDbLine
 10
7350.578455788856
 20
-2392.373153948392
 30
0.0
 11
7354.815799795968
 21
-2396.610497955503
 31
0.0
  0
LINE
  5
4A
330
33
100
AcDbEntity
  8
1
  6
DOT_CENTER
 62
     3
100
AcDbLine
 10
7512.697127792409
 20
-2403.298317837094
 30
0.0
 11
7512.697127792409
 21
-2417.6853340668
 31
0.0
  0
LINE
  5
4B
330
33
100
AcDbEntity
  8
1
  6
DOT_CENTER
 62
     3
100
AcDbLine
 10
7505.503619677557
 20
-2410.491825951947
 30
0.0
 11
7519.890635907263
 21
-2410.491825951947
 31
0.0
  0
LINE
  5
4C
330
33
100
AcDbEntity
  8
1
  6
Continuous
 62
     3
100
AcDbLine
 10
7514.815799795968
 20
-2408.373153948392
 30
0.0
 11
7510.578455788856
 21
-2412.610497955503
 31
0.0
  0
LINE
  5
4D
330
33
100
AcDbEntity
  8
1
  6
Continuous
 62
     3
100
AcDbLine
 10
7510.578455788856
 20
-2408.373153948392
 30
0.0
 11
7514.815799795968
 21
-2412.610497955503
 31
0.0
  0
LINE
  5
4E
330
33
100
AcDbEntity
  8
1
  6
DOT_CENTER
 62
     3
100
AcDbLine
 10
7512.697127792414
 20
-2387.298317837094
 30
0.0
 11
7512.697127792414
 21
-2401.6853340668
 31
0.0
  0
LINE
  5
4F
330
33
100
AcDbEntity
  8
1
  6
DOT_CENTER
 62
     3
100
AcDbLine
 10
7505.503619677562
 20
-2394.491825951947
 30
0.0
 11
7519.890635907267
 21
-2394.491825951947
 31
0.0
  0
LINE
  5
50
330
33
100
AcDbEntity
  8
1
  6
Continuous
 62
     3
100
AcDbLine
 10
7514.815799795974
 20
-2392.373153948392
 30
0.0
 11
7510.578455788861
 21
-2396.610497955503
 31
0.0
  0
LINE
  5
51
330
33
100
AcDbEntity
  8
1
  6
Continuous
 62
     3
100
AcDbLine
 10
7510.578455788861
 20
-2392.373153948392
 30
0.0
 11
7514.815799795974
 21
-2396.610497955503
 31
0.0
  0
LINE
  5
52
330
33
100
AcDbEntity
  8
1
  6
Continuous
 62
     1
100
AcDbLine
 10
7242.469127792414
 20
-2327.491825951946
 30
0.0
 11
7381.097210189418
 21
-2327.491825951946
 31
0.0
  0
LINE
  5
53
330
33
100
AcDbEntity
  8
1
  6
DASH_CENTER
 62
     3
100
AcDbLine
 10
7242.469127792414
 20
-2316.599319185161
 30
0.0
 11
7242.469127792414
 21
-2490.449319185162
 31
0.0
  0
LINE
  5
54
330
33
100
AcDbEntity
  8
1
  6
DASH_CENTER
 62
     3
100
AcDbLine
 10
7242.469127792414
 20
-2490.449319185162
 30
0.0
 11
7682.809127792415
 21
-2490.449319185162
 31
0.0
  0
LINE
  5
55
330
33
100
AcDbEntity
  8
1
  6
Continuous
 62
     1
100
AcDbLine
 10
7242.469127792414
 20
-2352.491825951946
 30
0.0
 11
7454.597296331739
 21
-2352.491825951946
 31
0.0
  0
LINE
  5
56
330
33
100
AcDbEntity
  8
1
  6
Continuous
 62
     1
100
AcDbLine
 10
7439.097210189418
 20
-2327.491825951946
 30
0.0
 11
7666.697127792414
 21
-2327.491825951946
 31
0.0
  0
LINE
  5
57
330
33
100
AcDbEntity
  8
1
  6
Continuous
 62
     1
100
AcDbLine
 10
7474.597397455335
 20
-2352.491825951946
 30
0.0
 11
7641.697127792414
 21
-2352.491825951946
 31
0.0
  0
LINE
  5
58
330
33
100
AcDbEntity
  8
1
  6
Continuous
 62
     1
100
AcDbLine
 10
7641.697127792414
 20
-2490.449319185162
 30
0.0
 11
7641.697127792414
 21
-2352.491825951946
 31
0.0
  0
LINE
  5
59
330
33
100
AcDbEntity
  8
1
  6
Continuous
 62
     1
100
AcDbLine
 10
7666.697127792414
 20
-2490.449319185162
 30
0.0
 11
7666.697127792414
 21
-2327.491825951946
 31
0.0
  0
LINE
  5
5A
330
33
100
AcDbEntity
  8
1
  6
Continuous
 62
     1
100
AcDbLine
 10
7641.697127792414
 20
-2352.491825951946
 30
0.0
 11
7666.697127792414
 21
-2327.491825951946
 31
0.0
  0
LINE
  5
5B
330
33
100
AcDbEntity
  8
1
  6
Continuous
 62
     4
100
AcDbLine
 10
7439.097210189418
 20
-2349.491825951949
 30
0.0
 11
7439.097210189418
 21
-2344.492073142957
 31
0.0
  0
LINE
  5
5C
330
33
100
AcDbEntity
  8
1
  6
DOT_CENTER
 62
     3
100
AcDbLine
 10
7425.397210189417
 20
-2342.491825951949
 30
0.0
 11
7439.797210189417
 21
-2342.491825951949
 31
0.0
  0
LINE
  5
5D
330
33
100
AcDbEntity
  8
1
  6
Continuous
 62
     4
100
AcDbLine
 10
7385.478538185862
 20
-2340.373153948393
 30
0.0
 11
7389.715882192971
 21
-2344.610497955504
 31
0.0
  0
LINE
  5
5E
330
33
100
AcDbEntity
  8
1
  6
Continuous
 62
     4
100
AcDbLine
 10
7389.715882192971
 20
-2340.373153948393
 30
0.0
 11
7385.478538185862
 21
-2344.610497955504
 31
0.0
  0
LINE
  5
5F
330
33
100
AcDbEntity
  8
1
  6
DOT_CENTER
 62
     3
100
AcDbLine
 10
7432.597210189418
 20
-2335.291825951948
 30
0.0
 11
7432.597210189418
 21
-2349.691825951949
 31
0.0
  0
LINE
  5
60
330
33
100
AcDbEntity
  8
1
  6
DOT_CENTER
 62
     3
100
AcDbLine
 10
7387.597210189418
 20
-2335.291825951948
 30
0.0
 11
7387.597210189418
 21
-2349.691825951949
 31
0.0
  0
LINE
  5
61
330
33
100
AcDbEntity
  8
1
  6
DOT_CENTER
 62
     3
100
AcDbLine
 10
7380.397210189417
 20
-2342.491825951949
 30
0.0
 11
7394.797210189418
 21
-2342.491825951949
 31
0.0
  0
LINE
  5
62
330
33
100
AcDbEntity
  8
1
  6
Continuous
 62
     4
100
AcDbLine
 10
7381.097210189418
 20
-2349.491825951949
 30
0.0
 11
7439.097210189418
 21
-2349.491825951949
 31
0.0
  0
LINE
  5
63
330
33
100
AcDbEntity
  8
1
  6
Continuous
 62
     4
100
AcDbLine
 10
7439.097210189418
 20
-2338.491882131721
 30
0.0
 11
7439.097210189418
 21
-2319.491825951949
 31
0.0
  0
LINE
  5
64
330
33
100
AcDbEntity
  8
1
  6
Continuous
 62
     4
100
AcDbLine
 10
7381.097210189418
 20
-2319.491825951949
 30
0.0
 11
7439.097210189418
 21
-2319.491825951949
 31
0.0
  0
LINE
  5
65
330
33
100
AcDbEntity
  8
1
  6
Continuous
 62
     4
100
AcDbLine
 10
7643.697127792414
 20
-2457.015363119173
 30
0.0
 11
7665.697127792414
 21
-2457.015363119173
 31
0.0
  0
LINE
  5
66
330
33
100
AcDbEntity
  8
1
  6
DOT_CENTER
 62
     3
100
AcDbLine
 10
7654.697127792414
 20
-2490.449319185162
 30
0.0
 11
7654.697127792414
 21
-2440.515363119173
 31
0.0
  0
LINE
  5
67
330
33
100
AcDbEntity
  8
1
  6
Continuous
 62
     4
100
AcDbLine
 10
7643.697127792414
 20
-2490.449319185162
 30
0.0
 11
7643.697127792414
 21
-2457.015363119173
 31
0.0
  0
LINE
  5
68
330
33
100
AcDbEntity
  8
1
  6
Continuous
 62
     4
100
AcDbLine
 10
7665.697127792414
 20
-2490.449319185162
 30
0.0
 11
7665.697127792414
 21
-2457.015363119173
 31
0.0
  0
LINE
  5
69
330
33
100
AcDbEntity
  8
1
  6
Continuous
 62
     3
100
AcDbLine
 10
7544.697127792414
 20
-2419.241947951946
 30
0.0
 11
7544.697127792414
 21
-2359.241825951946
 31
0.0
  0
LINE
  5
6A
330
33
100
AcDbEntity
  8
1
  6
Continuous
 62
     3
100
AcDbLine
 10
7544.697127792414
 20
-2359.241825951946
 30
0.0
 11
7257.697127792414
 21
-2359.241825951946
 31
0.0
  0
LINE
  5
6B
330
33
100
AcDbEntity
  8
1
  6
Continuous
 62
     3
100
AcDbLine
 10
7257.697127792414
 20
-2359.241825951946
 30
0.0
 11
7257.697127792414
 21
-2419.241947951946
 31
0.0
  0
LINE
  5
6C
330
33
100
AcDbEntity
  8
1
  6
Continuous
 62
     3
100
AcDbLine
 10
7257.697127792414
 20
-2419.241947951946
 30
0.0
 11
7544.697127792414
 21
-2419.241947951946
 31
0.0
  0
LINE
  5
6D
330
33
100
AcDbEntity
  8
0
  6
Continuous
 62
     3
100
AcDbLine
 10
7454.597296331739
 20
-2344.491844678538
 30
0.0
 11
7454.597296331739
 21
-2359.241825951946
 31
0.0
  0
LINE
  5
6E
330
33
100
AcDbEntity
  8
0
  6
DASH_CENTER
 62
     3
100
AcDbLine
 10
7464.697127792414
 20
-2328.921069153786
 30
0.0
 11
7464.697127792414
 21
-2371.476927075541
 31
0.0
  0
LINE
  5
6F
330
33
100
AcDbEntity
  8
0
  6
Continuous
 62
     3
100
AcDbLine
 10
7422.347416181925
 20
-2321.391979509998
 30
0.0
 11
7439.097337530245
 21
-2321.391979509998
 31
0.0
  0
LINE
  5
70
330
33
100
AcDbEntity
  8
0
  6
Continuous
 62
     3
100
AcDbLine
 10
7381.09725138792
 20
-2321.391979509998
 30
0.0
 11
7410.847206444098
 21
-2321.391979509998
 31
0.0
  0
LINE
  5
71
330
33
100
AcDbEntity
  8
0
  6
Continuous
 62
     4
100
AcDbLine
 10
7381.09725138792
 20
-2337.591897112995
 30
0.0
 11
7381.09725138792
 21
-2321.391979509998
 31
0.0
  0
LINE
  5
72
330
33
100
AcDbEntity
  8
0
  6
Continuous
 62
     3
100
AcDbLine
 10
7412.097397455335
 20
-2337.591897112995
 30
0.0
 11
7381.09725138792
 21
-2337.591897112995
 31
0.0
  0
LINE
  5
73
330
33
100
AcDbEntity
  8
0
  6
Continuous
 62
     3
100
AcDbLine
 10
7439.097337530245
 20
-2337.591897112995
 30
0.0
 11
7421.097225170693
 21
-2337.591897112995
 31
0.0
  0
LINE
  5
74
330
33
100
AcDbEntity
  8
0
  6
Continuous
 62
     4
100
AcDbLine
 10
7439.097337530245
 20
-2321.391979509998
 30
0.0
 11
7439.097337530245
 21
-2337.591897112995
 31
0.0
  0
LINE
  5
75
330
33
100
AcDbEntity
  8
0
  6
Continuous
 62
     3
100
AcDbLine
 10
7422.347416181925
 20
-2323.391968274043
 30
0.0
 11
7439.097337530245
 21
-2323.391968274043
 31
0.0
  0
LINE
  5
76
330
33
100
AcDbEntity
  8
0
  6
Continuous
 62
     3
100
AcDbLine
 10
7381.09725138792
 20
-2323.391968274043
 30
0.0
 11
7410.847206444098
 21
-2323.391968274043
 31
0.0
  0
LINE
  5
77
330
33
100
AcDbEntity
  8
0
  6
Continuous
 62
     3
100
AcDbLine
 10
7439.097337530245
 20
-2335.591912094268
 30
0.0
 11
7425.554850638857
 21
-2335.591912094268
 31
0.0
  0
LINE
  5
78
330
33
100
AcDbEntity
  8
0
  6
Continuous
 62
     3
100
AcDbLine
 10
7474.597397455335
 20
-2359.241825951946
 30
0.0
 11
7474.597397455335
 21
-2344.492073142957
 31
0.0
  0
LINE
  5
79
330
33
100
AcDbEntity
  8
0
  6
Continuous
 62
     3
100
AcDbLine
 10
7405.597266369195
 20
-2344.492073142957
 30
0.0
 11
7475.597277605147
 21
-2344.492073142957
 31
0.0
  0
LINE
  5
7A
330
33
100
AcDbEntity
  8
0
  6
Continuous
 62
     3
100
AcDbLine
 10
7405.597266369195
 20
-2344.492073142957
 30
0.0
 11
7405.597266369195
 21
-2338.491882131721
 31
0.0
  0
LINE
  5
7B
330
33
100
AcDbEntity
  8
0
  6
Continuous
 62
     3
100
AcDbLine
 10
7475.597277605147
 20
-2338.491882131721
 30
0.0
 11
7405.597266369195
 21
-2338.491882131721
 31
0.0
  0
LINE
  5
7C
330
33
100
AcDbEntity
  8
0
  6
Continuous
 62
     3
100
AcDbLine
 10
7475.597277605147
 20
-2344.492073142957
 30
0.0
 11
7475.597277605147
 21
-2338.491882131721
 31
0.0
  0
LINE
  5
7D
330
33
100
AcDbEntity
  8
0
  6
Continuous
 62
     3
100
AcDbLine
 10
7407.597712062076
 20
-2327.491837187901
 30
0.0
 11
7407.597712062076
 21
-2335.548706101758
 31
0.0
  0
LINE
  5
7E
330
33
100
AcDbEntity
  8
0
  6
Continuous
 62
     3
100
AcDbLine
 10
7407.886427417882
 20
-2326.991668648576
 30
0.0
 11
7407.597712062076
 21
-2327.491837187901
 31
0.0
  0
LINE
  5
7F
330
33
100
AcDbEntity
  8
0
  6
Continuous
 62
     3
100
AcDbLine
 10
7425.01536374747
 20
-2336.130713592396
 30
0.0
 11
7425.59782442163
 21
-2335.548934566178
 31
0.0
  0
LINE
  5
80
330
33
100
AcDbEntity
  8
0
  6
Continuous
 62
     3
100
AcDbLine
 10
7422.447315058332
 20
-2336.491664903258
 30
0.0
 11
7425.01536374747
 21
-2336.130713592396
 31
0.0
  0
LINE
  5
81
330
33
100
AcDbEntity
  8
0
  6
Continuous
 62
     3
100
AcDbLine
 10
7408.179258878557
 20
-2336.130485127976
 30
0.0
 11
7410.747307567694
 21
-2336.491664903258
 31
0.0
  0
LINE
  5
82
330
33
100
AcDbEntity
  8
0
  6
Continuous
 62
     3
100
AcDbLine
 10
7407.597712062076
 20
-2335.548706101758
 30
0.0
 11
7407.640900809461
 21
-2335.591912094268
 31
0.0
  0
LINE
  5
83
330
33
100
AcDbEntity
  8
0
  6
Continuous
 62
     3
100
AcDbLine
 10
7422.447315058332
 20
-2336.491664903258
 30
0.0
 11
7410.747307567694
 21
-2336.491664903258
 31
0.0
  0
LINE
  5
84
330
33
100
AcDbEntity
  8
0
  6
Continuous
 62
     3
100
AcDbLine
 10
7425.01536374747
 20
-2336.130713592396
 30
0.0
 11
7408.179258878557
 21
-2336.130485127976
 31
0.0
  0
LINE
  5
85
330
33
100
AcDbEntity
  8
0
  6
Continuous
 62
     3
100
AcDbLine
 10
7425.59782442163
 20
-2335.548934566178
 30
0.0
 11
7407.597712062076
 21
-2335.548706101758
 31
0.0
  0
LINE
  5
86
330
33
100
AcDbEntity
  8
0
  6
Continuous
 62
     3
100
AcDbLine
 10
7421.097225170693
 20
-2336.491664903258
 30
0.0
 11
7421.097225170693
 21
-2338.491882131721
 31
0.0
  0
LINE
  5
87
330
33
100
AcDbEntity
  8
0
  6
Continuous
 62
     3
100
AcDbLine
 10
7412.097397455335
 20
-2336.491664903258
 30
0.0
 11
7412.097397455335
 21
-2338.491882131721
 31
0.0
  0
LINE
  5
88
330
33
100
AcDbEntity
  8
0
  6
Continuous
 62
     3
100
AcDbLine
 10
7419.847262623875
 20
-2345.491949547452
 30
0.0
 11
7413.347360002153
 21
-2345.491949547452
 31
0.0
  0
LINE
  5
89
330
33
100
AcDbEntity
  8
0
  6
DASH_CENTER
 62
     3
100
AcDbLine
 10
7413.347360002153
 20
-2345.491949547452
 30
0.0
 11
7412.34679445908
 21
-2344.492073142957
 31
0.0
  0
LINE
  5
8A
330
33
100
AcDbEntity
  8
0
  6
Continuous
 62
     3
100
AcDbLine
 10
7419.847262623875
 20
-2345.491949547452
 30
0.0
 11
7420.84691056395
 21
-2344.492073142957
 31
0.0
  0
LINE
  5
8B
330
33
100
AcDbEntity
  8
0
  6
Continuous
 62
     3
100
AcDbLine
 10
7425.59782442163
 20
-2333.691593742208
 30
0.0
 11
7425.697491088294
 21
-2333.691593742208
 31
0.0
  0
LINE
  5
8C
330
33
100
AcDbEntity
  8
0
  6
Continuous
 62
     3
100
AcDbLine
 10
7407.497356256833
 20
-2333.691593742208
 30
0.0
 11
7407.597712062076
 21
-2333.691593742208
 31
0.0
  0
LINE
  5
8D
330
33
100
AcDbEntity
  8
0
  6
Continuous
 62
     3
100
AcDbLine
 10
7427.197311313013
 20
-2332.191773517489
 30
0.0
 11
7427.197311313013
 21
-2326.991668648576
 31
0.0
  0
LINE
  5
8E
330
33
100
AcDbEntity
  8
0
  6
Continuous
 62
     3
100
AcDbLine
 10
7405.997539777431
 20
-2332.191773517489
 30
0.0
 11
7405.997539777431
 21
-2326.991668648576
 31
0.0
  0
LINE
  5
8F
330
33
100
AcDbEntity
  8
0
  6
Continuous
 62
     3
100
AcDbLine
 10
7425.697491088294
 20
-2325.491852169174
 30
0.0
 11
7407.497356256833
 21
-2325.491852169174
 31
0.0
  0
LINE
  5
90
330
33
100
AcDbEntity
  8
0
  6
Continuous
 62
     3
100
AcDbLine
 10
7425.372427417881
 20
-2326.991668648576
 30
0.0
 11
7425.372427417881
 21
-2325.491852169174
 31
0.0
  0
LINE
  5
91
330
33
100
AcDbEntity
  8
0
  6
Continuous
 62
     3
100
AcDbLine
 10
7407.822419927245
 20
-2326.991668648576
 30
0.0
 11
7407.822419927245
 21
-2325.491852169174
 31
0.0
  0
LINE
  5
92
330
33
100
AcDbEntity
  8
0
  6
Continuous
 62
     3
100
AcDbLine
 10
7425.59782442163
 20
-2327.491837187901
 30
0.0
 11
7425.59782442163
 21
-2335.548934566178
 31
0.0
  0
LINE
  5
93
330
33
100
AcDbEntity
  8
0
  6
Continuous
 62
     3
100
AcDbLine
 10
7425.59782442163
 20
-2327.491837187901
 30
0.0
 11
7407.597712062076
 21
-2327.491837187901
 31
0.0
  0
LINE
  5
94
330
33
100
AcDbEntity
  8
0
  6
Continuous
 62
     3
100
AcDbLine
 10
7425.309337530241
 20
-2326.991668648576
 30
0.0
 11
7425.59782442163
 21
-2327.491837187901
 31
0.0
  0
LINE
  5
95
330
33
100
AcDbEntity
  8
0
  6
Continuous
 62
     3
100
AcDbLine
 10
7425.697491088294
 20
-2333.691593742208
 30
0.0
 11
7425.697491088294
 21
-2325.491852169174
 31
0.0
  0
LINE
  5
96
330
33
100
AcDbEntity
  8
0
  6
Continuous
 62
     3
100
AcDbLine
 10
7407.497356256833
 20
-2333.691593742208
 30
0.0
 11
7407.497356256833
 21
-2325.491852169174
 31
0.0
  0
LINE
  5
97
330
33
100
AcDbEntity
  8
0
  6
Continuous
 62
     3
100
AcDbLine
 10
7407.49781693099
 20
-2326.991668648576
 30
0.0
 11
7425.697723298031
 21
-2326.991668648576
 31
0.0
  0
LINE
  5
98
330
33
100
AcDbEntity
  8
0
  6
Continuous
 62
     3
100
AcDbLine
 10
7423.347296331739
 20
-2324.741825951946
 30
0.0
 11
7423.347296331739
 21
-2325.491852169174
 31
0.0
  0
LINE
  5
99
330
33
100
AcDbEntity
  8
0
  6
Continuous
 62
     3
100
AcDbLine
 10
7409.847326294291
 20
-2324.741825951946
 30
0.0
 11
7423.347296331739
 21
-2324.741825951946
 31
0.0
  0
LINE
  5
9A
330
33
100
AcDbEntity
  8
0
  6
Continuous
 62
     3
100
AcDbLine
 10
7409.847326294291
 20
-2325.491852169174
 30
0.0
 11
7409.847326294291
 21
-2324.741825951946
 31
0.0
  0
LINE
  5
9B
330
33
100
AcDbEntity
  8
0
  6
Continuous
 62
     3
100
AcDbLine
 10
7422.347416181925
 20
-2320.262028199138
 30
0.0
 11
7422.347416181925
 21
-2323.741488873295
 31
0.0
  0
LINE
  5
9C
330
33
100
AcDbEntity
  8
0
  6
Continuous
 62
     3
100
AcDbLine
 10
7422.347416181925
 20
-2323.741488873295
 30
0.0
 11
7423.347296331739
 21
-2324.741825951946
 31
0.0
  0
LINE
  5
9D
330
33
100
AcDbEntity
  8
0
  6
Continuous
 62
     3
100
AcDbLine
 10
7410.847206444098
 20
-2323.741717337714
 30
0.0
 11
7409.847326294291
 21
-2324.741825951946
 31
0.0
  0
LINE
  5
9E
330
33
100
AcDbEntity
  8
0
  6
Continuous
 62
     3
100
AcDbLine
 10
7410.847206444098
 20
-2323.741717337714
 30
0.0
 11
7422.347416181925
 21
-2323.741488873295
 31
0.0
  0
LINE
  5
9F
330
33
100
AcDbEntity
  8
0
  6
Continuous
 62
     3
100
AcDbLine
 10
7410.847206444098
 20
-2320.262028199138
 30
0.0
 11
7410.847206444098
 21
-2323.741717337714
 31
0.0
  0
LINE
  5
A0
330
33
100
AcDbEntity
  8
0
  6
Continuous
 62
     3
100
AcDbLine
 10
7416.597311313018
 20
-2323.741945802133
 30
0.0
 11
7416.597311313018
 21
-2320.262028199138
 31
0.0
  0
LINE
  5
A1
330
33
100
AcDbEntity
  8
0
  6
Continuous
 62
     3
100
AcDbLine
 10
7411.597228916014
 20
-2319.491661157938
 30
0.0
 11
7421.597393710022
 21
-2319.491661157938
 31
0.0
  0
LINE
  5
A2
330
33
100
AcDbEntity
  8
0
  6
Continuous
 62
     3
100
AcDbLine
 10
7422.347416181925
 20
-2320.262028199138
 30
0.0
 11
7421.597393710022
 21
-2319.491661157938
 31
0.0
  0
LINE
  5
A3
330
33
100
AcDbEntity
  8
0
  6
Continuous
 62
     3
100
AcDbLine
 10
7410.847663372939
 20
-2320.261799734718
 30
0.0
 11
7411.597228916014
 21
-2319.491661157938
 31
0.0
  0
LINE
  5
A4
330
33
100
AcDbEntity
  8
0
  6
Continuous
 62
     3
100
AcDbLine
 10
7411.847311313012
 20
-2337.792148049324
 30
0.0
 11
7411.847311313012
 21
-2338.491882131721
 31
0.0
  0
LINE
  5
A5
330
33
100
AcDbEntity
  8
0
  6
Continuous
 62
     3
100
AcDbLine
 10
7421.347307567697
 20
-2338.491882131721
 30
0.0
 11
7421.347307567697
 21
-2337.792148049324
 31
0.0
  0
LINE
  5
A6
330
33
100
AcDbEntity
  8
0
  6
Continuous
 62
     3
100
AcDbLine
 10
7421.347307567697
 20
-2337.792148049324
 30
0.0
 11
7421.097225170693
 21
-2337.792148049324
 31
0.0
  0
LINE
  5
A7
330
33
100
AcDbEntity
  8
0
  6
Continuous
 62
     3
100
AcDbLine
 10
7409.097532286795
 20
-2323.710859659812
 30
0.0
 11
7410.847891837361
 21
-2323.557470146703
 31
0.0
  0
LINE
  5
A8
330
33
100
AcDbEntity
  8
0
  6
Continuous
 62
     3
100
AcDbLine
 10
7409.097532286795
 20
-2325.491852169174
 30
0.0
 11
7409.097532286795
 21
-2323.710859659812
 31
0.0
  0
LINE
  5
A9
330
33
100
AcDbEntity
  8
0
  6
Continuous
 62
     3
100
AcDbLine
 10
7424.09754726807
 20
-2323.710859659812
 30
0.0
 11
7424.09754726807
 21
-2325.491852169174
 31
0.0
  0
LINE
  5
AA
330
33
100
AcDbEntity
  8
0
  6
Continuous
 62
     3
100
AcDbLine
 10
7422.347416181925
 20
-2323.557470146703
 30
0.0
 11
7424.09754726807
 21
-2323.710859659812
 31
0.0
  0
LINE
  5
AB
330
33
100
AcDbEntity
  8
0
  6
Continuous
 62
     3
100
AcDbLine
 10
7411.847311313012
 20
-2337.792148049324
 30
0.0
 11
7412.097397455335
 21
-2337.792148049324
 31
0.0
  0
LINE
  5
AC
330
33
100
AcDbEntity
  8
0
  6
Continuous
 62
     3
100
AcDbLine
 10
7410.847206444098
 20
-2323.710859659812
 30
0.0
 11
7409.097532286795
 21
-2323.710859659812
 31
0.0
  0
LINE
  5
AD
330
33
100
AcDbEntity
  8
0
  6
Continuous
 62
     3
100
AcDbLine
 10
7424.09754726807
 20
-2323.710859659812
 30
0.0
 11
7422.347416181925
 21
-2323.710859659812
 31
0.0
  0
LINE
  5
AE
330
33
100
AcDbEntity
  8
0
  6
DASH_CENTER
 62
     3
100
AcDbLine
 10
7416.597311313018
 20
-2315.529402730973
 30
0.0
 11
7416.597311313018
 21
-2349.237267899512
 31
0.0
  0
LINE
  5
AF
330
33
100
AcDbEntity
  8
0
  6
Continuous
 62
     3
100
AcDbLine
 10
7426.979232661327
 20
-2329.491825951946
 30
0.0
 11
7438.215187717507
 21
-2329.491825951946
 31
0.0
  0
LINE
  5
B0
330
33
100
AcDbEntity
  8
0
  6
Continuous
 62
     3
100
AcDbLine
 10
7432.597210189418
 20
-2335.109803480036
 30
0.0
 11
7432.597210189418
 21
-2323.873848423857
 31
0.0
  0
LINE
  5
B1
330
33
100
AcDbEntity
  8
0
  6
Continuous
 62
     3
100
AcDbLine
 10
7381.979404945972
 20
-2329.491825951946
 30
0.0
 11
7398.215213934735
 21
-2329.491825951946
 31
0.0
  0
LINE
  5
B2
330
33
100
AcDbEntity
  8
0
  6
Continuous
 62
     3
100
AcDbLine
 10
7387.597382474062
 20
-2335.109803480036
 30
0.0
 11
7387.597382474062
 21
-2323.873848423857
 31
0.0
  0
LINE
  5
B3
330
33
100
AcDbEntity
  8
1
  6
Continuous
 62
     4
100
AcDbLine
 10
7430.478538185862
 20
-2327.373153948392
 30
0.0
 11
7434.715882192976
 21
-2331.610497955501
 31
0.0
  0
LINE
  5
B4
330
33
100
AcDbEntity
  8
1
  6
Continuous
 62
     4
100
AcDbLine
 10
7434.715882192976
 20
-2327.373153948392
 30
0.0
 11
7430.478538185862
 21
-2331.610497955501
 31
0.0
  0
LINE
  5
B5
330
33
100
AcDbEntity
  8
1
  6
Continuous
 62
     4
100
AcDbLine
 10
7385.484385724915
 20
-2327.424165062646
 30
0.0
 11
7389.721729732023
 21
-2331.661509069757
 31
0.0
  0
LINE
  5
B6
330
33
100
AcDbEntity
  8
1
  6
Continuous
 62
     4
100
AcDbLine
 10
7389.721729732023
 20
-2327.424165062646
 30
0.0
 11
7385.484385724915
 21
-2331.661509069757
 31
0.0
  0
LINE
  5
B7
330
33
100
AcDbEntity
  8
0
  6
Continuous
 62
     3
100
AcDbLine
 10
7392.597236406647
 20
-2326.291709847078
 30
0.0
 11
7391.653082215328
 21
-2326.291709847078
 31
0.0
  0
LINE
  5
B8
330
33
100
AcDbEntity
  8
0
  6
Continuous
 62
     3
100
AcDbLine
 10
7392.597236406647
 20
-2332.691713592396
 30
0.0
 11
7391.733082324264
 21
-2332.691713592396
 31
0.0
  0
LINE
  5
B9
330
33
100
AcDbEntity
  8
1
  6
DOT_CENTER
 62
     3
100
AcDbLine
 10
7128.493127792419
 20
-2417.6853340668
 30
0.0
 11
7128.493127792419
 21
-2403.298317837094
 31
0.0
  0
LINE
  5
BA
330
33
100
AcDbEntity
  8
1
  6
DOT_CENTER
 62
     3
100
AcDbLine
 10
7121.299619677564
 20
-2410.491825951947
 30
0.0
 11
7135.68663590727
 21
-2410.491825951947
 31
0.0
  0
LINE
  5
BB
330
33
100
AcDbEntity
  8
1
  6
Continuous
 62
     3
100
AcDbLine
 10
7130.611799795972
 20
-2412.610497955503
 30
0.0
 11
7126.374455788859
 21
-2408.373153948392
 31
0.0
  0
LINE
  5
BC
330
33
100
AcDbEntity
  8
1
  6
Continuous
 62
     3
100
AcDbLine
 10
7126.374455788859
 20
-2412.610497955503
 30
0.0
 11
7130.611799795972
 21
-2408.373153948392
 31
0.0
  0
LINE
  5
BD
330
33
100
AcDbEntity
  8
1
  6
DOT_CENTER
 62
     3
100
AcDbLine
 10
7128.493127792419
 20
-2401.6853340668
 30
0.0
 11
7128.493127792419
 21
-2387.298317837094
 31
0.0
  0
LINE
  5
BE
330
33
100
AcDbEntity
  8
1
  6
DOT_CENTER
 62
     3
100
AcDbLine
 10
7121.299619677564
 20
-2394.491825951947
 30
0.0
 11
7135.68663590727
 21
-2394.491825951947
 31
0.0
  0
LINE
  5
BF
330
33
100
AcDbEntity
  8
1
  6
Continuous
 62
     3
100
AcDbLine
 10
7130.611799795972
 20
-2396.610497955503
 30
0.0
 11
7126.374455788859
 21
-2392.373153948392
 31
0.0
  0
LINE
  5
C0
330
33
100
AcDbEntity
  8
1
  6
Continuous
 62
     3
100
AcDbLine
 10
7126.374455788859
 20
-2396.610497955503
 30
0.0
 11
7130.611799795972
 21
-2392.373153948392
 31
0.0
  0
LINE
  5
C1
330
33
100
AcDbEntity
  8
1
  6
DOT_CENTER
 62
     3
100
AcDbLine
 10
6968.493127792419
 20
-2417.6853340668
 30
0.0
 11
6968.493127792419
 21
-2403.298317837094
 31
0.0
  0
LINE
  5
C2
330
33
100
AcDbEntity
  8
1
  6
DOT_CENTER
 62
     3
100
AcDbLine
 10
6961.299619677564
 20
-2410.491825951947
 30
0.0
 11
6975.68663590727
 21
-2410.491825951947
 31
0.0
  0
LINE
  5
C3
330
33
100
AcDbEntity
  8
1
  6
Continuous
 62
     3
100
AcDbLine
 10
6970.611799795972
 20
-2412.610497955503
 30
0.0
 11
6966.374455788859
 21
-2408.373153948392
 31
0.0
  0
LINE
  5
C4
330
33
100
AcDbEntity
  8
1
  6
Continuous
 62
     3
100
AcDbLine
 10
6966.374455788859
 20
-2412.610497955503
 30
0.0
 11
6970.611799795972
 21
-2408.373153948392
 31
0.0
  0
LINE
  5
C5
330
33
100
AcDbEntity
  8
1
  6
DOT_CENTER
 62
     3
100
AcDbLine
 10
6968.493127792413
 20
-2401.6853340668
 30
0.0
 11
6968.493127792413
 21
-2387.298317837094
 31
0.0
  0
LINE
  5
C6
330
33
100
AcDbEntity
  8
1
  6
DOT_CENTER
 62
     3
100
AcDbLine
 10
6961.29961967756
 20
-2394.491825951947
 30
0.0
 11
6975.686635907266
 21
-2394.491825951947
 31
0.0
  0
LINE
  5
C7
330
33
100
AcDbEntity
  8
1
  6
Continuous
 62
     3
100
AcDbLine
 10
6970.611799795966
 20
-2396.610497955503
 30
0.0
 11
6966.374455788853
 21
-2392.373153948392
 31
0.0
  0
LINE
  5
C8
330
33
100
AcDbEntity
  8
1
  6
Continuous
 62
     3
100
AcDbLine
 10
6966.374455788853
 20
-2396.610497955503
 30
0.0
 11
6970.611799795966
 21
-2392.373153948392
 31
0.0
  0
LINE
  5
C9
330
33
100
AcDbEntity
  8
1
  6
Continuous
 62
     1
100
AcDbLine
 10
7100.09304539541
 20
-2327.491825951946
 30
0.0
 11
7237.721127792413
 21
-2327.491825951946
 31
0.0
  0
LINE
  5
CA
330
33
100
AcDbEntity
  8
1
  6
DASH_CENTER
 62
     3
100
AcDbLine
 10
7237.721127792413
 20
-2490.449319185162
 30
0.0
 11
7237.721127792413
 21
-2316.599319185161
 31
0.0
  0
LINE
  5
CB
330
33
100
AcDbEntity
  8
1
  6
DASH_CENTER
 62
     3
100
AcDbLine
 10
6798.381127792412
 20
-2490.449319185162
 30
0.0
 11
7237.721127792413
 21
-2490.449319185162
 31
0.0
  0
LINE
  5
CC
330
33
100
AcDbEntity
  8
1
  6
Continuous
 62
     1
100
AcDbLine
 10
7026.592959253088
 20
-2352.491825951946
 30
0.0
 11
7237.721127792413
 21
-2352.491825951946
 31
0.0
  0
LINE
  5
CD
330
33
100
AcDbEntity
  8
1
  6
Continuous
 62
     1
100
AcDbLine
 10
6814.493127792413
 20
-2327.491825951946
 30
0.0
 11
7042.09304539541
 21
-2327.491825951946
 31
0.0
  0
LINE
  5
CE
330
33
100
AcDbEntity
  8
1
  6
Continuous
 62
     1
100
AcDbLine
 10
6839.493127792413
 20
-2352.491825951946
 30
0.0
 11
7006.592858129492
 21
-2352.491825951946
 31
0.0
  0
LINE
  5
CF
330
33
100
AcDbEntity
  8
1
  6
Continuous
 62
     1
100
AcDbLine
 10
6839.493127792413
 20
-2352.491825951946
 30
0.0
 11
6839.493127792413
 21
-2490.449319185162
 31
0.0
  0
LINE
  5
D0
330
33
100
AcDbEntity
  8
1
  6
Continuous
 62
     1
100
AcDbLine
 10
6814.493127792413
 20
-2327.491825951946
 30
0.0
 11
6814.493127792413
 21
-2490.449319185162
 31
0.0
  0
LINE
  5
D1
330
33
100
AcDbEntity
  8
1
  6
Continuous
 62
     1
100
AcDbLine
 10
6814.493127792413
 20
-2327.491825951946
 30
0.0
 11
6839.493127792413
 21
-2352.491825951946
 31
0.0
  0
LINE
  5
D2
330
33
100
AcDbEntity
  8
1
  6
Continuous
 62
     4
100
AcDbLine
 10
7042.09304539541
 20
-2344.492073142957
 30
0.0
 11
7042.09304539541
 21
-2349.491825951949
 31
0.0
  0
LINE
  5
D3
330
33
100
AcDbEntity
  8
1
  6
DOT_CENTER
 62
     3
100
AcDbLine
 10
7041.393045395411
 20
-2342.491825951949
 30
0.0
 11
7055.79304539541
 21
-2342.491825951949
 31
0.0
  0
LINE
  5
D4
330
33
100
AcDbEntity
  8
1
  6
Continuous
 62
     4
100
AcDbLine
 10
7091.474373391857
 20
-2344.610497955504
 30
0.0
 11
7095.711717398965
 21
-2340.373153948393
 31
0.0
  0
LINE
  5
D5
330
33
100
AcDbEntity
  8
1
  6
Continuous
 62
     4
100
AcDbLine
 10
7095.711717398965
 20
-2344.610497955504
 30
0.0
 11
7091.474373391857
 21
-2340.373153948393
 31
0.0
  0
LINE
  5
D6
330
33
100
AcDbEntity
  8
1
  6
DOT_CENTER
 62
     3
100
AcDbLine
 10
7048.59304539541
 20
-2349.691825951949
 30
0.0
 11
7048.59304539541
 21
-2335.291825951948
 31
0.0
  0
LINE
  5
D7
330
33
100
AcDbEntity
  8
1
  6
DOT_CENTER
 62
     3
100
AcDbLine
 10
7093.59304539541
 20
-2349.691825951949
 30
0.0
 11
7093.59304539541
 21
-2335.291825951948
 31
0.0
  0
LINE
  5
D8
330
33
100
AcDbEntity
  8
1
  6
DOT_CENTER
 62
     3
100
AcDbLine
 10
7086.393045395409
 20
-2342.491825951949
 30
0.0
 11
7100.79304539541
 21
-2342.491825951949
 31
0.0
  0
LINE
  5
D9
330
33
100
AcDbEntity
  8
1
  6
Continuous
 62
     4
100
AcDbLine
 10
7042.09304539541
 20
-2349.491825951949
 30
0.0
 11
7100.09304539541
 21
-2349.491825951949
 31
0.0
  0
LINE
  5
DA
330
33
100
AcDbEntity
  8
1
  6
Continuous
 62
     4
100
AcDbLine
 10
7042.09304539541
 20
-2319.491825951949
 30
0.0
 11
7042.09304539541
 21
-2338.491882131721
 31
0.0
  0
LINE
  5
DB
330
33
100
AcDbEntity
  8
1
  6
Continuous
 62
     4
100
AcDbLine
 10
7100.09304539541
 20
-2349.491825951949
 30
0.0
 11
7100.09304539541
 21
-2319.491825951949
 31
0.0
  0
LINE
  5
DC
330
33
100
AcDbEntity
  8
1
  6
Continuous
 62
     4
100
AcDbLine
 10
7042.09304539541
 20
-2319.491825951949
 30
0.0
 11
7100.09304539541
 21
-2319.491825951949
 31
0.0
  0
LINE
  5
DD
330
33
100
AcDbEntity
  8
1
  6
Continuous
 62
     4
100
AcDbLine
 10
6815.493127792413
 20
-2457.015363119173
 30
0.0
 11
6837.493127792413
 21
-2457.015363119173
 31
0.0
  0
LINE
  5
DE
330
33
100
AcDbEntity
  8
1
  6
DOT_CENTER
 62
     3
100
AcDbLine
 10
6826.493127792413
 20
-2440.515363119173
 30
0.0
 11
6826.493127792413
 21
-2490.449319185162
 31
0.0
  0
LINE
  5
DF
330
33
100
AcDbEntity
  8
1
  6
Continuous
 62
     4
100
AcDbLine
 10
6837.493127792413
 20
-2457.015363119173
 30
0.0
 11
6837.493127792413
 21
-2490.449319185162
 31
0.0
  0
LINE
  5
E0
330
33
100
AcDbEntity
  8
1
  6
Continuous
 62
     4
100
AcDbLine
 10
6815.493127792413
 20
-2457.015363119173
 30
0.0
 11
6815.493127792413
 21
-2490.449319185162
 31
0.0
  0
LINE
  5
E1
330
33
100
AcDbEntity
  8
1
  6
Continuous
 62
     3
100
AcDbLine
 10
6936.493127792413
 20
-2359.241825951946
 30
0.0
 11
6936.493127792413
 21
-2419.241947951946
 31
0.0
  0
LINE
  5
E2
330
33
100
AcDbEntity
  8
1
  6
Continuous
 62
     3
100
AcDbLine
 10
7223.493127792413
 20
-2359.241825951946
 30
0.0
 11
6936.493127792413
 21
-2359.241825951946
 31
0.0
  0
LINE
  5
E3
330
33
100
AcDbEntity
  8
1
  6
Continuous
 62
     3
100
AcDbLine
 10
7223.493127792413
 20
-2419.241947951946
 30
0.0
 11
7223.493127792413
 21
-2359.241825951946
 31
0.0
  0
LINE
  5
E4
330
33
100
AcDbEntity
  8
1
  6
Continuous
 62
     3
100
AcDbLine
 10
6936.493127792413
 20
-2419.241947951946
 30
0.0
 11
7223.493127792413
 21
-2419.241947951946
 31
0.0
  0
LINE
  5
E5
330
33
100
AcDbEntity
  8
0
  6
Continuous
 62
     3
100
AcDbLine
 10
7026.592959253088
 20
-2359.241825951946
 30
0.0
 11
7026.592959253088
 21
-2344.491844678538
 31
0.0
  0
LINE
  5
E6
330
33
100
AcDbEntity
  8
0
  6
DASH_CENTER
 62
     3
100
AcDbLine
 10
7016.493127792413
 20
-2371.476927075541
 30
0.0
 11
7016.493127792413
 21
-2328.921069153786
 31
0.0
  0
LINE
  5
E7
330
33
100
AcDbEntity
  8
0
  6
Continuous
 62
     3
100
AcDbLine
 10
7042.092918054583
 20
-2321.391979509998
 30
0.0
 11
7058.842839402902
 21
-2321.391979509998
 31
0.0
  0
LINE
  5
E8
330
33
100
AcDbEntity
  8
0
  6
Continuous
 62
     3
100
AcDbLine
 10
7070.343049140729
 20
-2321.391979509998
 30
0.0
 11
7100.093004196908
 21
-2321.391979509998
 31
0.0
  0
LINE
  5
E9
330
33
100
AcDbEntity
  8
0
  6
Continuous
 62
     4
100
AcDbLine
 10
7100.093004196908
 20
-2321.391979509998
 30
0.0
 11
7100.093004196908
 21
-2337.591897112995
 31
0.0
  0
LINE
  5
EA
330
33
100
AcDbEntity
  8
0
  6
Continuous
 62
     3
100
AcDbLine
 10
7100.093004196908
 20
-2337.591897112995
 30
0.0
 11
7069.092858129492
 21
-2337.591897112995
 31
0.0
  0
LINE
  5
EB
330
33
100
AcDbEntity
  8
0
  6
Continuous
 62
     3
100
AcDbLine
 10
7060.093030414135
 20
-2337.591897112995
 30
0.0
 11
7042.092918054583
 21
-2337.591897112995
 31
0.0
  0
LINE
  5
EC
330
33
100
AcDbEntity
  8
0
  6
Continuous
 62
     4
100
AcDbLine
 10
7042.092918054583
 20
-2337.591897112995
 30
0.0
 11
7042.092918054583
 21
-2321.391979509998
 31
0.0
  0
LINE
  5
ED
330
33
100
AcDbEntity
  8
0
  6
Continuous
 62
     3
100
AcDbLine
 10
7042.092918054583
 20
-2323.391968274043
 30
0.0
 11
7058.842839402902
 21
-2323.391968274043
 31
0.0
  0
LINE
  5
EE
330
33
100
AcDbEntity
  8
0
  6
Continuous
 62
     3
100
AcDbLine
 10
7070.343049140729
 20
-2323.391968274043
 30
0.0
 11
7100.093004196908
 21
-2323.391968274043
 31
0.0
  0
LINE
  5
EF
330
33
100
AcDbEntity
  8
0
  6
Continuous
 62
     3
100
AcDbLine
 10
7100.093004196908
 20
-2335.591912094268
 30
0.0
 11
7073.592543522751
 21
-2335.548706101758
 31
0.0
  0
LINE
  5
F0
330
33
100
AcDbEntity
  8
0
  6
Continuous
 62
     3
100
AcDbLine
 10
7055.635404945971
 20
-2335.591912094268
 30
0.0
 11
7042.092918054583
 21
-2335.591912094268
 31
0.0
  0
LINE
  5
F1
330
33
100
AcDbEntity
  8
0
  6
Continuous
 62
     3
100
AcDbLine
 10
7006.592858129492
 20
-2344.492073142957
 30
0.0
 11
7006.592858129492
 21
-2359.241825951946
 31
0.0
  0
LINE
  5
F2
330
33
100
AcDbEntity
  8
0
  6
Continuous
 62
     3
100
AcDbLine
 10
7005.592977979681
 20
-2344.492073142957
 30
0.0
 11
7075.592989215633
 21
-2344.492073142957
 31
0.0
  0
LINE
  5
F3
330
33
100
AcDbEntity
  8
0
  6
Continuous
 62
     3
100
AcDbLine
 10
7075.592989215633
 20
-2338.491882131721
 30
0.0
 11
7075.592989215633
 21
-2344.492073142957
 31
0.0
  0
LINE
  5
F4
330
33
100
AcDbEntity
  8
0
  6
Continuous
 62
     3
100
AcDbLine
 10
7075.592989215633
 20
-2338.491882131721
 30
0.0
 11
7005.592977979681
 21
-2338.491882131721
 31
0.0
  0
LINE
  5
F5
330
33
100
AcDbEntity
  8
0
  6
Continuous
 62
     3
100
AcDbLine
 10
7005.592977979681
 20
-2338.491882131721
 30
0.0
 11
7005.592977979681
 21
-2344.492073142957
 31
0.0
  0
LINE
  5
F6
330
33
100
AcDbEntity
  8
0
  6
Continuous
 62
     3
100
AcDbLine
 10
7073.592543522751
 20
-2335.548706101758
 30
0.0
 11
7073.592543522751
 21
-2327.491837187901
 31
0.0
  0
LINE
  5
F7
330
33
100
AcDbEntity
  8
0
  6
Continuous
 62
     3
100
AcDbLine
 10
7073.592543522751
 20
-2327.491837187901
 30
0.0
 11
7073.303828166945
 21
-2326.991668648576
 31
0.0
  0
LINE
  5
F8
330
33
100
AcDbEntity
  8
0
  6
Continuous
 62
     3
100
AcDbLine
 10
7055.592431163197
 20
-2335.548934566178
 30
0.0
 11
7056.174891837358
 21
-2336.130713592396
 31
0.0
  0
LINE
  5
F9
330
33
100
AcDbEntity
  8
0
  6
Continuous
 62
     3
100
AcDbLine
 10
7056.174891837358
 20
-2336.130713592396
 30
0.0
 11
7058.742940526496
 21
-2336.491664903258
 31
0.0
  0
LINE
  5
FA
330
33
100
AcDbEntity
  8
0
  6
Continuous
 62
     3
100
AcDbLine
 10
7070.442948017133
 20
-2336.491664903258
 30
0.0
 11
7073.010996706271
 21
-2336.130485127976
 31
0.0
  0
LINE
  5
FB
330
33
100
AcDbEntity
  8
0
  6
Continuous
 62
     3
100
AcDbLine
 10
7073.010996706271
 20
-2336.130485127976
 30
0.0
 11
7073.592543522751
 21
-2335.548706101758
 31
0.0
  0
LINE
  5
FC
330
33
100
AcDbEntity
  8
0
  6
Continuous
 62
     3
100
AcDbLine
 10
7070.442948017133
 20
-2336.491664903258
 30
0.0
 11
7058.742940526496
 21
-2336.491664903258
 31
0.0
  0
LINE
  5
FD
330
33
100
AcDbEntity
  8
0
  6
Continuous
 62
     3
100
AcDbLine
 10
7073.010996706271
 20
-2336.130485127976
 30
0.0
 11
7056.174891837358
 21
-2336.130713592396
 31
0.0
  0
LINE
  5
FE
330
33
100
AcDbEntity
  8
0
  6
Continuous
 62
     3
100
AcDbLine
 10
7073.592543522751
 20
-2335.548706101758
 30
0.0
 11
7055.592431163197
 21
-2335.548934566178
 31
0.0
  0
LINE
  5
FF
330
33
100
AcDbEntity
  8
0
  6
Continuous
 62
     3
100
AcDbLine
 10
7060.093030414135
 20
-2338.491882131721
 30
0.0
 11
7060.093030414135
 21
-2336.491664903258
 31
0.0
  0
LINE
  5
100
330
33
100
AcDbEntity
  8
0
  6
Continuous
 62
     3
100
AcDbLine
 10
7069.092858129492
 20
-2338.491882131721
 30
0.0
 11
7069.092858129492
 21
-2336.491664903258
 31
0.0
  0
LINE
  5
101
330
33
100
AcDbEntity
  8
0
  6
Continuous
 62
     3
100
AcDbLine
 10
7067.842895582675
 20
-2345.491949547452
 30
0.0
 11
7061.342992960952
 21
-2345.491949547452
 31
0.0
  0
LINE
  5
102
330
33
100
AcDbEntity
  8
0
  6
DASH_CENTER
 62
     3
100
AcDbLine
 10
7068.843461125747
 20
-2344.492073142957
 30
0.0
 11
7067.842895582675
 21
-2345.491949547452
 31
0.0
  0
LINE
  5
103
330
33
100
AcDbEntity
  8
0
  6
Continuous
 62
     3
100
AcDbLine
 10
7060.343345020878
 20
-2344.492073142957
 30
0.0
 11
7061.342992960952
 21
-2345.491949547452
 31
0.0
  0
LINE
  5
104
330
33
100
AcDbEntity
  8
0
  6
Continuous
 62
     3
100
AcDbLine
 10
7055.492764496534
 20
-2333.691593742208
 30
0.0
 11
7055.592431163197
 21
-2333.691593742208
 31
0.0
  0
LINE
  5
105
330
33
100
AcDbEntity
  8
0
  6
Continuous
 62
     3
100
AcDbLine
 10
7073.592543522751
 20
-2333.691593742208
 30
0.0
 11
7073.692899327994
 21
-2333.691593742208
 31
0.0
  0
LINE
  5
106
330
33
100
AcDbEntity
  8
0
  6
Continuous
 62
     3
100
AcDbLine
 10
7053.992944271815
 20
-2326.991668648576
 30
0.0
 11
7053.992944271815
 21
-2332.191773517489
 31
0.0
  0
LINE
  5
107
330
33
100
AcDbEntity
  8
0
  6
Continuous
 62
     3
100
AcDbLine
 10
7075.192715807396
 20
-2326.991668648576
 30
0.0
 11
7075.192715807396
 21
-2332.191773517489
 31
0.0
  0
LINE
  5
108
330
33
100
AcDbEntity
  8
0
  6
Continuous
 62
     3
100
AcDbLine
 10
7073.692899327994
 20
-2325.491852169174
 30
0.0
 11
7055.492764496534
 21
-2325.491852169174
 31
0.0
  0
LINE
  5
109
330
33
100
AcDbEntity
  8
0
  6
Continuous
 62
     3
100
AcDbLine
 10
7055.817828166946
 20
-2325.491852169174
 30
0.0
 11
7055.817828166946
 21
-2326.991668648576
 31
0.0
  0
LINE
  5
10A
330
33
100
AcDbEntity
  8
0
  6
Continuous
 62
     3
100
AcDbLine
 10
7073.367835657582
 20
-2325.491852169174
 30
0.0
 11
7073.367835657582
 21
-2326.991668648576
 31
0.0
  0
LINE
  5
10B
330
33
100
AcDbEntity
  8
0
  6
Continuous
 62
     3
100
AcDbLine
 10
7055.592431163197
 20
-2335.548934566178
 30
0.0
 11
7055.592431163197
 21
-2327.491837187901
 31
0.0
  0
LINE
  5
10C
330
33
100
AcDbEntity
  8
0
  6
Continuous
 62
     3
100
AcDbLine
 10
7073.592543522751
 20
-2327.491837187901
 30
0.0
 11
7055.592431163197
 21
-2327.491837187901
 31
0.0
  0
LINE
  5
10D
330
33
100
AcDbEntity
  8
0
  6
Continuous
 62
     3
100
AcDbLine
 10
7055.592431163197
 20
-2327.491837187901
 30
0.0
 11
7055.880918054587
 21
-2326.991668648576
 31
0.0
  0
LINE
  5
10E
330
33
100
AcDbEntity
  8
0
  6
Continuous
 62
     3
100
AcDbLine
 10
7055.492764496534
 20
-2325.491852169174
 30
0.0
 11
7055.492764496534
 21
-2333.691593742208
 31
0.0
  0
LINE
  5
10F
330
33
100
AcDbEntity
  8
0
  6
Continuous
 62
     3
100
AcDbLine
 10
7073.692899327994
 20
-2325.491852169174
 30
0.0
 11
7073.692899327994
 21
-2333.691593742208
 31
0.0
  0
LINE
  5
110
330
33
100
AcDbEntity
  8
0
  6
Continuous
 62
     3
100
AcDbLine
 10
7055.492532286797
 20
-2326.991668648576
 30
0.0
 11
7073.692438653838
 21
-2326.991668648576
 31
0.0
  0
LINE
  5
111
330
33
100
AcDbEntity
  8
0
  6
Continuous
 62
     3
100
AcDbLine
 10
7057.842959253088
 20
-2325.491852169174
 30
0.0
 11
7057.842959253088
 21
-2324.741825951946
 31
0.0
  0
LINE
  5
112
330
33
100
AcDbEntity
  8
0
  6
Continuous
 62
     3
100
AcDbLine
 10
7057.842959253088
 20
-2324.741825951946
 30
0.0
 11
7071.342929290537
 21
-2324.741825951946
 31
0.0
  0
LINE
  5
113
330
33
100
AcDbEntity
  8
0
  6
Continuous
 62
     3
100
AcDbLine
 10
7071.342929290537
 20
-2324.741825951946
 30
0.0
 11
7071.342929290537
 21
-2325.491852169174
 31
0.0
  0
LINE
  5
114
330
33
100
AcDbEntity
  8
0
  6
Continuous
 62
     3
100
AcDbLine
 10
7058.842839402902
 20
-2323.741488873295
 30
0.0
 11
7058.842839402902
 21
-2320.262028199138
 31
0.0
  0
LINE
  5
115
330
33
100
AcDbEntity
  8
0
  6
Continuous
 62
     3
100
AcDbLine
 10
7057.842959253088
 20
-2324.741825951946
 30
0.0
 11
7058.842839402902
 21
-2323.741488873295
 31
0.0
  0
LINE
  5
116
330
33
100
AcDbEntity
  8
0
  6
Continuous
 62
     3
100
AcDbLine
 10
7071.342929290537
 20
-2324.741825951946
 30
0.0
 11
7070.343049140729
 21
-2323.741717337714
 31
0.0
  0
LINE
  5
117
330
33
100
AcDbEntity
  8
0
  6
Continuous
 62
     3
100
AcDbLine
 10
7058.842839402902
 20
-2323.741488873295
 30
0.0
 11
7070.343049140729
 21
-2323.741717337714
 31
0.0
  0
LINE
  5
118
330
33
100
AcDbEntity
  8
0
  6
Continuous
 62
     3
100
AcDbLine
 10
7070.343049140729
 20
-2323.741717337714
 30
0.0
 11
7070.343049140729
 21
-2320.262028199138
 31
0.0
  0
LINE
  5
119
330
33
100
AcDbEntity
  8
0
  6
Continuous
 62
     3
100
AcDbLine
 10
7064.59294427181
 20
-2320.262028199138
 30
0.0
 11
7064.59294427181
 21
-2323.741945802133
 31
0.0
  0
LINE
  5
11A
330
33
100
AcDbEntity
  8
0
  6
Continuous
 62
     3
100
AcDbLine
 10
7059.592861874806
 20
-2319.491661157938
 30
0.0
 11
7069.593026668814
 21
-2319.491661157938
 31
0.0
  0
LINE
  5
11B
330
33
100
AcDbEntity
  8
0
  6
Continuous
 62
     3
100
AcDbLine
 10
7059.592861874806
 20
-2319.491661157938
 30
0.0
 11
7058.842839402902
 21
-2320.262028199138
 31
0.0
  0
LINE
  5
11C
330
33
100
AcDbEntity
  8
0
  6
Continuous
 62
     3
100
AcDbLine
 10
7069.593026668814
 20
-2319.491661157938
 30
0.0
 11
7070.342592211889
 21
-2320.261799734718
 31
0.0
  0
LINE
  5
11D
330
33
100
AcDbEntity
  8
0
  6
Continuous
 62
     3
100
AcDbLine
 10
7069.342944271815
 20
-2338.491882131721
 30
0.0
 11
7069.342944271815
 21
-2337.792148049324
 31
0.0
  0
LINE
  5
11E
330
33
100
AcDbEntity
  8
0
  6
Continuous
 62
     3
100
AcDbLine
 10
7059.842948017131
 20
-2337.792148049324
 30
0.0
 11
7059.842948017131
 21
-2338.491882131721
 31
0.0
  0
LINE
  5
11F
330
33
100
AcDbEntity
  8
0
  6
Continuous
 62
     3
100
AcDbLine
 10
7060.093030414135
 20
-2337.792148049324
 30
0.0
 11
7059.842948017131
 21
-2337.792148049324
 31
0.0
  0
LINE
  5
120
330
33
100
AcDbEntity
  8
0
  6
Continuous
 62
     3
100
AcDbLine
 10
7070.342363747466
 20
-2323.557470146703
 30
0.0
 11
7072.092723298032
 21
-2323.710859659812
 31
0.0
  0
LINE
  5
121
330
33
100
AcDbEntity
  8
0
  6
Continuous
 62
     3
100
AcDbLine
 10
7072.092723298032
 20
-2323.710859659812
 30
0.0
 11
7072.092723298032
 21
-2325.491852169174
 31
0.0
  0
LINE
  5
122
330
33
100
AcDbEntity
  8
0
  6
Continuous
 62
     3
100
AcDbLine
 10
7057.092708316757
 20
-2325.491852169174
 30
0.0
 11
7057.092708316757
 21
-2323.710859659812
 31
0.0
  0
LINE
  5
123
330
33
100
AcDbEntity
  8
0
  6
Continuous
 62
     3
100
AcDbLine
 10
7057.092708316757
 20
-2323.710859659812
 30
0.0
 11
7058.842839402902
 21
-2323.557470146703
 31
0.0
  0
LINE
  5
124
330
33
100
AcDbEntity
  8
0
  6
Continuous
 62
     3
100
AcDbLine
 10
7069.092858129492
 20
-2337.792148049324
 30
0.0
 11
7069.342944271815
 21
-2337.792148049324
 31
0.0
  0
LINE
  5
125
330
33
100
AcDbEntity
  8
0
  6
Continuous
 62
     3
100
AcDbLine
 10
7072.092723298032
 20
-2323.710859659812
 30
0.0
 11
7070.343049140729
 21
-2323.710859659812
 31
0.0
  0
LINE
  5
126
330
33
100
AcDbEntity
  8
0
  6
Continuous
 62
     3
100
AcDbLine
 10
7058.842839402902
 20
-2323.710859659812
 30
0.0
 11
7057.092708316757
 21
-2323.710859659812
 31
0.0
  0
LINE
  5
127
330
33
100
AcDbEntity
  8
0
  6
DASH_CENTER
 62
     3
100
AcDbLine
 10
7064.59294427181
 20
-2349.237267899512
 30
0.0
 11
7064.59294427181
 21
-2315.529402730973
 31
0.0
  0
LINE
  5
128
330
33
100
AcDbEntity
  8
0
  6
Continuous
 62
     3
100
AcDbLine
 10
7042.975067867321
 20
-2329.491825951946
 30
0.0
 11
7054.2110229235
 21
-2329.491825951946
 31
0.0
  0
LINE
  5
129
330
33
100
AcDbEntity
  8
0
  6
Continuous
 62
     3
100
AcDbLine
 10
7048.59304539541
 20
-2323.873848423857
 30
0.0
 11
7048.59304539541
 21
-2335.109803480036
 31
0.0
  0
LINE
  5
12A
330
33
100
AcDbEntity
  8
0
  6
Continuous
 62
     3
100
AcDbLine
 10
7082.975041650092
 20
-2329.491825951946
 30
0.0
 11
7099.210850638856
 21
-2329.491825951946
 31
0.0
  0
LINE
  5
12B
330
33
100
AcDbEntity
  8
0
  6
Continuous
 62
     3
100
AcDbLine
 10
7093.592873110765
 20
-2323.873848423857
 30
0.0
 11
7093.592873110765
 21
-2335.109803480036
 31
0.0
  0
LINE
  5
12C
330
33
100
AcDbEntity
  8
1
  6
Continuous
 62
     4
100
AcDbLine
 10
7046.474373391851
 20
-2331.610497955501
 30
0.0
 11
7050.711717398965
 21
-2327.373153948392
 31
0.0
  0
LINE
  5
12D
330
33
100
AcDbEntity
  8
1
  6
Continuous
 62
     4
100
AcDbLine
 10
7050.711717398965
 20
-2331.610497955501
 30
0.0
 11
7046.474373391851
 21
-2327.373153948392
 31
0.0
  0
LINE
  5
12E
330
33
100
AcDbEntity
  8
1
  6
Continuous
 62
     4
100
AcDbLine
 10
7091.468525852804
 20
-2331.661509069757
 30
0.0
 11
7095.705869859912
 21
-2327.424165062646
 31
0.0
  0
LINE
  5
12F
330
33
100
AcDbEntity
  8
1
  6
Continuous
 62
     4
100
AcDbLine
 10
7095.705869859912
 20
-2331.661509069757
 30
0.0
 11
7091.468525852804
 21
-2327.424165062646
 31
0.0
  0
LINE
  5
130
330
33
100
AcDbEntity
  8
0
  6
Continuous
 62
     3
100
AcDbLine
 10
7089.537173369499
 20
-2326.291709847078
 30
0.0
 11
7088.593019178181
 21
-2326.291709847078
 31
0.0
  0
LINE
  5
131
330
33
100
AcDbEntity
  8
0
  6
Continuous
 62
     3
100
AcDbLine
 10
7089.457173260564
 20
-2332.691713592396
 30
0.0
 11
7088.593019178181
 21
-2332.691713592396
 31
0.0
  0
ARC
  5
132
330
33
100
AcDbEntity
  8
1
  6
Continuous
 62
     4
100
AcDbCircle
 10
7432.597210189418
 20
-2342.491825951949
 30
0.0
 40
5.193508114856987
100
AcDbArc
 50
-157.3473352729375
 51
-22.65266472706253
  0
ARC
  5
133
330
33
100
AcDbEntity
  8
1
  6
Continuous
 62
     4
100
AcDbCircle
 10
7432.597210189418
 20
-2342.491825951949
 30
0.0
 40
5.193508114857631
100
AcDbArc
 50
109.3569656741345
 51
129.6298106716226
  0
ARC
  5
134
330
33
100
AcDbEntity
  8
1
  6
Continuous
 62
     4
100
AcDbCircle
 10
7432.597210189418
 20
-2342.491825951949
 30
0.0
 40
5.193508114857591
100
AcDbArc
 50
50.37018932839288
 51
70.64303432583714
  0
ARC
  5
135
330
33
100
AcDbEntity
  8
1
  6
Continuous
 62
     4
100
AcDbCircle
 10
7387.597210189418
 20
-2342.491825951948
 30
0.0
 40
5.193508114857677
100
AcDbArc
 50
109.3569656741662
 51
180.0
  0
ARC
  5
136
330
33
100
AcDbEntity
  8
1
  6
Continuous
 62
     4
100
AcDbCircle
 10
7387.597210189418
 20
-2342.491825951948
 30
0.0
 40
5.19350811485856
100
AcDbArc
 50
180.0
 51
70.64303432583381
  0
ARC
  5
137
330
33
100
AcDbEntity
  8
1
  6
Continuous
 62
     4
100
AcDbCircle
 10
7654.697127792414
 20
-2457.015363119173
 30
0.0
 40
11.0
100
AcDbArc
 50
0.0
 51
180.0
  0
ARC
  5
138
330
33
100
AcDbEntity
  8
0
  6
Continuous
 62
     3
100
AcDbCircle
 10
7392.597236406647
 20
-2329.491825951946
 30
0.0
 40
3.200116104870176
100
AcDbArc
 50
-90.0
 51
90.0
  0
ARC
  5
139
330
33
100
AcDbEntity
  8
0
  6
Continuous
 62
     3
100
AcDbCircle
 10
7425.697491088297
 20
-2326.991668648576
 30
0.0
 40
1.499820224716132
100
AcDbArc
 50
0.0
 51
90.00000000013898
  0
ARC
  5
13A
330
33
100
AcDbEntity
  8
0
  6
Continuous
 62
     3
100
AcDbCircle
 10
7407.497356256833
 20
-2326.991668648576
 30
0.0
 40
1.49982022471886
100
AcDbArc
 50
90.0
 51
180.0
  0
ARC
  5
13B
330
33
100
AcDbEntity
  8
0
  6
Continuous
 62
     3
100
AcDbCircle
 10
7407.497356256833
 20
-2332.191773517489
 30
0.0
 40
1.49982022471886
100
AcDbArc
 50
180.0
 51
-90.0
  0
ARC
  5
13C
330
33
100
AcDbEntity
  8
0
  6
Continuous
 62
     3
100
AcDbCircle
 10
7425.697491088294
 20
-2332.191773517489
 30
0.0
 40
1.499820224719315
100
AcDbArc
 50
-90.0
 51
0.0
  0
ARC
  5
13D
330
33
100
AcDbEntity
  8
0
  6
Continuous
 62
     3
100
AcDbCircle
 10
7419.472363747471
 20
-2325.241766026853
 30
0.0
 40
5.75010486891613
100
AcDbArc
 50
59.99999699997126
 51
120.0000030000052
  0
ARC
  5
13E
330
33
100
AcDbEntity
  8
0
  6
Continuous
 62
     3
100
AcDbCircle
 10
7413.722258878556
 20
-2325.241766026853
 30
0.0
 40
5.750074906367069
100
AcDbArc
 50
59.99999700000224
 51
119.9949189999779
  0
ARC
  5
13F
330
33
100
AcDbEntity
  8
1
  6
Continuous
 62
     4
100
AcDbCircle
 10
7048.59304539541
 20
-2342.491825951949
 30
0.0
 40
5.193508114856987
100
AcDbArc
 50
-157.3473352729375
 51
-22.65266472706253
  0
ARC
  5
140
330
33
100
AcDbEntity
  8
1
  6
Continuous
 62
     4
100
AcDbCircle
 10
7048.59304539541
 20
-2342.491825951949
 30
0.0
 40
5.193508114858751
100
AcDbArc
 50
50.37018932837742
 51
70.64303432585608
  0
ARC
  5
141
330
33
100
AcDbEntity
  8
1
  6
Continuous
 62
     4
100
AcDbCircle
 10
7048.59304539541
 20
-2342.491825951949
 30
0.0
 40
5.193508114858535
100
AcDbArc
 50
109.3569656741629
 51
129.6298106716071
  0
ARC
  5
142
330
33
100
AcDbEntity
  8
1
  6
Continuous
 62
     4
100
AcDbCircle
 10
7093.59304539541
 20
-2342.491825951948
 30
0.0
 40
5.19350811485856
100
AcDbArc
 50
0.0
 51
70.64303432583381
  0
ARC
  5
143
330
33
100
AcDbEntity
  8
1
  6
Continuous
 62
     4
100
AcDbCircle
 10
7093.59304539541
 20
-2342.491825951948
 30
0.0
 40
5.193508114857677
100
AcDbArc
 50
109.3569656741662
 51
0.0
  0
ARC
  5
144
330
33
100
AcDbEntity
  8
1
  6
Continuous
 62
     4
100
AcDbCircle
 10
6826.493127792413
 20
-2457.015363119173
 30
0.0
 40
11.0
100
AcDbArc
 50
0.0
 51
180.0
  0
ARC
  5
145
330
33
100
AcDbEntity
  8
0
  6
Continuous
 62
     3
100
AcDbCircle
 10
7088.593019178181
 20
-2329.491825951946
 30
0.0
 40
3.200116104867902
100
AcDbArc
 50
90.0
 51
-90.0
  0
ARC
  5
146
330
33
100
AcDbEntity
  8
0
  6
Continuous
 62
     3
100
AcDbCircle
 10
7055.49276449653
 20
-2326.991668648576
 30
0.0
 40
1.49982022471886
100
AcDbArc
 50
89.99999999986102
 51
180.0
  0
ARC
  5
147
330
33
100
AcDbEntity
  8
0
  6
Continuous
 62
     3
100
AcDbCircle
 10
7073.692899327994
 20
-2326.991668648576
 30
0.0
 40
1.49982022471886
100
AcDbArc
 50
0.0
 51
90.0
  0
ARC
  5
148
330
33
100
AcDbEntity
  8
0
  6
Continuous
 62
     3
100
AcDbCircle
 10
7073.692899327994
 20
-2332.191773517489
 30
0.0
 40
1.499820224719315
100
AcDbArc
 50
-90.0
 51
0.0
  0
ARC
  5
149
330
33
100
AcDbEntity
  8
0
  6
Continuous
 62
     3
100
AcDbCircle
 10
7055.492764496534
 20
-2332.191773517489
 30
0.0
 40
1.49982022471886
100
AcDbArc
 50
180.0
 51
-90.0
  0
ARC
  5
14A
330
33
100
AcDbEntity
  8
0
  6
Continuous
 62
     3
100
AcDbCircle
 10
7061.717891837357
 20
-2325.241766026853
 30
0.0
 40
5.750104868914766
100
AcDbArc
 50
59.99999699999479
 51
120.0000030000288
  0
ARC
  5
14B
330
33
100
AcDbEntity
  8
0
  6
Continuous
 62
     3
100
AcDbCircle
 10
7067.467996706271
 20
-2325.241766026853
 30
0.0
 40
5.750074906366525
100
AcDbArc
 50
60.00508100002206
 51
120.0000029999978
  0
CIRCLE
  5
14C
330
33
100
AcDbEntity
  8
1
  6
LONG_DASHED
 62
     3
100
AcDbCircle
 10
7352.69712779241
 20
-2410.491825951947
 30
0.0
 40
5.193508114853103
  0
CIRCLE
  5
14D
330
33
100
AcDbEntity
  8
1
  6
LONG_DASHED
 62
     3
100
AcDbCircle
 10
7352.69712779241
 20
-2394.491825951947
 30
0.0
 40
5.193508114853103
  0
CIRCLE
  5
14E
330
33
100
AcDbEntity
  8
1
  6
LONG_DASHED
 62
     3
100
AcDbCircle
 10
7512.69712779241
 20
-2410.491825951947
 30
0.0
 40
5.193508114853103
  0
CIRCLE
  5
14F
330
33
100
AcDbEntity
  8
1
  6
LONG_DASHED
 62
     3
100
AcDbCircle
 10
7512.697127792415
 20
-2394.491825951947
 30
0.0
 40
5.193508114852193
  0
CIRCLE
  5
150
330
33
100
AcDbEntity
  8
1
  6
Continuous
 62
     4
100
AcDbCircle
 10
7432.597210189418
 20
-2329.491825951946
 30
0.0
 40
5.193508114852193
  0
CIRCLE
  5
151
330
33
100
AcDbEntity
  8
1
  6
Continuous
 62
     4
100
AcDbCircle
 10
7387.60305772847
 20
-2329.542837066201
 30
0.0
 40
5.193508114859469
  0
CIRCLE
  5
152
330
33
100
AcDbEntity
  8
1
  6
LONG_DASHED
 62
     3
100
AcDbCircle
 10
7128.493127792417
 20
-2410.491825951947
 30
0.0
 40
5.193508114853103
  0
CIRCLE
  5
153
330
33
100
AcDbEntity
  8
1
  6
LONG_DASHED
 62
     3
100
AcDbCircle
 10
7128.493127792417
 20
-2394.491825951947
 30
0.0
 40
5.193508114853103
  0
CIRCLE
  5
154
330
33
100
AcDbEntity
  8
1
  6
LONG_DASHED
 62
     3
100
AcDbCircle
 10
6968.493127792417
 20
-2410.491825951947
 30
0.0
 40
5.193508114853103
  0
CIRCLE
  5
155
330
33
100
AcDbEntity
  8
1
  6
LONG_DASHED
 62
     3
100
AcDbCircle
 10
6968.493127792413
 20
-2394.491825951947
 30
0.0
 40
5.193508114851284
  0
CIRCLE
  5
156
330
33
100
AcDbEntity
  8
1
  6
Continuous
 62
     4
100
AcDbCircle
 10
7048.59304539541
 20
-2329.491825951946
 30
0.0
 40
5.193508114853103
  0
CIRCLE
  5
157
330
33
100
AcDbEntity
  8
1
  6
Continuous
 62
     4
100
AcDbCircle
 10
7093.587197856357
 20
-2329.542837066201
 30
0.0
 40
5.19350811485856
  0
TEXT
  5
159
330
33
100
AcDbEntity
  8
1
 62
     4
100
AcDbText
 10
7267.615240271537
 20
-2527.29966633196
 30
0.0
 40
14.0
  1
Anschlagmaße für Tür mit Rechtsflügel
 41
0.792
  7
CONVERTER_11
100
AcDbText
  0
TEXT
  5
15A
330
33
100
AcDbEntity
  8
1
 62
     4
100
AcDbText
 10
6821.162492897553
 20
-2527.29966633196
 30
0.0
 40
14.0
  1
Anschlagmaße für Tür mit Linksflügel
 41
0.792
  7
CONVERTER_11
100
AcDbText
  0
DIMENSION
  5
166
330
33
100
AcDbEntity
  8
1
100
AcDbDimension
  2
*D4
 10
7654.697127792414
 20
-2474.65185674773
 30
0.0
 11
7579.361518137554
 21
-2457.65185674773
 31
0.0
 70
    32
  1
<>
 71
     5
 42
-1.0
 53
0.00013888888889
  3
ME10_DIM_10
100
AcDbAlignedDimension
 13
7512.697127792409
 23
-2417.6853340668
 33
0.0
 14
7654.697127792414
 24
-2440.515363119173
 34
0.0
100
AcDbRotatedDimension
  0
DIMENSION
  5
171
330
33
100
AcDbEntity
  8
1
100
AcDbDimension
  2
*D5
 10
7512.697127792409
 20
-2474.65185674773
 30
0.0
 11
7432.697127792409
 21
-2457.65185674773
 31
0.0
 70
    32
  1
<>
 71
     5
 42
-1.0
 53
0.00013888888889
  3
ME10_DIM_11
100
AcDbAlignedDimension
 13
7352.697127792409
 23
-2417.6853340668
 33
0.0
 14
7512.697127792409
 24
-2417.6853340668
 34
0.0
100
AcDbRotatedDimension
  0
DIMENSION
  5
17C
330
33
100
AcDbEntity
  8
1
100
AcDbDimension
  2
*D6
 10
7654.697127792414
 20
-2289.86878723471
 30
0.0
 11
7548.439516032425
 21
-2272.86878723471
 31
0.0
 70
    32
  1
222
 71
     5
 42
-1.0
 53
0.00013888888889
  3
ME10_DIM_12
100
AcDbAlignedDimension
 13
7432.597210189418
 23
-2323.873848423857
 33
0.0
 14
7654.697127792414
 24
-2440.515363119173
 34
0.0
100
AcDbRotatedDimension
  0
DIMENSION
  5
188
330
33
100
AcDbEntity
  8
1
100
AcDbDimension
  2
*D7
 10
7432.597210189418
 20
-2289.86878723471
 30
0.0
 11
7346.659744431515
 21
-2274.80154366767
 31
0.0
 70
    32
  1
<>
 71
     5
 42
-1.0
 53
0.00013888888889
  3
ME10_DIM_13
100
AcDbAlignedDimension
 13
7387.597382474062
 23
-2323.873848423857
 33
0.0
 14
7432.597210189418
 24
-2323.873848423857
 34
0.0
100
AcDbRotatedDimension
  0
DIMENSION
  5
193
330
33
100
AcDbEntity
  8
1
100
AcDbDimension
  2
*D8
 10
6826.493127792413
 20
-2474.65185674773
 30
0.0
 11
6901.828737447273
 21
-2457.65185674773
 31
0.0
 70
    32
  1
<>
 71
     5
 42
-1.0
 53
0.00013888888889
  3
ME10_DIM_14
100
AcDbAlignedDimension
 13
6968.493127792419
 23
-2417.6853340668
 33
0.0
 14
6826.493127792413
 24
-2440.515363119173
 34
0.0
100
AcDbRotatedDimension
  0
DIMENSION
  5
19E
330
33
100
AcDbEntity
  8
1
100
AcDbDimension
  2
*D9
 10
6968.493127792419
 20
-2474.65185674773
 30
0.0
 11
7048.493127792419
 21
-2457.65185674773
 31
0.0
 70
    32
  1
<>
 71
     5
 42
-1.0
 53
0.00013888888889
  3
ME10_DIM_15
100
AcDbAlignedDimension
 13
7128.493127792419
 23
-2417.6853340668
 33
0.0
 14
6968.493127792419
 24
-2417.6853340668
 34
0.0
100
AcDbRotatedDimension
  0
DIMENSION
  5
1A9
330
33
100
AcDbEntity
  8
1
100
AcDbDimension
  2
*D10
 10
6826.493127792413
 20
-2289.86878723471
 30
0.0
 11
6932.750739552403
 21
-2272.86878723471
 31
0.0
 70
    32
  1
222
 71
     5
 42
-1.0
 53
0.00013888888889
  3
ME10_DIM_16
100
AcDbAlignedDimension
 13
7048.59304539541
 23
-2323.873848423857
 33
0.0
 14
6826.493127792413
 24
-2440.515363119173
 34
0.0
100
AcDbRotatedDimension
  0
DIMENSION
  5
1B5
330
33
100
AcDbEntity
  8
1
100
AcDbDimension
  2
*D11
 10
7048.59304539541
 20
-2289.86878723471
 30
0.0
 11
7134.530511153313
 21
-2274.80154366767
 31
0.0
 70
    32
  1
<>
 71
     5
 42
-1.0
 53
0.00013888888889
  3
ME10_DIM_17
100
AcDbAlignedDimension
 13
7093.592873110765
 23
-2323.873848423857
 33
0.0
 14
7048.59304539541
 24
-2323.873848423857
 34
0.0
100
AcDbRotatedDimension
  0
ENDBLK
  5
35
330
33
100
AcDbEntity
  8
0
100
AcDbBlockEnd
  0
BLOCK
  5
37
330
36
100
AcDbEntity
  8
0
100
AcDbBlockBegin
  2
a4kl
 70
     0
 71
     0
 10
1353.54890688184
 20
-552.5812653343061
 30
0.0
  3
a4kl
  1

  0
LINE
  5
1B6
330
36
100
AcDbEntity
  8
0
  6
Continuous
 62
     3
100
AcDbLine
 10
1358.54890688184
 20
-413.2812773343061
 30
0.0
 11
1353.54890688184
 21
-413.2812773343061
 31
0.0
  0
LINE
  5
1B7
330
36
100
AcDbEntity
  8
0
  6
Continuous
 62
     3
100
AcDbLine
 10
1353.54890688184
 20
-363.981289334306
 30
0.0
 11
1358.54890688184
 21
-363.981289334306
 31
0.0
  0
LINE
  5
1B8
330
36
100
AcDbEntity
  8
0
  6
Continuous
 62
     3
100
AcDbLine
 10
1358.54890688184
 20
-314.6812713343061
 30
0.0
 11
1353.54890688184
 21
-314.6812713343061
 31
0.0
  0
LINE
  5
1B9
330
36
100
AcDbEntity
  8
0
  6
Continuous
 62
     3
100
AcDbLine
 10
1490.84889488184
 20
-270.5812653343061
 30
0.0
 11
1490.84889488184
 21
-265.5812653343061
 31
0.0
  0
LINE
  5
1BA
330
36
100
AcDbEntity
  8
0
  6
Continuous
 62
     3
100
AcDbLine
 10
1445.14891288184
 20
-265.5812653343061
 30
0.0
 11
1445.14891288184
 21
-270.5812653343061
 31
0.0
  0
LINE
  5
1BB
330
36
100
AcDbEntity
  8
0
  6
Continuous
 62
     3
100
AcDbLine
 10
1399.44891588184
 20
-270.5812653343061
 30
0.0
 11
1399.44891588184
 21
-265.5812653343061
 31
0.0
  0
LINE
  5
1BC
330
36
100
AcDbEntity
  8
0
  6
Continuous
 62
     2
100
AcDbLine
 10
1536.54890688184
 20
-265.5812653343061
 30
0.0
 11
1353.54890688184
 21
-265.5812653343061
 31
0.0
  0
LINE
  5
1BD
330
36
100
AcDbEntity
  8
0
  6
Continuous
 62
     2
100
AcDbLine
 10
1353.54890688184
 20
-265.5812653343061
 30
0.0
 11
1353.54890688184
 21
-462.5812653343061
 31
0.0
  0
LINE
  5
1BE
330
36
100
AcDbEntity
  8
0
  6
Continuous
 62
     2
100
AcDbLine
 10
1536.54890688184
 20
-265.5812653343061
 30
0.0
 11
1536.54890688184
 21
-509.5812653343061
 31
0.0
  0
LINE
  5
1BF
330
36
100
AcDbEntity
  8
0
  6
Continuous
 62
     2
100
AcDbLine
 10
1353.54890688184
 20
-552.5812653343061
 30
0.0
 11
1353.54890688184
 21
-462.5812653343061
 31
0.0
  0
LINE
  5
1C0
330
36
100
AcDbEntity
  8
0
  6
Continuous
 62
     3
100
AcDbLine
 10
1536.54890688184
 20
-270.5812653343061
 30
0.0
 11
1358.54890688184
 21
-270.5812653343061
 31
0.0
  0
LINE
  5
1C1
330
36
100
AcDbEntity
  8
0
  6
Continuous
 62
     3
100
AcDbLine
 10
1358.54890688184
 20
-270.5812653343061
 30
0.0
 11
1358.54890688184
 21
-509.5812653343061
 31
0.0
  0
LINE
  5
1C2
330
36
100
AcDbEntity
  8
0
  6
Continuous
 62
     2
100
AcDbLine
 10
1353.54890688184
 20
-323.5812653343061
 30
0.0
 11
1353.54890688184
 21
-375.5812653343061
 31
0.0
  0
LINE
  5
1C3
330
36
100
AcDbEntity
  8
0
  6
Continuous
 62
     3
100
AcDbLine
 10
1358.54890688184
 20
-462.5812653343062
 30
0.0
 11
1353.54890688184
 21
-462.5812653343061
 31
0.0
  0
LINE
  5
1C4
330
36
100
AcDbEntity
  8
1
  6
Continuous
 62
     1
100
AcDbLine
 10
1353.54890688184
 20
-552.5812653343061
 30
0.0
 11
1353.54890688184
 21
-509.5812653343061
 31
0.0
  0
LINE
  5
1C5
330
36
100
AcDbEntity
  8
0
  6
Continuous
 62
     2
100
AcDbLine
 10
1536.54890688184
 20
-552.5812653343061
 30
0.0
 11
1353.54890688184
 21
-552.5812653343061
 31
0.0
  0
LINE
  5
1C6
330
36
100
AcDbEntity
  8
0
  6
Continuous
 62
     1
100
AcDbLine
 10
1492.54890688184
 20
-509.5812653343061
 30
0.0
 11
1448.54890688184
 21
-509.5812653343061
 31
0.0
  0
LINE
  5
1C7
330
36
100
AcDbEntity
  8
0
  6
Continuous
 62
     1
100
AcDbLine
 10
1437.54890688184
 20
-552.5812653343061
 30
0.0
 11
1437.54890688184
 21
-543.5812653343061
 31
0.0
  0
LINE
  5
1C8
330
36
100
AcDbEntity
  8
0
  6
Continuous
 62
     1
100
AcDbLine
 10
1486.54890688184
 20
-552.5812653343061
 30
0.0
 11
1486.54890688184
 21
-526.5812653343061
 31
0.0
  0
LINE
  5
1C9
330
36
100
AcDbEntity
  8
0
  6
Continuous
 62
     1
100
AcDbLine
 10
1404.54890688184
 20
-509.5812653343061
 30
0.0
 11
1404.54890688184
 21
-552.5812653343061
 31
0.0
  0
LINE
  5
1CA
330
36
100
AcDbEntity
  8
0
  6
Continuous
 62
     1
100
AcDbLine
 10
1536.54890688184
 20
-539.5812653343061
 30
0.0
 11
1486.54890688184
 21
-539.5812653343061
 31
0.0
  0
LINE
  5
1CB
330
36
100
AcDbEntity
  8
1
  6
Continuous
 62
     1
100
AcDbLine
 10
1448.54890688184
 20
-509.5812653343061
 30
0.0
 11
1448.54890688184
 21
-526.5812653343061
 31
0.0
  0
LINE
  5
1CC
330
36
100
AcDbEntity
  8
0
  6
Continuous
 62
     1
100
AcDbLine
 10
1448.54890688184
 20
-526.5812653343061
 30
0.0
 11
1536.54890688184
 21
-526.5812653343061
 31
0.0
  0
LINE
  5
1CD
330
36
100
AcDbEntity
  8
0
  6
Continuous
 62
     1
100
AcDbLine
 10
1448.54890688184
 20
-509.5812653343061
 30
0.0
 11
1353.54890688184
 21
-509.5812653343061
 31
0.0
  0
LINE
  5
1CE
330
36
100
AcDbEntity
  8
0
  6
Continuous
 62
     3
100
AcDbLine
 10
1404.54890688184
 20
-518.0812653343061
 30
0.0
 11
1448.54890688184
 21
-518.0812653343061
 31
0.0
  0
LINE
  5
1CF
330
36
100
AcDbEntity
  8
0
  6
Continuous
 62
     1
100
AcDbLine
 10
1404.54890688184
 20
-522.5812653343061
 30
0.0
 11
1404.54890688184
 21
-522.4806764553446
 31
0.0
  0
LINE
  5
1D0
330
36
100
AcDbEntity
  8
1
  6
Continuous
 62
     1
100
AcDbLine
 10
1448.54890688184
 20
-526.5812653343061
 30
0.0
 11
1404.54890688184
 21
-526.5812653343061
 31
0.0
  0
LINE
  5
1D1
330
36
100
AcDbEntity
  8
1
  6
Continuous
 62
     1
100
AcDbLine
 10
1492.54890688184
 20
-509.5812653343061
 30
0.0
 11
1536.54890688184
 21
-509.5812653343061
 31
0.0
  0
LINE
  5
1D2
330
36
100
AcDbEntity
  8
0
  6
Continuous
 62
     2
100
AcDbLine
 10
1536.54890688184
 20
-509.5812653343061
 30
0.0
 11
1536.54890688184
 21
-552.5812653343061
 31
0.0
  0
LINE
  5
1D3
330
36
100
AcDbEntity
  8
0
  6
Continuous
 62
     1
100
AcDbLine
 10
1486.54890688184
 20
-543.5812653343061
 30
0.0
 11
1468.54890688184
 21
-543.5812653343061
 31
0.0
  0
LINE
  5
1D4
330
36
100
AcDbEntity
  8
0
  6
Continuous
 62
     3
100
AcDbLine
 10
1429.707997790931
 20
-543.5812653343061
 30
0.0
 11
1429.707997790931
 21
-526.5812591013796
 31
0.0
  0
LINE
  5
1D5
330
36
100
AcDbEntity
  8
0
  6
Continuous
 62
     3
100
AcDbLine
 10
1415.637537654567
 20
-543.5812653343061
 30
0.0
 11
1415.637537654567
 21
-526.5812653343061
 31
0.0
  0
LINE
  5
1D6
330
36
100
AcDbEntity
  8
0
  6
Continuous
 62
     3
100
AcDbLine
 10
1404.54890688184
 20
-530.6049270729001
 30
0.0
 11
1441.821634154567
 21
-530.6049270729001
 31
0.0
  0
LINE
  5
1D7
330
36
100
AcDbEntity
  8
0
  6
Continuous
 62
     3
100
AcDbLine
 10
1441.821634154567
 20
-534.9303731600353
 30
0.0
 11
1404.54890688184
 21
-534.9303731600353
 31
0.0
  0
LINE
  5
1D8
330
36
100
AcDbEntity
  8
0
  6
Continuous
 62
     3
100
AcDbLine
 10
1404.54890688184
 20
-539.2558192471707
 30
0.0
 11
1441.821634154567
 21
-539.2558192471707
 31
0.0
  0
LINE
  5
1D9
330
36
100
AcDbEntity
  8
0
  6
Continuous
 62
     1
100
AcDbLine
 10
1441.821634154567
 20
-543.5812653343061
 30
0.0
 11
1441.821634154567
 21
-526.5812630590858
 31
0.0
  0
LINE
  5
1DA
330
36
100
AcDbEntity
  8
0
  6
Continuous
 62
     3
100
AcDbLine
 10
1387.54890688184
 20
-552.5812653343061
 30
0.0
 11
1387.54890688184
 21
-509.5812653343061
 31
0.0
  0
LINE
  5
1DB
330
36
100
AcDbEntity
  8
0
  6
Continuous
 62
     3
100
AcDbLine
 10
1376.54890688184
 20
-552.5812653343061
 30
0.0
 11
1376.54890688184
 21
-509.5812653343061
 31
0.0
  0
LINE
  5
1DC
330
36
100
AcDbEntity
  8
0
  6
Continuous
 62
     3
100
AcDbLine
 10
1363.54890688184
 20
-552.5812653343061
 30
0.0
 11
1363.54890688184
 21
-509.5812653343061
 31
0.0
  0
LINE
  5
1DD
330
36
100
AcDbEntity
  8
0
  6
Continuous
 62
     3
100
AcDbLine
 10
1353.54890688184
 20
-513.881268334306
 30
0.0
 11
1404.54890688184
 21
-513.881268334306
 31
0.0
  0
LINE
  5
1DE
330
36
100
AcDbEntity
  8
0
  6
Continuous
 62
     3
100
AcDbLine
 10
1404.54890688184
 20
-518.1812713343061
 30
0.0
 11
1353.54890688184
 21
-518.1812713343061
 31
0.0
  0
LINE
  5
1DF
330
36
100
AcDbEntity
  8
0
  6
Continuous
 62
     3
100
AcDbLine
 10
1353.54890688184
 20
-522.481274334306
 30
0.0
 11
1404.54890688184
 21
-522.481274334306
 31
0.0
  0
LINE
  5
1E0
330
36
100
AcDbEntity
  8
0
  6
Continuous
 62
     3
100
AcDbLine
 10
1404.54890688184
 20
-526.781277334306
 30
0.0
 11
1353.54890688184
 21
-526.781277334306
 31
0.0
  0
LINE
  5
1E1
330
36
100
AcDbEntity
  8
0
  6
Continuous
 62
     3
100
AcDbLine
 10
1353.54890688184
 20
-531.0812653343061
 30
0.0
 11
1404.54890688184
 21
-531.0812653343061
 31
0.0
  0
LINE
  5
1E2
330
36
100
AcDbEntity
  8
0
  6
Continuous
 62
     3
100
AcDbLine
 10
1404.54890688184
 20
-535.381268334306
 30
0.0
 11
1353.54890688184
 21
-535.381268334306
 31
0.0
  0
LINE
  5
1E3
330
36
100
AcDbEntity
  8
0
  6
Continuous
 62
     3
100
AcDbLine
 10
1353.54890688184
 20
-539.6812713343061
 30
0.0
 11
1404.54890688184
 21
-539.6812713343061
 31
0.0
  0
LINE
  5
1E4
330
36
100
AcDbEntity
  8
0
  6
Continuous
 62
     3
100
AcDbLine
 10
1404.54890688184
 20
-543.981274334306
 30
0.0
 11
1353.54890688184
 21
-543.981274334306
 31
0.0
  0
LINE
  5
1E5
330
36
100
AcDbEntity
  8
0
  6
Continuous
 62
     4
100
AcDbLine
 10
1353.54890688184
 20
-548.2812623343061
 30
0.0
 11
1404.54890688184
 21
-548.2812623343061
 31
0.0
  0
LINE
  5
1E6
330
36
100
AcDbEntity
  8
1
  6
Continuous
 62
     1
100
AcDbLine
 10
1468.54890688184
 20
-543.5812653343061
 30
0.0
 11
1468.54890688184
 21
-552.5812653343061
 31
0.0
  0
LINE
  5
1E7
330
36
100
AcDbEntity
  8
0
  6
Continuous
 62
     1
100
AcDbLine
 10
1468.54890688184
 20
-543.5812653343061
 30
0.0
 11
1404.54890688184
 21
-543.5812653343061
 31
0.0
  0
LINE
  5
1E8
330
36
100
AcDbEntity
  8
1
  6
Continuous
 62
     3
100
AcDbLine
 10
1455.533271620664
 20
-530.2756542414247
 30
0.0
 11
1455.533271620664
 21
-529.9766386881181
 31
0.0
  0
LINE
  5
1E9
330
36
100
AcDbEntity
  8
EBENE_1
  6
Continuous
 62
     3
100
AcDbLine
 10
1456.85762840647
 20
-531.4887268706582
 30
0.0
 11
1456.85762840647
 21
-531.1860473571842
 31
0.0
  0
LINE
  5
1EA
330
36
100
AcDbEntity
  8
EBENE_1
  6
Continuous
 62
     3
100
AcDbLine
 10
1456.915333921755
 20
-530.2759455436967
 30
0.0
 11
1459.229942743974
 21
-530.2759455436967
 31
0.0
  0
LINE
  5
1EB
330
36
100
AcDbEntity
  8
EBENE_1
  6
Continuous
 62
     3
100
AcDbLine
 10
1459.229942743974
 20
-530.2759455436967
 30
0.0
 11
1459.229942743974
 21
-529.8374471128591
 31
0.0
  0
LINE
  5
1EC
330
36
100
AcDbEntity
  8
EBENE_1
  6
Continuous
 62
     3
100
AcDbLine
 10
1459.229942743974
 20
-529.8374471128591
 30
0.0
 11
1456.150719311598
 21
-529.8374471128591
 31
0.0
  0
LINE
  5
1ED
330
36
100
AcDbEntity
  8
EBENE_1
  6
Continuous
 62
     3
100
AcDbLine
 10
1456.013035512809
 20
-529.9751309116472
 30
0.0
 11
1456.013035512809
 21
-531.8735272973576
 31
0.0
  0
LINE
  5
1EE
330
36
100
AcDbEntity
  8
EBENE_1
  6
Continuous
 62
     3
100
AcDbLine
 10
1456.150719311598
 20
-532.0112110961455
 30
0.0
 11
1459.229942743974
 21
-532.0112110961455
 31
0.0
  0
LINE
  5
1EF
330
36
100
AcDbEntity
  8
EBENE_1
  6
Continuous
 62
     3
100
AcDbLine
 10
1459.229942743974
 20
-532.0112110961455
 30
0.0
 11
1459.229942743974
 21
-531.5450700966753
 31
0.0
  0
LINE
  5
1F0
330
36
100
AcDbEntity
  8
EBENE_1
  6
Continuous
 62
     3
100
AcDbLine
 10
1459.229942743974
 20
-531.5450700966753
 30
0.0
 11
1456.915333921755
 21
-531.5450700966753
 31
0.0
  0
LINE
  5
1F1
330
36
100
AcDbEntity
  8
EBENE_1
  6
Continuous
 62
     3
100
AcDbLine
 10
1456.915333921755
 20
-531.1297041311673
 30
0.0
 11
1459.229942743974
 21
-531.1297041311673
 31
0.0
  0
LINE
  5
1F2
330
36
100
AcDbEntity
  8
EBENE_1
  6
Continuous
 62
     3
100
AcDbLine
 10
1459.229942743974
 20
-531.1297041311673
 30
0.0
 11
1459.229942743974
 21
-530.686682370917
 31
0.0
  0
LINE
  5
1F3
330
36
100
AcDbEntity
  8
EBENE_1
  6
Continuous
 62
     3
100
AcDbLine
 10
1459.229942743974
 20
-530.686682370917
 30
0.0
 11
1456.915333921755
 21
-530.686682370917
 31
0.0
  0
LINE
  5
1F4
330
36
100
AcDbEntity
  8
EBENE_1
  6
Continuous
 62
     3
100
AcDbLine
 10
1456.85762840647
 20
-530.6303391449
 30
0.0
 11
1456.85762840647
 21
-530.3322887697137
 31
0.0
  0
LINE
  5
1F5
330
36
100
AcDbEntity
  8
EBENE_1
  6
Continuous
 62
     3
100
AcDbLine
 10
1449.445121527337
 20
-531.4887268706582
 30
0.0
 11
1449.445121527337
 21
-531.1860473571842
 31
0.0
  0
LINE
  5
1F6
330
36
100
AcDbEntity
  8
1
  6
Continuous
 62
     3
100
AcDbLine
 10
1445.505671939997
 20
-532.0158534605428
 30
0.0
 11
1447.482710772162
 21
-532.0158534605428
 31
0.0
  0
LINE
  5
1F7
330
36
100
AcDbEntity
  8
1
  6
Continuous
 62
     3
100
AcDbLine
 10
1444.897270907888
 20
-530.3069210918968
 30
0.0
 11
1444.897270907888
 21
-531.5463794815053
 31
0.0
  0
LINE
  5
1F8
330
36
100
AcDbEntity
  8
1
  6
Continuous
 62
     3
100
AcDbLine
 10
1445.74140088772
 20
-530.4151767972838
 30
0.0
 11
1445.74140088772
 21
-531.398510208423
 31
0.0
  0
LINE
  5
1F9
330
36
100
AcDbEntity
  8
1
  6
Continuous
 62
     3
100
AcDbLine
 10
1445.88360801592
 20
-531.5364982077272
 30
0.0
 11
1447.161951167147
 21
-531.5364982077272
 31
0.0
  0
LINE
  5
1FA
330
36
100
AcDbEntity
  8
1
  6
Continuous
 62
     3
100
AcDbLine
 10
1445.88360801592
 20
-530.2771887979798
 30
0.0
 11
1447.158935614205
 21
-530.2771887979798
 31
0.0
  0
LINE
  5
1FB
330
36
100
AcDbEntity
  8
1
  6
Continuous
 62
     3
100
AcDbLine
 10
1459.920954055356
 20
-532.3758681582383
 30
0.0
 11
1444.206272822616
 21
-532.3758681582383
 31
0.0
  0
LINE
  5
1FC
330
36
100
AcDbEntity
  8
EBENE_1
  6
Continuous
 62
     3
100
AcDbLine
 10
1443.820546568259
 20
-529.0528346252987
 30
0.0
 11
1460.306680309713
 21
-529.0528346252987
 31
0.0
  0
LINE
  5
1FD
330
36
100
AcDbEntity
  8
EBENE_1
  6
Continuous
 62
     3
100
AcDbLine
 10
1460.915914586713
 20
-529.5236179891663
 30
0.0
 11
1460.915914586713
 21
-532.3296825842356
 31
0.0
  0
LINE
  5
1FE
330
36
100
AcDbEntity
  8
EBENE_1
  6
Continuous
 62
     3
100
AcDbLine
 10
1460.306680309713
 20
-532.8004659481031
 30
0.0
 11
1443.820546568259
 21
-532.8004659481031
 31
0.0
  0
LINE
  5
1FF
330
36
100
AcDbEntity
  8
EBENE_1
  6
Continuous
 62
     3
100
AcDbLine
 10
1443.211312291259
 20
-532.3296825842356
 30
0.0
 11
1443.211312291259
 21
-529.5236179891663
 31
0.0
  0
LINE
  5
200
330
36
100
AcDbEntity
  8
EBENE_1
  6
Continuous
 62
     3
100
AcDbLine
 10
1460.057473956517
 20
-532.2393482570769
 30
0.0
 11
1460.057473956517
 21
-529.6139523163249
 31
0.0
  0
LINE
  5
201
330
36
100
AcDbEntity
  8
EBENE_1
  6
Continuous
 62
     3
100
AcDbLine
 10
1459.920954055356
 20
-529.4774324151635
 30
0.0
 11
1444.206272822616
 21
-529.4774324151635
 31
0.0
  0
LINE
  5
202
330
36
100
AcDbEntity
  8
EBENE_1
  6
Continuous
 62
     3
100
AcDbLine
 10
1444.069752921454
 20
-529.6139523163249
 30
0.0
 11
1444.069752921454
 21
-532.2393482570769
 31
0.0
  0
LINE
  5
203
330
36
100
AcDbEntity
  8
EBENE_1
  6
Continuous
 62
     3
100
AcDbLine
 10
1446.484972757832
 20
-531.1297041311673
 30
0.0
 11
1447.238609697192
 21
-531.1297041311673
 31
0.0
  0
LINE
  5
204
330
36
100
AcDbEntity
  8
EBENE_1
  6
Continuous
 62
     3
100
AcDbLine
 10
1447.297241040134
 20
-530.4145948484704
 30
0.0
 11
1447.297241040134
 21
-530.4946392625209
 31
0.0
  0
LINE
  5
205
330
36
100
AcDbEntity
  8
EBENE_1
  6
Continuous
 62
     3
100
AcDbLine
 10
1447.297241040134
 20
-530.4946392625209
 30
0.0
 11
1448.09111180427
 21
-530.4946392625209
 31
0.0
  0
LINE
  5
206
330
36
100
AcDbEntity
  8
EBENE_1
  6
Continuous
 62
     3
100
AcDbLine
 10
1448.09111180427
 20
-530.4946392625209
 30
0.0
 11
1448.09111180427
 21
-530.3069210918968
 31
0.0
  0
LINE
  5
207
330
36
100
AcDbEntity
  8
EBENE_1
  6
Continuous
 62
     3
100
AcDbLine
 10
1447.482710772162
 20
-529.8374471128591
 30
0.0
 11
1445.505671939997
 21
-529.8374471128591
 31
0.0
  0
LINE
  5
208
330
36
100
AcDbEntity
  8
EBENE_1
  6
Continuous
 62
     3
100
AcDbLine
 10
1448.09111180427
 20
-531.5463794815053
 30
0.0
 11
1448.09111180427
 21
-530.686682370917
 31
0.0
  0
LINE
  5
209
330
36
100
AcDbEntity
  8
EBENE_1
  6
Continuous
 62
     3
100
AcDbLine
 10
1448.09111180427
 20
-530.686682370917
 30
0.0
 11
1446.484972757832
 21
-530.686682370917
 31
0.0
  0
LINE
  5
20A
330
36
100
AcDbEntity
  8
EBENE_1
  6
Continuous
 62
     3
100
AcDbLine
 10
1446.484972757832
 20
-530.686682370917
 30
0.0
 11
1446.484972757832
 21
-531.1297041311673
 31
0.0
  0
LINE
  5
20B
330
36
100
AcDbEntity
  8
EBENE_1
  6
Continuous
 62
     3
100
AcDbLine
 10
1449.502827042622
 20
-530.2759455436967
 30
0.0
 11
1451.817435864842
 21
-530.2759455436967
 31
0.0
  0
LINE
  5
20C
330
36
100
AcDbEntity
  8
EBENE_1
  6
Continuous
 62
     3
100
AcDbLine
 10
1451.817435864842
 20
-530.2759455436967
 30
0.0
 11
1451.817435864842
 21
-529.8374471128591
 31
0.0
  0
LINE
  5
20D
330
36
100
AcDbEntity
  8
EBENE_1
  6
Continuous
 62
     3
100
AcDbLine
 10
1451.817435864842
 20
-529.8374471128591
 30
0.0
 11
1448.738212432465
 21
-529.8374471128591
 31
0.0
  0
LINE
  5
20E
330
36
100
AcDbEntity
  8
EBENE_1
  6
Continuous
 62
     3
100
AcDbLine
 10
1448.600528633677
 20
-529.9751309116472
 30
0.0
 11
1448.600528633677
 21
-531.8735272973576
 31
0.0
  0
LINE
  5
20F
330
36
100
AcDbEntity
  8
EBENE_1
  6
Continuous
 62
     3
100
AcDbLine
 10
1448.738212432465
 20
-532.0112110961455
 30
0.0
 11
1451.817435864842
 21
-532.0112110961455
 31
0.0
  0
LINE
  5
210
330
36
100
AcDbEntity
  8
EBENE_1
  6
Continuous
 62
     3
100
AcDbLine
 10
1451.817435864842
 20
-532.0112110961455
 30
0.0
 11
1451.817435864842
 21
-531.5450700966753
 31
0.0
  0
LINE
  5
211
330
36
100
AcDbEntity
  8
EBENE_1
  6
Continuous
 62
     3
100
AcDbLine
 10
1451.817435864842
 20
-531.5450700966753
 30
0.0
 11
1449.502827042622
 21
-531.5450700966753
 31
0.0
  0
LINE
  5
212
330
36
100
AcDbEntity
  8
EBENE_1
  6
Continuous
 62
     3
100
AcDbLine
 10
1449.502827042622
 20
-531.1297041311673
 30
0.0
 11
1451.817435864842
 21
-531.1297041311673
 31
0.0
  0
LINE
  5
213
330
36
100
AcDbEntity
  8
EBENE_1
  6
Continuous
 62
     3
100
AcDbLine
 10
1451.817435864842
 20
-531.1297041311673
 30
0.0
 11
1451.817435864842
 21
-530.686682370917
 31
0.0
  0
LINE
  5
214
330
36
100
AcDbEntity
  8
EBENE_1
  6
Continuous
 62
     3
100
AcDbLine
 10
1451.817435864842
 20
-530.686682370917
 30
0.0
 11
1449.502827042622
 21
-530.686682370917
 31
0.0
  0
LINE
  5
215
330
36
100
AcDbEntity
  8
EBENE_1
  6
Continuous
 62
     3
100
AcDbLine
 10
1449.445121527337
 20
-530.6303391449
 30
0.0
 11
1449.445121527337
 21
-530.3322887697137
 31
0.0
  0
LINE
  5
216
330
36
100
AcDbEntity
  8
EBENE_1
  6
Continuous
 62
     3
100
AcDbLine
 10
1452.338994262671
 20
-529.8951394020343
 30
0.0
 11
1452.338994262671
 21
-530.2182532545215
 31
0.0
  0
LINE
  5
217
330
36
100
AcDbEntity
  8
EBENE_1
  6
Continuous
 62
     3
100
AcDbLine
 10
1452.396686551846
 20
-530.2759455436967
 30
0.0
 11
1454.277452533735
 21
-530.2759455436967
 31
0.0
  0
LINE
  5
218
330
36
100
AcDbEntity
  8
EBENE_1
  6
Continuous
 62
     3
100
AcDbLine
 10
1454.277452533735
 20
-530.2759455436967
 30
0.0
 11
1452.338994262671
 21
-531.5450700966753
 31
0.0
  0
LINE
  5
219
330
36
100
AcDbEntity
  8
EBENE_1
  6
Continuous
 62
     3
100
AcDbLine
 10
1452.338994262671
 20
-531.5450700966753
 30
0.0
 11
1452.338994262671
 21
-531.9542991474246
 31
0.0
  0
LINE
  5
21A
330
36
100
AcDbEntity
  8
EBENE_1
  6
Continuous
 62
     3
100
AcDbLine
 10
1452.396686551846
 20
-532.0118459493965
 30
0.0
 11
1455.475579331488
 21
-532.0118459493965
 31
0.0
  0
LINE
  5
21B
330
36
100
AcDbEntity
  8
EBENE_1
  6
Continuous
 62
     3
100
AcDbLine
 10
1455.533271620664
 20
-531.9542991474246
 30
0.0
 11
1455.533271620664
 21
-531.6026168986472
 31
0.0
  0
LINE
  5
21C
330
36
100
AcDbEntity
  8
EBENE_1
  6
Continuous
 62
     3
100
AcDbLine
 10
1455.475579331488
 20
-531.5450700966753
 30
0.0
 11
1453.631290959308
 21
-531.5450700966753
 31
0.0
  0
LINE
  5
21D
330
36
100
AcDbEntity
  8
EBENE_1
  6
Continuous
 62
     3
100
AcDbLine
 10
1453.631290959308
 20
-531.5450700966753
 30
0.0
 11
1455.533271620664
 21
-530.2756542414247
 31
0.0
  0
LINE
  5
21E
330
36
100
AcDbEntity
  8
EBENE_1
  6
Continuous
 62
     3
100
AcDbLine
 10
1455.398140460989
 20
-529.8374471128591
 30
0.0
 11
1452.396686551846
 21
-529.8374471128591
 31
0.0
  0
LINE
  5
21F
330
36
100
AcDbEntity
  8
1
  6
Continuous
 62
     3
100
AcDbLine
 10
1447.298074285026
 20
-531.1878220322012
 30
0.0
 11
1447.298074285026
 21
-531.3995550710652
 31
0.0
  0
ARC
  5
220
330
36
100
AcDbEntity
  8
1
  6
Continuous
 62
     3
100
AcDbCircle
 10
1455.47565207509
 20
-531.6026896422487
 30
0.0
 40
0.0576195914926725
100
AcDbArc
 50
0.07233481450615
 51
90.07233481495906
  0
ARC
  5
221
330
36
100
AcDbEntity
  8
1
  6
Continuous
 62
     3
100
AcDbCircle
 10
1455.47565207509
 20
-531.954226403823
 30
0.0
 40
0.0576195914922183
100
AcDbArc
 50
-90.07233481495891
 51
-0.07233481461919
  0
ARC
  5
222
330
36
100
AcDbEntity
  8
1
  6
Continuous
 62
     3
100
AcDbCircle
 10
1452.396613808245
 20
-531.954226403823
 30
0.0
 40
0.0576195914929
100
AcDbArc
 50
-179.9276651853811
 51
-89.92766518617158
  0
ARC
  5
223
330
36
100
AcDbEntity
  8
1
  6
Continuous
 62
     3
100
AcDbCircle
 10
1452.396686551846
 20
-530.2182532545215
 30
0.0
 40
0.0576922891750655
100
AcDbArc
 50
180.0
 51
-90.0
  0
ARC
  5
224
330
36
100
AcDbEntity
  8
1
  6
Continuous
 62
     3
100
AcDbCircle
 10
1452.396686551846
 20
-529.8951394020343
 30
0.0
 40
0.0576922891751792
100
AcDbArc
 50
90.0
 51
180.0
  0
ARC
  5
225
330
36
100
AcDbEntity
  8
1
  6
Continuous
 62
     3
100
AcDbCircle
 10
1456.914527409281
 20
-531.4881741250583
 30
0.0
 40
0.0569016875723276
100
AcDbArc
 50
-179.4434174192997
 51
-89.18787455642278
  0
ARC
  5
226
330
36
100
AcDbEntity
  8
1
  6
Continuous
 62
     3
100
AcDbCircle
 10
1456.914527409281
 20
-531.1866001027842
 30
0.0
 40
0.0569016875725137
100
AcDbArc
 50
89.18787455642116
 51
179.4434174191852
  0
ARC
  5
227
330
36
100
AcDbEntity
  8
1
  6
Continuous
 62
     3
100
AcDbCircle
 10
1456.914527409281
 20
-530.3328415153137
 30
0.0
 40
0.0569016875726274
100
AcDbArc
 50
89.18787455642278
 51
179.4434174191852
  0
ARC
  5
228
330
36
100
AcDbEntity
  8
1
  6
Continuous
 62
     3
100
AcDbCircle
 10
1456.914527409281
 20
-530.6297863993
 30
0.0
 40
0.0569016875723287
100
AcDbArc
 50
-179.4434174191852
 51
-89.18787455642278
  0
ARC
  5
229
330
36
100
AcDbEntity
  8
1
  6
Continuous
 62
     3
100
AcDbCircle
 10
1449.502020530148
 20
-531.4881741250583
 30
0.0
 40
0.0569016875723276
100
AcDbArc
 50
-179.4434174192997
 51
-89.1878745566517
  0
ARC
  5
22A
330
36
100
AcDbEntity
  8
1
  6
Continuous
 62
     3
100
AcDbCircle
 10
1449.502020530148
 20
-531.1866001027842
 30
0.0
 40
0.0569016875725105
100
AcDbArc
 50
89.18787455665009
 51
179.4434174191852
  0
ARC
  5
22B
330
36
100
AcDbEntity
  8
1
  6
Continuous
 62
     3
100
AcDbCircle
 10
1449.502020530148
 20
-530.3328415153137
 30
0.0
 40
0.0569016875726242
100
AcDbArc
 50
89.1878745566517
 51
179.4434174191852
  0
ARC
  5
22C
330
36
100
AcDbEntity
  8
1
  6
Continuous
 62
     3
100
AcDbCircle
 10
1449.502020530148
 20
-530.6297863993
 30
0.0
 40
0.0569016875723287
100
AcDbArc
 50
-179.4434174191852
 51
-89.1878745566517
  0
ARC
  5
22D
330
36
100
AcDbEntity
  8
1
  6
Continuous
 62
     3
100
AcDbCircle
 10
1447.238609697192
 20
-531.1891843214687
 30
0.0
 40
0.0594801903014831
100
AcDbArc
 50
1.31237392904725
 51
90.0
  0
ARC
  5
22E
330
36
100
AcDbEntity
  8
1
  6
Continuous
 62
     3
100
AcDbCircle
 10
1459.920954055356
 20
-532.2393482570769
 30
0.0
 40
0.136519901161364
100
AcDbArc
 50
-90.0
 51
0.0
  0
ARC
  5
22F
330
36
100
AcDbEntity
  8
1
  6
Continuous
 62
     3
100
AcDbCircle
 10
1459.920954055356
 20
-529.6139523163249
 30
0.0
 40
0.1365199011609093
100
AcDbArc
 50
0.0
 51
90.0
  0
ARC
  5
230
330
36
100
AcDbEntity
  8
1
  6
Continuous
 62
     3
100
AcDbCircle
 10
1444.206272822616
 20
-532.2393482570769
 30
0.0
 40
0.1365199011620462
100
AcDbArc
 50
180.0
 51
-90.0
  0
ARC
  5
231
330
36
100
AcDbEntity
  8
1
  6
Continuous
 62
     3
100
AcDbCircle
 10
1444.206272822616
 20
-529.6139523163249
 30
0.0
 40
0.136519901161364
100
AcDbArc
 50
90.0
 51
180.0
  0
SPLINE
  5
232
330
36
100
AcDbEntity
  8
1
  6
Continuous
 62
     3
100
AcDbSpline
210
0.0
220
0.0
230
1.0
 70
     8
 71
     3
 72
    13
 73
     9
 74
     7
 42
0.0000000001
 43
0.0000000001
 44
0.00000001
 40
0.0
 40
0.0
 40
0.0
 40
0.0
 40
0.0353323702701838
 40
0.0704203827952016
 40
0.1027084056752879
 40
0.1352293371689782
 40
0.1740111215769356
 40
0.2125287438766519
 40
0.2125287438766519
 40
0.2125287438766519
 40
0.2125287438766519
 10
1455.533271620664
 20
-529.9766386881181
 30
0.0
 10
1455.532385426517
 20
-529.9648167827149
 30
0.0
 10
1455.530619167119
 20
-529.9412547318963
 30
0.0
 10
1455.516163034444
 20
-529.9094882484898
 30
0.0
 10
1455.495475308062
 20
-529.8831168395652
 30
0.0
 10
1455.469217750405
 20
-529.8606079041227
 30
0.0
 10
1455.436924321096
 20
-529.8416397242197
 30
0.0
 10
1455.411038927542
 20
-529.8388414623967
 30
0.0
 10
1455.398140460989
 20
-529.8374471128591
 30
0.0
 11
1455.533271620664
 21
-529.9766386881181
 31
0.0
 11
1455.528562542124
 21
-529.9416215356323
 31
0.0
 11
1455.514556675872
 21
-529.9094500523983
 31
0.0
 11
1455.494777418953
 21
-529.883929523069
 31
0.0
 11
1455.47020275991
 21
-529.8626293559773
 31
0.0
 11
1455.436052500096
 21
-529.8442503854806
 31
0.0
 11
1455.398140460989
 21
-529.8374471128591
 31
0.0
  0
SPLINE
  5
233
330
36
100
AcDbEntity
  8
1
  6
Continuous
 62
     3
100
AcDbSpline
210
0.0
220
0.0
230
1.0
 70
     8
 71
     3
 72
    13
 73
     9
 74
     7
 42
0.0000000001
 43
0.0000000001
 44
0.00000001
 40
0.0
 40
0.0
 40
0.0
 40
0.0
 40
0.0381152522470618
 40
0.0763355512015111
 40
0.1127548768764213
 40
0.1486421571418416
 40
0.1827729054949411
 40
0.2174479487768728
 40
0.2174479487768728
 40
0.2174479487768728
 40
0.2174479487768728
 10
1456.150719311598
 20
-532.0112110961455
 30
0.0
 10
1456.137967393158
 20
-532.010242922973
 30
0.0
 10
1456.11242841163
 20
-532.0083039083156
 30
0.0
 10
1456.077553077972
 20
-531.9925428708103
 30
0.0
 10
1456.048003179243
 20
-531.9701842402493
 30
0.0
 10
1456.025699457936
 20
-531.9418258251148
 30
0.0
 10
1456.014400832675
 20
-531.9080955196227
 30
0.0
 10
1456.013493013229
 20
-531.8851106461409
 30
0.0
 10
1456.013035512809
 20
-531.8735272973576
 30
0.0
 11
1456.150719311598
 21
-532.0112110961455
 31
0.0
 11
1456.112944286988
 21
-532.0061297607369
 31
0.0
 11
1456.07781699662
 21
-531.9910677315389
 31
0.0
 11
1456.048921324564
 21
-531.9689000203564
 31
0.0
 11
1456.02720067597
 21
-531.940332375905
 31
0.0
 11
1456.016063345749
 21
-531.9080698921398
 31
0.0
 11
1456.013035512809
 21
-531.8735272973576
 31
0.0
  0
SPLINE
  5
234
330
36
100
AcDbEntity
  8
1
  6
Continuous
 62
     3
100
AcDbSpline
210
0.0
220
0.0
230
1.0
 70
     8
 71
     3
 72
    13
 73
     9
 74
     7
 42
0.0000000001
 43
0.0000000001
 44
0.00000001
 40
0.0
 40
0.0
 40
0.0
 40
0.0
 40
0.0381152522470466
 40
0.0763355512014959
 40
0.1127548768764754
 40
0.1486421571419861
 40
0.1827729054951931
 40
0.2174479487770116
 40
0.2174479487770116
 40
0.2174479487770116
 40
0.2174479487770116
 10
1456.150719311598
 20
-529.8374471128591
 30
0.0
 10
1456.137967393157
 20
-529.8384152860315
 30
0.0
 10
1456.11242841163
 20
-529.840354300689
 30
0.0
 10
1456.077553077972
 20
-529.8561153381941
 30
0.0
 10
1456.048003179243
 20
-529.8784739687553
 30
0.0
 10
1456.025699457937
 20
-529.9068323838899
 30
0.0
 10
1456.014400832674
 20
-529.940562689382
 30
0.0
 10
1456.013493013229
 20
-529.963547562864
 30
0.0
 10
1456.013035512809
 20
-529.9751309116472
 30
0.0
 11
1456.150719311598
 21
-529.8374471128591
 31
0.0
 11
1456.112944286988
 21
-529.8425284482676
 31
0.0
 11
1456.07781699662
 21
-529.8575904774656
 31
0.0
 11
1456.048921324564
 21
-529.8797581886482
 31
0.0
 11
1456.02720067597
 21
-529.9083258330998
 31
0.0
 11
1456.016063345749
 21
-529.940588316865
 31
0.0
 11
1456.013035512809
 21
-529.9751309116472
 31
0.0
  0
SPLINE
  5
235
330
36
100
AcDbEntity
  8
1
  6
Continuous
 62
     3
100
AcDbSpline
210
0.0
220
0.0
230
1.0
 70
     8
 71
     3
 72
    13
 73
     9
 74
     7
 42
0.0000000001
 43
0.0000000001
 44
0.00000001
 40
0.0
 40
0.0
 40
0.0
 40
0.0
 40
0.0381152522466111
 40
0.0763355512012693
 40
0.1127548768761796
 40
0.1486421571414622
 40
0.1827729054944875
 40
0.2174479487763796
 40
0.2174479487763796
 40
0.2174479487763796
 40
0.2174479487763796
 10
1448.738212432465
 20
-532.0112110961455
 30
0.0
 10
1448.725460514024
 20
-532.010242922973
 30
0.0
 10
1448.699921532497
 20
-532.0083039083154
 30
0.0
 10
1448.665046198839
 20
-531.9925428708104
 30
0.0
 10
1448.63549630011
 20
-531.9701842402494
 30
0.0
 10
1448.613192578804
 20
-531.941825825115
 30
0.0
 10
1448.601893953542
 20
-531.9080955196226
 30
0.0
 10
1448.600986134097
 20
-531.8851106461409
 30
0.0
 10
1448.600528633677
 20
-531.8735272973576
 30
0.0
 11
1448.738212432465
 21
-532.0112110961455
 31
0.0
 11
1448.700437407855
 21
-532.0061297607369
 31
0.0
 11
1448.665310117487
 21
-531.9910677315389
 31
0.0
 11
1448.636414445431
 21
-531.9689000203564
 31
0.0
 11
1448.614693796837
 21
-531.940332375905
 31
0.0
 11
1448.603556466617
 21
-531.9080698921398
 31
0.0
 11
1448.600528633677
 21
-531.8735272973576
 31
0.0
  0
SPLINE
  5
236
330
36
100
AcDbEntity
  8
1
  6
Continuous
 62
     3
100
AcDbSpline
210
0.0
220
0.0
230
1.0
 70
     8
 71
     3
 72
    13
 73
     9
 74
     7
 42
0.0000000001
 43
0.0000000001
 44
0.00000001
 40
0.0
 40
0.0
 40
0.0
 40
0.0
 40
0.0381152522465959
 40
0.0763355512012542
 40
0.1127548768762337
 40
0.1486421571416068
 40
0.1827729054947396
 40
0.2174479487765184
 40
0.2174479487765184
 40
0.2174479487765184
 40
0.2174479487765184
 10
1448.738212432465
 20
-529.8374471128591
 30
0.0
 10
1448.725460514024
 20
-529.8384152860315
 30
0.0
 10
1448.699921532497
 20
-529.8403543006889
 30
0.0
 10
1448.66504619884
 20
-529.8561153381942
 30
0.0
 10
1448.63549630011
 20
-529.8784739687552
 30
0.0
 10
1448.613192578804
 20
-529.9068323838898
 30
0.0
 10
1448.601893953542
 20
-529.9405626893821
 30
0.0
 10
1448.600986134097
 20
-529.963547562864
 30
0.0
 10
1448.600528633677
 20
-529.9751309116472
 30
0.0
 11
1448.738212432465
 21
-529.8374471128591
 31
0.0
 11
1448.700437407855
 21
-529.8425284482676
 31
0.0
 11
1448.665310117487
 21
-529.8575904774656
 31
0.0
 11
1448.636414445431
 21
-529.8797581886482
 31
0.0
 11
1448.614693796837
 21
-529.9083258330998
 31
0.0
 11
1448.603556466617
 21
-529.940588316865
 31
0.0
 11
1448.600528633677
 21
-529.9751309116472
 31
0.0
  0
SPLINE
  5
237
330
36
100
AcDbEntity
  8
1
  6
Continuous
 62
     3
100
AcDbSpline
210
0.0
220
0.0
230
1.0
 70
     8
 71
     3
 72
    13
 73
     9
 74
     7
 42
0.0000000001
 43
0.0000000001
 44
0.00000001
 40
0.0
 40
0.0
 40
0.0
 40
0.0
 40
0.0303249383641804
 40
0.0604417851173586
 40
0.0959479298118477
 40
0.1315593707299134
 40
0.1736623627999216
 40
0.2160932553482222
 40
0.2160932553482222
 40
0.2160932553482222
 40
0.2160932553482222
 10
1447.297241040134
 20
-530.4145948484704
 30
0.0
 10
1447.296567861003
 20
-530.4044556597403
 30
0.0
 10
1447.295226122138
 20
-530.3842468580234
 30
0.0
 10
1447.283524761186
 20
-530.3540561442894
 30
0.0
 10
1447.265498808959
 20
-530.3253016113547
 30
0.0
 10
1447.238393916588
 20
-530.2984681700013
 30
0.0
 10
1447.201433419265
 20
-530.2802947262348
 30
0.0
 10
1447.173138134308
 20
-530.2782267811983
 30
0.0
 10
1447.158935614205
 20
-530.2771887979798
 30
0.0
 11
1447.297241040134
 21
-530.4145948484704
 31
0.0
 11
1447.293703740963
 21
-530.3844769235524
 31
0.0
 11
1447.283406529709
 21
-530.3561751232787
 31
0.0
 11
1447.264430240992
 21
-530.3261653452453
 31
0.0
 11
1447.238834541052
 21
-530.3014058042795
 31
0.0
 11
1447.200966226607
 21
-530.2830032853674
 31
0.0
 11
1447.158935614205
 21
-530.2771887979798
 31
0.0
  0
SPLINE
  5
238
330
36
100
AcDbEntity
  8
1
  6
Continuous
 62
     3
100
AcDbSpline
210
0.0
220
0.0
230
1.0
 70
     8
 71
     3
 72
    13
 73
     9
 74
     7
 42
0.0000000001
 43
0.0000000001
 44
0.00000001
 40
0.0
 40
0.0
 40
0.0
 40
0.0
 40
0.0375510748554739
 40
0.0754042334901435
 40
0.1094159352406901
 40
0.1434580761255103
 40
0.1794330429160125
 40
0.2157095328187803
 40
0.2157095328187803
 40
0.2157095328187803
 40
0.2157095328187803
 10
1447.161951167147
 20
-531.5364982077272
 30
0.0
 10
1447.174504805682
 20
-531.535757374912
 30
0.0
 10
1447.199713071889
 20
-531.5342697495705
 30
0.0
 10
1447.234240703411
 20
-531.5202779336603
 30
0.0
 10
1447.261877569924
 20
-531.4977089320378
 30
0.0
 10
1447.282666160976
 20
-531.4694844974923
 30
0.0
 10
1447.29517395298
 20
-531.4357297414263
 30
0.0
 10
1447.29710482168
 20
-531.411646795872
 30
0.0
 10
1447.298074285026
 20
-531.3995550710652
 30
0.0
 11
1447.161951167147
 21
-531.5364982077272
 31
0.0
 11
1447.199261540237
 21
-531.532253295161
 31
0.0
 11
1447.234364116077
 21
-531.5180874634511
 31
0.0
 11
1447.260830708258
 21
-531.4967259243153
 31
0.0
 11
1447.280920021142
 21
-531.4692434414604
 31
0.0
 11
1447.293509376762
 21
-531.4355431987215
 31
0.0
 11
1447.298074285026
 21
-531.3995550710652
 31
0.0
  0
SPLINE
  5
239
330
36
100
AcDbEntity
  8
1
  6
Continuous
 62
     3
100
AcDbSpline
210
0.0
220
0.0
230
1.0
 70
     8
 71
     3
 72
    13
 73
     9
 74
     7
 42
0.0000000001
 43
0.0000000001
 44
0.00000001
 40
0.0
 40
0.0
 40
0.0
 40
0.0
 40
0.0328394650072868
 40
0.0655975995950465
 40
0.1022664447830413
 40
0.1389211607505833
 40
0.1782532813532282
 40
0.2177267691613056
 40
0.2177267691613056
 40
0.2177267691613056
 40
0.2177267691613056
 10
1445.88360801592
 20
-531.5364982077272
 30
0.0
 10
1445.872625124284
 20
-531.5356380529146
 30
0.0
 10
1445.850686541307
 20
-531.533919873554
 30
0.0
 10
1445.818973472256
 20
-531.5201616056416
 30
0.0
 10
1445.78945397027
 20
-531.5003890663544
 30
0.0
 10
1445.763344498057
 20
-531.4729926804899
 30
0.0
 10
1445.744873600183
 20
-531.4381170820025
 30
0.0
 10
1445.74255984207
 20
-531.4117282789979
 30
0.0
 10
1445.74140088772
 20
-531.398510208423
 30
0.0
 11
1445.88360801592
 21
-531.5364982077272
 31
0.0
 11
1445.851059484018
 21
-531.5321366102014
 31
0.0
 11
1445.820678187425
 21
-531.5198862143288
 31
0.0
 11
1445.790302898786
 21
-531.4993448889707
 31
0.0
 11
1445.765234336847
 21
-531.4726028732464
 31
0.0
 11
1445.747460306327
 21
-531.4375158450141
 31
0.0
 11
1445.74140088772
 21
-531.398510208423
 31
0.0
  0
SPLINE
  5
23A
330
36
100
AcDbEntity
  8
1
  6
Continuous
 62
     3
100
AcDbSpline
210
0.0
220
0.0
230
1.0
 70
     8
 71
     3
 72
    13
 73
     9
 74
     7
 42
0.0000000001
 43
0.0000000001
 44
0.00000001
 40
0.0
 40
0.0
 40
0.0
 40
0.0
 40
0.1486423989495782
 40
0.2982382234614901
 40
0.439049645379692
 40
0.5790300758319737
 40
0.7141201510155588
 40
0.8476890380275062
 40
0.8476890380275062
 40
0.8476890380275062
 40
0.8476890380275062
 10
1445.505671939997
 20
-532.0158534605428
 30
0.0
 10
1445.456039154214
 20
-532.0130048131709
 30
0.0
 10
1445.356455226867
 20
-532.0072892465663
 30
0.0
 10
1445.215650598478
 20
-531.9627870079815
 30
0.0
 10
1445.08759191791
 20
-531.8958623678784
 30
0.0
 10
1444.984317950175
 20
-531.801129815346
 30
0.0
 10
1444.91291538208
 20
-531.6808131243099
 30
0.0
 10
1444.902466010639
 20
-531.591021223945
 30
0.0
 10
1444.897270907888
 20
-531.5463794815053
 30
0.0
 11
1445.505671939997
 21
-532.0158534605428
 31
0.0
 11
1445.357751791448
 21
-532.001218146441
 31
0.0
 11
1445.214618176679
 21
-531.9577247097577
 31
0.0
 11
1445.0908201048
 21
-531.8906285553105
 31
0.0
 11
1444.988345897173
 21
-531.7952684080752
 31
0.0
 11
1444.921876708901
 21
-531.6776623902714
 31
0.0
 11
1444.897270907888
 21
-531.5463794815053
 31
0.0
  0
SPLINE
  5
23B
330
36
100
AcDbEntity
  8
1
  6
Continuous
 62
     3
100
AcDbSpline
210
0.0
220
0.0
230
1.0
 70
     8
 71
     3
 72
    13
 73
     9
 74
     7
 42
0.0000000001
 43
0.0000000001
 44
0.00000001
 40
0.0
 40
0.0
 40
0.0
 40
0.0
 40
0.0328394650072868
 40
0.065597599595089
 40
0.1022664447830201
 40
0.1389211607504792
 40
0.1782532813531241
 40
0.2177267691612015
 40
0.2177267691612015
 40
0.2177267691612015
 40
0.2177267691612015
 10
1445.88360801592
 20
-530.2771887979798
 30
0.0
 10
1445.872625124284
 20
-530.2780489527923
 30
0.0
 10
1445.850686541307
 20
-530.2797671321529
 30
0.0
 10
1445.818973472256
 20
-530.2935254000656
 30
0.0
 10
1445.78945397027
 20
-530.3132979393524
 30
0.0
 10
1445.763344498057
 20
-530.3406943252169
 30
0.0
 10
1445.744873600183
 20
-530.3755699237042
 30
0.0
 10
1445.74255984207
 20
-530.4019587267089
 30
0.0
 10
1445.74140088772
 20
-530.4151767972838
 30
0.0
 11
1445.88360801592
 21
-530.2771887979798
 31
0.0
 11
1445.851059484018
 21
-530.2815503955055
 31
0.0
 11
1445.820678187425
 21
-530.2938007913782
 31
0.0
 11
1445.790302898786
 21
-530.3143421167363
 31
0.0
 11
1445.765234336847
 21
-530.3410841324604
 31
0.0
 11
1445.747460306327
 21
-530.3761711606927
 31
0.0
 11
1445.74140088772
 21
-530.4151767972838
 31
0.0
  0
SPLINE
  5
23C
330
36
100
AcDbEntity
  8
1
  6
Continuous
 62
     3
100
AcDbSpline
210
0.0
220
0.0
230
1.0
 70
     8
 71
     3
 72
    13
 73
     9
 74
     7
 42
0.0000000001
 43
0.0000000001
 44
0.00000001
 40
0.0
 40
0.0
 40
0.0
 40
0.0
 40
0.1486423989488994
 40
0.2982382234601586
 40
0.4390496453783606
 40
0.5790300758311416
 40
0.7141201510146148
 40
0.8476890380265621
 40
0.8476890380265621
 40
0.8476890380265621
 40
0.8476890380265621
 10
1447.482710772162
 20
-532.0158534605428
 30
0.0
 10
1447.532343557945
 20
-532.0130048131708
 30
0.0
 10
1447.631927485291
 20
-532.0072892465662
 30
0.0
 10
1447.772732113679
 20
-531.9627870079817
 30
0.0
 10
1447.900790794248
 20
-531.8958623678782
 30
0.0
 10
1448.004064761983
 20
-531.8011298153464
 30
0.0
 10
1448.075467330078
 20
-531.6808131243099
 30
0.0
 10
1448.08591670152
 20
-531.5910212239448
 30
0.0
 10
1448.09111180427
 20
-531.5463794815053
 30
0.0
 11
1447.482710772162
 21
-532.0158534605428
 31
0.0
 11
1447.63063092071
 21
-532.001218146441
 31
0.0
 11
1447.773764535478
 21
-531.9577247097577
 31
0.0
 11
1447.897562607357
 21
-531.8906285553105
 31
0.0
 11
1448.000036814986
 21
-531.7952684080752
 31
0.0
 11
1448.066506003257
 21
-531.6776623902714
 31
0.0
 11
1448.09111180427
 21
-531.5463794815053
 31
0.0
  0
SPLINE
  5
23D
330
36
100
AcDbEntity
  8
1
  6
Continuous
 62
     3
100
AcDbSpline
210
0.0
220
0.0
230
1.0
 70
     8
 71
     3
 72
    13
 73
     9
 74
     7
 42
0.0000000001
 43
0.0000000001
 44
0.00000001
 40
0.0
 40
0.0
 40
0.0
 40
0.0
 40
0.1486423989488994
 40
0.2982382234601917
 40
0.4390496453782311
 40
0.5790300758312446
 40
0.7141201510146187
 40
0.8476890380267895
 40
0.8476890380267895
 40
0.8476890380267895
 40
0.8476890380267895
 10
1447.482710772162
 20
-529.8374471128591
 30
0.0
 10
1447.532343557945
 20
-529.8402957602308
 30
0.0
 10
1447.631927485291
 20
-529.8460113268353
 30
0.0
 10
1447.772732113679
 20
-529.8905135654206
 30
0.0
 10
1447.900790794248
 20
-529.9574382055232
 30
0.0
 10
1448.004064761983
 20
-530.0521707580556
 30
0.0
 10
1448.075467330078
 20
-530.1724874490919
 30
0.0
 10
1448.08591670152
 20
-530.2622793494571
 30
0.0
 10
1448.09111180427
 20
-530.3069210918968
 30
0.0
 11
1447.482710772162
 21
-529.8374471128591
 31
0.0
 11
1447.63063092071
 21
-529.8520824269608
 31
0.0
 11
1447.773764535478
 21
-529.8955758636442
 31
0.0
 11
1447.897562607357
 21
-529.9626720180911
 31
0.0
 11
1448.000036814986
 21
-530.0580321653267
 31
0.0
 11
1448.066506003257
 21
-530.1756381831304
 31
0.0
 11
1448.09111180427
 21
-530.3069210918968
 31
0.0
  0
SPLINE
  5
23E
330
36
100
AcDbEntity
  8
1
  6
Continuous
 62
     3
100
AcDbSpline
210
0.0
220
0.0
230
1.0
 70
     8
 71
     3
 72
    13
 73
     9
 74
     7
 42
0.0000000001
 43
0.0000000001
 44
0.00000001
 40
0.0
 40
0.0
 40
0.0
 40
0.0
 40
0.1486423989495782
 40
0.2982382234615232
 40
0.4390496453795626
 40
0.5790300758320767
 40
0.7141201510155627
 40
0.8476890380277335
 40
0.8476890380277335
 40
0.8476890380277335
 40
0.8476890380277335
 10
1445.505671939997
 20
-529.8374471128591
 30
0.0
 10
1445.456039154213
 20
-529.840295760231
 30
0.0
 10
1445.356455226867
 20
-529.8460113268357
 30
0.0
 10
1445.215650598479
 20
-529.8905135654203
 30
0.0
 10
1445.08759191791
 20
-529.9574382055232
 30
0.0
 10
1444.984317950175
 20
-530.0521707580557
 30
0.0
 10
1444.91291538208
 20
-530.172487449092
 30
0.0
 10
1444.902466010638
 20
-530.2622793494571
 30
0.0
 10
1444.897270907888
 20
-530.3069210918968
 30
0.0
 11
1445.505671939997
 21
-529.8374471128591
 31
0.0
 11
1445.357751791448
 21
-529.8520824269608
 31
0.0
 11
1445.214618176679
 21
-529.8955758636442
 31
0.0
 11
1445.0908201048
 21
-529.9626720180911
 31
0.0
 11
1444.988345897173
 21
-530.0580321653267
 31
0.0
 11
1444.921876708901
 21
-530.1756381831304
 31
0.0
 11
1444.897270907888
 21
-530.3069210918968
 31
0.0
  0
SPLINE
  5
23F
330
36
100
AcDbEntity
  8
1
  6
Continuous
 62
     3
100
AcDbSpline
210
0.0
220
0.0
230
1.0
 70
     8
 71
     3
 72
    13
 73
     9
 74
     7
 42
0.0000000001
 43
0.0000000001
 44
0.00000001
 40
0.0
 40
0.0
 40
0.0
 40
0.0
 40
0.1601947109555298
 40
0.3210951627347451
 40
0.4607710778814843
 40
0.6002079329845902
 40
0.7244156662352014
 40
0.8468166043863375
 40
0.8468166043863375
 40
0.8468166043863375
 40
0.8468166043863375
 10
1460.306680309713
 20
-529.0528346252987
 30
0.0
 10
1460.360184549371
 20
-529.0560755914614
 30
0.0
 10
1460.467428742626
 20
-529.0625718019246
 30
0.0
 10
1460.614326640389
 20
-529.1133672203748
 30
0.0
 10
1460.741286603429
 20
-529.1891271825224
 30
0.0
 10
1460.836155719544
 20
-529.2861079131756
 30
0.0
 10
1460.901590957783
 20
-529.4003147145811
 30
0.0
 10
1460.911163421504
 20
-529.4827181423991
 30
0.0
 10
1460.915914586713
 20
-529.5236179891663
 30
0.0
 11
1460.306680309713
 21
-529.0528346252987
 31
0.0
 11
1460.465979328191
 21
-529.0697511299666
 31
0.0
 11
1460.618485838668
 21
-529.1210416714417
 31
0.0
 11
1460.737628874051
 21
-529.1939409059496
 31
0.0
 11
1460.834891440567
 21
-529.2938540167795
 31
0.0
 11
1460.893721709246
 21
-529.4032457920026
 31
0.0
 11
1460.915914586713
 21
-529.5236179891663
 31
0.0
  0
SPLINE
  5
240
330
36
100
AcDbEntity
  8
1
  6
Continuous
 62
     3
100
AcDbSpline
210
0.0
220
0.0
230
1.0
 70
     8
 71
     3
 72
    13
 73
     9
 74
     7
 42
0.0000000001
 43
0.0000000001
 44
0.00000001
 40
0.0
 40
0.0
 40
0.0
 40
0.0
 40
0.1601947109555298
 40
0.3210951627347813
 40
0.4607710778814612
 40
0.6002079329844042
 40
0.7244156662353158
 40
0.8468166043863402
 40
0.8468166043863402
 40
0.8468166043863402
 40
0.8468166043863402
 10
1460.306680309713
 20
-532.8004659481031
 30
0.0
 10
1460.360184549372
 20
-532.7972249819404
 30
0.0
 10
1460.467428742626
 20
-532.7907287714772
 30
0.0
 10
1460.614326640389
 20
-532.7399333530269
 30
0.0
 10
1460.741286603429
 20
-532.6641733908793
 30
0.0
 10
1460.836155719544
 20
-532.5671926602263
 30
0.0
 10
1460.901590957783
 20
-532.4529858588207
 30
0.0
 10
1460.911163421504
 20
-532.3705824310027
 30
0.0
 10
1460.915914586713
 20
-532.3296825842356
 30
0.0
 11
1460.306680309713
 21
-532.8004659481031
 31
0.0
 11
1460.465979328191
 21
-532.7835494434353
 31
0.0
 11
1460.618485838668
 21
-532.73225890196
 31
0.0
 11
1460.737628874051
 21
-532.6593596674522
 31
0.0
 11
1460.834891440567
 21
-532.5594465566226
 31
0.0
 11
1460.893721709246
 21
-532.4500547813991
 31
0.0
 11
1460.915914586713
 21
-532.3296825842356
 31
0.0
  0
SPLINE
  5
241
330
36
100
AcDbEntity
  8
1
  6
Continuous
 62
     3
100
AcDbSpline
210
0.0
220
0.0
230
1.0
 70
     8
 71
     3
 72
    13
 73
     9
 74
     7
 42
0.0000000001
 43
0.0000000001
 44
0.00000001
 40
0.0
 40
0.0
 40
0.0
 40
0.0
 40
0.160194710955982
 40
0.3210951627356645
 40
0.4607710778823444
 40
0.6002079329851289
 40
0.7244156662361482
 40
0.8468166043870489
 40
0.8468166043870489
 40
0.8468166043870489
 40
0.8468166043870489
 10
1443.820546568259
 20
-532.8004659481031
 30
0.0
 10
1443.767042328601
 20
-532.7972249819404
 30
0.0
 10
1443.659798135346
 20
-532.7907287714773
 30
0.0
 10
1443.512900237582
 20
-532.7399333530269
 30
0.0
 10
1443.385940274542
 20
-532.6641733908793
 30
0.0
 10
1443.291071158428
 20
-532.5671926602263
 30
0.0
 10
1443.225635920189
 20
-532.4529858588207
 30
0.0
 10
1443.216063456468
 20
-532.3705824310027
 30
0.0
 10
1443.211312291259
 20
-532.3296825842356
 30
0.0
 11
1443.820546568259
 21
-532.8004659481031
 31
0.0
 11
1443.661247549781
 21
-532.7835494434353
 31
0.0
 11
1443.508741039303
 21
-532.73225890196
 31
0.0
 11
1443.38959800392
 21
-532.6593596674522
 31
0.0
 11
1443.292335437404
 21
-532.5594465566226
 31
0.0
 11
1443.233505168726
 21
-532.4500547813991
 31
0.0
 11
1443.211312291259
 21
-532.3296825842356
 31
0.0
  0
SPLINE
  5
242
330
36
100
AcDbEntity
  8
1
  6
Continuous
 62
     3
100
AcDbSpline
210
0.0
220
0.0
230
1.0
 70
     8
 71
     3
 72
    13
 73
     9
 74
     7
 42
0.0000000001
 43
0.0000000001
 44
0.00000001
 40
0.0
 40
0.0
 40
0.0
 40
0.0
 40
0.160194710955982
 40
0.3210951627356283
 40
0.4607710778823676
 40
0.6002079329853149
 40
0.7244156662360338
 40
0.8468166043870463
 40
0.8468166043870463
 40
0.8468166043870463
 40
0.8468166043870463
 10
1443.820546568259
 20
-529.0528346252987
 30
0.0
 10
1443.767042328601
 20
-529.0560755914614
 30
0.0
 10
1443.659798135346
 20
-529.0625718019246
 30
0.0
 10
1443.512900237582
 20
-529.1133672203748
 30
0.0
 10
1443.385940274542
 20
-529.1891271825224
 30
0.0
 10
1443.291071158428
 20
-529.2861079131759
 30
0.0
 10
1443.225635920188
 20
-529.4003147145809
 30
0.0
 10
1443.216063456468
 20
-529.482718142399
 30
0.0
 10
1443.211312291259
 20
-529.5236179891663
 30
0.0
 11
1443.820546568259
 21
-529.0528346252987
 31
0.0
 11
1443.661247549781
 21
-529.0697511299666
 31
0.0
 11
1443.508741039303
 21
-529.1210416714417
 31
0.0
 11
1443.38959800392
 21
-529.1939409059496
 31
0.0
 11
1443.292335437404
 21
-529.2938540167795
 31
0.0
 11
1443.233505168726
 21
-529.4032457920026
 31
0.0
 11
1443.211312291259
 21
-529.5236179891663
 31
0.0
  0
MTEXT
  5
244
330
36
100
AcDbEntity
  8
1
 62
     3
100
AcDbMText
 10
1422.672767722749
 20
-537.0930962036031
 30
0.0
 40
2.5
 41
0.0
 71
     5
 72
     1
  1
14.04.1999
  7
CONVERTER_13
 73
     1
 44
1.02040816326531
  0
MTEXT
  5
245
330
36
100
AcDbEntity
  8
1
 62
     3
100
AcDbMText
 10
1435.764815972749
 20
-537.0930962036031
 30
0.0
 40
2.5
 41
0.0
 71
     5
 72
     1
  1
tbm4
  7
CONVERTER_13
 73
     1
 44
1.02040816326531
  0
MTEXT
  5
246
330
36
100
AcDbEntity
  8
0
 62
     7
100
AcDbMText
 10
1352.822238459965
 20
-461.114936428056
 30
0.0
 40
1.3
 41
0.0
 71
     7
 72
     1
  3
Diese Zeichnung entspricht dem Entwicklungsstand des Zeichnungs-\Pdatums bzw. der letzten Änderungseintragung.Aus der Benützung der\PZeichnung können keine Ansprüche, gleich welcher Art, einschließ-\Plich Schadenersatzansprüche, abgeleitet und gegen 
  3
GEZE geltend ge-\Pmacht werden. Die Zeichnung bleibt unser Eigentum und ist Dritten\Pnur für die Vertragsdauer zur Benützung überlassen.Sämtliche sich\Paus der Zeichnung ergebenden Ansprüche stehen ausschließlich GEZE\Pzu.Ohne vorherige Zustimmung vo
  1
n GEZE darf diese Zeichnung weder\Pvervielfältigt noch Dritten zugänglich gemacht werden.
  7
CONVERTER_12
 11
6.123233764940082E-17
 21
1.0
 31
0.0
 73
     1
 44
0.7202881152461
  0
TEXT
  5
248
330
36
100
AcDbEntity
  8
0
 62
     3
100
AcDbText
 10
1384.54890688184
 20
-269.5812653343061
 30
0.0
 40
1.798828
  1
4
 41
0.99
  7
CONVERTER_14
100
AcDbText
  0
TEXT
  5
249
330
36
100
AcDbEntity
  8
0
 62
     3
100
AcDbText
 10
1509.54890688184
 20
-269.5812653343061
 30
0.0
 40
1.798828
  1
1
 41
0.99
  7
CONVERTER_14
100
AcDbText
  0
TEXT
  5
24A
330
36
100
AcDbEntity
  8
0
 62
     3
100
AcDbText
 10
1355.54890688184
 20
-441.0812653343061
 30
0.0
 40
1.798828
  1
C
 41
0.99
  7
CONVERTER_14
100
AcDbText
  0
TEXT
  5
24B
330
36
100
AcDbEntity
  8
0
 62
     3
100
AcDbText
 10
1355.54890688184
 20
-391.0812653343061
 30
0.0
 40
1.798828
  1
D
 41
0.99
  7
CONVERTER_14
100
AcDbText
  0
TEXT
  5
24C
330
36
100
AcDbEntity
  8
0
 62
     3
100
AcDbText
 10
1355.54890688184
 20
-341.0812653343061
 30
0.0
 40
1.798828
  1
E
 41
0.99
  7
CONVERTER_14
100
AcDbText
  0
TEXT
  5
24D
330
36
100
AcDbEntity
  8
0
 62
     3
100
AcDbText
 10
1355.54890688184
 20
-291.0812653343061
 30
0.0
 40
1.798828
  1
F
 41
0.99
  7
CONVERTER_14
100
AcDbText
  0
TEXT
  5
24E
330
36
100
AcDbEntity
  8
0
 62
     3
100
AcDbText
 10
1355.54890688184
 20
-489.0812653343061
 30
0.0
 40
1.798828
  1
B
 41
0.99
  7
CONVERTER_14
100
AcDbText
  0
TEXT
  5
24F
330
36
100
AcDbEntity
  8
0
 62
     3
100
AcDbText
 10
1422.54890688184
 20
-269.5812653343061
 30
0.0
 40
1.798828
  1
3
 41
0.99
  7
CONVERTER_14
100
AcDbText
  0
TEXT
  5
250
330
36
100
AcDbEntity
  8
0
 62
     3
100
AcDbText
 10
1466.54890688184
 20
-269.5812653343061
 30
0.0
 40
1.798828
  1
2
 41
0.99
  7
CONVERTER_14
100
AcDbText
  0
MTEXT
  5
252
330
36
100
AcDbEntity
  8
1
 62
     3
100
AcDbMText
 10
1396.04890688184
 20
-511.731364334306
 30
0.0
 40
2.5
 41
0.0
 71
     5
 72
     1
  1
 
  7
CONVERTER_15
 73
     1
 44
1.02040816326531
  0
MTEXT
  5
253
330
36
100
AcDbEntity
  8
1
 62
     3
100
AcDbMText
 10
1396.04890688184
 20
-516.0313523343061
 30
0.0
 40
2.5
 41
0.0
 71
     5
 72
     1
  1
 
  7
CONVERTER_15
 73
     1
 44
1.02040816326531
  0
MTEXT
  5
254
330
36
100
AcDbEntity
  8
1
 62
     3
100
AcDbMText
 10
1396.04890688184
 20
-520.3313403343061
 30
0.0
 40
2.5
 41
0.0
 71
     5
 72
     1
  1
 
  7
CONVERTER_15
 73
     1
 44
1.02040816326531
  0
MTEXT
  5
255
330
36
100
AcDbEntity
  8
1
 62
     3
100
AcDbMText
 10
1396.04890688184
 20
-524.6313283343061
 30
0.0
 40
2.5
 41
0.0
 71
     5
 72
     1
  1
 
  7
CONVERTER_15
 73
     1
 44
1.02040816326531
  0
MTEXT
  5
256
330
36
100
AcDbEntity
  8
1
 62
     3
100
AcDbMText
 10
1396.04890688184
 20
-528.9313163343061
 30
0.0
 40
2.5
 41
0.0
 71
     5
 72
     1
  1
 
  7
CONVERTER_15
 73
     1
 44
1.02040816326531
  0
MTEXT
  5
257
330
36
100
AcDbEntity
  8
1
 62
     3
100
AcDbMText
 10
1396.04890688184
 20
-533.2313043343061
 30
0.0
 40
2.5
 41
0.0
 71
     5
 72
     1
  1
 
  7
CONVERTER_15
 73
     1
 44
1.02040816326531
  0
MTEXT
  5
258
330
36
100
AcDbEntity
  8
1
 62
     3
100
AcDbMText
 10
1396.04890688184
 20
-537.5312923343062
 30
0.0
 40
2.5
 41
0.0
 71
     5
 72
     1
  1
 
  7
CONVERTER_15
 73
     1
 44
1.02040816326531
  0
MTEXT
  5
259
330
36
100
AcDbEntity
  8
1
 62
     3
100
AcDbMText
 10
1396.04890688184
 20
-541.831280334306
 30
0.0
 40
2.5
 41
0.0
 71
     5
 72
     1
  1
 
  7
CONVERTER_15
 73
     1
 44
1.02040816326531
  0
MTEXT
  5
25A
330
36
100
AcDbEntity
  8
1
 62
     3
100
AcDbMText
 10
1382.04890688184
 20
-511.731364334306
 30
0.0
 40
2.5
 41
0.0
 71
     5
 72
     1
  1
 
  7
CONVERTER_15
 73
     1
 44
1.02040816326531
  0
MTEXT
  5
25B
330
36
100
AcDbEntity
  8
1
 62
     3
100
AcDbMText
 10
1382.04890688184
 20
-516.0313523343061
 30
0.0
 40
2.5
 41
0.0
 71
     5
 72
     1
  1
 
  7
CONVERTER_15
 73
     1
 44
1.02040816326531
  0
MTEXT
  5
25C
330
36
100
AcDbEntity
  8
1
 62
     3
100
AcDbMText
 10
1382.04890688184
 20
-520.3313403343061
 30
0.0
 40
2.5
 41
0.0
 71
     5
 72
     1
  1
 
  7
CONVERTER_15
 73
     1
 44
1.02040816326531
  0
MTEXT
  5
25D
330
36
100
AcDbEntity
  8
1
 62
     3
100
AcDbMText
 10
1382.04890688184
 20
-524.6313283343061
 30
0.0
 40
2.5
 41
0.0
 71
     5
 72
     1
  1
 
  7
CONVERTER_15
 73
     1
 44
1.02040816326531
  0
MTEXT
  5
25E
330
36
100
AcDbEntity
  8
1
 62
     3
100
AcDbMText
 10
1382.04890688184
 20
-528.9313163343061
 30
0.0
 40
2.5
 41
0.0
 71
     5
 72
     1
  1
 
  7
CONVERTER_15
 73
     1
 44
1.02040816326531
  0
MTEXT
  5
25F
330
36
100
AcDbEntity
  8
1
 62
     3
100
AcDbMText
 10
1382.04890688184
 20
-533.2313043343061
 30
0.0
 40
2.5
 41
0.0
 71
     5
 72
     1
  1
 
  7
CONVERTER_15
 73
     1
 44
1.02040816326531
  0
MTEXT
  5
260
330
36
100
AcDbEntity
  8
1
 62
     3
100
AcDbMText
 10
1382.04890688184
 20
-537.5312923343062
 30
0.0
 40
2.5
 41
0.0
 71
     5
 72
     1
  1
 
  7
CONVERTER_15
 73
     1
 44
1.02040816326531
  0
MTEXT
  5
261
330
36
100
AcDbEntity
  8
1
 62
     3
100
AcDbMText
 10
1382.04890688184
 20
-541.831280334306
 30
0.0
 40
2.5
 41
0.0
 71
     5
 72
     1
  1
 
  7
CONVERTER_15
 73
     1
 44
1.02040816326531
  0
MTEXT
  5
263
330
36
100
AcDbEntity
  8
1
 62
     3
100
AcDbMText
 10
1370.04890688184
 20
-511.731364334306
 30
0.0
 40
2.5
 41
0.0
 71
     5
 72
     1
  1
 
  7
CONVERTER_16
 73
     1
 44
1.02040816326531
  0
MTEXT
  5
264
330
36
100
AcDbEntity
  8
1
 62
     3
100
AcDbMText
 10
1370.04890688184
 20
-516.0313523343061
 30
0.0
 40
2.5
 41
0.0
 71
     5
 72
     1
  1
 
  7
CONVERTER_16
 73
     1
 44
1.02040816326531
  0
MTEXT
  5
265
330
36
100
AcDbEntity
  8
1
 62
     3
100
AcDbMText
 10
1370.04890688184
 20
-520.3313403343061
 30
0.0
 40
2.5
 41
0.0
 71
     5
 72
     1
  1
 
  7
CONVERTER_16
 73
     1
 44
1.02040816326531
  0
MTEXT
  5
266
330
36
100
AcDbEntity
  8
1
 62
     3
100
AcDbMText
 10
1370.04890688184
 20
-524.6313283343061
 30
0.0
 40
2.5
 41
0.0
 71
     5
 72
     1
  1
 
  7
CONVERTER_16
 73
     1
 44
1.02040816326531
  0
MTEXT
  5
267
330
36
100
AcDbEntity
  8
1
 62
     3
100
AcDbMText
 10
1370.04890688184
 20
-528.9313163343061
 30
0.0
 40
2.5
 41
0.0
 71
     5
 72
     1
  1
 
  7
CONVERTER_16
 73
     1
 44
1.02040816326531
  0
MTEXT
  5
268
330
36
100
AcDbEntity
  8
1
 62
     3
100
AcDbMText
 10
1370.04890688184
 20
-533.2313043343061
 30
0.0
 40
2.5
 41
0.0
 71
     5
 72
     1
  1
 
  7
CONVERTER_16
 73
     1
 44
1.02040816326531
  0
MTEXT
  5
269
330
36
100
AcDbEntity
  8
1
 62
     3
100
AcDbMText
 10
1370.04890688184
 20
-537.5312923343062
 30
0.0
 40
2.5
 41
0.0
 71
     5
 72
     1
  1
 
  7
CONVERTER_16
 73
     1
 44
1.02040816326531
  0
MTEXT
  5
26A
330
36
100
AcDbEntity
  8
1
 62
     3
100
AcDbMText
 10
1370.04890688184
 20
-541.831280334306
 30
0.0
 40
2.5
 41
0.0
 71
     5
 72
     1
  1
 
  7
CONVERTER_16
 73
     1
 44
1.02040816326531
  0
MTEXT
  5
26B
330
36
100
AcDbEntity
  8
1
 62
     3
100
AcDbMText
 10
1358.54890688184
 20
-511.731364334306
 30
0.0
 40
2.5
 41
0.0
 71
     5
 72
     1
  1
 
  7
CONVERTER_12
 73
     1
 44
1.02040816326531
  0
MTEXT
  5
26C
330
36
100
AcDbEntity
  8
1
 62
     3
100
AcDbMText
 10
1358.54890688184
 20
-516.0313523343061
 30
0.0
 40
2.5
 41
0.0
 71
     5
 72
     1
  1
 
  7
CONVERTER_12
 73
     1
 44
1.02040816326531
  0
MTEXT
  5
26D
330
36
100
AcDbEntity
  8
1
 62
     3
100
AcDbMText
 10
1358.54890688184
 20
-520.3313403343061
 30
0.0
 40
2.5
 41
0.0
 71
     5
 72
     1
  1
 
  7
CONVERTER_12
 73
     1
 44
1.02040816326531
  0
MTEXT
  5
26E
330
36
100
AcDbEntity
  8
1
 62
     3
100
AcDbMText
 10
1358.54890688184
 20
-524.6313283343061
 30
0.0
 40
2.5
 41
0.0
 71
     5
 72
     1
  1
 
  7
CONVERTER_12
 73
     1
 44
1.02040816326531
  0
MTEXT
  5
26F
330
36
100
AcDbEntity
  8
1
 62
     3
100
AcDbMText
 10
1358.54890688184
 20
-528.9313163343061
 30
0.0
 40
2.5
 41
0.0
 71
     5
 72
     1
  1
 
  7
CONVERTER_12
 73
     1
 44
1.02040816326531
  0
MTEXT
  5
270
330
36
100
AcDbEntity
  8
1
 62
     3
100
AcDbMText
 10
1358.54890688184
 20
-533.2313043343061
 30
0.0
 40
2.5
 41
0.0
 71
     5
 72
     1
  1
 
  7
CONVERTER_12
 73
     1
 44
1.02040816326531
  0
MTEXT
  5
271
330
36
100
AcDbEntity
  8
1
 62
     3
100
AcDbMText
 10
1358.54890688184
 20
-537.5312923343062
 30
0.0
 40
2.5
 41
0.0
 71
     5
 72
     1
  1
 
  7
CONVERTER_12
 73
     1
 44
1.02040816326531
  0
MTEXT
  5
272
330
36
100
AcDbEntity
  8
1
 62
     3
100
AcDbMText
 10
1358.54890688184
 20
-541.831280334306
 30
0.0
 40
2.5
 41
0.0
 71
     5
 72
     1
  1
 
  7
CONVERTER_12
 73
     1
 44
1.02040816326531
  0
MTEXT
  5
273
330
36
100
AcDbEntity
  8
1
 62
     3
100
AcDbMText
 10
1396.04890688184
 20
-546.131268334306
 30
0.0
 40
2.5
 41
0.0
 71
     5
 72
     1
  1
X
  7
CONVERTER_15
 73
     1
 44
1.02040816326531
  0
MTEXT
  5
274
330
36
100
AcDbEntity
  8
1
 62
     3
100
AcDbMText
 10
1382.04890688184
 20
-546.131268334306
 30
0.0
 40
2.5
 41
0.0
 71
     5
 72
     1
  1
tbm6
  7
CONVERTER_15
 73
     1
 44
1.02040816326531
  0
MTEXT
  5
275
330
36
100
AcDbEntity
  8
1
 62
     3
100
AcDbMText
 10
1370.04890688184
 20
-546.131268334306
 30
0.0
 40
2.5
 41
0.0
 71
     5
 72
     1
  1
14.04.1999
  7
CONVERTER_16
 73
     1
 44
1.02040816326531
  0
MTEXT
  5
276
330
36
100
AcDbEntity
  8
1
 62
     3
100
AcDbMText
 10
1358.54890688184
 20
-546.131268334306
 30
0.0
 40
2.5
 41
0.0
 71
     5
 72
     1
  1
00
  7
CONVERTER_12
 73
     1
 44
1.02040816326531
  0
MTEXT
  5
277
330
36
100
AcDbEntity
  8
1
 62
     3
100
AcDbMText
 10
1426.467563724001
 20
-523.1711296658295
 30
0.0
 40
2.5
 41
0.0
 71
     5
 72
     1
  1
 
  7
CONVERTER_12
 73
     1
 44
1.02040816326531
  0
MTEXT
  5
278
330
36
100
AcDbEntity
  8
1
 62
     3
100
AcDbMText
 10
1426.467563724001
 20
-514.6711296658295
 30
0.0
 40
2.5
 41
0.0
 71
     5
 72
     1
  1
 
  7
CONVERTER_12
 73
     1
 44
1.02040816326531
  0
MTEXT
  5
279
330
36
100
AcDbEntity
  8
1
 62
     4
100
AcDbMText
 10
1482.64035898191
 20
-549.5812653343061
 30
0.0
 40
3.5
 41
0.0
 71
     5
 72
     1
  1
1
  7
CONVERTER_12
 73
     1
 44
1.02040816326531
  0
MTEXT
  5
27A
330
36
100
AcDbEntity
  8
1
 62
     4
100
AcDbMText
 10
1472.347270951265
 20
-549.5812653343061
 30
0.0
 40
3.5
 41
0.0
 71
     5
 72
     1
  1
1
  7
CONVERTER_12
 73
     1
 44
1.02040816326531
  0
MTEXT
  5
27B
330
36
100
AcDbEntity
  8
1
 62
     3
100
AcDbMText
 10
1435.764815972749
 20
-532.7676501164676
 30
0.0
 40
2.5
 41
0.0
 71
     5
 72
     1
  1
tbm6
  7
CONVERTER_13
 73
     1
 44
1.02040816326531
  0
MTEXT
  5
27C
330
36
100
AcDbEntity
  8
1
 62
     3
100
AcDbMText
 10
1422.672767722749
 20
-532.7676501164676
 30
0.0
 40
2.5
 41
0.0
 71
     5
 72
     1
  1
14.04.1999
  7
CONVERTER_13
 73
     1
 44
1.02040816326531
  0
MTEXT
  5
27D
330
36
100
AcDbEntity
  8
1
 62
     1
100
AcDbMText
 10
1422.903259021803
 20
-548.270015026903
 30
0.0
 40
5.0
 41
0.0
 71
     5
 72
     1
  1
1:1
  7
CONVERTER_12
 73
     1
 44
1.02040816326531
  0
MTEXT
  5
27E
330
36
100
AcDbEntity
  8
1
 62
     4
100
AcDbMText
 10
1492.54890688184
 20
-523.0302943953575
 30
0.0
 40
3.5
 41
0.0
 71
     5
 72
     1
  1
ANSCHLAGMASSE
  7
CONVERTER_13
 73
     1
 44
1.02040816326531
  0
MTEXT
  5
27F
330
36
100
AcDbEntity
  8
1
 62
     4
100
AcDbMText
 10
1492.54890688184
 20
-516.1420277904638
 30
0.0
 40
3.5
 41
0.0
 71
     5
 72
     1
  1
GEZE MONTAGEPLATTE-GESTAENGE
  7
CONVERTER_13
 73
     1
 44
1.02040816326531
  0
MTEXT
  5
280
330
36
100
AcDbEntity
  8
1
 62
     1
100
AcDbMText
 10
1511.54890688184
 20
-534.0711141522479
 30
0.0
 40
5.0
 41
0.0
 71
     5
 72
     1
  1
 
  7
CONVERTER_12
 73
     1
 44
1.02040816326531
  0
MTEXT
  5
281
330
36
100
AcDbEntity
  8
1
 62
     1
100
AcDbMText
 10
1511.54890688184
 20
-547.1957462485782
 30
0.0
 40
5.0
 41
0.0
 71
     5
 72
     1
  1
20510-0-185
  7
CONVERTER_13
 73
     1
 44
1.02040816326531
  0
TEXT
  5
282
330
36
100
AcDbEntity
  8
0
 62
     3
100
AcDbText
 10
1487.54890688184
 20
-529.5812653343061
 30
0.0
 40
1.798828
  1
Material Nr.
 41
0.99
  7
CONVERTER_14
100
AcDbText
  0
TEXT
  5
283
330
36
100
AcDbEntity
  8
0
 62
     3
100
AcDbText
 10
1487.54890688184
 20
-542.5812653343061
 30
0.0
 40
1.798828
  1
Zeichnungs Nr.
 41
0.99
  7
CONVERTER_14
100
AcDbText
  0
TEXT
  5
284
330
36
100
AcDbEntity
  8
0
 62
     3
100
AcDbText
 10
1438.54890688184
 20
-546.5812653343061
 30
0.0
 40
1.798828
  1
alte techn.Nr.
 41
0.99
  7
CONVERTER_14
100
AcDbText
  0
TEXT
  5
285
330
36
100
AcDbEntity
  8
0
 62
     3
100
AcDbText
 10
1405.54890688184
 20
-546.5812653343061
 30
0.0
 40
1.798828
  1
Maßstab
 41
0.99
  7
CONVERTER_14
100
AcDbText
  0
TEXT
  5
286
330
36
100
AcDbEntity
  8
0
 62
     3
100
AcDbText
 10
1449.34886388184
 20
-512.4812593343061
 30
0.0
 40
1.798828
  1
Benennung
 41
0.99
  7
CONVERTER_14
100
AcDbText
  0
TEXT
  5
287
330
36
100
AcDbEntity
  8
0
 62
     3
100
AcDbText
 10
1405.54890688184
 20
-520.1812653343061
 30
0.0
 40
1.6
  1
Ersetzt durch:
 41
0.99
  7
CONVERTER_14
100
AcDbText
  0
TEXT
  5
288
330
36
100
AcDbEntity
  8
0
 62
     3
100
AcDbText
 10
1405.54890688184
 20
-511.5812653343061
 30
0.0
 40
1.6
  1
Ersatz für:
 41
0.99
  7
CONVERTER_14
100
AcDbText
  0
MTEXT
  5
289
330
36
100
AcDbEntity
  8
0
 62
     3
100
AcDbMText
 10
1416.569355836386
 20
-529.900788195635
 30
0.0
 40
1.74155141925716
 41
0.0
 71
     7
 72
     1
  1
Datum    Name
  7
CONVERTER_14
 73
     1
 44
0.60024009603842
  0
MTEXT
  5
28A
330
36
100
AcDbEntity
  8
0
 62
     3
100
AcDbMText
 10
1405.480725063658
 20
-542.977709103076
 30
0.0
 40
1.74155141925716
 41
0.0
 71
     7
 72
     1
  1
Norm
  7
CONVERTER_14
 73
     1
 44
0.60024009603842
  0
MTEXT
  5
28B
330
36
100
AcDbEntity
  8
0
 62
     3
100
AcDbMText
 10
1405.480725063658
 20
-538.6522630159407
 30
0.0
 40
1.74155141925716
 41
0.0
 71
     7
 72
     1
  1
Freig.:
  7
CONVERTER_14
 73
     1
 44
0.60024009603842
  0
MTEXT
  5
28C
330
36
100
AcDbEntity
  8
0
 62
     3
100
AcDbMText
 10
1405.480725063658
 20
-534.3268169288053
 30
0.0
 40
1.74155141925716
 41
0.0
 71
     7
 72
     1
  1
Bearb.
  7
CONVERTER_14
 73
     1
 44
0.60024009603842
  0
MTEXT
  5
28E
330
36
100
AcDbEntity
  8
0
 62
     4
100
AcDbMText
 10
1462.797691341637
 20
-531.3103037497903
 30
0.0
 40
2.22374007748728
 41
0.0
 71
     7
 72
     1
  1
GEZE GmbH
  7
CONVERTER_17
 73
     1
 44
0.60024009603842
  0
MTEXT
  5
28F
330
36
100
AcDbEntity
  8
0
 62
     3
100
AcDbMText
 10
1462.797691341636
 20
-540.6917794785645
 30
0.0
 40
1.74155141925716
 41
0.0
 71
     7
 72
     1
  1
P.O. Box 13 63\P71226 Leonberg\PGermany
  7
CONVERTER_14
 73
     1
 44
1.02040816326531
  0
TEXT
  5
290
330
36
100
AcDbEntity
  8
0
 62
     3
100
AcDbText
 10
1354.54890688184
 20
-551.5812653343061
 30
0.0
 40
1.7
  1
Vers.  Datum   Name   Mitt.Nr.
 41
0.99
  7
CONVERTER_14
100
AcDbText
  0
TEXT
  5
291
330
36
100
AcDbEntity
  8
1
 62
     3
100
AcDbText
 10
1469.362245699887
 20
-546.2269532434145
 30
0.0
 40
1.798828
  1
Blatt / von
 41
0.99
  7
CONVERTER_14
100
AcDbText
  0
ENDBLK
  5
38
330
36
100
AcDbEntity
  8
0
100
AcDbBlockEnd
  0
BLOCK
  5
3B
330
39
100
AcDbEntity
  8
0
100
AcDbBlockBegin
  2
rahmen
 70
     0
 71
     0
 10
1353.54890688184
 20
-552.5812653343061
 30
0.0
  3
rahmen
  1

  0
INSERT
  5
3A
330
39
100
AcDbEntity
  8
1
100
AcDbBlockReference
  2
a4kl
 10
1353.54890688184
 20
-552.5812653343061
 30
0.0
  0
ENDBLK
  5
3C
330
39
100
AcDbEntity
  8
0
100
AcDbBlockEnd
  0
BLOCK
  5
163
330
15B
100
AcDbEntity
  8
0
100
AcDbBlockBegin
  2
*D4
 70
     1
 71
     0
 10
0.0
 20
0.0
 30
0.0
  3
*D4
  1

  0
LINE
  5
15C
330
15B
100
AcDbEntity
  8
1
  6
Continuous
 62
     3
100
AcDbLine
 10
7512.697127792409
 20
-2474.65185674773
 30
0.0
 11
7654.697127792414
 21
-2474.65185674773
 31
0.0
  0
LINE
  5
15D
330
15B
100
AcDbEntity
  8
1
  6
Continuous
 62
     3
100
AcDbLine
 10
7654.697127792414
 20
-2440.515363119173
 30
0.0
 11
7654.697127792414
 21
-2484.65185674773
 31
0.0
  0
LINE
  5
15E
330
15B
100
AcDbEntity
  8
1
  6
Continuous
 62
     3
100
AcDbLine
 10
7512.697127792409
 20
-2417.685334066801
 30
0.0
 11
7512.697127792409
 21
-2484.65185674773
 31
0.0
  0
SOLID
  5
15F
330
15B
100
AcDbEntity
  8
1
 62
     3
100
AcDbTrace
 10
7640.697127792414
 20
-2476.494991713954
 30
0.0
 11
7640.697127792414
 21
-2472.808721781506
 31
0.0
 12
7654.697127792414
 22
-2474.65185674773
 32
0.0
 13
7654.697127792414
 23
-2474.65185674773
 33
0.0
  0
SOLID
  5
160
330
15B
100
AcDbEntity
  8
1
 62
     3
100
AcDbTrace
 10
7526.697127792409
 20
-2472.808721781506
 30
0.0
 11
7526.697127792409
 21
-2476.494991713954
 31
0.0
 12
7512.697127792409
 22
-2474.65185674773
 32
0.0
 13
7512.697127792409
 23
-2474.65185674773
 33
0.0
  0
MTEXT
  5
162
330
15B
100
AcDbEntity
  8
1
 62
     4
100
AcDbMText
 10
7545.481518137589
 20
-2464.651884576036
 30
0.0
 40
14.0
 41
0.0
 71
     7
 72
     1
  1
\C4;(\C4;\C4;142\C3;\H8.4;±1\C4;)
  7
CONVERTER_12
 11
0.9999999999970621
 21
2.424068405545307E-6
 31
0.0
 73
     1
 44
0.60024009603842
  0
ENDBLK
  5
164
330
15B
100
AcDbEntity
  8
0
100
AcDbBlockEnd
  0
BLOCK
  5
16E
330
167
100
AcDbEntity
  8
0
100
AcDbBlockBegin
  2
*D5
 70
     1
 71
     0
 10
0.0
 20
0.0
 30
0.0
  3
*D5
  1

  0
LINE
  5
168
330
167
100
AcDbEntity
  8
1
  6
Continuous
 62
     3
100
AcDbLine
 10
7352.697127792409
 20
-2474.65185674773
 30
0.0
 11
7512.697127792409
 21
-2474.65185674773
 31
0.0
  0
LINE
  5
169
330
167
100
AcDbEntity
  8
1
  6
Continuous
 62
     3
100
AcDbLine
 10
7512.697127792409
 20
-2417.685334066801
 30
0.0
 11
7512.697127792409
 21
-2484.65185674773
 31
0.0
  0
LINE
  5
16A
330
167
100
AcDbEntity
  8
1
  6
Continuous
 62
     3
100
AcDbLine
 10
7352.697127792409
 20
-2417.685334066801
 30
0.0
 11
7352.697127792409
 21
-2484.65185674773
 31
0.0
  0
SOLID
  5
16B
330
167
100
AcDbEntity
  8
1
 62
     3
100
AcDbTrace
 10
7498.697127792409
 20
-2476.494991713954
 30
0.0
 11
7498.697127792409
 21
-2472.808721781506
 31
0.0
 12
7512.697127792409
 22
-2474.65185674773
 32
0.0
 13
7512.697127792409
 23
-2474.65185674773
 33
0.0
  0
SOLID
  5
16C
330
167
100
AcDbEntity
  8
1
 62
     3
100
AcDbTrace
 10
7366.697127792409
 20
-2472.808721781506
 30
0.0
 11
7366.697127792409
 21
-2476.494991713954
 31
0.0
 12
7352.697127792409
 22
-2474.65185674773
 32
0.0
 13
7352.697127792409
 23
-2474.65185674773
 33
0.0
  0
MTEXT
  5
16D
330
167
100
AcDbEntity
  8
1
 62
     4
100
AcDbMText
 10
7392.412127792443
 20
-2464.651884576036
 30
0.0
 40
14.0
 41
0.0
 71
     7
 72
     1
  1
\C4;(\C4;\C4;160\C3;\H8.4;±0.2\C4;)
  7
CONVERTER_12
 11
0.9999999999970621
 21
2.424068405545307E-6
 31
0.0
 73
     1
 44
0.60024009603842
  0
ENDBLK
  5
16F
330
167
100
AcDbEntity
  8
0
100
AcDbBlockEnd
  0
BLOCK
  5
179
330
172
100
AcDbEntity
  8
0
100
AcDbBlockBegin
  2
*D6
 70
     1
 71
     0
 10
0.0
 20
0.0
 30
0.0
  3
*D6
  1

  0
LINE
  5
173
330
172
100
AcDbEntity
  8
1
  6
Continuous
 62
     3
100
AcDbLine
 10
7432.597210189418
 20
-2289.86878723471
 30
0.0
 11
7654.697127792414
 21
-2289.86878723471
 31
0.0
  0
LINE
  5
174
330
172
100
AcDbEntity
  8
1
  6
Continuous
 62
     3
100
AcDbLine
 10
7654.697127792414
 20
-2440.515363119173
 30
0.0
 11
7654.697127792414
 21
-2279.86878723471
 31
0.0
  0
LINE
  5
175
330
172
100
AcDbEntity
  8
1
  6
Continuous
 62
     3
100
AcDbLine
 10
7432.597210189418
 20
-2323.873848423857
 30
0.0
 11
7432.597210189418
 21
-2279.86878723471
 31
0.0
  0
SOLID
  5
176
330
172
100
AcDbEntity
  8
1
 62
     3
100
AcDbTrace
 10
7640.697127792414
 20
-2291.711922200934
 30
0.0
 11
7640.697127792414
 21
-2288.025652268486
 31
0.0
 12
7654.697127792414
 22
-2289.86878723471
 32
0.0
 13
7654.697127792414
 23
-2289.86878723471
 33
0.0
  0
SOLID
  5
177
330
172
100
AcDbEntity
  8
1
 62
     3
100
AcDbTrace
 10
7446.597210189418
 20
-2288.025652268486
 30
0.0
 11
7446.597210189418
 21
-2291.711922200934
 31
0.0
 12
7432.597210189418
 22
-2289.86878723471
 32
0.0
 13
7432.597210189418
 23
-2289.86878723471
 33
0.0
  0
MTEXT
  5
178
330
172
100
AcDbEntity
  8
1
 62
     4
100
AcDbMText
 10
7523.939516032425
 20
-2279.86878723471
 30
0.0
 40
14.0
 41
0.0
 71
     7
 72
     1
  1
\C4;222\C3;\H8.4;±1
  7
CONVERTER_12
 11
0.9999999999970621
 21
2.424068405545307E-6
 31
0.0
 73
     1
 44
0.60024009603842
  0
ENDBLK
  5
17A
330
172
100
AcDbEntity
  8
0
100
AcDbBlockEnd
  0
BLOCK
  5
185
330
17D
100
AcDbEntity
  8
0
100
AcDbBlockBegin
  2
*D7
 70
     1
 71
     0
 10
0.0
 20
0.0
 30
0.0
  3
*D7
  1

  0
LINE
  5
17E
330
17D
100
AcDbEntity
  8
1
  6
Continuous
 62
     3
100
AcDbLine
 10
7387.597382474062
 20
-2289.86878723471
 30
0.0
 11
7322.054744431515
 21
-2289.86878723471
 31
0.0
  0
LINE
  5
17F
330
17D
100
AcDbEntity
  8
1
  6
Continuous
 62
     3
100
AcDbLine
 10
7387.597382474062
 20
-2289.86878723471
 30
0.0
 11
7432.597210189418
 21
-2289.86878723471
 31
0.0
  0
LINE
  5
180
330
17D
100
AcDbEntity
  8
1
  6
Continuous
 62
     3
100
AcDbLine
 10
7432.597210189418
 20
-2323.873848423857
 30
0.0
 11
7432.597210189418
 21
-2279.86878723471
 31
0.0
  0
LINE
  5
181
330
17D
100
AcDbEntity
  8
1
  6
Continuous
 62
     3
100
AcDbLine
 10
7387.597382474062
 20
-2323.873848423857
 30
0.0
 11
7387.597382474062
 21
-2279.86878723471
 31
0.0
  0
SOLID
  5
182
330
17D
100
AcDbEntity
  8
1
 62
     3
100
AcDbTrace
 10
7418.597210189418
 20
-2291.711922200934
 30
0.0
 11
7418.597210189418
 21
-2288.025652268486
 31
0.0
 12
7432.597210189418
 22
-2289.86878723471
 32
0.0
 13
7432.597210189418
 23
-2289.86878723471
 33
0.0
  0
SOLID
  5
183
330
17D
100
AcDbEntity
  8
1
 62
     3
100
AcDbTrace
 10
7401.597382474062
 20
-2288.025652268486
 30
0.0
 11
7401.597382474062
 21
-2291.711922200934
 31
0.0
 12
7387.597382474062
 22
-2289.86878723471
 32
0.0
 13
7387.597382474062
 23
-2289.86878723471
 33
0.0
  0
MTEXT
  5
184
330
17D
100
AcDbEntity
  8
1
 62
     4
100
AcDbMText
 10
7322.054744431515
 20
-2281.80154366767
 30
0.0
 40
14.0
 41
0.0
 71
     7
 72
     1
  1
\C4;45\C3;\H8.4;±0.2
  7
CONVERTER_12
 11
0.9999999999970621
 21
2.424068405545307E-6
 31
0.0
 73
     1
 44
0.60024009603842
  0
ENDBLK
  5
186
330
17D
100
AcDbEntity
  8
0
100
AcDbBlockEnd
  0
BLOCK
  5
190
330
189
100
AcDbEntity
  8
0
100
AcDbBlockBegin
  2
*D8
 70
     1
 71
     0
 10
0.0
 20
0.0
 30
0.0
  3
*D8
  1

  0
LINE
  5
18A
330
189
100
AcDbEntity
  8
1
  6
Continuous
 62
     3
100
AcDbLine
 10
6826.493127792413
 20
-2474.65185674773
 30
0.0
 11
6968.493127792419
 21
-2474.65185674773
 31
0.0
  0
LINE
  5
18B
330
189
100
AcDbEntity
  8
1
  6
Continuous
 62
     3
100
AcDbLine
 10
6968.493127792419
 20
-2417.685334066801
 30
0.0
 11
6968.493127792419
 21
-2484.65185674773
 31
0.0
  0
LINE
  5
18C
330
189
100
AcDbEntity
  8
1
  6
Continuous
 62
     3
100
AcDbLine
 10
6826.493127792413
 20
-2440.515363119173
 30
0.0
 11
6826.493127792413
 21
-2484.65185674773
 31
0.0
  0
SOLID
  5
18D
330
189
100
AcDbEntity
  8
1
 62
     3
100
AcDbTrace
 10
6840.493127792413
 20
-2472.808721781506
 30
0.0
 11
6840.493127792413
 21
-2476.494991713954
 31
0.0
 12
6826.493127792413
 22
-2474.65185674773
 32
0.0
 13
6826.493127792413
 23
-2474.65185674773
 33
0.0
  0
SOLID
  5
18E
330
189
100
AcDbEntity
  8
1
 62
     3
100
AcDbTrace
 10
6954.493127792419
 20
-2476.494991713954
 30
0.0
 11
6954.493127792419
 21
-2472.808721781506
 31
0.0
 12
6968.493127792419
 22
-2474.65185674773
 32
0.0
 13
6968.493127792419
 23
-2474.65185674773
 33
0.0
  0
MTEXT
  5
18F
330
189
100
AcDbEntity
  8
1
 62
     4
100
AcDbMText
 10
6867.948737447307
 20
-2464.651884576036
 30
0.0
 40
14.0
 41
0.0
 71
     7
 72
     1
  1
\C4;(\C4;\C4;142\C3;\H8.4;±1\C4;)
  7
CONVERTER_12
 11
0.9999999999970621
 21
2.424068405545307E-6
 31
0.0
 73
     1
 44
0.60024009603842
  0
ENDBLK
  5
191
330
189
100
AcDbEntity
  8
0
100
AcDbBlockEnd
  0
BLOCK
  5
19B
330
194
100
AcDbEntity
  8
0
100
AcDbBlockBegin
  2
*D9
 70
     1
 71
     0
 10
0.0
 20
0.0
 30
0.0
  3
*D9
  1

  0
LINE
  5
195
330
194
100
AcDbEntity
  8
1
  6
Continuous
 62
     3
100
AcDbLine
 10
6968.493127792419
 20
-2474.65185674773
 30
0.0
 11
7128.493127792419
 21
-2474.65185674773
 31
0.0
  0
LINE
  5
196
330
194
100
AcDbEntity
  8
1
  6
Continuous
 62
     3
100
AcDbLine
 10
7128.493127792419
 20
-2417.685334066801
 30
0.0
 11
7128.493127792419
 21
-2484.65185674773
 31
0.0
  0
LINE
  5
197
330
194
100
AcDbEntity
  8
1
  6
Continuous
 62
     3
100
AcDbLine
 10
6968.493127792419
 20
-2417.685334066801
 30
0.0
 11
6968.493127792419
 21
-2484.65185674773
 31
0.0
  0
SOLID
  5
198
330
194
100
AcDbEntity
  8
1
 62
     3
100
AcDbTrace
 10
6982.493127792419
 20
-2472.808721781506
 30
0.0
 11
6982.493127792419
 21
-2476.494991713954
 31
0.0
 12
6968.493127792419
 22
-2474.65185674773
 32
0.0
 13
6968.493127792419
 23
-2474.65185674773
 33
0.0
  0
SOLID
  5
199
330
194
100
AcDbEntity
  8
1
 62
     3
100
AcDbTrace
 10
7114.493127792419
 20
-2476.494991713954
 30
0.0
 11
7114.493127792419
 21
-2472.808721781506
 31
0.0
 12
7128.493127792419
 22
-2474.65185674773
 32
0.0
 13
7128.493127792419
 23
-2474.65185674773
 33
0.0
  0
MTEXT
  5
19A
330
194
100
AcDbEntity
  8
1
 62
     4
100
AcDbMText
 10
7008.208127792453
 20
-2464.651884576036
 30
0.0
 40
14.0
 41
0.0
 71
     7
 72
     1
  1
\C4;(\C4;\C4;160\C3;\H8.4;±0.2\C4;)
  7
CONVERTER_12
 11
0.9999999999970621
 21
2.424068405545307E-6
 31
0.0
 73
     1
 44
0.60024009603842
  0
ENDBLK
  5
19C
330
194
100
AcDbEntity
  8
0
100
AcDbBlockEnd
  0
BLOCK
  5
1A6
330
19F
100
AcDbEntity
  8
0
100
AcDbBlockBegin
  2
*D10
 70
     1
 71
     0
 10
0.0
 20
0.0
 30
0.0
  3
*D10
  1

  0
LINE
  5
1A0
330
19F
100
AcDbEntity
  8
1
  6
Continuous
 62
     3
100
AcDbLine
 10
6826.493127792413
 20
-2289.86878723471
 30
0.0
 11
7048.59304539541
 21
-2289.86878723471
 31
0.0
  0
LINE
  5
1A1
330
19F
100
AcDbEntity
  8
1
  6
Continuous
 62
     3
100
AcDbLine
 10
7048.59304539541
 20
-2323.873848423857
 30
0.0
 11
7048.59304539541
 21
-2279.86878723471
 31
0.0
  0
LINE
  5
1A2
330
19F
100
AcDbEntity
  8
1
  6
Continuous
 62
     3
100
AcDbLine
 10
6826.493127792413
 20
-2440.515363119173
 30
0.0
 11
6826.493127792413
 21
-2279.86878723471
 31
0.0
  0
SOLID
  5
1A3
330
19F
100
AcDbEntity
  8
1
 62
     3
100
AcDbTrace
 10
6840.493127792413
 20
-2288.025652268486
 30
0.0
 11
6840.493127792413
 21
-2291.711922200934
 31
0.0
 12
6826.493127792413
 22
-2289.86878723471
 32
0.0
 13
6826.493127792413
 23
-2289.86878723471
 33
0.0
  0
SOLID
  5
1A4
330
19F
100
AcDbEntity
  8
1
 62
     3
100
AcDbTrace
 10
7034.59304539541
 20
-2291.711922200934
 30
0.0
 11
7034.59304539541
 21
-2288.025652268486
 31
0.0
 12
7048.59304539541
 22
-2289.86878723471
 32
0.0
 13
7048.59304539541
 23
-2289.86878723471
 33
0.0
  0
MTEXT
  5
1A5
330
19F
100
AcDbEntity
  8
1
 62
     4
100
AcDbMText
 10
6908.250739552403
 20
-2279.86878723471
 30
0.0
 40
14.0
 41
0.0
 71
     7
 72
     1
  1
\C4;222\C3;\H8.4;±1
  7
CONVERTER_12
 11
0.9999999999970621
 21
2.424068405545307E-6
 31
0.0
 73
     1
 44
0.60024009603842
  0
ENDBLK
  5
1A7
330
19F
100
AcDbEntity
  8
0
100
AcDbBlockEnd
  0
BLOCK
  5
1B2
330
1AA
100
AcDbEntity
  8
0
100
AcDbBlockBegin
  2
*D11
 70
     1
 71
     0
 10
0.0
 20
0.0
 30
0.0
  3
*D11
  1

  0
LINE
  5
1AB
330
1AA
100
AcDbEntity
  8
1
  6
Continuous
 62
     3
100
AcDbLine
 10
7093.592873110765
 20
-2289.86878723471
 30
0.0
 11
7159.135511153312
 21
-2289.86878723471
 31
0.0
  0
LINE
  5
1AC
330
1AA
100
AcDbEntity
  8
1
  6
Continuous
 62
     3
100
AcDbLine
 10
7048.59304539541
 20
-2289.86878723471
 30
0.0
 11
7093.592873110765
 21
-2289.86878723471
 31
0.0
  0
LINE
  5
1AD
330
1AA
100
AcDbEntity
  8
1
  6
Continuous
 62
     3
100
AcDbLine
 10
7093.592873110765
 20
-2323.873848423857
 30
0.0
 11
7093.592873110765
 21
-2279.86878723471
 31
0.0
  0
LINE
  5
1AE
330
1AA
100
AcDbEntity
  8
1
  6
Continuous
 62
     3
100
AcDbLine
 10
7048.59304539541
 20
-2323.873848423857
 30
0.0
 11
7048.59304539541
 21
-2279.86878723471
 31
0.0
  0
SOLID
  5
1AF
330
1AA
100
AcDbEntity
  8
1
 62
     3
100
AcDbTrace
 10
7062.59304539541
 20
-2288.025652268486
 30
0.0
 11
7062.59304539541
 21
-2291.711922200934
 31
0.0
 12
7048.59304539541
 22
-2289.86878723471
 32
0.0
 13
7048.59304539541
 23
-2289.86878723471
 33
0.0
  0
SOLID
  5
1B0
330
1AA
100
AcDbEntity
  8
1
 62
     3
100
AcDbTrace
 10
7079.592873110765
 20
-2291.711922200934
 30
0.0
 11
7079.592873110765
 21
-2288.025652268486
 31
0.0
 12
7093.592873110765
 22
-2289.86878723471
 32
0.0
 13
7093.592873110765
 23
-2289.86878723471
 33
0.0
  0
MTEXT
  5
1B1
330
1AA
100
AcDbEntity
  8
1
 62
     4
100
AcDbMText
 10
7109.925511153313
 20
-2281.80154366767
 30
0.0
 40
14.0
 41
0.0
 71
     7
 72
     1
  1
\C4;45\C3;\H8.4;±0.2
  7
CONVERTER_12
 11
0.9999999999970621
 21
2.424068405545307E-6
 31
0.0
 73
     1
 44
0.60024009603842
  0
ENDBLK
  5
1B3
330
1AA
100
AcDbEntity
  8
0
100
AcDbBlockEnd
  0
BLOCK
  5
3B5
330
3AE
100
AcDbEntity
  8
0
100
AcDbBlockBegin
  2
*D12
 70
     1
 71
     0
 10
0.0
 20
0.0
 30
0.0
  3
*D12
  1

  0
LINE
  5
3AF
330
3AE
100
AcDbEntity
  8
1
  6
Continuous
 62
     3
100
AcDbLine
 10
1379.061206469215
 20
-279.445923894551
 30
0.0
 11
1437.061206469215
 21
-279.445923894551
 31
0.0
  0
LINE
  5
3B0
330
3AE
100
AcDbEntity
  8
1
  6
Continuous
 62
     3
100
AcDbLine
 10
1437.061206469215
 20
-293.0539205322051
 30
0.0
 11
1437.061206469215
 21
-277.445923894551
 31
0.0
  0
LINE
  5
3B1
330
3AE
100
AcDbEntity
  8
1
  6
Continuous
 62
     3
100
AcDbLine
 10
1379.061206469215
 20
-293.0539205322051
 30
0.0
 11
1379.061206469215
 21
-277.445923894551
 31
0.0
  0
SOLID
  5
3B2
330
3AE
100
AcDbEntity
  8
1
 62
     3
100
AcDbTrace
 10
1381.861206469215
 20
-279.0772969013062
 30
0.0
 11
1381.861206469215
 21
-279.8145508877957
 31
0.0
 12
1379.061206469215
 22
-279.445923894551
 32
0.0
 13
1379.061206469215
 23
-279.445923894551
 33
0.0
  0
SOLID
  5
3B3
330
3AE
100
AcDbEntity
  8
1
 62
     3
100
AcDbTrace
 10
1434.261206469215
 20
-279.8145508877957
 30
0.0
 11
1434.261206469215
 21
-279.0772969013062
 31
0.0
 12
1437.061206469215
 22
-279.445923894551
 32
0.0
 13
1437.061206469215
 23
-279.445923894551
 33
0.0
  0
MTEXT
  5
3B4
330
3AE
100
AcDbEntity
  8
1
 62
     4
100
AcDbMText
 10
1406.6789131346
 20
-277.445923894551
 30
0.0
 40
2.8
 41
0.0
 71
     7
 72
     1
  1
58
  7
CONVERTER_12
 11
0.9999999999970621
 21
2.424068405545307E-6
 31
0.0
 73
     1
 44
0.60024009603842
  0
ENDBLK
  5
3B6
330
3AE
100
AcDbEntity
  8
0
100
AcDbBlockEnd
  0
BLOCK
  5
3C0
330
3B9
100
AcDbEntity
  8
0
100
AcDbBlockBegin
  2
*D13
 70
     1
 71
     0
 10
0.0
 20
0.0
 30
0.0
  3
*D13
  1

  0
LINE
  5
3BA
330
3B9
100
AcDbEntity
  8
1
  6
Continuous
 62
     3
100
AcDbLine
 10
1385.561206469215
 20
-285.904872113835
 30
0.0
 11
1430.561206469215
 21
-285.904872113835
 31
0.0
  0
LINE
  5
3BB
330
3B9
100
AcDbEntity
  8
1
  6
Continuous
 62
     3
100
AcDbLine
 10
1430.561206469215
 20
-299.0539205322051
 30
0.0
 11
1430.561206469215
 21
-283.904872113835
 31
0.0
  0
LINE
  5
3BC
330
3B9
100
AcDbEntity
  8
1
  6
Continuous
 62
     3
100
AcDbLine
 10
1385.561206469215
 20
-299.0539205322051
 30
0.0
 11
1385.561206469215
 21
-283.904872113835
 31
0.0
  0
SOLID
  5
3BD
330
3B9
100
AcDbEntity
  8
1
 62
     3
100
AcDbTrace
 10
1388.361206469215
 20
-285.5362451205903
 30
0.0
 11
1388.361206469215
 21
-286.2734991070797
 31
0.0
 12
1385.561206469215
 22
-285.904872113835
 32
0.0
 13
1385.561206469215
 23
-285.904872113835
 33
0.0
  0
SOLID
  5
3BE
330
3B9
100
AcDbEntity
  8
1
 62
     3
100
AcDbTrace
 10
1427.761206469215
 20
-286.2734991070797
 30
0.0
 11
1427.761206469215
 21
-285.5362451205903
 31
0.0
 12
1430.561206469215
 22
-285.904872113835
 32
0.0
 13
1430.561206469215
 23
-285.904872113835
 33
0.0
  0
MTEXT
  5
3BF
330
3B9
100
AcDbEntity
  8
1
 62
     4
100
AcDbMText
 10
1402.7887646352
 20
-283.904872113835
 30
0.0
 40
2.8
 41
0.0
 71
     7
 72
     1
  1
\C4;45\C3;\H1.68;±0.1
  7
CONVERTER_12
 11
0.9999999999970621
 21
2.424068405545307E-6
 31
0.0
 73
     1
 44
0.60024009603842
  0
ENDBLK
  5
3C1
330
3B9
100
AcDbEntity
  8
0
100
AcDbBlockEnd
  0
BLOCK
  5
3CD
330
3C4
100
AcDbEntity
  8
0
100
AcDbBlockBegin
  2
*D14
 70
     1
 71
     0
 10
0.0
 20
0.0
 30
0.0
  3
*D14
  1

  0
LINE
  5
3C5
330
3C4
100
AcDbEntity
  8
1
  6
Continuous
 62
     3
100
AcDbLine
 10
1464.030458660982
 20
-332.881385520124
 30
0.0
 11
1456.636122535245
 21
-332.881385520124
 31
0.0
  0
LINE
  5
3C6
330
3C4
100
AcDbEntity
  8
1
  6
Continuous
 62
     3
100
AcDbLine
 10
1464.030458660982
 20
-332.881385520124
 30
0.0
 11
1464.530458660982
 21
-332.881385520124
 31
0.0
  0
LINE
  5
3C7
330
3C4
100
AcDbEntity
  8
1
  6
Continuous
 62
     3
100
AcDbLine
 10
1470.130458660982
 20
-332.881385520124
 30
0.0
 11
1464.530458660982
 21
-332.881385520124
 31
0.0
  0
LINE
  5
3C8
330
3C4
100
AcDbEntity
  8
1
  6
Continuous
 62
     3
100
AcDbLine
 10
1464.530458660982
 20
-323.053920532205
 30
0.0
 11
1464.530458660982
 21
-334.881385520124
 31
0.0
  0
LINE
  5
3C9
330
3C4
100
AcDbEntity
  8
1
  6
Continuous
 62
     3
100
AcDbLine
 10
1464.030458660982
 20
-321.2539205322051
 30
0.0
 11
1464.030458660982
 21
-334.881385520124
 31
0.0
  0
SOLID
  5
3CA
330
3C4
100
AcDbEntity
  8
1
 62
     3
100
AcDbTrace
 10
1467.330458660982
 20
-332.5127585268792
 30
0.0
 11
1467.330458660982
 21
-333.2500125133687
 31
0.0
 12
1464.530458660982
 22
-332.881385520124
 32
0.0
 13
1464.530458660982
 23
-332.881385520124
 33
0.0
  0
SOLID
  5
3CB
330
3C4
100
AcDbEntity
  8
1
 62
     3
100
AcDbTrace
 10
1461.230458660982
 20
-333.2500125133687
 30
0.0
 11
1461.230458660982
 21
-332.5127585268792
 31
0.0
 12
1464.030458660982
 22
-332.881385520124
 32
0.0
 13
1464.030458660982
 23
-332.881385520124
 33
0.0
  0
MTEXT
  5
3CC
330
3C4
100
AcDbEntity
  8
1
 62
     4
100
AcDbMText
 10
1456.636122535245
 20
-330.881385520124
 30
0.0
 40
2.8
 41
0.0
 71
     7
 72
     1
  1
0.5
  7
CONVERTER_12
 11
0.9999999999970621
 21
2.424068405545307E-6
 31
0.0
 73
     1
 44
0.60024009603842
  0
ENDBLK
  5
3CE
330
3C4
100
AcDbEntity
  8
0
100
AcDbBlockEnd
  0
BLOCK
  5
3D9
330
3D1
100
AcDbEntity
  8
0
100
AcDbBlockBegin
  2
*D15
 70
     1
 71
     0
 10
0.0
 20
0.0
 30
0.0
  3
*D15
  1

  0
LINE
  5
3D2
330
3D1
100
AcDbEntity
  8
1
  6
Continuous
 62
     3
100
AcDbLine
 10
1474.57941128659
 20
-321.2539205322051
 30
0.0
 11
1474.57941128659
 21
-310.8539205322052
 31
0.0
  0
LINE
  5
3D3
330
3D1
100
AcDbEntity
  8
1
  6
Continuous
 62
     3
100
AcDbLine
 10
1473.20765334905
 20
-321.2539205322051
 30
0.0
 11
1476.57941128659
 21
-321.2539205322051
 31
0.0
  0
LINE
  5
3D4
330
3D1
100
AcDbEntity
  8
1
  6
Continuous
 62
     3
100
AcDbLine
 10
1464.530458660982
 20
-310.8539205322052
 30
0.0
 11
1476.57941128659
 21
-310.8539205322052
 31
0.0
  0
LINE
  5
3D5
330
3D1
100
AcDbEntity
  8
1
  6
Continuous
 62
     3
100
AcDbLine
 10
1464.530458660982
 20
-321.2539205322051
 30
0.0
 11
1468.68311336357
 21
-321.2539205322051
 31
0.0
  0
SOLID
  5
3D6
330
3D1
100
AcDbEntity
  8
1
 62
     3
100
AcDbTrace
 10
1474.948038279835
 20
-313.6539205322052
 30
0.0
 11
1474.210784293345
 21
-313.6539205322052
 31
0.0
 12
1474.57941128659
 22
-310.8539205322052
 32
0.0
 13
1474.57941128659
 23
-310.8539205322052
 33
0.0
  0
SOLID
  5
3D7
330
3D1
100
AcDbEntity
  8
1
 62
     3
100
AcDbTrace
 10
1474.210784293345
 20
-318.4539205322051
 30
0.0
 11
1474.948038279835
 21
-318.4539205322051
 31
0.0
 12
1474.57941128659
 22
-321.2539205322051
 32
0.0
 13
1474.57941128659
 23
-321.2539205322051
 33
0.0
  0
MTEXT
  5
3D8
330
3D1
100
AcDbEntity
  8
1
 62
     4
100
AcDbMText
 10
1472.57941128659
 20
-321.097613983264
 30
0.0
 40
2.8
 41
0.0
 71
     7
 72
     1
  1
\C4;ø\C4;10.4
  7
CONVERTER_12
 11
0.0
 21
1.0
 31
0.0
 73
     1
 44
0.60024009603842
  0
ENDBLK
  5
3DA
330
3D1
100
AcDbEntity
  8
0
100
AcDbBlockEnd
  0
BLOCK
  5
3E4
330
3DD
100
AcDbEntity
  8
0
100
AcDbBlockBegin
  2
*D16
 70
     1
 71
     0
 10
0.0
 20
0.0
 30
0.0
  3
*D16
  1

  0
LINE
  5
3DE
330
3DD
100
AcDbEntity
  8
1
  6
Continuous
 62
     3
100
AcDbLine
 10
1366.77686258207
 20
-323.053920532205
 30
0.0
 11
1366.77686258207
 21
-293.053920532205
 31
0.0
  0
LINE
  5
3DF
330
3DD
100
AcDbEntity
  8
1
  6
Continuous
 62
     3
100
AcDbLine
 10
1379.061206469215
 20
-293.053920532205
 30
0.0
 11
1364.77686258207
 21
-293.053920532205
 31
0.0
  0
LINE
  5
3E0
330
3DD
100
AcDbEntity
  8
1
  6
Continuous
 62
     3
100
AcDbLine
 10
1379.061206469215
 20
-323.053920532205
 30
0.0
 11
1364.77686258207
 21
-323.053920532205
 31
0.0
  0
SOLID
  5
3E1
330
3DD
100
AcDbEntity
  8
1
 62
     3
100
AcDbTrace
 10
1366.408235588825
 20
-320.253920532205
 30
0.0
 11
1367.145489575315
 21
-320.253920532205
 31
0.0
 12
1366.77686258207
 22
-323.053920532205
 32
0.0
 13
1366.77686258207
 23
-323.053920532205
 33
0.0
  0
SOLID
  5
3E2
330
3DD
100
AcDbEntity
  8
1
 62
     3
100
AcDbTrace
 10
1367.145489575315
 20
-295.8539205322051
 30
0.0
 11
1366.408235588825
 21
-295.8539205322051
 31
0.0
 12
1366.77686258207
 22
-293.053920532205
 32
0.0
 13
1366.77686258207
 23
-293.053920532205
 33
0.0
  0
MTEXT
  5
3E3
330
3DD
100
AcDbEntity
  8
1
 62
     4
100
AcDbMText
 10
1364.77686258207
 20
-310.785437835938
 30
0.0
 40
2.8
 41
0.0
 71
     7
 72
     1
  1
30
  7
CONVERTER_12
 11
0.0
 21
1.0
 31
0.0
 73
     1
 44
0.60024009603842
  0
ENDBLK
  5
3E5
330
3DD
100
AcDbEntity
  8
0
100
AcDbBlockEnd
  0
BLOCK
  5
3F1
330
3E8
100
AcDbEntity
  8
0
100
AcDbBlockBegin
  2
*D17
 70
     1
 71
     0
 10
0.0
 20
0.0
 30
0.0
  3
*D17
  1

  0
LINE
  5
3E9
330
3E8
100
AcDbEntity
  8
1
  6
Continuous
 62
     3
100
AcDbLine
 10
1464.530458660982
 20
-286.345254946968
 30
0.0
 11
1470.130458660982
 21
-286.345254946968
 31
0.0
  0
LINE
  5
3EA
330
3E8
100
AcDbEntity
  8
1
  6
Continuous
 62
     3
100
AcDbLine
 10
1459.530458660982
 20
-286.345254946968
 30
0.0
 11
1453.930458660982
 21
-286.345254946968
 31
0.0
  0
LINE
  5
3EB
330
3E8
100
AcDbEntity
  8
1
  6
Continuous
 62
     3
100
AcDbLine
 10
1459.530458660982
 20
-286.345254946968
 30
0.0
 11
1464.530458660982
 21
-286.345254946968
 31
0.0
  0
LINE
  5
3EC
330
3E8
100
AcDbEntity
  8
1
  6
Continuous
 62
     3
100
AcDbLine
 10
1464.530458660982
 20
-293.0539205322051
 30
0.0
 11
1464.530458660982
 21
-284.345254946968
 31
0.0
  0
LINE
  5
3ED
330
3E8
100
AcDbEntity
  8
1
  6
Continuous
 62
     3
100
AcDbLine
 10
1459.530458660982
 20
-293.0539205322051
 30
0.0
 11
1459.530458660982
 21
-284.345254946968
 31
0.0
  0
SOLID
  5
3EE
330
3E8
100
AcDbEntity
  8
1
 62
     3
100
AcDbTrace
 10
1456.730458660982
 20
-286.7138819402127
 30
0.0
 11
1456.730458660982
 21
-285.9766279537233
 31
0.0
 12
1459.530458660982
 22
-286.345254946968
 32
0.0
 13
1459.530458660982
 23
-286.345254946968
 33
0.0
  0
SOLID
  5
3EF
330
3E8
100
AcDbEntity
  8
1
 62
     3
100
AcDbTrace
 10
1467.330458660982
 20
-285.9766279537233
 30
0.0
 11
1467.330458660982
 21
-286.7138819402127
 31
0.0
 12
1464.530458660982
 22
-286.345254946968
 32
0.0
 13
1464.530458660982
 23
-286.345254946968
 33
0.0
  0
MTEXT
  5
3F0
330
3E8
100
AcDbEntity
  8
1
 62
     4
100
AcDbMText
 10
1461.48706427503
 20
-284.345254946968
 30
0.0
 40
2.8
 41
0.0
 71
     7
 72
     1
  1
5
  7
CONVERTER_12
 11
0.9999999999970621
 21
2.424068405545307E-6
 31
0.0
 73
     1
 44
0.60024009603842
  0
ENDBLK
  5
3F2
330
3E8
100
AcDbEntity
  8
0
100
AcDbBlockEnd
  0
BLOCK
  5
3FE
330
3F5
100
AcDbEntity
  8
0
100
AcDbBlockBegin
  2
*D18
 70
     1
 71
     0
 10
0.0
 20
0.0
 30
0.0
  3
*D18
  1

  0
LINE
  5
3F6
330
3F5
100
AcDbEntity
  8
1
  6
Continuous
 62
     3
100
AcDbLine
 10
1446.49701389489
 20
-300.5539205322051
 30
0.0
 11
1446.49701389489
 21
-293.049562830116
 31
0.0
  0
LINE
  5
3F7
330
3F5
100
AcDbEntity
  8
1
  6
Continuous
 62
     3
100
AcDbLine
 10
1446.49701389489
 20
-305.5539205322051
 30
0.0
 11
1446.49701389489
 21
-300.5539205322051
 31
0.0
  0
LINE
  5
3F8
330
3F5
100
AcDbEntity
  8
1
  6
Continuous
 62
     3
100
AcDbLine
 10
1446.49701389489
 20
-311.1539205322051
 30
0.0
 11
1446.49701389489
 21
-305.5539205322051
 31
0.0
  0
LINE
  5
3F9
330
3F5
100
AcDbEntity
  8
1
  6
Continuous
 62
     3
100
AcDbLine
 10
1459.530458660982
 20
-300.5539205322051
 30
0.0
 11
1444.49701389489
 21
-300.5539205322051
 31
0.0
  0
LINE
  5
3FA
330
3F5
100
AcDbEntity
  8
1
  6
Continuous
 62
     3
100
AcDbLine
 10
1459.530458660982
 20
-305.5539205322051
 30
0.0
 11
1444.49701389489
 21
-305.5539205322051
 31
0.0
  0
SOLID
  5
3FB
330
3F5
100
AcDbEntity
  8
1
 62
     3
100
AcDbTrace
 10
1446.865640888135
 20
-308.3539205322051
 30
0.0
 11
1446.128386901645
 21
-308.3539205322051
 31
0.0
 12
1446.49701389489
 22
-305.5539205322051
 32
0.0
 13
1446.49701389489
 23
-305.5539205322051
 33
0.0
  0
SOLID
  5
3FC
330
3F5
100
AcDbEntity
  8
1
 62
     3
100
AcDbTrace
 10
1446.128386901645
 20
-297.7539205322051
 30
0.0
 11
1446.865640888135
 21
-297.7539205322051
 31
0.0
 12
1446.49701389489
 22
-300.5539205322051
 32
0.0
 13
1446.49701389489
 23
-300.5539205322051
 33
0.0
  0
MTEXT
  5
3FD
330
3F5
100
AcDbEntity
  8
1
 62
     4
100
AcDbMText
 10
1444.49701389489
 20
-297.025562830116
 30
0.0
 40
2.8
 41
0.0
 71
     7
 72
     1
  1
\C4;M\C4;5
  7
CONVERTER_12
 11
0.0
 21
1.0
 31
0.0
 73
     1
 44
0.60024009603842
  0
ENDBLK
  5
3FF
330
3F5
100
AcDbEntity
  8
0
100
AcDbBlockEnd
  0
BLOCK
  5
40B
330
402
100
AcDbEntity
  8
0
100
AcDbBlockBegin
  2
*D19
 70
     1
 71
     0
 10
0.0
 20
0.0
 30
0.0
  3
*D19
  1

  0
LINE
  5
403
330
402
100
AcDbEntity
  8
1
  6
Continuous
 62
     3
100
AcDbLine
 10
1452.80916783646
 20
-312.8039205322051
 30
0.0
 11
1452.80916783646
 21
-307.2039205322051
 31
0.0
  0
LINE
  5
404
330
402
100
AcDbEntity
  8
1
  6
Continuous
 62
     3
100
AcDbLine
 10
1452.80916783646
 20
-319.303920532205
 30
0.0
 11
1452.80916783646
 21
-324.9039205322051
 31
0.0
  0
LINE
  5
405
330
402
100
AcDbEntity
  8
1
  6
Continuous
 62
     3
100
AcDbLine
 10
1452.80916783646
 20
-319.303920532205
 30
0.0
 11
1452.80916783646
 21
-312.8039205322051
 31
0.0
  0
LINE
  5
406
330
402
100
AcDbEntity
  8
1
  6
Continuous
 62
     3
100
AcDbLine
 10
1459.530458660982
 20
-312.8039205322051
 30
0.0
 11
1450.80916783646
 21
-312.8039205322051
 31
0.0
  0
LINE
  5
407
330
402
100
AcDbEntity
  8
1
  6
Continuous
 62
     3
100
AcDbLine
 10
1459.530458660982
 20
-319.303920532205
 30
0.0
 11
1450.80916783646
 21
-319.303920532205
 31
0.0
  0
SOLID
  5
408
330
402
100
AcDbEntity
  8
1
 62
     3
100
AcDbTrace
 10
1453.177794829705
 20
-322.1039205322051
 30
0.0
 11
1452.440540843215
 21
-322.1039205322051
 31
0.0
 12
1452.80916783646
 22
-319.303920532205
 32
0.0
 13
1452.80916783646
 23
-319.303920532205
 33
0.0
  0
SOLID
  5
409
330
402
100
AcDbEntity
  8
1
 62
     3
100
AcDbTrace
 10
1452.440540843215
 20
-310.0039205322051
 30
0.0
 11
1453.177794829705
 21
-310.0039205322051
 31
0.0
 12
1452.80916783646
 22
-312.8039205322051
 32
0.0
 13
1452.80916783646
 23
-312.8039205322051
 33
0.0
  0
MTEXT
  5
40A
330
402
100
AcDbEntity
  8
1
 62
     4
100
AcDbMText
 10
1450.80916783646
 20
-319.578555987369
 30
0.0
 40
2.8
 41
0.0
 71
     7
 72
     1
  1
\C4;ø\C4;6.5
  7
CONVERTER_12
 11
0.0
 21
1.0
 31
0.0
 73
     1
 44
0.60024009603842
  0
ENDBLK
  5
40C
330
402
100
AcDbEntity
  8
0
100
AcDbBlockEnd
  0
BLOCK
  5
416
330
40F
100
AcDbEntity
  8
0
100
AcDbBlockBegin
  2
*D20
 70
     1
 71
     0
 10
0.0
 20
0.0
 30
0.0
  3
*D20
  1

  0
LINE
  5
410
330
40F
100
AcDbEntity
  8
1
  6
Continuous
 62
     3
100
AcDbLine
 10
1513.617484179
 20
-418.0067087335339
 30
0.0
 11
1513.617484179
 21
-376.0067087335339
 31
0.0
  0
LINE
  5
411
330
40F
100
AcDbEntity
  8
1
  6
Continuous
 62
     3
100
AcDbLine
 10
1452.141603917793
 20
-418.0067087335339
 30
0.0
 11
1515.617484179
 21
-418.0067087335339
 31
0.0
  0
LINE
  5
412
330
40F
100
AcDbEntity
  8
1
  6
Continuous
 62
     3
100
AcDbLine
 10
1450.041928744698
 20
-376.0067087335339
 30
0.0
 11
1515.617484179
 21
-376.0067087335339
 31
0.0
  0
SOLID
  5
413
330
40F
100
AcDbEntity
  8
1
 62
     3
100
AcDbTrace
 10
1514.078267920556
 20
-379.5067087335339
 30
0.0
 11
1513.156700437444
 21
-379.5067087335339
 31
0.0
 12
1513.617484179
 22
-376.0067087335339
 32
0.0
 13
1513.617484179
 23
-376.0067087335339
 33
0.0
  0
SOLID
  5
414
330
40F
100
AcDbEntity
  8
1
 62
     3
100
AcDbTrace
 10
1513.156700437444
 20
-414.5067087335339
 30
0.0
 11
1514.078267920556
 21
-414.5067087335339
 31
0.0
 12
1513.617484179
 22
-418.0067087335339
 32
0.0
 13
1513.617484179
 23
-418.0067087335339
 33
0.0
  0
MTEXT
  5
415
330
40F
100
AcDbEntity
  8
1
 62
     4
100
AcDbMText
 10
1511.617484179
 20
-402.7809910347898
 30
0.0
 40
3.5
 41
0.0
 71
     7
 72
     1
  1
\C4;42\C3;\H2.1;±0.5
  7
CONVERTER_12
 11
0.0
 21
1.0
 31
0.0
 73
     1
 44
0.60024009603842
  0
ENDBLK
  5
417
330
40F
100
AcDbEntity
  8
0
100
AcDbBlockEnd
  0
BLOCK
  5
423
330
41A
100
AcDbEntity
  8
0
100
AcDbBlockBegin
  2
*D21
 70
     1
 71
     0
 10
0.0
 20
0.0
 30
0.0
  3
*D21
  1

  0
LINE
  5
41B
330
41A
100
AcDbEntity
  8
1
  6
Continuous
 62
     3
100
AcDbLine
 10
1373.40498829992
 20
-316.0539205322051
 30
0.0
 11
1373.40498829992
 21
-310.4539205322051
 31
0.0
  0
LINE
  5
41C
330
41A
100
AcDbEntity
  8
1
  6
Continuous
 62
     3
100
AcDbLine
 10
1373.40498829992
 20
-323.053920532205
 30
0.0
 11
1373.40498829992
 21
-328.6539205322051
 31
0.0
  0
LINE
  5
41D
330
41A
100
AcDbEntity
  8
1
  6
Continuous
 62
     3
100
AcDbLine
 10
1373.40498829992
 20
-323.053920532205
 30
0.0
 11
1373.40498829992
 21
-316.0539205322051
 31
0.0
  0
LINE
  5
41E
330
41A
100
AcDbEntity
  8
1
  6
Continuous
 62
     3
100
AcDbLine
 10
1378.361206469215
 20
-316.0539205322051
 30
0.0
 11
1371.40498829992
 21
-316.0539205322051
 31
0.0
  0
LINE
  5
41F
330
41A
100
AcDbEntity
  8
1
  6
Continuous
 62
     3
100
AcDbLine
 10
1379.061206469215
 20
-323.053920532205
 30
0.0
 11
1371.40498829992
 21
-323.053920532205
 31
0.0
  0
SOLID
  5
420
330
41A
100
AcDbEntity
  8
1
 62
     3
100
AcDbTrace
 10
1373.773615293165
 20
-325.8539205322051
 30
0.0
 11
1373.036361306675
 21
-325.8539205322051
 31
0.0
 12
1373.40498829992
 22
-323.053920532205
 32
0.0
 13
1373.40498829992
 23
-323.053920532205
 33
0.0
  0
SOLID
  5
421
330
41A
100
AcDbEntity
  8
1
 62
     3
100
AcDbTrace
 10
1373.036361306675
 20
-313.2539205322051
 30
0.0
 11
1373.773615293165
 21
-313.2539205322051
 31
0.0
 12
1373.40498829992
 22
-316.0539205322051
 32
0.0
 13
1373.40498829992
 23
-316.0539205322051
 33
0.0
  0
MTEXT
  5
422
330
41A
100
AcDbEntity
  8
1
 62
     4
100
AcDbMText
 10
1371.40498829992
 20
-320.534866994403
 30
0.0
 40
2.8
 41
0.0
 71
     7
 72
     1
  1
7
  7
CONVERTER_12
 11
0.0
 21
1.0
 31
0.0
 73
     1
 44
0.60024009603842
  0
ENDBLK
  5
424
330
41A
100
AcDbEntity
  8
0
100
AcDbBlockEnd
  0
BLOCK
  5
42E
330
427
100
AcDbEntity
  8
0
100
AcDbBlockBegin
  2
*D22
 70
     1
 71
     0
 10
0.0
 20
0.0
 30
0.0
  3
*D22
  1

  0
LINE
  5
428
330
427
100
AcDbEntity
  8
1
  6
Continuous
 62
     3
100
AcDbLine
 10
1373.40498829992
 20
-316.0539205322051
 30
0.0
 11
1373.40498829992
 21
-303.0539205322051
 31
0.0
  0
LINE
  5
429
330
427
100
AcDbEntity
  8
1
  6
Continuous
 62
     3
100
AcDbLine
 10
1381.561206469215
 20
-303.0539205322051
 30
0.0
 11
1371.40498829992
 21
-303.0539205322051
 31
0.0
  0
LINE
  5
42A
330
427
100
AcDbEntity
  8
1
  6
Continuous
 62
     3
100
AcDbLine
 10
1378.361206469215
 20
-316.0539205322051
 30
0.0
 11
1371.40498829992
 21
-316.0539205322051
 31
0.0
  0
SOLID
  5
42B
330
427
100
AcDbEntity
  8
1
 62
     3
100
AcDbTrace
 10
1373.036361306675
 20
-313.2539205322051
 30
0.0
 11
1373.773615293165
 21
-313.2539205322051
 31
0.0
 12
1373.40498829992
 22
-316.0539205322051
 32
0.0
 13
1373.40498829992
 23
-316.0539205322051
 33
0.0
  0
SOLID
  5
42C
330
427
100
AcDbEntity
  8
1
 62
     3
100
AcDbTrace
 10
1373.773615293165
 20
-305.8539205322051
 30
0.0
 11
1373.036361306675
 21
-305.8539205322051
 31
0.0
 12
1373.40498829992
 22
-303.0539205322051
 32
0.0
 13
1373.40498829992
 23
-303.0539205322051
 33
0.0
  0
MTEXT
  5
42D
330
427
100
AcDbEntity
  8
1
 62
     4
100
AcDbMText
 10
1371.40498829992
 20
-310.870972848316
 30
0.0
 40
2.8
 41
0.0
 71
     7
 72
     1
  1
13
  7
CONVERTER_12
 11
0.0
 21
1.0
 31
0.0
 73
     1
 44
0.60024009603842
  0
ENDBLK
  5
42F
330
427
100
AcDbEntity
  8
0
100
AcDbBlockEnd
  0
BLOCK
  5
439
330
432
100
AcDbEntity
  8
0
100
AcDbBlockBegin
  2
*D23
 70
     1
 71
     0
 10
0.0
 20
0.0
 30
0.0
  3
*D23
  1

  0
LINE
  5
433
330
432
100
AcDbEntity
  8
1
  6
Continuous
 62
     3
100
AcDbLine
 10
1523.31176389822
 20
-434.0067087335339
 30
0.0
 11
1523.31176389822
 21
-418.0067087335339
 31
0.0
  0
LINE
  5
434
330
432
100
AcDbEntity
  8
1
  6
Continuous
 62
     3
100
AcDbLine
 10
1452.636286870096
 20
-434.0067087335339
 30
0.0
 11
1525.31176389822
 21
-434.0067087335339
 31
0.0
  0
LINE
  5
435
330
432
100
AcDbEntity
  8
1
  6
Continuous
 62
     3
100
AcDbLine
 10
1452.141603917793
 20
-418.0067087335339
 30
0.0
 11
1525.31176389822
 21
-418.0067087335339
 31
0.0
  0
SOLID
  5
436
330
432
100
AcDbEntity
  8
1
 62
     3
100
AcDbTrace
 10
1522.850980156664
 20
-430.5067087335339
 30
0.0
 11
1523.772547639776
 21
-430.5067087335339
 31
0.0
 12
1523.31176389822
 22
-434.0067087335339
 32
0.0
 13
1523.31176389822
 23
-434.0067087335339
 33
0.0
  0
SOLID
  5
437
330
432
100
AcDbEntity
  8
1
 62
     3
100
AcDbTrace
 10
1523.772547639776
 20
-421.5067087335339
 30
0.0
 11
1522.850980156664
 21
-421.5067087335339
 31
0.0
 12
1523.31176389822
 22
-418.0067087335339
 32
0.0
 13
1523.31176389822
 23
-418.0067087335339
 33
0.0
  0
MTEXT
  5
438
330
432
100
AcDbEntity
  8
1
 62
     4
100
AcDbMText
 10
1521.31176389822
 20
-431.3388301924657
 30
0.0
 40
3.5
 41
0.0
 71
     7
 72
     1
  1
\C4;16\C3;\H2.1;±0.2
  7
CONVERTER_12
 11
0.0
 21
1.0
 31
0.0
 73
     1
 44
0.60024009603842
  0
ENDBLK
  5
43A
330
432
100
AcDbEntity
  8
0
100
AcDbBlockEnd
  0
BLOCK
  5
444
330
43D
100
AcDbEntity
  8
0
100
AcDbBlockBegin
  2
*D24
 70
     1
 71
     0
 10
0.0
 20
0.0
 30
0.0
  3
*D24
  1

  0
LINE
  5
43E
330
43D
100
AcDbEntity
  8
1
  6
Continuous
 62
     3
100
AcDbLine
 10
1523.31176389822
 20
-418.0067087335339
 30
0.0
 11
1523.31176389822
 21
-353.0067087335339
 31
0.0
  0
LINE
  5
43F
330
43D
100
AcDbEntity
  8
1
  6
Continuous
 62
     3
100
AcDbLine
 10
1452.141603917793
 20
-418.0067087335339
 30
0.0
 11
1525.31176389822
 21
-418.0067087335339
 31
0.0
  0
LINE
  5
440
330
43D
100
AcDbEntity
  8
1
  6
Continuous
 62
     3
100
AcDbLine
 10
1452.175311078031
 20
-353.0067087335339
 30
0.0
 11
1525.31176389822
 21
-353.0067087335339
 31
0.0
  0
SOLID
  5
441
330
43D
100
AcDbEntity
  8
1
 62
     3
100
AcDbTrace
 10
1522.850980156664
 20
-414.5067087335339
 30
0.0
 11
1523.772547639776
 21
-414.5067087335339
 31
0.0
 12
1523.31176389822
 22
-418.0067087335339
 32
0.0
 13
1523.31176389822
 23
-418.0067087335339
 33
0.0
  0
SOLID
  5
442
330
43D
100
AcDbEntity
  8
1
 62
     3
100
AcDbTrace
 10
1523.772547639776
 20
-356.5067087335339
 30
0.0
 11
1522.850980156664
 21
-356.5067087335339
 31
0.0
 12
1523.31176389822
 22
-353.0067087335339
 32
0.0
 13
1523.31176389822
 23
-353.0067087335339
 33
0.0
  0
MTEXT
  5
443
330
43D
100
AcDbEntity
  8
1
 62
     4
100
AcDbMText
 10
1521.31176389822
 20
-390.0567087335339
 30
0.0
 40
3.5
 41
0.0
 71
     7
 72
     1
  1
\C4;65\C3;\H2.1;±1
  7
CONVERTER_12
 11
0.0
 21
1.0
 31
0.0
 73
     1
 44
0.60024009603842
  0
ENDBLK
  5
445
330
43D
100
AcDbEntity
  8
0
100
AcDbBlockEnd
  0
BLOCK
  5
451
330
448
100
AcDbEntity
  8
0
100
AcDbBlockBegin
  2
*D25
 70
     1
 71
     0
 10
0.0
 20
0.0
 30
0.0
  3
*D25
  1

  0
LINE
  5
449
330
448
100
AcDbEntity
  8
1
  6
Continuous
 62
     3
100
AcDbLine
 10
1464.030458660982
 20
-310.8539205322051
 30
0.0
 11
1475.541004957858
 21
-299.3433742353284
 31
0.0
  0
LINE
  5
44A
330
448
100
AcDbEntity
  8
1
  6
Continuous
 62
     3
100
AcDbLine
 10
1464.030458660982
 20
-321.2539205322051
 30
0.0
 11
1475.541004957857
 21
-332.7644668290821
 31
0.0
  0
LINE
  5
44B
330
448
100
AcDbEntity
  8
1
  6
Continuous
 62
     3
100
AcDbLine
 10
1475.541004957858
 20
-299.3433742353284
 30
0.0
 11
1476.955218520231
 21
-297.9291606729553
 31
0.0
  0
LINE
  5
44C
330
448
100
AcDbEntity
  8
1
  6
Continuous
 62
     3
100
AcDbLine
 10
1475.541004957857
 20
-332.7644668290821
 30
0.0
 11
1476.95521852023
 21
-334.1786803914553
 31
0.0
  0
ARC
  5
44D
330
448
100
AcDbEntity
  8
1
  6
Continuous
 62
     3
100
AcDbCircle
 10
1458.830458660982
 20
-316.0539205322049
 30
0.0
 40
23.63228120770583
100
AcDbArc
 50
-45.00000000000331
 51
45.00000000000136
  0
SOLID
  5
44E
330
448
100
AcDbEntity
  8
1
 62
     3
100
AcDbTrace
 10
1477.124574093403
 20
-330.4260497035258
 30
0.0
 11
1477.675842171083
 21
-330.9155871863865
 31
0.0
 12
1475.541004957857
 22
-332.7644668290821
 32
0.0
 13
1475.541004957857
 23
-332.7644668290821
 33
0.0
  0
SOLID
  5
44F
330
448
100
AcDbEntity
  8
1
 62
     3
100
AcDbTrace
 10
1477.675842171084
 20
-301.1922538780241
 30
0.0
 11
1477.124574093404
 21
-301.6817913608847
 31
0.0
 12
1475.541004957858
 22
-299.3433742353284
 32
0.0
 13
1475.541004957858
 23
-299.3433742353284
 33
0.0
  0
MTEXT
  5
450
330
448
100
AcDbEntity
  8
1
 62
     4
100
AcDbMText
 10
1480.429011739205
 20
-319.3621670732685
 30
0.0
 40
2.8
 41
0.0
 71
     7
 72
     1
  1
90{\Fgdt;~}
  7
CONVERTER_12
 11
0.0
 21
1.0
 31
0.0
 73
     1
 44
0.60024009603842
  0
ENDBLK
  5
452
330
448
100
AcDbEntity
  8
0
100
AcDbBlockEnd
  0
ENDSEC
  0
SECTION
  2
ENTITIES
  0
INSERT
  5
3D
330
1F
100
AcDbEntity
  8
1
100
AcDbBlockReference
  2
SYMB
 10
1364.417025558482
 20
-454.738733266392
 30
0.0
 41
0.2
 42
0.2
 43
0.2
  0
INSERT
  5
3E
330
1F
100
AcDbEntity
  8
0
100
AcDbBlockReference
  2
rahmen
 10
1353.54890688184
 20
-552.5812653343061
 30
0.0
  0
LINE
  5
292
330
1F
100
AcDbEntity
  8
1
  6
Continuous
 62
     1
100
AcDbLine
 10
1445.875262078031
 20
-355.5067087335339
 30
0.0
 11
1445.875262078031
 21
-350.5067087335339
 31
0.0
  0
LINE
  5
293
330
1F
100
AcDbEntity
  8
1
  6
DASH_CENTER
 62
     3
100
AcDbLine
 10
1476.041928744698
 20
-451.006708733534
 30
0.0
 11
1481.041928744698
 21
-451.006708733534
 31
0.0
  0
LINE
  5
294
102
{ACAD_REACTORS
330
455
330
455
102
}
330
1F
100
AcDbEntity
  8
1
  6
DASH_CENTER
 62
     3
100
AcDbLine
 10
1435.041928744698
 20
-451.006708733534
 30
0.0
 11
1476.041928744698
 21
-451.006708733534
 31
0.0
  0
LINE
  5
295
102
{ACAD_REACTORS
330
455
330
455
102
}
330
1F
100
AcDbEntity
  8
1
  6
Continuous
 62
     1
100
AcDbLine
 10
1435.041928744698
 20
-451.006708733534
 30
0.0
 11
1435.041928744698
 21
-376.0067087335339
 31
0.0
  0
LINE
  5
296
330
1F
100
AcDbEntity
  8
1
  6
Continuous
 62
     1
100
AcDbLine
 10
1481.56847013056
 20
-305.154872113835
 30
0.0
 11
1526.81945262472
 21
-305.154872113835
 31
0.0
  0
LINE
  5
297
330
1F
100
AcDbEntity
  8
1
  6
Continuous
 62
     1
100
AcDbLine
 10
1481.56847013056
 20
-299.154872113835
 30
0.0
 11
1526.81945262472
 21
-299.154872113835
 31
0.0
  0
LINE
  5
298
330
1F
100
AcDbEntity
  8
1
  6
Continuous
 62
     1
100
AcDbLine
 10
1526.81945262472
 20
-281.154872113835
 30
0.0
 11
1526.81945262472
 21
-305.154872113835
 31
0.0
  0
LINE
  5
299
330
1F
100
AcDbEntity
  8
1
  6
Continuous
 62
     1
100
AcDbLine
 10
1508.56847013056
 20
-281.154872113835
 30
0.0
 11
1508.56847013056
 21
-305.154872113835
 31
0.0
  0
LINE
  5
29A
330
1F
100
AcDbEntity
  8
1
  6
Continuous
 62
     1
100
AcDbLine
 10
1481.56847013056
 20
-281.154872113835
 30
0.0
 11
1481.56847013056
 21
-305.154872113835
 31
0.0
  0
LINE
  5
29B
330
1F
100
AcDbEntity
  8
1
  6
Continuous
 62
     3
100
AcDbLine
 10
1464.530458660982
 20
-310.8539205322052
 30
0.0
 11
1464.530458660982
 21
-321.2539205322051
 31
0.0
  0
LINE
  5
29C
330
1F
100
AcDbEntity
  8
1
  6
Continuous
 62
     1
100
AcDbLine
 10
1462.080458660982
 20
-319.303920532205
 30
0.0
 11
1462.080458660982
 21
-312.803920532205
 31
0.0
  0
LINE
  5
29D
330
1F
100
AcDbEntity
  8
1
  6
Continuous
 62
     3
100
AcDbLine
 10
1464.030458660982
 20
-310.8539205322051
 30
0.0
 11
1464.030458660982
 21
-321.2539205322051
 31
0.0
  0
LINE
  5
29E
102
{ACAD_REACTORS
330
458
330
458
102
}
330
1F
100
AcDbEntity
  8
1
  6
Continuous
 62
     1
100
AcDbLine
 10
1462.080458660982
 20
-319.303920532205
 30
0.0
 11
1459.530458660982
 21
-319.303920532205
 31
0.0
  0
LINE
  5
29F
102
{ACAD_REACTORS
330
458
330
458
102
}
330
1F
100
AcDbEntity
  8
1
  6
Continuous
 62
     1
100
AcDbLine
 10
1464.030458660982
 20
-321.2539205322051
 30
0.0
 11
1462.080458660982
 21
-319.303920532205
 31
0.0
  0
LINE
  5
2A0
102
{ACAD_REACTORS
330
458
330
458
102
}
330
1F
100
AcDbEntity
  8
1
  6
Continuous
 62
     1
100
AcDbLine
 10
1464.530458660982
 20
-321.2539205322051
 30
0.0
 11
1464.030458660982
 21
-321.2539205322051
 31
0.0
  0
LINE
  5
2A1
102
{ACAD_REACTORS
330
457
330
457
102
}
330
1F
100
AcDbEntity
  8
1
  6
Continuous
 62
     1
100
AcDbLine
 10
1462.080458660982
 20
-312.803920532205
 30
0.0
 11
1459.530458660982
 21
-312.8039205322051
 31
0.0
  0
LINE
  5
2A2
102
{ACAD_REACTORS
330
457
330
457
102
}
330
1F
100
AcDbEntity
  8
1
  6
Continuous
 62
     1
100
AcDbLine
 10
1464.030458660982
 20
-310.8539205322051
 30
0.0
 11
1462.080458660982
 21
-312.803920532205
 31
0.0
  0
LINE
  5
2A3
102
{ACAD_REACTORS
330
457
330
457
102
}
330
1F
100
AcDbEntity
  8
1
  6
Continuous
 62
     1
100
AcDbLine
 10
1464.530458660982
 20
-310.8539205322052
 30
0.0
 11
1464.030458660982
 21
-310.8539205322051
 31
0.0
  0
LINE
  5
2A4
330
1F
100
AcDbEntity
  8
1
  6
DOT_CENTER
 62
     3
100
AcDbLine
 10
1385.561206469215
 20
-323.2539205322051
 30
0.0
 11
1385.561206469215
 21
-308.8539205322052
 31
0.0
  0
LINE
  5
2A5
330
1F
100
AcDbEntity
  8
1
  6
DOT_CENTER
 62
     3
100
AcDbLine
 10
1378.361206469215
 20
-316.0539205322051
 30
0.0
 11
1392.761206469215
 21
-316.053920532205
 31
0.0
  0
LINE
  5
2A6
330
1F
100
AcDbEntity
  8
1
  6
DOT_CENTER
 62
     3
100
AcDbLine
 10
1430.561206469215
 20
-323.2539205322051
 30
0.0
 11
1430.561206469215
 21
-308.8539205322052
 31
0.0
  0
LINE
  5
2A7
330
1F
100
AcDbEntity
  8
1
  6
DOT_CENTER
 62
     3
100
AcDbLine
 10
1423.361206469215
 20
-316.053920532205
 30
0.0
 11
1437.761206469215
 21
-316.053920532205
 31
0.0
  0
LINE
  5
2A8
102
{ACAD_REACTORS
330
456
330
456
102
}
330
1F
100
AcDbEntity
  8
1
  6
Continuous
 62
     1
100
AcDbLine
 10
1464.530458660982
 20
-300.9869205322051
 30
0.0
 11
1464.530458660982
 21
-293.0539205322051
 31
0.0
  0
LINE
  5
2A9
330
1F
100
AcDbEntity
  8
1
  6
Continuous
 62
     1
100
AcDbLine
 10
1459.530458660982
 20
-300.9869205322051
 30
0.0
 11
1459.530458660982
 21
-305.1209205322051
 31
0.0
  0
LINE
  5
2AA
102
{ACAD_REACTORS
330
456
330
456
102
}
330
1F
100
AcDbEntity
  8
1
  6
Continuous
 62
     1
100
AcDbLine
 10
1459.530458660982
 20
-300.9869205322051
 30
0.0
 11
1464.530458660982
 21
-300.9869205322051
 31
0.0
  0
LINE
  5
2AB
330
1F
100
AcDbEntity
  8
1
  6
Continuous
 62
     1
100
AcDbLine
 10
1464.530458660982
 20
-305.1209205322051
 30
0.0
 11
1464.530458660982
 21
-300.9869205322051
 31
0.0
  0
LINE
  5
2AC
102
{ACAD_REACTORS
330
457
330
457
102
}
330
1F
100
AcDbEntity
  8
1
  6
Continuous
 62
     1
100
AcDbLine
 10
1459.530458660982
 20
-305.1209205322051
 30
0.0
 11
1464.530458660982
 21
-305.1209205322051
 31
0.0
  0
LINE
  5
2AD
330
1F
100
AcDbEntity
  8
1
  6
DASH_CENTER
 62
     3
100
AcDbLine
 10
1426.561206469215
 20
-303.0539205322051
 30
0.0
 11
1434.561206469215
 21
-303.0539205322051
 31
0.0
  0
LINE
  5
2AE
330
1F
100
AcDbEntity
  8
1
  6
DASH_CENTER
 62
     3
100
AcDbLine
 10
1430.561206469215
 20
-299.0539205322051
 30
0.0
 11
1430.561206469215
 21
-307.0539205322051
 31
0.0
  0
LINE
  5
2AF
330
1F
100
AcDbEntity
  8
1
  6
DASH_CENTER
 62
     3
100
AcDbLine
 10
1381.561206469215
 20
-303.0539205322051
 30
0.0
 11
1389.561206469215
 21
-303.0539205322051
 31
0.0
  0
LINE
  5
2B0
330
1F
100
AcDbEntity
  8
1
  6
DASH_CENTER
 62
     3
100
AcDbLine
 10
1385.561206469215
 20
-299.0539205322051
 30
0.0
 11
1385.561206469215
 21
-307.0539205322051
 31
0.0
  0
LINE
  5
2B1
330
1F
100
AcDbEntity
  8
1
  6
DOT_CENTER
 62
     3
100
AcDbLine
 10
1457.244913659375
 20
-303.0539205322051
 30
0.0
 11
1466.752628891164
 21
-303.0539205322051
 31
0.0
  0
LINE
  5
2B2
102
{ACAD_REACTORS
330
456
330
456
102
}
330
1F
100
AcDbEntity
  8
1
  6
Continuous
 62
     1
100
AcDbLine
 10
1459.530458660982
 20
-300.9869205322051
 30
0.0
 11
1459.530458660982
 21
-293.0539205322051
 31
0.0
  0
LINE
  5
2B3
330
1F
100
AcDbEntity
  8
1
  6
Continuous
 62
     3
100
AcDbLine
 10
1464.530458660982
 20
-300.5539205322051
 30
0.0
 11
1459.530458660982
 21
-300.5539205322051
 31
0.0
  0
LINE
  5
2B4
102
{ACAD_REACTORS
330
457
330
457
102
}
330
1F
100
AcDbEntity
  8
1
  6
Continuous
 62
     1
100
AcDbLine
 10
1459.530458660982
 20
-312.8039205322051
 30
0.0
 11
1459.530458660982
 21
-305.1209205322051
 31
0.0
  0
LINE
  5
2B5
330
1F
100
AcDbEntity
  8
1
  6
Continuous
 62
     3
100
AcDbLine
 10
1464.530458660982
 20
-305.5539205322051
 30
0.0
 11
1459.530458660982
 21
-305.5539205322051
 31
0.0
  0
LINE
  5
2B6
330
1F
100
AcDbEntity
  8
1
  6
DOT_CENTER
 62
     3
100
AcDbLine
 10
1457.309591994286
 20
-316.053920532205
 30
0.0
 11
1468.240230594096
 21
-316.053920532205
 31
0.0
  0
LINE
  5
2B7
102
{ACAD_REACTORS
330
458
330
458
102
}
330
1F
100
AcDbEntity
  8
1
  6
Continuous
 62
     1
100
AcDbLine
 10
1459.530458660982
 20
-319.303920532205
 30
0.0
 11
1459.530458660982
 21
-323.053920532205
 31
0.0
  0
LINE
  5
2B8
330
1F
100
AcDbEntity
  8
1
  6
Continuous
 62
     1
100
AcDbLine
 10
1459.530458660982
 20
-312.8039205322051
 30
0.0
 11
1459.530458660982
 21
-319.303920532205
 31
0.0
  0
LINE
  5
2B9
102
{ACAD_REACTORS
330
457
330
457
102
}
330
1F
100
AcDbEntity
  8
1
  6
Continuous
 62
     1
100
AcDbLine
 10
1464.530458660982
 20
-310.8539205322052
 30
0.0
 11
1464.530458660982
 21
-305.1209205322051
 31
0.0
  0
LINE
  5
2BA
102
{ACAD_REACTORS
330
456
330
456
102
}
330
1F
100
AcDbEntity
  8
1
  6
Continuous
 62
     1
100
AcDbLine
 10
1464.530458660982
 20
-293.0539205322051
 30
0.0
 11
1459.530458660982
 21
-293.0539205322051
 31
0.0
  0
LINE
  5
2BB
102
{ACAD_REACTORS
330
458
330
458
102
}
330
1F
100
AcDbEntity
  8
1
  6
Continuous
 62
     1
100
AcDbLine
 10
1464.530458660982
 20
-323.053920532205
 30
0.0
 11
1464.530458660982
 21
-321.2539205322051
 31
0.0
  0
LINE
  5
2BC
102
{ACAD_REACTORS
330
458
330
458
102
}
330
1F
100
AcDbEntity
  8
1
  6
Continuous
 62
     1
100
AcDbLine
 10
1459.530458660982
 20
-323.053920532205
 30
0.0
 11
1464.530458660982
 21
-323.053920532205
 31
0.0
  0
LINE
  5
2BD
330
1F
100
AcDbEntity
  8
1
  6
Continuous
 62
     1
100
AcDbLine
 10
1379.061206469215
 20
-323.053920532205
 30
0.0
 11
1437.061206469215
 21
-323.053920532205
 31
0.0
  0
LINE
  5
2BE
330
1F
100
AcDbEntity
  8
1
  6
Continuous
 62
     1
100
AcDbLine
 10
1379.061206469215
 20
-293.0539205322051
 30
0.0
 11
1379.061206469215
 21
-323.053920532205
 31
0.0
  0
LINE
  5
2BF
330
1F
100
AcDbEntity
  8
1
  6
Continuous
 62
     1
100
AcDbLine
 10
1437.061206469215
 20
-323.053920532205
 30
0.0
 11
1437.061206469215
 21
-293.0539205322051
 31
0.0
  0
LINE
  5
2C0
330
1F
100
AcDbEntity
  8
1
  6
Continuous
 62
     1
100
AcDbLine
 10
1379.061206469215
 20
-293.0539205322051
 30
0.0
 11
1437.061206469215
 21
-293.0539205322051
 31
0.0
  0
LINE
  5
2C1
330
1F
100
AcDbEntity
  8
1
  6
Continuous
 62
     1
100
AcDbLine
 10
1452.541928744698
 20
-368.5067087335339
 30
0.0
 11
1450.875262078031
 21
-368.5067087335339
 31
0.0
  0
LINE
  5
2C2
330
1F
100
AcDbEntity
  8
1
  6
Continuous
 62
     1
100
AcDbLine
 10
1462.075262078033
 20
-368.5067087335339
 30
0.0
 11
1452.541928744698
 21
-368.5067087335339
 31
0.0
  0
LINE
  5
2C3
330
1F
100
AcDbEntity
  8
1
  6
Continuous
 62
     1
100
AcDbLine
 10
1448.575262078033
 20
-363.5067087335339
 30
0.0
 11
1450.875262078031
 21
-363.5067087335339
 31
0.0
  0
LINE
  5
2C4
330
1F
100
AcDbEntity
  8
1
  6
Continuous
 62
     1
100
AcDbLine
 10
1450.875262078031
 20
-363.5067087335339
 30
0.0
 11
1452.541928744698
 21
-363.5067087335339
 31
0.0
  0
LINE
  5
2C5
102
{ACAD_REACTORS
330
459
330
459
102
}
330
1F
100
AcDbEntity
  8
1
  6
Continuous
 62
     1
100
AcDbLine
 10
1454.208595411365
 20
-379.3400420668673
 30
0.0
 11
1454.208595411365
 21
-368.5067087335339
 31
0.0
  0
LINE
  5
2C6
102
{ACAD_REACTORS
330
459
330
459
102
}
330
1F
100
AcDbEntity
  8
1
  6
Continuous
 62
     1
100
AcDbLine
 10
1454.208595411365
 20
-368.5067087335339
 30
0.0
 11
1452.541928744698
 21
-368.5067087335339
 31
0.0
  0
LINE
  5
2C7
102
{ACAD_REACTORS
330
459
330
459
102
}
330
1F
100
AcDbEntity
  8
1
  6
Continuous
 62
     1
100
AcDbLine
 10
1452.541928744698
 20
-368.5067087335339
 30
0.0
 11
1452.541928744698
 21
-379.3400420668673
 31
0.0
  0
LINE
  5
2C8
102
{ACAD_REACTORS
330
459
330
459
102
}
330
1F
100
AcDbEntity
  8
1
  6
Continuous
 62
     1
100
AcDbLine
 10
1452.541928744698
 20
-379.3400420668673
 30
0.0
 11
1454.208595411365
 21
-379.3400420668673
 31
0.0
  0
LINE
  5
2C9
102
{ACAD_REACTORS
330
45A
330
45A
102
}
330
1F
100
AcDbEntity
  8
1
  6
Continuous
 62
     1
100
AcDbLine
 10
1454.208595411365
 20
-363.5067087335339
 30
0.0
 11
1454.208595411365
 21
-352.6733754002007
 31
0.0
  0
LINE
  5
2CA
102
{ACAD_REACTORS
330
45A
330
45A
102
}
330
1F
100
AcDbEntity
  8
1
  6
Continuous
 62
     1
100
AcDbLine
 10
1454.208595411365
 20
-352.6733754002007
 30
0.0
 11
1452.541928744698
 21
-352.6733754002007
 31
0.0
  0
LINE
  5
2CB
330
1F
100
AcDbEntity
  8
1
  6
Continuous
 62
     1
100
AcDbLine
 10
1452.541928744698
 20
-352.6733754002007
 30
0.0
 11
1452.541928744698
 21
-363.5067087335339
 31
0.0
  0
LINE
  5
2CC
102
{ACAD_REACTORS
330
45A
330
45A
102
}
330
1F
100
AcDbEntity
  8
1
  6
Continuous
 62
     1
100
AcDbLine
 10
1452.541928744698
 20
-363.5067087335339
 30
0.0
 11
1454.208595411365
 21
-363.5067087335339
 31
0.0
  0
LINE
  5
2CD
330
1F
100
AcDbEntity
  8
1
  6
Continuous
 62
     1
100
AcDbLine
 10
1450.875262078031
 20
-363.5067087335339
 30
0.0
 11
1450.875262078031
 21
-354.8066357335339
 31
0.0
  0
LINE
  5
2CE
330
1F
100
AcDbEntity
  8
1
  6
Continuous
 62
     1
100
AcDbLine
 10
1450.875262078031
 20
-351.2066597335337
 30
0.0
 11
1450.875262078031
 21
-354.8066357335339
 31
0.0
  0
LINE
  5
2CF
330
1F
100
AcDbEntity
  8
1
  6
Continuous
 62
     1
100
AcDbLine
 10
1450.875262078031
 20
-384.5067087335339
 30
0.0
 11
1450.875262078031
 21
-368.5067087335339
 31
0.0
  0
LINE
  5
2D0
102
{ACAD_REACTORS
330
45A
330
45A
102
}
330
1F
100
AcDbEntity
  8
1
  6
Continuous
 62
     1
100
AcDbLine
 10
1452.541928744698
 20
-352.6733754002007
 30
0.0
 11
1452.541928744698
 21
-363.5067087335339
 31
0.0
  0
LINE
  5
2D1
330
1F
100
AcDbEntity
  8
1
  6
Continuous
 62
     3
100
AcDbLine
 10
1504.875262078031
 20
-405.8400420668673
 30
0.0
 11
1504.875262078031
 21
-401.8400420668673
 31
0.0
  0
LINE
  5
2D2
330
1F
100
AcDbEntity
  8
1
  6
DASH_CENTER
 62
     3
100
AcDbLine
 10
1504.875262078031
 20
-339.3400420668673
 30
0.0
 11
1504.875262078031
 21
-400.1733754002007
 31
0.0
  0
LINE
  5
2D3
330
1F
100
AcDbEntity
  8
1
  6
DASH_CENTER
 62
     3
100
AcDbLine
 10
1504.875262078031
 20
-339.3400420668673
 30
0.0
 11
1454.875262078031
 21
-339.3400420668673
 31
0.0
  0
LINE
  5
2D4
330
1F
100
AcDbEntity
  8
1
  6
DASH_CENTER
 62
     3
100
AcDbLine
 10
1430.041928744698
 20
-451.006708733534
 30
0.0
 11
1435.041928744698
 21
-451.006708733534
 31
0.0
  0
LINE
  5
2D5
330
1F
100
AcDbEntity
  8
1
  6
Continuous
 62
     3
100
AcDbLine
 10
1450.875262078031
 20
-355.5067087335339
 30
0.0
 11
1449.875262078031
 21
-355.5067087335339
 31
0.0
  0
LINE
  5
2D6
330
1F
100
AcDbEntity
  8
1
  6
Continuous
 62
     3
100
AcDbLine
 10
1450.875262078031
 20
-350.5067087335339
 30
0.0
 11
1449.875262078031
 21
-350.5067087335339
 31
0.0
  0
LINE
  5
2D7
330
1F
100
AcDbEntity
  8
0
  6
Continuous
 62
     1
100
AcDbLine
 10
1449.875262078031
 20
-351.2066597335337
 30
0.0
 11
1449.875262078031
 21
-354.8066357335339
 31
0.0
  0
LINE
  5
2D8
102
{ACAD_REACTORS
330
45B
330
45B
102
}
330
1F
100
AcDbEntity
  8
1
  6
Continuous
 62
     1
100
AcDbLine
 10
1450.875262078031
 20
-354.8066357335339
 30
0.0
 11
1449.875262078031
 21
-354.8066357335339
 31
0.0
  0
LINE
  5
2D9
102
{ACAD_REACTORS
330
45C
330
45C
102
}
330
1F
100
AcDbEntity
  8
1
  6
Continuous
 62
     1
100
AcDbLine
 10
1450.875262078031
 20
-343.0067087335339
 30
0.0
 11
1450.875262078031
 21
-351.2066597335337
 31
0.0
  0
LINE
  5
2DA
102
{ACAD_REACTORS
330
45C
330
45C
102
}
330
1F
100
AcDbEntity
  8
0
  6
Continuous
 62
     1
100
AcDbLine
 10
1449.875262078031
 20
-350.5067087335339
 30
0.0
 11
1449.875262078031
 21
-351.2066597335337
 31
0.0
  0
LINE
  5
2DB
102
{ACAD_REACTORS
330
45C
330
45C
102
}
330
1F
100
AcDbEntity
  8
1
  6
Continuous
 62
     1
100
AcDbLine
 10
1450.875262078031
 20
-351.2066597335337
 30
0.0
 11
1449.875262078031
 21
-351.2066597335337
 31
0.0
  0
LINE
  5
2DC
102
{ACAD_REACTORS
330
45C
330
45C
102
}
330
1F
100
AcDbEntity
  8
1
  6
Continuous
 62
     1
100
AcDbLine
 10
1445.875262078031
 20
-343.0067087335339
 30
0.0
 11
1445.875262078031
 21
-350.5067087335339
 31
0.0
  0
LINE
  5
2DD
102
{ACAD_REACTORS
330
45D
330
45D
102
}
330
1F
100
AcDbEntity
  8
1
  6
Continuous
 62
     1
100
AcDbLine
 10
1445.875262078031
 20
-373.0067087335339
 30
0.0
 11
1450.875262078031
 21
-373.0067087335339
 31
0.0
  0
LINE
  5
2DE
102
{ACAD_REACTORS
330
45D
330
45D
102
}
330
1F
100
AcDbEntity
  8
1
  6
Continuous
 62
     1
100
AcDbLine
 10
1445.875262078031
 20
-371.206708733534
 30
0.0
 11
1445.875262078031
 21
-373.0067087335339
 31
0.0
  0
LINE
  5
2DF
102
{ACAD_REACTORS
330
45C
330
45C
102
}
330
1F
100
AcDbEntity
  8
1
  6
Continuous
 62
     1
100
AcDbLine
 10
1450.875262078031
 20
-343.0067087335339
 30
0.0
 11
1445.875262078031
 21
-343.0067087335339
 31
0.0
  0
LINE
  5
2E0
102
{ACAD_REACTORS
330
45B
330
45B
102
}
330
1F
100
AcDbEntity
  8
1
  6
Continuous
 62
     1
100
AcDbLine
 10
1447.825262078033
 20
-362.7567087335339
 30
0.0
 11
1445.875262078031
 21
-360.806708733534
 31
0.0
  0
LINE
  5
2E1
102
{ACAD_REACTORS
330
45B
330
45B
102
}
330
1F
100
AcDbEntity
  8
1
  6
Continuous
 62
     1
100
AcDbLine
 10
1445.875262078031
 20
-355.5067087335339
 30
0.0
 11
1445.875262078031
 21
-360.806708733534
 31
0.0
  0
LINE
  5
2E2
102
{ACAD_REACTORS
330
45B
330
45B
102
}
330
1F
100
AcDbEntity
  8
1
  6
Continuous
 62
     1
100
AcDbLine
 10
1450.875262078031
 20
-362.7567087335339
 30
0.0
 11
1447.825262078033
 21
-362.7567087335339
 31
0.0
  0
LINE
  5
2E3
330
1F
100
AcDbEntity
  8
1
  6
Continuous
 62
     1
100
AcDbLine
 10
1450.875262078031
 20
-363.5067087335339
 30
0.0
 11
1450.875262078031
 21
-362.7567087335339
 31
0.0
  0
LINE
  5
2E4
102
{ACAD_REACTORS
330
45D
330
45D
102
}
330
1F
100
AcDbEntity
  8
1
  6
Continuous
 62
     1
100
AcDbLine
 10
1447.825262078033
 20
-369.2567087335339
 30
0.0
 11
1445.875262078031
 21
-371.206708733534
 31
0.0
  0
LINE
  5
2E5
330
1F
100
AcDbEntity
  8
1
  6
Continuous
 62
     1
100
AcDbLine
 10
1445.875262078031
 20
-360.806708733534
 30
0.0
 11
1445.875262078031
 21
-371.206708733534
 31
0.0
  0
LINE
  5
2E6
102
{ACAD_REACTORS
330
45D
330
45D
102
}
330
1F
100
AcDbEntity
  8
1
  6
Continuous
 62
     1
100
AcDbLine
 10
1450.875262078031
 20
-369.2567087335339
 30
0.0
 11
1447.825262078033
 21
-369.2567087335339
 31
0.0
  0
LINE
  5
2E7
102
{ACAD_REACTORS
330
45D
330
45D
102
}
330
1F
100
AcDbEntity
  8
1
  6
Continuous
 62
     1
100
AcDbLine
 10
1450.875262078031
 20
-373.0067087335339
 30
0.0
 11
1450.875262078031
 21
-369.2567087335339
 31
0.0
  0
LINE
  5
2E8
102
{ACAD_REACTORS
330
45B
330
45B
102
}
330
1F
100
AcDbEntity
  8
1
  6
Continuous
 62
     1
100
AcDbLine
 10
1450.875262078031
 20
-354.8066357335339
 30
0.0
 11
1450.875262078031
 21
-362.7567087335339
 31
0.0
  0
LINE
  5
2E9
330
1F
100
AcDbEntity
  8
1
  6
DASH_CENTER
 62
     3
100
AcDbLine
 10
1382.173012216795
 20
-435.0067087335339
 30
0.0
 11
1434.582821802425
 21
-435.0067087335339
 31
0.0
  0
LINE
  5
2EA
330
1F
100
AcDbEntity
  8
1
  6
DASH_CENTER
 62
     3
100
AcDbLine
 10
1382.173012216795
 20
-391.0067087335339
 30
0.0
 11
1434.623586099241
 21
-391.0067087335339
 31
0.0
  0
LINE
  5
2EB
330
1F
100
AcDbEntity
  8
0
  6
Continuous
 62
     3
100
AcDbLine
 10
1449.875262078031
 20
-351.2066597335337
 30
0.0
 11
1445.875262078031
 21
-351.2066597335337
 31
0.0
  0
LINE
  5
2EC
330
1F
100
AcDbEntity
  8
0
  6
Continuous
 62
     3
100
AcDbLine
 10
1449.875262078031
 20
-354.8066357335339
 30
0.0
 11
1445.875262078031
 21
-354.8066357335339
 31
0.0
  0
LINE
  5
2ED
102
{ACAD_REACTORS
330
45B
330
45B
102
}
330
1F
100
AcDbEntity
  8
0
  6
Continuous
 62
     1
100
AcDbLine
 10
1449.875262078031
 20
-355.5067087335339
 30
0.0
 11
1445.875262078031
 21
-355.5067087335339
 31
0.0
  0
LINE
  5
2EE
102
{ACAD_REACTORS
330
45C
330
45C
102
}
330
1F
100
AcDbEntity
  8
0
  6
Continuous
 62
     1
100
AcDbLine
 10
1449.875262078031
 20
-350.5067087335339
 30
0.0
 11
1445.875262078031
 21
-350.5067087335339
 31
0.0
  0
LINE
  5
2EF
330
1F
100
AcDbEntity
  8
0
  6
Continuous
 62
     3
100
AcDbLine
 10
1391.291928744698
 20
-443.1934767335339
 30
0.0
 11
1391.291928744698
 21
-442.756708733534
 31
0.0
  0
LINE
  5
2F0
330
1F
100
AcDbEntity
  8
0
  6
Continuous
 62
     3
100
AcDbLine
 10
1423.792050744697
 20
-443.1934767335339
 30
0.0
 11
1423.792050744697
 21
-442.756708733534
 31
0.0
  0
LINE
  5
2F1
330
1F
100
AcDbEntity
  8
0
  6
Continuous
 62
     3
100
AcDbLine
 10
1423.792050744697
 20
-443.1934767335339
 30
0.0
 11
1391.291928744698
 21
-443.1934767335339
 31
0.0
  0
LINE
  5
2F2
330
1F
100
AcDbEntity
  8
0
  6
Continuous
 62
     3
100
AcDbLine
 10
1399.542050744697
 20
-447.9566597335337
 30
0.0
 11
1391.291928744698
 21
-443.1934767335339
 31
0.0
  0
LINE
  5
2F3
330
1F
100
AcDbEntity
  8
0
  6
Continuous
 62
     3
100
AcDbLine
 10
1415.542050744697
 20
-447.9566597335337
 30
0.0
 11
1423.792050744697
 21
-443.1934767335339
 31
0.0
  0
LINE
  5
2F4
330
1F
100
AcDbEntity
  8
0
  6
Continuous
 62
     3
100
AcDbLine
 10
1399.542050744697
 20
-447.9566597335337
 30
0.0
 11
1415.542050744697
 21
-447.9566597335337
 31
0.0
  0
LINE
  5
2F5
102
{ACAD_REACTORS
330
45B
330
45B
102
}
330
1F
100
AcDbEntity
  8
0
  6
Continuous
 62
     1
100
AcDbLine
 10
1449.875262078031
 20
-354.8066357335339
 30
0.0
 11
1449.875262078031
 21
-355.5067087335339
 31
0.0
  0
LINE
  5
2F6
330
1F
100
AcDbEntity
  8
1
  6
DOT_CENTER
 62
     3
100
AcDbLine
 10
1407.541928744698
 20
-450.5349638753539
 30
0.0
 11
1407.541928744698
 21
-359.2768143492438
 31
0.0
  0
LINE
  5
2F7
330
1F
100
AcDbEntity
  8
1
  6
DASH_CENTER
 62
     3
100
AcDbLine
 10
1384.291928744698
 20
-413.0067087335339
 30
0.0
 11
1430.791928744698
 21
-413.0067087335339
 31
0.0
  0
LINE
  5
2F8
330
1F
100
AcDbEntity
  8
1
  6
DOT_CENTER
 62
     3
100
AcDbLine
 10
1393.541928744698
 20
-408.5067087335339
 30
0.0
 11
1393.541928744698
 21
-417.5067087335339
 31
0.0
  0
LINE
  5
2F9
330
1F
100
AcDbEntity
  8
1
  6
DOT_CENTER
 62
     3
100
AcDbLine
 10
1421.541928744698
 20
-408.5067087335339
 30
0.0
 11
1421.541928744698
 21
-417.5067087335339
 31
0.0
  0
LINE
  5
2FA
330
1F
100
AcDbEntity
  8
1
  6
Continuous
 62
     3
100
AcDbLine
 10
1388.543638873188
 20
-382.7567087335339
 30
0.0
 11
1429.041928744698
 21
-382.7567087335339
 31
0.0
  0
LINE
  5
2FB
330
1F
100
AcDbEntity
  8
1
  6
Continuous
 62
     3
100
AcDbLine
 10
1429.041928744698
 20
-442.756708733534
 30
0.0
 11
1388.543638873188
 21
-442.756708733534
 31
0.0
  0
LINE
  5
2FC
330
1F
100
AcDbEntity
  8
1
  6
Continuous
 62
     3
100
AcDbLine
 10
1388.192176018154
 20
-441.7910724755475
 30
0.0
 11
1388.543638873188
 21
-442.756708733534
 31
0.0
  0
LINE
  5
2FD
330
1F
100
AcDbEntity
  8
1
  6
Continuous
 62
     3
100
AcDbLine
 10
1386.840146689991
 20
-442.2831709068528
 30
0.0
 11
1388.192176018154
 21
-441.7910724755475
 31
0.0
  0
LINE
  5
2FE
330
1F
100
AcDbEntity
  8
1
  6
Continuous
 62
     3
100
AcDbLine
 10
1388.192176018154
 20
-383.7223449915201
 30
0.0
 11
1388.543638873188
 21
-382.7567087335339
 31
0.0
  0
LINE
  5
2FF
330
1F
100
AcDbEntity
  8
1
  6
Continuous
 62
     3
100
AcDbLine
 10
1386.840146689991
 20
-383.2302465602149
 30
0.0
 11
1388.192176018154
 21
-383.7223449915201
 31
0.0
  0
LINE
  5
300
330
1F
100
AcDbEntity
  8
1
  6
Continuous
 62
     3
100
AcDbLine
 10
1384.200518539015
 20
-434.9050383739115
 30
0.0
 11
1384.706769994955
 21
-434.9050383739115
 31
0.0
  0
LINE
  5
301
330
1F
100
AcDbEntity
  8
1
  6
Continuous
 62
     3
100
AcDbLine
 10
1383.251234600141
 20
-426.9050093739112
 30
0.0
 11
1383.754056326559
 21
-426.9050093739112
 31
0.0
  0
LINE
  5
302
330
1F
100
AcDbEntity
  8
1
  6
Continuous
 62
     3
100
AcDbLine
 10
1387.910268231916
 20
-383.6197389485222
 30
0.0
 11
1386.500729300739
 21
-383.1067087335338
 31
0.0
  0
LINE
  5
303
330
1F
100
AcDbEntity
  8
1
  6
Continuous
 62
     3
100
AcDbLine
 10
1388.081278303579
 20
-383.1498926381294
 30
0.0
 11
1387.910268231916
 21
-383.6197389485222
 31
0.0
  0
LINE
  5
304
330
1F
100
AcDbEntity
  8
1
  6
Continuous
 62
     3
100
AcDbLine
 10
1386.671739372401
 20
-382.6368624231408
 30
0.0
 11
1388.081278303579
 21
-383.1498926381294
 31
0.0
  0
LINE
  5
305
330
1F
100
AcDbEntity
  8
1
  6
Continuous
 62
     3
100
AcDbLine
 10
1387.910268231916
 20
-441.8936785185452
 30
0.0
 11
1386.500729300739
 21
-442.4067087335342
 31
0.0
  0
LINE
  5
306
330
1F
100
AcDbEntity
  8
1
  6
Continuous
 62
     3
100
AcDbLine
 10
1388.081278303579
 20
-442.3635248289385
 30
0.0
 11
1387.910268231916
 21
-441.8936785185452
 31
0.0
  0
LINE
  5
307
330
1F
100
AcDbEntity
  8
1
  6
Continuous
 62
     3
100
AcDbLine
 10
1386.671739372401
 20
-442.8765550439264
 30
0.0
 11
1388.081278303579
 21
-442.3635248289385
 31
0.0
  0
LINE
  5
308
330
1F
100
AcDbEntity
  8
1
  6
Continuous
 62
     3
100
AcDbLine
 10
1430.041928744698
 20
-443.006708733534
 30
0.0
 11
1435.041928744698
 21
-443.006708733534
 31
0.0
  0
LINE
  5
309
330
1F
100
AcDbEntity
  8
1
  6
Continuous
 62
     3
100
AcDbLine
 10
1435.041928744698
 20
-383.0067087335339
 30
0.0
 11
1430.041928744698
 21
-383.0067087335339
 31
0.0
  0
LINE
  5
30A
330
1F
100
AcDbEntity
  8
1
  6
Continuous
 62
     3
100
AcDbLine
 10
1430.041928744698
 20
-383.0067087335339
 30
0.0
 11
1430.041928744698
 21
-443.006708733534
 31
0.0
  0
LINE
  5
30B
330
1F
100
AcDbEntity
  8
1
  6
DASH_CENTER
 62
     3
100
AcDbLine
 10
1425.980783539986
 20
-408.0067087335339
 30
0.0
 11
1439.520014511339
 21
-408.0067087335339
 31
0.0
  0
LINE
  5
30C
330
1F
100
AcDbEntity
  8
1
  6
DASH_CENTER
 62
     3
100
AcDbLine
 10
1425.980783539986
 20
-392.0067087335339
 30
0.0
 11
1439.520014511339
 21
-392.0067087335339
 31
0.0
  0
LINE
  5
30D
330
1F
100
AcDbEntity
  8
1
  6
Continuous
 62
     3
100
AcDbLine
 10
1430.241928744698
 20
-413.0067087335339
 30
0.0
 11
1430.041928744698
 21
-413.206708733534
 31
0.0
  0
LINE
  5
30E
330
1F
100
AcDbEntity
  8
1
  6
Continuous
 62
     3
100
AcDbLine
 10
1430.241928744698
 20
-413.0067087335339
 30
0.0
 11
1430.041928744698
 21
-412.806708733534
 31
0.0
  0
LINE
  5
30F
330
1F
100
AcDbEntity
  8
1
  6
Continuous
 62
     1
100
AcDbLine
 10
1446.075262078033
 20
-370.6067087335339
 30
0.0
 11
1446.075262078033
 21
-361.4067087335339
 31
0.0
  0
LINE
  5
310
330
1F
100
AcDbEntity
  8
1
  6
Continuous
 62
     1
100
AcDbLine
 10
1446.075262078033
 20
-361.4067087335339
 30
0.0
 11
1446.475262078032
 21
-361.4067087335339
 31
0.0
  0
LINE
  5
311
330
1F
100
AcDbEntity
  8
1
  6
Continuous
 62
     1
100
AcDbLine
 10
1446.075262078033
 20
-370.6067087335339
 30
0.0
 11
1446.075262078033
 21
-361.4067087335339
 31
0.0
  0
LINE
  5
312
330
1F
100
AcDbEntity
  8
1
  6
Continuous
 62
     1
100
AcDbLine
 10
1446.475262078032
 20
-370.6067087335339
 30
0.0
 11
1446.075262078033
 21
-370.6067087335339
 31
0.0
  0
LINE
  5
313
330
1F
100
AcDbEntity
  8
1
  6
Continuous
 62
     1
100
AcDbLine
 10
1446.475262078032
 20
-361.4067087335339
 30
0.0
 11
1446.475262078032
 21
-370.6067087335339
 31
0.0
  0
LINE
  5
314
330
1F
100
AcDbEntity
  8
1
  6
Continuous
 62
     1
100
AcDbLine
 10
1448.575262078033
 20
-363.5067087335339
 30
0.0
 11
1448.575262078033
 21
-368.5067087335339
 31
0.0
  0
LINE
  5
315
330
1F
100
AcDbEntity
  8
1
  6
Continuous
 62
     1
100
AcDbLine
 10
1450.875262078031
 20
-368.5067087335339
 30
0.0
 11
1448.575262078033
 21
-368.5067087335339
 31
0.0
  0
LINE
  5
316
330
1F
100
AcDbEntity
  8
1
  6
Continuous
 62
     1
100
AcDbLine
 10
1452.541928744698
 20
-363.5067087335339
 30
0.0
 11
1462.075262078033
 21
-363.5067087335339
 31
0.0
  0
LINE
  5
317
330
1F
100
AcDbEntity
  8
1
  6
Continuous
 62
     1
100
AcDbLine
 10
1451.175262078032
 20
-363.5067087335339
 30
0.0
 11
1451.175262078032
 21
-368.5067087335339
 31
0.0
  0
LINE
  5
318
330
1F
100
AcDbEntity
  8
1
  6
Continuous
 62
     3
100
AcDbLine
 10
1462.075262078033
 20
-363.997456733534
 30
0.0
 11
1451.175262078032
 21
-363.997456733534
 31
0.0
  0
LINE
  5
319
330
1F
100
AcDbEntity
  8
1
  6
Continuous
 62
     3
100
AcDbLine
 10
1451.175262078032
 20
-368.0159607335339
 30
0.0
 11
1462.075262078033
 21
-368.0159607335339
 31
0.0
  0
LINE
  5
31A
330
1F
100
AcDbEntity
  8
1
  6
LONG_DASHED
 62
     3
100
AcDbLine
 10
1446.075262078033
 20
-363.706708733534
 30
0.0
 11
1449.110795072956
 21
-366.0067087335339
 31
0.0
  0
LINE
  5
31B
330
1F
100
AcDbEntity
  8
1
  6
LONG_DASHED
 62
     3
100
AcDbLine
 10
1446.075262078033
 20
-368.306708733534
 30
0.0
 11
1449.110795072956
 21
-366.0067087335339
 31
0.0
  0
LINE
  5
31C
330
1F
100
AcDbEntity
  8
1
  6
LONG_DASHED
 62
     3
100
AcDbLine
 10
1446.075262078033
 20
-366.336708733534
 30
0.0
 11
1448.675262078032
 21
-366.336708733534
 31
0.0
  0
LINE
  5
31D
330
1F
100
AcDbEntity
  8
1
  6
LONG_DASHED
 62
     3
100
AcDbLine
 10
1446.075262078033
 20
-365.6767087335339
 30
0.0
 11
1448.675262078032
 21
-365.6767087335339
 31
0.0
  0
LINE
  5
31E
330
1F
100
AcDbEntity
  8
1
  6
LONG_DASHED
 62
     3
100
AcDbLine
 10
1448.675262078032
 20
-365.6767087335339
 30
0.0
 11
1448.675262078032
 21
-366.336708733534
 31
0.0
  0
LINE
  5
31F
330
1F
100
AcDbEntity
  8
1
  6
Continuous
 62
     1
100
AcDbLine
 10
1446.475262078032
 20
-361.4067087335339
 30
0.0
 11
1448.575262078033
 21
-363.5067087335339
 31
0.0
  0
LINE
  5
320
330
1F
100
AcDbEntity
  8
1
  6
Continuous
 62
     1
100
AcDbLine
 10
1448.575262078033
 20
-368.5067087335339
 30
0.0
 11
1447.825262078033
 21
-369.2567087335339
 31
0.0
  0
LINE
  5
321
330
1F
100
AcDbEntity
  8
1
  6
Continuous
 62
     1
100
AcDbLine
 10
1450.875262078031
 20
-369.2567087335339
 30
0.0
 11
1450.875262078031
 21
-368.5067087335339
 31
0.0
  0
LINE
  5
322
330
1F
100
AcDbEntity
  8
1
  6
Continuous
 62
     1
100
AcDbLine
 10
1462.075262078033
 20
-368.5067087335339
 30
0.0
 11
1462.075262078033
 21
-363.5067087335339
 31
0.0
  0
LINE
  5
323
330
1F
100
AcDbEntity
  8
1
  6
Continuous
 62
     1
100
AcDbLine
 10
1460.875262078031
 20
-339.3400420668673
 30
0.0
 11
1460.875262078031
 21
-351.0067087335339
 31
0.0
  0
LINE
  5
324
330
1F
100
AcDbEntity
  8
1
  6
Continuous
 62
     1
100
AcDbLine
 10
1504.875262078031
 20
-401.8400420668673
 30
0.0
 11
1504.875262078031
 21
-400.1733754002007
 31
0.0
  0
LINE
  5
325
330
1F
100
AcDbEntity
  8
1
  6
Continuous
 62
     1
100
AcDbLine
 10
1499.875262078031
 20
-386.3400420668673
 30
0.0
 11
1499.875262078031
 21
-396.411523586233
 31
0.0
  0
LINE
  5
326
330
1F
100
AcDbEntity
  8
1
  6
Continuous
 62
     1
100
AcDbLine
 10
1497.78233953775
 20
-398.4093637704088
 30
0.0
 11
1481.954604632296
 21
-397.6731921056333
 31
0.0
  0
LINE
  5
327
330
1F
100
AcDbEntity
  8
1
  6
Continuous
 62
     1
100
AcDbLine
 10
1504.875262078031
 20
-400.1733754002007
 30
0.0
 11
1481.954971409227
 21
-400.1788051112458
 31
0.0
  0
LINE
  5
328
330
1F
100
AcDbEntity
  8
1
  6
Continuous
 62
     1
100
AcDbLine
 10
1504.875262078031
 20
-401.8400420668673
 30
0.0
 11
1481.965083106851
 21
-401.8400420668673
 31
0.0
  0
LINE
  5
329
330
1F
100
AcDbEntity
  8
1
  6
Continuous
 62
     1
100
AcDbLine
 10
1497.682069284243
 20
-396.8120692758727
 30
0.0
 11
1481.970382373087
 21
-395.9773533681567
 31
0.0
  0
LINE
  5
32A
102
{ACAD_REACTORS
330
455
330
455
102
}
330
1F
100
AcDbEntity
  8
1
  6
Continuous
 62
     1
100
AcDbLine
 10
1450.041928744698
 20
-389.3400420668673
 30
0.0
 11
1450.041928744698
 21
-376.0067087335339
 31
0.0
  0
LINE
  5
32B
102
{ACAD_REACTORS
330
455
330
455
102
}
330
1F
100
AcDbEntity
  8
1
  6
Continuous
 62
     1
100
AcDbLine
 10
1476.041928744698
 20
-389.3400420668673
 30
0.0
 11
1450.041928744698
 21
-389.3400420668673
 31
0.0
  0
LINE
  5
32C
330
1F
100
AcDbEntity
  8
1
  6
Continuous
 62
     1
100
AcDbLine
 10
1452.375262078031
 20
-351.0067087335339
 30
0.0
 11
1460.875262078031
 21
-351.0067087335339
 31
0.0
  0
LINE
  5
32D
330
1F
100
AcDbEntity
  8
1
  6
Continuous
 62
     1
100
AcDbLine
 10
1450.875262078031
 20
-354.8066357335339
 30
0.0
 11
1450.875262078031
 21
-352.5067087335339
 31
0.0
  0
LINE
  5
32E
330
1F
100
AcDbEntity
  8
1
  6
Continuous
 62
     1
100
AcDbLine
 10
1497.708595411365
 20
-386.0067087335339
 30
0.0
 11
1452.375262078031
 21
-386.0067087335339
 31
0.0
  0
LINE
  5
32F
330
1F
100
AcDbEntity
  8
1
  6
Continuous
 62
     1
100
AcDbLine
 10
1460.875262078031
 20
-352.6733754002007
 30
0.0
 11
1460.875262078031
 21
-351.0067087335339
 31
0.0
  0
LINE
  5
330
330
1F
100
AcDbEntity
  8
1
  6
Continuous
 62
     1
100
AcDbLine
 10
1452.541928744698
 20
-352.6733754002007
 30
0.0
 11
1460.875262078031
 21
-352.6733754002007
 31
0.0
  0
LINE
  5
331
330
1F
100
AcDbEntity
  8
1
  6
Continuous
 62
     1
100
AcDbLine
 10
1452.541928744698
 20
-384.3400420668673
 30
0.0
 11
1497.875262078031
 21
-384.3400420668673
 31
0.0
  0
LINE
  5
332
330
1F
100
AcDbEntity
  8
1
  6
Continuous
 62
     1
100
AcDbLine
 10
1452.541928744698
 20
-368.5067087335339
 30
0.0
 11
1452.541928744698
 21
-384.3400420668673
 31
0.0
  0
LINE
  5
333
330
1F
100
AcDbEntity
  8
1
  6
Continuous
 62
     1
100
AcDbLine
 10
1498.208595411365
 20
-396.3127734070936
 30
0.0
 11
1498.208595411365
 21
-386.5067087335339
 31
0.0
  0
LINE
  5
334
102
{ACAD_REACTORS
330
455
330
455
102
}
330
1F
100
AcDbEntity
  8
1
  6
Continuous
 62
     1
100
AcDbLine
 10
1476.041928744698
 20
-451.006708733534
 30
0.0
 11
1476.041928744698
 21
-389.3400420668673
 31
0.0
  0
LINE
  5
335
330
1F
100
AcDbEntity
  8
1
  6
DOT_CENTER
 62
     3
100
AcDbLine
 10
1442.165490144918
 20
-366.0067087335339
 30
0.0
 11
1463.096128744729
 21
-366.0067087335339
 31
0.0
  0
LINE
  5
336
102
{ACAD_REACTORS
330
455
330
455
102
}
330
1F
100
AcDbEntity
  8
1
  6
Continuous
 62
     1
100
AcDbLine
 10
1450.041928744698
 20
-376.0067087335339
 30
0.0
 11
1435.041928744698
 21
-376.0067087335339
 31
0.0
  0
LINE
  5
337
330
1F
100
AcDbEntity
  8
1
  6
DASH_CENTER
 62
     3
100
AcDbLine
 10
1428.385304393817
 20
-434.0067087335339
 30
0.0
 11
1452.636286870096
 21
-434.0067087335339
 31
0.0
  0
LINE
  5
338
330
1F
100
AcDbEntity
  8
1
  6
DASH_CENTER
 62
     3
100
AcDbLine
 10
1428.385304393817
 20
-418.0067087335339
 30
0.0
 11
1452.141603917793
 21
-418.0067087335339
 31
0.0
  0
LINE
  5
339
330
1F
100
AcDbEntity
  8
0
  6
DASH_CENTER
 62
     3
100
AcDbLine
 10
1452.175311078031
 20
-353.0067087335339
 30
0.0
 11
1412.94315688288
 21
-353.0067087335339
 31
0.0
  0
LINE
  5
33A
330
1F
100
AcDbEntity
  8
0
  6
DASH_CENTER
 62
     3
100
AcDbLine
 10
1429.875018078031
 20
-364.5339497780529
 30
0.0
 11
1429.875018078031
 21
-341.6343832509748
 31
0.0
  0
LINE
  5
33B
330
1F
100
AcDbEntity
  8
0
  6
Continuous
 62
     3
100
AcDbLine
 10
1417.541928744698
 20
-382.7567087335339
 30
0.0
 11
1417.541928744698
 21
-367.8067577335339
 31
0.0
  0
LINE
  5
33C
330
1F
100
AcDbEntity
  8
0
  6
Continuous
 62
     3
100
AcDbLine
 10
1397.541928744698
 20
-367.8067577335339
 30
0.0
 11
1397.541928744698
 21
-382.7567087335339
 31
0.0
  0
LINE
  5
33D
330
1F
100
AcDbEntity
  8
0
  6
Continuous
 62
     3
100
AcDbLine
 10
1372.875018078031
 20
-357.0064647335338
 30
0.0
 11
1362.69069207803
 21
-357.0064647335338
 31
0.0
  0
LINE
  5
33E
330
1F
100
AcDbEntity
  8
0
  6
Continuous
 62
     3
100
AcDbLine
 10
1365.148455078031
 20
-348.806513733534
 30
0.0
 11
1372.875018078031
 21
-348.806513733534
 31
0.0
  0
LINE
  5
33F
330
1F
100
AcDbEntity
  8
0
  6
Continuous
 62
     3
100
AcDbLine
 10
1372.875018078031
 20
-348.806513733534
 30
0.0
 11
1372.875018078031
 21
-357.0064647335338
 31
0.0
  0
LINE
  5
340
330
1F
100
AcDbEntity
  8
0
  6
Continuous
 62
     3
100
AcDbLine
 10
1438.875018078031
 20
-350.3067577335339
 30
0.0
 11
1438.875018078031
 21
-355.3067577335339
 31
0.0
  0
LINE
  5
341
330
1F
100
AcDbEntity
  8
0
  6
Continuous
 62
     3
100
AcDbLine
 10
1421.875262078031
 20
-359.1068067335339
 30
0.0
 11
1421.875262078031
 21
-361.1068067335339
 31
0.0
  0
LINE
  5
342
330
1F
100
AcDbEntity
  8
0
  6
Continuous
 62
     3
100
AcDbLine
 10
1421.875262078031
 20
-344.9068547335337
 30
0.0
 11
1421.875262078031
 21
-346.9068547335337
 31
0.0
  0
LINE
  5
343
330
1F
100
AcDbEntity
  8
0
  6
Continuous
 62
     3
100
AcDbLine
 10
1425.125018078031
 20
-362.3067577335339
 30
0.0
 11
1434.625018078031
 21
-362.3067577335339
 31
0.0
  0
LINE
  5
344
330
1F
100
AcDbEntity
  8
0
  6
Continuous
 62
     3
100
AcDbLine
 10
1434.625018078031
 20
-362.3067577335339
 30
0.0
 11
1434.625018078031
 21
-361.3067577335339
 31
0.0
  0
LINE
  5
345
330
1F
100
AcDbEntity
  8
0
  6
Continuous
 62
     3
100
AcDbLine
 10
1425.125018078031
 20
-361.3067577335339
 30
0.0
 11
1425.125018078031
 21
-362.3067577335339
 31
0.0
  0
LINE
  5
346
330
1F
100
AcDbEntity
  8
0
  6
Continuous
 62
     3
100
AcDbLine
 10
1425.524920078031
 20
-361.3067577335339
 30
0.0
 11
1425.125018078031
 21
-361.3067577335339
 31
0.0
  0
LINE
  5
347
330
1F
100
AcDbEntity
  8
0
  6
Continuous
 62
     3
100
AcDbLine
 10
1426.375262078031
 20
-343.9068547335337
 30
0.0
 11
1433.375262078031
 21
-343.9068547335337
 31
0.0
  0
LINE
  5
348
330
1F
100
AcDbEntity
  8
0
  6
Continuous
 62
     3
100
AcDbLine
 10
1433.375262078031
 20
-343.9068547335337
 30
0.0
 11
1434.375018078031
 21
-344.9066107335339
 31
0.0
  0
LINE
  5
349
330
1F
100
AcDbEntity
  8
0
  6
Continuous
 62
     3
100
AcDbLine
 10
1426.375262078031
 20
-343.9068547335337
 30
0.0
 11
1425.375262078031
 21
-344.9068547335337
 31
0.0
  0
LINE
  5
34A
330
1F
100
AcDbEntity
  8
0
  6
Continuous
 62
     3
100
AcDbLine
 10
1435.875018078031
 20
-355.3067577335339
 30
0.0
 11
1435.875018078031
 21
-355.8067577335339
 31
0.0
  0
LINE
  5
34B
330
1F
100
AcDbEntity
  8
0
  6
Continuous
 62
     3
100
AcDbLine
 10
1435.875018078031
 20
-355.8067577335339
 30
0.0
 11
1437.375018078031
 21
-355.9378607335339
 31
0.0
  0
LINE
  5
34C
330
1F
100
AcDbEntity
  8
0
  6
Continuous
 62
     3
100
AcDbLine
 10
1437.375018078031
 20
-355.9378607335339
 30
0.0
 11
1437.375018078031
 21
-358.7879587335339
 31
0.0
  0
LINE
  5
34D
330
1F
100
AcDbEntity
  8
0
  6
Continuous
 62
     3
100
AcDbLine
 10
1437.375018078031
 20
-358.7879587335339
 30
0.0
 11
1434.875018078031
 21
-359.0067087335339
 31
0.0
  0
LINE
  5
34E
330
1F
100
AcDbEntity
  8
0
  6
Continuous
 62
     3
100
AcDbLine
 10
1435.586199078031
 20
-349.8067577335339
 30
0.0
 11
1435.875018078031
 21
-350.3067577335339
 31
0.0
  0
LINE
  5
34F
330
1F
100
AcDbEntity
  8
0
  6
Continuous
 62
     3
100
AcDbLine
 10
1424.875018078031
 20
-359.0067087335339
 30
0.0
 11
1422.375018078031
 21
-358.7879587335339
 31
0.0
  0
LINE
  5
350
330
1F
100
AcDbEntity
  8
0
  6
Continuous
 62
     3
100
AcDbLine
 10
1422.375018078031
 20
-358.7879587335339
 30
0.0
 11
1422.375018078031
 21
-355.9378607335339
 31
0.0
  0
LINE
  5
351
330
1F
100
AcDbEntity
  8
0
  6
Continuous
 62
     3
100
AcDbLine
 10
1422.375018078031
 20
-355.9378607335339
 30
0.0
 11
1423.875018078031
 21
-355.8067577335339
 31
0.0
  0
LINE
  5
352
330
1F
100
AcDbEntity
  8
0
  6
Continuous
 62
     3
100
AcDbLine
 10
1423.875018078031
 20
-355.8067577335339
 30
0.0
 11
1423.875018078031
 21
-355.3067577335339
 31
0.0
  0
LINE
  5
353
330
1F
100
AcDbEntity
  8
0
  6
Continuous
 62
     3
100
AcDbLine
 10
1423.875018078031
 20
-350.3067577335339
 30
0.0
 11
1424.16359207803
 21
-349.8067577335339
 31
0.0
  0
LINE
  5
354
330
1F
100
AcDbEntity
  8
0
  6
Continuous
 62
     3
100
AcDbLine
 10
1434.87477407803
 20
-347.0067087335339
 30
0.0
 11
1437.37477407803
 21
-347.2254587335339
 31
0.0
  0
LINE
  5
355
330
1F
100
AcDbEntity
  8
0
  6
Continuous
 62
     3
100
AcDbLine
 10
1437.37477407803
 20
-347.2254587335339
 30
0.0
 11
1437.37477407803
 21
-349.5880077335339
 31
0.0
  0
LINE
  5
356
330
1F
100
AcDbEntity
  8
0
  6
Continuous
 62
     3
100
AcDbLine
 10
1437.37477407803
 20
-349.5880077335339
 30
0.0
 11
1434.87477407803
 21
-349.8067577335339
 31
0.0
  0
LINE
  5
357
330
1F
100
AcDbEntity
  8
0
  6
Continuous
 62
     3
100
AcDbLine
 10
1424.87477407803
 20
-349.8067577335339
 30
0.0
 11
1422.37477407803
 21
-349.5880077335339
 31
0.0
  0
LINE
  5
358
330
1F
100
AcDbEntity
  8
0
  6
Continuous
 62
     3
100
AcDbLine
 10
1422.37477407803
 20
-349.5880077335339
 30
0.0
 11
1422.37477407803
 21
-347.2254587335339
 31
0.0
  0
LINE
  5
359
330
1F
100
AcDbEntity
  8
0
  6
Continuous
 62
     3
100
AcDbLine
 10
1422.37477407803
 20
-347.2254587335339
 30
0.0
 11
1424.87477407803
 21
-347.0067087335339
 31
0.0
  0
LINE
  5
35A
330
1F
100
AcDbEntity
  8
0
  6
Continuous
 62
     3
100
AcDbLine
 10
1418.541928744698
 20
-361.8067577335339
 30
0.0
 11
1418.541928744698
 21
-367.8067577335339
 31
0.0
  0
LINE
  5
35B
330
1F
100
AcDbEntity
  8
0
  6
Continuous
 62
     3
100
AcDbLine
 10
1442.875262078031
 20
-361.1068067335339
 30
0.0
 11
1421.875262078031
 21
-361.1068067335339
 31
0.0
  0
LINE
  5
35C
330
1F
100
AcDbEntity
  8
0
  6
Continuous
 62
     3
100
AcDbLine
 10
1442.875262078031
 20
-359.1068067335339
 30
0.0
 11
1421.875262078031
 21
-359.1068067335339
 31
0.0
  0
LINE
  5
35D
330
1F
100
AcDbEntity
  8
0
  6
Continuous
 62
     3
100
AcDbLine
 10
1424.875018078031
 20
-359.0067087335339
 30
0.0
 11
1434.875018078031
 21
-359.0067087335339
 31
0.0
  0
LINE
  5
35E
330
1F
100
AcDbEntity
  8
0
  6
Continuous
 62
     3
100
AcDbLine
 10
1425.125018078031
 20
-361.3067577335339
 30
0.0
 11
1434.625018078031
 21
-361.3067577335339
 31
0.0
  0
LINE
  5
35F
330
1F
100
AcDbEntity
  8
0
  6
Continuous
 62
     3
100
AcDbLine
 10
1425.774920078031
 20
-359.1068067335339
 30
0.0
 11
1425.774920078031
 21
-359.0067087335339
 31
0.0
  0
LINE
  5
360
330
1F
100
AcDbEntity
  8
0
  6
Continuous
 62
     3
100
AcDbLine
 10
1425.774920078031
 20
-347.0067087335339
 30
0.0
 11
1425.774920078031
 21
-346.9068547335337
 31
0.0
  0
LINE
  5
361
330
1F
100
AcDbEntity
  8
0
  6
Continuous
 62
     3
100
AcDbLine
 10
1433.97487107803
 20
-359.1068067335339
 30
0.0
 11
1433.97487107803
 21
-359.0067087335339
 31
0.0
  0
LINE
  5
362
330
1F
100
AcDbEntity
  8
0
  6
Continuous
 62
     3
100
AcDbLine
 10
1433.97487107803
 20
-347.0067087335339
 30
0.0
 11
1433.97487107803
 21
-346.9068547335337
 31
0.0
  0
LINE
  5
363
330
1F
100
AcDbEntity
  8
0
  6
Continuous
 62
     3
100
AcDbLine
 10
1422.375018078031
 20
-358.7879587335339
 30
0.0
 11
1437.375018078031
 21
-358.7879587335339
 31
0.0
  0
LINE
  5
364
330
1F
100
AcDbEntity
  8
0
  6
Continuous
 62
     3
100
AcDbLine
 10
1422.375018078031
 20
-355.9378607335339
 30
0.0
 11
1437.375018078031
 21
-355.9378607335339
 31
0.0
  0
LINE
  5
365
330
1F
100
AcDbEntity
  8
0
  6
Continuous
 62
     3
100
AcDbLine
 10
1423.875018078031
 20
-355.8067577335339
 30
0.0
 11
1435.875018078031
 21
-355.8067577335339
 31
0.0
  0
LINE
  5
366
330
1F
100
AcDbEntity
  8
0
  6
Continuous
 62
     3
100
AcDbLine
 10
1372.875018078031
 20
-355.3067577335339
 30
0.0
 11
1438.875018078031
 21
-355.3067577335339
 31
0.0
  0
LINE
  5
367
330
1F
100
AcDbEntity
  8
0
  6
Continuous
 62
     3
100
AcDbLine
 10
1372.875018078031
 20
-350.3067577335339
 30
0.0
 11
1438.875018078031
 21
-350.3067577335339
 31
0.0
  0
LINE
  5
368
330
1F
100
AcDbEntity
  8
0
  6
Continuous
 62
     3
100
AcDbLine
 10
1424.16359207803
 20
-349.8067577335339
 30
0.0
 11
1435.586199078031
 21
-349.8067577335339
 31
0.0
  0
LINE
  5
369
330
1F
100
AcDbEntity
  8
0
  6
Continuous
 62
     3
100
AcDbLine
 10
1422.37477407803
 20
-349.5880077335339
 30
0.0
 11
1437.37477407803
 21
-349.5880077335339
 31
0.0
  0
LINE
  5
36A
330
1F
100
AcDbEntity
  8
0
  6
Continuous
 62
     3
100
AcDbLine
 10
1437.37477407803
 20
-347.2254587335339
 30
0.0
 11
1422.37477407803
 21
-347.2254587335339
 31
0.0
  0
LINE
  5
36B
330
1F
100
AcDbEntity
  8
0
  6
Continuous
 62
     3
100
AcDbLine
 10
1424.87477407803
 20
-347.0067087335339
 30
0.0
 11
1434.87477407803
 21
-347.0067087335339
 31
0.0
  0
LINE
  5
36C
330
1F
100
AcDbEntity
  8
0
  6
Continuous
 62
     3
100
AcDbLine
 10
1442.875262078031
 20
-346.9068547335337
 30
0.0
 11
1421.875262078031
 21
-346.9068547335337
 31
0.0
  0
LINE
  5
36D
330
1F
100
AcDbEntity
  8
0
  6
Continuous
 62
     3
100
AcDbLine
 10
1442.875262078031
 20
-344.9068547335337
 30
0.0
 11
1421.875262078031
 21
-344.9068547335337
 31
0.0
  0
LINE
  5
36E
330
1F
100
AcDbEntity
  8
0
  6
Continuous
 62
     3
100
AcDbLine
 10
1368.356290744698
 20
-361.8067577335339
 30
0.0
 11
1418.541928744698
 21
-361.8067577335339
 31
0.0
  0
LINE
  5
36F
330
1F
100
AcDbEntity
  8
0
  6
Continuous
 62
     3
100
AcDbLine
 10
1369.161343744698
 20
-367.8067577335339
 30
0.0
 11
1418.541928744698
 21
-367.8067577335339
 31
0.0
  0
LINE
  5
370
330
1F
100
AcDbEntity
  8
0
  6
Continuous
 62
     3
100
AcDbLine
 10
1365.148455078031
 20
-348.806513733534
 30
0.0
 11
1365.857775078031
 21
-350.3492987335338
 31
0.0
  0
LINE
  5
371
330
1F
100
AcDbEntity
  8
0
  6
Continuous
 62
     3
100
AcDbLine
 10
1365.857775078031
 20
-350.3492987335338
 30
0.0
 11
1362.69069207803
 21
-357.0064647335338
 31
0.0
  0
LINE
  5
372
330
1F
100
AcDbEntity
  8
0
  6
Continuous
 62
     3
100
AcDbLine
 10
1368.350308744697
 20
-361.6957957335338
 30
0.0
 11
1369.161343744698
 21
-367.8067577335339
 31
0.0
  0
LINE
  5
373
330
1F
100
AcDbEntity
  8
0
  6
Continuous
 62
     3
100
AcDbLine
 10
1443.875262078031
 20
-347.9068547335337
 30
0.0
 11
1443.875262078031
 21
-358.1068067335339
 31
0.0
  0
LINE
  5
374
330
1F
100
AcDbEntity
  8
0
  6
Continuous
 62
     3
100
AcDbLine
 10
1443.875262078031
 20
-348.0065867335338
 30
0.0
 11
1441.375201078031
 21
-348.2252757335339
 31
0.0
  0
LINE
  5
375
330
1F
100
AcDbEntity
  8
0
  6
Continuous
 62
     3
100
AcDbLine
 10
1443.875201078031
 20
-358.0066477335337
 30
0.0
 11
1441.375201078031
 21
-357.7878977335337
 31
0.0
  0
LINE
  5
376
330
1F
100
AcDbEntity
  8
0
  6
Continuous
 62
     3
100
AcDbLine
 10
1441.375201078031
 20
-357.7878977335337
 30
0.0
 11
1441.375201078031
 21
-348.2252757335339
 31
0.0
  0
LINE
  5
377
330
1F
100
AcDbEntity
  8
0
  6
Continuous
 62
     3
100
AcDbLine
 10
1439.957842078031
 20
-352.2567087335339
 30
0.0
 11
1440.675189078031
 21
-352.2567087335339
 31
0.0
  0
LINE
  5
378
330
1F
100
AcDbEntity
  8
0
  6
Continuous
 62
     3
100
AcDbLine
 10
1440.675189078031
 20
-352.2567087335339
 30
0.0
 11
1440.675189078031
 21
-353.7567087335339
 31
0.0
  0
LINE
  5
379
330
1F
100
AcDbEntity
  8
0
  6
Continuous
 62
     3
100
AcDbLine
 10
1440.675189078031
 20
-353.7567087335339
 30
0.0
 11
1439.957842078031
 21
-353.7567087335339
 31
0.0
  0
ARC
  5
37A
330
1F
100
AcDbEntity
  8
1
  6
Continuous
 62
     3
100
AcDbCircle
 10
1430.561206469215
 20
-303.0539205322051
 30
0.0
 40
2.5
100
AcDbArc
 50
90.0
 51
0.0
  0
ARC
  5
37B
330
1F
100
AcDbEntity
  8
1
  6
Continuous
 62
     3
100
AcDbCircle
 10
1385.561206469215
 20
-303.0539205322051
 30
0.0
 40
2.5
100
AcDbArc
 50
90.0
 51
0.0
  0
ARC
  5
37C
330
1F
100
AcDbEntity
  8
1
  6
Continuous
 62
     3
100
AcDbCircle
 10
1386.737540646995
 20
-442.0012631206175
 30
0.0
 40
0.3000000000005837
100
AcDbArc
 50
-170.6339714441281
 51
-70.00000000030157
  0
ARC
  5
37D
330
1F
100
AcDbEntity
  8
1
  6
Continuous
 62
     3
100
AcDbCircle
 10
1564.041928744698
 20
-412.7567087335339
 30
0.0
 40
180.0000000000005
100
AcDbArc
 50
170.6339714440724
 51
-170.6339714440725
  0
ARC
  5
37E
330
1F
100
AcDbEntity
  8
1
  6
Continuous
 62
     3
100
AcDbCircle
 10
1386.737540646995
 20
-383.5121543464504
 30
0.0
 40
0.2999999999991379
100
AcDbArc
 50
70.00000000032014
 51
170.6339714440638
  0
ARC
  5
37F
330
1F
100
AcDbEntity
  8
1
  6
Continuous
 62
     3
100
AcDbCircle
 10
1536.281944472491
 20
-412.8027113650074
 30
0.0
 40
153.679123413583
100
AcDbArc
 50
-174.7348705957642
 51
-171.7309723784589
  0
ARC
  5
380
330
1F
100
AcDbEntity
  8
1
  6
Continuous
 62
     3
100
AcDbCircle
 10
1536.623574128326
 20
-412.7567087335339
 30
0.0
 40
153.022844827587
100
AcDbArc
 50
168.8275926039094
 51
-168.8275926039093
  0
ARC
  5
381
330
1F
100
AcDbEntity
  8
1
  6
Continuous
 62
     3
100
AcDbCircle
 10
1536.623574128326
 20
-412.7567087335339
 30
0.0
 40
153.5228448275892
100
AcDbArc
 50
168.8275926039096
 51
-168.8275926039098
  0
ARC
  5
382
330
1F
100
AcDbEntity
  8
1
  6
Continuous
 62
     1
100
AcDbCircle
 10
1481.954591818445
 20
-398.92599863716
 30
0.0
 40
1.252806531592218
100
AcDbArc
 50
89.99941397209608
 51
-89.98263981744785
  0
ARC
  5
383
330
1F
100
AcDbEntity
  8
1
  6
Continuous
 62
     1
100
AcDbCircle
 10
1481.965083106851
 20
-398.9086953225168
 30
0.0
 40
2.931346744350517
100
AcDbArc
 50
89.89642107136953
 51
-90.0
  0
ARC
  5
384
330
1F
100
AcDbEntity
  8
0
  6
Continuous
 62
     3
100
AcDbCircle
 10
1442.875262078031
 20
-358.1068067335339
 30
0.0
 40
3.0
100
AcDbArc
 50
-90.0
 51
0.0
  0
ARC
  5
385
330
1F
100
AcDbEntity
  8
0
  6
Continuous
 62
     3
100
AcDbCircle
 10
1442.875262078031
 20
-347.9068547335337
 30
0.0
 40
3.0
100
AcDbArc
 50
0.0
 51
90.0
  0
ARC
  5
386
330
1F
100
AcDbEntity
  8
0
  6
Continuous
 62
     3
100
AcDbCircle
 10
1442.875262078031
 20
-347.9068547335337
 30
0.0
 40
1.0
100
AcDbArc
 50
0.0
 51
90.0
  0
ARC
  5
387
330
1F
100
AcDbEntity
  8
0
  6
Continuous
 62
     3
100
AcDbCircle
 10
1442.875262078031
 20
-358.1068067335339
 30
0.0
 40
1.0
100
AcDbArc
 50
-90.0
 51
0.0
  0
ARC
  5
388
330
1F
100
AcDbEntity
  8
0
  6
Continuous
 62
     3
100
AcDbCircle
 10
1425.524920078031
 20
-361.0567577335339
 30
0.0
 40
0.25
100
AcDbArc
 50
-90.0
 51
-11.55140799999881
  0
ARC
  5
389
330
1F
100
AcDbEntity
  8
0
  6
Continuous
 62
     3
100
AcDbCircle
 10
1434.22487107803
 20
-361.0567577335339
 30
0.0
 40
0.2500769999996794
100
AcDbArc
 50
-168.5693989999828
 51
-90.0
  0
ARC
  5
38A
330
1F
100
AcDbEntity
  8
0
  6
Continuous
 62
     3
100
AcDbCircle
 10
1448.533160078031
 20
-353.0065867335339
 30
0.0
 40
8.608030000000776
100
AcDbArc
 50
146.258440000003
 51
175.0024210000013
  0
ARC
  5
38B
330
1F
100
AcDbEntity
  8
0
  6
Continuous
 62
     3
100
AcDbCircle
 10
1448.533160078031
 20
-353.0065867335339
 30
0.0
 40
8.608063000000778
100
AcDbArc
 50
-175.0008020000014
 51
-146.2595670000004
  0
CIRCLE
  5
38C
330
1F
100
AcDbEntity
  8
1
  6
Continuous
 62
     1
100
AcDbCircle
 10
1430.561206469215
 20
-303.0539205322051
 30
0.0
 40
2.067000000000007
  0
CIRCLE
  5
38D
330
1F
100
AcDbEntity
  8
1
  6
Continuous
 62
     1
100
AcDbCircle
 10
1385.561206469215
 20
-303.0539205322051
 30
0.0
 40
2.067000000000007
  0
CIRCLE
  5
38E
330
1F
100
AcDbEntity
  8
1
  6
Continuous
 62
     1
100
AcDbCircle
 10
1430.561206469215
 20
-316.053920532205
 30
0.0
 40
3.25
  0
CIRCLE
  5
38F
330
1F
100
AcDbEntity
  8
1
  6
Continuous
 62
     1
100
AcDbCircle
 10
1430.561206469215
 20
-316.053920532205
 30
0.0
 40
5.200000000000102
  0
CIRCLE
  5
390
330
1F
100
AcDbEntity
  8
1
  6
Continuous
 62
     1
100
AcDbCircle
 10
1385.561206469215
 20
-316.0539205322051
 30
0.0
 40
3.25
  0
CIRCLE
  5
391
330
1F
100
AcDbEntity
  8
1
  6
Continuous
 62
     1
100
AcDbCircle
 10
1385.561206469215
 20
-316.0539205322051
 30
0.0
 40
5.199999999999989
  0
CIRCLE
  5
392
330
1F
100
AcDbEntity
  8
1
  6
Continuous
 62
     3
100
AcDbCircle
 10
1407.541928744698
 20
-413.0067087335339
 30
0.0
 40
21.25
  0
CIRCLE
  5
393
330
1F
100
AcDbEntity
  8
1
  6
Continuous
 62
     3
100
AcDbCircle
 10
1407.541928744698
 20
-413.0067087335339
 30
0.0
 40
20.75
  0
CIRCLE
  5
394
330
1F
100
AcDbEntity
  8
1
  6
Continuous
 62
     3
100
AcDbCircle
 10
1393.541928744698
 20
-413.0067087335339
 30
0.0
 40
3.0
  0
CIRCLE
  5
395
330
1F
100
AcDbEntity
  8
1
  6
Continuous
 62
     3
100
AcDbCircle
 10
1421.541928744698
 20
-413.0067087335339
 30
0.0
 40
3.0
  0
CIRCLE
  5
396
330
1F
100
AcDbEntity
  8
1
  6
Continuous
 62
     3
100
AcDbCircle
 10
1393.541928744698
 20
-413.0067087335339
 30
0.0
 40
2.5
  0
CIRCLE
  5
397
330
1F
100
AcDbEntity
  8
1
  6
Continuous
 62
     3
100
AcDbCircle
 10
1421.541928744698
 20
-413.0067087335339
 30
0.0
 40
2.5
  0
ARC
  5
39B
330
1F
100
AcDbEntity
  8
1
  6
Continuous
 62
     1
100
AcDbCircle
 10
1497.708595411365
 20
-386.5067087335339
 30
0.0
 40
0.5
100
AcDbArc
 50
0.0
 51
90.0
  0
ARC
  5
39C
330
1F
100
AcDbEntity
  8
1
  6
Continuous
 62
     1
100
AcDbCircle
 10
1497.708595411365
 20
-396.3127734070936
 30
0.0
 40
0.5000000000000114
100
AcDbArc
 50
-93.04109795058069
 51
0.0
  0
ARC
  5
39D
330
1F
100
AcDbEntity
  8
1
  6
Continuous
 62
     1
100
AcDbCircle
 10
1497.875262078031
 20
-396.411523586233
 30
0.0
 40
1.999999999999969
100
AcDbArc
 50
-92.66299335476468
 51
0.0
  0
ARC
  5
39E
330
1F
100
AcDbEntity
  8
1
  6
Continuous
 62
     1
100
AcDbCircle
 10
1497.875262078031
 20
-386.3400420668673
 30
0.0
 40
2.0
100
AcDbArc
 50
0.0
 51
90.0
  0
ARC
  5
39F
330
1F
100
AcDbEntity
  8
1
  6
Continuous
 62
     1
100
AcDbCircle
 10
1452.375262078031
 20
-384.5067087335339
 30
0.0
 40
1.5
100
AcDbArc
 50
180.0
 51
-90.0
  0
ARC
  5
3A0
330
1F
100
AcDbEntity
  8
1
  6
Continuous
 62
     1
100
AcDbCircle
 10
1452.375262078031
 20
-352.5067087335339
 30
0.0
 40
1.5
100
AcDbArc
 50
90.0
 51
180.0
  0
ARC
  5
3A1
330
1F
100
AcDbEntity
  8
1
  6
Continuous
 62
     3
100
AcDbCircle
 10
1429.041928744698
 20
-441.256708733534
 30
0.0
 40
1.5
100
AcDbArc
 50
-90.0
 51
-48.18968510421901
  0
ARC
  5
3A2
330
1F
100
AcDbEntity
  8
1
  6
Continuous
 62
     3
100
AcDbCircle
 10
1429.041928744698
 20
-384.2567087335339
 30
0.0
 40
1.500000000000142
100
AcDbArc
 50
48.18968510422624
 51
90.0
  0
ARC
  5
3A3
330
1F
100
AcDbEntity
  8
1
  6
Continuous
 62
     3
100
AcDbCircle
 10
1386.500729300739
 20
-442.4067087335342
 30
0.0
 40
0.500000000002072
100
AcDbArc
 50
-168.8275926040513
 51
-70.00000000007752
  0
ARC
  5
3A4
330
1F
100
AcDbEntity
  8
1
  6
Continuous
 62
     3
100
AcDbCircle
 10
1386.500729300739
 20
-383.1067087335338
 30
0.0
 40
0.4999999999996985
100
AcDbArc
 50
70.0000000001087
 51
168.8275926039683
  0
TEXT
  5
3A5
330
1F
100
AcDbEntity
  8
1
 62
     4
100
AcDbText
 10
1512.61776459684
 20
-285.610205537384
 30
0.0
 40
3.0
  1
82506
 41
0.792
  7
CONVERTER_11
100
AcDbText
  0
TEXT
  5
3A6
330
1F
100
AcDbEntity
  8
1
 62
     4
100
AcDbText
 10
1512.61776459684
 20
-291.610205537384
 30
0.0
 40
3.0
  1
57110
 41
0.792
  7
CONVERTER_11
100
AcDbText
  0
TEXT
  5
3A7
330
1F
100
AcDbEntity
  8
1
 62
     4
100
AcDbText
 10
1512.61776459684
 20
-297.610205537384
 30
0.0
 40
3.0
  1
57109
 41
0.792
  7
CONVERTER_11
100
AcDbText
  0
TEXT
  5
3A8
330
1F
100
AcDbEntity
  8
1
 62
     4
100
AcDbText
 10
1483.95978221359
 20
-285.654872113835
 30
0.0
 40
3.0
  1
RAL-Farbe
 41
0.792
  7
CONVERTER_11
100
AcDbText
  0
TEXT
  5
3A9
330
1F
100
AcDbEntity
  8
1
 62
     4
100
AcDbText
 10
1483.95978221359
 20
-291.654872113835
 30
0.0
 40
3.0
  1
dkl.bronze
 41
0.792
  7
CONVERTER_11
100
AcDbText
  0
TEXT
  5
3AA
330
1F
100
AcDbEntity
  8
1
 62
     4
100
AcDbText
 10
1483.95978221359
 20
-297.654872113835
 30
0.0
 40
3.0
  1
silberfarbig
 41
0.792
  7
CONVERTER_11
100
AcDbText
  0
TEXT
  5
3AB
330
1F
100
AcDbEntity
  8
1
 62
     4
100
AcDbText
 10
1512.80250885061
 20
-303.610205537384
 30
0.0
 40
3.0
  1
Id.-Nr.
 41
0.792
  7
CONVERTER_11
100
AcDbText
  0
TEXT
  5
3AC
330
1F
100
AcDbEntity
  8
1
 62
     4
100
AcDbText
 10
1483.95978221359
 20
-303.654872113835
 30
0.0
 40
3.0
  1
Ausführung
 41
0.792
  7
CONVERTER_11
100
AcDbText
  0
TEXT
  5
3AD
330
1F
100
AcDbEntity
  8
1
 62
     4
100
AcDbText
 10
1477.30155479714
 20
-277.781790038638
 30
0.0
 40
3.0
  1
Montageplatte für Gestänge
 41
0.792
  7
CONVERTER_11
100
AcDbText
  0
DIMENSION
  5
3B8
330
1F
100
AcDbEntity
  8
1
100
AcDbDimension
  2
*D12
 10
1379.061206469215
 20
-279.445923894551
 30
0.0
 11
1408.7789131346
 21
-276.045923894551
 31
0.0
 70
    32
  1
<>
 71
     5
 42
-1.0
 53
0.00013888888889
  3
ME10_DIM_18
100
AcDbAlignedDimension
 13
1437.061206469215
 23
-293.0539205322051
 33
0.0
 14
1379.061206469215
 24
-293.0539205322051
 34
0.0
100
AcDbRotatedDimension
  0
DIMENSION
  5
3C3
330
1F
100
AcDbEntity
  8
1
100
AcDbDimension
  2
*D13
 10
1385.561206469215
 20
-285.904872113835
 30
0.0
 11
1407.4577646352
 21
-282.504872113835
 31
0.0
 70
    32
  1
<>
 71
     5
 42
-1.0
 53
0.00013888888889
  3
ME10_DIM_19
100
AcDbAlignedDimension
 13
1430.561206469215
 23
-299.0539205322051
 33
0.0
 14
1385.561206469215
 24
-299.0539205322051
 34
0.0
100
AcDbRotatedDimension
  0
DIMENSION
  5
3D0
330
1F
100
AcDbEntity
  8
1
100
AcDbDimension
  2
*D14
 10
1464.530458660982
 20
-332.881385520124
 30
0.0
 11
1459.191122535245
 21
-329.481385520124
 31
0.0
 70
    32
  1
<>
 71
     5
 42
-1.0
 53
0.00013888888889
  3
ME10_DIM_20
100
AcDbAlignedDimension
 13
1464.030458660982
 23
-321.2539205322051
 33
0.0
 14
1464.530458660982
 24
-323.053920532205
 34
0.0
100
AcDbRotatedDimension
  0
DIMENSION
  5
3DC
330
1F
100
AcDbEntity
  8
1
100
AcDbDimension
  2
*D15
 10
1474.57941128659
 20
-310.8539205322052
 30
0.0
 11
1471.17941128659
 21
-317.086613983264
 31
0.0
 70
    32
  1
<>
 71
     5
 42
-1.0
 53
90.0
  3
ME10_DIM_21
100
AcDbAlignedDimension
 13
1464.530458660982
 23
-321.2539205322051
 33
0.0
 14
1464.530458660982
 24
-310.8539205322052
 34
0.0
 50
90.0
100
AcDbRotatedDimension
  0
DIMENSION
  5
3E7
330
1F
100
AcDbEntity
  8
1
100
AcDbDimension
  2
*D16
 10
1366.77686258207
 20
-323.053920532205
 30
0.0
 11
1363.37686258207
 21
-308.685437835938
 31
0.0
 70
    32
  1
<>
 71
     5
 42
-1.0
 53
90.0
  3
ME10_DIM_22
100
AcDbAlignedDimension
 13
1379.061206469215
 23
-293.0539205322051
 33
0.0
 14
1379.061206469215
 24
-323.053920532205
 34
0.0
 50
90.0
100
AcDbRotatedDimension
  0
DIMENSION
  5
3F4
330
1F
100
AcDbEntity
  8
1
100
AcDbDimension
  2
*D17
 10
1459.530458660982
 20
-286.345254946968
 30
0.0
 11
1462.32706427503
 21
-282.945254946968
 31
0.0
 70
    32
  1
<>
 71
     5
 42
-1.0
 53
0.00013888888889
  3
ME10_DIM_23
100
AcDbAlignedDimension
 13
1464.530458660982
 23
-293.0539205322051
 33
0.0
 14
1459.530458660982
 24
-293.0539205322051
 34
0.0
100
AcDbRotatedDimension
  0
DIMENSION
  5
401
330
1F
100
AcDbEntity
  8
1
100
AcDbDimension
  2
*D18
 10
1446.49701389489
 20
-305.5539205322051
 30
0.0
 11
1443.09701389489
 21
-295.569562830116
 31
0.0
 70
    32
  1
<>
 71
     5
 42
-1.0
 53
90.0
  3
ME10_DIM_24
100
AcDbAlignedDimension
 13
1459.530458660982
 23
-300.5539205322051
 33
0.0
 14
1459.530458660982
 24
-305.5539205322051
 34
0.0
 50
90.0
100
AcDbRotatedDimension
  0
DIMENSION
  5
40E
330
1F
100
AcDbEntity
  8
1
100
AcDbDimension
  2
*D19
 10
1452.80916783646
 20
-319.303920532205
 30
0.0
 11
1449.40916783646
 21
-316.267555987369
 31
0.0
 70
    32
  1
<>
 71
     5
 42
-1.0
 53
90.0
  3
ME10_DIM_25
100
AcDbAlignedDimension
 13
1459.530458660982
 23
-312.8039205322051
 33
0.0
 14
1459.530458660982
 24
-319.303920532205
 34
0.0
 50
90.0
100
AcDbRotatedDimension
  0
DIMENSION
  5
419
330
1F
100
AcDbEntity
  8
1
100
AcDbDimension
  2
*D20
 10
1513.617484179
 20
-376.0067087335339
 30
0.0
 11
1509.867484179
 21
-396.6297410347898
 31
0.0
 70
    32
  1
<>
 71
     5
 42
-1.0
 53
-90.0
  3
ME10_DIM_26
100
AcDbAlignedDimension
 13
1452.141603917793
 23
-418.0067087335339
 33
0.0
 14
1450.041928744698
 24
-376.0067087335339
 34
0.0
 50
-90.0
100
AcDbRotatedDimension
  0
DIMENSION
  5
426
330
1F
100
AcDbEntity
  8
1
100
AcDbDimension
  2
*D21
 10
1373.40498829992
 20
-323.053920532205
 30
0.0
 11
1370.00498829992
 21
-319.694866994403
 31
0.0
 70
    32
  1
<>
 71
     5
 42
-1.0
 53
90.0
  3
ME10_DIM_27
100
AcDbAlignedDimension
 13
1378.361206469215
 23
-316.0539205322051
 33
0.0
 14
1379.061206469215
 24
-323.053920532205
 34
0.0
 50
90.0
100
AcDbRotatedDimension
  0
DIMENSION
  5
431
330
1F
100
AcDbEntity
  8
1
100
AcDbDimension
  2
*D22
 10
1373.40498829992
 20
-316.0539205322051
 30
0.0
 11
1370.00498829992
 21
-309.190972848316
 31
0.0
 70
    32
  1
<>
 71
     5
 42
-1.0
 53
90.0
  3
ME10_DIM_28
100
AcDbAlignedDimension
 13
1381.561206469215
 23
-303.0539205322051
 33
0.0
 14
1378.361206469215
 24
-316.0539205322051
 34
0.0
 50
90.0
100
AcDbRotatedDimension
  0
DIMENSION
  5
43C
330
1F
100
AcDbEntity
  8
1
100
AcDbDimension
  2
*D23
 10
1523.31176389822
 20
-434.0067087335339
 30
0.0
 11
1519.56176389822
 21
-425.7125801924657
 31
0.0
 70
    32
  1
<>
 71
     5
 42
-1.0
 53
-90.0
  3
ME10_DIM_29
100
AcDbAlignedDimension
 13
1452.141603917793
 23
-418.0067087335339
 33
0.0
 14
1452.636286870096
 24
-434.0067087335339
 34
0.0
 50
-90.0
100
AcDbRotatedDimension
  0
DIMENSION
  5
447
330
1F
100
AcDbEntity
  8
1
100
AcDbDimension
  2
*D24
 10
1523.31176389822
 20
-418.0067087335339
 30
0.0
 11
1519.56176389822
 21
-385.5067087335339
 31
0.0
 70
    32
  1
<>
 71
     5
 42
-1.0
 53
-90.0
  3
ME10_DIM_30
100
AcDbAlignedDimension
 13
1452.175311078031
 23
-353.0067087335339
 33
0.0
 14
1452.141603917793
 24
-418.0067087335339
 34
0.0
 50
-90.0
100
AcDbRotatedDimension
  0
DIMENSION
  5
454
330
1F
100
AcDbEntity
  8
1
100
AcDbDimension
  2
*D25
 10
1482.462739868688
 20
-316.0539205322053
 30
0.0
 11
1479.06161193409
 21
-316.267555987369
 31
0.0
 70
    37
  1
<>
 71
     5
 42
-1.0
  3
ME10_DIM_31
100
AcDb3PointAngularDimension
 13
1464.030458660982
 23
-321.2539205322051
 33
0.0
 14
1464.030458660982
 24
-310.8539205322051
 34
0.0
 15
1458.830458660982
 25
-316.0539205322049
 35
0.0
  0
HATCH
  5
455
330
1F
100
AcDbEntity
  8
1
  6
DOTTED
 62
     3
100
AcDbHatch
 10
0.0
 20
0.0
 30
0.0
210
0.0
220
0.0
230
1.0
  2
_USER
 70
     0
 71
     1
 91
        1
 92
        1
 93
        6
 72
     1
 10
1450.041928744698
 20
-389.3400420668673
 11
1450.041928744698
 21
-376.0067087335339
 72
     1
 10
1450.041928744698
 20
-376.0067087335339
 11
1435.041928744698
 21
-376.0067087335339
 72
     1
 10
1435.041928744698
 20
-376.0067087335339
 11
1435.041928744698
 21
-451.006708733534
 72
     1
 10
1435.041928744698
 20
-451.006708733534
 11
1476.041928744698
 21
-451.006708733534
 72
     1
 10
1476.041928744698
 20
-451.006708733534
 11
1476.041928744698
 21
-389.3400420668673
 72
     1
 10
1476.041928744698
 20
-389.3400420668673
 11
1450.041928744698
 21
-389.3400420668673
 97
        6
330
334
330
294
330
295
330
336
330
32A
330
32B
 75
     1
 76
     0
 52
45.0
 41
1.0
 77
     0
 78
     1
 53
45.0
 43
0.0
 44
0.0
 45
-0.7071067811865475
 46
0.7071067811865476
 79
     0
 98
        1
 10
0.0
 20
0.0
  0
HATCH
  5
456
330
1F
100
AcDbEntity
  8
1
  6
Continuous
 62
     3
100
AcDbHatch
 10
0.0
 20
0.0
 30
0.0
210
0.0
220
0.0
230
1.0
  2
_USER
 70
     0
 71
     1
 91
        1
 92
        1
 93
        4
 72
     1
 10
1464.530458660982
 20
-293.0539205322051
 11
1459.530458660982
 21
-293.0539205322051
 72
     1
 10
1459.530458660982
 20
-293.0539205322051
 11
1459.530458660982
 21
-300.9869205322051
 72
     1
 10
1459.530458660982
 20
-300.9869205322051
 11
1464.530458660982
 21
-300.9869205322051
 72
     1
 10
1464.530458660982
 20
-300.9869205322051
 11
1464.530458660982
 21
-293.0539205322051
 97
        4
330
2BA
330
2B2
330
2AA
330
2A8
 75
     1
 76
     0
 52
45.0
 41
2.384
 77
     0
 78
     1
 53
45.0
 43
0.0
 44
0.0
 45
-1.685742566348729
 46
1.685742566348729
 79
     0
 98
        1
 10
0.0
 20
0.0
  0
HATCH
  5
457
330
1F
100
AcDbEntity
  8
1
  6
Continuous
 62
     3
100
AcDbHatch
 10
0.0
 20
0.0
 30
0.0
210
0.0
220
0.0
230
1.0
  2
_USER
 70
     0
 71
     1
 91
        1
 92
        1
 93
        6
 72
     1
 10
1459.530458660982
 20
-305.1209205322051
 11
1459.530458660982
 21
-312.8039205322051
 72
     1
 10
1459.530458660982
 20
-312.8039205322051
 11
1462.080458660982
 21
-312.803920532205
 72
     1
 10
1462.080458660982
 20
-312.803920532205
 11
1464.030458660982
 21
-310.8539205322051
 72
     1
 10
1464.030458660982
 20
-310.8539205322051
 11
1464.530458660982
 21
-310.8539205322052
 72
     1
 10
1464.530458660982
 20
-310.8539205322052
 11
1464.530458660982
 21
-305.1209205322051
 72
     1
 10
1464.530458660982
 20
-305.1209205322051
 11
1459.530458660982
 21
-305.1209205322051
 97
        6
330
2B9
330
2A3
330
2A2
330
2A1
330
2B4
330
2AC
 75
     1
 76
     0
 52
45.0
 41
2.384
 77
     0
 78
     1
 53
45.0
 43
0.0
 44
0.0
 45
-1.685742566348729
 46
1.685742566348729
 79
     0
 98
        1
 10
0.0
 20
0.0
  0
HATCH
  5
458
330
1F
100
AcDbEntity
  8
1
  6
Continuous
 62
     3
100
AcDbHatch
 10
0.0
 20
0.0
 30
0.0
210
0.0
220
0.0
230
1.0
  2
_USER
 70
     0
 71
     1
 91
        1
 92
        1
 93
        6
 72
     1
 10
1462.080458660982
 20
-319.303920532205
 11
1459.530458660982
 21
-319.303920532205
 72
     1
 10
1459.530458660982
 20
-319.303920532205
 11
1459.530458660982
 21
-323.053920532205
 72
     1
 10
1459.530458660982
 20
-323.053920532205
 11
1464.530458660982
 21
-323.053920532205
 72
     1
 10
1464.530458660982
 20
-323.053920532205
 11
1464.530458660982
 21
-321.2539205322051
 72
     1
 10
1464.530458660982
 20
-321.2539205322051
 11
1464.030458660982
 21
-321.2539205322051
 72
     1
 10
1464.030458660982
 20
-321.2539205322051
 11
1462.080458660982
 21
-319.303920532205
 97
        6
330
2A0
330
2BB
330
2BC
330
2B7
330
29E
330
29F
 75
     1
 76
     0
 52
45.0
 41
2.384
 77
     0
 78
     1
 53
45.0
 43
0.0
 44
0.0
 45
-1.685742566348729
 46
1.685742566348729
 79
     0
 98
        1
 10
0.0
 20
0.0
  0
HATCH
  5
459
330
1F
100
AcDbEntity
  8
1
  6
Continuous
 62
     3
100
AcDbHatch
 10
0.0
 20
0.0
 30
0.0
210
0.0
220
0.0
230
1.0
  2
_USER
 70
     0
 71
     1
 91
        1
 92
        1
 93
        4
 72
     1
 10
1452.541928744698
 20
-379.3400420668673
 11
1454.208595411365
 21
-379.3400420668673
 72
     1
 10
1454.208595411365
 20
-379.3400420668673
 11
1454.208595411365
 21
-368.5067087335339
 72
     1
 10
1454.208595411365
 20
-368.5067087335339
 11
1452.541928744698
 21
-368.5067087335339
 72
     1
 10
1452.541928744698
 20
-368.5067087335339
 11
1452.541928744698
 21
-379.3400420668673
 97
        4
330
2C6
330
2C5
330
2C8
330
2C7
 75
     1
 76
     0
 52
45.0
 41
1.5
 77
     0
 78
     1
 53
45.0
 43
0.0
 44
0.0
 45
-1.060660171779821
 46
1.060660171779821
 79
     0
 98
        1
 10
0.0
 20
0.0
  0
HATCH
  5
45A
330
1F
100
AcDbEntity
  8
1
  6
Continuous
 62
     3
100
AcDbHatch
 10
0.0
 20
0.0
 30
0.0
210
0.0
220
0.0
230
1.0
  2
_USER
 70
     0
 71
     1
 91
        1
 92
        1
 93
        4
 72
     1
 10
1452.541928744698
 20
-363.5067087335339
 11
1454.208595411365
 21
-363.5067087335339
 72
     1
 10
1454.208595411365
 20
-363.5067087335339
 11
1454.208595411365
 21
-352.6733754002007
 72
     1
 10
1454.208595411365
 20
-352.6733754002007
 11
1452.541928744698
 21
-352.6733754002007
 72
     1
 10
1452.541928744698
 20
-352.6733754002007
 11
1452.541928744698
 21
-363.5067087335339
 97
        4
330
2CA
330
2C9
330
2CC
330
2D0
 75
     1
 76
     0
 52
45.0
 41
1.5
 77
     0
 78
     1
 53
45.0
 43
0.0
 44
0.0
 45
-1.060660171779821
 46
1.060660171779821
 79
     0
 98
        1
 10
0.0
 20
0.0
  0
HATCH
  5
45B
330
1F
100
AcDbEntity
  8
1
  6
Continuous
 62
     3
100
AcDbHatch
 10
0.0
 20
0.0
 30
0.0
210
0.0
220
0.0
230
1.0
  2
_USER
 70
     0
 71
     1
 91
        1
 92
        1
 93
        7
 72
     1
 10
1445.875262078031
 20
-360.806708733534
 11
1447.825262078033
 21
-362.7567087335339
 72
     1
 10
1447.825262078033
 20
-362.7567087335339
 11
1450.875262078031
 21
-362.7567087335339
 72
     1
 10
1450.875262078031
 20
-362.7567087335339
 11
1450.875262078031
 21
-354.8066357335339
 72
     1
 10
1450.875262078031
 20
-354.8066357335339
 11
1449.875262078031
 21
-354.8066357335339
 72
     1
 10
1449.875262078031
 20
-354.8066357335339
 11
1449.875262078031
 21
-355.5067087335339
 72
     1
 10
1449.875262078031
 20
-355.5067087335339
 11
1445.875262078031
 21
-355.5067087335339
 72
     1
 10
1445.875262078031
 20
-355.5067087335339
 11
1445.875262078031
 21
-360.806708733534
 97
        7
330
2ED
330
2F5
330
2D8
330
2E8
330
2E2
330
2E0
330
2E1
 75
     1
 76
     0
 52
45.0
 41
2.5
 77
     0
 78
     1
 53
45.0
 43
0.0
 44
0.0
 45
-1.767766952966369
 46
1.767766952966369
 79
     0
 98
        1
 10
0.0
 20
0.0
  0
HATCH
  5
45C
330
1F
100
AcDbEntity
  8
1
  6
Continuous
 62
     3
100
AcDbHatch
 10
0.0
 20
0.0
 30
0.0
210
0.0
220
0.0
230
1.0
  2
_USER
 70
     0
 71
     1
 91
        1
 92
        1
 93
        6
 72
     1
 10
1445.875262078031
 20
-350.5067087335339
 11
1449.875262078031
 21
-350.5067087335339
 72
     1
 10
1449.875262078031
 20
-350.5067087335339
 11
1449.875262078031
 21
-351.2066597335337
 72
     1
 10
1449.875262078031
 20
-351.2066597335337
 11
1450.875262078031
 21
-351.2066597335337
 72
     1
 10
1450.875262078031
 20
-351.2066597335337
 11
1450.875262078031
 21
-343.0067087335339
 72
     1
 10
1450.875262078031
 20
-343.0067087335339
 11
1445.875262078031
 21
-343.0067087335339
 72
     1
 10
1445.875262078031
 20
-343.0067087335339
 11
1445.875262078031
 21
-350.5067087335339
 97
        6
330
2DF
330
2D9
330
2DB
330
2DA
330
2EE
330
2DC
 75
     1
 76
     0
 52
45.0
 41
2.5
 77
     0
 78
     1
 53
45.0
 43
0.0
 44
0.0
 45
-1.767766952966369
 46
1.767766952966369
 79
     0
 98
        1
 10
0.0
 20
0.0
  0
HATCH
  5
45D
330
1F
100
AcDbEntity
  8
1
  6
Continuous
 62
     3
100
AcDbHatch
 10
0.0
 20
0.0
 30
0.0
210
0.0
220
0.0
230
1.0
  2
_USER
 70
     0
 71
     1
 91
        1
 92
        1
 93
        5
 72
     1
 10
1445.875262078031
 20
-371.206708733534
 11
1445.875262078031
 21
-373.0067087335339
 72
     1
 10
1445.875262078031
 20
-373.0067087335339
 11
1450.875262078031
 21
-373.0067087335339
 72
     1
 10
1450.875262078031
 20
-373.0067087335339
 11
1450.875262078031
 21
-369.2567087335339
 72
     1
 10
1450.875262078031
 20
-369.2567087335339
 11
1447.825262078033
 21
-369.2567087335339
 72
     1
 10
1447.825262078033
 20
-369.2567087335339
 11
1445.875262078031
 21
-371.206708733534
 97
        5
330
2E6
330
2E7
330
2DD
330
2DE
330
2E4
 75
     1
 76
     0
 52
45.0
 41
2.0
 77
     0
 78
     1
 53
45.0
 43
0.0
 44
0.0
 45
-1.414213562373095
 46
1.414213562373095
 79
     0
 98
        1
 10
0.0
 20
0.0
  0
HATCH
  5
45E
330
1F
100
AcDbEntity
  8
1
  6
Continuous
 62
     3
100
AcDbHatch
 10
0.0
 20
0.0
 30
0.0
210
0.0
220
0.0
230
1.0
  2
_USER
 70
     0
 71
     0
 91
        1
 92
        1
 93
        7
 72
     1
 10
1460.875262078031
 20
-351.0067087335339
 11
1452.375262078031
 21
-351.0067087335339
 72
     2
 10
1452.375262078031
 20
-352.5067087335339
 40
1.5
 50
90.0
 51
180.0
 73
     1
 72
     1
 10
1450.875262078031
 20
-352.5067087335339
 11
1450.875262078031
 21
-363.5067087335339
 72
     1
 10
1450.875262078031
 20
-363.5067087335339
 11
1452.541928744698
 21
-363.5067087335339
 72
     1
 10
1452.541928744698
 20
-363.5067087335339
 11
1452.541928744698
 21
-352.6733754002007
 72
     1
 10
1452.541928744698
 20
-352.6733754002007
 11
1460.875262078031
 21
-352.6733754002007
 72
     1
 10
1460.875262078031
 20
-352.6733754002007
 11
1460.875262078031
 21
-351.0067087335339
 97
        0
 75
     1
 76
     0
 52
315.0
 41
2.8
 77
     0
 78
     1
 53
315.0
 43
0.0
 44
0.0
 45
1.979898987322333
 46
1.979898987322332
 79
     0
 98
        1
 10
0.0
 20
0.0
  0
HATCH
  5
45F
330
1F
100
AcDbEntity
  8
1
  6
Continuous
 62
     3
100
AcDbHatch
 10
0.0
 20
0.0
 30
0.0
210
0.0
220
0.0
230
1.0
  2
_USER
 70
     0
 71
     0
 91
        1
 92
        1
 93
       19
 72
     1
 10
1452.541928744698
 20
-368.5067087335339
 11
1452.541928744698
 21
-384.3400420668673
 72
     1
 10
1452.541928744698
 20
-384.3400420668673
 11
1497.875262078031
 21
-384.3400420668673
 72
     2
 10
1497.875262078031
 20
-386.3400420668673
 40
2.0
 50
270.0
 51
360.0
 73
     0
 72
     1
 10
1499.875262078031
 20
-386.3400420668673
 11
1499.875262078031
 21
-396.411523586233
 72
     2
 10
1497.875262078031
 20
-396.411523586233
 40
1.999999999999969
 50
0.0
 51
92.66299335476468
 73
     0
 72
     1
 10
1497.78233953775
 20
-398.4093637704088
 11
1481.954604632296
 21
-397.6731921056333
 72
     2
 10
1481.954591818445
 20
-398.92599863716
 40
1.252806531592218
 50
89.99941397209608
 51
270.0173601825522
 73
     1
 72
     1
 10
1481.954971409227
 20
-400.1788051112458
 11
1504.875262078031
 21
-400.1733754002007
 72
     1
 10
1504.875262078031
 20
-400.1733754002007
 11
1504.875262078031
 21
-401.8400420668673
 72
     1
 10
1504.875262078031
 20
-401.8400420668673
 11
1481.965083106851
 21
-401.8400420668673
 72
     2
 10
1481.965083106851
 20
-398.9086953225168
 40
2.931346744350517
 50
90.0
 51
270.1035789286304
 73
     0
 72
     1
 10
1481.970382373087
 20
-395.9773533681567
 11
1497.682069284243
 21
-396.8120692758727
 72
     2
 10
1497.708595411365
 20
-396.3127734070936
 40
0.5000000000000114
 50
266.9589020494194
 51
360.0
 73
     1
 72
     1
 10
1498.208595411365
 20
-396.3127734070936
 11
1498.208595411365
 21
-386.5067087335339
 72
     2
 10
1497.708595411365
 20
-386.5067087335339
 40
0.5
 50
0.0
 51
90.0
 73
     1
 72
     1
 10
1497.708595411365
 20
-386.0067087335339
 11
1452.375262078031
 21
-386.0067087335339
 72
     2
 10
1452.375262078031
 20
-384.5067087335339
 40
1.5
 50
90.0
 51
180.0
 73
     0
 72
     1
 10
1450.875262078031
 20
-384.5067087335339
 11
1450.875262078031
 21
-368.5067087335339
 72
     1
 10
1450.875262078031
 20
-368.5067087335339
 11
1452.541928744698
 21
-368.5067087335339
 97
        0
 75
     1
 76
     0
 52
315.0
 41
2.8
 77
     0
 78
     1
 53
315.0
 43
0.0
 44
0.0
 45
1.979898987322333
 46
1.979898987322332
 79
     0
 98
        1
 10
0.0
 20
0.0
  0
ENDSEC
  0
SECTION
  2
OBJECTS
  0
DICTIONARY
  5
C
330
0
100
AcDbDictionary
281
     1
  3
ACAD_GROUP
350
D
  3
ACAD_LAYOUT
350
1A
  3
ACAD_MLINESTYLE
350
17
  3
ACAD_PLOTSETTINGS
350
19
  3
ACAD_PLOTSTYLENAME
350
E
  0
DICTIONARY
  5
D
102
{ACAD_REACTORS
330
C
102
}
330
C
100
AcDbDictionary
281
     1
  0
DICTIONARY
  5
1A
102
{ACAD_REACTORS
330
C
102
}
330
C
100
AcDbDictionary
281
     1
  3
Layout1
350
1E
  3
Layout2
350
26
  3
Model
350
22
  0
DICTIONARY
  5
17
102
{ACAD_REACTORS
330
C
102
}
330
C
100
AcDbDictionary
281
     1
  3
Standard
350
18
  0
DICTIONARY
  5
19
102
{ACAD_REACTORS
330
C
102
}
330
C
100
AcDbDictionary
281
     1
  0
ACDBDICTIONARYWDFLT
  5
E
102
{ACAD_REACTORS
330
C
102
}
330
C
100
AcDbDictionary
281
     1
  3
Normal
350
F
100
AcDbDictionaryWithDefault
340
F
  0
LAYOUT
  5
1E
102
{ACAD_REACTORS
330
1A
102
}
330
1A
100
AcDbPlotSettings
  1

  2

  4

  6

 40
0.0
 41
0.0
 42
0.0
 43
0.0
 44
0.0
 45
0.0
 46
0.0
 47
0.0
 48
0.0
 49
0.0
140
0.0
141
0.0
142
1.0
143
1.0
 70
   688
 72
     0
 73
     0
 74
     5
  7

 75
    16
147
1.0
148
0.0
149
0.0
100
AcDbLayout
  1
Layout1
 70
     1
 71
     1
 10
0.0
 20
0.0
 11
0.0
 21
0.0
 12
0.0
 22
0.0
 32
0.0
 14
0.0
 24
0.0
 34
0.0
 15
0.0
 25
0.0
 35
0.0
146
0.0
 13
0.0
 23
0.0
 33
0.0
 16
1.0
 26
0.0
 36
0.0
 17
0.0
 27
1.0
 37
0.0
 76
     0
330
1B
  0
LAYOUT
  5
26
102
{ACAD_REACTORS
330
1A
102
}
330
1A
100
AcDbPlotSettings
  1

  2

  4

  6

 40
0.0
 41
0.0
 42
0.0
 43
0.0
 44
0.0
 45
0.0
 46
0.0
 47
0.0
 48
0.0
 49
0.0
140
0.0
141
0.0
142
1.0
143
1.0
 70
   688
 72
     0
 73
     0
 74
     5
  7

 75
    16
147
1.0
148
0.0
149
0.0
100
AcDbLayout
  1
Layout2
 70
     1
 71
     2
 10
0.0
 20
0.0
 11
0.0
 21
0.0
 12
0.0
 22
0.0
 32
0.0
 14
0.0
 24
0.0
 34
0.0
 15
0.0
 25
0.0
 35
0.0
146
0.0
 13
0.0
 23
0.0
 33
0.0
 16
1.0
 26
0.0
 36
0.0
 17
0.0
 27
1.0
 37
0.0
 76
     0
330
23
  0
LAYOUT
  5
22
102
{ACAD_REACTORS
330
1A
102
}
330
1A
100
AcDbPlotSettings
  1

  2

  4

  6

 40
0.0
 41
0.0
 42
0.0
 43
0.0
 44
0.0
 45
0.0
 46
0.0
 47
0.0
 48
0.0
 49
0.0
140
0.0
141
0.0
142
1.0
143
1.0
 70
  1712
 72
     0
 73
     0
 74
     0
  7

 75
     0
147
1.0
148
0.0
149
0.0
100
AcDbLayout
  1
Model
 70
     1
 71
     0
 10
0.0
 20
0.0
 11
0.0
 21
0.0
 12
0.0
 22
0.0
 32
0.0
 14
1339.042238459965
 24
-552.5812653343061
 34
0.0
 15
1536.561825558483
 25
-265.5812653343061
 35
0.0
146
0.0
 13
0.0
 23
0.0
 33
0.0
 16
1.0
 26
0.0
 36
0.0
 17
0.0
 27
1.0
 37
0.0
 76
     0
330
1F
  0
MLINESTYLE
  5
18
102
{ACAD_REACTORS
330
17
102
}
330
17
100
AcDbMlineStyle
  2
Standard
 70
     0
  3

 62
   256
 51
90.0
 52
90.0
 71
     2
 49
0.5
 62
   256
  6
BYLAYER
 49
-0.5
 62
   256
  6
BYLAYER
  0
ACDBPLACEHOLDER
  5
F
102
{ACAD_REACTORS
330
E
102
}
330
E
  0
ENDSEC
  0
EOF
