  0
SECTION
  2
HEADER
  9
$ACADVER
  1
AC1015
  9
$ACADMAINTVER
 70
     6
  9
$DWGCODEPAGE
  3
ANSI_1252
  9
$INSBASE
 10
0.0
 20
0.0
 30
0.0
  9
$EXTMIN
 10
437.9376847302571
 20
569.3932084668369
 30
0.0
  9
$EXTMAX
 10
1021.937684730257
 20
979.393208466837
 30
0.0
  9
$LIMMIN
 10
0.0
 20
0.0
  9
$LIMMAX
 10
12.0
 20
9.0
  9
$ORTHOMODE
 70
     0
  9
$REGENMODE
 70
     1
  9
$FILLMODE
 70
     1
  9
$QTEXTMODE
 70
     0
  9
$MIRRTEXT
 70
     1
  9
$LTSCALE
 40
1.0
  9
$ATTMODE
 70
     1
  9
$TEXTSIZE
 40
0.2
  9
$TRACEWID
 40
0.05
  9
$TEXTSTYLE
  7
Standard
  9
$CLAYER
  8
0
  9
$CELTYPE
  6
ByLayer
  9
$CECOLOR
 62
   256
  9
$CELTSCALE
 40
1.0
  9
$DISPSILH
 70
     0
  9
$DIMSCALE
 40
1.0
  9
$DIMASZ
 40
0.18
  9
$DIMEXO
 40
0.0625
  9
$DIMDLI
 40
0.38
  9
$DIMRND
 40
0.0
  9
$DIMDLE
 40
0.0
  9
$DIMEXE
 40
0.18
  9
$DIMTP
 40
0.0
  9
$DIMTM
 40
0.0
  9
$DIMTXT
 40
0.18
  9
$DIMCEN
 40
0.09
  9
$DIMTSZ
 40
0.0
  9
$DIMTOL
 70
     0
  9
$DIMLIM
 70
     0
  9
$DIMTIH
 70
     1
  9
$DIMTOH
 70
     1
  9
$DIMSE1
 70
     0
  9
$DIMSE2
 70
     0
  9
$DIMTAD
 70
     0
  9
$DIMZIN
 70
     0
  9
$DIMBLK
  1

  9
$DIMASO
 70
     1
  9
$DIMSHO
 70
     1
  9
$DIMPOST
  1

  9
$DIMAPOST
  1

  9
$DIMALT
 70
     0
  9
$DIMALTD
 70
     2
  9
$DIMALTF
 40
25.4
  9
$DIMLFAC
 40
1.0
  9
$DIMTOFL
 70
     0
  9
$DIMTVP
 40
0.0
  9
$DIMTIX
 70
     0
  9
$DIMSOXD
 70
     0
  9
$DIMSAH
 70
     0
  9
$DIMBLK1
  1

  9
$DIMBLK2
  1

  9
$DIMSTYLE
  2
Standard
  9
$DIMCLRD
 70
     0
  9
$DIMCLRE
 70
     0
  9
$DIMCLRT
 70
     0
  9
$DIMTFAC
 40
1.0
  9
$DIMGAP
 40
0.09
  9
$DIMJUST
 70
     0
  9
$DIMSD1
 70
     0
  9
$DIMSD2
 70
     0
  9
$DIMTOLJ
 70
     1
  9
$DIMTZIN
 70
     0
  9
$DIMALTZ
 70
     0
  9
$DIMALTTZ
 70
     0
  9
$DIMUPT
 70
     0
  9
$DIMDEC
 70
     4
  9
$DIMTDEC
 70
     4
  9
$DIMALTU
 70
     2
  9
$DIMALTTD
 70
     2
  9
$DIMTXSTY
  7
Standard
  9
$DIMAUNIT
 70
     0
  9
$DIMADEC
 70
     0
  9
$DIMALTRND
 40
0.0
  9
$DIMAZIN
 70
     0
  9
$DIMDSEP
 70
    46
  9
$DIMATFIT
 70
     3
  9
$DIMFRAC
 70
     0
  9
$DIMLDRBLK
  1

  9
$DIMLUNIT
 70
     2
  9
$DIMLWD
 70
    -2
  9
$DIMLWE
 70
    -2
  9
$DIMTMOVE
 70
     0
  9
$LUNITS
 70
     2
  9
$LUPREC
 70
     4
  9
$SKETCHINC
 40
0.1
  9
$FILLETRAD
 40
0.5
  9
$AUNITS
 70
     0
  9
$AUPREC
 70
     0
  9
$MENU
  1
.
  9
$ELEVATION
 40
0.0
  9
$PELEVATION
 40
0.0
  9
$THICKNESS
 40
0.0
  9
$LIMCHECK
 70
     0
  9
$CHAMFERA
 40
0.5
  9
$CHAMFERB
 40
0.5
  9
$CHAMFERC
 40
1.0
  9
$CHAMFERD
 40
0.0
  9
$SKPOLY
 70
     0
  9
$TDCREATE
 40
2455232.681130359
  9
$TDUCREATE
 40
2455232.639463692
  9
$TDUPDATE
 40
2455232.681130371
  9
$TDUUPDATE
 40
2455232.639463704
  9
$TDINDWG
 40
0.0000000116
  9
$TDUSRTIMER
 40
0.0000000116
  9
$USRTIMER
 70
     1
  9
$ANGBASE
 50
0.0
  9
$ANGDIR
 70
     0
  9
$PDMODE
 70
     0
  9
$PDSIZE
 40
0.0
  9
$PLINEWID
 40
0.0
  9
$SPLFRAME
 70
     0
  9
$SPLINETYPE
 70
     6
  9
$SPLINESEGS
 70
     8
  9
$HANDSEED
  5
58E
  9
$SURFTAB1
 70
     6
  9
$SURFTAB2
 70
     6
  9
$SURFTYPE
 70
     6
  9
$SURFU
 70
     6
  9
$SURFV
 70
     6
  9
$UCSBASE
  2

  9
$UCSNAME
  2

  9
$UCSORG
 10
0.0
 20
0.0
 30
0.0
  9
$UCSXDIR
 10
1.0
 20
0.0
 30
0.0
  9
$UCSYDIR
 10
0.0
 20
1.0
 30
0.0
  9
$UCSORTHOREF
  2

  9
$UCSORTHOVIEW
 70
     0
  9
$UCSORGTOP
 10
0.0
 20
0.0
 30
0.0
  9
$UCSORGBOTTOM
 10
0.0
 20
0.0
 30
0.0
  9
$UCSORGLEFT
 10
0.0
 20
0.0
 30
0.0
  9
$UCSORGRIGHT
 10
0.0
 20
0.0
 30
0.0
  9
$UCSORGFRONT
 10
0.0
 20
0.0
 30
0.0
  9
$UCSORGBACK
 10
0.0
 20
0.0
 30
0.0
  9
$PUCSBASE
  2

  9
$PUCSNAME
  2

  9
$PUCSORG
 10
0.0
 20
0.0
 30
0.0
  9
$PUCSXDIR
 10
1.0
 20
0.0
 30
0.0
  9
$PUCSYDIR
 10
0.0
 20
1.0
 30
0.0
  9
$PUCSORTHOREF
  2

  9
$PUCSORTHOVIEW
 70
     0
  9
$PUCSORGTOP
 10
0.0
 20
0.0
 30
0.0
  9
$PUCSORGBOTTOM
 10
0.0
 20
0.0
 30
0.0
  9
$PUCSORGLEFT
 10
0.0
 20
0.0
 30
0.0
  9
$PUCSORGRIGHT
 10
0.0
 20
0.0
 30
0.0
  9
$PUCSORGFRONT
 10
0.0
 20
0.0
 30
0.0
  9
$PUCSORGBACK
 10
0.0
 20
0.0
 30
0.0
  9
$USERI1
 70
     0
  9
$USERI2
 70
     0
  9
$USERI3
 70
     0
  9
$USERI4
 70
     0
  9
$USERI5
 70
     0
  9
$USERR1
 40
15.5
  9
$USERR2
 40
0.0
  9
$USERR3
 40
0.0
  9
$USERR4
 40
0.0
  9
$USERR5
 40
0.0
  9
$WORLDVIEW
 70
     1
  9
$SHADEDGE
 70
     3
  9
$SHADEDIF
 70
    70
  9
$TILEMODE
 70
     1
  9
$MAXACTVP
 70
    64
  9
$PINSBASE
 10
0.0
 20
0.0
 30
0.0
  9
$PLIMCHECK
 70
     0
  9
$PEXTMIN
 10
1.00000000000000E+20
 20
1.00000000000000E+20
 30
1.00000000000000E+20
  9
$PEXTMAX
 10
-1.00000000000000E+20
 20
-1.00000000000000E+20
 30
-1.00000000000000E+20
  9
$PLIMMIN
 10
0.0
 20
0.0
  9
$PLIMMAX
 10
12.0
 20
9.0
  9
$UNITMODE
 70
     0
  9
$VISRETAIN
 70
     1
  9
$PLINEGEN
 70
     0
  9
$PSLTSCALE
 70
     1
  9
$TREEDEPTH
 70
  3020
  9
$CMLSTYLE
  2
Standard
  9
$CMLJUST
 70
     0
  9
$CMLSCALE
 40
1.0
  9
$PROXYGRAPHICS
 70
     1
  9
$MEASUREMENT
 70
     1
  9
$CELWEIGHT
370
    -1
  9
$ENDCAPS
280
     0
  9
$JOINSTYLE
280
     0
  9
$LWDISPLAY
290
     0
  9
$INSUNITS
 70
     1
  9
$HYPERLINKBASE
  1

  9
$STYLESHEET
  1

  9
$XEDIT
290
     1
  9
$CEPSNTYPE
380
     0
  9
$PSTYLEMODE
290
     1
  9
$FINGERPRINTGUID
  2
{46795F72-8828-49DA-A8C2-1E2C43490893}
  9
$VERSIONGUID
  2
{FAEB1C32-E019-11D5-929B-00C0DF256EC4}
  9
$EXTNAMES
290
     1
  9
$PSVPSCALE
 40
0.0
  9
$OLESTARTUP
290
     0
  0
ENDSEC
  0
SECTION
  2
CLASSES
  0
CLASS
  1
ACDBDICTIONARYWDFLT
  2
AcDbDictionaryWithDefault
  3
ObjectDBX Classes
 90
        0
280
     0
281
     0
  0
CLASS
  1
VISUALSTYLE
  2
AcDbVisualStyle
  3
ObjectDBX Classes
 90
     4095
280
     0
281
     0
  0
CLASS
  1

  2
exOdDbCircle
  3

 90
        0
280
     0
281
     1
  0
CLASS
  1

  2
exOdDbSpline
  3

 90
        0
280
     0
281
     1
  0
CLASS
  1

  2
exOdDbPolyline
  3

 90
        0
280
     0
281
     1
  0
CLASS
  1
ACDBPLACEHOLDER
  2
AcDbPlaceHolder
  3
ObjectDBX Classes
 90
        0
280
     0
281
     0
  0
CLASS
  1
LAYOUT
  2
AcDbLayout
  3
ObjectDBX Classes
 90
        0
280
     0
281
     0
  0
ENDSEC
  0
SECTION
  2
TABLES
  0
TABLE
  2
VPORT
  5
8
330
0
100
AcDbSymbolTable
 70
     1
  0
VPORT
  5
29
330
8
100
AcDbSymbolTableRecord
100
AcDbViewportTableRecord
  2
*Active
 70
     0
 10
0.0
 20
0.0
 11
1.0
 21
1.0
 12
729.937684730257
 22
774.393208466837
 13
0.0
 23
0.0
 14
0.5
 24
0.5
 15
0.5
 25
0.5
 16
0.0
 26
0.0
 36
1.0
 17
0.0
 27
0.0
 37
0.0
 40
451.0000000000002
 41
1.60267857142857
 42
50.0
 43
0.0
 44
0.0
 50
0.0
 51
0.0
 71
     0
 72
   100
 73
     1
 74
     3
 75
     0
 76
     0
 77
     0
 78
     0
281
     0
 65
     1
110
0.0
120
0.0
130
0.0
111
1.0
121
0.0
131
0.0
112
0.0
122
1.0
132
0.0
 79
     0
146
0.0
  0
ENDTAB
  0
TABLE
  2
LTYPE
  5
5
330
0
100
AcDbSymbolTable
 70
     8
  0
LTYPE
  5
14
330
5
100
AcDbSymbolTableRecord
100
AcDbLinetypeTableRecord
  2
ByBlock
 70
     0
  3

 72
    65
 73
     0
 40
0.0
  0
LTYPE
  5
15
330
5
100
AcDbSymbolTableRecord
100
AcDbLinetypeTableRecord
  2
ByLayer
 70
     0
  3

 72
    65
 73
     0
 40
0.0
  0
LTYPE
  5
16
330
5
100
AcDbSymbolTableRecord
100
AcDbLinetypeTableRecord
  2
Continuous
 70
     0
  3
Solid line
 72
    65
 73
     0
 40
0.0
  0
LTYPE
  5
3B
330
5
100
AcDbSymbolTableRecord
100
AcDbLinetypeTableRecord
  2
DASHED
 70
     0
  3
Dashed
 72
    65
 73
     2
 40
15.0
 49
7.0
 74
     0
 49
-8.0
 74
     0
  0
LTYPE
  5
3C
330
5
100
AcDbSymbolTableRecord
100
AcDbLinetypeTableRecord
  2
DOTTED
 70
     0
  3
Dotted
 72
    65
 73
     2
 40
1.0
 49
0.0
 74
     0
 49
-1.0
 74
     0
  0
LTYPE
  5
3D
330
5
100
AcDbSymbolTableRecord
100
AcDbLinetypeTableRecord
  2
DOT_CENTER
 70
     0
  3
Dot_Center
 72
    65
 73
     4
 40
14.0
 49
12.0
 74
     0
 49
-1.0
 74
     0
 49
0.0
 74
     0
 49
-1.0
 74
     0
  0
LTYPE
  5
3E
330
5
100
AcDbSymbolTableRecord
100
AcDbLinetypeTableRecord
  2
LONG_DASHED
 70
     0
  3
Long_Dashed
 72
    65
 73
     2
 40
15.0
 49
10.0
 74
     0
 49
-5.0
 74
     0
  0
LTYPE
  5
3F
330
5
100
AcDbSymbolTableRecord
100
AcDbLinetypeTableRecord
  2
DASH_CENTER
 70
     0
  3
Dash_Center
 72
    65
 73
     4
 40
14.0
 49
11.0
 74
     0
 49
-1.0
 74
     0
 49
1.0
 74
     0
 49
-1.0
 74
     0
  0
LTYPE
  5
40
330
5
100
AcDbSymbolTableRecord
100
AcDbLinetypeTableRecord
  2
PHANTOM
 70
     0
  3
Phantom
 72
    65
 73
     6
 40
13.0
 49
10.0
 74
     0
 49
-1.0
 74
     0
 49
0.0
 74
     0
 49
-1.0
 74
     0
 49
0.0
 74
     0
 49
-1.0
 74
     0
  0
LTYPE
  5
41
330
5
100
AcDbSymbolTableRecord
100
AcDbLinetypeTableRecord
  2
CENTER_DASH_DASH
 70
     0
  3
Center_Dash_Dash
 72
    65
 73
     6
 40
14.0
 49
9.0
 74
     0
 49
-1.0
 74
     0
 49
1.0
 74
     0
 49
-1.0
 74
     0
 49
1.0
 74
     0
 49
-1.0
 74
     0
  0
ENDTAB
  0
TABLE
  2
LAYER
  5
2
330
0
100
AcDbSymbolTable
 70
     2
  0
LAYER
  5
10
330
2
100
AcDbSymbolTableRecord
100
AcDbLayerTableRecord
  2
0
 70
     0
 62
     7
  6
Continuous
370
    -3
390
F
  0
LAYER
  5
42
330
2
100
AcDbSymbolTableRecord
100
AcDbLayerTableRecord
  2
1
 70
     0
 62
     7
  6
Continuous
370
    -3
390
F
  0
ENDTAB
  0
TABLE
  2
STYLE
  5
3
330
0
100
AcDbSymbolTable
 70
    11
  0
STYLE
  5
11
330
3
100
AcDbSymbolTableRecord
100
AcDbTextStyleTableRecord
  2
Standard
 70
     0
 40
0.0
 41
1.0
 50
0.0
 71
     0
 42
0.2
  3
txt
  4

  0
STYLE
  5
12D
330
3
100
AcDbSymbolTableRecord
100
AcDbTextStyleTableRecord
  2
CONVERTER_11
 70
     0
 40
0.0
 41
0.9
 50
0.0
 71
     0
 42
0.2
  3
txt.shx
  4

  0
STYLE
  5
137
330
3
100
AcDbSymbolTableRecord
100
AcDbTextStyleTableRecord
  2
CONVERTER_12
 70
     0
 40
0.0
 41
0.765
 50
0.0
 71
     0
 42
0.2
  3
txt.shx
  4

  0
STYLE
  5
139
330
3
100
AcDbSymbolTableRecord
100
AcDbTextStyleTableRecord
  2
CONVERTER_13
 70
     0
 40
0.0
 41
0.72
 50
0.0
 71
     0
 42
0.2
  3
txt.shx
  4

  0
STYLE
  5
144
330
3
100
AcDbSymbolTableRecord
100
AcDbTextStyleTableRecord
  2
CONVERTER_14
 70
     0
 40
0.0
 41
0.54
 50
0.0
 71
     0
 42
0.2
  3
txt.shx
  4

  0
STYLE
  5
175
330
3
100
AcDbSymbolTableRecord
100
AcDbTextStyleTableRecord
  2
CONVERTER_15
 70
     0
 40
0.0
 41
0.66696267749507
 50
0.0
 71
     0
 42
0.2
  3
txt.shx
  4

  0
STYLE
  5
186
330
3
100
AcDbSymbolTableRecord
100
AcDbTextStyleTableRecord
  2
CONVERTER_16
 70
     0
 40
0.0
 41
0.81
 50
0.0
 71
     0
 42
0.2
  3
txt.shx
  4

  0
STYLE
  5
2B0
330
3
100
AcDbSymbolTableRecord
100
AcDbTextStyleTableRecord
  2
CONVERTER_17
 70
     0
 40
0.0
 41
0.72
 50
0.0
 71
     0
 42
0.2
  3
txt.shx
  4

  0
STYLE
  5
2B4
330
3
100
AcDbSymbolTableRecord
100
AcDbTextStyleTableRecord
  2
CONVERTER_18
 70
     0
 40
0.0
 41
0.95
 50
0.0
 71
     0
 42
0.2
  3
complex.shx
  4

  0
STYLE
  5
436
330
3
100
AcDbSymbolTableRecord
100
AcDbTextStyleTableRecord
  2
CONVERTER_19
 70
     0
 40
0.0
 41
0.99
 50
0.0
 71
     0
 42
0.2
  3
txt.shx
  4

  0
STYLE
  5
49E
330
3
100
AcDbSymbolTableRecord
100
AcDbTextStyleTableRecord
  2
CONVERTER_20
 70
     0
 40
0.0
 41
1.045
 50
0.0
 71
     0
 42
0.2
  3
complex.shx
  4

  0
ENDTAB
  0
TABLE
  2
VIEW
  5
6
330
0
100
AcDbSymbolTable
 70
     0
  0
ENDTAB
  0
TABLE
  2
UCS
  5
7
330
0
100
AcDbSymbolTable
 70
     0
  0
ENDTAB
  0
TABLE
  2
APPID
  5
9
330
0
100
AcDbSymbolTable
 70
     1
  0
APPID
  5
12
330
9
100
AcDbSymbolTableRecord
100
AcDbRegAppTableRecord
  2
ACAD
 70
     0
  0
ENDTAB
  0
TABLE
  2
DIMSTYLE
  5
A
330
0
100
AcDbSymbolTable
 70
    14
100
AcDbDimStyleTable
  0
DIMSTYLE
105
27
330
A
100
AcDbSymbolTableRecord
100
AcDbDimStyleTableRecord
  2
Standard
 70
     0
340
11
  0
DIMSTYLE
105
2CA
102
{ACAD_REACTORS
330
2CB
102
}
330
A
100
AcDbSymbolTableRecord
100
AcDbDimStyleTableRecord
  2
ME10_DIM_10
 70
     0
 41
4.0
 42
0.0
 44
2.0
 73
     0
 74
     0
 77
     1
 78
     8
140
4.0
147
2.0
172
     1
173
     1
176
     3
177
     3
178
     1
271
     2
340
12D
  0
DIMSTYLE
105
442
102
{ACAD_REACTORS
330
443
102
}
330
A
100
AcDbSymbolTableRecord
100
AcDbDimStyleTableRecord
  2
ME10_DIM_11
 70
     0
 41
7.0
 42
0.0
 44
4.0
 47
0.2
 48
0.2
 71
     1
 73
     0
 74
     0
 77
     1
 78
     8
140
7.0
146
0.6
147
4.0
172
     1
173
     1
176
     3
177
     3
178
     4
271
     2
272
     1
340
12D
  0
DIMSTYLE
105
44D
102
{ACAD_REACTORS
330
44E
102
}
330
A
100
AcDbSymbolTableRecord
100
AcDbDimStyleTableRecord
  2
ME10_DIM_12
 70
     0
 41
7.0
 42
0.0
 44
4.0
 47
1.0
 48
1.0
 71
     1
 73
     0
 74
     0
 77
     1
 78
     8
140
7.0
146
0.6
147
4.0
172
     1
173
     1
176
     3
177
     3
178
     4
271
     2
272
     0
340
12D
  0
DIMSTYLE
105
458
102
{ACAD_REACTORS
330
459
102
}
330
A
100
AcDbSymbolTableRecord
100
AcDbDimStyleTableRecord
  2
ME10_DIM_13
 70
     0
 41
7.0
 42
0.0
 44
4.0
 47
0.2
 48
0.2
 71
     1
 73
     0
 74
     0
 77
     1
 78
     8
140
7.0
146
0.6
147
4.0
172
     1
173
     1
176
     3
177
     3
178
     4
271
     2
272
     1
340
12D
  0
DIMSTYLE
105
463
102
{ACAD_REACTORS
330
464
102
}
330
A
100
AcDbSymbolTableRecord
100
AcDbDimStyleTableRecord
  2
ME10_DIM_14
 70
     0
 41
7.0
 42
0.0
 44
4.0
 47
1.0
 48
1.0
 71
     1
 73
     0
 74
     0
 77
     1
 78
     8
140
7.0
146
0.6
147
4.0
172
     1
173
     1
176
     3
177
     3
178
     4
271
     2
272
     0
340
12D
  0
DIMSTYLE
105
46E
102
{ACAD_REACTORS
330
46F
102
}
330
A
100
AcDbSymbolTableRecord
100
AcDbDimStyleTableRecord
  2
ME10_DIM_15
 70
     0
 41
7.0
 42
0.0
 44
4.0
 47
0.2
 48
0.2
 71
     1
 73
     0
 74
     0
 77
     1
 78
     8
140
7.0
146
0.6
147
4.0
172
     1
173
     1
176
     3
177
     3
178
     4
271
     2
272
     1
340
12D
  0
DIMSTYLE
105
479
102
{ACAD_REACTORS
330
47A
102
}
330
A
100
AcDbSymbolTableRecord
100
AcDbDimStyleTableRecord
  2
ME10_DIM_16
 70
     0
 41
7.0
 42
0.0
 44
4.0
 47
1.0
 48
1.0
 71
     1
 73
     0
 74
     0
 77
     1
 78
     8
140
7.0
146
0.6
147
4.0
172
     1
173
     1
176
     3
177
     3
178
     4
271
     2
272
     0
340
12D
  0
DIMSTYLE
105
484
102
{ACAD_REACTORS
330
485
102
}
330
A
100
AcDbSymbolTableRecord
100
AcDbDimStyleTableRecord
  2
ME10_DIM_17
 70
     0
 41
7.0
 42
0.0
 44
4.0
 47
0.2
 48
0.2
 71
     1
 73
     0
 74
     0
 77
     1
 78
     8
140
7.0
146
0.6
147
4.0
172
     1
173
     1
176
     3
177
     3
178
     4
271
     2
272
     1
340
12D
  0
DIMSTYLE
105
48F
102
{ACAD_REACTORS
330
490
102
}
330
A
100
AcDbSymbolTableRecord
100
AcDbDimStyleTableRecord
  2
ME10_DIM_18
 70
     0
 41
7.0
 42
0.0
 44
4.0
 47
1.0
 48
1.0
 71
     1
 73
     0
 74
     0
 77
     1
 78
     8
140
7.0
146
0.6
147
4.0
172
     1
173
     1
176
     3
177
     3
178
     4
271
     2
272
     0
340
12D
  0
DIMSTYLE
105
56A
102
{ACAD_REACTORS
330
56B
102
}
330
A
100
AcDbSymbolTableRecord
100
AcDbDimStyleTableRecord
  2
ME10_DIM_19
 70
     0
 41
3.5
 42
0.0
 44
2.0
 47
1.0
 48
1.0
 71
     1
 73
     0
 74
     0
 77
     1
 78
     8
140
3.5
146
0.6
147
2.0
172
     1
173
     1
176
     3
177
     3
178
     4
271
     2
272
     0
340
12D
  0
DIMSTYLE
105
575
102
{ACAD_REACTORS
330
576
102
}
330
A
100
AcDbSymbolTableRecord
100
AcDbDimStyleTableRecord
  2
ME10_DIM_20
 70
     0
 41
3.5
 42
0.0
 44
2.0
 73
     0
 74
     0
 77
     1
 78
     8
140
3.5
147
2.0
172
     1
173
     1
176
     3
177
     3
178
     4
271
     2
340
12D
  0
DIMSTYLE
105
580
102
{ACAD_REACTORS
330
581
102
}
330
A
100
AcDbSymbolTableRecord
100
AcDbDimStyleTableRecord
  2
ME10_DIM_21
 70
     0
 41
3.5
 42
0.0
 44
2.0
 47
0.1
 48
0.1
 71
     1
 73
     0
 74
     0
 77
     1
 78
     8
140
3.5
146
0.6
147
2.0
172
     1
173
     1
176
     3
177
     3
178
     4
271
     2
272
     1
340
12D
  0
DIMSTYLE
105
58B
102
{ACAD_REACTORS
330
58C
102
}
330
A
100
AcDbSymbolTableRecord
100
AcDbDimStyleTableRecord
  2
ME10_DIM_22
 70
     0
 41
3.5
 42
0.0
 44
2.0
 73
     0
 74
     0
 77
     1
 78
     8
140
3.5
147
2.0
172
     1
173
     1
176
     3
177
     3
178
     4
271
     2
340
12D
  0
ENDTAB
  0
TABLE
  2
BLOCK_RECORD
  5
1
330
0
100
AcDbSymbolTable
 70
    28
  0
BLOCK_RECORD
  5
1F
330
1
100
AcDbSymbolTableRecord
100
AcDbBlockTableRecord
  2
*Model_Space
340
22
  0
BLOCK_RECORD
  5
1B
330
1
100
AcDbSymbolTableRecord
100
AcDbBlockTableRecord
  2
*Paper_Space
340
1E
  0
BLOCK_RECORD
  5
23
330
1
100
AcDbSymbolTableRecord
100
AcDbBlockTableRecord
  2
*Paper_Space0
340
26
  0
BLOCK_RECORD
  5
43
330
1
100
AcDbSymbolTableRecord
100
AcDbBlockTableRecord
  2
1__1
340
0
102
{BLKREFS
331
47
102
}
  0
BLOCK_RECORD
  5
46
330
1
100
AcDbSymbolTableRecord
100
AcDbBlockTableRecord
  2
Schiene
340
0
102
{BLKREFS
331
4B
102
}
  0
BLOCK_RECORD
  5
4A
330
1
100
AcDbSymbolTableRecord
100
AcDbBlockTableRecord
  2
TOP__2
340
0
102
{BLKREFS
331
79
102
}
  0
BLOCK_RECORD
  5
4E
330
1
100
AcDbSymbolTableRecord
100
AcDbBlockTableRecord
  2
a2kl
340
0
102
{BLKREFS
331
52
102
}
  0
BLOCK_RECORD
  5
51
330
1
100
AcDbSymbolTableRecord
100
AcDbBlockTableRecord
  2
rahmen
340
0
102
{BLKREFS
331
70
102
}
  0
BLOCK_RECORD
  5
55
330
1
100
AcDbSymbolTableRecord
100
AcDbBlockTableRecord
  2
Tuer__3
340
0
102
{BLKREFS
331
59
102
}
  0
BLOCK_RECORD
  5
58
330
1
100
AcDbSymbolTableRecord
100
AcDbBlockTableRecord
  2
Tuer__4
340
0
102
{BLKREFS
331
60
102
}
  0
BLOCK_RECORD
  5
5C
330
1
100
AcDbSymbolTableRecord
100
AcDbBlockTableRecord
  2
1__5
340
0
102
{BLKREFS
331
61
102
}
  0
BLOCK_RECORD
  5
5F
330
1
100
AcDbSymbolTableRecord
100
AcDbBlockTableRecord
  2
TOP__6
340
0
102
{BLKREFS
331
71
102
}
  0
BLOCK_RECORD
  5
64
330
1
100
AcDbSymbolTableRecord
100
AcDbBlockTableRecord
  2
1__7
340
0
102
{BLKREFS
331
68
102
}
  0
BLOCK_RECORD
  5
67
330
1
100
AcDbSymbolTableRecord
100
AcDbBlockTableRecord
  2
TOP__8
340
0
102
{BLKREFS
331
6C
102
}
  0
BLOCK_RECORD
  5
6B
330
1
100
AcDbSymbolTableRecord
100
AcDbBlockTableRecord
  2
Blindlager
340
0
102
{BLKREFS
331
72
102
}
  0
BLOCK_RECORD
  5
6F
330
1
100
AcDbSymbolTableRecord
100
AcDbBlockTableRecord
  2
TOP__9
340
0
102
{BLKREFS
331
76
102
}
  0
BLOCK_RECORD
  5
75
330
1
100
AcDbSymbolTableRecord
100
AcDbBlockTableRecord
  2
Profil-Stahltuer
340
0
102
{BLKREFS
331
7A
102
}
  0
BLOCK_RECORD
  5
2C1
330
1
100
AcDbSymbolTableRecord
100
AcDbBlockTableRecord
  2
*D15
340
0
  0
BLOCK_RECORD
  5
439
330
1
100
AcDbSymbolTableRecord
100
AcDbBlockTableRecord
  2
*D16
340
0
  0
BLOCK_RECORD
  5
444
330
1
100
AcDbSymbolTableRecord
100
AcDbBlockTableRecord
  2
*D17
340
0
  0
BLOCK_RECORD
  5
44F
330
1
100
AcDbSymbolTableRecord
100
AcDbBlockTableRecord
  2
*D18
340
0
  0
BLOCK_RECORD
  5
45A
330
1
100
AcDbSymbolTableRecord
100
AcDbBlockTableRecord
  2
*D19
340
0
  0
BLOCK_RECORD
  5
465
330
1
100
AcDbSymbolTableRecord
100
AcDbBlockTableRecord
  2
*D20
340
0
  0
BLOCK_RECORD
  5
470
330
1
100
AcDbSymbolTableRecord
100
AcDbBlockTableRecord
  2
*D21
340
0
  0
BLOCK_RECORD
  5
47B
330
1
100
AcDbSymbolTableRecord
100
AcDbBlockTableRecord
  2
*D22
340
0
  0
BLOCK_RECORD
  5
486
330
1
100
AcDbSymbolTableRecord
100
AcDbBlockTableRecord
  2
*D23
340
0
  0
BLOCK_RECORD
  5
561
330
1
100
AcDbSymbolTableRecord
100
AcDbBlockTableRecord
  2
*D24
340
0
  0
BLOCK_RECORD
  5
56C
330
1
100
AcDbSymbolTableRecord
100
AcDbBlockTableRecord
  2
*D25
340
0
  0
BLOCK_RECORD
  5
577
330
1
100
AcDbSymbolTableRecord
100
AcDbBlockTableRecord
  2
*D26
340
0
  0
BLOCK_RECORD
  5
582
330
1
100
AcDbSymbolTableRecord
100
AcDbBlockTableRecord
  2
*D27
340
0
  0
ENDTAB
  0
ENDSEC
  0
SECTION
  2
BLOCKS
  0
BLOCK
  5
20
330
1F
100
AcDbEntity
  8
0
100
AcDbBlockBegin
  2
*Model_Space
 70
     0
 71
     0
 10
0.0
 20
0.0
 30
0.0
  3
*Model_Space
  1

  0
ENDBLK
  5
21
330
1F
100
AcDbEntity
  8
0
100
AcDbBlockEnd
  0
BLOCK
  5
1C
330
1B
100
AcDbEntity
 67
     1
  8
0
100
AcDbBlockBegin
  2
*Paper_Space
 70
     0
 71
     0
 10
0.0
 20
0.0
 30
0.0
  3
*Paper_Space
  1

  0
ENDBLK
  5
1D
330
1B
100
AcDbEntity
 67
     1
  8
0
100
AcDbBlockEnd
  0
BLOCK
  5
24
330
23
100
AcDbEntity
  8
0
100
AcDbBlockBegin
  2
*Paper_Space0
 70
     0
 71
     0
 10
0.0
 20
0.0
 30
0.0
  3
*Paper_Space0
  1

  0
ENDBLK
  5
25
330
23
100
AcDbEntity
  8
0
100
AcDbBlockEnd
  0
BLOCK
  5
44
330
43
100
AcDbEntity
  8
0
100
AcDbBlockBegin
  2
1__1
 70
     0
 71
     0
 10
482.560792668936
 20
520.7571772319211
 30
0.0
  3
1__1
  1

  0
POINT
  5
7B
330
43
100
AcDbEntity
  8
1
 62
     3
 60
     1
100
AcDbPoint
 10
512.720792668936
 20
521.657177231921
 30
0.0
  0
POINT
  5
7C
330
43
100
AcDbEntity
  8
1
 62
     3
 60
     1
100
AcDbPoint
 10
512.720792668936
 20
531.657177231921
 30
0.0
  0
POINT
  5
7D
330
43
100
AcDbEntity
  8
1
 62
     3
 60
     1
100
AcDbPoint
 10
511.720792668936
 20
531.657177231921
 30
0.0
  0
POINT
  5
7E
330
43
100
AcDbEntity
  8
1
 62
     3
 60
     1
100
AcDbPoint
 10
511.720792668936
 20
521.657177231921
 30
0.0
  0
POINT
  5
7F
330
43
100
AcDbEntity
  8
1
 62
     3
 60
     1
100
AcDbPoint
 10
511.120792668936
 20
521.657177231921
 30
0.0
  0
POINT
  5
80
330
43
100
AcDbEntity
  8
1
 62
     3
 60
     1
100
AcDbPoint
 10
511.120792668936
 20
531.6571772319212
 30
0.0
  0
POINT
  5
81
330
43
100
AcDbEntity
  8
1
 62
     3
 60
     1
100
AcDbPoint
 10
511.120792668936
 20
521.9071772319212
 30
0.0
  0
POINT
  5
82
330
43
100
AcDbEntity
  8
1
 62
     3
 60
     1
100
AcDbPoint
 10
511.120792668936
 20
531.4071772319212
 30
0.0
  0
ENDBLK
  5
45
330
43
100
AcDbEntity
  8
0
100
AcDbBlockEnd
  0
BLOCK
  5
48
330
46
100
AcDbEntity
  8
0
100
AcDbBlockBegin
  2
Schiene
 70
     0
 71
     0
 10
470.5707926689361
 20
516.4571772319212
 30
0.0
  3
Schiene
  1

  0
INSERT
  5
47
330
46
100
AcDbEntity
  8
1
100
AcDbBlockReference
  2
1__1
 10
482.560792668936
 20
520.7571772319211
 30
0.0
  0
ENDBLK
  5
49
330
46
100
AcDbEntity
  8
0
100
AcDbBlockEnd
  0
BLOCK
  5
4C
330
4A
100
AcDbEntity
  8
0
100
AcDbBlockBegin
  2
TOP__2
 70
     0
 71
     0
 10
578.617546445765
 20
-282.455247228799
 30
0.0
  3
TOP__2
  1

  0
INSERT
  5
4B
330
4A
100
AcDbEntity
  8
1
100
AcDbBlockReference
  2
Schiene
 10
470.5707926689361
 20
516.4571772319212
 30
0.0
  0
POINT
  5
83
330
4A
100
AcDbEntity
  8
1
 62
     3
 60
     1
100
AcDbPoint
 10
687.7533254033491
 20
275.1451423946811
 30
0.0
  0
POINT
  5
84
330
4A
100
AcDbEntity
  8
1
 62
     3
 60
     1
100
AcDbPoint
 10
659.1533254033496
 20
281.6451423946811
 30
0.0
  0
ENDBLK
  5
4D
330
4A
100
AcDbEntity
  8
0
100
AcDbBlockEnd
  0
BLOCK
  5
4F
330
4E
100
AcDbEntity
  8
0
100
AcDbBlockBegin
  2
a2kl
 70
     0
 71
     0
 10
611.937684730257
 20
569.3932084668369
 30
0.0
  3
a2kl
  1

  0
POINT
  5
85
330
4E
100
AcDbEntity
  8
1
 62
     3
 60
     1
100
AcDbPoint
 10
958.8722379386681
 20
574.6011590943557
 30
0.0
  0
POINT
  5
86
330
4E
100
AcDbEntity
  8
1
 62
     3
 60
     1
100
AcDbPoint
 10
958.8722379386681
 20
569.7207059799468
 30
0.0
  0
POINT
  5
87
330
4E
100
AcDbEntity
  8
1
 62
     3
 60
     1
100
AcDbPoint
 10
961.5169527548562
 20
572.1432084668369
 30
0.0
  0
POINT
  5
88
330
4E
100
AcDbEntity
  8
1
 62
     3
 60
     1
100
AcDbPoint
 10
956.363848628469
 20
572.1432084668369
 30
0.0
  0
POINT
  5
89
330
4E
100
AcDbEntity
  8
1
 62
     3
 60
     1
100
AcDbPoint
 10
958.8722379386681
 20
572.1432084668369
 30
0.0
  0
POINT
  5
8A
330
4E
100
AcDbEntity
  8
1
 62
     3
 60
     1
100
AcDbPoint
 10
952.6557948655663
 20
572.1432084668369
 30
0.0
  0
POINT
  5
8B
330
4E
100
AcDbEntity
  8
1
 62
     3
 60
     1
100
AcDbPoint
 10
944.2581436966393
 20
572.1432084668369
 30
0.0
  0
POINT
  5
8C
330
4E
100
AcDbEntity
  8
1
 62
     3
 60
     1
100
AcDbPoint
 10
944.9709858023455
 20
571.1432084668369
 30
0.0
  0
POINT
  5
8D
330
4E
100
AcDbEntity
  8
1
 62
     3
 60
     1
100
AcDbPoint
 10
944.9709858023455
 20
573.1432084668369
 30
0.0
  0
POINT
  5
8E
330
4E
100
AcDbEntity
  8
1
 62
     3
 60
     1
100
AcDbPoint
 10
966.937684730257
 20
574.8932084668369
 30
0.0
  0
POINT
  5
8F
330
4E
100
AcDbEntity
  8
1
 62
     3
 60
     1
100
AcDbPoint
 10
939.937684730257
 20
574.8932084668369
 30
0.0
  0
POINT
  5
90
330
4E
100
AcDbEntity
  8
1
 62
     3
 60
     1
100
AcDbPoint
 10
951.906145200707
 20
585.473343640595
 30
0.0
  0
POINT
  5
91
330
4E
100
AcDbEntity
  8
1
 62
     3
 60
     1
100
AcDbPoint
 10
956.906145200707
 20
585.473343640595
 30
0.0
  0
LINE
  5
92
330
4E
100
AcDbEntity
  8
0
  6
Continuous
 62
     1
100
AcDbLine
 10
842.9376847302572
 20
569.3932084668369
 30
0.0
 11
842.937684730257
 21
612.393208466837
 31
0.0
  0
LINE
  5
93
330
4E
100
AcDbEntity
  8
1
  6
DOT_CENTER
 62
     7
100
AcDbLine
 10
958.8722379386681
 20
569.7207059799468
 30
0.0
 11
958.8722379386681
 21
574.6011590943557
 31
0.0
  0
LINE
  5
94
330
4E
100
AcDbEntity
  8
1
  6
DOT_CENTER
 62
     7
100
AcDbLine
 10
956.363848628469
 20
572.1432084668369
 30
0.0
 11
961.5169527548562
 21
572.1432084668369
 31
0.0
  0
LINE
  5
95
330
4E
100
AcDbEntity
  8
1
  6
DOT_CENTER
 62
     7
100
AcDbLine
 10
944.2581436966393
 20
572.1432084668369
 30
0.0
 11
952.6557948655663
 21
572.1432084668369
 31
0.0
  0
LINE
  5
96
330
4E
100
AcDbEntity
  8
1
  6
Continuous
 62
     4
100
AcDbLine
 10
944.9709858023455
 20
571.1432084668369
 30
0.0
 11
944.9709858023455
 21
573.1432084668369
 31
0.0
  0
LINE
  5
97
330
4E
100
AcDbEntity
  8
1
  6
Continuous
 62
     4
100
AcDbLine
 10
951.9709858023455
 20
570.1432084668369
 30
0.0
 11
944.9709858023455
 21
571.1432084668369
 31
0.0
  0
LINE
  5
98
330
4E
100
AcDbEntity
  8
1
  6
Continuous
 62
     4
100
AcDbLine
 10
951.9709858023455
 20
574.1432084668369
 30
0.0
 11
951.9709858023455
 21
570.1432084668369
 31
0.0
  0
LINE
  5
99
330
4E
100
AcDbEntity
  8
1
  6
Continuous
 62
     4
100
AcDbLine
 10
944.9709858023455
 20
573.1432084668369
 30
0.0
 11
951.9709858023455
 21
574.1432084668369
 31
0.0
  0
LINE
  5
9A
330
4E
100
AcDbEntity
  8
0
  6
Continuous
 62
     1
100
AcDbLine
 10
966.937684730257
 20
574.8932084668369
 30
0.0
 11
966.937684730257
 21
595.393208466837
 31
0.0
  0
LINE
  5
9B
330
4E
100
AcDbEntity
  8
0
  6
Continuous
 62
     1
100
AcDbLine
 10
939.937684730257
 20
574.8932084668369
 30
0.0
 11
939.937684730257
 21
569.3932084668369
 31
0.0
  0
LINE
  5
9C
330
4E
100
AcDbEntity
  8
1
  6
Continuous
 62
     1
100
AcDbLine
 10
939.937684730257
 20
574.8932084668369
 30
0.0
 11
966.937684730257
 21
574.8932084668369
 31
0.0
  0
LINE
  5
9D
330
4E
100
AcDbEntity
  8
0
  6
Continuous
 62
     1
100
AcDbLine
 10
889.937684730257
 20
600.393208466837
 30
0.0
 11
889.937684730257
 21
575.2598751320869
 31
0.0
  0
LINE
  5
9E
330
4E
100
AcDbEntity
  8
0
  6
Continuous
 62
     1
100
AcDbLine
 10
930.937684730257
 20
600.393208466837
 30
0.0
 11
930.937684730257
 21
595.393208466837
 31
0.0
  0
LINE
  5
9F
330
4E
100
AcDbEntity
  8
0
  6
Continuous
 62
     1
100
AcDbLine
 10
889.937684730257
 20
600.393208466837
 30
0.0
 11
930.937684730257
 21
600.393208466837
 31
0.0
  0
LINE
  5
A0
330
4E
100
AcDbEntity
  8
0
  6
Continuous
 62
     2
100
AcDbLine
 10
1021.937684730257
 20
569.3932084668369
 30
0.0
 11
842.9376847302572
 21
569.3932084668369
 31
0.0
  0
LINE
  5
A1
330
4E
100
AcDbEntity
  8
0
  6
Continuous
 62
     4
100
AcDbLine
 10
842.937684730257
 20
573.6932114668369
 30
0.0
 11
889.937684730257
 21
573.6932114668369
 31
0.0
  0
LINE
  5
A2
330
4E
100
AcDbEntity
  8
0
  6
Continuous
 62
     3
100
AcDbLine
 10
889.937684730257
 20
577.9931994668369
 30
0.0
 11
842.937684730257
 21
577.9931994668369
 31
0.0
  0
LINE
  5
A3
330
4E
100
AcDbEntity
  8
0
  6
Continuous
 62
     3
100
AcDbLine
 10
842.937684730257
 20
582.2932024668369
 30
0.0
 11
889.937684730257
 21
582.2932024668369
 31
0.0
  0
LINE
  5
A4
330
4E
100
AcDbEntity
  8
0
  6
Continuous
 62
     3
100
AcDbLine
 10
889.937684730257
 20
586.5932054668369
 30
0.0
 11
842.937684730257
 21
586.5932054668369
 31
0.0
  0
LINE
  5
A5
330
4E
100
AcDbEntity
  8
0
  6
Continuous
 62
     3
100
AcDbLine
 10
842.937684730257
 20
590.893208466837
 30
0.0
 11
889.937684730257
 21
590.893208466837
 31
0.0
  0
LINE
  5
A6
330
4E
100
AcDbEntity
  8
0
  6
Continuous
 62
     3
100
AcDbLine
 10
889.937684730257
 20
595.193196466837
 30
0.0
 11
842.937684730257
 21
595.193196466837
 31
0.0
  0
LINE
  5
A7
330
4E
100
AcDbEntity
  8
0
  6
Continuous
 62
     3
100
AcDbLine
 10
842.937684730257
 20
599.4931994668369
 30
0.0
 11
889.937684730257
 21
599.4931994668369
 31
0.0
  0
LINE
  5
A8
330
4E
100
AcDbEntity
  8
0
  6
Continuous
 62
     3
100
AcDbLine
 10
889.937684730257
 20
603.7932024668369
 30
0.0
 11
842.937684730257
 21
603.7932024668369
 31
0.0
  0
LINE
  5
A9
330
4E
100
AcDbEntity
  8
0
  6
Continuous
 62
     3
100
AcDbLine
 10
842.937684730257
 20
608.0932054668369
 30
0.0
 11
889.937684730257
 21
608.0932054668369
 31
0.0
  0
LINE
  5
AA
330
4E
100
AcDbEntity
  8
0
  6
Continuous
 62
     3
100
AcDbLine
 10
855.937684730257
 20
569.3932084668369
 30
0.0
 11
855.937684730257
 21
612.393208466837
 31
0.0
  0
LINE
  5
AB
330
4E
100
AcDbEntity
  8
0
  6
Continuous
 62
     3
100
AcDbLine
 10
867.937684730257
 20
569.3932084668369
 30
0.0
 11
867.937684730257
 21
612.393208466837
 31
0.0
  0
LINE
  5
AC
330
4E
100
AcDbEntity
  8
0
  6
Continuous
 62
     3
100
AcDbLine
 10
875.937684730257
 20
569.3932084668369
 30
0.0
 11
875.937684730257
 21
612.393208466837
 31
0.0
  0
LINE
  5
AD
330
4E
100
AcDbEntity
  8
0
  6
Continuous
 62
     3
100
AcDbLine
 10
939.937684730257
 20
586.693208466837
 30
0.0
 11
889.937684730257
 21
586.693208466837
 31
0.0
  0
LINE
  5
AE
330
4E
100
AcDbEntity
  8
0
  6
Continuous
 62
     3
100
AcDbLine
 10
889.937684730257
 20
590.9932084668369
 30
0.0
 11
939.937684730257
 21
590.9932084668369
 31
0.0
  0
LINE
  5
AF
330
4E
100
AcDbEntity
  8
0
  6
Continuous
 62
     3
100
AcDbLine
 10
907.937684730257
 20
582.393208466837
 30
0.0
 11
907.937684730257
 21
595.393208466837
 31
0.0
  0
LINE
  5
B0
330
4E
100
AcDbEntity
  8
0
  6
Continuous
 62
     3
100
AcDbLine
 10
924.937684730257
 20
582.393208466837
 30
0.0
 11
924.937684730257
 21
595.3932146997633
 31
0.0
  0
LINE
  5
B1
330
4E
100
AcDbEntity
  8
0
  6
Continuous
 62
     1
100
AcDbLine
 10
966.937684730257
 20
582.3598750468369
 30
0.0
 11
939.937684730257
 21
582.3598750468369
 31
0.0
  0
LINE
  5
B2
330
4E
100
AcDbEntity
  8
0
  6
Continuous
 62
     2
100
AcDbLine
 10
1021.937684730257
 20
612.393208466837
 30
0.0
 11
1021.937684730257
 21
569.3932084668369
 31
0.0
  0
LINE
  5
B3
330
4E
100
AcDbEntity
  8
0
  6
Continuous
 62
     1
100
AcDbLine
 10
930.937684730257
 20
612.393208466837
 30
0.0
 11
1021.937684730257
 21
612.393208466837
 31
0.0
  0
LINE
  5
B4
330
4E
100
AcDbEntity
  8
0
  6
Continuous
 62
     1
100
AcDbLine
 10
889.937684730257
 20
599.393208466837
 30
0.0
 11
889.937684730257
 21
599.4937973457984
 31
0.0
  0
LINE
  5
B5
330
4E
100
AcDbEntity
  8
0
  6
Continuous
 62
     3
100
AcDbLine
 10
889.937684730257
 20
575.8932084668369
 30
0.0
 11
939.937684730257
 21
575.8932084668369
 31
0.0
  0
LINE
  5
B6
330
4E
100
AcDbEntity
  8
0
  6
Continuous
 62
     1
100
AcDbLine
 10
930.937684730257
 20
612.393208466837
 30
0.0
 11
842.937684730257
 21
612.393208466837
 31
0.0
  0
LINE
  5
B7
330
4E
100
AcDbEntity
  8
0
  6
Continuous
 62
     1
100
AcDbLine
 10
930.937684730257
 20
595.393208466837
 30
0.0
 11
939.937684730257
 21
595.393208466837
 31
0.0
  0
LINE
  5
B8
330
4E
100
AcDbEntity
  8
0
  6
Continuous
 62
     1
100
AcDbLine
 10
930.937684730257
 20
612.393208466837
 30
0.0
 11
930.937684730257
 21
608.369546728243
 31
0.0
  0
LINE
  5
B9
330
4E
100
AcDbEntity
  8
0
  6
Continuous
 62
     1
100
AcDbLine
 10
1021.937684730257
 20
582.393208466837
 30
0.0
 11
966.937684730257
 21
582.393208466837
 31
0.0
  0
LINE
  5
BA
330
4E
100
AcDbEntity
  8
0
  6
Continuous
 62
     1
100
AcDbLine
 10
889.937684730257
 20
612.393208466837
 30
0.0
 11
889.937684730257
 21
600.393208466837
 31
0.0
  0
LINE
  5
BB
330
4E
100
AcDbEntity
  8
0
  6
Continuous
 62
     1
100
AcDbLine
 10
966.937684730257
 20
569.3932084668369
 30
0.0
 11
966.937684730257
 21
574.8932084668369
 31
0.0
  0
LINE
  5
BC
330
4E
100
AcDbEntity
  8
0
  6
Continuous
 62
     1
100
AcDbLine
 10
842.9376847302572
 20
569.3932084668369
 30
0.0
 11
842.937684730257
 21
612.393208466837
 31
0.0
  0
LINE
  5
BD
330
4E
100
AcDbEntity
  8
0
  6
Continuous
 62
     1
100
AcDbLine
 10
930.937684730257
 20
608.369546728243
 30
0.0
 11
930.937684730257
 21
600.393208466837
 31
0.0
  0
LINE
  5
BE
330
4E
100
AcDbEntity
  8
0
  6
Continuous
 62
     7
100
AcDbLine
 10
904.232878836485
 20
609.1762084479569
 30
0.0
 11
904.232878836485
 21
609.4752240012637
 31
0.0
  0
LINE
  5
BF
330
4E
100
AcDbEntity
  8
0
  6
Continuous
 62
     7
100
AcDbLine
 10
905.557235622291
 20
607.9131358187234
 30
0.0
 11
905.557235622291
 21
608.3158153321974
 31
0.0
  0
LINE
  5
C0
330
4E
100
AcDbEntity
  8
0
  6
Continuous
 62
     7
100
AcDbLine
 10
905.6149411375761
 20
609.2259171456849
 30
0.0
 11
907.929549959795
 21
609.2259171456849
 31
0.0
  0
LINE
  5
C1
330
4E
100
AcDbEntity
  8
0
  6
Continuous
 62
     7
100
AcDbLine
 10
907.929549959795
 20
609.2259171456849
 30
0.0
 11
907.929549959795
 21
609.6144155765226
 31
0.0
  0
LINE
  5
C2
330
4E
100
AcDbEntity
  8
0
  6
Continuous
 62
     7
100
AcDbLine
 10
907.929549959795
 20
609.6144155765226
 30
0.0
 11
904.850326527419
 21
609.6144155765226
 31
0.0
  0
LINE
  5
C3
330
4E
100
AcDbEntity
  8
0
  6
Continuous
 62
     7
100
AcDbLine
 10
904.71264272863
 20
609.4767317777345
 30
0.0
 11
904.71264272863
 21
607.5783353920242
 31
0.0
  0
LINE
  5
C4
330
4E
100
AcDbEntity
  8
0
  6
Continuous
 62
     7
100
AcDbLine
 10
904.850326527419
 20
607.440651593236
 30
0.0
 11
907.929549959795
 21
607.440651593236
 31
0.0
  0
LINE
  5
C5
330
4E
100
AcDbEntity
  8
0
  6
Continuous
 62
     7
100
AcDbLine
 10
907.929549959795
 20
607.440651593236
 30
0.0
 11
907.929549959795
 21
607.8567925927065
 31
0.0
  0
LINE
  5
C6
330
4E
100
AcDbEntity
  8
0
  6
Continuous
 62
     7
100
AcDbLine
 10
907.929549959795
 20
607.8567925927065
 30
0.0
 11
905.6149411375761
 21
607.8567925927065
 31
0.0
  0
LINE
  5
C7
330
4E
100
AcDbEntity
  8
0
  6
Continuous
 62
     7
100
AcDbLine
 10
905.6149411375761
 20
608.3721585582144
 30
0.0
 11
907.929549959795
 21
608.3721585582144
 31
0.0
  0
LINE
  5
C8
330
4E
100
AcDbEntity
  8
0
  6
Continuous
 62
     7
100
AcDbLine
 10
907.929549959795
 20
608.3721585582144
 30
0.0
 11
907.929549959795
 21
608.7151803184646
 31
0.0
  0
LINE
  5
C9
330
4E
100
AcDbEntity
  8
0
  6
Continuous
 62
     7
100
AcDbLine
 10
907.929549959795
 20
608.7151803184646
 30
0.0
 11
905.6149411375761
 21
608.7151803184646
 31
0.0
  0
LINE
  5
CA
330
4E
100
AcDbEntity
  8
0
  6
Continuous
 62
     7
100
AcDbLine
 10
905.557235622291
 20
608.7715235444816
 30
0.0
 11
905.557235622291
 21
609.169573919668
 31
0.0
  0
LINE
  5
CB
330
4E
100
AcDbEntity
  8
0
  6
Continuous
 62
     7
100
AcDbLine
 10
898.1447287431581
 20
607.9131358187234
 30
0.0
 11
898.1447287431581
 21
608.3158153321974
 31
0.0
  0
LINE
  5
CC
330
4E
100
AcDbEntity
  8
0
  6
Continuous
 62
     7
100
AcDbLine
 10
894.205279155817
 20
607.4360092288389
 30
0.0
 11
896.1823179879831
 21
607.4360092288389
 31
0.0
  0
LINE
  5
CD
330
4E
100
AcDbEntity
  8
0
  6
Continuous
 62
     7
100
AcDbLine
 10
893.5968781237091
 20
609.144941597485
 30
0.0
 11
893.5968781237091
 21
607.9054832078765
 31
0.0
  0
LINE
  5
CE
330
4E
100
AcDbEntity
  8
0
  6
Continuous
 62
     7
100
AcDbLine
 10
894.441008103541
 20
609.0366858920978
 30
0.0
 11
894.441008103541
 21
608.0533524809587
 31
0.0
  0
LINE
  5
CF
330
4E
100
AcDbEntity
  8
0
  6
Continuous
 62
     7
100
AcDbLine
 10
894.5832152317411
 20
607.9153644816545
 30
0.0
 11
895.861558382968
 21
607.9153644816545
 31
0.0
  0
LINE
  5
D0
330
4E
100
AcDbEntity
  8
0
  6
Continuous
 62
     7
100
AcDbLine
 10
894.5832152317411
 20
609.1746738914019
 30
0.0
 11
895.8585428300261
 21
609.1746738914019
 31
0.0
  0
LINE
  5
D1
330
4E
100
AcDbEntity
  8
0
  6
Continuous
 62
     7
100
AcDbLine
 10
908.620561271177
 20
607.0759945311434
 30
0.0
 11
892.9058800384371
 21
607.0759945311434
 31
0.0
  0
LINE
  5
D2
330
4E
100
AcDbEntity
  8
0
  6
Continuous
 62
     7
100
AcDbLine
 10
892.5201537840801
 20
610.3990280640829
 30
0.0
 11
909.006287525534
 21
610.3990280640829
 31
0.0
  0
LINE
  5
D3
330
4E
100
AcDbEntity
  8
0
  6
Continuous
 62
     7
100
AcDbLine
 10
909.615521802534
 20
609.9282447002154
 30
0.0
 11
909.615521802534
 21
607.122180105146
 31
0.0
  0
LINE
  5
D4
330
4E
100
AcDbEntity
  8
0
  6
Continuous
 62
     7
100
AcDbLine
 10
909.006287525534
 20
606.6513967412784
 30
0.0
 11
892.5201537840801
 21
606.6513967412784
 31
0.0
  0
LINE
  5
D5
330
4E
100
AcDbEntity
  8
0
  6
Continuous
 62
     7
100
AcDbLine
 10
891.910919507079
 20
607.122180105146
 30
0.0
 11
891.910919507079
 21
609.9282447002154
 31
0.0
  0
LINE
  5
D6
330
4E
100
AcDbEntity
  8
0
  6
Continuous
 62
     7
100
AcDbLine
 10
908.7570811723381
 20
607.2125144323047
 30
0.0
 11
908.7570811723381
 21
609.8379103730566
 31
0.0
  0
LINE
  5
D7
330
4E
100
AcDbEntity
  8
0
  6
Continuous
 62
     7
100
AcDbLine
 10
908.620561271177
 20
609.9744302742181
 30
0.0
 11
892.9058800384371
 21
609.9744302742181
 31
0.0
  0
LINE
  5
D8
330
4E
100
AcDbEntity
  8
0
  6
Continuous
 62
     7
100
AcDbLine
 10
892.769360137275
 20
609.8379103730566
 30
0.0
 11
892.769360137275
 21
607.2125144323047
 31
0.0
  0
LINE
  5
D9
330
4E
100
AcDbEntity
  8
0
  6
Continuous
 62
     7
100
AcDbLine
 10
895.1845799736531
 20
608.3221585582145
 30
0.0
 11
895.9382169130131
 21
608.3221585582145
 31
0.0
  0
LINE
  5
DA
330
4E
100
AcDbEntity
  8
0
  6
Continuous
 62
     7
100
AcDbLine
 10
895.996848255955
 20
609.0372678409111
 30
0.0
 11
895.996848255955
 21
608.9572234268607
 31
0.0
  0
LINE
  5
DB
330
4E
100
AcDbEntity
  8
0
  6
Continuous
 62
     7
100
AcDbLine
 10
895.996848255955
 20
608.9572234268607
 30
0.0
 11
896.790719020091
 21
608.9572234268607
 31
0.0
  0
LINE
  5
DC
330
4E
100
AcDbEntity
  8
0
  6
Continuous
 62
     7
100
AcDbLine
 10
896.790719020091
 20
608.9572234268607
 30
0.0
 11
896.790719020091
 21
609.144941597485
 31
0.0
  0
LINE
  5
DD
330
4E
100
AcDbEntity
  8
0
  6
Continuous
 62
     7
100
AcDbLine
 10
896.1823179879831
 20
609.6144155765226
 30
0.0
 11
894.205279155817
 21
609.6144155765226
 31
0.0
  0
LINE
  5
DE
330
4E
100
AcDbEntity
  8
0
  6
Continuous
 62
     7
100
AcDbLine
 10
896.790719020091
 20
607.9054832078765
 30
0.0
 11
896.790719020091
 21
608.6651803184646
 31
0.0
  0
LINE
  5
DF
330
4E
100
AcDbEntity
  8
0
  6
Continuous
 62
     7
100
AcDbLine
 10
896.790719020091
 20
608.6651803184646
 30
0.0
 11
895.1845799736531
 21
608.6651803184646
 31
0.0
  0
LINE
  5
E0
330
4E
100
AcDbEntity
  8
0
  6
Continuous
 62
     7
100
AcDbLine
 10
895.1845799736531
 20
608.6651803184646
 30
0.0
 11
895.1845799736531
 21
608.3221585582145
 31
0.0
  0
LINE
  5
E1
330
4E
100
AcDbEntity
  8
0
  6
Continuous
 62
     7
100
AcDbLine
 10
898.2024342584431
 20
609.2259171456849
 30
0.0
 11
900.517043080663
 21
609.2259171456849
 31
0.0
  0
LINE
  5
E2
330
4E
100
AcDbEntity
  8
0
  6
Continuous
 62
     7
100
AcDbLine
 10
900.517043080663
 20
609.2259171456849
 30
0.0
 11
900.517043080663
 21
609.6144155765226
 31
0.0
  0
LINE
  5
E3
330
4E
100
AcDbEntity
  8
0
  6
Continuous
 62
     7
100
AcDbLine
 10
900.517043080663
 20
609.6144155765226
 30
0.0
 11
897.437819648286
 21
609.6144155765226
 31
0.0
  0
LINE
  5
E4
330
4E
100
AcDbEntity
  8
0
  6
Continuous
 62
     7
100
AcDbLine
 10
897.300135849498
 20
609.4767317777345
 30
0.0
 11
897.300135849498
 21
607.5783353920242
 31
0.0
  0
LINE
  5
E5
330
4E
100
AcDbEntity
  8
0
  6
Continuous
 62
     7
100
AcDbLine
 10
897.437819648286
 20
607.440651593236
 30
0.0
 11
900.517043080663
 21
607.440651593236
 31
0.0
  0
LINE
  5
E6
330
4E
100
AcDbEntity
  8
0
  6
Continuous
 62
     7
100
AcDbLine
 10
900.517043080663
 20
607.440651593236
 30
0.0
 11
900.517043080663
 21
607.8567925927065
 31
0.0
  0
LINE
  5
E7
330
4E
100
AcDbEntity
  8
0
  6
Continuous
 62
     7
100
AcDbLine
 10
900.517043080663
 20
607.8567925927065
 30
0.0
 11
898.2024342584431
 21
607.8567925927065
 31
0.0
  0
LINE
  5
E8
330
4E
100
AcDbEntity
  8
0
  6
Continuous
 62
     7
100
AcDbLine
 10
898.2024342584431
 20
608.3721585582144
 30
0.0
 11
900.517043080663
 21
608.3721585582144
 31
0.0
  0
LINE
  5
E9
330
4E
100
AcDbEntity
  8
0
  6
Continuous
 62
     7
100
AcDbLine
 10
900.517043080663
 20
608.3721585582144
 30
0.0
 11
900.517043080663
 21
608.7151803184646
 31
0.0
  0
LINE
  5
EA
330
4E
100
AcDbEntity
  8
0
  6
Continuous
 62
     7
100
AcDbLine
 10
900.517043080663
 20
608.7151803184646
 30
0.0
 11
898.2024342584431
 21
608.7151803184646
 31
0.0
  0
LINE
  5
EB
330
4E
100
AcDbEntity
  8
0
  6
Continuous
 62
     7
100
AcDbLine
 10
898.1447287431581
 20
608.7715235444816
 30
0.0
 11
898.1447287431581
 21
609.169573919668
 31
0.0
  0
LINE
  5
EC
330
4E
100
AcDbEntity
  8
0
  6
Continuous
 62
     7
100
AcDbLine
 10
901.0386014784921
 20
609.5567232873474
 30
0.0
 11
901.0386014784921
 21
609.2836094348601
 31
0.0
  0
LINE
  5
ED
330
4E
100
AcDbEntity
  8
0
  6
Continuous
 62
     7
100
AcDbLine
 10
901.096293767668
 20
609.2259171456849
 30
0.0
 11
902.977059749556
 21
609.2259171456849
 31
0.0
  0
LINE
  5
EE
330
4E
100
AcDbEntity
  8
0
  6
Continuous
 62
     7
100
AcDbLine
 10
902.977059749556
 20
609.2259171456849
 30
0.0
 11
901.0386014784921
 21
607.9067925927064
 31
0.0
  0
LINE
  5
EF
330
4E
100
AcDbEntity
  8
0
  6
Continuous
 62
     7
100
AcDbLine
 10
901.0386014784921
 20
607.9067925927064
 30
0.0
 11
901.0386014784921
 21
607.4975635419569
 31
0.0
  0
LINE
  5
F0
330
4E
100
AcDbEntity
  8
0
  6
Continuous
 62
     7
100
AcDbLine
 10
901.096293767668
 20
607.4400167399851
 30
0.0
 11
904.1751865473091
 21
607.4400167399851
 31
0.0
  0
LINE
  5
F1
330
4E
100
AcDbEntity
  8
0
  6
Continuous
 62
     7
100
AcDbLine
 10
904.232878836485
 20
607.4975635419569
 30
0.0
 11
904.232878836485
 21
607.7992457907345
 31
0.0
  0
LINE
  5
F2
330
4E
100
AcDbEntity
  8
0
  6
Continuous
 62
     7
100
AcDbLine
 10
904.1751865473091
 20
607.8567925927065
 30
0.0
 11
902.330898175128
 21
607.8567925927065
 31
0.0
  0
LINE
  5
F3
330
4E
100
AcDbEntity
  8
0
  6
Continuous
 62
     7
100
AcDbLine
 10
902.330898175128
 20
607.8567925927065
 30
0.0
 11
904.232878836485
 21
609.1762084479569
 31
0.0
  0
LINE
  5
F4
330
4E
100
AcDbEntity
  8
0
  6
Continuous
 62
     7
100
AcDbLine
 10
904.097747676809
 20
609.6144155765226
 30
0.0
 11
901.096293767668
 21
609.6144155765226
 31
0.0
  0
LINE
  5
F5
330
4E
100
AcDbEntity
  8
0
  6
Continuous
 62
     7
100
AcDbLine
 10
895.9976815008471
 20
608.2640406571804
 30
0.0
 11
895.9976815008471
 21
608.1523076183165
 31
0.0
  0
LINE
  5
F6
330
4E
100
AcDbEntity
  8
0
  6
Continuous
 62
     1
100
AcDbLine
 10
930.937684730257
 20
595.393208466837
 30
0.0
 11
889.937684730257
 21
595.393208466837
 31
0.0
  0
LINE
  5
F7
330
4E
100
AcDbEntity
  8
0
  6
Continuous
 62
     1
100
AcDbLine
 10
939.937684730257
 20
582.393208466837
 30
0.0
 11
924.937684730257
 21
582.393208466837
 31
0.0
  0
LINE
  5
F8
330
4E
100
AcDbEntity
  8
0
  6
Continuous
 62
     1
100
AcDbLine
 10
939.937684730257
 20
595.393208466837
 30
0.0
 11
939.937684730257
 21
574.8932084668369
 31
0.0
  0
LINE
  5
F9
330
4E
100
AcDbEntity
  8
0
  6
Continuous
 62
     1
100
AcDbLine
 10
939.937684730257
 20
595.393208466837
 30
0.0
 11
1021.937684730257
 21
595.393208466837
 31
0.0
  0
LINE
  5
FA
330
4E
100
AcDbEntity
  8
0
  6
Continuous
 62
     1
100
AcDbLine
 10
939.937684730257
 20
589.2265417568369
 30
0.0
 11
966.937684730257
 21
589.2265417568369
 31
0.0
  0
LINE
  5
FB
330
4E
100
AcDbEntity
  8
0
  6
Continuous
 62
     1
100
AcDbLine
 10
907.937684730257
 20
582.393208466837
 30
0.0
 11
889.937684730257
 21
582.393208466837
 31
0.0
  0
LINE
  5
FC
330
4E
100
AcDbEntity
  8
0
  6
Continuous
 62
     1
100
AcDbLine
 10
924.937684730257
 20
582.393208466837
 30
0.0
 11
907.937684730257
 21
582.393208466837
 31
0.0
  0
LINE
  5
FD
330
4E
100
AcDbEntity
  8
0
  6
Continuous
 62
     1
100
AcDbLine
 10
889.937684730257
 20
575.2598751320869
 30
0.0
 11
889.937684730257
 21
569.3932084668369
 31
0.0
  0
LINE
  5
FE
330
4E
100
AcDbEntity
  8
0
  6
Continuous
 62
     3
100
AcDbLine
 10
848.437684730257
 20
569.3932084668369
 30
0.0
 11
848.4376847302573
 21
612.3932084668369
 31
0.0
  0
LINE
  5
FF
330
4E
100
AcDbEntity
  8
0
  6
Continuous
 62
     1
100
AcDbLine
 10
842.9376847302572
 20
569.3932084668369
 30
0.0
 11
842.937684730257
 21
612.393208466837
 31
0.0
  0
LINE
  5
100
330
4E
100
AcDbEntity
  8
0
  6
Continuous
 62
     2
100
AcDbLine
 10
1021.937684730257
 20
979.393208466837
 30
0.0
 11
1021.937684730257
 21
569.3932084668369
 31
0.0
  0
LINE
  5
101
330
4E
100
AcDbEntity
  8
1
  6
Continuous
 62
     2
100
AcDbLine
 10
437.9376847302571
 20
569.3932084668369
 30
0.0
 11
842.9376847302572
 21
569.3932084668369
 31
0.0
  0
LINE
  5
102
330
4E
100
AcDbEntity
  8
0
  6
Continuous
 62
     2
100
AcDbLine
 10
437.9376847302571
 20
979.393208466837
 30
0.0
 11
1021.937684730257
 21
979.393208466837
 31
0.0
  0
LINE
  5
103
330
4E
100
AcDbEntity
  8
0
  6
Continuous
 62
     2
100
AcDbLine
 10
437.9376847302571
 20
569.3932084668369
 30
0.0
 11
437.9376847302571
 21
861.393208466837
 31
0.0
  0
LINE
  5
104
330
4E
100
AcDbEntity
  8
0
  6
Continuous
 62
     3
100
AcDbLine
 10
452.9376847302571
 20
590.893208466837
 30
0.0
 11
452.9376847302571
 21
861.393208466837
 31
0.0
  0
LINE
  5
105
330
4E
100
AcDbEntity
  8
1
  6
Continuous
 62
     3
100
AcDbLine
 10
452.9376847302571
 20
861.393208466837
 30
0.0
 11
437.9376847302571
 21
861.393208466837
 31
0.0
  0
LINE
  5
106
330
4E
100
AcDbEntity
  8
0
  6
Continuous
 62
     2
100
AcDbLine
 10
437.9376847302571
 20
861.393208466837
 30
0.0
 11
437.9376847302571
 21
979.393208466837
 31
0.0
  0
LINE
  5
107
330
4E
100
AcDbEntity
  8
1
  6
Continuous
 62
     1
100
AcDbLine
 10
951.906145200707
 20
585.473343640595
 30
0.0
 11
956.906145200707
 21
585.473343640595
 31
0.0
  0
ARC
  5
108
330
4E
100
AcDbEntity
  8
0
  6
Continuous
 62
     7
100
AcDbCircle
 10
904.1752592909111
 20
607.7991730471329
 30
0.0
 40
0.0576195914926727
100
AcDbArc
 50
0.07233481461919
 51
90.07233481495877
  0
ARC
  5
109
330
4E
100
AcDbEntity
  8
0
  6
Continuous
 62
     7
100
AcDbCircle
 10
904.1752592909111
 20
607.4976362855587
 30
0.0
 40
0.0576195914922183
100
AcDbArc
 50
-90.07233481495891
 51
-0.07233481473224
  0
ARC
  5
10A
330
4E
100
AcDbEntity
  8
0
  6
Continuous
 62
     7
100
AcDbCircle
 10
901.096221024066
 20
607.4976362855587
 30
0.0
 40
0.0576195914926728
100
AcDbArc
 50
-179.9276651852678
 51
-89.92766518504109
  0
ARC
  5
10B
330
4E
100
AcDbEntity
  8
0
  6
Continuous
 62
     7
100
AcDbCircle
 10
901.096293767668
 20
609.2836094348601
 30
0.0
 40
0.057692289175975
100
AcDbArc
 50
180.0
 51
-90.0
  0
ARC
  5
10C
330
4E
100
AcDbEntity
  8
0
  6
Continuous
 62
     7
100
AcDbCircle
 10
901.096293767668
 20
609.5567232873474
 30
0.0
 40
0.0576922891751792
100
AcDbArc
 50
90.0
 51
180.0
  0
ARC
  5
10D
330
4E
100
AcDbEntity
  8
0
  6
Continuous
 62
     7
100
AcDbCircle
 10
905.614134625102
 20
607.9136885643234
 30
0.0
 40
0.0569016875723287
100
AcDbArc
 50
-179.4434174191852
 51
-89.18787455642116
  0
ARC
  5
10E
330
4E
100
AcDbEntity
  8
0
  6
Continuous
 62
     7
100
AcDbCircle
 10
905.614134625102
 20
608.3152625865976
 30
0.0
 40
0.0569016875725137
100
AcDbArc
 50
89.18787455642116
 51
179.4434174192997
  0
ARC
  5
10F
330
4E
100
AcDbEntity
  8
0
  6
Continuous
 62
     7
100
AcDbCircle
 10
905.614134625102
 20
609.169021174068
 30
0.0
 40
0.0569016875725137
100
AcDbArc
 50
89.18787455642116
 51
179.4434174191852
  0
ARC
  5
110
330
4E
100
AcDbEntity
  8
0
  6
Continuous
 62
     7
100
AcDbCircle
 10
905.614134625102
 20
608.7720762900816
 30
0.0
 40
0.0569016875723287
100
AcDbArc
 50
-179.4434174191852
 51
-89.18787455642278
  0
ARC
  5
111
330
4E
100
AcDbEntity
  8
0
  6
Continuous
 62
     7
100
AcDbCircle
 10
898.2016277459691
 20
607.9136885643234
 30
0.0
 40
0.0569016875723287
100
AcDbArc
 50
-179.4434174191852
 51
-89.18787455653562
  0
ARC
  5
112
330
4E
100
AcDbEntity
  8
0
  6
Continuous
 62
     7
100
AcDbCircle
 10
898.2016277459691
 20
608.3152625865976
 30
0.0
 40
0.0569016875725121
100
AcDbArc
 50
89.18787455653562
 51
179.4434174192997
  0
ARC
  5
113
330
4E
100
AcDbEntity
  8
0
  6
Continuous
 62
     7
100
AcDbCircle
 10
898.2016277459691
 20
609.169021174068
 30
0.0
 40
0.0569016875725121
100
AcDbArc
 50
89.18787455653562
 51
179.4434174191852
  0
ARC
  5
114
330
4E
100
AcDbEntity
  8
0
  6
Continuous
 62
     7
100
AcDbCircle
 10
898.2016277459691
 20
608.7720762900816
 30
0.0
 40
0.0569016875723287
100
AcDbArc
 50
-179.4434174191852
 51
-89.18787455653725
  0
ARC
  5
115
330
4E
100
AcDbEntity
  8
0
  6
Continuous
 62
     7
100
AcDbCircle
 10
895.9382169130131
 20
608.2626783679129
 30
0.0
 40
0.0594801903015968
100
AcDbArc
 50
1.31237392904474
 51
90.0
  0
ARC
  5
116
330
4E
100
AcDbEntity
  8
0
  6
Continuous
 62
     7
100
AcDbCircle
 10
908.620561271177
 20
607.2125144323047
 30
0.0
 40
0.136519901161364
100
AcDbArc
 50
-90.0
 51
0.0
  0
ARC
  5
117
330
4E
100
AcDbEntity
  8
0
  6
Continuous
 62
     7
100
AcDbCircle
 10
908.620561271177
 20
609.8379103730566
 30
0.0
 40
0.136519901161023
100
AcDbArc
 50
0.0
 51
90.0
  0
ARC
  5
118
330
4E
100
AcDbEntity
  8
0
  6
Continuous
 62
     7
100
AcDbCircle
 10
892.9058800384371
 20
607.2125144323047
 30
0.0
 40
0.1365199011620462
100
AcDbArc
 50
180.0
 51
-90.0
  0
ARC
  5
119
330
4E
100
AcDbEntity
  8
0
  6
Continuous
 62
     7
100
AcDbCircle
 10
892.9058800384371
 20
609.8379103730566
 30
0.0
 40
0.1365199011614777
100
AcDbArc
 50
90.0
 51
180.0
  0
CIRCLE
  5
11A
330
4E
100
AcDbEntity
  8
1
  6
Continuous
 62
     4
100
AcDbCircle
 10
958.8722379386681
 20
572.1432084668369
 30
0.0
 40
2.0
  0
CIRCLE
  5
11B
330
4E
100
AcDbEntity
  8
1
  6
Continuous
 62
     4
100
AcDbCircle
 10
958.8722379386681
 20
572.1432084668369
 30
0.0
 40
1.0
  0
SPLINE
  5
11C
330
4E
100
AcDbEntity
  8
0
  6
Continuous
 62
     7
100
AcDbSpline
210
0.0
220
0.0
230
1.0
 70
     8
 71
     3
 72
    13
 73
     9
 74
     7
 42
0.0000000001
 43
0.0000000001
 44
0.00000001
 40
0.0
 40
0.0
 40
0.0
 40
0.0
 40
0.035332370270199
 40
0.0704203827952168
 40
0.1027084056750537
 40
0.1352293371689043
 40
0.1740111215768618
 40
0.2125287438774733
 40
0.2125287438774733
 40
0.2125287438774733
 40
0.2125287438774733
 10
904.232878836485
 20
609.4752240012637
 30
0.0
 10
904.2319926423381
 20
609.4870459066666
 30
0.0
 10
904.2302263829404
 20
609.5106079574855
 30
0.0
 10
904.2157702502652
 20
609.5423744408919
 30
0.0
 10
904.1950825238827
 20
609.5687458498164
 30
0.0
 10
904.1688249662262
 20
609.5912547852589
 30
0.0
 10
904.1365315369166
 20
609.6102229651622
 30
0.0
 10
904.1106461433624
 20
609.613021226985
 30
0.0
 10
904.097747676809
 20
609.6144155765226
 30
0.0
 11
904.232878836485
 21
609.4752240012637
 31
0.0
 11
904.228169757945
 21
609.5102411537495
 31
0.0
 11
904.2141638916927
 21
609.5424126369835
 31
0.0
 11
904.194384634774
 21
609.5679331663125
 31
0.0
 11
904.1698099757308
 21
609.5892333334043
 31
0.0
 11
904.1356597159171
 21
609.6076123039011
 31
0.0
 11
904.097747676809
 21
609.6144155765226
 31
0.0
  0
SPLINE
  5
11D
330
4E
100
AcDbEntity
  8
0
  6
Continuous
 62
     7
100
AcDbSpline
210
0.0
220
0.0
230
1.0
 70
     8
 71
     3
 72
    13
 73
     9
 74
     7
 42
0.0000000001
 43
0.0000000001
 44
0.00000001
 40
0.0
 40
0.0
 40
0.0
 40
0.0
 40
0.0381152522468364
 40
0.0763355512011812
 40
0.1127548768765215
 40
0.1486421571418041
 40
0.1827729054950149
 40
0.2174479487770302
 40
0.2174479487770302
 40
0.2174479487770302
 40
0.2174479487770302
 10
904.850326527419
 20
607.440651593236
 30
0.0
 10
904.8375746089783
 20
607.4416197664084
 30
0.0
 10
904.8120356274515
 20
607.4435587810661
 30
0.0
 10
904.7771602937935
 20
607.4593198185712
 30
0.0
 10
904.7476103950643
 20
607.4816784491322
 30
0.0
 10
904.7253066737574
 20
607.5100368642668
 30
0.0
 10
904.7140080484953
 20
607.5437671697589
 30
0.0
 10
904.71310022905
 20
607.566752043241
 30
0.0
 10
904.71264272863
 20
607.5783353920242
 30
0.0
 11
904.850326527419
 21
607.440651593236
 31
0.0
 11
904.8125515028088
 21
607.4457329286446
 31
0.0
 11
904.7774242124408
 21
607.4607949578426
 31
0.0
 11
904.7485285403848
 21
607.4829626690253
 31
0.0
 11
904.7268078917909
 21
607.5115303134767
 31
0.0
 11
904.7156705615699
 21
607.5437927972418
 31
0.0
 11
904.71264272863
 21
607.5783353920242
 31
0.0
  0
SPLINE
  5
11E
330
4E
100
AcDbEntity
  8
0
  6
Continuous
 62
     7
100
AcDbSpline
210
0.0
220
0.0
230
1.0
 70
     8
 71
     3
 72
    13
 73
     9
 74
     7
 42
0.0000000001
 43
0.0000000001
 44
0.00000001
 40
0.0
 40
0.0
 40
0.0
 40
0.0
 40
0.0381152522468213
 40
0.0763355512011661
 40
0.1127548768765756
 40
0.1486421571418582
 40
0.182772905495069
 40
0.217447948776971
 40
0.217447948776971
 40
0.217447948776971
 40
0.217447948776971
 10
904.850326527419
 20
609.6144155765226
 30
0.0
 10
904.8375746089782
 20
609.61344740335
 30
0.0
 10
904.8120356274512
 20
609.6115083886928
 30
0.0
 10
904.7771602937935
 20
609.5957473511872
 30
0.0
 10
904.747610395064
 20
609.5733887206266
 30
0.0
 10
904.7253066737579
 20
609.5450303054919
 30
0.0
 10
904.7140080484953
 20
609.5112999999994
 30
0.0
 10
904.7131002290498
 20
609.4883151265176
 30
0.0
 10
904.71264272863
 20
609.4767317777345
 30
0.0
 11
904.850326527419
 21
609.6144155765226
 31
0.0
 11
904.8125515028088
 21
609.6093342411141
 31
0.0
 11
904.7774242124408
 21
609.5942722119161
 31
0.0
 11
904.7485285403848
 21
609.5721045007333
 31
0.0
 11
904.7268078917909
 21
609.5435368562819
 31
0.0
 11
904.7156705615699
 21
609.5112743725167
 31
0.0
 11
904.71264272863
 21
609.4767317777345
 31
0.0
  0
SPLINE
  5
11F
330
4E
100
AcDbEntity
  8
0
  6
Continuous
 62
     7
100
AcDbSpline
210
0.0
220
0.0
230
1.0
 70
     8
 71
     3
 72
    13
 73
     9
 74
     7
 42
0.0000000001
 43
0.0000000001
 44
0.00000001
 40
0.0
 40
0.0
 40
0.0
 40
0.0
 40
0.0381152522467238
 40
0.0763355512010686
 40
0.1127548768763186
 40
0.1486421571414636
 40
0.1827729054945632
 40
0.2174479487765585
 40
0.2174479487765585
 40
0.2174479487765585
 40
0.2174479487765585
 10
897.437819648286
 20
607.440651593236
 30
0.0
 10
897.4250677298453
 20
607.4416197664085
 30
0.0
 10
897.3995287483181
 20
607.4435587810659
 30
0.0
 10
897.3646534146608
 20
607.4593198185714
 30
0.0
 10
897.3351035159312
 20
607.481678449132
 30
0.0
 10
897.3127997946249
 20
607.5100368642668
 30
0.0
 10
897.3015011693635
 20
607.5437671697591
 30
0.0
 10
897.3005933499178
 20
607.5667520432409
 30
0.0
 10
897.300135849498
 20
607.5783353920242
 30
0.0
 11
897.437819648286
 21
607.440651593236
 31
0.0
 11
897.4000446236759
 21
607.4457329286446
 31
0.0
 11
897.3649173333079
 21
607.4607949578426
 31
0.0
 11
897.336021661252
 21
607.4829626690253
 31
0.0
 11
897.3143010126583
 21
607.5115303134767
 31
0.0
 11
897.3031636824377
 21
607.5437927972418
 31
0.0
 11
897.300135849498
 21
607.5783353920242
 31
0.0
  0
SPLINE
  5
120
330
4E
100
AcDbEntity
  8
0
  6
Continuous
 62
     7
100
AcDbSpline
210
0.0
220
0.0
230
1.0
 70
     8
 71
     3
 72
    13
 73
     9
 74
     7
 42
0.0000000001
 43
0.0000000001
 44
0.00000001
 40
0.0
 40
0.0
 40
0.0
 40
0.0
 40
0.0381152522467086
 40
0.0763355512010534
 40
0.1127548768763727
 40
0.1486421571415177
 40
0.1827729054946172
 40
0.2174479487764994
 40
0.2174479487764994
 40
0.2174479487764994
 40
0.2174479487764994
 10
897.437819648286
 20
609.6144155765226
 30
0.0
 10
897.4250677298455
 20
609.6134474033502
 30
0.0
 10
897.3995287483183
 20
609.6115083886928
 30
0.0
 10
897.3646534146604
 20
609.5957473511874
 30
0.0
 10
897.3351035159312
 20
609.5733887206264
 30
0.0
 10
897.3127997946252
 20
609.5450303054919
 30
0.0
 10
897.3015011693633
 20
609.5112999999997
 30
0.0
 10
897.3005933499178
 20
609.4883151265176
 30
0.0
 10
897.300135849498
 20
609.4767317777345
 30
0.0
 11
897.437819648286
 21
609.6144155765226
 31
0.0
 11
897.4000446236759
 21
609.6093342411141
 31
0.0
 11
897.3649173333079
 21
609.5942722119161
 31
0.0
 11
897.336021661252
 21
609.5721045007333
 31
0.0
 11
897.3143010126583
 21
609.5435368562819
 31
0.0
 11
897.3031636824377
 21
609.5112743725167
 31
0.0
 11
897.300135849498
 21
609.4767317777345
 31
0.0
  0
SPLINE
  5
121
330
4E
100
AcDbEntity
  8
0
  6
Continuous
 62
     7
100
AcDbSpline
210
0.0
220
0.0
230
1.0
 70
     8
 71
     3
 72
    13
 73
     9
 74
     7
 42
0.0000000001
 43
0.0000000001
 44
0.00000001
 40
0.0
 40
0.0
 40
0.0
 40
0.0
 40
0.0303249383642202
 40
0.0604417851173497
 40
0.0959479298118134
 40
0.131559370730127
 40
0.1736623627999803
 40
0.2160932553482653
 40
0.2160932553482653
 40
0.2160932553482653
 40
0.2160932553482653
 10
895.996848255955
 20
609.0372678409111
 30
0.0
 10
895.9961750768241
 20
609.0474070296412
 30
0.0
 10
895.9948333379585
 20
609.0676158313582
 30
0.0
 10
895.983131977006
 20
609.0978065450921
 30
0.0
 10
895.9651060247811
 20
609.1265610780275
 30
0.0
 10
895.9380011324095
 20
609.1533945193798
 30
0.0
 10
895.9010406350867
 20
609.1715679631473
 30
0.0
 10
895.872745350129
 20
609.1736359081833
 30
0.0
 10
895.8585428300261
 20
609.1746738914019
 30
0.0
 11
895.996848255955
 21
609.0372678409111
 31
0.0
 11
895.9933109567841
 21
609.0673857658292
 31
0.0
 11
895.9830137455298
 21
609.0956875661029
 31
0.0
 11
895.9640374568136
 21
609.1256973441365
 31
0.0
 11
895.938441756873
 21
609.1504568851021
 31
0.0
 11
895.9005734424278
 21
609.1688594040144
 31
0.0
 11
895.8585428300261
 21
609.1746738914019
 31
0.0
  0
SPLINE
  5
122
330
4E
100
AcDbEntity
  8
0
  6
Continuous
 62
     7
100
AcDbSpline
210
0.0
220
0.0
230
1.0
 70
     8
 71
     3
 72
    14
 73
    10
 74
     8
 42
0.0000000001
 43
0.0000000001
 44
0.00000001
 40
0.0
 40
0.0
 40
0.0
 40
0.0
 40
0.0375510748548962
 40
0.0754042334901355
 40
0.1094159352403453
 40
0.1434580761255503
 40
0.1709669697093577
 40
0.2205583987495108
 40
0.3151356117045049
 40
0.3151356117045049
 40
0.3151356117045049
 40
0.3151356117045049
 10
895.861558382968
 20
607.9153644816545
 30
0.0
 10
895.8741092226713
 20
607.9161064380874
 30
0.0
 10
895.8993118686982
 20
607.9175963197041
 30
0.0
 10
895.9338804730758
 20
607.9315716866688
 30
0.0
 10
895.9613764398507
 20
607.9541972538403
 30
0.0
 10
895.9809549600974
 20
607.9799313255622
 30
0.0
 10
895.9932991295361
 20
608.0153424106112
 30
0.0
 10
895.9964592630453
 20
608.0728743083191
 30
0.0
 10
895.9971973213629
 20
608.1208407638368
 30
0.0
 10
895.9976815008471
 20
608.1523076183165
 30
0.0
 11
895.861558382968
 21
607.9153644816545
 31
0.0
 11
895.8988687560574
 21
607.9196093942205
 31
0.0
 11
895.9339713318977
 21
607.9337752259305
 31
0.0
 11
895.9604379240792
 21
607.9551367650662
 31
0.0
 11
895.9805272369636
 21
607.9826192479213
 31
0.0
 11
895.9899370609114
 21
608.0084687051589
 31
0.0
 11
895.9954045189925
 21
608.0577578189303
 31
0.0
 11
895.9976815008471
 21
608.1523076183165
 31
0.0
  0
SPLINE
  5
123
330
4E
100
AcDbEntity
  8
0
  6
Continuous
 62
     7
100
AcDbSpline
210
0.0
220
0.0
230
1.0
 70
     8
 71
     3
 72
    13
 73
     9
 74
     7
 42
0.0000000001
 43
0.0000000001
 44
0.00000001
 40
0.0
 40
0.0
 40
0.0
 40
0.0
 40
0.0328394650073995
 40
0.0655975995952442
 40
0.1022664447830811
 40
0.1389211607506179
 40
0.1782532813535171
 40
0.2177267691613524
 40
0.2177267691613524
 40
0.2177267691613524
 40
0.2177267691613524
 10
894.5832152317411
 20
607.9153644816545
 30
0.0
 10
894.5722323401046
 20
607.916224636467
 30
0.0
 10
894.5502937571287
 20
607.9179428158275
 30
0.0
 10
894.5185806880772
 20
607.9317010837403
 30
0.0
 10
894.489061186091
 20
607.9514736230274
 30
0.0
 10
894.462951713878
 20
607.9788700088915
 30
0.0
 10
894.4444808160044
 20
608.0137456073793
 30
0.0
 10
894.4421670578909
 20
608.0401344103839
 30
0.0
 10
894.441008103541
 20
608.0533524809587
 30
0.0
 11
894.5832152317411
 21
607.9153644816545
 31
0.0
 11
894.5506666998388
 21
607.9197260791802
 31
0.0
 11
894.5202854032464
 21
607.931976475053
 31
0.0
 11
894.4899101146067
 21
607.9525178004111
 31
0.0
 11
894.4648415526681
 21
607.9792598161353
 31
0.0
 11
894.4470675221479
 21
608.0143468443678
 31
0.0
 11
894.441008103541
 21
608.0533524809587
 31
0.0
  0
SPLINE
  5
124
330
4E
100
AcDbEntity
  8
0
  6
Continuous
 62
     7
100
AcDbSpline
210
0.0
220
0.0
230
1.0
 70
     8
 71
     3
 72
    13
 73
     9
 74
     7
 42
0.0000000001
 43
0.0000000001
 44
0.00000001
 40
0.0
 40
0.0
 40
0.0
 40
0.0
 40
0.1486423989486843
 40
0.2982382234603786
 40
0.4390496453781724
 40
0.5790300758309419
 40
0.7141201510143849
 40
0.8476890380265347
 40
0.8476890380265347
 40
0.8476890380265347
 40
0.8476890380265347
 10
894.205279155817
 20
607.4360092288389
 30
0.0
 10
894.1556463700337
 20
607.4388578762107
 30
0.0
 10
894.0560624426878
 20
607.4445734428155
 30
0.0
 10
893.9152578143002
 20
607.4890756814003
 30
0.0
 10
893.7871991337311
 20
607.5560003215032
 30
0.0
 10
893.6839251659961
 20
607.6507328740356
 30
0.0
 10
893.6125225979007
 20
607.7710495650715
 30
0.0
 10
893.6020732264595
 20
607.8608414654368
 30
0.0
 10
893.5968781237091
 20
607.9054832078765
 30
0.0
 11
894.205279155817
 21
607.4360092288389
 31
0.0
 11
894.0573590072694
 21
607.4506445429407
 31
0.0
 11
893.9142253925005
 21
607.494137979624
 31
0.0
 11
893.7904273206216
 21
607.561234134071
 31
0.0
 11
893.6879531129937
 21
607.6565942813065
 31
0.0
 11
893.6214839247224
 21
607.7742002991101
 31
0.0
 11
893.5968781237091
 21
607.9054832078765
 31
0.0
  0
SPLINE
  5
125
330
4E
100
AcDbEntity
  8
0
  6
Continuous
 62
     7
100
AcDbSpline
210
0.0
220
0.0
230
1.0
 70
     8
 71
     3
 72
    13
 73
     9
 74
     7
 42
0.0000000001
 43
0.0000000001
 44
0.00000001
 40
0.0
 40
0.0
 40
0.0
 40
0.0
 40
0.0328394650073995
 40
0.0655975995951592
 40
0.1022664447831235
 40
0.1389211607506603
 40
0.1782532813533566
 40
0.2177267691613042
 40
0.2177267691613042
 40
0.2177267691613042
 40
0.2177267691613042
 10
894.5832152317411
 20
609.1746738914019
 30
0.0
 10
894.5722323401047
 20
609.1738137365893
 30
0.0
 10
894.5502937571284
 20
609.1720955572289
 30
0.0
 10
894.5185806880772
 20
609.1583372893164
 30
0.0
 10
894.4890611860909
 20
609.1385647500289
 30
0.0
 10
894.4629517138782
 20
609.1111683641647
 30
0.0
 10
894.4444808160043
 20
609.0762927656774
 30
0.0
 10
894.4421670578913
 20
609.0499039626727
 30
0.0
 10
894.441008103541
 20
609.0366858920978
 30
0.0
 11
894.5832152317411
 21
609.1746738914019
 31
0.0
 11
894.5506666998388
 21
609.1703122938761
 31
0.0
 11
894.5202854032464
 21
609.1580618980036
 31
0.0
 11
894.4899101146067
 21
609.1375205726453
 31
0.0
 11
894.4648415526681
 21
609.1107785569211
 31
0.0
 11
894.4470675221479
 21
609.0756915286888
 31
0.0
 11
894.441008103541
 21
609.0366858920978
 31
0.0
  0
SPLINE
  5
126
330
4E
100
AcDbEntity
  8
0
  6
Continuous
 62
     7
100
AcDbSpline
210
0.0
220
0.0
230
1.0
 70
     8
 71
     3
 72
    13
 73
     9
 74
     7
 42
0.0000000001
 43
0.0000000001
 44
0.00000001
 40
0.0
 40
0.0
 40
0.0
 40
0.0
 40
0.1486423989487974
 40
0.2982382234602743
 40
0.439049645378268
 40
0.5790300758311208
 40
0.7141201510145079
 40
0.8476890380266369
 40
0.8476890380266369
 40
0.8476890380266369
 40
0.8476890380266369
 10
896.1823179879831
 20
607.4360092288389
 30
0.0
 10
896.2319507737666
 20
607.4388578762108
 30
0.0
 10
896.3315347011123
 20
607.4445734428155
 30
0.0
 10
896.4723393295003
 20
607.4890756814002
 30
0.0
 10
896.6003980100691
 20
607.5560003215031
 30
0.0
 10
896.703671977804
 20
607.6507328740354
 30
0.0
 10
896.7750745458994
 20
607.7710495650717
 30
0.0
 10
896.7855239173407
 20
607.8608414654368
 30
0.0
 10
896.790719020091
 20
607.9054832078765
 30
0.0
 11
896.1823179879831
 21
607.4360092288389
 31
0.0
 11
896.3302381365309
 21
607.4506445429407
 31
0.0
 11
896.4733717512995
 21
607.494137979624
 31
0.0
 11
896.5971698231787
 21
607.561234134071
 31
0.0
 11
896.6996440308067
 21
607.6565942813065
 31
0.0
 11
896.7661132190779
 21
607.7742002991101
 31
0.0
 11
896.790719020091
 21
607.9054832078765
 31
0.0
  0
SPLINE
  5
127
330
4E
100
AcDbEntity
  8
0
  6
Continuous
 62
     7
100
AcDbSpline
210
0.0
220
0.0
230
1.0
 70
     8
 71
     3
 72
    13
 73
     9
 74
     7
 42
0.0000000001
 43
0.0000000001
 44
0.00000001
 40
0.0
 40
0.0
 40
0.0
 40
0.0
 40
0.1486423989487862
 40
0.2982382234602961
 40
0.4390496453782897
 40
0.5790300758311425
 40
0.7141201510146286
 40
0.8476890380266457
 40
0.8476890380266457
 40
0.8476890380266457
 40
0.8476890380266457
 10
896.1823179879831
 20
609.6144155765226
 30
0.0
 10
896.2319507737664
 20
609.6115669291506
 30
0.0
 10
896.3315347011124
 20
609.6058513625461
 30
0.0
 10
896.4723393295003
 20
609.5613491239613
 30
0.0
 10
896.6003980100692
 20
609.4944244838583
 30
0.0
 10
896.7036719778043
 20
609.399691931326
 30
0.0
 10
896.7750745458993
 20
609.2793752402897
 30
0.0
 10
896.7855239173407
 20
609.1895833399246
 30
0.0
 10
896.790719020091
 20
609.144941597485
 30
0.0
 11
896.1823179879831
 21
609.6144155765226
 31
0.0
 11
896.3302381365309
 21
609.5997802624208
 31
0.0
 11
896.4733717512995
 21
609.5562868257374
 31
0.0
 11
896.5971698231787
 21
609.4891906712904
 31
0.0
 11
896.6996440308067
 21
609.3938305240549
 31
0.0
 11
896.7661132190779
 21
609.2762245062512
 31
0.0
 11
896.790719020091
 21
609.144941597485
 31
0.0
  0
SPLINE
  5
128
330
4E
100
AcDbEntity
  8
0
  6
Continuous
 62
     7
100
AcDbSpline
210
0.0
220
0.0
230
1.0
 70
     8
 71
     3
 72
    13
 73
     9
 74
     7
 42
0.0000000001
 43
0.0000000001
 44
0.00000001
 40
0.0
 40
0.0
 40
0.0
 40
0.0
 40
0.1486423989486731
 40
0.2982382234604005
 40
0.4390496453781942
 40
0.5790300758309638
 40
0.7141201510145058
 40
0.8476890380265439
 40
0.8476890380265439
 40
0.8476890380265439
 40
0.8476890380265439
 10
894.205279155817
 20
609.6144155765226
 30
0.0
 10
894.1556463700338
 20
609.6115669291507
 30
0.0
 10
894.0560624426878
 20
609.6058513625461
 30
0.0
 10
893.9152578142999
 20
609.5613491239613
 30
0.0
 10
893.7871991337311
 20
609.4944244838583
 30
0.0
 10
893.6839251659964
 20
609.3996919313258
 30
0.0
 10
893.6125225979008
 20
609.2793752402897
 30
0.0
 10
893.6020732264592
 20
609.1895833399244
 30
0.0
 10
893.5968781237091
 20
609.144941597485
 30
0.0
 11
894.205279155817
 21
609.6144155765226
 31
0.0
 11
894.0573590072694
 21
609.5997802624208
 31
0.0
 11
893.9142253925005
 21
609.5562868257374
 31
0.0
 11
893.7904273206216
 21
609.4891906712904
 31
0.0
 11
893.6879531129937
 21
609.3938305240549
 31
0.0
 11
893.6214839247224
 21
609.2762245062512
 31
0.0
 11
893.5968781237091
 21
609.144941597485
 31
0.0
  0
SPLINE
  5
129
330
4E
100
AcDbEntity
  8
0
  6
Continuous
 62
     7
100
AcDbSpline
210
0.0
220
0.0
230
1.0
 70
     8
 71
     3
 72
    13
 73
     9
 74
     7
 42
0.0000000001
 43
0.0000000001
 44
0.00000001
 40
0.0
 40
0.0
 40
0.0
 40
0.0
 40
0.160194710955869
 40
0.3210951627356592
 40
0.4607710778823392
 40
0.6002079329852843
 40
0.7244156662360419
 40
0.8468166043869632
 40
0.8468166043869632
 40
0.8468166043869632
 40
0.8468166043869632
 10
909.006287525534
 20
610.3990280640829
 30
0.0
 10
909.0597917651921
 20
610.39578709792
 30
0.0
 10
909.1670359584471
 20
610.3892908874569
 30
0.0
 10
909.3139338562105
 20
610.3384954690068
 30
0.0
 10
909.4408938192514
 20
610.262735506859
 30
0.0
 10
909.5357629353655
 20
610.165754776206
 30
0.0
 10
909.6011981736043
 20
610.0515479748005
 30
0.0
 10
909.6107706373248
 20
609.9691445469824
 30
0.0
 10
909.615521802534
 20
609.9282447002154
 30
0.0
 11
909.006287525534
 21
610.3990280640829
 31
0.0
 11
909.1655865440121
 21
610.3821115594151
 31
0.0
 11
909.3180930544899
 21
610.3308210179398
 31
0.0
 11
909.4372360898727
 21
610.257921783432
 31
0.0
 11
909.5344986563889
 21
610.1580086726023
 31
0.0
 11
909.5933289250673
 21
610.0486168973789
 31
0.0
 11
909.615521802534
 21
609.9282447002154
 31
0.0
  0
SPLINE
  5
12A
330
4E
100
AcDbEntity
  8
0
  6
Continuous
 62
     7
100
AcDbSpline
210
0.0
220
0.0
230
1.0
 70
     8
 71
     3
 72
    13
 73
     9
 74
     7
 42
0.0000000001
 43
0.0000000001
 44
0.00000001
 40
0.0
 40
0.0
 40
0.0
 40
0.0
 40
0.160194710955869
 40
0.3210951627356592
 40
0.4607710778823985
 40
0.6002079329853436
 40
0.7244156662361012
 40
0.8468166043869108
 40
0.8468166043869108
 40
0.8468166043869108
 40
0.8468166043869108
 10
909.006287525534
 20
606.6513967412784
 30
0.0
 10
909.0597917651922
 20
606.6546377074411
 30
0.0
 10
909.1670359584473
 20
606.6611339179044
 30
0.0
 10
909.3139338562105
 20
606.7119293363545
 30
0.0
 10
909.4408938192514
 20
606.7876892985023
 30
0.0
 10
909.5357629353653
 20
606.8846700291552
 30
0.0
 10
909.6011981736043
 20
606.9988768305609
 30
0.0
 10
909.610770637325
 20
607.0812802583789
 30
0.0
 10
909.615521802534
 20
607.122180105146
 30
0.0
 11
909.006287525534
 21
606.6513967412784
 31
0.0
 11
909.1655865440121
 21
606.6683132459463
 31
0.0
 11
909.3180930544899
 21
606.7196037874215
 31
0.0
 11
909.4372360898727
 21
606.7925030219294
 31
0.0
 11
909.5344986563889
 21
606.8924161327592
 31
0.0
 11
909.5933289250673
 21
607.0018079079825
 31
0.0
 11
909.615521802534
 21
607.122180105146
 31
0.0
  0
SPLINE
  5
12B
330
4E
100
AcDbEntity
  8
0
  6
Continuous
 62
     7
100
AcDbSpline
210
0.0
220
0.0
230
1.0
 70
     8
 71
     3
 72
    13
 73
     9
 74
     7
 42
0.0000000001
 43
0.0000000001
 44
0.00000001
 40
0.0
 40
0.0
 40
0.0
 40
0.0
 40
0.160194710955869
 40
0.3210951627356592
 40
0.4607710778824954
 40
0.6002079329855199
 40
0.7244156662366544
 40
0.8468166043874845
 40
0.8468166043874845
 40
0.8468166043874845
 40
0.8468166043874845
 10
892.5201537840801
 20
606.6513967412784
 30
0.0
 10
892.4666495444217
 20
606.654637707441
 30
0.0
 10
892.3594053511669
 20
606.6611339179042
 30
0.0
 10
892.2125074534038
 20
606.7119293363546
 30
0.0
 10
892.0855474903624
 20
606.7876892985022
 30
0.0
 10
891.9906783742488
 20
606.8846700291557
 30
0.0
 10
891.9252431360088
 20
606.9988768305607
 30
0.0
 10
891.9156706722879
 20
607.0812802583787
 30
0.0
 10
891.910919507079
 20
607.122180105146
 30
0.0
 11
892.5201537840801
 21
606.6513967412784
 31
0.0
 11
892.3608547656021
 21
606.6683132459463
 31
0.0
 11
892.2083482551243
 21
606.7196037874215
 31
0.0
 11
892.0892052197413
 21
606.7925030219294
 31
0.0
 11
891.991942653225
 21
606.8924161327592
 31
0.0
 11
891.9331123845458
 21
607.0018079079825
 31
0.0
 11
891.910919507079
 21
607.122180105146
 31
0.0
  0
SPLINE
  5
12C
330
4E
100
AcDbEntity
  8
0
  6
Continuous
 62
     7
100
AcDbSpline
210
0.0
220
0.0
230
1.0
 70
     8
 71
     3
 72
    13
 73
     9
 74
     7
 42
0.0000000001
 43
0.0000000001
 44
0.00000001
 40
0.0
 40
0.0
 40
0.0
 40
0.0
 40
0.160194710955869
 40
0.3210951627356592
 40
0.4607710778824361
 40
0.6002079329854606
 40
0.7244156662365951
 40
0.846816604387537
 40
0.846816604387537
 40
0.846816604387537
 40
0.846816604387537
 10
892.5201537840801
 20
610.3990280640829
 30
0.0
 10
892.4666495444217
 20
610.3957870979201
 30
0.0
 10
892.3594053511672
 20
610.3892908874572
 30
0.0
 10
892.2125074534033
 20
610.3384954690065
 30
0.0
 10
892.0855474903626
 20
610.2627355068594
 30
0.0
 10
891.9906783742488
 20
610.165754776206
 30
0.0
 10
891.9252431360086
 20
610.0515479748007
 30
0.0
 10
891.9156706722881
 20
609.9691445469825
 30
0.0
 10
891.910919507079
 20
609.9282447002154
 30
0.0
 11
892.5201537840801
 21
610.3990280640829
 31
0.0
 11
892.3608547656021
 21
610.3821115594151
 31
0.0
 11
892.2083482551243
 21
610.3308210179398
 31
0.0
 11
892.0892052197413
 21
610.257921783432
 31
0.0
 11
891.991942653225
 21
610.1580086726023
 31
0.0
 11
891.9331123845458
 21
610.0486168973789
 31
0.0
 11
891.910919507079
 21
609.9282447002154
 31
0.0
  0
MTEXT
  5
12E
330
4E
100
AcDbEntity
  8
0
 62
     4
100
AcDbMText
 10
845.137684730257
 20
610.2431094668369
 30
0.0
 40
2.0
 41
0.0
 71
     5
 72
     1
  1
 
  7
CONVERTER_11
 73
     1
 44
1.02040816326531
  0
MTEXT
  5
12F
330
4E
100
AcDbEntity
  8
0
 62
     4
100
AcDbMText
 10
845.137684730257
 20
605.9431214668369
 30
0.0
 40
2.0
 41
0.0
 71
     5
 72
     1
  1
 
  7
CONVERTER_11
 73
     1
 44
1.02040816326531
  0
MTEXT
  5
130
330
4E
100
AcDbEntity
  8
0
 62
     4
100
AcDbMText
 10
845.137684730257
 20
601.643133466837
 30
0.0
 40
2.0
 41
0.0
 71
     5
 72
     1
  1
 
  7
CONVERTER_11
 73
     1
 44
1.02040816326531
  0
MTEXT
  5
131
330
4E
100
AcDbEntity
  8
0
 62
     4
100
AcDbMText
 10
845.137684730257
 20
597.343145466837
 30
0.0
 40
2.0
 41
0.0
 71
     5
 72
     1
  1
 
  7
CONVERTER_11
 73
     1
 44
1.02040816326531
  0
MTEXT
  5
132
330
4E
100
AcDbEntity
  8
0
 62
     4
100
AcDbMText
 10
845.137684730257
 20
593.0431574668369
 30
0.0
 40
2.0
 41
0.0
 71
     5
 72
     1
  1
 
  7
CONVERTER_11
 73
     1
 44
1.02040816326531
  0
MTEXT
  5
133
330
4E
100
AcDbEntity
  8
0
 62
     4
100
AcDbMText
 10
845.137684730257
 20
588.743169466837
 30
0.0
 40
2.0
 41
0.0
 71
     5
 72
     1
  1
 
  7
CONVERTER_11
 73
     1
 44
1.02040816326531
  0
MTEXT
  5
134
330
4E
100
AcDbEntity
  8
0
 62
     4
100
AcDbMText
 10
845.137684730257
 20
584.4431814668369
 30
0.0
 40
2.0
 41
0.0
 71
     5
 72
     1
  1
 
  7
CONVERTER_11
 73
     1
 44
1.02040816326531
  0
MTEXT
  5
135
330
4E
100
AcDbEntity
  8
0
 62
     4
100
AcDbMText
 10
845.137684730257
 20
580.1431934668369
 30
0.0
 40
2.0
 41
0.0
 71
     5
 72
     1
  1
 
  7
CONVERTER_11
 73
     1
 44
1.02040816326531
  0
MTEXT
  5
136
330
4E
100
AcDbEntity
  8
0
 62
     4
100
AcDbMText
 10
845.137684730257
 20
575.8432054668369
 30
0.0
 40
2.0
 41
0.0
 71
     5
 72
     1
  1
 
  7
CONVERTER_11
 73
     1
 44
1.02040816326531
  0
TEXT
  5
138
330
4E
100
AcDbEntity
  8
0
 62
     4
100
AcDbText
 10
890.9652804501151
 20
596.53407351874
 30
0.0
 40
2.5
  1
vertraulich / confidential
 41
0.765
  7
CONVERTER_12
100
AcDbText
  0
MTEXT
  5
13A
330
4E
100
AcDbEntity
  8
0
 62
     7
100
AcDbMText
 10
845.5376847302571
 20
571.4978347939556
 30
0.0
 40
1.3
 41
0.0
 71
     8
 72
     1
  1
EMPB
  7
CONVERTER_13
 73
     1
 44
0.7202881152461
  0
MTEXT
  5
13B
330
4E
100
AcDbEntity
  8
0
 62
     4
100
AcDbMText
 10
957.5604001439361
 20
591.893208466837
 30
0.0
 40
3.5
 41
0.0
 71
     5
 72
     1
  1
1
  7
CONVERTER_11
 73
     1
 44
1.02040816326531
  0
MTEXT
  5
13C
330
4E
100
AcDbEntity
  8
0
 62
     4
100
AcDbMText
 10
964.3534881745811
 20
591.893208466837
 30
0.0
 40
3.5
 41
0.0
 71
     5
 72
     1
  1
-
  7
CONVERTER_11
 73
     1
 44
1.02040816326531
  0
MTEXT
  5
13D
330
4E
100
AcDbEntity
  8
0
 62
     1
100
AcDbMText
 10
996.937684730257
 20
574.7787275525648
 30
0.0
 40
5.0
 41
0.0
 71
     5
 72
     1
  1
20526-0-12
  7
CONVERTER_13
 73
     1
 44
1.02040816326531
  0
MTEXT
  5
13E
330
4E
100
AcDbEntity
  8
0
 62
     1
100
AcDbMText
 10
996.937684730257
 20
587.9033596488952
 30
0.0
 40
5.0
 41
0.0
 71
     5
 72
     1
  1
 
  7
CONVERTER_11
 73
     1
 44
1.02040816326531
  0
MTEXT
  5
13F
330
4E
100
AcDbEntity
  8
0
 62
     1
100
AcDbMText
 10
977.937684730257
 20
605.8324460106792
 30
0.0
 40
4.5
 41
0.0
 71
     5
 72
     1
  1
DREHLAGER KOPFMONTAGE BG
  7
CONVERTER_13
 73
     1
 44
1.02040816326531
  0
MTEXT
  5
140
330
4E
100
AcDbEntity
  8
0
 62
     4
100
AcDbMText
 10
977.937684730257
 20
598.9441794057855
 30
0.0
 40
3.5
 41
0.0
 71
     5
 72
     1
  1
MIT T-STOP GLEITSCHIENE
  7
CONVERTER_13
 73
     1
 44
1.02040816326531
  0
MTEXT
  5
141
330
4E
100
AcDbEntity
  8
0
 62
     3
100
AcDbMText
 10
932.064963048439
 20
584.88137759754
 30
0.0
 40
2.5
 41
0.0
 71
     5
 72
     1
  1
tbt1
  7
CONVERTER_13
 73
     1
 44
1.02040816326531
  0
MTEXT
  5
142
330
4E
100
AcDbEntity
  8
0
 62
     3
100
AcDbMText
 10
920.6806929166721
 20
579.3033441353134
 30
0.0
 40
2.5
 41
0.0
 71
     5
 72
     1
  1
 
  7
CONVERTER_11
 73
     1
 44
1.02040816326531
  0
MTEXT
  5
143
330
4E
100
AcDbEntity
  8
0
 62
     3
100
AcDbMText
 10
920.6806929166721
 20
571.8033441353134
 30
0.0
 40
2.5
 41
0.0
 71
     5
 72
     1
  1
 
  7
CONVERTER_11
 73
     1
 44
1.02040816326531
  0
MTEXT
  5
145
330
4E
100
AcDbEntity
  8
0
 62
     3
100
AcDbMText
 10
914.972914798439
 20
584.88137759754
 30
0.0
 40
2.5
 41
0.0
 71
     5
 72
     1
  1
04.02.2010
  7
CONVERTER_14
 73
     1
 44
1.02040816326531
  0
MTEXT
  5
146
330
4E
100
AcDbEntity
  8
0
 62
     3
100
AcDbMText
 10
932.064963048439
 20
589.2068236846753
 30
0.0
 40
2.5
 41
0.0
 71
     5
 72
     1
  1
tbt7
  7
CONVERTER_13
 73
     1
 44
1.02040816326531
  0
MTEXT
  5
147
330
4E
100
AcDbEntity
  8
0
 62
     3
100
AcDbMText
 10
914.972914798439
 20
589.2068236846753
 30
0.0
 40
2.5
 41
0.0
 71
     5
 72
     1
  1
04.02.2010
  7
CONVERTER_14
 73
     1
 44
1.02040816326531
  0
MTEXT
  5
148
330
4E
100
AcDbEntity
  8
0
 62
     7
100
AcDbMText
 10
852.137684730257
 20
605.9431214668369
 30
0.0
 40
2.0
 41
0.0
 71
     5
 72
     1
  1
 
  7
CONVERTER_11
 73
     1
 44
1.02040816326531
  0
MTEXT
  5
149
330
4E
100
AcDbEntity
  8
0
 62
     7
100
AcDbMText
 10
882.937684730257
 20
605.9431214668369
 30
0.0
 40
2.0
 41
0.0
 71
     5
 72
     1
  1
 
  7
CONVERTER_11
 73
     1
 44
1.02040816326531
  0
MTEXT
  5
14A
330
4E
100
AcDbEntity
  8
0
 62
     7
100
AcDbMText
 10
882.937684730257
 20
601.643133466837
 30
0.0
 40
2.0
 41
0.0
 71
     5
 72
     1
  1
 
  7
CONVERTER_11
 73
     1
 44
1.02040816326531
  0
MTEXT
  5
14B
330
4E
100
AcDbEntity
  8
0
 62
     7
100
AcDbMText
 10
882.937684730257
 20
597.343145466837
 30
0.0
 40
2.0
 41
0.0
 71
     5
 72
     1
  1
 
  7
CONVERTER_11
 73
     1
 44
1.02040816326531
  0
MTEXT
  5
14C
330
4E
100
AcDbEntity
  8
0
 62
     7
100
AcDbMText
 10
882.937684730257
 20
593.0431574668369
 30
0.0
 40
2.0
 41
0.0
 71
     5
 72
     1
  1
 
  7
CONVERTER_11
 73
     1
 44
1.02040816326531
  0
MTEXT
  5
14D
330
4E
100
AcDbEntity
  8
0
 62
     7
100
AcDbMText
 10
871.7376847302571
 20
610.2431094668369
 30
0.0
 40
2.0
 41
0.0
 71
     5
 72
     1
  1
 
  7
CONVERTER_13
 73
     1
 44
1.02040816326531
  0
MTEXT
  5
14E
330
4E
100
AcDbEntity
  8
0
 62
     7
100
AcDbMText
 10
871.7376847302571
 20
593.0431574668369
 30
0.0
 40
2.0
 41
0.0
 71
     5
 72
     1
  1
 
  7
CONVERTER_13
 73
     1
 44
1.02040816326531
  0
MTEXT
  5
14F
330
4E
100
AcDbEntity
  8
0
 62
     7
100
AcDbMText
 10
871.7376847302571
 20
584.4431814668369
 30
0.0
 40
2.0
 41
0.0
 71
     5
 72
     1
  1
 
  7
CONVERTER_13
 73
     1
 44
1.02040816326531
  0
MTEXT
  5
150
330
4E
100
AcDbEntity
  8
0
 62
     7
100
AcDbMText
 10
871.7376847302571
 20
580.1431934668369
 30
0.0
 40
2.0
 41
0.0
 71
     5
 72
     1
  1
 
  7
CONVERTER_13
 73
     1
 44
1.02040816326531
  0
MTEXT
  5
151
330
4E
100
AcDbEntity
  8
0
 62
     7
100
AcDbMText
 10
861.937684730257
 20
610.2431094668369
 30
0.0
 40
2.0
 41
0.0
 71
     5
 72
     1
  1
 
  7
CONVERTER_14
 73
     1
 44
1.02040816326531
  0
MTEXT
  5
152
330
4E
100
AcDbEntity
  8
0
 62
     7
100
AcDbMText
 10
861.937684730257
 20
601.643133466837
 30
0.0
 40
2.0
 41
0.0
 71
     5
 72
     1
  1
 
  7
CONVERTER_14
 73
     1
 44
1.02040816326531
  0
MTEXT
  5
153
330
4E
100
AcDbEntity
  8
0
 62
     7
100
AcDbMText
 10
861.937684730257
 20
597.343145466837
 30
0.0
 40
2.0
 41
0.0
 71
     5
 72
     1
  1
 
  7
CONVERTER_14
 73
     1
 44
1.02040816326531
  0
MTEXT
  5
154
330
4E
100
AcDbEntity
  8
0
 62
     7
100
AcDbMText
 10
861.937684730257
 20
588.743169466837
 30
0.0
 40
2.0
 41
0.0
 71
     5
 72
     1
  1
 
  7
CONVERTER_14
 73
     1
 44
1.02040816326531
  0
MTEXT
  5
155
330
4E
100
AcDbEntity
  8
0
 62
     7
100
AcDbMText
 10
861.937684730257
 20
580.1431934668369
 30
0.0
 40
2.0
 41
0.0
 71
     5
 72
     1
  1
 
  7
CONVERTER_14
 73
     1
 44
1.02040816326531
  0
MTEXT
  5
156
330
4E
100
AcDbEntity
  8
0
 62
     7
100
AcDbMText
 10
882.937684730257
 20
575.8432054668369
 30
0.0
 40
2.0
 41
0.0
 71
     5
 72
     1
  1
X
  7
CONVERTER_11
 73
     1
 44
1.02040816326531
  0
MTEXT
  5
157
330
4E
100
AcDbEntity
  8
0
 62
     7
100
AcDbMText
 10
861.937684730257
 20
584.4431814668369
 30
0.0
 40
2.0
 41
0.0
 71
     5
 72
     1
  1
 
  7
CONVERTER_14
 73
     1
 44
1.02040816326531
  0
MTEXT
  5
158
330
4E
100
AcDbEntity
  8
0
 62
     7
100
AcDbMText
 10
882.937684730257
 20
588.743169466837
 30
0.0
 40
2.0
 41
0.0
 71
     5
 72
     1
  1
 
  7
CONVERTER_11
 73
     1
 44
1.02040816326531
  0
MTEXT
  5
159
330
4E
100
AcDbEntity
  8
0
 62
     7
100
AcDbMText
 10
871.7376847302571
 20
575.8432054668369
 30
0.0
 40
2.0
 41
0.0
 71
     5
 72
     1
  1
tbt7
  7
CONVERTER_13
 73
     1
 44
1.02040816326531
  0
MTEXT
  5
15A
330
4E
100
AcDbEntity
  8
0
 62
     7
100
AcDbMText
 10
861.937684730257
 20
575.8432054668369
 30
0.0
 40
2.0
 41
0.0
 71
     5
 72
     1
  1
04.02.2010
  7
CONVERTER_14
 73
     1
 44
1.02040816326531
  0
MTEXT
  5
15B
330
4E
100
AcDbEntity
  8
0
 62
     7
100
AcDbMText
 10
882.937684730257
 20
580.1431934668369
 30
0.0
 40
2.0
 41
0.0
 71
     5
 72
     1
  1
 
  7
CONVERTER_11
 73
     1
 44
1.02040816326531
  0
MTEXT
  5
15C
330
4E
100
AcDbEntity
  8
0
 62
     7
100
AcDbMText
 10
882.937684730257
 20
584.4431814668369
 30
0.0
 40
2.0
 41
0.0
 71
     5
 72
     1
  1
 
  7
CONVERTER_11
 73
     1
 44
1.02040816326531
  0
MTEXT
  5
15D
330
4E
100
AcDbEntity
  8
0
 62
     7
100
AcDbMText
 10
871.7376847302571
 20
588.743169466837
 30
0.0
 40
2.0
 41
0.0
 71
     5
 72
     1
  1
 
  7
CONVERTER_13
 73
     1
 44
1.02040816326531
  0
MTEXT
  5
15E
330
4E
100
AcDbEntity
  8
0
 62
     7
100
AcDbMText
 10
861.937684730257
 20
593.0431574668369
 30
0.0
 40
2.0
 41
0.0
 71
     5
 72
     1
  1
 
  7
CONVERTER_14
 73
     1
 44
1.02040816326531
  0
MTEXT
  5
15F
330
4E
100
AcDbEntity
  8
0
 62
     7
100
AcDbMText
 10
871.7376847302571
 20
597.343145466837
 30
0.0
 40
2.0
 41
0.0
 71
     5
 72
     1
  1
 
  7
CONVERTER_13
 73
     1
 44
1.02040816326531
  0
MTEXT
  5
160
330
4E
100
AcDbEntity
  8
0
 62
     7
100
AcDbMText
 10
871.7376847302571
 20
601.643133466837
 30
0.0
 40
2.0
 41
0.0
 71
     5
 72
     1
  1
 
  7
CONVERTER_13
 73
     1
 44
1.02040816326531
  0
MTEXT
  5
161
330
4E
100
AcDbEntity
  8
0
 62
     7
100
AcDbMText
 10
871.7376847302571
 20
605.9431214668369
 30
0.0
 40
2.0
 41
0.0
 71
     5
 72
     1
  1
 
  7
CONVERTER_13
 73
     1
 44
1.02040816326531
  0
MTEXT
  5
162
330
4E
100
AcDbEntity
  8
0
 62
     7
100
AcDbMText
 10
882.937684730257
 20
610.2431094668369
 30
0.0
 40
2.0
 41
0.0
 71
     5
 72
     1
  1
 
  7
CONVERTER_11
 73
     1
 44
1.02040816326531
  0
MTEXT
  5
163
330
4E
100
AcDbEntity
  8
0
 62
     7
100
AcDbMText
 10
852.137684730257
 20
610.2431094668369
 30
0.0
 40
2.0
 41
0.0
 71
     5
 72
     1
  1
 
  7
CONVERTER_11
 73
     1
 44
1.02040816326531
  0
MTEXT
  5
164
330
4E
100
AcDbEntity
  8
0
 62
     7
100
AcDbMText
 10
861.937684730257
 20
605.9431214668369
 30
0.0
 40
2.0
 41
0.0
 71
     5
 72
     1
  1
 
  7
CONVERTER_14
 73
     1
 44
1.02040816326531
  0
MTEXT
  5
165
330
4E
100
AcDbEntity
  8
0
 62
     7
100
AcDbMText
 10
852.137684730257
 20
601.643133466837
 30
0.0
 40
2.0
 41
0.0
 71
     5
 72
     1
  1
 
  7
CONVERTER_11
 73
     1
 44
1.02040816326531
  0
MTEXT
  5
166
330
4E
100
AcDbEntity
  8
0
 62
     7
100
AcDbMText
 10
852.137684730257
 20
597.343145466837
 30
0.0
 40
2.0
 41
0.0
 71
     5
 72
     1
  1
 
  7
CONVERTER_11
 73
     1
 44
1.02040816326531
  0
MTEXT
  5
167
330
4E
100
AcDbEntity
  8
0
 62
     7
100
AcDbMText
 10
852.137684730257
 20
593.0431574668369
 30
0.0
 40
2.0
 41
0.0
 71
     5
 72
     1
  1
 
  7
CONVERTER_11
 73
     1
 44
1.02040816326531
  0
MTEXT
  5
168
330
4E
100
AcDbEntity
  8
0
 62
     7
100
AcDbMText
 10
852.137684730257
 20
588.743169466837
 30
0.0
 40
2.0
 41
0.0
 71
     5
 72
     1
  1
 
  7
CONVERTER_11
 73
     1
 44
1.02040816326531
  0
MTEXT
  5
169
330
4E
100
AcDbEntity
  8
0
 62
     7
100
AcDbMText
 10
852.137684730257
 20
584.4431814668369
 30
0.0
 40
2.0
 41
0.0
 71
     5
 72
     1
  1
 
  7
CONVERTER_11
 73
     1
 44
1.02040816326531
  0
MTEXT
  5
16A
330
4E
100
AcDbEntity
  8
0
 62
     7
100
AcDbMText
 10
852.137684730257
 20
580.1431934668369
 30
0.0
 40
2.0
 41
0.0
 71
     5
 72
     1
  1
 
  7
CONVERTER_11
 73
     1
 44
1.02040816326531
  0
MTEXT
  5
16B
330
4E
100
AcDbEntity
  8
0
 62
     7
100
AcDbMText
 10
852.137684730257
 20
575.8432054668369
 30
0.0
 40
2.0
 41
0.0
 71
     5
 72
     1
  1
00
  7
CONVERTER_11
 73
     1
 44
1.02040816326531
  0
MTEXT
  5
16C
330
4E
100
AcDbEntity
  8
0
 62
     4
100
AcDbMText
 10
961.133242146677
 20
591.893208466837
 30
0.0
 40
5.0
 41
0.0
 71
     5
 72
     1
  1
/
  7
CONVERTER_11
 73
     1
 44
1.02040816326531
  0
MTEXT
  5
16D
330
4E
100
AcDbEntity
  8
0
 62
     7
100
AcDbMText
 10
882.937684730257
 20
571.75363775889
 30
0.0
 40
1.3
 41
0.0
 71
     8
 72
     1
  1
Mitteilungs-Nr.
  7
CONVERTER_13
 73
     1
 44
0.7202881152461
  0
MTEXT
  5
16E
330
4E
100
AcDbEntity
  8
0
 62
     7
100
AcDbMText
 10
882.937684730257
 20
569.95363775889
 30
0.0
 40
1.3
 41
0.0
 71
     8
 72
     1
  1
Doc. change no.
  7
CONVERTER_13
 73
     1
 44
0.7202881152461
  0
MTEXT
  5
16F
330
4E
100
AcDbEntity
  8
0
 62
     7
100
AcDbMText
 10
871.437684730257
 20
571.75363775889
 30
0.0
 40
1.3
 41
0.0
 71
     8
 72
     1
  1
Name
  7
CONVERTER_13
 73
     1
 44
0.7202881152461
  0
MTEXT
  5
170
330
4E
100
AcDbEntity
  8
0
 62
     7
100
AcDbMText
 10
871.437684730257
 20
569.95363775889
 30
0.0
 40
1.3
 41
0.0
 71
     8
 72
     1
  1
name
  7
CONVERTER_13
 73
     1
 44
0.7202881152461
  0
MTEXT
  5
171
330
4E
100
AcDbEntity
  8
0
 62
     7
100
AcDbMText
 10
862.437684730257
 20
571.75363775889
 30
0.0
 40
1.3
 41
0.0
 71
     8
 72
     1
  1
Datum
  7
CONVERTER_13
 73
     1
 44
0.7202881152461
  0
MTEXT
  5
172
330
4E
100
AcDbEntity
  8
0
 62
     7
100
AcDbMText
 10
862.437684730257
 20
569.95363775889
 30
0.0
 40
1.3
 41
0.0
 71
     8
 72
     1
  1
date
  7
CONVERTER_13
 73
     1
 44
0.7202881152461
  0
MTEXT
  5
173
330
4E
100
AcDbEntity
  8
0
 62
     7
100
AcDbMText
 10
852.137684730257
 20
569.95363775889
 30
0.0
 40
1.3
 41
0.0
 71
     8
 72
     1
  1
doc.version
  7
CONVERTER_14
 73
     1
 44
0.7202881152461
  0
MTEXT
  5
174
330
4E
100
AcDbEntity
  8
0
 62
     7
100
AcDbMText
 10
852.137684730257
 20
571.75363775889
 30
0.0
 40
1.3
 41
0.0
 71
     8
 72
     1
  1
Dok.version
  7
CONVERTER_14
 73
     1
 44
0.7202881152461
  0
MTEXT
  5
176
330
4E
100
AcDbEntity
  8
0
 62
     3
100
AcDbMText
 10
932.437684730257
 20
592.0907644833532
 30
0.0
 40
1.8
 41
0.0
 71
     8
 72
     1
  1
Name / name
  7
CONVERTER_15
 73
     1
 44
0.90036014405762
  0
MTEXT
  5
177
330
4E
100
AcDbEntity
  8
0
 62
     3
100
AcDbMText
 10
916.437684730257
 20
592.0907644833532
 30
0.0
 40
1.8
 41
0.0
 71
     8
 72
     1
  1
Datum / date
  7
CONVERTER_15
 73
     1
 44
0.90036014405762
  0
MTEXT
  5
178
330
4E
100
AcDbEntity
  8
0
 62
     3
100
AcDbMText
 10
940.751023548304
 20
590.5475205577284
 30
0.0
 40
1.8
 41
0.0
 71
     7
 72
     1
  1
Blatt / von\Psheet / of
  7
CONVERTER_13
 73
     1
 44
0.84033613445378
  0
MTEXT
  5
179
330
4E
100
AcDbEntity
  8
0
 62
     3
100
AcDbMText
 10
890.6668651791151
 20
579.143208466837
 30
0.0
 40
1.8
 41
0.0
 71
     4
 72
     1
  1
Ersatz f\U+00fcr:\Psubst. for:
  7
CONVERTER_13
 73
     1
 44
0.84033613445378
  0
MTEXT
  5
17A
330
4E
100
AcDbEntity
  8
0
 62
     3
100
AcDbMText
 10
890.6668651791151
 20
572.6432084668369
 30
0.0
 40
1.8
 41
0.0
 71
     4
 72
     1
  1
Ersetzt durch:\Psubst. with:
  7
CONVERTER_13
 73
     1
 44
0.84033613445378
  0
TEXT
  5
17B
330
4E
100
AcDbEntity
  8
0
 62
     3
100
AcDbText
 10
931.7376417302571
 20
609.9932144668369
 30
0.0
 40
1.8
  1
Benennung / designation
 41
0.72
  7
CONVERTER_13
100
AcDbText
  0
MTEXT
  5
17C
330
4E
100
AcDbEntity
  8
0
 62
     3
100
AcDbMText
 10
940.6525851494762
 20
584.7549967157706
 30
0.0
 40
1.8
 41
0.0
 71
     7
 72
     1
  1
Ma\U+00dfstab\Pscale
  7
CONVERTER_13
 73
     1
 44
0.84033613445378
  0
TEXT
  5
17D
330
4E
100
AcDbEntity
  8
0
 62
     3
100
AcDbText
 10
941.137684730257
 20
580.1265417163369
 30
0.0
 40
1.8
  1
Sprache / language
 41
0.72
  7
CONVERTER_13
100
AcDbText
  0
TEXT
  5
17E
330
4E
100
AcDbEntity
  8
0
 62
     3
100
AcDbText
 10
967.937684730257
 20
579.793208466837
 30
0.0
 40
1.8
  1
Zeichnungs-Nr. / document-no.
 41
0.72
  7
CONVERTER_13
100
AcDbText
  0
MTEXT
  5
17F
330
4E
100
AcDbEntity
  8
0
 62
     3
100
AcDbMText
 10
967.937684730257
 20
590.293208466837
 30
0.0
 40
1.8
 41
0.0
 71
     7
 72
     1
  1
Material-Nr.\PID-no.
  7
CONVERTER_13
 73
     1
 44
0.84033613445378
  0
MTEXT
  5
180
330
4E
100
AcDbEntity
  8
0
 62
     3
100
AcDbMText
 10
911.4972985574581
 20
601.1100817108171
 30
0.0
 40
1.8
 41
0.0
 71
     7
 72
     1
  1
P.O. Box 13 63\P71226 Leonberg\PGermany
  7
CONVERTER_13
 73
     1
 44
0.78031212484994
  0
TEXT
  5
181
330
4E
100
AcDbEntity
  8
0
 62
     4
100
AcDbText
 10
911.4972985574581
 20
608.8415589395914
 30
0.0
 40
2.2
  1
GEZE GmbH
 41
0.9
  7
CONVERTER_11
100
AcDbText
  0
MTEXT
  5
182
330
4E
100
AcDbEntity
  8
0
 62
     3
100
AcDbMText
 10
890.6668651791151
 20
588.8432084668369
 30
0.0
 40
1.8
 41
0.0
 71
     4
 72
     1
  1
erstellt / drawn
  7
CONVERTER_13
 73
     1
 44
0.90036014405762
  0
MTEXT
  5
183
330
4E
100
AcDbEntity
  8
0
 62
     3
100
AcDbMText
 10
890.6668651791151
 20
584.543208466837
 30
0.0
 40
1.8
 41
0.0
 71
     4
 72
     1
  1
gepr. / checked
  7
CONVERTER_13
 73
     1
 44
0.90036014405762
  0
MTEXT
  5
184
330
4E
100
AcDbEntity
  8
0
 62
     4
100
AcDbMText
 10
953.5604001439361
 20
577.5932084668369
 30
0.0
 40
3.5
 41
0.0
 71
     5
 72
     1
  1
D
  7
CONVERTER_11
 73
     1
 44
1.02040816326531
  0
MTEXT
  5
185
330
4E
100
AcDbEntity
  8
1
 62
     7
100
AcDbMText
 10
800.044249936289
 20
572.3650065782134
 30
0.0
 40
2.0
 41
0.0
 71
     5
 72
     1
  1
EMPB = Erstmusterpr\U+00fcfbericht /First sample test report
  7
CONVERTER_11
 73
     1
 44
1.02040816326531
  0
MTEXT
  5
187
330
4E
100
AcDbEntity
  8
0
 62
     7
100
AcDbMText
 10
415.294937474281
 20
570.8640848494468
 30
0.0
 40
1.3
 41
0.0
 71
     7
 72
     1
  3
Diese Zeichnung entspricht dem Entwicklungsstand des Zeichnungsdatums bzw. der letzten \U+00c4nderungseintragung. Aus der Ben\U+00fctzung der Zeichnung k\U+00f6nnen\Pkeine Anspr\U+00fcche, gleich welcher Art, einschlie\U+00dflich Schadenersatzanspr
  3
\U+00fcche, abgeleitet und gegen GEZE geltend gemacht werden. Die Zeichnung bleibt unser\PEigentum und ist Dritten nur f\U+00fcr die Vertragsdauer zur Benutzung \U+00fcberlassen. S\U+00e4mtliche sich aus der Zeichnung ergebenden Anspr\U+00fcche steh
  3
en ausschlie\U+00dflich\PGEZE zu. Ohne vorherige Zustimmung von GEZE darf diese Zeichnung weder vervielf\U+00e4ltig noch Dritten zug\U+00e4nglich gemacht werden.\PThis drawing shows the actual state of product development at the date of the drawing 
  3
or the revision date. No claims or damages in any form can bei made\Pagainst GEZE as a result of the interpretation of this drawing. This drawing remains the property of GEZE and ist made available to third paries only for\Pthe duration of contractu
  1
ral obligations. All rights connected with this drawing remain in possession of GEZE. This drawing may not bei copied of handed\Pover to third parties without the express consent of GEZE.
  7
CONVERTER_16
 73
     1
 44
0.84033613445378
  0
ENDBLK
  5
50
330
4E
100
AcDbEntity
  8
0
100
AcDbBlockEnd
  0
BLOCK
  5
53
330
51
100
AcDbEntity
  8
0
100
AcDbBlockBegin
  2
rahmen
 70
     0
 71
     0
 10
437.9376847302571
 20
569.3932084668369
 30
0.0
  3
rahmen
  1

  0
INSERT
  5
52
330
51
100
AcDbEntity
  8
1
100
AcDbBlockReference
  2
a2kl
 10
611.937684730257
 20
569.3932084668369
 30
0.0
  0
ENDBLK
  5
54
330
51
100
AcDbEntity
  8
0
100
AcDbBlockEnd
  0
BLOCK
  5
56
330
55
100
AcDbEntity
  8
0
100
AcDbBlockBegin
  2
Tuer__3
 70
     0
 71
     0
 10
4350.79263781042
 20
2785.619240656633
 30
0.0
  3
Tuer__3
  1

  0
LINE
  5
188
102
{ACAD_REACTORS
330
20E
330
20E
102
}
330
55
100
AcDbEntity
  8
1
  6
Continuous
 62
     3
100
AcDbLine
 10
2039.649314073307
 20
1718.82302829596
 30
0.0
 11
2054.649314073307
 21
1718.82302829596
 31
0.0
  0
LINE
  5
189
102
{ACAD_REACTORS
330
20E
330
20E
102
}
330
55
100
AcDbEntity
  8
1
  6
Continuous
 62
     3
100
AcDbLine
 10
2047.149314073307
 20
1691.32302829596
 30
0.0
 11
2039.649314073307
 21
1718.82302829596
 31
0.0
  0
LINE
  5
18A
102
{ACAD_REACTORS
330
20E
330
20E
102
}
330
55
100
AcDbEntity
  8
1
  6
Continuous
 62
     3
100
AcDbLine
 10
2054.649314073307
 20
1718.82302829596
 30
0.0
 11
2047.149314073307
 21
1691.32302829596
 31
0.0
  0
LINE
  5
18B
330
55
100
AcDbEntity
  8
1
  6
Continuous
 62
     3
100
AcDbLine
 10
1991.380541342317
 20
1537.447398805075
 30
0.0
 11
1991.380541342317
 21
1534.447398805075
 31
0.0
  0
LINE
  5
18C
330
55
100
AcDbEntity
  8
1
  6
Continuous
 62
     3
100
AcDbLine
 10
1911.380541342317
 20
1537.447398805075
 30
0.0
 11
1911.380541342317
 21
1534.447398805075
 31
0.0
  0
LINE
  5
18D
330
55
100
AcDbEntity
  8
1
  6
Continuous
 62
     3
100
AcDbLine
 10
1838.53897388087
 20
1537.447398805075
 30
0.0
 11
1838.53897388087
 21
1534.447398805075
 31
0.0
  0
LINE
  5
18E
330
55
100
AcDbEntity
  8
1
  6
Continuous
 62
     3
100
AcDbLine
 10
1761.872307214204
 20
1534.447398805075
 30
0.0
 11
1771.872307214204
 21
1534.447398805075
 31
0.0
  0
LINE
  5
18F
330
55
100
AcDbEntity
  8
1
  6
Continuous
 62
     3
100
AcDbLine
 10
1771.872307214204
 20
1537.447398805075
 30
0.0
 11
1771.872307214204
 21
1534.447398805075
 31
0.0
  0
LINE
  5
190
330
55
100
AcDbEntity
  8
1
  6
Continuous
 62
     3
100
AcDbLine
 10
1898.047208008983
 20
1756.447398805075
 30
0.0
 11
1898.047208008983
 21
1706.447398805075
 31
0.0
  0
LINE
  5
191
330
55
100
AcDbEntity
  8
1
  6
Continuous
 62
     3
100
AcDbLine
 10
1738.047208008983
 20
1534.447398805075
 30
0.0
 11
1998.047208008983
 21
1534.447398805075
 31
0.0
  0
LINE
  5
192
330
55
100
AcDbEntity
  8
1
  6
Continuous
 62
     3
100
AcDbLine
 10
1951.380541342317
 20
1537.447398805075
 30
0.0
 11
1951.380541342317
 21
1534.447398805075
 31
0.0
  0
LINE
  5
193
330
55
100
AcDbEntity
  8
1
  6
Continuous
 62
     3
100
AcDbLine
 10
1871.380541342317
 20
1537.447398805075
 30
0.0
 11
1871.380541342317
 21
1534.447398805075
 31
0.0
  0
LINE
  5
194
330
55
100
AcDbEntity
  8
1
  6
Continuous
 62
     3
100
AcDbLine
 10
1805.697406419424
 20
1537.447398805075
 30
0.0
 11
1805.697406419424
 21
1534.447398805075
 31
0.0
  0
LINE
  5
195
330
55
100
AcDbEntity
  8
1
  6
Continuous
 62
     3
100
AcDbLine
 10
1738.047208008983
 20
1537.447398805075
 30
0.0
 11
1738.047208008983
 21
1534.447398805075
 31
0.0
  0
LINE
  5
196
330
55
100
AcDbEntity
  8
1
  6
Continuous
 62
     3
100
AcDbLine
 10
1728.047208008983
 20
1534.447398805075
 30
0.0
 11
1738.047208008983
 21
1534.447398805075
 31
0.0
  0
LINE
  5
197
330
55
100
AcDbEntity
  8
1
  6
Continuous
 62
     3
100
AcDbLine
 10
1838.047208008983
 20
1655.343249221958
 30
0.0
 11
1838.047208008983
 21
1586.447398805075
 31
0.0
  0
LINE
  5
198
330
55
100
AcDbEntity
  8
1
  6
Continuous
 62
     3
100
AcDbLine
 10
1818.047208008983
 20
1646.447398805075
 30
0.0
 11
1998.047208008983
 21
1646.447398805075
 31
0.0
  0
LINE
  5
199
330
55
100
AcDbEntity
  8
1
  6
Continuous
 62
     3
100
AcDbLine
 10
1758.047208008983
 20
1756.447398805075
 30
0.0
 11
1758.047208008983
 21
1626.447398805075
 31
0.0
  0
LINE
  5
19A
330
55
100
AcDbEntity
  8
1
  6
Continuous
 62
     3
100
AcDbLine
 10
1878.047208008983
 20
1666.447398805075
 30
0.0
 11
1998.047208008983
 21
1666.447398805075
 31
0.0
  0
LINE
  5
19B
330
55
100
AcDbEntity
  8
1
  6
Continuous
 62
     3
100
AcDbLine
 10
1878.047208008983
 20
1706.447398805075
 30
0.0
 11
1898.047208008983
 21
1706.447398805075
 31
0.0
  0
LINE
  5
19C
330
55
100
AcDbEntity
  8
1
  6
Continuous
 62
     3
100
AcDbLine
 10
1898.047208008983
 20
1686.447398805075
 30
0.0
 11
1898.047208008983
 21
1586.447398805075
 31
0.0
  0
LINE
  5
19D
330
55
100
AcDbEntity
  8
1
  6
Continuous
 62
     3
100
AcDbLine
 10
1858.047208008983
 20
1686.447398805075
 30
0.0
 11
1858.047208008983
 21
1586.447398805075
 31
0.0
  0
LINE
  5
19E
330
55
100
AcDbEntity
  8
1
  6
Continuous
 62
     3
100
AcDbLine
 10
1758.047208008983
 20
1626.447398805075
 30
0.0
 11
1758.047208008983
 21
1586.447398805075
 31
0.0
  0
LINE
  5
19F
330
55
100
AcDbEntity
  8
1
  6
Continuous
 62
     3
100
AcDbLine
 10
1798.047208008983
 20
1626.447398805075
 30
0.0
 11
1798.047208008983
 21
1586.447398805075
 31
0.0
  0
LINE
  5
1A0
330
55
100
AcDbEntity
  8
1
  6
Continuous
 62
     3
100
AcDbLine
 10
1778.047208008983
 20
1606.447398805075
 30
0.0
 11
1998.047208008983
 21
1606.447398805075
 31
0.0
  0
LINE
  5
1A1
330
55
100
AcDbEntity
  8
1
  6
Continuous
 62
     3
100
AcDbLine
 10
1778.047208008983
 20
1646.447398805075
 30
0.0
 11
1818.047208008983
 21
1646.447398805075
 31
0.0
  0
LINE
  5
1A2
330
55
100
AcDbEntity
  8
1
  6
Continuous
 62
     3
100
AcDbLine
 10
1878.047208008983
 20
1706.447398805075
 30
0.0
 11
1878.047208008983
 21
1586.447398805075
 31
0.0
  0
LINE
  5
1A3
330
55
100
AcDbEntity
  8
1
  6
Continuous
 62
     3
100
AcDbLine
 10
1858.047208008983
 20
1686.447398805075
 30
0.0
 11
1918.047208008983
 21
1686.447398805075
 31
0.0
  0
LINE
  5
1A4
330
55
100
AcDbEntity
  8
1
  6
Continuous
 62
     3
100
AcDbLine
 10
1798.047208008983
 20
1626.447398805075
 30
0.0
 11
1998.047208008983
 21
1626.447398805075
 31
0.0
  0
LINE
  5
1A5
330
55
100
AcDbEntity
  8
1
  6
Continuous
 62
     3
100
AcDbLine
 10
1778.047208008983
 20
1606.447398805075
 30
0.0
 11
1778.047208008983
 21
1586.447398805075
 31
0.0
  0
LINE
  5
1A6
330
55
100
AcDbEntity
  8
1
  6
Continuous
 62
     3
100
AcDbLine
 10
1728.047208008983
 20
1586.447398805075
 30
0.0
 11
1998.047208008983
 21
1586.447398805075
 31
0.0
  0
LINE
  5
1A7
330
55
100
AcDbEntity
  8
1
  6
Continuous
 62
     3
100
AcDbLine
 10
1728.047208008983
 20
1606.447398805075
 30
0.0
 11
1778.047208008983
 21
1606.447398805075
 31
0.0
  0
LINE
  5
1A8
330
55
100
AcDbEntity
  8
1
  6
Continuous
 62
     3
100
AcDbLine
 10
1728.047208008983
 20
1626.447398805075
 30
0.0
 11
1758.047208008983
 21
1626.447398805075
 31
0.0
  0
LINE
  5
1A9
330
55
100
AcDbEntity
  8
1
  6
Continuous
 62
     3
100
AcDbLine
 10
1728.047208008983
 20
1646.447398805075
 30
0.0
 11
1778.047208008983
 21
1646.447398805075
 31
0.0
  0
LINE
  5
1AA
330
55
100
AcDbEntity
  8
1
  6
Continuous
 62
     3
100
AcDbLine
 10
1728.047208008983
 20
1666.447398805075
 30
0.0
 11
1878.047208008983
 21
1666.447398805075
 31
0.0
  0
LINE
  5
1AB
330
55
100
AcDbEntity
  8
1
  6
Continuous
 62
     3
100
AcDbLine
 10
1728.047208008983
 20
1686.447398805075
 30
0.0
 11
1858.047208008983
 21
1686.447398805075
 31
0.0
  0
LINE
  5
1AC
330
55
100
AcDbEntity
  8
1
  6
Continuous
 62
     3
100
AcDbLine
 10
1728.047208008983
 20
1756.447398805075
 30
0.0
 11
1728.047208008983
 21
1586.447398805075
 31
0.0
  0
LINE
  5
1AD
330
55
100
AcDbEntity
  8
1
  6
Continuous
 62
     3
100
AcDbLine
 10
1738.047208008983
 20
1756.447398805075
 30
0.0
 11
1738.047208008983
 21
1586.447398805075
 31
0.0
  0
LINE
  5
1AE
330
55
100
AcDbEntity
  8
1
  6
Continuous
 62
     3
100
AcDbLine
 10
1778.047208008983
 20
1756.447398805075
 30
0.0
 11
1778.047208008983
 21
1646.447398805075
 31
0.0
  0
LINE
  5
1AF
330
55
100
AcDbEntity
  8
1
  6
Continuous
 62
     3
100
AcDbLine
 10
1798.047208008983
 20
1756.447398805075
 30
0.0
 11
1798.047208008983
 21
1626.447398805075
 31
0.0
  0
LINE
  5
1B0
330
55
100
AcDbEntity
  8
1
  6
Continuous
 62
     3
100
AcDbLine
 10
1818.047208008983
 20
1756.447398805075
 30
0.0
 11
1818.047208008983
 21
1646.447398805075
 31
0.0
  0
LINE
  5
1B1
330
55
100
AcDbEntity
  8
1
  6
Continuous
 62
     3
100
AcDbLine
 10
1838.047208008983
 20
1756.447398805075
 30
0.0
 11
1838.047208008983
 21
1655.343249221958
 31
0.0
  0
LINE
  5
1B2
330
55
100
AcDbEntity
  8
1
  6
Continuous
 62
     3
100
AcDbLine
 10
1878.047208008983
 20
1756.447398805075
 30
0.0
 11
1878.047208008983
 21
1706.447398805075
 31
0.0
  0
LINE
  5
1B3
330
55
100
AcDbEntity
  8
1
  6
Continuous
 62
     3
100
AcDbLine
 10
1918.047208008983
 20
1756.447398805075
 30
0.0
 11
1918.047208008983
 21
1726.447398805075
 31
0.0
  0
LINE
  5
1B4
330
55
100
AcDbEntity
  8
1
  6
Continuous
 62
     3
100
AcDbLine
 10
1938.047208008983
 20
1756.447398805075
 30
0.0
 11
1938.047208008983
 21
1706.447398805075
 31
0.0
  0
LINE
  5
1B5
330
55
100
AcDbEntity
  8
1
  6
Continuous
 62
     3
100
AcDbLine
 10
1958.047208008983
 20
1756.447398805075
 30
0.0
 11
1958.047208008983
 21
1586.447398805075
 31
0.0
  0
LINE
  5
1B6
330
55
100
AcDbEntity
  8
1
  6
Continuous
 62
     3
100
AcDbLine
 10
1978.047208008983
 20
1756.447398805075
 30
0.0
 11
1978.047208008983
 21
1586.447398805075
 31
0.0
  0
LINE
  5
1B7
330
55
100
AcDbEntity
  8
1
  6
Continuous
 62
     3
100
AcDbLine
 10
1998.047208008983
 20
1756.447398805075
 30
0.0
 11
1998.047208008983
 21
1586.447398805075
 31
0.0
  0
LINE
  5
1B8
330
55
100
AcDbEntity
  8
1
  6
Continuous
 62
     3
100
AcDbLine
 10
1728.047208008983
 20
1726.447398805075
 30
0.0
 11
1918.047208008983
 21
1726.447398805075
 31
0.0
  0
LINE
  5
1B9
330
55
100
AcDbEntity
  8
1
  6
Continuous
 62
     3
100
AcDbLine
 10
1728.047208008983
 20
1756.447398805075
 30
0.0
 11
1998.047208008983
 21
1756.447398805075
 31
0.0
  0
LINE
  5
1BA
330
55
100
AcDbEntity
  8
1
  6
Continuous
 62
     3
100
AcDbLine
 10
1728.047208008983
 20
1706.447398805075
 30
0.0
 11
1878.047208008983
 21
1706.447398805075
 31
0.0
  0
LINE
  5
1BB
330
55
100
AcDbEntity
  8
1
  6
Continuous
 62
     3
100
AcDbLine
 10
2008.047208008983
 20
1506.447398805075
 30
0.0
 11
1698.047208008983
 21
1506.447398805075
 31
0.0
  0
LINE
  5
1BC
330
55
100
AcDbEntity
  8
1
  6
Continuous
 62
     3
100
AcDbLine
 10
1698.047208008983
 20
1506.447398805075
 30
0.0
 11
1698.047208008983
 21
1766.447398805075
 31
0.0
  0
LINE
  5
1BD
330
55
100
AcDbEntity
  8
1
  6
Continuous
 62
     3
100
AcDbLine
 10
1698.047208008983
 20
1766.447398805075
 30
0.0
 11
2008.047208008983
 21
1766.447398805075
 31
0.0
  0
LINE
  5
1BE
330
55
100
AcDbEntity
  8
1
  6
Continuous
 62
     3
100
AcDbLine
 10
2008.047208008983
 20
1766.447398805075
 30
0.0
 11
2008.047208008983
 21
1506.447398805075
 31
0.0
  0
LINE
  5
1BF
330
55
100
AcDbEntity
  8
1
  6
Continuous
 62
     3
100
AcDbLine
 10
1858.047208008983
 20
1756.447398805075
 30
0.0
 11
1858.047208008983
 21
1686.447398805075
 31
0.0
  0
LINE
  5
1C0
330
55
100
AcDbEntity
  8
1
  6
Continuous
 62
     3
100
AcDbLine
 10
1728.047208008983
 20
1560.447398805075
 30
0.0
 11
1738.047208008983
 21
1560.447398805075
 31
0.0
  0
LINE
  5
1C1
330
55
100
AcDbEntity
  8
1
  6
Continuous
 62
     3
100
AcDbLine
 10
1738.047208008983
 20
1563.447398805075
 30
0.0
 11
1738.047208008983
 21
1560.447398805075
 31
0.0
  0
LINE
  5
1C2
330
55
100
AcDbEntity
  8
1
  6
Continuous
 62
     3
100
AcDbLine
 10
1758.047208008983
 20
1563.447398805075
 30
0.0
 11
1758.047208008983
 21
1560.447398805075
 31
0.0
  0
LINE
  5
1C3
330
55
100
AcDbEntity
  8
1
  6
Continuous
 62
     3
100
AcDbLine
 10
1778.047208008983
 20
1563.447398805075
 30
0.0
 11
1778.047208008983
 21
1560.447398805075
 31
0.0
  0
LINE
  5
1C4
330
55
100
AcDbEntity
  8
1
  6
Continuous
 62
     3
100
AcDbLine
 10
1798.047208008983
 20
1563.447398805075
 30
0.0
 11
1798.047208008983
 21
1560.447398805075
 31
0.0
  0
LINE
  5
1C5
330
55
100
AcDbEntity
  8
1
  6
Continuous
 62
     3
100
AcDbLine
 10
1818.047208008983
 20
1563.447398805075
 30
0.0
 11
1818.047208008983
 21
1560.447398805075
 31
0.0
  0
LINE
  5
1C6
330
55
100
AcDbEntity
  8
1
  6
Continuous
 62
     3
100
AcDbLine
 10
1838.047208008983
 20
1563.447398805075
 30
0.0
 11
1838.047208008983
 21
1560.447398805075
 31
0.0
  0
LINE
  5
1C7
330
55
100
AcDbEntity
  8
1
  6
Continuous
 62
     3
100
AcDbLine
 10
1858.047208008983
 20
1563.447398805075
 30
0.0
 11
1858.047208008983
 21
1560.447398805075
 31
0.0
  0
LINE
  5
1C8
330
55
100
AcDbEntity
  8
1
  6
Continuous
 62
     3
100
AcDbLine
 10
1878.047208008983
 20
1563.447398805075
 30
0.0
 11
1878.047208008983
 21
1560.447398805075
 31
0.0
  0
LINE
  5
1C9
330
55
100
AcDbEntity
  8
1
  6
Continuous
 62
     3
100
AcDbLine
 10
1898.047208008983
 20
1563.447398805075
 30
0.0
 11
1898.047208008983
 21
1560.447398805075
 31
0.0
  0
LINE
  5
1CA
330
55
100
AcDbEntity
  8
1
  6
Continuous
 62
     3
100
AcDbLine
 10
1918.047208008983
 20
1563.447398805075
 30
0.0
 11
1918.047208008983
 21
1560.447398805075
 31
0.0
  0
LINE
  5
1CB
330
55
100
AcDbEntity
  8
1
  6
Continuous
 62
     3
100
AcDbLine
 10
1938.047208008983
 20
1563.447398805075
 30
0.0
 11
1938.047208008983
 21
1560.447398805075
 31
0.0
  0
LINE
  5
1CC
330
55
100
AcDbEntity
  8
1
  6
Continuous
 62
     3
100
AcDbLine
 10
1958.047208008983
 20
1563.447398805075
 30
0.0
 11
1958.047208008983
 21
1560.447398805075
 31
0.0
  0
LINE
  5
1CD
330
55
100
AcDbEntity
  8
1
  6
Continuous
 62
     3
100
AcDbLine
 10
1978.047208008983
 20
1563.447398805075
 30
0.0
 11
1978.047208008983
 21
1560.447398805075
 31
0.0
  0
LINE
  5
1CE
330
55
100
AcDbEntity
  8
1
  6
Continuous
 62
     3
100
AcDbLine
 10
1998.047208008983
 20
1563.447398805075
 30
0.0
 11
1998.047208008983
 21
1560.447398805075
 31
0.0
  0
LINE
  5
1CF
330
55
100
AcDbEntity
  8
1
  6
Continuous
 62
     3
100
AcDbLine
 10
1738.047208008983
 20
1560.447398805075
 30
0.0
 11
1998.047208008983
 21
1560.447398805075
 31
0.0
  0
LINE
  5
1D0
330
55
100
AcDbEntity
  8
1
  6
Continuous
 62
     3
100
AcDbLine
 10
1728.047208008983
 20
1746.447398805075
 30
0.0
 11
1998.047208008983
 21
1746.447398805075
 31
0.0
  0
LINE
  5
1D1
330
55
100
AcDbEntity
  8
1
  6
Continuous
 62
     3
100
AcDbLine
 10
1938.047208008983
 20
1706.447398805075
 30
0.0
 11
1998.047208008983
 21
1706.447398805075
 31
0.0
  0
LINE
  5
1D2
330
55
100
AcDbEntity
  8
1
  6
Continuous
 62
     3
100
AcDbLine
 10
1938.047208008983
 20
1706.447398805075
 30
0.0
 11
1938.047208008983
 21
1586.447398805075
 31
0.0
  0
LINE
  5
1D3
330
55
100
AcDbEntity
  8
1
  6
Continuous
 62
     3
100
AcDbLine
 10
1898.047208008983
 20
1706.447398805075
 30
0.0
 11
1898.047208008983
 21
1686.447398805075
 31
0.0
  0
LINE
  5
1D4
330
55
100
AcDbEntity
  8
1
  6
Continuous
 62
     3
100
AcDbLine
 10
1918.047208008983
 20
1686.447398805075
 30
0.0
 11
1918.047208008983
 21
1586.447398805075
 31
0.0
  0
LINE
  5
1D5
330
55
100
AcDbEntity
  8
1
  6
Continuous
 62
     3
100
AcDbLine
 10
1918.047208008983
 20
1726.447398805075
 30
0.0
 11
1998.047208008983
 21
1726.447398805075
 31
0.0
  0
LINE
  5
1D6
330
55
100
AcDbEntity
  8
1
  6
Continuous
 62
     3
100
AcDbLine
 10
1918.047208008983
 20
1686.447398805075
 30
0.0
 11
1998.047208008983
 21
1686.447398805075
 31
0.0
  0
CIRCLE
  5
1D7
102
{ACAD_REACTORS
330
20F
330
20F
102
}
330
55
100
AcDbEntity
  8
1
  6
Continuous
 62
     3
100
AcDbCircle
 10
2047.149314073307
 20
1678.921468981508
 30
0.0
 40
4.999999999999773
  0
SPLINE
  5
1D8
330
55
100
AcDbEntity
  8
1
  6
Continuous
 62
     3
100
AcDbSpline
210
0.0
220
0.0
230
1.0
 70
     8
 71
     3
 72
    11
 73
     7
 74
     5
 42
0.0000000001
 43
0.0000000001
 44
0.00000001
 40
0.0
 40
0.0
 40
0.0
 40
0.0
 40
68.58400936139702
 40
136.514679951125
 40
229.4232795627074
 40
321.7587194710552
 40
321.7587194710552
 40
321.7587194710552
 40
321.7587194710552
 10
1728.047208008983
 20
1746.447398805075
 30
0.0
 10
1738.932807159165
 20
1726.097290309441
 30
0.0
 10
1760.600308051868
 20
1685.59093067664
 30
0.0
 10
1823.373048438678
 20
1637.880665442578
 30
0.0
 10
1905.954996294816
 20
1614.990107028694
 30
0.0
 10
1967.41318960721
 20
1609.289088412178
 30
0.0
 10
1998.047208008983
 20
1606.447398805075
 30
0.0
 11
1728.047208008983
 21
1746.447398805075
 31
0.0
 11
1764.662732321999
 21
1688.455419020219
 31
0.0
 11
1818.047208008983
 21
1646.447398805074
 31
0.0
 11
1906.402118459426
 21
1617.717315598105
 31
0.0
 11
1998.047208008983
 21
1606.447398805075
 31
0.0
  0
MTEXT
  5
1DB
330
55
100
AcDbEntity
  8
1
 62
     4
100
AcDbMText
 10
2072.885849307157
 20
1680.512796150988
 30
0.0
 40
8.75
 41
0.0
 71
     7
 72
     1
  1
In bestimmten Anwendungsf\U+00e4llen mu\U+00df zus\U+00e4tzlich\Pein T\U+00fcrstopper angebracht werden.\P(siehe Diagramm)
  7
CONVERTER_11
 73
     1
 44
1.02040816326531
  0
TEXT
  5
1DC
330
55
100
AcDbEntity
  8
1
 62
     3
100
AcDbText
 10
1988.546050118452
 20
1526.466079425325
 30
0.0
 40
3.5
  1
7,5
 41
0.9
  7
CONVERTER_11
100
AcDbText
  0
TEXT
  5
1DD
330
55
100
AcDbEntity
  8
1
 62
     3
100
AcDbText
 10
1908.546050118452
 20
1526.466079425325
 30
0.0
 40
3.5
  1
6,5
 41
0.9
  7
CONVERTER_11
100
AcDbText
  0
TEXT
  5
1DE
330
55
100
AcDbEntity
  8
1
 62
     3
100
AcDbText
 10
1835.704482657005
 20
1526.466079425325
 30
0.0
 40
3.5
  1
5,5
 41
0.9
  7
CONVERTER_11
100
AcDbText
  0
TEXT
  5
1DF
330
55
100
AcDbEntity
  8
1
 62
     3
100
AcDbText
 10
1769.037815990339
 20
1526.466079425325
 30
0.0
 40
3.5
  1
4,5
 41
0.9
  7
CONVERTER_11
100
AcDbText
  0
TEXT
  5
1E0
330
55
100
AcDbEntity
  8
1
 62
     3
100
AcDbText
 10
1948.546050118452
 20
1526.466079425325
 30
0.0
 40
3.5
  1
7
 41
0.9
  7
CONVERTER_11
100
AcDbText
  0
TEXT
  5
1E1
330
55
100
AcDbEntity
  8
1
 62
     3
100
AcDbText
 10
1868.546050118452
 20
1526.466079425325
 30
0.0
 40
3.5
  1
6
 41
0.9
  7
CONVERTER_11
100
AcDbText
  0
TEXT
  5
1E2
330
55
100
AcDbEntity
  8
1
 62
     3
100
AcDbText
 10
1802.862915195559
 20
1526.466079425325
 30
0.0
 40
3.5
  1
5
 41
0.9
  7
CONVERTER_11
100
AcDbText
  0
TEXT
  5
1E3
330
55
100
AcDbEntity
  8
1
 62
     3
100
AcDbText
 10
1735.212716785118
 20
1526.466079425325
 30
0.0
 40
3.5
  1
4
 41
0.9
  7
CONVERTER_11
100
AcDbText
  0
TEXT
  5
1E4
330
55
100
AcDbEntity
  8
1
 62
     3
100
AcDbText
 10
1735.212716785118
 20
1552.116079425325
 30
0.0
 40
3.5
  1
24
 41
0.9
  7
CONVERTER_11
100
AcDbText
  0
TEXT
  5
1E5
330
55
100
AcDbEntity
  8
1
 62
     3
100
AcDbText
 10
1755.212716785118
 20
1552.116079425325
 30
0.0
 40
3.5
  1
27
 41
0.9
  7
CONVERTER_11
100
AcDbText
  0
TEXT
  5
1E6
330
55
100
AcDbEntity
  8
1
 62
     3
100
AcDbText
 10
1775.212716785118
 20
1552.116079425325
 30
0.0
 40
3.5
  1
30
 41
0.9
  7
CONVERTER_11
100
AcDbText
  0
TEXT
  5
1E7
330
55
100
AcDbEntity
  8
1
 62
     3
100
AcDbText
 10
1795.212716785118
 20
1552.116079425325
 30
0.0
 40
3.5
  1
33
 41
0.9
  7
CONVERTER_11
100
AcDbText
  0
TEXT
  5
1E8
330
55
100
AcDbEntity
  8
1
 62
     3
100
AcDbText
 10
1815.212716785118
 20
1552.116079425325
 30
0.0
 40
3.5
  1
36
 41
0.9
  7
CONVERTER_11
100
AcDbText
  0
TEXT
  5
1E9
330
55
100
AcDbEntity
  8
1
 62
     3
100
AcDbText
 10
1835.212716785118
 20
1552.116079425325
 30
0.0
 40
3.5
  1
39
 41
0.9
  7
CONVERTER_11
100
AcDbText
  0
TEXT
  5
1EA
330
55
100
AcDbEntity
  8
1
 62
     3
100
AcDbText
 10
1855.212716785118
 20
1552.116079425325
 30
0.0
 40
3.5
  1
42
 41
0.9
  7
CONVERTER_11
100
AcDbText
  0
TEXT
  5
1EB
330
55
100
AcDbEntity
  8
1
 62
     3
100
AcDbText
 10
1875.212716785118
 20
1552.116079425325
 30
0.0
 40
3.5
  1
45
 41
0.9
  7
CONVERTER_11
100
AcDbText
  0
TEXT
  5
1EC
330
55
100
AcDbEntity
  8
1
 62
     3
100
AcDbText
 10
1895.212716785118
 20
1552.116079425325
 30
0.0
 40
3.5
  1
48
 41
0.9
  7
CONVERTER_11
100
AcDbText
  0
TEXT
  5
1ED
330
55
100
AcDbEntity
  8
1
 62
     3
100
AcDbText
 10
1915.212716785118
 20
1552.116079425325
 30
0.0
 40
3.5
  1
51
 41
0.9
  7
CONVERTER_11
100
AcDbText
  0
TEXT
  5
1EE
330
55
100
AcDbEntity
  8
1
 62
     3
100
AcDbText
 10
1935.212716785118
 20
1552.116079425325
 30
0.0
 40
3.5
  1
54
 41
0.9
  7
CONVERTER_11
100
AcDbText
  0
TEXT
  5
1EF
330
55
100
AcDbEntity
  8
1
 62
     3
100
AcDbText
 10
1955.212716785118
 20
1552.116079425325
 30
0.0
 40
3.5
  1
57
 41
0.9
  7
CONVERTER_11
100
AcDbText
  0
TEXT
  5
1F0
330
55
100
AcDbEntity
  8
1
 62
     3
100
AcDbText
 10
1975.212716785118
 20
1552.116079425325
 30
0.0
 40
3.5
  1
60
 41
0.9
  7
CONVERTER_11
100
AcDbText
  0
TEXT
  5
1F1
330
55
100
AcDbEntity
  8
1
 62
     3
100
AcDbText
 10
1995.212716785118
 20
1552.116079425325
 30
0.0
 40
3.5
  1
63
 41
0.9
  7
CONVERTER_11
100
AcDbText
  0
TEXT
  5
1F2
330
55
100
AcDbEntity
  8
1
 62
     3
100
AcDbText
 10
1995.212716785118
 20
1577.766079425325
 30
0.0
 40
3.5
  1
4,2
 41
0.9
  7
CONVERTER_11
100
AcDbText
  0
TEXT
  5
1F3
330
55
100
AcDbEntity
  8
1
 62
     3
100
AcDbText
 10
1975.212716785118
 20
1577.766079425325
 30
0.0
 40
3.5
  1
4,0
 41
0.9
  7
CONVERTER_11
100
AcDbText
  0
TEXT
  5
1F4
330
55
100
AcDbEntity
  8
1
 62
     3
100
AcDbText
 10
1955.212716785118
 20
1577.766079425325
 30
0.0
 40
3.5
  1
3,8
 41
0.9
  7
CONVERTER_11
100
AcDbText
  0
TEXT
  5
1F5
330
55
100
AcDbEntity
  8
1
 62
     3
100
AcDbText
 10
1935.212716785118
 20
1577.766079425325
 30
0.0
 40
3.5
  1
3,6
 41
0.9
  7
CONVERTER_11
100
AcDbText
  0
TEXT
  5
1F6
330
55
100
AcDbEntity
  8
1
 62
     3
100
AcDbText
 10
1915.212716785118
 20
1577.766079425325
 30
0.0
 40
3.5
  1
3,4
 41
0.9
  7
CONVERTER_11
100
AcDbText
  0
TEXT
  5
1F7
330
55
100
AcDbEntity
  8
1
 62
     3
100
AcDbText
 10
1895.212716785118
 20
1577.766079425325
 30
0.0
 40
3.5
  1
3,2
 41
0.9
  7
CONVERTER_11
100
AcDbText
  0
TEXT
  5
1F8
330
55
100
AcDbEntity
  8
1
 62
     3
100
AcDbText
 10
1875.212716785118
 20
1577.766079425325
 30
0.0
 40
3.5
  1
3,0
 41
0.9
  7
CONVERTER_11
100
AcDbText
  0
TEXT
  5
1F9
330
55
100
AcDbEntity
  8
1
 62
     3
100
AcDbText
 10
1855.212716785118
 20
1577.766079425325
 30
0.0
 40
3.5
  1
2,8
 41
0.9
  7
CONVERTER_11
100
AcDbText
  0
TEXT
  5
1FA
330
55
100
AcDbEntity
  8
1
 62
     3
100
AcDbText
 10
1835.212716785118
 20
1577.766079425325
 30
0.0
 40
3.5
  1
2,6
 41
0.9
  7
CONVERTER_11
100
AcDbText
  0
TEXT
  5
1FB
330
55
100
AcDbEntity
  8
1
 62
     3
100
AcDbText
 10
1815.212716785118
 20
1577.766079425325
 30
0.0
 40
3.5
  1
2,4
 41
0.9
  7
CONVERTER_11
100
AcDbText
  0
TEXT
  5
1FC
330
55
100
AcDbEntity
  8
1
 62
     3
100
AcDbText
 10
1795.212716785118
 20
1577.766079425325
 30
0.0
 40
3.5
  1
2,2
 41
0.9
  7
CONVERTER_11
100
AcDbText
  0
TEXT
  5
1FD
330
55
100
AcDbEntity
  8
1
 62
     3
100
AcDbText
 10
1775.212716785118
 20
1577.766079425325
 30
0.0
 40
3.5
  1
2,0
 41
0.9
  7
CONVERTER_11
100
AcDbText
  0
TEXT
  5
1FE
330
55
100
AcDbEntity
  8
1
 62
     3
100
AcDbText
 10
1755.212716785118
 20
1577.766079425325
 30
0.0
 40
3.5
  1
1,8
 41
0.9
  7
CONVERTER_11
100
AcDbText
  0
TEXT
  5
1FF
330
55
100
AcDbEntity
  8
1
 62
     3
100
AcDbText
 10
1735.212716785118
 20
1577.766079425325
 30
0.0
 40
3.5
  1
1,6
 41
0.9
  7
CONVERTER_11
100
AcDbText
  0
TEXT
  5
200
330
55
100
AcDbEntity
  8
1
 62
     3
100
AcDbText
 10
1717.74723763383
 20
1744.794319333023
 30
0.0
 40
3.5
  1
160
 41
0.9
  7
CONVERTER_11
100
AcDbText
  0
TEXT
  5
201
330
55
100
AcDbEntity
  8
1
 62
     3
100
AcDbText
 10
1717.74723763383
 20
1724.794319333023
 30
0.0
 40
3.5
  1
140
 41
0.9
  7
CONVERTER_11
100
AcDbText
  0
TEXT
  5
202
330
55
100
AcDbEntity
  8
1
 62
     3
100
AcDbText
 10
1717.74723763383
 20
1704.794319333023
 30
0.0
 40
3.5
  1
120
 41
0.9
  7
CONVERTER_11
100
AcDbText
  0
TEXT
  5
203
330
55
100
AcDbEntity
  8
1
 62
     3
100
AcDbText
 10
1717.74723763383
 20
1684.794319333023
 30
0.0
 40
3.5
  1
100
 41
0.9
  7
CONVERTER_11
100
AcDbText
  0
TEXT
  5
204
330
55
100
AcDbEntity
  8
1
 62
     3
100
AcDbText
 10
1717.74723763383
 20
1664.794319333023
 30
0.0
 40
3.5
  1
80
 41
0.9
  7
CONVERTER_11
100
AcDbText
  0
TEXT
  5
205
330
55
100
AcDbEntity
  8
1
 62
     3
100
AcDbText
 10
1717.74723763383
 20
1644.794319333023
 30
0.0
 40
3.5
  1
60
 41
0.9
  7
CONVERTER_11
100
AcDbText
  0
TEXT
  5
206
330
55
100
AcDbEntity
  8
1
 62
     3
100
AcDbText
 10
1717.74723763383
 20
1624.794319333023
 30
0.0
 40
3.5
  1
40
 41
0.9
  7
CONVERTER_11
100
AcDbText
  0
TEXT
  5
207
330
55
100
AcDbEntity
  8
1
 62
     3
100
AcDbText
 10
1717.74723763383
 20
1604.794319333023
 30
0.0
 40
3.5
  1
20
 41
0.9
  7
CONVERTER_11
100
AcDbText
  0
MTEXT
  5
208
330
55
100
AcDbEntity
  8
1
 62
     3
100
AcDbMText
 10
1907.053293039645
 20
1699.152100645747
 30
0.0
 40
3.5
 41
0.0
 71
     7
 72
     1
  1
Montage\Pmit\PT\U+00fcrstopper
  7
CONVERTER_11
 73
     1
 44
1.02040816326531
  0
MTEXT
  5
209
330
55
100
AcDbEntity
  8
1
 62
     3
100
AcDbMText
 10
1767.790611675637
 20
1619.555822566545
 30
0.0
 40
3.5
 41
0.0
 71
     7
 72
     1
  1
Montage\Pohne\PT\U+00fcrstopper
  7
CONVERTER_11
 73
     1
 44
1.02040816326531
  0
MTEXT
  5
20A
330
55
100
AcDbEntity
  8
1
 62
     3
100
AcDbMText
 10
1916.861665287393
 20
1519.158238410134
 30
0.0
 40
3.5
 41
0.0
 71
     7
 72
     1
  1
Windst\U+00e4rke (Bft) (T\U+00fcrblattbreite 1m)
  7
CONVERTER_11
 73
     1
 44
1.02040816326531
  0
MTEXT
  5
20B
330
55
100
AcDbEntity
  8
1
 62
     3
100
AcDbMText
 10
1876.834891827539
 20
1545.158238410134
 30
0.0
 40
3.5
 41
0.0
 71
     7
 72
     1
  1
Windgeschwindigkeit (km/h)  (T\U+00fcrblattbreite 1m)
  7
CONVERTER_11
 73
     1
 44
1.02040816326531
  0
MTEXT
  5
20C
330
55
100
AcDbEntity
  8
1
 62
     3
100
AcDbMText
 10
1868.329784416949
 20
1571.158238410134
 30
0.0
 40
3.5
 41
0.0
 71
     7
 72
     1
  1
\U+00d6ffnungsgeschwindigkeit (m/s)  (T\U+00fcrblattbreite 1m)
  7
CONVERTER_11
 73
     1
 44
1.02040816326531
  0
MTEXT
  5
20D
330
55
100
AcDbEntity
  8
1
 62
     3
100
AcDbMText
 10
1710.769853272405
 20
1712.480962060122
 30
0.0
 40
3.5
 41
0.0
 71
     7
 72
     1
  1
T\U+00fcrmasse (kg)
  7
CONVERTER_11
 11
6.123233995736766E-17
 21
1.0
 31
0.0
 73
     1
 44
1.02040816326531
  0
HATCH
  5
20E
330
55
100
AcDbEntity
  8
1
  6
Continuous
 62
     3
100
AcDbHatch
 10
0.0
 20
0.0
 30
0.0
210
0.0
220
0.0
230
1.0
  2
_USER
 70
     0
 71
     1
 91
        1
 92
        1
 93
        3
 72
     1
 10
2054.649314073307
 20
1718.82302829596
 11
2047.149314073307
 21
1691.32302829596
 72
     1
 10
2047.149314073307
 20
1691.32302829596
 11
2039.649314073307
 21
1718.82302829596
 72
     1
 10
2039.649314073307
 20
1718.82302829596
 11
2054.649314073307
 21
1718.82302829596
 97
        3
330
18A
330
189
330
188
 75
     1
 76
     0
 52
45.0
 41
0.2
 77
     0
 78
     1
 53
45.0
 43
0.0
 44
0.0
 45
-0.1414213562373095
 46
0.1414213562373095
 79
     0
 98
        1
 10
0.0
 20
0.0
  0
HATCH
  5
20F
330
55
100
AcDbEntity
  8
1
  6
Continuous
 62
     3
100
AcDbHatch
 10
0.0
 20
0.0
 30
0.0
210
0.0
220
0.0
230
1.0
  2
_USER
 70
     0
 71
     1
 91
        1
 92
        1
 93
        1
 72
     2
 10
2047.149314073307
 20
1678.921468981508
 40
4.999999999999773
 50
0.0
 51
360.0
 73
     1
 97
        1
330
1D7
 75
     1
 76
     0
 52
45.0
 41
0.75
 77
     0
 78
     1
 53
45.0
 43
0.0
 44
0.0
 45
-0.5303300858899106
 46
0.5303300858899107
 79
     0
 98
        1
 10
0.0
 20
0.0
  0
HATCH
  5
210
330
55
100
AcDbEntity
  8
1
  6
Continuous
 62
     7
100
AcDbHatch
 10
0.0
 20
0.0
 30
0.0
210
0.0
220
0.0
230
1.0
  2
CUSTOM0
 70
     0
 71
     0
 91
       10
 92
        1
 93
        4
 72
     1
 10
1998.047208008983
 20
1606.447398805075
 11
1998.047208008983
 21
1586.447398805075
 72
     1
 10
1998.047208008983
 20
1586.447398805075
 11
1728.047208008983
 21
1586.447398805075
 72
     1
 10
1728.047208008983
 20
1586.447398805075
 11
1728.047208008983
 21
1746.447398805075
 72
     4
 94
        3
 73
     0
 74
     0
 95
       11
 96
        7
 40
0.0
 40
0.0
 40
0.0
 40
0.0
 40
68.58400936139702
 40
136.514679951125
 40
229.4232795627074
 40
321.7587194710552
 40
321.7587194710552
 40
321.7587194710552
 40
321.7587194710552
 10
1728.047208008983
 20
1746.447398805075
 10
1738.932807159165
 20
1726.097290309441
 10
1760.600308051868
 20
1685.59093067664
 10
1823.373048438678
 20
1637.880665442578
 10
1905.954996294816
 20
1614.990107028694
 10
1967.41318960721
 20
1609.289088412178
 10
1998.047208008983
 20
1606.447398805075
 97
        0
 92
       16
 93
        4
 72
     1
 10
1767.003111675637
 20
1618.680822566545
 11
1818.978111675637
 21
1618.680822566545
 72
     1
 10
1818.978111675637
 20
1618.680822566545
 11
1818.978111675637
 21
1638.216536852259
 72
     1
 10
1818.978111675637
 20
1638.216536852259
 11
1767.003111675637
 21
1638.216536852259
 72
     1
 10
1767.003111675637
 20
1638.216536852259
 11
1767.003111675637
 21
1618.680822566545
 97
        0
 92
       16
 93
        4
 72
     1
 10
1767.003111675637
 20
1618.680822566545
 11
1818.978111675637
 21
1618.680822566545
 72
     1
 10
1818.978111675637
 20
1618.680822566545
 11
1818.978111675637
 21
1638.216536852259
 72
     1
 10
1818.978111675637
 20
1638.216536852259
 11
1767.003111675637
 21
1638.216536852259
 72
     1
 10
1767.003111675637
 20
1638.216536852259
 11
1767.003111675637
 21
1618.680822566545
 97
        0
 92
       16
 93
        4
 72
     1
 10
1767.003111675637
 20
1618.680822566545
 11
1818.978111675637
 21
1618.680822566545
 72
     1
 10
1818.978111675637
 20
1618.680822566545
 11
1818.978111675637
 21
1638.216536852259
 72
     1
 10
1818.978111675637
 20
1638.216536852259
 11
1767.003111675637
 21
1638.216536852259
 72
     1
 10
1767.003111675637
 20
1638.216536852259
 11
1767.003111675637
 21
1618.680822566545
 97
        0
 92
       16
 93
        4
 72
     1
 10
1767.003111675637
 20
1618.680822566545
 11
1818.978111675637
 21
1618.680822566545
 72
     1
 10
1818.978111675637
 20
1618.680822566545
 11
1818.978111675637
 21
1638.216536852259
 72
     1
 10
1818.978111675637
 20
1638.216536852259
 11
1767.003111675637
 21
1638.216536852259
 72
     1
 10
1767.003111675637
 20
1638.216536852259
 11
1767.003111675637
 21
1618.680822566545
 97
        0
 92
       16
 93
        4
 72
     1
 10
1767.003111675637
 20
1618.680822566545
 11
1818.978111675637
 21
1618.680822566545
 72
     1
 10
1818.978111675637
 20
1618.680822566545
 11
1818.978111675637
 21
1638.216536852259
 72
     1
 10
1818.978111675637
 20
1638.216536852259
 11
1767.003111675637
 21
1638.216536852259
 72
     1
 10
1767.003111675637
 20
1638.216536852259
 11
1767.003111675637
 21
1618.680822566545
 97
        0
 92
       16
 93
        4
 72
     1
 10
1767.003111675637
 20
1618.680822566545
 11
1818.978111675637
 21
1618.680822566545
 72
     1
 10
1818.978111675637
 20
1618.680822566545
 11
1818.978111675637
 21
1638.216536852259
 72
     1
 10
1818.978111675637
 20
1638.216536852259
 11
1767.003111675637
 21
1638.216536852259
 72
     1
 10
1767.003111675637
 20
1638.216536852259
 11
1767.003111675637
 21
1618.680822566545
 97
        0
 92
       16
 93
        4
 72
     1
 10
1767.003111675637
 20
1618.680822566545
 11
1818.978111675637
 21
1618.680822566545
 72
     1
 10
1818.978111675637
 20
1618.680822566545
 11
1818.978111675637
 21
1638.216536852259
 72
     1
 10
1818.978111675637
 20
1638.216536852259
 11
1767.003111675637
 21
1638.216536852259
 72
     1
 10
1767.003111675637
 20
1638.216536852259
 11
1767.003111675637
 21
1618.680822566545
 97
        0
 92
       16
 93
        4
 72
     1
 10
1767.003111675637
 20
1618.680822566545
 11
1818.978111675637
 21
1618.680822566545
 72
     1
 10
1818.978111675637
 20
1618.680822566545
 11
1818.978111675637
 21
1638.216536852259
 72
     1
 10
1818.978111675637
 20
1638.216536852259
 11
1767.003111675637
 21
1638.216536852259
 72
     1
 10
1767.003111675637
 20
1638.216536852259
 11
1767.003111675637
 21
1618.680822566545
 97
        0
 92
       16
 93
        4
 72
     1
 10
1767.003111675637
 20
1618.680822566545
 11
1818.978111675637
 21
1618.680822566545
 72
     1
 10
1818.978111675637
 20
1618.680822566545
 11
1818.978111675637
 21
1638.216536852259
 72
     1
 10
1818.978111675637
 20
1638.216536852259
 11
1767.003111675637
 21
1638.216536852259
 72
     1
 10
1767.003111675637
 20
1638.216536852259
 11
1767.003111675637
 21
1618.680822566545
 97
        0
 75
     1
 76
     2
 52
90.00000000000003
 41
5.0
 77
     0
 78
     1
 53
90.00000000000003
 43
82.6591141911658
 44
-123.498568353117
 45
-4.999999999999998
 46
-5.000000000000002
 79
     0
 98
        1
 10
0.0
 20
0.0
  0
ENDBLK
  5
57
330
55
100
AcDbEntity
  8
0
100
AcDbBlockEnd
  0
BLOCK
  5
5A
330
58
100
AcDbEntity
  8
0
100
AcDbBlockBegin
  2
Tuer__4
 70
     0
 71
     0
 10
2189.351117268533
 20
1088.512441705893
 30
0.0
  3
Tuer__4
  1

  0
INSERT
  5
59
330
58
100
AcDbEntity
  8
0
100
AcDbBlockReference
  2
Tuer__3
 10
1740.317055124168
 20
1114.247696262653
 30
0.0
 41
0.4
 42
0.4
 43
0.4
  0
ENDBLK
  5
5B
330
58
100
AcDbEntity
  8
0
100
AcDbBlockEnd
  0
BLOCK
  5
5D
330
5C
100
AcDbEntity
  8
0
100
AcDbBlockBegin
  2
1__5
 70
     0
 71
     0
 10
504.9150370497468
 20
656.5923954493865
 30
0.0
  3
1__5
  1

  0
LINE
  5
211
330
5C
100
AcDbEntity
  8
1
  6
Continuous
 62
     1
100
AcDbLine
 10
528.3150370497469
 20
689.0923954493865
 30
0.0
 11
528.3150370497469
 21
656.5923954493865
 31
0.0
  0
LINE
  5
212
330
5C
100
AcDbEntity
  8
1
  6
Continuous
 62
     1
100
AcDbLine
 10
528.3150370497469
 20
656.5923954493865
 30
0.0
 11
526.4688832035932
 21
664.5923954493865
 31
0.0
  0
LINE
  5
213
330
5C
100
AcDbEntity
  8
1
  6
Continuous
 62
     1
100
AcDbLine
 10
530.1611908959005
 20
664.5923954493865
 30
0.0
 11
526.4688832035932
 21
664.5923954493865
 31
0.0
  0
LINE
  5
214
330
5C
100
AcDbEntity
  8
1
  6
Continuous
 62
     1
100
AcDbLine
 10
530.1611908959005
 20
664.5923954493865
 30
0.0
 11
528.3150370497469
 21
656.5923954493865
 31
0.0
  0
LINE
  5
215
330
5C
100
AcDbEntity
  8
1
  6
Continuous
 62
     2
100
AcDbLine
 10
529.5326653549727
 20
664.0923954493865
 30
0.0
 11
527.0974087445212
 21
664.0923954493865
 31
0.0
  0
LINE
  5
216
330
5C
100
AcDbEntity
  8
1
  6
Continuous
 62
     2
100
AcDbLine
 10
529.5326653549727
 20
664.0923954493865
 30
0.0
 11
528.3150370497468
 21
658.8160061267411
 31
0.0
  0
LINE
  5
217
330
5C
100
AcDbEntity
  8
1
  6
Continuous
 62
     2
100
AcDbLine
 10
528.3150370497468
 20
658.8160061267411
 30
0.0
 11
527.0974087445212
 21
664.0923954493865
 31
0.0
  0
LINE
  5
218
330
5C
100
AcDbEntity
  8
1
  6
Continuous
 62
     2
100
AcDbLine
 10
528.3150370497468
 20
661.0396168040959
 30
0.0
 11
527.7259342854491
 21
663.5923954493865
 31
0.0
  0
LINE
  5
219
330
5C
100
AcDbEntity
  8
1
  6
Continuous
 62
     2
100
AcDbLine
 10
528.9041398140445
 20
663.5923954493865
 30
0.0
 11
528.3150370497468
 21
661.0396168040959
 31
0.0
  0
LINE
  5
21A
330
5C
100
AcDbEntity
  8
1
  6
Continuous
 62
     2
100
AcDbLine
 10
528.9041398140445
 20
663.5923954493865
 30
0.0
 11
527.7259342854491
 21
663.5923954493865
 31
0.0
  0
LINE
  5
21B
330
5C
100
AcDbEntity
  8
1
  6
Continuous
 62
     2
100
AcDbLine
 10
528.3150370497468
 20
663.2632274814505
 30
0.0
 11
528.354459826377
 21
663.0923954493865
 31
0.0
  0
LINE
  5
21C
330
5C
100
AcDbEntity
  8
1
  6
Continuous
 62
     2
100
AcDbLine
 10
528.2756142731166
 20
663.0923954493865
 30
0.0
 11
528.3150370497468
 21
663.2632274814505
 31
0.0
  0
LINE
  5
21D
330
5C
100
AcDbEntity
  8
1
  6
Continuous
 62
     2
100
AcDbLine
 10
528.2756142731166
 20
663.0923954493865
 30
0.0
 11
528.354459826377
 21
663.0923954493865
 31
0.0
  0
LINE
  5
21E
330
5C
100
AcDbEntity
  8
1
  6
Continuous
 62
     1
100
AcDbLine
 10
528.3150370497469
 20
689.0923954493865
 30
0.0
 11
520.3150370497469
 21
687.2462416032329
 31
0.0
  0
LINE
  5
21F
330
5C
100
AcDbEntity
  8
1
  6
Continuous
 62
     1
100
AcDbLine
 10
520.3150370497469
 20
690.93854929554
 30
0.0
 11
528.3150370497469
 21
689.0923954493865
 31
0.0
  0
LINE
  5
220
330
5C
100
AcDbEntity
  8
1
  6
Continuous
 62
     1
100
AcDbLine
 10
520.3150370497469
 20
690.93854929554
 30
0.0
 11
520.3150370497469
 21
687.2462416032329
 31
0.0
  0
LINE
  5
221
330
5C
100
AcDbEntity
  8
1
  6
Continuous
 62
     2
100
AcDbLine
 10
520.8150370497469
 20
690.3100237546121
 30
0.0
 11
520.8150370497469
 21
687.8747671441608
 31
0.0
  0
LINE
  5
222
330
5C
100
AcDbEntity
  8
1
  6
Continuous
 62
     2
100
AcDbLine
 10
520.8150370497469
 20
690.3100237546121
 30
0.0
 11
526.0914263723921
 21
689.0923954493865
 31
0.0
  0
LINE
  5
223
330
5C
100
AcDbEntity
  8
1
  6
Continuous
 62
     2
100
AcDbLine
 10
526.0914263723921
 20
689.0923954493865
 30
0.0
 11
520.8150370497469
 21
687.8747671441608
 31
0.0
  0
LINE
  5
224
330
5C
100
AcDbEntity
  8
1
  6
Continuous
 62
     2
100
AcDbLine
 10
523.8678156950375
 20
689.0923954493865
 30
0.0
 11
521.3150370497469
 21
688.5032926850886
 31
0.0
  0
LINE
  5
225
330
5C
100
AcDbEntity
  8
1
  6
Continuous
 62
     2
100
AcDbLine
 10
521.3150370497469
 20
689.6814982136841
 30
0.0
 11
523.8678156950375
 21
689.0923954493865
 31
0.0
  0
LINE
  5
226
330
5C
100
AcDbEntity
  8
1
  6
Continuous
 62
     2
100
AcDbLine
 10
521.3150370497469
 20
689.6814982136841
 30
0.0
 11
521.3150370497469
 21
688.5032926850886
 31
0.0
  0
LINE
  5
227
330
5C
100
AcDbEntity
  8
1
  6
Continuous
 62
     2
100
AcDbLine
 10
521.6442050176828
 20
689.0923954493865
 30
0.0
 11
521.8150370497469
 21
689.1318182260165
 31
0.0
  0
LINE
  5
228
330
5C
100
AcDbEntity
  8
1
  6
Continuous
 62
     2
100
AcDbLine
 10
521.8150370497469
 20
689.0529726727564
 30
0.0
 11
521.6442050176828
 21
689.0923954493865
 31
0.0
  0
LINE
  5
229
330
5C
100
AcDbEntity
  8
1
  6
Continuous
 62
     2
100
AcDbLine
 10
521.8150370497469
 20
689.0529726727564
 30
0.0
 11
521.8150370497469
 21
689.1318182260165
 31
0.0
  0
LINE
  5
22A
330
5C
100
AcDbEntity
  8
1
  6
Continuous
 62
     2
100
AcDbLine
 10
547.7756142731167
 20
663.0923954493865
 30
0.0
 11
547.8544598263771
 21
663.0923954493865
 31
0.0
  0
LINE
  5
22B
330
5C
100
AcDbEntity
  8
1
  6
Continuous
 62
     2
100
AcDbLine
 10
547.7756142731167
 20
663.0923954493865
 30
0.0
 11
547.8150370497469
 21
663.2632274814505
 31
0.0
  0
LINE
  5
22C
330
5C
100
AcDbEntity
  8
1
  6
Continuous
 62
     2
100
AcDbLine
 10
547.8150370497469
 20
663.2632274814505
 30
0.0
 11
547.8544598263771
 21
663.0923954493865
 31
0.0
  0
LINE
  5
22D
330
5C
100
AcDbEntity
  8
1
  6
Continuous
 62
     2
100
AcDbLine
 10
548.4041398140445
 20
663.5923954493865
 30
0.0
 11
547.2259342854491
 21
663.5923954493865
 31
0.0
  0
LINE
  5
22E
330
5C
100
AcDbEntity
  8
1
  6
Continuous
 62
     2
100
AcDbLine
 10
548.4041398140445
 20
663.5923954493865
 30
0.0
 11
547.8150370497469
 21
661.0396168040959
 31
0.0
  0
LINE
  5
22F
330
5C
100
AcDbEntity
  8
1
  6
Continuous
 62
     2
100
AcDbLine
 10
547.8150370497469
 20
661.0396168040959
 30
0.0
 11
547.2259342854491
 21
663.5923954493865
 31
0.0
  0
LINE
  5
230
330
5C
100
AcDbEntity
  8
1
  6
Continuous
 62
     2
100
AcDbLine
 10
547.8150370497469
 20
658.8160061267411
 30
0.0
 11
546.5974087445213
 21
664.0923954493865
 31
0.0
  0
LINE
  5
231
330
5C
100
AcDbEntity
  8
1
  6
Continuous
 62
     2
100
AcDbLine
 10
549.0326653549727
 20
664.0923954493865
 30
0.0
 11
547.8150370497469
 21
658.8160061267411
 31
0.0
  0
LINE
  5
232
330
5C
100
AcDbEntity
  8
1
  6
Continuous
 62
     2
100
AcDbLine
 10
549.0326653549727
 20
664.0923954493865
 30
0.0
 11
546.5974087445213
 21
664.0923954493865
 31
0.0
  0
LINE
  5
233
330
5C
100
AcDbEntity
  8
1
  6
Continuous
 62
     1
100
AcDbLine
 10
549.6611908959006
 20
664.5923954493865
 30
0.0
 11
547.8150370497469
 21
656.5923954493865
 31
0.0
  0
LINE
  5
234
330
5C
100
AcDbEntity
  8
1
  6
Continuous
 62
     1
100
AcDbLine
 10
549.6611908959006
 20
664.5923954493865
 30
0.0
 11
545.9688832035932
 21
664.5923954493865
 31
0.0
  0
LINE
  5
235
330
5C
100
AcDbEntity
  8
1
  6
Continuous
 62
     1
100
AcDbLine
 10
547.8150370497469
 20
656.5923954493865
 30
0.0
 11
545.9688832035932
 21
664.5923954493865
 31
0.0
  0
LINE
  5
236
330
5C
100
AcDbEntity
  8
1
  6
Continuous
 62
     1
100
AcDbLine
 10
547.8150370497468
 20
689.0923954493865
 30
0.0
 11
547.8150370497469
 21
656.5923954493865
 31
0.0
  0
LINE
  5
237
330
5C
100
AcDbEntity
  8
1
  6
Continuous
 62
     1
100
AcDbLine
 10
504.9150370497468
 20
689.0923954493865
 30
0.0
 11
547.8150370497468
 21
689.0923954493865
 31
0.0
  0
ENDBLK
  5
5E
330
5C
100
AcDbEntity
  8
0
100
AcDbBlockEnd
  0
BLOCK
  5
62
330
5F
100
AcDbEntity
  8
0
100
AcDbBlockBegin
  2
TOP__6
 70
     0
 71
     0
 10
775.383104246009
 20
554.1561439148859
 30
0.0
  3
TOP__6
  1

  0
INSERT
  5
60
330
5F
100
AcDbEntity
  8
0
100
AcDbBlockReference
  2
Tuer__4
 10
2189.351117268533
 20
1088.512441705893
 30
0.0
  0
INSERT
  5
61
330
5F
100
AcDbEntity
  8
1
100
AcDbBlockReference
  2
1__5
 10
504.9150370497468
 20
656.5923954493865
 30
0.0
  0
LINE
  5
238
330
5F
100
AcDbEntity
  8
1
  6
Continuous
 62
     3
100
AcDbLine
 10
580.3150370497468
 20
663.0923954493865
 30
0.0
 11
558.2150370497475
 21
663.0923954493865
 31
0.0
  0
LINE
  5
239
330
5F
100
AcDbEntity
  8
1
  6
Continuous
 62
     3
100
AcDbLine
 10
547.8150370497469
 20
656.5923954493865
 30
0.0
 11
547.8150370497469
 21
695.5923954493865
 31
0.0
  0
LINE
  5
23A
330
5F
100
AcDbEntity
  8
1
  6
Continuous
 62
     3
100
AcDbLine
 10
547.8150370497469
 20
695.5923954493865
 30
0.0
 11
554.3150370497469
 21
695.5923954493865
 31
0.0
  0
LINE
  5
23B
330
5F
100
AcDbEntity
  8
1
  6
Continuous
 62
     3
100
AcDbLine
 10
580.315037049746
 20
695.5923954493865
 30
0.0
 11
580.3150370497469
 21
656.5923954493865
 31
0.0
  0
LINE
  5
23C
330
5F
100
AcDbEntity
  8
1
  6
Continuous
 62
     3
100
AcDbLine
 10
567.3150370497469
 20
695.5923954493865
 30
0.0
 11
580.315037049746
 21
695.5923954493865
 31
0.0
  0
LINE
  5
23D
330
5F
100
AcDbEntity
  8
1
  6
Continuous
 62
     3
100
AcDbLine
 10
521.8150370497469
 20
695.5923954493865
 30
0.0
 11
528.3150370497469
 21
695.5923954493865
 31
0.0
  0
LINE
  5
23E
330
5F
100
AcDbEntity
  8
1
  6
Continuous
 62
     3
100
AcDbLine
 10
560.8150370497461
 20
695.5923954493865
 30
0.0
 11
567.3150370497469
 21
695.5923954493865
 31
0.0
  0
LINE
  5
23F
330
5F
100
AcDbEntity
  8
1
  6
Continuous
 62
     3
100
AcDbLine
 10
554.3150370497469
 20
695.5923954493865
 30
0.0
 11
560.8150370497461
 21
695.5923954493865
 31
0.0
  0
LINE
  5
240
330
5F
100
AcDbEntity
  8
1
  6
Continuous
 62
     3
100
AcDbLine
 10
541.3150370497469
 20
695.5923954493865
 30
0.0
 11
547.8150370497469
 21
695.5923954493865
 31
0.0
  0
LINE
  5
241
330
5F
100
AcDbEntity
  8
1
  6
Continuous
 62
     3
100
AcDbLine
 10
534.8150370497469
 20
695.5923954493865
 30
0.0
 11
541.3150370497469
 21
695.5923954493865
 31
0.0
  0
LINE
  5
242
330
5F
100
AcDbEntity
  8
1
  6
Continuous
 62
     3
100
AcDbLine
 10
528.3150370497469
 20
695.5923954493865
 30
0.0
 11
534.8150370497469
 21
695.5923954493865
 31
0.0
  0
LINE
  5
243
330
5F
100
AcDbEntity
  8
1
  6
Continuous
 62
     3
100
AcDbLine
 10
515.3150370497469
 20
695.5923954493865
 30
0.0
 11
521.8150370497469
 21
695.5923954493865
 31
0.0
  0
LINE
  5
244
330
5F
100
AcDbEntity
  8
1
  6
Continuous
 62
     1
100
AcDbLine
 10
508.815037049747
 20
685.8423954493865
 30
0.0
 11
508.815037049747
 21
689.0923954493865
 31
0.0
  0
LINE
  5
245
330
5F
100
AcDbEntity
  8
1
  6
Continuous
 62
     1
100
AcDbLine
 10
508.815037049747
 20
689.0923954493865
 30
0.0
 11
508.815037049747
 21
695.5923954493865
 31
0.0
  0
LINE
  5
246
330
5F
100
AcDbEntity
  8
1
  6
Continuous
 62
     7
100
AcDbLine
 10
580.315037049746
 20
695.5923954493865
 30
0.0
 11
580.3150370497469
 21
656.5923954493865
 31
0.0
  0
LINE
  5
247
330
5F
100
AcDbEntity
  8
1
  6
Continuous
 62
     1
100
AcDbLine
 10
547.8150370497469
 20
689.0923954493865
 30
0.0
 11
573.815037049747
 21
663.0923954493865
 31
0.0
  0
LINE
  5
248
330
5F
100
AcDbEntity
  8
1
  6
Continuous
 62
     3
100
AcDbLine
 10
558.2150370497475
 20
663.0923954493865
 30
0.0
 11
508.815037049747
 21
663.0923954493865
 31
0.0
  0
LINE
  5
249
330
5F
100
AcDbEntity
  8
1
  6
Continuous
 62
     3
100
AcDbLine
 10
554.3150370497469
 20
656.5923954493865
 30
0.0
 11
554.3150370497469
 21
695.5923954493865
 31
0.0
  0
LINE
  5
24A
330
5F
100
AcDbEntity
  8
1
  6
Continuous
 62
     3
100
AcDbLine
 10
515.3150370497469
 20
656.5923954493865
 30
0.0
 11
515.3150370497469
 21
695.5923954493865
 31
0.0
  0
LINE
  5
24B
330
5F
100
AcDbEntity
  8
1
  6
Continuous
 62
     3
100
AcDbLine
 10
575.7400370497469
 20
669.5923954493865
 30
0.0
 11
546.4900370497469
 21
669.5923954493865
 31
0.0
  0
LINE
  5
24C
330
5F
100
AcDbEntity
  8
1
  6
Continuous
 62
     3
100
AcDbLine
 10
546.4900370497469
 20
669.5923954493865
 30
0.0
 11
508.815037049747
 21
669.5923954493865
 31
0.0
  0
LINE
  5
24D
330
5F
100
AcDbEntity
  8
1
  6
Continuous
 62
     3
100
AcDbLine
 10
508.815037049747
 20
689.0923954493865
 30
0.0
 11
580.3150370497461
 21
689.0923954493865
 31
0.0
  0
LINE
  5
24E
330
5F
100
AcDbEntity
  8
1
  6
Continuous
 62
     3
100
AcDbLine
 10
573.8150370497469
 20
695.5923954493865
 30
0.0
 11
573.8150370497469
 21
656.5923954493865
 31
0.0
  0
LINE
  5
24F
330
5F
100
AcDbEntity
  8
1
  6
Continuous
 62
     1
100
AcDbLine
 10
508.815037049747
 20
682.5923954493865
 30
0.0
 11
508.815037049747
 21
685.8423954493865
 31
0.0
  0
LINE
  5
250
330
5F
100
AcDbEntity
  8
1
  6
Continuous
 62
     1
100
AcDbLine
 10
580.3150370497469
 20
656.5923954493865
 30
0.0
 11
508.815037049747
 21
656.5923954493865
 31
0.0
  0
LINE
  5
251
330
5F
100
AcDbEntity
  8
1
  6
Continuous
 62
     3
100
AcDbLine
 10
580.3150370497463
 20
688.1638240208149
 30
0.0
 11
580.3150370497469
 21
656.5923954493865
 31
0.0
  0
LINE
  5
252
330
5F
100
AcDbEntity
  8
1
  6
Continuous
 62
     2
100
AcDbLine
 10
500.1044598263772
 20
676.0923954493865
 30
0.0
 11
500.0256142731168
 21
676.0923954493865
 31
0.0
  0
LINE
  5
253
330
5F
100
AcDbEntity
  8
1
  6
Continuous
 62
     2
100
AcDbLine
 10
500.1044598263772
 20
676.0923954493865
 30
0.0
 11
500.065037049747
 21
675.9215634173224
 31
0.0
  0
LINE
  5
254
330
5F
100
AcDbEntity
  8
1
  6
Continuous
 62
     2
100
AcDbLine
 10
500.065037049747
 20
675.9215634173224
 30
0.0
 11
500.0256142731168
 21
676.0923954493865
 31
0.0
  0
LINE
  5
255
330
5F
100
AcDbEntity
  8
1
  6
Continuous
 62
     2
100
AcDbLine
 10
499.4759342854494
 20
675.5923954493865
 30
0.0
 11
500.6541398140447
 21
675.5923954493865
 31
0.0
  0
LINE
  5
256
330
5F
100
AcDbEntity
  8
1
  6
Continuous
 62
     2
100
AcDbLine
 10
499.4759342854494
 20
675.5923954493865
 30
0.0
 11
500.065037049747
 21
678.145174094677
 31
0.0
  0
LINE
  5
257
330
5F
100
AcDbEntity
  8
1
  6
Continuous
 62
     2
100
AcDbLine
 10
500.065037049747
 20
678.145174094677
 30
0.0
 11
500.6541398140447
 21
675.5923954493865
 31
0.0
  0
LINE
  5
258
330
5F
100
AcDbEntity
  8
1
  6
Continuous
 62
     2
100
AcDbLine
 10
500.065037049747
 20
680.3687847720319
 30
0.0
 11
501.2826653549726
 21
675.0923954493865
 31
0.0
  0
LINE
  5
259
330
5F
100
AcDbEntity
  8
1
  6
Continuous
 62
     2
100
AcDbLine
 10
498.8474087445213
 20
675.0923954493865
 30
0.0
 11
500.065037049747
 21
680.3687847720319
 31
0.0
  0
LINE
  5
25A
330
5F
100
AcDbEntity
  8
1
  6
Continuous
 62
     2
100
AcDbLine
 10
498.8474087445213
 20
675.0923954493865
 30
0.0
 11
501.2826653549726
 21
675.0923954493865
 31
0.0
  0
LINE
  5
25B
330
5F
100
AcDbEntity
  8
1
  6
Continuous
 62
     1
100
AcDbLine
 10
498.2188832035934
 20
674.5923954493865
 30
0.0
 11
500.065037049747
 21
682.5923954493865
 31
0.0
  0
LINE
  5
25C
330
5F
100
AcDbEntity
  8
1
  6
Continuous
 62
     1
100
AcDbLine
 10
498.2188832035934
 20
674.5923954493865
 30
0.0
 11
501.9111908959007
 21
674.5923954493865
 31
0.0
  0
LINE
  5
25D
330
5F
100
AcDbEntity
  8
1
  6
Continuous
 62
     1
100
AcDbLine
 10
500.065037049747
 20
666.3423954493865
 30
0.0
 11
500.065037049747
 21
674.5923954493865
 31
0.0
  0
LINE
  5
25E
330
5F
100
AcDbEntity
  8
1
  6
Continuous
 62
     1
100
AcDbLine
 10
500.065037049747
 20
682.5923954493865
 30
0.0
 11
501.9111908959007
 21
674.5923954493865
 31
0.0
  0
LINE
  5
25F
330
5F
100
AcDbEntity
  8
1
  6
Continuous
 62
     2
100
AcDbLine
 10
528.3150370497469
 20
643.8029726727561
 30
0.0
 11
528.3150370497469
 21
643.8818182260165
 31
0.0
  0
LINE
  5
260
330
5F
100
AcDbEntity
  8
1
  6
Continuous
 62
     2
100
AcDbLine
 10
528.3150370497469
 20
643.8029726727561
 30
0.0
 11
528.1442050176828
 21
643.8423954493862
 31
0.0
  0
LINE
  5
261
330
5F
100
AcDbEntity
  8
1
  6
Continuous
 62
     2
100
AcDbLine
 10
528.1442050176828
 20
643.8423954493862
 30
0.0
 11
528.3150370497469
 21
643.8818182260165
 31
0.0
  0
LINE
  5
262
330
5F
100
AcDbEntity
  8
1
  6
Continuous
 62
     2
100
AcDbLine
 10
527.8150370497469
 20
644.4314982136841
 30
0.0
 11
527.8150370497469
 21
643.2532926850886
 31
0.0
  0
LINE
  5
263
330
5F
100
AcDbEntity
  8
1
  6
Continuous
 62
     2
100
AcDbLine
 10
527.8150370497469
 20
644.4314982136841
 30
0.0
 11
530.3678156950375
 21
643.8423954493862
 31
0.0
  0
LINE
  5
264
330
5F
100
AcDbEntity
  8
1
  6
Continuous
 62
     2
100
AcDbLine
 10
530.3678156950375
 20
643.8423954493862
 30
0.0
 11
527.8150370497469
 21
643.2532926850886
 31
0.0
  0
LINE
  5
265
330
5F
100
AcDbEntity
  8
1
  6
Continuous
 62
     2
100
AcDbLine
 10
532.5914263723921
 20
643.8423954493865
 30
0.0
 11
527.3150370497469
 21
642.6247671441606
 31
0.0
  0
LINE
  5
266
330
5F
100
AcDbEntity
  8
1
  6
Continuous
 62
     2
100
AcDbLine
 10
527.3150370497469
 20
645.0600237546121
 30
0.0
 11
532.5914263723921
 21
643.8423954493865
 31
0.0
  0
LINE
  5
267
330
5F
100
AcDbEntity
  8
1
  6
Continuous
 62
     2
100
AcDbLine
 10
527.3150370497469
 20
645.0600237546121
 30
0.0
 11
527.3150370497469
 21
642.6247671441606
 31
0.0
  0
LINE
  5
268
330
5F
100
AcDbEntity
  8
1
  6
Continuous
 62
     1
100
AcDbLine
 10
526.8150370497469
 20
645.6885492955398
 30
0.0
 11
534.8150370497469
 21
643.8423954493865
 31
0.0
  0
LINE
  5
269
330
5F
100
AcDbEntity
  8
1
  6
Continuous
 62
     1
100
AcDbLine
 10
526.8150370497469
 20
645.6885492955398
 30
0.0
 11
526.8150370497469
 21
641.9962416032326
 31
0.0
  0
LINE
  5
26A
330
5F
100
AcDbEntity
  8
1
  6
Continuous
 62
     1
100
AcDbLine
 10
518.5650370497469
 20
643.8423954493865
 30
0.0
 11
526.8150370497469
 21
643.8423954493865
 31
0.0
  0
LINE
  5
26B
330
5F
100
AcDbEntity
  8
1
  6
Continuous
 62
     3
100
AcDbLine
 10
560.8150370497469
 20
656.5923954493865
 30
0.0
 11
560.8150370497461
 21
695.5923954493865
 31
0.0
  0
LINE
  5
26C
330
5F
100
AcDbEntity
  8
1
  6
Continuous
 62
     1
100
AcDbLine
 10
519.7019317029929
 20
730.2400036184192
 30
0.0
 11
529.784002134036
 21
734.9442559873623
 31
0.0
  0
LINE
  5
26D
330
5F
100
AcDbEntity
  8
1
  6
Continuous
 62
     1
100
AcDbLine
 10
552.8777318610989
 20
730.439360042812
 30
0.0
 11
532.6017667473209
 21
735.2524869733274
 31
0.0
  0
LINE
  5
26E
330
5F
100
AcDbEntity
  8
1
  6
Continuous
 62
     1
100
AcDbLine
 10
534.8150370497469
 20
643.8423954493865
 30
0.0
 11
526.8150370497469
 21
641.9962416032326
 31
0.0
  0
LINE
  5
26F
330
5F
100
AcDbEntity
  8
1
  6
Continuous
 62
     3
100
AcDbLine
 10
580.3150370497467
 20
669.5923954493865
 30
0.0
 11
575.7400370497469
 21
669.5923954493865
 31
0.0
  0
LINE
  5
270
330
5F
100
AcDbEntity
  8
1
  6
Continuous
 62
     3
100
AcDbLine
 10
528.3150370497469
 20
656.5923954493865
 30
0.0
 11
528.3150370497469
 21
695.5923954493865
 31
0.0
  0
LINE
  5
271
330
5F
100
AcDbEntity
  8
1
  6
Continuous
 62
     1
100
AcDbLine
 10
508.815037049747
 20
656.5923954493865
 30
0.0
 11
508.815037049747
 21
682.5923954493865
 31
0.0
  0
LINE
  5
272
330
5F
100
AcDbEntity
  8
1
  6
Continuous
 62
     3
100
AcDbLine
 10
508.815037049747
 20
695.5923954493865
 30
0.0
 11
515.3150370497469
 21
695.5923954493865
 31
0.0
  0
LINE
  5
273
330
5F
100
AcDbEntity
  8
1
  6
Continuous
 62
     3
100
AcDbLine
 10
508.815037049747
 20
692.3423954493865
 30
0.0
 11
528.9650370497469
 21
692.3423954493865
 31
0.0
  0
LINE
  5
274
330
5F
100
AcDbEntity
  8
1
  6
Continuous
 62
     3
100
AcDbLine
 10
508.815037049747
 20
685.8423954493865
 30
0.0
 11
580.3150370497463
 21
685.8423954493865
 31
0.0
  0
LINE
  5
275
330
5F
100
AcDbEntity
  8
1
  6
Continuous
 62
     3
100
AcDbLine
 10
508.815037049747
 20
679.3423954493865
 30
0.0
 11
580.3150370497465
 21
679.3423954493865
 31
0.0
  0
LINE
  5
276
330
5F
100
AcDbEntity
  8
1
  6
Continuous
 62
     7
100
AcDbLine
 10
508.815037049747
 20
676.0923954493865
 30
0.0
 11
575.4400370497469
 21
676.0923954493865
 31
0.0
  0
LINE
  5
277
330
5F
100
AcDbEntity
  8
1
  6
Continuous
 62
     3
100
AcDbLine
 10
508.815037049747
 20
672.8423954493865
 30
0.0
 11
580.3150370497466
 21
672.8423954493865
 31
0.0
  0
LINE
  5
278
330
5F
100
AcDbEntity
  8
1
  6
Continuous
 62
     3
100
AcDbLine
 10
508.815037049747
 20
666.3423954493865
 30
0.0
 11
580.3150370497467
 21
666.3423954493865
 31
0.0
  0
LINE
  5
279
330
5F
100
AcDbEntity
  8
1
  6
Continuous
 62
     3
100
AcDbLine
 10
567.3150370497469
 20
695.5923954493865
 30
0.0
 11
567.3150370497469
 21
656.5923954493865
 31
0.0
  0
LINE
  5
27A
330
5F
100
AcDbEntity
  8
1
  6
Continuous
 62
     3
100
AcDbLine
 10
541.3150370497469
 20
695.5923954493865
 30
0.0
 11
541.3150370497469
 21
656.5923954493865
 31
0.0
  0
LINE
  5
27B
330
5F
100
AcDbEntity
  8
1
  6
Continuous
 62
     3
100
AcDbLine
 10
534.8150370497469
 20
695.5923954493865
 30
0.0
 11
534.8150370497469
 21
656.5923954493865
 31
0.0
  0
LINE
  5
27C
330
5F
100
AcDbEntity
  8
1
  6
Continuous
 62
     3
100
AcDbLine
 10
521.8150370497469
 20
695.5923954493865
 30
0.0
 11
521.8150370497469
 21
656.5923954493865
 31
0.0
  0
LINE
  5
27D
330
5F
100
AcDbEntity
  8
1
  6
Continuous
 62
     1
100
AcDbLine
 10
532.4150370497468
 20
722.5996713389993
 30
0.0
 11
562.7888753301988
 21
722.5996713389993
 31
0.0
  0
LINE
  5
27E
330
5F
100
AcDbEntity
  8
1
  6
Continuous
 62
     1
100
AcDbLine
 10
532.4150370497468
 20
702.5996713389993
 30
0.0
 11
532.4150370497468
 21
722.5996713389993
 31
0.0
  0
LINE
  5
27F
330
5F
100
AcDbEntity
  8
1
  6
DOT_CENTER
 62
     3
100
AcDbLine
 10
562.7888753301988
 20
698.5563778665435
 30
0.0
 11
562.7888753301988
 21
725.245507856308
 31
0.0
  0
LINE
  5
280
330
5F
100
AcDbEntity
  8
1
  6
Continuous
 62
     1
100
AcDbLine
 10
562.7888753301988
 20
702.5996713389993
 30
0.0
 11
532.4150370497468
 21
702.5996713389993
 31
0.0
  0
LINE
  5
281
330
5F
100
AcDbEntity
  8
1
  6
Continuous
 62
     1
100
AcDbLine
 10
530.8150370497469
 20
702.5996713389993
 30
0.0
 11
530.8150370497469
 21
722.5996713389993
 31
0.0
  0
LINE
  5
282
330
5F
100
AcDbEntity
  8
1
  6
Continuous
 62
     1
100
AcDbLine
 10
508.815037049747
 20
702.5996713389993
 30
0.0
 11
530.8150370497469
 21
702.5996713389993
 31
0.0
  0
LINE
  5
283
330
5F
100
AcDbEntity
  8
1
  6
Continuous
 62
     1
100
AcDbLine
 10
508.815037049747
 20
722.5996713389993
 30
0.0
 11
508.815037049747
 21
702.5996713389993
 31
0.0
  0
LINE
  5
284
330
5F
100
AcDbEntity
  8
1
  6
Continuous
 62
     1
100
AcDbLine
 10
530.8150370497469
 20
722.5996713389993
 30
0.0
 11
508.815037049747
 21
722.5996713389993
 31
0.0
  0
LINE
  5
285
330
5F
100
AcDbEntity
  8
1
  6
Continuous
 62
     1
100
AcDbLine
 10
516.6150370497469
 20
727.696171587849
 30
0.0
 11
516.6150370497469
 21
722.5996713389993
 31
0.0
  0
LINE
  5
286
330
5F
100
AcDbEntity
  8
1
  6
Continuous
 62
     4
100
AcDbLine
 10
534.6150370497469
 20
729.9796713389994
 30
0.0
 11
534.5502712823079
 21
729.9796713389994
 31
0.0
  0
LINE
  5
287
330
5F
100
AcDbEntity
  8
1
  6
Continuous
 62
     4
100
AcDbLine
 10
534.5502712823079
 20
731.2196713389994
 30
0.0
 11
534.6150370497469
 21
731.2196713389994
 31
0.0
  0
LINE
  5
288
330
5F
100
AcDbEntity
  8
1
  6
Continuous
 62
     4
100
AcDbLine
 10
532.235037049747
 20
727.5996713389993
 30
0.0
 11
532.235037049747
 21
727.6644371064381
 31
0.0
  0
LINE
  5
289
330
5F
100
AcDbEntity
  8
1
  6
Continuous
 62
     4
100
AcDbLine
 10
530.995037049747
 20
727.6644371064381
 30
0.0
 11
530.995037049747
 21
727.5996713389993
 31
0.0
  0
LINE
  5
28A
330
5F
100
AcDbEntity
  8
1
  6
Continuous
 62
     4
100
AcDbLine
 10
528.6150370497469
 20
729.9796713389994
 30
0.0
 11
528.6798028171859
 21
729.9796713389994
 31
0.0
  0
LINE
  5
28B
330
5F
100
AcDbEntity
  8
1
  6
Continuous
 62
     4
100
AcDbLine
 10
528.6798028171859
 20
731.2196713389994
 30
0.0
 11
528.6150370497469
 21
731.2196713389994
 31
0.0
  0
LINE
  5
28C
330
5F
100
AcDbEntity
  8
1
  6
Continuous
 62
     4
100
AcDbLine
 10
532.235037049747
 20
733.5996713389993
 30
0.0
 11
532.235037049747
 21
733.5349055715608
 31
0.0
  0
LINE
  5
28D
330
5F
100
AcDbEntity
  8
1
  6
Continuous
 62
     4
100
AcDbLine
 10
530.995037049747
 20
733.5349055715608
 30
0.0
 11
530.995037049747
 21
733.5996713389993
 31
0.0
  0
LINE
  5
28E
330
5F
100
AcDbEntity
  8
1
  6
DOT_CENTER
 62
     3
100
AcDbLine
 10
531.6150370497469
 20
734.3996713389995
 30
0.0
 11
531.6150370497469
 21
726.7996713389996
 31
0.0
  0
LINE
  5
28F
330
5F
100
AcDbEntity
  8
1
  6
DOT_CENTER
 62
     3
100
AcDbLine
 10
535.4150370497468
 20
730.5996713389993
 30
0.0
 11
527.8150370497469
 21
730.5996713389993
 31
0.0
  0
LINE
  5
290
330
5F
100
AcDbEntity
  8
1
  6
Continuous
 62
     1
100
AcDbLine
 10
529.4150370497468
 20
724.1673668652163
 30
0.0
 11
529.4150370497468
 21
722.5996713389993
 31
0.0
  0
LINE
  5
291
330
5F
100
AcDbEntity
  8
1
  6
Continuous
 62
     1
100
AcDbLine
 10
531.24734152353
 20
725.7673668652164
 30
0.0
 11
531.015037049747
 21
725.7673668652164
 31
0.0
  0
LINE
  5
292
330
5F
100
AcDbEntity
  8
1
  6
Continuous
 62
     1
100
AcDbLine
 10
543.615037049748
 20
722.5996713389993
 30
0.0
 11
543.6150370497469
 21
724.1673668652163
 31
0.0
  0
LINE
  5
293
330
5F
100
AcDbEntity
  8
1
  6
Continuous
 62
     1
100
AcDbLine
 10
542.015037049747
 20
725.7673668652164
 30
0.0
 11
531.9827325759638
 21
725.7673668652164
 31
0.0
  0
LINE
  5
294
330
5F
100
AcDbEntity
  8
1
  6
Continuous
 62
     1
100
AcDbLine
 10
556.4150370497468
 20
728.5718825992096
 30
0.0
 11
556.4150370497468
 21
722.5996713389993
 31
0.0
  0
LINE
  5
295
330
5F
100
AcDbEntity
  8
1
  6
Continuous
 62
     3
100
AcDbLine
 10
580.3150370497464
 20
682.5923954493865
 30
0.0
 11
508.815037049747
 21
682.5923954493865
 31
0.0
  0
LINE
  5
296
330
5F
100
AcDbEntity
  8
1
  6
Continuous
 62
     1
100
AcDbLine
 10
528.3150370497469
 20
689.0923954493865
 30
0.0
 11
545.9724267374518
 21
663.0923954493865
 31
0.0
  0
LINE
  5
297
330
5F
100
AcDbEntity
  8
1
  6
Continuous
 62
     7
100
AcDbLine
 10
575.4400370497469
 20
676.0923954493865
 30
0.0
 11
580.3150370497465
 21
676.0923954493865
 31
0.0
  0
LINE
  5
298
330
5F
100
AcDbEntity
  8
1
  6
Continuous
 62
     3
100
AcDbLine
 10
528.9650370497469
 20
692.3423954493865
 30
0.0
 11
580.3150370497461
 21
692.3423954493865
 31
0.0
  0
ARC
  5
299
330
5F
100
AcDbEntity
  8
1
  6
Continuous
 62
     1
100
AcDbCircle
 10
523.0845939213439
 20
722.9903418113729
 30
0.0
 40
8.000000000000348
100
AcDbArc
 50
115.013562185472
 51
143.9685865573257
  0
ARC
  5
29A
330
5F
100
AcDbEntity
  8
1
  6
Continuous
 62
     1
100
AcDbCircle
 10
551.0300299361779
 20
722.6556592779673
 30
0.0
 40
7.999999999999975
100
AcDbArc
 50
47.69121670047689
 51
76.64624107233585
  0
ARC
  5
29B
330
5F
100
AcDbEntity
  8
1
  6
Continuous
 62
     1
100
AcDbCircle
 10
531.9827325759638
 20
730.2319758127824
 30
0.0
 40
5.200000000000065
100
AcDbArc
 50
94.05480722799642
 51
115.0135621854697
  0
ARC
  5
29C
330
5F
100
AcDbEntity
  8
1
  6
Continuous
 62
     4
100
AcDbCircle
 10
531.6150370497469
 20
730.5996713389993
 30
0.0
 40
2.999999999999922
100
AcDbArc
 50
-78.0729184442648
 51
-11.92708155573185
  0
ARC
  5
29D
330
5F
100
AcDbEntity
  8
1
  6
Continuous
 62
     4
100
AcDbCircle
 10
534.6150370497469
 20
730.5996713389993
 30
0.0
 40
0.6199999999998909
100
AcDbArc
 50
-90.0
 51
90.0
  0
ARC
  5
29E
330
5F
100
AcDbEntity
  8
1
  6
Continuous
 62
     4
100
AcDbCircle
 10
531.6150370497469
 20
727.5996713389993
 30
0.0
 40
0.6199999999998909
100
AcDbArc
 50
180.0
 51
0.0
  0
ARC
  5
29F
330
5F
100
AcDbEntity
  8
1
  6
Continuous
 62
     4
100
AcDbCircle
 10
531.6150370497469
 20
730.5996713389993
 30
0.0
 40
2.999999999999653
100
AcDbArc
 50
-168.0729184442682
 51
-101.927081555731
  0
ARC
  5
2A0
330
5F
100
AcDbEntity
  8
1
  6
Continuous
 62
     4
100
AcDbCircle
 10
528.6150370497469
 20
730.5996713389993
 30
0.0
 40
0.6200000000001182
100
AcDbArc
 50
90.0
 51
-90.0
  0
ARC
  5
2A1
330
5F
100
AcDbEntity
  8
1
  6
Continuous
 62
     4
100
AcDbCircle
 10
531.6150370497469
 20
730.5996713389993
 30
0.0
 40
3.000000000000098
100
AcDbArc
 50
101.9270815557301
 51
168.0729184442639
  0
ARC
  5
2A2
330
5F
100
AcDbEntity
  8
1
  6
Continuous
 62
     4
100
AcDbCircle
 10
531.6150370497469
 20
730.5996713389993
 30
0.0
 40
2.9999999999997
100
AcDbArc
 50
11.92708155573609
 51
78.07291844426571
  0
ARC
  5
2A3
330
5F
100
AcDbEntity
  8
1
  6
Continuous
 62
     4
100
AcDbCircle
 10
531.6150370497469
 20
733.5996713389993
 30
0.0
 40
0.6200000000001182
100
AcDbArc
 50
0.0
 51
180.0
  0
ARC
  5
2A4
330
5F
100
AcDbEntity
  8
1
  6
Continuous
 62
     1
100
AcDbCircle
 10
531.015037049747
 20
724.1673668652163
 30
0.0
 40
1.600000000000136
100
AcDbArc
 50
90.0
 51
180.0
  0
ARC
  5
2A5
330
5F
100
AcDbEntity
  8
1
  6
Continuous
 62
     1
100
AcDbCircle
 10
531.24734152353
 20
730.9673668652165
 30
0.0
 40
5.200000000000045
100
AcDbArc
 50
-90.0
 51
-4.05480722799883
  0
ARC
  5
2A6
330
5F
100
AcDbEntity
  8
1
  6
Continuous
 62
     1
100
AcDbCircle
 10
531.24734152353
 20
730.2319758127824
 30
0.0
 40
5.200000000000179
100
AcDbArc
 50
4.05480722799633
 51
85.94519277200483
  0
ARC
  5
2A7
330
5F
100
AcDbEntity
  8
1
  6
Continuous
 62
     1
100
AcDbCircle
 10
542.015037049747
 20
724.1673668652163
 30
0.0
 40
1.599999999999909
100
AcDbArc
 50
0.0
 51
90.0
  0
ARC
  5
2A8
330
5F
100
AcDbEntity
  8
1
  6
Continuous
 62
     1
100
AcDbCircle
 10
531.9827325759638
 20
730.9673668652165
 30
0.0
 40
5.200000000000065
100
AcDbArc
 50
-94.05480722799642
 51
-90.0
  0
SOLID
  5
2A9
330
5F
100
AcDbEntity
  8
1
 62
     7
100
AcDbTrace
 10
570.3195928872359
 20
661.8748873886314
 30
0.0
 11
569.5487842591295
 21
662.3800019150169
 31
0.0
 12
571.8525514437777
 22
665.0548810553558
 32
0.0
 13
571.8525514437777
 23
665.0548810553558
 33
0.0
  0
LEADER
  5
2AA
330
5F
100
AcDbEntity
  8
1
  6
Continuous
 62
     7
100
AcDbLeader
  3
Standard
 71
     0
 76
     2
 10
571.8525514437777
 20
665.0548810553558
 30
0.0
 10
563.890513618029
 20
652.9047504754376
 30
0.0
  0
SOLID
  5
2AB
330
5F
100
AcDbEntity
  8
1
 62
     7
100
AcDbTrace
 10
540.7179926505552
 20
664.9382226920899
 30
0.0
 11
540.0436040313515
 21
665.5663043875863
 31
0.0
 12
542.7661754018003
 22
667.8135086037836
 32
0.0
 13
542.7661754018003
 23
667.8135086037836
 33
0.0
  0
LEADER
  5
2AC
330
5F
100
AcDbEntity
  8
1
  6
Continuous
 62
     7
100
AcDbLeader
  3
Standard
 71
     0
 76
     2
 10
542.7661754018003
 20
667.8135086037836
 30
0.0
 10
528.5224572640327
 20
652.519636045272
 30
0.0
  0
MTEXT
  5
2AD
330
5F
100
AcDbEntity
  8
1
 62
     4
100
AcDbMText
 10
551.6158374602371
 20
646.0151092528374
 30
0.0
 40
2.0
 41
0.0
 71
     7
 72
     1
  1
Ende D\U+00e4mpfung\P( max. \U+00d6ffnungswinkel )
  7
CONVERTER_11
 73
     1
 44
1.02040816326531
  0
MTEXT
  5
2AE
330
5F
100
AcDbEntity
  8
1
 62
     4
100
AcDbMText
 10
517.3945047796733
 20
649.3945820555373
 30
0.0
 40
2.0
 41
0.0
 71
     7
 72
     1
  1
Beginn D\U+00e4mpfung
  7
CONVERTER_11
 73
     1
 44
1.02040816326531
  0
MTEXT
  5
2AF
330
5F
100
AcDbEntity
  8
1
 62
     3
100
AcDbMText
 10
505.0961498783049
 20
688.2800960670843
 30
0.0
 40
1.625
 41
0.0
 71
     7
 72
     1
  1
90
  7
CONVERTER_11
 73
     1
 44
1.02040816326531
  0
MTEXT
  5
2B1
330
5F
100
AcDbEntity
  8
1
 62
     4
100
AcDbMText
 10
469.815037049747
 20
608.3798677595327
 30
0.0
 40
3.0
 41
0.0
 71
     7
 72
     1
  1
Ablesebeispiel : X = 90 mm ^S 95\U+00b0 T\U+00fcr\U+00f6ffnungswinkel\P                 je nach \U+00d6ffnungsgeschwindigkeit der T\U+00fcr vergr\U+00f6\U+00dfert sich der T\U+00fcr\U+00f6ffnungswinkel\P                 bis max.110\U+00b0
  7
CONVERTER_17
 73
     1
 44
0.77272727272727
  0
MTEXT
  5
2B2
330
5F
100
AcDbEntity
  8
1
 62
     4
100
AcDbMText
 10
506.815037049747
 20
638.1776327504888
 30
0.0
 40
3.5
 41
0.0
 71
     7
 72
     1
  1
T\U+00fcr\U+00f6ffnungswinkel
  7
CONVERTER_11
 73
     1
 44
1.02040816326531
  0
TEXT
  5
2B3
330
5F
100
AcDbEntity
  8
1
 62
     4
100
AcDbText
 10
491.044814907351
 20
689.2199856272775
 30
0.0
 40
3.0
  1
in mm
 41
0.9
  7
CONVERTER_11
100
AcDbText
  0
TEXT
  5
2B5
330
5F
100
AcDbEntity
  8
1
 62
     4
100
AcDbText
 10
494.9997119817
 20
693.2199856272773
 30
0.0
 40
4.0
  1
X
 41
0.95
  7
CONVERTER_18
100
AcDbText
  0
MTEXT
  5
2B6
330
5F
100
AcDbEntity
  8
1
 62
     3
100
AcDbMText
 10
559.1457474888477
 20
653.4113252105192
 30
0.0
 40
1.625
 41
0.0
 71
     7
 72
     1
  1
120
  7
CONVERTER_11
 73
     1
 44
1.02040816326531
  0
MTEXT
  5
2B7
330
5F
100
AcDbEntity
  8
1
 62
     3
100
AcDbMText
 10
533.3324837343077
 20
653.4113252105192
 30
0.0
 40
1.625
 41
0.0
 71
     7
 72
     1
  1
100
  7
CONVERTER_11
 73
     1
 44
1.02040816326531
  0
MTEXT
  5
2B8
330
5F
100
AcDbEntity
  8
1
 62
     3
100
AcDbMText
 10
520.6385724846426
 20
653.4113252105192
 30
0.0
 40
1.625
 41
0.0
 71
     7
 72
     1
  1
90
  7
CONVERTER_11
 73
     1
 44
1.02040816326531
  0
MTEXT
  5
2B9
330
5F
100
AcDbEntity
  8
1
 62
     3
100
AcDbMText
 10
504.090464112188
 20
694.7800960670843
 30
0.0
 40
1.625
 41
0.0
 71
     7
 72
     1
  1
100
  7
CONVERTER_11
 73
     1
 44
1.02040816326531
  0
MTEXT
  5
2BA
330
5F
100
AcDbEntity
  8
1
 62
     3
100
AcDbMText
 10
505.0935014724148
 20
681.7800960670843
 30
0.0
 40
1.625
 41
0.0
 71
     7
 72
     1
  1
80
  7
CONVERTER_11
 73
     1
 44
1.02040816326531
  0
MTEXT
  5
2BB
330
5F
100
AcDbEntity
  8
1
 62
     3
100
AcDbMText
 10
505.0935014724148
 20
675.2800960670843
 30
0.0
 40
1.625
 41
0.0
 71
     7
 72
     1
  1
70
  7
CONVERTER_11
 73
     1
 44
1.02040816326531
  0
MTEXT
  5
2BC
330
5F
100
AcDbEntity
  8
1
 62
     3
100
AcDbMText
 10
505.0935014724148
 20
668.7800960670843
 30
0.0
 40
1.625
 41
0.0
 71
     7
 72
     1
  1
60
  7
CONVERTER_11
 73
     1
 44
1.02040816326531
  0
MTEXT
  5
2BD
330
5F
100
AcDbEntity
  8
1
 62
     3
100
AcDbMText
 10
505.0904042487668
 20
662.2800960670843
 30
0.0
 40
1.625
 41
0.0
 71
     7
 72
     1
  1
50
  7
CONVERTER_11
 73
     1
 44
1.02040816326531
  0
MTEXT
  5
2BE
330
5F
100
AcDbEntity
  8
1
 62
     4
100
AcDbMText
 10
507.0131185032943
 20
629.5296107344523
 30
0.0
 40
3.5
 41
0.0
 71
     7
 72
     1
  1
X-Ma\U+00df = max. 90 mm
  7
CONVERTER_11
 73
     1
 44
1.02040816326531
  0
TEXT
  5
2BF
330
5F
100
AcDbEntity
  8
1
 62
     3
100
AcDbText
 10
546.4220665013117
 20
653.4113252105192
 30
0.0
 40
1.625
  1
110
 41
0.9
  7
CONVERTER_11
100
AcDbText
  0
TEXT
  5
2C0
330
5F
100
AcDbEntity
  8
1
 62
     3
100
AcDbText
 10
572.2911072990648
 20
653.4113252105192
 30
0.0
 40
1.625
  1
130
 41
0.9
  7
CONVERTER_11
100
AcDbText
  0
DIMENSION
  5
2CB
330
5F
100
AcDbEntity
  8
1
100
AcDbDimension
  2
*D15
 10
570.8269310426982
 20
702.5996713389993
 30
0.0
 11
566.8269310426982
 21
716.5000618473014
 31
0.0
 70
    32
  1
X
 71
     5
 42
-1.0
 53
90.0
  3
ME10_DIM_10
100
AcDbAlignedDimension
 13
535.4150370497468
 23
730.5996713389993
 33
0.0
 14
562.7888753301988
 24
702.5996713389993
 34
0.0
 50
90.0
100
AcDbRotatedDimension
  0
ENDBLK
  5
63
330
5F
100
AcDbEntity
  8
0
100
AcDbBlockEnd
  0
BLOCK
  5
65
330
64
100
AcDbEntity
  8
0
100
AcDbBlockBegin
  2
1__7
 70
     0
 71
     0
 10
1236.388585544903
 20
1445.242294794766
 30
0.0
  3
1__7
  1

  0
LINE
  5
2CC
330
64
100
AcDbEntity
  8
0
  6
Continuous
 62
     3
100
AcDbLine
 10
1503.969077544903
 20
1883.203816794765
 30
0.0
 11
1503.969077544903
 21
1889.484090794764
 31
0.0
  0
LINE
  5
2CD
330
64
100
AcDbEntity
  8
0
  6
Continuous
 62
     3
100
AcDbLine
 10
1538.908287544903
 20
1882.904012794764
 30
0.0
 11
1504.269005544904
 21
1882.904012794764
 31
0.0
  0
LINE
  5
2CE
330
64
100
AcDbEntity
  8
0
  6
Continuous
 62
     3
100
AcDbLine
 10
1539.208945544903
 20
1889.484090794764
 30
0.0
 11
1539.208945544903
 21
1883.203816794765
 31
0.0
  0
LINE
  5
2CF
330
64
100
AcDbEntity
  8
0
  6
Continuous
 62
     3
100
AcDbLine
 10
1504.269005544904
 20
1889.783894794764
 30
0.0
 11
1538.908287544903
 21
1889.783894794764
 31
0.0
  0
LINE
  5
2D0
330
64
100
AcDbEntity
  8
0
  6
Continuous
 62
     3
100
AcDbLine
 10
1502.888511544904
 20
1889.357626794764
 30
0.0
 11
1502.925499544904
 21
1889.451864794764
 31
0.0
  0
LINE
  5
2D1
330
64
100
AcDbEntity
  8
0
  6
Continuous
 62
     3
100
AcDbLine
 10
1502.888511544904
 20
1883.277548794764
 30
0.0
 11
1502.888511544904
 21
1889.357626794764
 31
0.0
  0
LINE
  5
2D2
330
64
100
AcDbEntity
  8
0
  6
Continuous
 62
     3
100
AcDbLine
 10
1538.908287544903
 20
1882.643758794764
 30
0.0
 11
1504.269005544904
 21
1882.643758794764
 31
0.0
  0
LINE
  5
2D3
330
64
100
AcDbEntity
  8
0
  6
Continuous
 62
     3
100
AcDbLine
 10
1540.288779544903
 20
1889.410360794764
 30
0.0
 11
1540.288779544903
 21
1883.277548794764
 31
0.0
  0
LINE
  5
2D4
330
64
100
AcDbEntity
  8
0
  6
Continuous
 62
     3
100
AcDbLine
 10
1504.269005544904
 20
1890.043660794765
 30
0.0
 11
1538.908287544903
 21
1890.043660794765
 31
0.0
  0
LINE
  5
2D5
330
64
100
AcDbEntity
  8
0
  6
Continuous
 62
     3
100
AcDbLine
 10
1530.728965544903
 20
1884.283894794764
 30
0.0
 11
1530.728965544903
 21
1888.283894794764
 31
0.0
  0
LINE
  5
2D6
330
64
100
AcDbEntity
  8
0
  6
Continuous
 62
     3
100
AcDbLine
 10
1536.928673544903
 20
1884.283894794764
 30
0.0
 11
1530.728965544903
 21
1884.283894794764
 31
0.0
  0
LINE
  5
2D7
330
64
100
AcDbEntity
  8
0
  6
Continuous
 62
     3
100
AcDbLine
 10
1536.928673544903
 20
1884.544148794764
 30
0.0
 11
1536.928673544903
 21
1884.283894794764
 31
0.0
  0
LINE
  5
2D8
330
64
100
AcDbEntity
  8
0
  6
Continuous
 62
     3
100
AcDbLine
 10
1531.808677544904
 20
1884.544148794764
 30
0.0
 11
1536.928673544903
 21
1884.544148794764
 31
0.0
  0
LINE
  5
2D9
330
64
100
AcDbEntity
  8
0
  6
Continuous
 62
     3
100
AcDbLine
 10
1531.808677544904
 20
1886.154012794764
 30
0.0
 11
1531.808677544904
 21
1884.544148794764
 31
0.0
  0
LINE
  5
2DA
330
64
100
AcDbEntity
  8
0
  6
Continuous
 62
     3
100
AcDbLine
 10
1536.928673544903
 20
1886.154012794764
 30
0.0
 11
1531.808677544904
 21
1886.154012794764
 31
0.0
  0
LINE
  5
2DB
330
64
100
AcDbEntity
  8
0
  6
Continuous
 62
     3
100
AcDbLine
 10
1536.928673544903
 20
1886.413778794764
 30
0.0
 11
1536.928673544903
 21
1886.154012794764
 31
0.0
  0
LINE
  5
2DC
330
64
100
AcDbEntity
  8
0
  6
Continuous
 62
     3
100
AcDbLine
 10
1531.808677544904
 20
1886.413778794764
 30
0.0
 11
1536.928673544903
 21
1886.413778794764
 31
0.0
  0
LINE
  5
2DD
330
64
100
AcDbEntity
  8
0
  6
Continuous
 62
     3
100
AcDbLine
 10
1531.808677544904
 20
1888.024130794764
 30
0.0
 11
1531.808677544904
 21
1886.413778794764
 31
0.0
  0
LINE
  5
2DE
330
64
100
AcDbEntity
  8
0
  6
Continuous
 62
     3
100
AcDbLine
 10
1536.928673544903
 20
1888.024130794764
 30
0.0
 11
1531.808677544904
 21
1888.024130794764
 31
0.0
  0
LINE
  5
2DF
330
64
100
AcDbEntity
  8
0
  6
Continuous
 62
     3
100
AcDbLine
 10
1536.928673544903
 20
1888.283894794764
 30
0.0
 11
1536.928673544903
 21
1888.024130794764
 31
0.0
  0
LINE
  5
2E0
330
64
100
AcDbEntity
  8
0
  6
Continuous
 62
     3
100
AcDbLine
 10
1530.728965544903
 20
1888.283894794764
 30
0.0
 11
1536.928673544903
 21
1888.283894794764
 31
0.0
  0
LINE
  5
2E1
330
64
100
AcDbEntity
  8
0
  6
Continuous
 62
     3
100
AcDbLine
 10
1522.728843544903
 20
1888.024130794764
 30
0.0
 11
1522.728843544903
 21
1888.283894794764
 31
0.0
  0
LINE
  5
2E2
330
64
100
AcDbEntity
  8
0
  6
Continuous
 62
     3
100
AcDbLine
 10
1528.311973544903
 20
1888.024130794764
 30
0.0
 11
1522.728843544903
 21
1888.024130794764
 31
0.0
  0
LINE
  5
2E3
330
64
100
AcDbEntity
  8
0
  6
Continuous
 62
     3
100
AcDbLine
 10
1522.728843544903
 20
1884.674032794764
 30
0.0
 11
1528.311973544903
 21
1888.024130794764
 31
0.0
  0
LINE
  5
2E4
330
64
100
AcDbEntity
  8
0
  6
Continuous
 62
     3
100
AcDbLine
 10
1522.728843544903
 20
1884.283894794764
 30
0.0
 11
1522.728843544903
 21
1884.674032794764
 31
0.0
  0
LINE
  5
2E5
330
64
100
AcDbEntity
  8
0
  6
Continuous
 62
     3
100
AcDbLine
 10
1528.928551544904
 20
1884.283894794764
 30
0.0
 11
1522.728843544903
 21
1884.283894794764
 31
0.0
  0
LINE
  5
2E6
330
64
100
AcDbEntity
  8
0
  6
Continuous
 62
     3
100
AcDbLine
 10
1528.928551544904
 20
1884.544148794764
 30
0.0
 11
1528.928551544904
 21
1884.283894794764
 31
0.0
  0
LINE
  5
2E7
330
64
100
AcDbEntity
  8
0
  6
Continuous
 62
     3
100
AcDbLine
 10
1523.346153544903
 20
1884.544148794764
 30
0.0
 11
1528.928551544904
 21
1884.544148794764
 31
0.0
  0
LINE
  5
2E8
330
64
100
AcDbEntity
  8
0
  6
Continuous
 62
     3
100
AcDbLine
 10
1528.928551544904
 20
1887.894246794764
 30
0.0
 11
1523.346153544903
 21
1884.544148794764
 31
0.0
  0
LINE
  5
2E9
330
64
100
AcDbEntity
  8
0
  6
Continuous
 62
     3
100
AcDbLine
 10
1528.928551544904
 20
1888.283894794764
 30
0.0
 11
1528.928551544904
 21
1887.894246794764
 31
0.0
  0
LINE
  5
2EA
330
64
100
AcDbEntity
  8
0
  6
Continuous
 62
     3
100
AcDbLine
 10
1522.728843544903
 20
1888.283894794764
 30
0.0
 11
1528.928551544904
 21
1888.283894794764
 31
0.0
  0
LINE
  5
2EB
330
64
100
AcDbEntity
  8
0
  6
Continuous
 62
     3
100
AcDbLine
 10
1514.728721544903
 20
1884.283894794764
 30
0.0
 11
1514.728721544903
 21
1888.283894794764
 31
0.0
  0
LINE
  5
2EC
330
64
100
AcDbEntity
  8
0
  6
Continuous
 62
     3
100
AcDbLine
 10
1520.929161544903
 20
1884.283894794764
 30
0.0
 11
1514.728721544903
 21
1884.283894794764
 31
0.0
  0
LINE
  5
2ED
330
64
100
AcDbEntity
  8
0
  6
Continuous
 62
     3
100
AcDbLine
 10
1520.929161544903
 20
1884.544148794764
 30
0.0
 11
1520.929161544903
 21
1884.283894794764
 31
0.0
  0
LINE
  5
2EE
330
64
100
AcDbEntity
  8
0
  6
Continuous
 62
     3
100
AcDbLine
 10
1515.809165544903
 20
1884.544148794764
 30
0.0
 11
1520.929161544903
 21
1884.544148794764
 31
0.0
  0
LINE
  5
2EF
330
64
100
AcDbEntity
  8
0
  6
Continuous
 62
     3
100
AcDbLine
 10
1515.809165544903
 20
1886.154012794764
 30
0.0
 11
1515.809165544903
 21
1884.544148794764
 31
0.0
  0
LINE
  5
2F0
330
64
100
AcDbEntity
  8
0
  6
Continuous
 62
     3
100
AcDbLine
 10
1520.929161544903
 20
1886.154012794764
 30
0.0
 11
1515.809165544903
 21
1886.154012794764
 31
0.0
  0
LINE
  5
2F1
330
64
100
AcDbEntity
  8
0
  6
Continuous
 62
     3
100
AcDbLine
 10
1520.929161544903
 20
1886.413778794764
 30
0.0
 11
1520.929161544903
 21
1886.154012794764
 31
0.0
  0
LINE
  5
2F2
330
64
100
AcDbEntity
  8
0
  6
Continuous
 62
     3
100
AcDbLine
 10
1515.809165544903
 20
1886.413778794764
 30
0.0
 11
1520.929161544903
 21
1886.413778794764
 31
0.0
  0
LINE
  5
2F3
330
64
100
AcDbEntity
  8
0
  6
Continuous
 62
     3
100
AcDbLine
 10
1515.809165544903
 20
1888.024130794764
 30
0.0
 11
1515.809165544903
 21
1886.413778794764
 31
0.0
  0
LINE
  5
2F4
330
64
100
AcDbEntity
  8
0
  6
Continuous
 62
     3
100
AcDbLine
 10
1520.929161544903
 20
1888.024130794764
 30
0.0
 11
1515.809165544903
 21
1888.024130794764
 31
0.0
  0
LINE
  5
2F5
330
64
100
AcDbEntity
  8
0
  6
Continuous
 62
     3
100
AcDbLine
 10
1520.929161544903
 20
1888.283894794764
 30
0.0
 11
1520.929161544903
 21
1888.024130794764
 31
0.0
  0
LINE
  5
2F6
330
64
100
AcDbEntity
  8
0
  6
Continuous
 62
     3
100
AcDbLine
 10
1514.728721544903
 20
1888.283894794764
 30
0.0
 11
1520.929161544903
 21
1888.283894794764
 31
0.0
  0
LINE
  5
2F7
330
64
100
AcDbEntity
  8
0
  6
Continuous
 62
     3
100
AcDbLine
 10
1506.249351544903
 20
1884.917196794764
 30
0.0
 11
1506.249351544903
 21
1887.650594794764
 31
0.0
  0
LINE
  5
2F8
330
64
100
AcDbEntity
  8
0
  6
Continuous
 62
     3
100
AcDbLine
 10
1511.069419544903
 20
1884.283894794764
 30
0.0
 11
1507.629111544903
 21
1884.283894794764
 31
0.0
  0
LINE
  5
2F9
330
64
100
AcDbEntity
  8
0
  6
Continuous
 62
     3
100
AcDbLine
 10
1512.449059544903
 20
1886.413778794764
 30
0.0
 11
1512.449059544903
 21
1884.917196794764
 31
0.0
  0
LINE
  5
2FA
330
64
100
AcDbEntity
  8
0
  6
Continuous
 62
     3
100
AcDbLine
 10
1509.649131544903
 20
1886.413778794764
 30
0.0
 11
1512.449059544903
 21
1886.413778794764
 31
0.0
  0
LINE
  5
2FB
330
64
100
AcDbEntity
  8
0
  6
Continuous
 62
     3
100
AcDbLine
 10
1509.649131544903
 20
1886.154012794764
 30
0.0
 11
1509.649131544903
 21
1886.413778794764
 31
0.0
  0
LINE
  5
2FC
330
64
100
AcDbEntity
  8
0
  6
Continuous
 62
     3
100
AcDbLine
 10
1511.368613544903
 20
1886.154012794764
 30
0.0
 11
1509.649131544903
 21
1886.154012794764
 31
0.0
  0
LINE
  5
2FD
330
64
100
AcDbEntity
  8
0
  6
Continuous
 62
     3
100
AcDbLine
 10
1511.368613544903
 20
1884.544148794764
 30
0.0
 11
1511.368613544903
 21
1886.154012794764
 31
0.0
  0
LINE
  5
2FE
330
64
100
AcDbEntity
  8
0
  6
Continuous
 62
     3
100
AcDbLine
 10
1507.329185544903
 20
1884.544148794764
 30
0.0
 11
1511.368613544903
 21
1884.544148794764
 31
0.0
  0
LINE
  5
2FF
330
64
100
AcDbEntity
  8
0
  6
Continuous
 62
     3
100
AcDbLine
 10
1507.329185544903
 20
1888.024130794764
 30
0.0
 11
1507.329185544903
 21
1884.544148794764
 31
0.0
  0
LINE
  5
300
330
64
100
AcDbEntity
  8
0
  6
Continuous
 62
     3
100
AcDbLine
 10
1511.368613544903
 20
1888.024130794764
 30
0.0
 11
1507.329185544903
 21
1888.024130794764
 31
0.0
  0
LINE
  5
301
330
64
100
AcDbEntity
  8
0
  6
Continuous
 62
     3
100
AcDbLine
 10
1511.368613544903
 20
1887.524130794764
 30
0.0
 11
1511.368613544903
 21
1888.024130794764
 31
0.0
  0
LINE
  5
302
330
64
100
AcDbEntity
  8
0
  6
Continuous
 62
     3
100
AcDbLine
 10
1512.449059544903
 20
1887.524130794764
 30
0.0
 11
1511.368613544903
 21
1887.524130794764
 31
0.0
  0
LINE
  5
303
330
64
100
AcDbEntity
  8
0
  6
Continuous
 62
     3
100
AcDbLine
 10
1512.449059544903
 20
1887.650594794764
 30
0.0
 11
1512.449059544903
 21
1887.524130794764
 31
0.0
  0
LINE
  5
304
330
64
100
AcDbEntity
  8
0
  6
Continuous
 62
     3
100
AcDbLine
 10
1507.629111544903
 20
1888.283894794764
 30
0.0
 11
1511.069419544903
 21
1888.283894794764
 31
0.0
  0
LINE
  5
305
330
64
100
AcDbEntity
  8
0
  6
Continuous
 62
     3
100
AcDbLine
 10
1725.175910647259
 20
1627.399756914589
 30
0.0
 11
1725.175910647259
 21
1633.680030914588
 31
0.0
  0
LINE
  5
306
330
64
100
AcDbEntity
  8
0
  6
Continuous
 62
     3
100
AcDbLine
 10
1760.115120647259
 20
1627.099952914588
 30
0.0
 11
1725.47583864726
 21
1627.099952914588
 31
0.0
  0
LINE
  5
307
330
64
100
AcDbEntity
  8
0
  6
Continuous
 62
     3
100
AcDbLine
 10
1760.415778647259
 20
1633.680030914588
 30
0.0
 11
1760.415778647259
 21
1627.399756914589
 31
0.0
  0
LINE
  5
308
330
64
100
AcDbEntity
  8
0
  6
Continuous
 62
     3
100
AcDbLine
 10
1725.47583864726
 20
1633.979834914588
 30
0.0
 11
1760.115120647259
 21
1633.979834914588
 31
0.0
  0
LINE
  5
309
330
64
100
AcDbEntity
  8
0
  6
Continuous
 62
     3
100
AcDbLine
 10
1724.09534464726
 20
1633.553566914588
 30
0.0
 11
1724.132332647259
 21
1633.647804914588
 31
0.0
  0
LINE
  5
30A
330
64
100
AcDbEntity
  8
0
  6
Continuous
 62
     3
100
AcDbLine
 10
1724.09534464726
 20
1627.473488914588
 30
0.0
 11
1724.09534464726
 21
1633.553566914588
 31
0.0
  0
LINE
  5
30B
330
64
100
AcDbEntity
  8
0
  6
Continuous
 62
     3
100
AcDbLine
 10
1760.115120647259
 20
1626.839698914588
 30
0.0
 11
1725.47583864726
 21
1626.839698914588
 31
0.0
  0
LINE
  5
30C
330
64
100
AcDbEntity
  8
0
  6
Continuous
 62
     3
100
AcDbLine
 10
1761.495612647259
 20
1633.606300914588
 30
0.0
 11
1761.495612647259
 21
1627.473488914588
 31
0.0
  0
LINE
  5
30D
330
64
100
AcDbEntity
  8
0
  6
Continuous
 62
     3
100
AcDbLine
 10
1725.47583864726
 20
1634.239600914589
 30
0.0
 11
1760.115120647259
 21
1634.239600914589
 31
0.0
  0
LINE
  5
30E
330
64
100
AcDbEntity
  8
0
  6
Continuous
 62
     3
100
AcDbLine
 10
1751.935798647259
 20
1628.479834914588
 30
0.0
 11
1751.935798647259
 21
1632.479834914588
 31
0.0
  0
LINE
  5
30F
330
64
100
AcDbEntity
  8
0
  6
Continuous
 62
     3
100
AcDbLine
 10
1758.135506647259
 20
1628.479834914588
 30
0.0
 11
1751.935798647259
 21
1628.479834914588
 31
0.0
  0
LINE
  5
310
330
64
100
AcDbEntity
  8
0
  6
Continuous
 62
     3
100
AcDbLine
 10
1758.135506647259
 20
1628.740088914588
 30
0.0
 11
1758.135506647259
 21
1628.479834914588
 31
0.0
  0
LINE
  5
311
330
64
100
AcDbEntity
  8
0
  6
Continuous
 62
     3
100
AcDbLine
 10
1753.015510647259
 20
1628.740088914588
 30
0.0
 11
1758.135506647259
 21
1628.740088914588
 31
0.0
  0
LINE
  5
312
330
64
100
AcDbEntity
  8
0
  6
Continuous
 62
     3
100
AcDbLine
 10
1753.015510647259
 20
1630.349952914588
 30
0.0
 11
1753.015510647259
 21
1628.740088914588
 31
0.0
  0
LINE
  5
313
330
64
100
AcDbEntity
  8
0
  6
Continuous
 62
     3
100
AcDbLine
 10
1758.135506647259
 20
1630.349952914588
 30
0.0
 11
1753.015510647259
 21
1630.349952914588
 31
0.0
  0
LINE
  5
314
330
64
100
AcDbEntity
  8
0
  6
Continuous
 62
     3
100
AcDbLine
 10
1758.135506647259
 20
1630.609718914588
 30
0.0
 11
1758.135506647259
 21
1630.349952914588
 31
0.0
  0
LINE
  5
315
330
64
100
AcDbEntity
  8
0
  6
Continuous
 62
     3
100
AcDbLine
 10
1753.015510647259
 20
1630.609718914588
 30
0.0
 11
1758.135506647259
 21
1630.609718914588
 31
0.0
  0
LINE
  5
316
330
64
100
AcDbEntity
  8
0
  6
Continuous
 62
     3
100
AcDbLine
 10
1753.015510647259
 20
1632.220070914588
 30
0.0
 11
1753.015510647259
 21
1630.609718914588
 31
0.0
  0
LINE
  5
317
330
64
100
AcDbEntity
  8
0
  6
Continuous
 62
     3
100
AcDbLine
 10
1758.135506647259
 20
1632.220070914588
 30
0.0
 11
1753.015510647259
 21
1632.220070914588
 31
0.0
  0
LINE
  5
318
330
64
100
AcDbEntity
  8
0
  6
Continuous
 62
     3
100
AcDbLine
 10
1758.135506647259
 20
1632.479834914588
 30
0.0
 11
1758.135506647259
 21
1632.220070914588
 31
0.0
  0
LINE
  5
319
330
64
100
AcDbEntity
  8
0
  6
Continuous
 62
     3
100
AcDbLine
 10
1751.935798647259
 20
1632.479834914588
 30
0.0
 11
1758.135506647259
 21
1632.479834914588
 31
0.0
  0
LINE
  5
31A
330
64
100
AcDbEntity
  8
0
  6
Continuous
 62
     3
100
AcDbLine
 10
1743.935676647259
 20
1632.220070914588
 30
0.0
 11
1743.935676647259
 21
1632.479834914588
 31
0.0
  0
LINE
  5
31B
330
64
100
AcDbEntity
  8
0
  6
Continuous
 62
     3
100
AcDbLine
 10
1749.518806647259
 20
1632.220070914588
 30
0.0
 11
1743.935676647259
 21
1632.220070914588
 31
0.0
  0
LINE
  5
31C
330
64
100
AcDbEntity
  8
0
  6
Continuous
 62
     3
100
AcDbLine
 10
1743.935676647259
 20
1628.869972914588
 30
0.0
 11
1749.518806647259
 21
1632.220070914588
 31
0.0
  0
LINE
  5
31D
330
64
100
AcDbEntity
  8
0
  6
Continuous
 62
     3
100
AcDbLine
 10
1743.935676647259
 20
1628.479834914588
 30
0.0
 11
1743.935676647259
 21
1628.869972914588
 31
0.0
  0
LINE
  5
31E
330
64
100
AcDbEntity
  8
0
  6
Continuous
 62
     3
100
AcDbLine
 10
1750.135384647259
 20
1628.479834914588
 30
0.0
 11
1743.935676647259
 21
1628.479834914588
 31
0.0
  0
LINE
  5
31F
330
64
100
AcDbEntity
  8
0
  6
Continuous
 62
     3
100
AcDbLine
 10
1750.135384647259
 20
1628.740088914588
 30
0.0
 11
1750.135384647259
 21
1628.479834914588
 31
0.0
  0
LINE
  5
320
330
64
100
AcDbEntity
  8
0
  6
Continuous
 62
     3
100
AcDbLine
 10
1744.552986647259
 20
1628.740088914588
 30
0.0
 11
1750.135384647259
 21
1628.740088914588
 31
0.0
  0
LINE
  5
321
330
64
100
AcDbEntity
  8
0
  6
Continuous
 62
     3
100
AcDbLine
 10
1750.135384647259
 20
1632.090186914588
 30
0.0
 11
1744.552986647259
 21
1628.740088914588
 31
0.0
  0
LINE
  5
322
330
64
100
AcDbEntity
  8
0
  6
Continuous
 62
     3
100
AcDbLine
 10
1750.135384647259
 20
1632.479834914588
 30
0.0
 11
1750.135384647259
 21
1632.090186914588
 31
0.0
  0
LINE
  5
323
330
64
100
AcDbEntity
  8
0
  6
Continuous
 62
     3
100
AcDbLine
 10
1743.935676647259
 20
1632.479834914588
 30
0.0
 11
1750.135384647259
 21
1632.479834914588
 31
0.0
  0
LINE
  5
324
330
64
100
AcDbEntity
  8
0
  6
Continuous
 62
     3
100
AcDbLine
 10
1735.935554647259
 20
1628.479834914588
 30
0.0
 11
1735.935554647259
 21
1632.479834914588
 31
0.0
  0
LINE
  5
325
330
64
100
AcDbEntity
  8
0
  6
Continuous
 62
     3
100
AcDbLine
 10
1742.135994647259
 20
1628.479834914588
 30
0.0
 11
1735.935554647259
 21
1628.479834914588
 31
0.0
  0
LINE
  5
326
330
64
100
AcDbEntity
  8
0
  6
Continuous
 62
     3
100
AcDbLine
 10
1742.135994647259
 20
1628.740088914588
 30
0.0
 11
1742.135994647259
 21
1628.479834914588
 31
0.0
  0
LINE
  5
327
330
64
100
AcDbEntity
  8
0
  6
Continuous
 62
     3
100
AcDbLine
 10
1737.015998647259
 20
1628.740088914588
 30
0.0
 11
1742.135994647259
 21
1628.740088914588
 31
0.0
  0
LINE
  5
328
330
64
100
AcDbEntity
  8
0
  6
Continuous
 62
     3
100
AcDbLine
 10
1737.015998647259
 20
1630.349952914588
 30
0.0
 11
1737.015998647259
 21
1628.740088914588
 31
0.0
  0
LINE
  5
329
330
64
100
AcDbEntity
  8
0
  6
Continuous
 62
     3
100
AcDbLine
 10
1742.135994647259
 20
1630.349952914588
 30
0.0
 11
1737.015998647259
 21
1630.349952914588
 31
0.0
  0
LINE
  5
32A
330
64
100
AcDbEntity
  8
0
  6
Continuous
 62
     3
100
AcDbLine
 10
1742.135994647259
 20
1630.609718914588
 30
0.0
 11
1742.135994647259
 21
1630.349952914588
 31
0.0
  0
LINE
  5
32B
330
64
100
AcDbEntity
  8
0
  6
Continuous
 62
     3
100
AcDbLine
 10
1737.015998647259
 20
1630.609718914588
 30
0.0
 11
1742.135994647259
 21
1630.609718914588
 31
0.0
  0
LINE
  5
32C
330
64
100
AcDbEntity
  8
0
  6
Continuous
 62
     3
100
AcDbLine
 10
1737.015998647259
 20
1632.220070914588
 30
0.0
 11
1737.015998647259
 21
1630.609718914588
 31
0.0
  0
LINE
  5
32D
330
64
100
AcDbEntity
  8
0
  6
Continuous
 62
     3
100
AcDbLine
 10
1742.135994647259
 20
1632.220070914588
 30
0.0
 11
1737.015998647259
 21
1632.220070914588
 31
0.0
  0
LINE
  5
32E
330
64
100
AcDbEntity
  8
0
  6
Continuous
 62
     3
100
AcDbLine
 10
1742.135994647259
 20
1632.479834914588
 30
0.0
 11
1742.135994647259
 21
1632.220070914588
 31
0.0
  0
LINE
  5
32F
330
64
100
AcDbEntity
  8
0
  6
Continuous
 62
     3
100
AcDbLine
 10
1735.935554647259
 20
1632.479834914588
 30
0.0
 11
1742.135994647259
 21
1632.479834914588
 31
0.0
  0
LINE
  5
330
330
64
100
AcDbEntity
  8
0
  6
Continuous
 62
     3
100
AcDbLine
 10
1727.456184647259
 20
1629.113136914588
 30
0.0
 11
1727.456184647259
 21
1631.846534914588
 31
0.0
  0
LINE
  5
331
330
64
100
AcDbEntity
  8
0
  6
Continuous
 62
     3
100
AcDbLine
 10
1732.276252647259
 20
1628.479834914588
 30
0.0
 11
1728.835944647259
 21
1628.479834914588
 31
0.0
  0
LINE
  5
332
330
64
100
AcDbEntity
  8
0
  6
Continuous
 62
     3
100
AcDbLine
 10
1733.655892647259
 20
1630.609718914588
 30
0.0
 11
1733.655892647259
 21
1629.113136914588
 31
0.0
  0
LINE
  5
333
330
64
100
AcDbEntity
  8
0
  6
Continuous
 62
     3
100
AcDbLine
 10
1730.855964647259
 20
1630.609718914588
 30
0.0
 11
1733.655892647259
 21
1630.609718914588
 31
0.0
  0
LINE
  5
334
330
64
100
AcDbEntity
  8
0
  6
Continuous
 62
     3
100
AcDbLine
 10
1730.855964647259
 20
1630.349952914588
 30
0.0
 11
1730.855964647259
 21
1630.609718914588
 31
0.0
  0
LINE
  5
335
330
64
100
AcDbEntity
  8
0
  6
Continuous
 62
     3
100
AcDbLine
 10
1732.575446647259
 20
1630.349952914588
 30
0.0
 11
1730.855964647259
 21
1630.349952914588
 31
0.0
  0
LINE
  5
336
330
64
100
AcDbEntity
  8
0
  6
Continuous
 62
     3
100
AcDbLine
 10
1732.575446647259
 20
1628.740088914588
 30
0.0
 11
1732.575446647259
 21
1630.349952914588
 31
0.0
  0
LINE
  5
337
330
64
100
AcDbEntity
  8
0
  6
Continuous
 62
     3
100
AcDbLine
 10
1728.536018647259
 20
1628.740088914588
 30
0.0
 11
1732.575446647259
 21
1628.740088914588
 31
0.0
  0
LINE
  5
338
330
64
100
AcDbEntity
  8
0
  6
Continuous
 62
     3
100
AcDbLine
 10
1728.536018647259
 20
1632.220070914588
 30
0.0
 11
1728.536018647259
 21
1628.740088914588
 31
0.0
  0
LINE
  5
339
330
64
100
AcDbEntity
  8
0
  6
Continuous
 62
     3
100
AcDbLine
 10
1732.575446647259
 20
1632.220070914588
 30
0.0
 11
1728.536018647259
 21
1632.220070914588
 31
0.0
  0
LINE
  5
33A
330
64
100
AcDbEntity
  8
0
  6
Continuous
 62
     3
100
AcDbLine
 10
1732.575446647259
 20
1631.720070914588
 30
0.0
 11
1732.575446647259
 21
1632.220070914588
 31
0.0
  0
LINE
  5
33B
330
64
100
AcDbEntity
  8
0
  6
Continuous
 62
     3
100
AcDbLine
 10
1733.655892647259
 20
1631.720070914588
 30
0.0
 11
1732.575446647259
 21
1631.720070914588
 31
0.0
  0
LINE
  5
33C
330
64
100
AcDbEntity
  8
0
  6
Continuous
 62
     3
100
AcDbLine
 10
1733.655892647259
 20
1631.846534914588
 30
0.0
 11
1733.655892647259
 21
1631.720070914588
 31
0.0
  0
LINE
  5
33D
330
64
100
AcDbEntity
  8
0
  6
Continuous
 62
     3
100
AcDbLine
 10
1728.835944647259
 20
1632.479834914588
 30
0.0
 11
1732.276252647259
 21
1632.479834914588
 31
0.0
  0
LINE
  5
33E
330
64
100
AcDbEntity
  8
1
  6
DASH_CENTER
 62
     3
100
AcDbLine
 10
1762.795480647259
 20
1582.43960091459
 30
0.0
 11
1762.795480647259
 21
1598.039600914589
 31
0.0
  0
LINE
  5
33F
330
64
100
AcDbEntity
  8
1
  6
DASH_CENTER
 62
     3
100
AcDbLine
 10
1754.995480647259
 20
1590.239600914589
 30
0.0
 11
1770.59548064726
 21
1590.239600914589
 31
0.0
  0
LINE
  5
340
330
64
100
AcDbEntity
  8
1
  6
DASH_CENTER
 62
     3
100
AcDbLine
 10
1762.795480647259
 20
1626.439600914589
 30
0.0
 11
1762.795480647259
 21
1642.03960091459
 31
0.0
  0
LINE
  5
341
330
64
100
AcDbEntity
  8
1
  6
DASH_CENTER
 62
     3
100
AcDbLine
 10
1754.995480647259
 20
1634.239600914589
 30
0.0
 11
1770.59548064726
 21
1634.239600914589
 31
0.0
  0
LINE
  5
342
330
64
100
AcDbEntity
  8
1
  6
DASH_CENTER
 62
     3
100
AcDbLine
 10
1722.795480647259
 20
1604.43960091459
 30
0.0
 11
1722.795480647259
 21
1620.039600914589
 31
0.0
  0
LINE
  5
343
330
64
100
AcDbEntity
  8
1
  6
DASH_CENTER
 62
     3
100
AcDbLine
 10
1714.99548064726
 20
1612.239600914589
 30
0.0
 11
1730.595480647259
 21
1612.239600914589
 31
0.0
  0
LINE
  5
344
330
64
100
AcDbEntity
  8
1
  6
DASH_CENTER
 62
     3
100
AcDbLine
 10
1762.795480647259
 20
1604.439600914589
 30
0.0
 11
1762.795480647259
 21
1620.03960091459
 31
0.0
  0
LINE
  5
345
330
64
100
AcDbEntity
  8
1
  6
DASH_CENTER
 62
     3
100
AcDbLine
 10
1755.665612031389
 20
1612.239600914589
 30
0.0
 11
1769.957994066814
 21
1612.239600914589
 31
0.0
  0
LINE
  5
346
330
64
100
AcDbEntity
  8
1
  6
DASH_CENTER
 62
     3
100
AcDbLine
 10
1722.795480647259
 20
1626.439600914589
 30
0.0
 11
1722.795480647259
 21
1642.03960091459
 31
0.0
  0
LINE
  5
347
330
64
100
AcDbEntity
  8
1
  6
DASH_CENTER
 62
     3
100
AcDbLine
 10
1714.995480647259
 20
1634.239600914589
 30
0.0
 11
1730.59548064726
 21
1634.239600914589
 31
0.0
  0
LINE
  5
348
330
64
100
AcDbEntity
  8
1
  6
DASH_CENTER
 62
     3
100
AcDbLine
 10
1722.795480647259
 20
1582.43960091459
 30
0.0
 11
1722.795480647259
 21
1598.039600914589
 31
0.0
  0
LINE
  5
349
330
64
100
AcDbEntity
  8
1
  6
DASH_CENTER
 62
     3
100
AcDbLine
 10
1714.99548064726
 20
1590.239600914589
 30
0.0
 11
1730.595480647259
 21
1590.239600914589
 31
0.0
  0
LINE
  5
34A
330
64
100
AcDbEntity
  8
1
  6
Continuous
 62
     3
100
AcDbLine
 10
1341.94216915975
 20
1589.667719752127
 30
0.0
 11
1376.462151511436
 21
1557.02769621984
 31
0.0
  0
LINE
  5
34B
330
64
100
AcDbEntity
  8
1
  6
Continuous
 62
     3
100
AcDbLine
 10
1690.356896044926
 20
1643.56928246401
 30
0.0
 11
1718.356896044926
 21
1622.56928246401
 31
0.0
  0
LINE
  5
34C
330
64
100
AcDbEntity
  8
0
  6
DASH_CENTER
 62
     3
100
AcDbLine
 10
1786.795480647259
 20
1552.24008891459
 30
0.0
 11
1785.795724647259
 21
1552.24008891459
 31
0.0
  0
LINE
  5
34D
330
64
100
AcDbEntity
  8
0
  6
DASH_CENTER
 62
     3
100
AcDbLine
 10
1742.795480647259
 20
1562.739600914589
 30
0.0
 11
1742.795480647259
 21
1649.615576914589
 31
0.0
  0
LINE
  5
34E
330
64
100
AcDbEntity
  8
0
  6
Continuous
 62
     4
100
AcDbLine
 10
1752.776560647259
 20
1571.74008891459
 30
0.0
 11
1753.79499264726
 21
1573.503760914589
 31
0.0
  0
LINE
  5
34F
330
64
100
AcDbEntity
  8
0
  6
Continuous
 62
     4
100
AcDbLine
 10
1731.79523664726
 20
1573.503760914589
 30
0.0
 11
1732.81354864726
 21
1571.74008891459
 31
0.0
  0
LINE
  5
350
330
64
100
AcDbEntity
  8
0
  6
Continuous
 62
     4
100
AcDbLine
 10
1753.79499264726
 20
1573.503760914589
 30
0.0
 11
1731.79523664726
 21
1573.503760914589
 31
0.0
  0
LINE
  5
351
330
64
100
AcDbEntity
  8
0
  6
Continuous
 62
     4
100
AcDbLine
 10
1355.29608064726
 20
1562.439794914589
 30
0.0
 11
1355.29608064726
 21
1532.44028291459
 31
0.0
  0
LINE
  5
352
330
64
100
AcDbEntity
  8
0
  6
Continuous
 62
     1
100
AcDbLine
 10
1355.29608064726
 20
1532.44028291459
 30
0.0
 11
1801.795480647259
 21
1532.44028291459
 31
0.0
  0
LINE
  5
353
330
64
100
AcDbEntity
  8
0
  6
Continuous
 62
     4
100
AcDbLine
 10
1801.795480647259
 20
1532.44028291459
 30
0.0
 11
1801.795480647259
 21
1562.439794914589
 31
0.0
  0
LINE
  5
354
330
64
100
AcDbEntity
  8
0
  6
Continuous
 62
     1
100
AcDbLine
 10
1801.795480647259
 20
1562.439794914589
 30
0.0
 11
1355.29608064726
 21
1562.439794914589
 31
0.0
  0
LINE
  5
355
330
64
100
AcDbEntity
  8
0
  6
Continuous
 62
     4
100
AcDbLine
 10
1753.79499264726
 20
1565.74008891459
 30
0.0
 11
1376.795236647259
 21
1565.74008891459
 31
0.0
  0
LINE
  5
356
330
64
100
AcDbEntity
  8
0
  6
DASH_CENTER
 62
     3
100
AcDbLine
 10
1387.795480647259
 20
1575.739600914589
 30
0.0
 11
1387.795480647259
 21
1555.739600914589
 31
0.0
  0
LINE
  5
357
330
64
100
AcDbEntity
  8
0
  6
Continuous
 62
     4
100
AcDbLine
 10
1392.045602647259
 20
1572.739600914589
 30
0.0
 11
1383.545358647259
 21
1572.739600914589
 31
0.0
  0
LINE
  5
358
330
64
100
AcDbEntity
  8
0
  6
Continuous
 62
     4
100
AcDbLine
 10
1383.545358647259
 20
1572.739600914589
 30
0.0
 11
1382.545846647259
 21
1571.74008891459
 31
0.0
  0
LINE
  5
359
330
64
100
AcDbEntity
  8
0
  6
Continuous
 62
     4
100
AcDbLine
 10
1392.045602647259
 20
1572.739600914589
 30
0.0
 11
1393.045236647259
 21
1571.74008891459
 31
0.0
  0
LINE
  5
35A
330
64
100
AcDbEntity
  8
0
  6
Continuous
 62
     4
100
AcDbLine
 10
1376.795236647259
 20
1571.74008891459
 30
0.0
 11
1753.79499264726
 21
1571.74008891459
 31
0.0
  0
LINE
  5
35B
330
64
100
AcDbEntity
  8
0
  6
Continuous
 62
     4
100
AcDbLine
 10
1379.795480647259
 20
1565.74008891459
 30
0.0
 11
1379.795480647259
 21
1562.439794914589
 31
0.0
  0
LINE
  5
35C
330
64
100
AcDbEntity
  8
0
  6
Continuous
 62
     4
100
AcDbLine
 10
1395.795480647259
 20
1565.74008891459
 30
0.0
 11
1395.795480647259
 21
1562.439794914589
 31
0.0
  0
LINE
  5
35D
330
64
100
AcDbEntity
  8
0
  6
Continuous
 62
     4
100
AcDbLine
 10
1376.795236647259
 20
1565.74008891459
 30
0.0
 11
1376.795236647259
 21
1571.74008891459
 31
0.0
  0
LINE
  5
35E
330
64
100
AcDbEntity
  8
0
  6
DASH_CENTER
 62
     3
100
AcDbLine
 10
1371.295958647259
 20
1552.24008891459
 30
0.0
 11
1355.782896647259
 21
1552.24008891459
 31
0.0
  0
LINE
  5
35F
330
64
100
AcDbEntity
  8
0
  6
DASH_CENTER
 62
     3
100
AcDbLine
 10
1364.29608064726
 20
1545.239600914589
 30
0.0
 11
1364.29608064726
 21
1559.24008891459
 31
0.0
  0
LINE
  5
360
330
64
100
AcDbEntity
  8
0
  6
Continuous
 62
     4
100
AcDbLine
 10
1753.79499264726
 20
1571.74008891459
 30
0.0
 11
1753.79499264726
 21
1565.74008891459
 31
0.0
  0
LINE
  5
361
330
64
100
AcDbEntity
  8
0
  6
Continuous
 62
     4
100
AcDbLine
 10
1731.79523664726
 20
1573.503760914589
 30
0.0
 11
1731.79523664726
 21
1575.239600914589
 31
0.0
  0
LINE
  5
362
330
64
100
AcDbEntity
  8
0
  6
Continuous
 62
     4
100
AcDbLine
 10
1753.79499264726
 20
1582.239600914589
 30
0.0
 11
1753.79499264726
 21
1575.239600914589
 31
0.0
  0
LINE
  5
363
330
64
100
AcDbEntity
  8
0
  6
DASH_CENTER
 62
     3
100
AcDbLine
 10
1799.79609064726
 20
1552.24008891459
 30
0.0
 11
1786.795480647259
 21
1552.24008891459
 31
0.0
  0
LINE
  5
364
330
64
100
AcDbEntity
  8
0
  6
DASH_CENTER
 62
     3
100
AcDbLine
 10
1792.795480647259
 20
1545.239600914589
 30
0.0
 11
1792.795480647259
 21
1559.24008891459
 31
0.0
  0
LINE
  5
365
330
64
100
AcDbEntity
  8
0
  6
Continuous
 62
     1
100
AcDbLine
 10
1352.306691665714
 20
1532.44028291459
 30
0.0
 11
1804.795480647259
 21
1532.44028291459
 31
0.0
  0
LINE
  5
366
330
64
100
AcDbEntity
  8
0
  6
Continuous
 62
     4
100
AcDbLine
 10
1352.306691665714
 20
1532.44028291459
 30
0.0
 11
1352.306691665714
 21
1562.439794914589
 31
0.0
  0
LINE
  5
367
330
64
100
AcDbEntity
  8
0
  6
Continuous
 62
     1
100
AcDbLine
 10
1352.306691665714
 20
1562.439794914589
 30
0.0
 11
1355.29608064726
 21
1562.439794914589
 31
0.0
  0
LINE
  5
368
330
64
100
AcDbEntity
  8
0
  6
Continuous
 62
     4
100
AcDbLine
 10
1804.795480647259
 20
1532.44028291459
 30
0.0
 11
1804.795480647259
 21
1562.439794914589
 31
0.0
  0
LINE
  5
369
330
64
100
AcDbEntity
  8
0
  6
Continuous
 62
     4
100
AcDbLine
 10
1804.795480647259
 20
1562.439794914589
 30
0.0
 11
1801.795480647259
 21
1562.439794914589
 31
0.0
  0
LINE
  5
36A
330
64
100
AcDbEntity
  8
0
  6
Continuous
 62
     4
100
AcDbLine
 10
1753.79499264726
 20
1575.239600914589
 30
0.0
 11
1753.79499264726
 21
1573.503760914589
 31
0.0
  0
LINE
  5
36B
330
64
100
AcDbEntity
  8
0
  6
Continuous
 62
     4
100
AcDbLine
 10
1731.79523664726
 20
1575.239600914589
 30
0.0
 11
1731.79523664726
 21
1582.239600914589
 31
0.0
  0
LINE
  5
36C
330
64
100
AcDbEntity
  8
1
  6
DOT_CENTER
 62
     3
100
AcDbLine
 10
1762.795480647259
 20
1643.239600914589
 30
0.0
 11
1762.795480647259
 21
1625.239600914589
 31
0.0
  0
LINE
  5
36D
330
64
100
AcDbEntity
  8
1
  6
DOT_CENTER
 62
     3
100
AcDbLine
 10
1771.795480647259
 20
1634.239600914589
 30
0.0
 11
1753.795480647259
 21
1634.239600914589
 31
0.0
  0
LINE
  5
36E
330
64
100
AcDbEntity
  8
1
  6
DOT_CENTER
 62
     3
100
AcDbLine
 10
1722.795480647259
 20
1643.239600914589
 30
0.0
 11
1722.795480647259
 21
1625.239600914589
 31
0.0
  0
LINE
  5
36F
330
64
100
AcDbEntity
  8
1
  6
DOT_CENTER
 62
     3
100
AcDbLine
 10
1731.795480647259
 20
1634.239600914589
 30
0.0
 11
1713.795480647259
 21
1634.239600914589
 31
0.0
  0
LINE
  5
370
330
64
100
AcDbEntity
  8
0
  6
Continuous
 62
     3
100
AcDbLine
 10
1764.56330264726
 20
1632.472022914589
 30
0.0
 11
1761.02790264726
 21
1636.00766691459
 31
0.0
  0
LINE
  5
371
330
64
100
AcDbEntity
  8
0
  6
Continuous
 62
     3
100
AcDbLine
 10
1764.56354664726
 20
1636.00766691459
 30
0.0
 11
1761.028146647259
 21
1632.472022914589
 31
0.0
  0
LINE
  5
372
330
64
100
AcDbEntity
  8
0
  6
Continuous
 62
     3
100
AcDbLine
 10
1724.56330264726
 20
1632.472022914589
 30
0.0
 11
1721.02778064726
 21
1636.00766691459
 31
0.0
  0
LINE
  5
373
330
64
100
AcDbEntity
  8
0
  6
Continuous
 62
     3
100
AcDbLine
 10
1724.56342464726
 20
1636.00766691459
 30
0.0
 11
1721.02790264726
 21
1632.472022914589
 31
0.0
  0
LINE
  5
374
330
64
100
AcDbEntity
  8
1
  6
DOT_CENTER
 62
     3
100
AcDbLine
 10
1762.795480647259
 20
1599.239600914589
 30
0.0
 11
1762.795480647259
 21
1581.239600914589
 31
0.0
  0
LINE
  5
375
330
64
100
AcDbEntity
  8
1
  6
DOT_CENTER
 62
     3
100
AcDbLine
 10
1722.795480647259
 20
1599.239600914589
 30
0.0
 11
1722.795480647259
 21
1581.239600914589
 31
0.0
  0
LINE
  5
376
330
64
100
AcDbEntity
  8
1
  6
DOT_CENTER
 62
     3
100
AcDbLine
 10
1731.795480647259
 20
1590.239600914589
 30
0.0
 11
1713.795480647259
 21
1590.239600914589
 31
0.0
  0
LINE
  5
377
330
64
100
AcDbEntity
  8
1
  6
DOT_CENTER
 62
     3
100
AcDbLine
 10
1771.795480647259
 20
1590.239600914589
 30
0.0
 11
1753.795480647259
 21
1590.239600914589
 31
0.0
  0
LINE
  5
378
330
64
100
AcDbEntity
  8
0
  6
Continuous
 62
     3
100
AcDbLine
 10
1724.56330264726
 20
1588.472022914589
 30
0.0
 11
1721.02778064726
 21
1592.00766691459
 31
0.0
  0
LINE
  5
379
330
64
100
AcDbEntity
  8
0
  6
Continuous
 62
     3
100
AcDbLine
 10
1724.56342464726
 20
1592.00766691459
 30
0.0
 11
1721.02790264726
 21
1588.472022914589
 31
0.0
  0
LINE
  5
37A
330
64
100
AcDbEntity
  8
0
  6
Continuous
 62
     3
100
AcDbLine
 10
1764.56342464726
 20
1588.472022914589
 30
0.0
 11
1761.02790264726
 21
1592.00766691459
 31
0.0
  0
LINE
  5
37B
330
64
100
AcDbEntity
  8
0
  6
Continuous
 62
     3
100
AcDbLine
 10
1764.56354664726
 20
1592.00766691459
 30
0.0
 11
1761.02802464726
 21
1588.472022914589
 31
0.0
  0
LINE
  5
37C
330
64
100
AcDbEntity
  8
0
  6
Continuous
 62
     1
100
AcDbLine
 10
1772.795480647259
 20
1641.637365643893
 30
0.0
 11
1772.795480647259
 21
1642.239600914591
 31
0.0
  0
LINE
  5
37D
330
64
100
AcDbEntity
  8
0
  6
Continuous
 62
     1
100
AcDbLine
 10
1712.795480647259
 20
1582.841836185284
 30
0.0
 11
1712.795480647259
 21
1582.239600914589
 31
0.0
  0
LINE
  5
37E
330
64
100
AcDbEntity
  8
0
  6
Continuous
 62
     4
100
AcDbLine
 10
1712.795480647259
 20
1641.637365643893
 30
0.0
 11
1772.795480647259
 21
1641.637365643893
 31
0.0
  0
LINE
  5
37F
330
64
100
AcDbEntity
  8
0
  6
Continuous
 62
     1
100
AcDbLine
 10
1712.795480647259
 20
1641.637365643893
 30
0.0
 11
1712.795480647259
 21
1582.841836185284
 31
0.0
  0
LINE
  5
380
330
64
100
AcDbEntity
  8
0
  6
Continuous
 62
     1
100
AcDbLine
 10
1772.795480647259
 20
1582.239600914589
 30
0.0
 11
1772.795480647259
 21
1582.841836185284
 31
0.0
  0
LINE
  5
381
330
64
100
AcDbEntity
  8
0
  6
Continuous
 62
     1
100
AcDbLine
 10
1772.795480647259
 20
1641.637365643893
 30
0.0
 11
1772.795480647259
 21
1582.841836185284
 31
0.0
  0
LINE
  5
382
330
64
100
AcDbEntity
  8
0
  6
Continuous
 62
     4
100
AcDbLine
 10
1712.795480647259
 20
1642.239600914591
 30
0.0
 11
1772.795480647259
 21
1642.239600914591
 31
0.0
  0
LINE
  5
383
330
64
100
AcDbEntity
  8
0
  6
Continuous
 62
     1
100
AcDbLine
 10
1712.795480647259
 20
1642.239600914591
 30
0.0
 11
1712.795480647259
 21
1641.637365643893
 31
0.0
  0
LINE
  5
384
330
64
100
AcDbEntity
  8
0
  6
Continuous
 62
     4
100
AcDbLine
 10
1712.795480647259
 20
1582.841836185284
 30
0.0
 11
1772.795480647259
 21
1582.841836185284
 31
0.0
  0
LINE
  5
385
330
64
100
AcDbEntity
  8
0
  6
Continuous
 62
     4
100
AcDbLine
 10
1712.795480647259
 20
1582.239600914589
 30
0.0
 11
1772.795480647259
 21
1582.239600914589
 31
0.0
  0
LINE
  5
386
330
64
100
AcDbEntity
  8
1
  6
Continuous
 62
     1
100
AcDbLine
 10
1731.79523664726
 20
1564.04038291459
 30
0.0
 11
1864.295480647257
 21
1564.04038291459
 31
0.0
  0
LINE
  5
387
330
64
100
AcDbEntity
  8
1
  6
Continuous
 62
     1
100
AcDbLine
 10
1864.295480647257
 20
1564.04038291459
 30
0.0
 11
1864.295480647257
 21
1459.88262091459
 31
0.0
  0
LINE
  5
388
330
64
100
AcDbEntity
  8
1
  6
Continuous
 62
     1
100
AcDbLine
 10
1315.902196072918
 20
1564.04038291459
 30
0.0
 11
1731.79523664726
 21
1564.04038291459
 31
0.0
  0
LINE
  5
389
330
64
100
AcDbEntity
  8
1
  6
DASH_CENTER
 62
     3
100
AcDbLine
 10
1315.907906410295
 20
1648.244442794766
 30
0.0
 11
1948.499540527433
 21
1648.244442794766
 31
0.0
  0
LINE
  5
38A
330
64
100
AcDbEntity
  8
1
  6
Continuous
 62
     1
100
AcDbLine
 10
1948.499540527433
 20
1648.244442794766
 30
0.0
 11
1864.295480647257
 21
1564.04038291459
 31
0.0
  0
LINE
  5
38B
330
64
100
AcDbEntity
  8
0
  6
DASH_CENTER
 62
     3
100
AcDbLine
 10
1315.902196072918
 20
1564.04038291459
 30
0.0
 11
1315.907906410295
 21
1648.244442794766
 31
0.0
  0
LINE
  5
38C
330
64
100
AcDbEntity
  8
0
  6
DASH_CENTER
 62
     3
100
AcDbLine
 10
1315.901450102816
 20
1553.040382914589
 30
0.0
 11
1315.902196072918
 21
1564.04038291459
 31
0.0
  0
LINE
  5
38D
330
64
100
AcDbEntity
  8
1
  6
LONG_DASHED
 62
     3
100
AcDbLine
 10
1315.905112137861
 20
1618.040382914591
 30
0.0
 11
1918.295480647259
 21
1618.040382914591
 31
0.0
  0
LINE
  5
38E
330
64
100
AcDbEntity
  8
1
  6
LONG_DASHED
 62
     3
100
AcDbLine
 10
1315.904366167759
 20
1607.04038291459
 30
0.0
 11
1907.295480647257
 21
1607.04038291459
 31
0.0
  0
LINE
  5
38F
330
64
100
AcDbEntity
  8
1
  6
LONG_DASHED
 62
     3
100
AcDbLine
 10
1918.295480647259
 20
1618.040382914591
 30
0.0
 11
1918.295480647259
 21
1459.88262091459
 31
0.0
  0
LINE
  5
390
330
64
100
AcDbEntity
  8
1
  6
LONG_DASHED
 62
     3
100
AcDbLine
 10
1907.295480647257
 20
1607.04038291459
 30
0.0
 11
1907.295480647257
 21
1459.88262091459
 31
0.0
  0
LINE
  5
391
330
64
100
AcDbEntity
  8
1
  6
Continuous
 62
     1
100
AcDbLine
 10
1315.901450102816
 20
1575.04038291459
 30
0.0
 11
1731.79523664726
 21
1575.04038291459
 31
0.0
  0
LINE
  5
392
330
64
100
AcDbEntity
  8
1
  6
DASH_CENTER
 62
     3
100
AcDbLine
 10
1948.499540527433
 20
1459.88262091459
 30
0.0
 11
1948.499540527433
 21
1648.244442794766
 31
0.0
  0
LINE
  5
393
330
64
100
AcDbEntity
  8
0
  6
DASH_CENTER
 62
     3
100
AcDbLine
 10
1315.88458566473
 20
1459.88262091459
 30
0.0
 11
1315.901450102816
 21
1575.04038291459
 31
0.0
  0
LINE
  5
394
330
64
100
AcDbEntity
  8
1
  6
Continuous
 62
     1
100
AcDbLine
 10
1731.79523664726
 20
1575.04038291459
 30
0.0
 11
1875.295480647257
 21
1575.04038291459
 31
0.0
  0
LINE
  5
395
330
64
100
AcDbEntity
  8
0
  6
Continuous
 62
     1
100
AcDbLine
 10
1875.295480647257
 20
1575.04038291459
 30
0.0
 11
1875.295480647258
 21
1459.88262091459
 31
0.0
  0
LINE
  5
396
330
64
100
AcDbEntity
  8
0
  6
LONG_DASHED
 62
     3
100
AcDbLine
 10
1901.795480647259
 20
1459.88262091459
 30
0.0
 11
1901.795480647259
 21
1488.04087291459
 31
0.0
  0
LINE
  5
397
330
64
100
AcDbEntity
  8
0
  6
LONG_DASHED
 62
     3
100
AcDbLine
 10
1923.795480647259
 20
1459.88262091459
 30
0.0
 11
1923.795480647259
 21
1488.04087291459
 31
0.0
  0
LINE
  5
398
330
64
100
AcDbEntity
  8
0
  6
Continuous
 62
     3
100
AcDbLine
 10
1901.795480647259
 20
1488.04087291459
 30
0.0
 11
1923.795480647259
 21
1488.04087291459
 31
0.0
  0
LINE
  5
399
330
64
100
AcDbEntity
  8
0
  6
DOT_CENTER
 62
     3
100
AcDbLine
 10
1912.795480647259
 20
1459.88262091459
 30
0.0
 11
1912.795480647259
 21
1508.04087291459
 31
0.0
  0
LINE
  5
39A
330
64
100
AcDbEntity
  8
0
  6
DASH_CENTER
 62
     3
100
AcDbLine
 10
1315.88458566473
 20
1459.88262091459
 30
0.0
 11
1948.499540527433
 21
1459.88262091459
 31
0.0
  0
LINE
  5
39B
330
64
100
AcDbEntity
  8
0
  6
DASH_CENTER
 62
     3
100
AcDbLine
 10
1315.88458566473
 20
1715.686680794766
 30
0.0
 11
1948.499540527433
 21
1715.686680794766
 31
0.0
  0
LINE
  5
39C
330
64
100
AcDbEntity
  8
0
  6
DOT_CENTER
 62
     3
100
AcDbLine
 10
1351.588645544904
 20
1763.844932794766
 30
0.0
 11
1351.588645544904
 21
1715.686680794766
 31
0.0
  0
LINE
  5
39D
330
64
100
AcDbEntity
  8
0
  6
Continuous
 62
     3
100
AcDbLine
 10
1340.588645544904
 20
1743.844932794766
 30
0.0
 11
1362.588645544904
 21
1743.844932794766
 31
0.0
  0
LINE
  5
39E
330
64
100
AcDbEntity
  8
0
  6
LONG_DASHED
 62
     3
100
AcDbLine
 10
1340.588645544904
 20
1743.844932794766
 30
0.0
 11
1340.588645544904
 21
1715.686680794766
 31
0.0
  0
LINE
  5
39F
330
64
100
AcDbEntity
  8
0
  6
LONG_DASHED
 62
     3
100
AcDbLine
 10
1362.588645544904
 20
1743.844932794766
 30
0.0
 11
1362.588645544904
 21
1715.686680794766
 31
0.0
  0
LINE
  5
3A0
330
64
100
AcDbEntity
  8
0
  6
Continuous
 62
     1
100
AcDbLine
 10
1389.088645544905
 20
1715.686680794766
 30
0.0
 11
1389.088645544906
 21
1830.844442794766
 31
0.0
  0
LINE
  5
3A1
330
64
100
AcDbEntity
  8
1
  6
Continuous
 62
     1
100
AcDbLine
 10
1389.088645544906
 20
1830.844442794766
 30
0.0
 11
1532.588889544904
 21
1830.844442794766
 31
0.0
  0
LINE
  5
3A2
330
64
100
AcDbEntity
  8
0
  6
DASH_CENTER
 62
     3
100
AcDbLine
 10
1948.482676089347
 20
1830.844442794766
 30
0.0
 11
1948.499540527433
 21
1715.686680794766
 31
0.0
  0
LINE
  5
3A3
330
64
100
AcDbEntity
  8
1
  6
DASH_CENTER
 62
     3
100
AcDbLine
 10
1315.88458566473
 20
1904.048502674942
 30
0.0
 11
1315.88458566473
 21
1715.686680794766
 31
0.0
  0
LINE
  5
3A4
330
64
100
AcDbEntity
  8
1
  6
Continuous
 62
     1
100
AcDbLine
 10
1532.588889544904
 20
1830.844442794766
 30
0.0
 11
1948.482676089347
 21
1830.844442794766
 31
0.0
  0
LINE
  5
3A5
330
64
100
AcDbEntity
  8
1
  6
LONG_DASHED
 62
     3
100
AcDbLine
 10
1357.088645544906
 20
1715.686680794766
 30
0.0
 11
1357.088645544906
 21
1862.844442794766
 31
0.0
  0
LINE
  5
3A6
330
64
100
AcDbEntity
  8
1
  6
LONG_DASHED
 62
     3
100
AcDbLine
 10
1346.088645544905
 20
1715.686680794766
 30
0.0
 11
1346.088645544905
 21
1873.844442794767
 31
0.0
  0
LINE
  5
3A7
330
64
100
AcDbEntity
  8
1
  6
LONG_DASHED
 62
     3
100
AcDbLine
 10
1357.088645544906
 20
1862.844442794766
 30
0.0
 11
1948.479760024404
 21
1862.844442794766
 31
0.0
  0
LINE
  5
3A8
330
64
100
AcDbEntity
  8
1
  6
LONG_DASHED
 62
     3
100
AcDbLine
 10
1346.088645544905
 20
1873.844442794767
 30
0.0
 11
1948.479014054302
 21
1873.844442794767
 31
0.0
  0
LINE
  5
3A9
330
64
100
AcDbEntity
  8
0
  6
DASH_CENTER
 62
     3
100
AcDbLine
 10
1948.481930119245
 20
1819.844442794766
 30
0.0
 11
1948.482676089347
 21
1808.844442794765
 31
0.0
  0
LINE
  5
3AA
330
64
100
AcDbEntity
  8
0
  6
DASH_CENTER
 62
     3
100
AcDbLine
 10
1948.476219781868
 20
1904.048502674942
 30
0.0
 11
1948.481930119245
 21
1819.844442794766
 31
0.0
  0
LINE
  5
3AB
330
64
100
AcDbEntity
  8
1
  6
Continuous
 62
     1
100
AcDbLine
 10
1400.088645544906
 20
1819.844442794766
 30
0.0
 11
1315.88458566473
 21
1904.048502674942
 31
0.0
  0
LINE
  5
3AC
330
64
100
AcDbEntity
  8
1
  6
DASH_CENTER
 62
     3
100
AcDbLine
 10
1315.88458566473
 20
1904.048502674942
 30
0.0
 11
1948.476219781868
 21
1904.048502674942
 31
0.0
  0
LINE
  5
3AD
330
64
100
AcDbEntity
  8
1
  6
Continuous
 62
     1
100
AcDbLine
 10
1532.588889544904
 20
1819.844442794766
 30
0.0
 11
1948.481930119245
 21
1819.844442794766
 31
0.0
  0
LINE
  5
3AE
330
64
100
AcDbEntity
  8
1
  6
Continuous
 62
     1
100
AcDbLine
 10
1400.088645544906
 20
1715.686680794766
 30
0.0
 11
1400.088645544906
 21
1819.844442794766
 31
0.0
  0
LINE
  5
3AF
330
64
100
AcDbEntity
  8
1
  6
Continuous
 62
     1
100
AcDbLine
 10
1400.088645544906
 20
1819.844442794766
 30
0.0
 11
1532.588889544904
 21
1819.844442794766
 31
0.0
  0
LINE
  5
3B0
330
64
100
AcDbEntity
  8
1
  6
DASH_CENTER
 62
     3
100
AcDbLine
 10
1541.588645544903
 20
1853.843660794765
 30
0.0
 11
1541.588645544903
 21
1838.243660794766
 31
0.0
  0
LINE
  5
3B1
330
64
100
AcDbEntity
  8
1
  6
DASH_CENTER
 62
     3
100
AcDbLine
 10
1533.788645544904
 20
1846.043660794765
 30
0.0
 11
1549.388645544903
 21
1846.043660794765
 31
0.0
  0
LINE
  5
3B2
330
64
100
AcDbEntity
  8
1
  6
DASH_CENTER
 62
     3
100
AcDbLine
 10
1541.588645544903
 20
1897.843660794766
 30
0.0
 11
1541.588645544903
 21
1882.243660794765
 31
0.0
  0
LINE
  5
3B3
330
64
100
AcDbEntity
  8
1
  6
DASH_CENTER
 62
     3
100
AcDbLine
 10
1533.788645544903
 20
1890.043660794765
 30
0.0
 11
1549.388645544904
 21
1890.043660794765
 31
0.0
  0
LINE
  5
3B4
330
64
100
AcDbEntity
  8
1
  6
DASH_CENTER
 62
     3
100
AcDbLine
 10
1501.588645544903
 20
1875.843660794766
 30
0.0
 11
1501.588645544903
 21
1860.243660794765
 31
0.0
  0
LINE
  5
3B5
330
64
100
AcDbEntity
  8
1
  6
DASH_CENTER
 62
     3
100
AcDbLine
 10
1494.426132125349
 20
1868.043660794765
 30
0.0
 11
1508.718514160775
 21
1868.043660794765
 31
0.0
  0
LINE
  5
3B6
330
64
100
AcDbEntity
  8
1
  6
DASH_CENTER
 62
     3
100
AcDbLine
 10
1541.588645544903
 20
1875.843660794765
 30
0.0
 11
1541.588645544903
 21
1860.243660794766
 31
0.0
  0
LINE
  5
3B7
330
64
100
AcDbEntity
  8
1
  6
DASH_CENTER
 62
     3
100
AcDbLine
 10
1533.788645544904
 20
1868.043660794765
 30
0.0
 11
1549.388645544903
 21
1868.043660794765
 31
0.0
  0
LINE
  5
3B8
330
64
100
AcDbEntity
  8
1
  6
DASH_CENTER
 62
     3
100
AcDbLine
 10
1501.588645544903
 20
1897.843660794766
 30
0.0
 11
1501.588645544903
 21
1882.243660794765
 31
0.0
  0
LINE
  5
3B9
330
64
100
AcDbEntity
  8
1
  6
DASH_CENTER
 62
     3
100
AcDbLine
 10
1493.788645544903
 20
1890.043660794765
 30
0.0
 11
1509.388645544904
 21
1890.043660794765
 31
0.0
  0
LINE
  5
3BA
330
64
100
AcDbEntity
  8
1
  6
DASH_CENTER
 62
     3
100
AcDbLine
 10
1501.588645544903
 20
1853.843660794765
 30
0.0
 11
1501.588645544903
 21
1838.243660794766
 31
0.0
  0
LINE
  5
3BB
330
64
100
AcDbEntity
  8
1
  6
DASH_CENTER
 62
     3
100
AcDbLine
 10
1493.788645544903
 20
1846.043660794765
 30
0.0
 11
1509.388645544904
 21
1846.043660794765
 31
0.0
  0
LINE
  5
3BC
330
64
100
AcDbEntity
  8
0
  6
Continuous
 62
     4
100
AcDbLine
 10
1491.588645544903
 20
1838.043660794765
 30
0.0
 11
1551.588645544904
 21
1838.043660794765
 31
0.0
  0
LINE
  5
3BD
330
64
100
AcDbEntity
  8
0
  6
Continuous
 62
     4
100
AcDbLine
 10
1491.588645544903
 20
1838.64589606546
 30
0.0
 11
1551.588645544904
 21
1838.64589606546
 31
0.0
  0
LINE
  5
3BE
330
64
100
AcDbEntity
  8
0
  6
Continuous
 62
     1
100
AcDbLine
 10
1551.588645544904
 20
1897.441425524069
 30
0.0
 11
1551.588645544904
 21
1898.043660794767
 31
0.0
  0
LINE
  5
3BF
330
64
100
AcDbEntity
  8
0
  6
Continuous
 62
     4
100
AcDbLine
 10
1491.588645544903
 20
1898.043660794767
 30
0.0
 11
1551.588645544904
 21
1898.043660794767
 31
0.0
  0
LINE
  5
3C0
330
64
100
AcDbEntity
  8
0
  6
Continuous
 62
     1
100
AcDbLine
 10
1491.588645544903
 20
1838.64589606546
 30
0.0
 11
1491.588645544903
 21
1897.441425524069
 31
0.0
  0
LINE
  5
3C1
330
64
100
AcDbEntity
  8
0
  6
Continuous
 62
     1
100
AcDbLine
 10
1491.588645544903
 20
1838.64589606546
 30
0.0
 11
1491.588645544903
 21
1838.043660794765
 31
0.0
  0
LINE
  5
3C2
330
64
100
AcDbEntity
  8
0
  6
Continuous
 62
     1
100
AcDbLine
 10
1551.588645544904
 20
1838.64589606546
 30
0.0
 11
1551.588645544904
 21
1897.441425524069
 31
0.0
  0
LINE
  5
3C3
330
64
100
AcDbEntity
  8
0
  6
Continuous
 62
     4
100
AcDbLine
 10
1491.588645544903
 20
1897.441425524069
 30
0.0
 11
1551.588645544904
 21
1897.441425524069
 31
0.0
  0
LINE
  5
3C4
330
64
100
AcDbEntity
  8
0
  6
Continuous
 62
     1
100
AcDbLine
 10
1551.588645544904
 20
1838.043660794765
 30
0.0
 11
1551.588645544904
 21
1838.64589606546
 31
0.0
  0
LINE
  5
3C5
330
64
100
AcDbEntity
  8
0
  6
Continuous
 62
     1
100
AcDbLine
 10
1491.588645544903
 20
1898.043660794767
 30
0.0
 11
1491.588645544903
 21
1897.441425524069
 31
0.0
  0
LINE
  5
3C6
330
64
100
AcDbEntity
  8
0
  6
Continuous
 62
     3
100
AcDbLine
 10
1503.356101544903
 20
1844.276082794765
 30
0.0
 11
1499.820579544903
 21
1847.811726794766
 31
0.0
  0
LINE
  5
3C7
330
64
100
AcDbEntity
  8
0
  6
Continuous
 62
     3
100
AcDbLine
 10
1503.356223544903
 20
1847.811726794766
 30
0.0
 11
1499.820701544903
 21
1844.276082794765
 31
0.0
  0
LINE
  5
3C8
330
64
100
AcDbEntity
  8
0
  6
Continuous
 62
     3
100
AcDbLine
 10
1543.356223544904
 20
1844.276082794765
 30
0.0
 11
1539.820701544903
 21
1847.811726794766
 31
0.0
  0
LINE
  5
3C9
330
64
100
AcDbEntity
  8
0
  6
Continuous
 62
     3
100
AcDbLine
 10
1543.356345544903
 20
1847.811726794766
 30
0.0
 11
1539.820823544903
 21
1844.276082794765
 31
0.0
  0
LINE
  5
3CA
330
64
100
AcDbEntity
  8
1
  6
DOT_CENTER
 62
     3
100
AcDbLine
 10
1510.588645544903
 20
1846.043660794765
 30
0.0
 11
1492.588645544903
 21
1846.043660794765
 31
0.0
  0
LINE
  5
3CB
330
64
100
AcDbEntity
  8
1
  6
DOT_CENTER
 62
     3
100
AcDbLine
 10
1550.588645544903
 20
1846.043660794765
 30
0.0
 11
1532.588645544903
 21
1846.043660794765
 31
0.0
  0
LINE
  5
3CC
330
64
100
AcDbEntity
  8
1
  6
DOT_CENTER
 62
     3
100
AcDbLine
 10
1541.588645544903
 20
1837.043660794765
 30
0.0
 11
1541.588645544903
 21
1855.043660794765
 31
0.0
  0
LINE
  5
3CD
330
64
100
AcDbEntity
  8
1
  6
DOT_CENTER
 62
     3
100
AcDbLine
 10
1501.588645544903
 20
1837.043660794765
 30
0.0
 11
1501.588645544903
 21
1855.043660794765
 31
0.0
  0
LINE
  5
3CE
330
64
100
AcDbEntity
  8
0
  6
Continuous
 62
     3
100
AcDbLine
 10
1543.356223544904
 20
1888.276082794765
 30
0.0
 11
1539.820701544903
 21
1891.811726794766
 31
0.0
  0
LINE
  5
3CF
330
64
100
AcDbEntity
  8
0
  6
Continuous
 62
     3
100
AcDbLine
 10
1543.356345544903
 20
1891.811726794766
 30
0.0
 11
1539.820823544903
 21
1888.276082794765
 31
0.0
  0
LINE
  5
3D0
330
64
100
AcDbEntity
  8
0
  6
Continuous
 62
     3
100
AcDbLine
 10
1503.355979544903
 20
1888.276082794765
 30
0.0
 11
1499.820579544903
 21
1891.811726794766
 31
0.0
  0
LINE
  5
3D1
330
64
100
AcDbEntity
  8
0
  6
Continuous
 62
     3
100
AcDbLine
 10
1503.356223544904
 20
1891.811726794766
 30
0.0
 11
1499.820823544903
 21
1888.276082794765
 31
0.0
  0
LINE
  5
3D2
330
64
100
AcDbEntity
  8
1
  6
DOT_CENTER
 62
     3
100
AcDbLine
 10
1550.588645544903
 20
1890.043660794765
 30
0.0
 11
1532.588645544903
 21
1890.043660794765
 31
0.0
  0
LINE
  5
3D3
330
64
100
AcDbEntity
  8
1
  6
DOT_CENTER
 62
     3
100
AcDbLine
 10
1541.588645544903
 20
1881.043660794765
 30
0.0
 11
1541.588645544903
 21
1899.043660794765
 31
0.0
  0
LINE
  5
3D4
330
64
100
AcDbEntity
  8
1
  6
DOT_CENTER
 62
     3
100
AcDbLine
 10
1510.588645544903
 20
1890.043660794765
 30
0.0
 11
1492.588645544903
 21
1890.043660794765
 31
0.0
  0
LINE
  5
3D5
330
64
100
AcDbEntity
  8
1
  6
DOT_CENTER
 62
     3
100
AcDbLine
 10
1501.588645544903
 20
1881.043660794765
 30
0.0
 11
1501.588645544903
 21
1899.043660794765
 31
0.0
  0
LINE
  5
3D6
330
64
100
AcDbEntity
  8
0
  6
Continuous
 62
     4
100
AcDbLine
 10
1532.588889544904
 20
1838.043660794765
 30
0.0
 11
1532.588889544904
 21
1831.043660794765
 31
0.0
  0
LINE
  5
3D7
330
64
100
AcDbEntity
  8
0
  6
Continuous
 62
     4
100
AcDbLine
 10
1510.589133544904
 20
1829.307820794765
 30
0.0
 11
1510.589133544904
 21
1831.043660794765
 31
0.0
  0
LINE
  5
3D8
330
64
100
AcDbEntity
  8
0
  6
Continuous
 62
     4
100
AcDbLine
 10
1462.588645544904
 20
1818.243854794765
 30
0.0
 11
1459.588645544904
 21
1818.243854794765
 31
0.0
  0
LINE
  5
3D9
330
64
100
AcDbEntity
  8
0
  6
Continuous
 62
     4
100
AcDbLine
 10
1459.588645544904
 20
1818.243854794765
 30
0.0
 11
1459.588645544904
 21
1788.244342794766
 31
0.0
  0
LINE
  5
3DA
330
64
100
AcDbEntity
  8
0
  6
Continuous
 62
     1
100
AcDbLine
 10
1909.088045544904
 20
1818.243854794765
 30
0.0
 11
1912.077434526449
 21
1818.243854794765
 31
0.0
  0
LINE
  5
3DB
330
64
100
AcDbEntity
  8
0
  6
Continuous
 62
     4
100
AcDbLine
 10
1912.077434526449
 20
1818.243854794765
 30
0.0
 11
1912.077434526449
 21
1788.244342794766
 31
0.0
  0
LINE
  5
3DC
330
64
100
AcDbEntity
  8
0
  6
Continuous
 62
     1
100
AcDbLine
 10
1459.588645544904
 20
1788.244342794766
 30
0.0
 11
1912.077434526449
 21
1788.244342794766
 31
0.0
  0
LINE
  5
3DD
330
64
100
AcDbEntity
  8
0
  6
DASH_CENTER
 62
     3
100
AcDbLine
 10
1471.588645544904
 20
1815.044148794766
 30
0.0
 11
1471.588645544904
 21
1801.043660794765
 31
0.0
  0
LINE
  5
3DE
330
64
100
AcDbEntity
  8
0
  6
DASH_CENTER
 62
     3
100
AcDbLine
 10
1477.588645544904
 20
1808.044148794766
 30
0.0
 11
1464.588035544904
 21
1808.044148794766
 31
0.0
  0
LINE
  5
3DF
330
64
100
AcDbEntity
  8
0
  6
Continuous
 62
     4
100
AcDbLine
 10
1510.589133544904
 20
1831.043660794765
 30
0.0
 11
1510.589133544904
 21
1838.043660794765
 31
0.0
  0
LINE
  5
3E0
330
64
100
AcDbEntity
  8
0
  6
Continuous
 62
     4
100
AcDbLine
 10
1532.588889544904
 20
1831.043660794765
 30
0.0
 11
1532.588889544904
 21
1829.307820794765
 31
0.0
  0
LINE
  5
3E1
330
64
100
AcDbEntity
  8
0
  6
Continuous
 62
     4
100
AcDbLine
 10
1510.589133544904
 20
1821.544148794766
 30
0.0
 11
1510.589133544904
 21
1827.544148794766
 31
0.0
  0
LINE
  5
3E2
330
64
100
AcDbEntity
  8
0
  6
DASH_CENTER
 62
     3
100
AcDbLine
 10
1900.088045544904
 20
1815.044148794766
 30
0.0
 11
1900.088045544904
 21
1801.043660794765
 31
0.0
  0
LINE
  5
3E3
330
64
100
AcDbEntity
  8
0
  6
DASH_CENTER
 62
     3
100
AcDbLine
 10
1908.601229544904
 20
1808.044148794766
 30
0.0
 11
1893.088167544903
 21
1808.044148794766
 31
0.0
  0
LINE
  5
3E4
330
64
100
AcDbEntity
  8
0
  6
Continuous
 62
     4
100
AcDbLine
 10
1887.588889544904
 20
1827.544148794766
 30
0.0
 11
1887.588889544904
 21
1821.544148794766
 31
0.0
  0
LINE
  5
3E5
330
64
100
AcDbEntity
  8
0
  6
Continuous
 62
     4
100
AcDbLine
 10
1868.588645544904
 20
1818.243854794765
 30
0.0
 11
1868.588645544904
 21
1821.544148794766
 31
0.0
  0
LINE
  5
3E6
330
64
100
AcDbEntity
  8
0
  6
Continuous
 62
     4
100
AcDbLine
 10
1884.588645544904
 20
1818.243854794765
 30
0.0
 11
1884.588645544904
 21
1821.544148794766
 31
0.0
  0
LINE
  5
3E7
330
64
100
AcDbEntity
  8
0
  6
Continuous
 62
     4
100
AcDbLine
 10
1510.589133544904
 20
1827.544148794766
 30
0.0
 11
1887.588889544904
 21
1827.544148794766
 31
0.0
  0
LINE
  5
3E8
330
64
100
AcDbEntity
  8
0
  6
Continuous
 62
     4
100
AcDbLine
 10
1871.338889544904
 20
1827.544148794766
 30
0.0
 11
1872.338523544904
 21
1828.543660794765
 31
0.0
  0
LINE
  5
3E9
330
64
100
AcDbEntity
  8
0
  6
Continuous
 62
     4
100
AcDbLine
 10
1881.838279544904
 20
1827.544148794766
 30
0.0
 11
1880.838767544904
 21
1828.543660794765
 31
0.0
  0
LINE
  5
3EA
330
64
100
AcDbEntity
  8
0
  6
Continuous
 62
     4
100
AcDbLine
 10
1880.838767544904
 20
1828.543660794765
 30
0.0
 11
1872.338523544904
 21
1828.543660794765
 31
0.0
  0
LINE
  5
3EB
330
64
100
AcDbEntity
  8
0
  6
DASH_CENTER
 62
     3
100
AcDbLine
 10
1876.588645544904
 20
1811.543660794765
 30
0.0
 11
1876.588645544904
 21
1831.543660794765
 31
0.0
  0
LINE
  5
3EC
330
64
100
AcDbEntity
  8
0
  6
Continuous
 62
     4
100
AcDbLine
 10
1887.588889544904
 20
1821.544148794766
 30
0.0
 11
1510.589133544904
 21
1821.544148794766
 31
0.0
  0
LINE
  5
3ED
330
64
100
AcDbEntity
  8
0
  6
Continuous
 62
     1
100
AcDbLine
 10
1909.088045544904
 20
1818.243854794765
 30
0.0
 11
1462.588645544904
 21
1818.243854794765
 31
0.0
  0
LINE
  5
3EE
330
64
100
AcDbEntity
  8
0
  6
Continuous
 62
     4
100
AcDbLine
 10
1462.588645544904
 20
1818.243854794765
 30
0.0
 11
1462.588645544904
 21
1788.244342794766
 31
0.0
  0
LINE
  5
3EF
330
64
100
AcDbEntity
  8
0
  6
Continuous
 62
     1
100
AcDbLine
 10
1462.588645544904
 20
1788.244342794766
 30
0.0
 11
1909.088045544904
 21
1788.244342794766
 31
0.0
  0
LINE
  5
3F0
330
64
100
AcDbEntity
  8
0
  6
Continuous
 62
     4
100
AcDbLine
 10
1909.088045544904
 20
1788.244342794766
 30
0.0
 11
1909.088045544904
 21
1818.243854794765
 31
0.0
  0
LINE
  5
3F1
330
64
100
AcDbEntity
  8
0
  6
Continuous
 62
     4
100
AcDbLine
 10
1532.588889544904
 20
1829.307820794765
 30
0.0
 11
1510.589133544904
 21
1829.307820794765
 31
0.0
  0
LINE
  5
3F2
330
64
100
AcDbEntity
  8
0
  6
Continuous
 62
     4
100
AcDbLine
 10
1531.570577544904
 20
1827.544148794766
 30
0.0
 11
1532.588889544904
 21
1829.307820794765
 31
0.0
  0
LINE
  5
3F3
330
64
100
AcDbEntity
  8
0
  6
Continuous
 62
     4
100
AcDbLine
 10
1510.589133544904
 20
1829.307820794765
 30
0.0
 11
1511.607565544904
 21
1827.544148794766
 31
0.0
  0
LINE
  5
3F4
330
64
100
AcDbEntity
  8
0
  6
DASH_CENTER
 62
     3
100
AcDbLine
 10
1521.588645544904
 20
1905.419636794765
 30
0.0
 11
1521.588645544904
 21
1818.543660794765
 31
0.0
  0
LINE
  5
3F5
330
64
100
AcDbEntity
  8
0
  6
DASH_CENTER
 62
     3
100
AcDbLine
 10
1478.588401544904
 20
1808.044148794766
 30
0.0
 11
1477.588645544904
 21
1808.044148794766
 31
0.0
  0
LINE
  5
3F6
330
64
100
AcDbEntity
  8
1
  6
Continuous
 62
     3
100
AcDbLine
 10
1546.027230147237
 20
1878.373342344186
 30
0.0
 11
1574.027230147237
 21
1899.373342344186
 31
0.0
  0
LINE
  5
3F7
330
64
100
AcDbEntity
  8
1
  6
Continuous
 62
     3
100
AcDbLine
 10
1907.441957032413
 20
1812.471779632303
 30
0.0
 11
1922.441957032413
 21
1845.471779632303
 31
0.0
  0
ARC
  5
3F8
330
64
100
AcDbEntity
  8
0
  6
Continuous
 62
     3
100
AcDbCircle
 10
1504.269005544904
 20
1889.484090794764
 30
0.0
 40
0.2999260000001414
100
AcDbArc
 50
90.0
 51
180.0
  0
ARC
  5
3F9
330
64
100
AcDbEntity
  8
0
  6
Continuous
 62
     3
100
AcDbCircle
 10
1504.269005544903
 20
1883.203816794765
 30
0.0
 40
0.2998039999999946
100
AcDbArc
 50
180.0
 51
-89.99999999978273
  0
ARC
  5
3FA
330
64
100
AcDbEntity
  8
0
  6
Continuous
 62
     3
100
AcDbCircle
 10
1538.908287544903
 20
1883.203816794765
 30
0.0
 40
0.3006600000010167
100
AcDbArc
 50
-90.0
 51
0.0
  0
ARC
  5
3FB
330
64
100
AcDbEntity
  8
0
  6
Continuous
 62
     3
100
AcDbCircle
 10
1538.908287544903
 20
1889.484090794764
 30
0.0
 40
0.2998039999999946
100
AcDbArc
 50
0.0
 51
90.0
  0
ARC
  5
3FC
330
64
100
AcDbEntity
  8
0
  6
Continuous
 62
     3
100
AcDbCircle
 10
1504.269005544903
 20
1888.223836794764
 30
0.0
 40
1.820181999999932
100
AcDbArc
 50
89.99999999996422
 51
137.5712249999851
  0
ARC
  5
3FD
330
64
100
AcDbEntity
  8
0
  6
Continuous
 62
     3
100
AcDbCircle
 10
1504.269005544904
 20
1884.464070794764
 30
0.0
 40
1.820312000000076
100
AcDbArc
 50
-139.3211900000394
 51
-90.0
  0
ARC
  5
3FE
330
64
100
AcDbEntity
  8
0
  6
Continuous
 62
     3
100
AcDbCircle
 10
1538.908287544903
 20
1884.464070794764
 30
0.0
 40
1.820330000000013
100
AcDbArc
 50
-90.0
 51
-40.67880999997849
  0
ARC
  5
3FF
330
64
100
AcDbEntity
  8
0
  6
Continuous
 62
     3
100
AcDbCircle
 10
1538.908287544904
 20
1888.223836794764
 30
0.0
 40
1.819824000000433
100
AcDbArc
 50
40.67881000001636
 51
90.00000000002863
  0
ARC
  5
400
330
64
100
AcDbEntity
  8
0
  6
Continuous
 62
     3
100
AcDbCircle
 10
1507.629111544904
 20
1886.464070794764
 30
0.0
 40
1.819774000000052
100
AcDbArc
 50
90.00000000002863
 51
139.3061590000236
  0
ARC
  5
401
330
64
100
AcDbEntity
  8
0
  6
Continuous
 62
     3
100
AcDbCircle
 10
1507.629111544903
 20
1886.104208794764
 30
0.0
 40
1.820312000000641
100
AcDbArc
 50
-139.294505000001
 51
-90.0
  0
ARC
  5
402
330
64
100
AcDbEntity
  8
0
  6
Continuous
 62
     3
100
AcDbCircle
 10
1511.069419544903
 20
1886.104208794764
 30
0.0
 40
1.819999999999936
100
AcDbArc
 50
-90.0
 51
-40.70800099997404
  0
ARC
  5
403
330
64
100
AcDbEntity
  8
0
  6
Continuous
 62
     3
100
AcDbCircle
 10
1511.069419544903
 20
1886.464070794764
 30
0.0
 40
1.819824000000454
100
AcDbArc
 50
40.69634700000687
 51
90.0
  0
ARC
  5
404
330
64
100
AcDbEntity
  8
0
  6
Continuous
 62
     3
100
AcDbCircle
 10
1725.47583864726
 20
1633.680030914588
 30
0.0
 40
0.299925999999914
100
AcDbArc
 50
90.0
 51
180.0
  0
ARC
  5
405
330
64
100
AcDbEntity
  8
0
  6
Continuous
 62
     3
100
AcDbCircle
 10
1725.475838647259
 20
1627.399756914589
 30
0.0
 40
0.2998039999999946
100
AcDbArc
 50
180.0
 51
-89.99999999982619
  0
ARC
  5
406
330
64
100
AcDbEntity
  8
0
  6
Continuous
 62
     3
100
AcDbCircle
 10
1760.115120647259
 20
1627.399756914589
 30
0.0
 40
0.3006600000010167
100
AcDbArc
 50
-90.0
 51
0.0
  0
ARC
  5
407
330
64
100
AcDbEntity
  8
0
  6
Continuous
 62
     3
100
AcDbCircle
 10
1760.115120647259
 20
1633.680030914588
 30
0.0
 40
0.299804000000222
100
AcDbArc
 50
0.0
 51
90.0
  0
ARC
  5
408
330
64
100
AcDbEntity
  8
0
  6
Continuous
 62
     3
100
AcDbCircle
 10
1725.475838647259
 20
1632.419776914588
 30
0.0
 40
1.820181999999932
100
AcDbArc
 50
89.99999999997138
 51
137.5712249999851
  0
ARC
  5
409
330
64
100
AcDbEntity
  8
0
  6
Continuous
 62
     3
100
AcDbCircle
 10
1725.47583864726
 20
1628.660010914588
 30
0.0
 40
1.820311999999904
100
AcDbArc
 50
-139.3211900000347
 51
-90.0
  0
ARC
  5
40A
330
64
100
AcDbEntity
  8
0
  6
Continuous
 62
     3
100
AcDbCircle
 10
1760.115120647259
 20
1628.660010914588
 30
0.0
 40
1.820330000000013
100
AcDbArc
 50
-90.0
 51
-40.67880999999715
  0
ARC
  5
40B
330
64
100
AcDbEntity
  8
0
  6
Continuous
 62
     3
100
AcDbCircle
 10
1760.11512064726
 20
1632.419776914588
 30
0.0
 40
1.819823999999571
100
AcDbArc
 50
40.67881000003969
 51
90.0000000000358
  0
ARC
  5
40C
330
64
100
AcDbEntity
  8
0
  6
Continuous
 62
     3
100
AcDbCircle
 10
1728.83594464726
 20
1630.660010914588
 30
0.0
 40
1.819774000000052
100
AcDbArc
 50
90.00000000002863
 51
139.3061590000415
  0
ARC
  5
40D
330
64
100
AcDbEntity
  8
0
  6
Continuous
 62
     3
100
AcDbCircle
 10
1728.835944647259
 20
1630.300148914588
 30
0.0
 40
1.820312000000813
100
AcDbArc
 50
-139.2945050000057
 51
-90.0
  0
ARC
  5
40E
330
64
100
AcDbEntity
  8
0
  6
Continuous
 62
     3
100
AcDbCircle
 10
1732.276252647259
 20
1630.300148914588
 30
0.0
 40
1.819999999999936
100
AcDbArc
 50
-90.0
 51
-40.70800099997404
  0
ARC
  5
40F
330
64
100
AcDbEntity
  8
0
  6
Continuous
 62
     3
100
AcDbCircle
 10
1732.276252647259
 20
1630.660010914588
 30
0.0
 40
1.819824000000603
100
AcDbArc
 50
40.6963470000123
 51
90.0
  0
ARC
  5
410
330
64
100
AcDbEntity
  8
0
  6
LONG_DASHED
 62
     3
100
AcDbCircle
 10
1912.795480647259
 20
1488.04087291459
 30
0.0
 40
11.0
100
AcDbArc
 50
0.0
 51
180.0
  0
ARC
  5
411
330
64
100
AcDbEntity
  8
0
  6
LONG_DASHED
 62
     3
100
AcDbCircle
 10
1351.588645544904
 20
1743.844932794766
 30
0.0
 40
11.0
100
AcDbArc
 50
0.0
 51
180.0
  0
CIRCLE
  5
412
330
64
100
AcDbEntity
  8
1
  6
Continuous
 62
     3
100
AcDbCircle
 10
1376.94216915975
 20
1556.667719752127
 30
0.0
 40
0.599999999999909
  0
CIRCLE
  5
413
330
64
100
AcDbEntity
  8
1
  6
Continuous
 62
     3
100
AcDbCircle
 10
1718.356896044926
 20
1622.56928246401
 30
0.0
 40
0.6000000000001364
  0
CIRCLE
  5
414
330
64
100
AcDbEntity
  8
1
  6
Continuous
 62
     4
100
AcDbCircle
 10
1364.29608064726
 20
1552.239794914589
 30
0.0
 40
6.0
  0
CIRCLE
  5
415
330
64
100
AcDbEntity
  8
1
  6
Continuous
 62
     4
100
AcDbCircle
 10
1792.795480647259
 20
1552.24008891459
 30
0.0
 40
6.0
  0
CIRCLE
  5
416
330
64
100
AcDbEntity
  8
0
  6
DASHED
 62
     3
100
AcDbCircle
 10
1722.795480647259
 20
1634.239600914589
 30
0.0
 40
5.0
  0
CIRCLE
  5
417
330
64
100
AcDbEntity
  8
0
  6
DASHED
 62
     3
100
AcDbCircle
 10
1762.795480647259
 20
1634.239600914589
 30
0.0
 40
5.0
  0
CIRCLE
  5
418
330
64
100
AcDbEntity
  8
0
  6
DASHED
 62
     3
100
AcDbCircle
 10
1762.795480647259
 20
1590.239600914589
 30
0.0
 40
5.0
  0
CIRCLE
  5
419
330
64
100
AcDbEntity
  8
0
  6
DASHED
 62
     3
100
AcDbCircle
 10
1722.795480647259
 20
1590.239600914589
 30
0.0
 40
5.0
  0
CIRCLE
  5
41A
330
64
100
AcDbEntity
  8
0
  6
LONG_DASHED
 62
     3
100
AcDbCircle
 10
1762.795480647259
 20
1590.239600914589
 30
0.0
 40
5.199999999999818
  0
CIRCLE
  5
41B
330
64
100
AcDbEntity
  8
0
  6
LONG_DASHED
 62
     3
100
AcDbCircle
 10
1762.795480647259
 20
1634.239600914589
 30
0.0
 40
5.199999999999818
  0
CIRCLE
  5
41C
330
64
100
AcDbEntity
  8
0
  6
LONG_DASHED
 62
     3
100
AcDbCircle
 10
1722.795480647259
 20
1612.239600914589
 30
0.0
 40
5.199999999998909
  0
CIRCLE
  5
41D
330
64
100
AcDbEntity
  8
0
  6
LONG_DASHED
 62
     3
100
AcDbCircle
 10
1762.795480647259
 20
1612.239600914589
 30
0.0
 40
5.199999999999818
  0
CIRCLE
  5
41E
330
64
100
AcDbEntity
  8
0
  6
LONG_DASHED
 62
     3
100
AcDbCircle
 10
1762.795480647259
 20
1612.239600914589
 30
0.0
 40
2.900000000001
  0
CIRCLE
  5
41F
330
64
100
AcDbEntity
  8
0
  6
LONG_DASHED
 62
     3
100
AcDbCircle
 10
1722.795480647259
 20
1612.239600914589
 30
0.0
 40
2.900000000001
  0
CIRCLE
  5
420
330
64
100
AcDbEntity
  8
0
  6
LONG_DASHED
 62
     3
100
AcDbCircle
 10
1722.795480647259
 20
1634.239600914589
 30
0.0
 40
5.199999999999818
  0
CIRCLE
  5
421
330
64
100
AcDbEntity
  8
0
  6
LONG_DASHED
 62
     3
100
AcDbCircle
 10
1722.795480647259
 20
1590.239600914589
 30
0.0
 40
5.199999999998909
  0
CIRCLE
  5
422
330
64
100
AcDbEntity
  8
0
  6
LONG_DASHED
 62
     3
100
AcDbCircle
 10
1541.588645544903
 20
1846.043660794765
 30
0.0
 40
5.199999999998909
  0
CIRCLE
  5
423
330
64
100
AcDbEntity
  8
0
  6
LONG_DASHED
 62
     3
100
AcDbCircle
 10
1541.588645544903
 20
1890.043660794765
 30
0.0
 40
5.200000000000045
  0
CIRCLE
  5
424
330
64
100
AcDbEntity
  8
0
  6
LONG_DASHED
 62
     3
100
AcDbCircle
 10
1541.588645544903
 20
1868.043660794765
 30
0.0
 40
2.900000000001
  0
CIRCLE
  5
425
330
64
100
AcDbEntity
  8
0
  6
LONG_DASHED
 62
     3
100
AcDbCircle
 10
1501.588645544903
 20
1868.043660794765
 30
0.0
 40
2.900000000001
  0
CIRCLE
  5
426
330
64
100
AcDbEntity
  8
0
  6
LONG_DASHED
 62
     3
100
AcDbCircle
 10
1501.588645544903
 20
1868.043660794765
 30
0.0
 40
5.200000000000045
  0
CIRCLE
  5
427
330
64
100
AcDbEntity
  8
0
  6
LONG_DASHED
 62
     3
100
AcDbCircle
 10
1541.588645544903
 20
1868.043660794765
 30
0.0
 40
5.199999999998909
  0
CIRCLE
  5
428
330
64
100
AcDbEntity
  8
0
  6
LONG_DASHED
 62
     3
100
AcDbCircle
 10
1501.588645544903
 20
1890.043660794765
 30
0.0
 40
5.200000000000045
  0
CIRCLE
  5
429
330
64
100
AcDbEntity
  8
0
  6
LONG_DASHED
 62
     3
100
AcDbCircle
 10
1501.588645544903
 20
1846.043660794765
 30
0.0
 40
5.200000000000045
  0
CIRCLE
  5
42A
330
64
100
AcDbEntity
  8
0
  6
DASHED
 62
     3
100
AcDbCircle
 10
1541.588645544903
 20
1846.043660794765
 30
0.0
 40
5.0
  0
CIRCLE
  5
42B
330
64
100
AcDbEntity
  8
0
  6
DASHED
 62
     3
100
AcDbCircle
 10
1501.588645544903
 20
1846.043660794765
 30
0.0
 40
5.0
  0
CIRCLE
  5
42C
330
64
100
AcDbEntity
  8
0
  6
DASHED
 62
     3
100
AcDbCircle
 10
1501.588645544903
 20
1890.043660794765
 30
0.0
 40
5.0
  0
CIRCLE
  5
42D
330
64
100
AcDbEntity
  8
0
  6
DASHED
 62
     3
100
AcDbCircle
 10
1541.588645544903
 20
1890.043660794765
 30
0.0
 40
5.0
  0
CIRCLE
  5
42E
330
64
100
AcDbEntity
  8
1
  6
Continuous
 62
     4
100
AcDbCircle
 10
1471.588645544904
 20
1808.044148794766
 30
0.0
 40
6.0
  0
CIRCLE
  5
42F
330
64
100
AcDbEntity
  8
1
  6
Continuous
 62
     4
100
AcDbCircle
 10
1900.088045544904
 20
1808.043854794765
 30
0.0
 40
6.0
  0
CIRCLE
  5
430
330
64
100
AcDbEntity
  8
1
  6
Continuous
 62
     3
100
AcDbCircle
 10
1546.027230147237
 20
1878.373342344186
 30
0.0
 40
0.599999999999909
  0
CIRCLE
  5
431
330
64
100
AcDbEntity
  8
1
  6
Continuous
 62
     3
100
AcDbCircle
 10
1907.441957032413
 20
1812.471779632303
 30
0.0
 40
0.599999999999909
  0
MTEXT
  5
432
330
64
100
AcDbEntity
  8
1
 62
     4
100
AcDbMText
 10
1339.062289770173
 20
1596.126631342135
 30
0.0
 40
10.0
 41
0.0
 71
     3
 72
     1
  1
2
  7
CONVERTER_18
 73
     1
 44
1.02040816326531
  0
MTEXT
  5
433
330
64
100
AcDbEntity
  8
1
 62
     4
100
AcDbMText
 10
1689.026382106274
 20
1647.654781724132
 30
0.0
 40
10.0
 41
0.0
 71
     3
 72
     1
  1
1
  7
CONVERTER_18
 73
     1
 44
1.02040816326531
  0
MTEXT
  5
434
330
64
100
AcDbEntity
  8
1
 62
     4
100
AcDbMText
 10
1575.357744085889
 20
1903.458841604308
 30
0.0
 40
10.0
 41
0.0
 71
     1
 72
     1
  1
1
  7
CONVERTER_18
 73
     1
 44
1.02040816326531
  0
MTEXT
  5
435
330
64
100
AcDbEntity
  8
1
 62
     4
100
AcDbMText
 10
1925.32183642199
 20
1851.930691222311
 30
0.0
 40
10.0
 41
0.0
 71
     1
 72
     1
  1
2
  7
CONVERTER_18
 73
     1
 44
1.02040816326531
  0
MTEXT
  5
437
330
64
100
AcDbEntity
  8
0
 62
     4
100
AcDbMText
 10
1726.204581171672
 20
1443.00676730184
 30
0.0
 40
6.0
 41
0.0
 71
     7
 72
     1
  1
Anschlagma\U+00dfe f\U+00fcr T\U+00fcr mit Linksfl\U+00fcgel
  7
CONVERTER_19
 73
     1
 44
0.60024009603842
  0
MTEXT
  5
438
330
64
100
AcDbEntity
  8
0
 62
     4
100
AcDbMText
 10
1373.404581171672
 20
1700.80676730184
 30
0.0
 40
6.0
 41
0.0
 71
     7
 72
     1
  1
Anschlagma\U+00dfe f\U+00fcr T\U+00fcr mit Rechtsfl\U+00fcgel
  7
CONVERTER_19
 73
     1
 44
0.60024009603842
  0
DIMENSION
  5
443
330
64
100
AcDbEntity
  8
1
100
AcDbDimension
  2
*D16
 10
1762.795480647259
 20
1665.66267045274
 30
0.0
 11
1742.795480647259
 21
1673.16267045274
 31
0.0
 70
    32
  1
<>
 71
     5
 42
-1.0
 53
0.00013888888889
  3
ME10_DIM_11
100
AcDbAlignedDimension
 13
1722.795480647259
 23
1643.239600914589
 33
0.0
 14
1762.795480647259
 24
1642.03960091459
 34
0.0
100
AcDbRotatedDimension
  0
DIMENSION
  5
44E
330
64
100
AcDbEntity
  8
1
100
AcDbDimension
  2
*D17
 10
1912.795480647259
 20
1665.66267045274
 30
0.0
 11
1834.79730589735
 21
1673.16267045274
 31
0.0
 70
    32
  1
<>
 71
     5
 42
-1.0
 53
0.00013888888889
  3
ME10_DIM_12
100
AcDbAlignedDimension
 13
1762.795480647259
 23
1643.239600914589
 33
0.0
 14
1912.795480647259
 24
1508.04087291459
 34
0.0
100
AcDbRotatedDimension
  0
DIMENSION
  5
459
330
64
100
AcDbEntity
  8
1
100
AcDbDimension
  2
*D18
 10
1792.795480647259
 20
1491.03375154704
 30
0.0
 11
1576.12268334492
 21
1498.53375154704
 31
0.0
 70
    32
  1
<>
 71
     5
 42
-1.0
 53
0.00013888888889
  3
ME10_DIM_13
100
AcDbAlignedDimension
 13
1364.29608064726
 23
1545.239600914589
 33
0.0
 14
1792.795480647259
 24
1545.239600914589
 34
0.0
100
AcDbRotatedDimension
  0
DIMENSION
  5
464
330
64
100
AcDbEntity
  8
1
100
AcDbDimension
  2
*D19
 10
1912.795480647259
 20
1491.03375154704
 30
0.0
 11
1845.939902290194
 21
1498.53375154704
 31
0.0
 70
    32
  1
<>
 71
     5
 42
-1.0
 53
0.00013888888889
  3
ME10_DIM_14
100
AcDbAlignedDimension
 13
1792.795480647259
 23
1545.239600914589
 33
0.0
 14
1912.795480647259
 24
1508.04087291459
 34
0.0
100
AcDbRotatedDimension
  0
DIMENSION
  5
46F
330
64
100
AcDbEntity
  8
1
100
AcDbDimension
  2
*D20
 10
1501.588645544903
 20
1920.76835262797
 30
0.0
 11
1518.96741849134
 21
1928.26835262797
 31
0.0
 70
    32
  1
<>
 71
     5
 42
-1.0
 53
0.00013888888889
  3
ME10_DIM_15
100
AcDbAlignedDimension
 13
1541.588645544903
 23
1899.043660794765
 33
0.0
 14
1501.588645544903
 24
1899.043660794765
 34
0.0
100
AcDbRotatedDimension
  0
DIMENSION
  5
47A
330
64
100
AcDbEntity
  8
1
100
AcDbDimension
  2
*D21
 10
1351.588645544904
 20
1920.76835262797
 30
0.0
 11
1429.19601610585
 21
1928.26835262797
 31
0.0
 70
    32
  1
<>
 71
     5
 42
-1.0
 53
0.00013888888889
  3
ME10_DIM_16
100
AcDbAlignedDimension
 13
1501.588645544903
 23
1899.043660794765
 33
0.0
 14
1351.588645544904
 24
1763.844932794766
 34
0.0
100
AcDbRotatedDimension
  0
DIMENSION
  5
485
330
64
100
AcDbEntity
  8
1
100
AcDbDimension
  2
*D22
 10
1471.588645544904
 20
1755.09387451684
 30
0.0
 11
1686.87082777913
 21
1762.59387451684
 31
0.0
 70
    32
  1
<>
 71
     5
 42
-1.0
 53
0.00013888888889
  3
ME10_DIM_17
100
AcDbAlignedDimension
 13
1900.088045544904
 23
1801.043660794765
 33
0.0
 14
1471.588645544904
 24
1801.043660794765
 34
0.0
100
AcDbRotatedDimension
  0
DIMENSION
  5
490
330
64
100
AcDbEntity
  8
1
100
AcDbDimension
  2
*D23
 10
1351.588645544904
 20
1755.09387451684
 30
0.0
 11
1418.109248882858
 21
1762.59387451684
 31
0.0
 70
    32
  1
<>
 71
     5
 42
-1.0
 53
0.00013888888889
  3
ME10_DIM_18
100
AcDbAlignedDimension
 13
1471.588645544904
 23
1801.043660794765
 33
0.0
 14
1351.588645544904
 24
1763.844932794766
 34
0.0
100
AcDbRotatedDimension
  0
ENDBLK
  5
66
330
64
100
AcDbEntity
  8
0
100
AcDbBlockEnd
  0
BLOCK
  5
69
330
67
100
AcDbEntity
  8
0
100
AcDbBlockBegin
  2
TOP__8
 70
     0
 71
     0
 10
693.004432948215
 20
151.313972188027
 30
0.0
  3
TOP__8
  1

  0
INSERT
  5
68
330
67
100
AcDbEntity
  8
1
100
AcDbBlockReference
  2
1__7
 10
618.1942927724515
 20
722.621147397383
 30
0.0
 41
0.5
 42
0.5
 43
0.5
  0
ENDBLK
  5
6A
330
67
100
AcDbEntity
  8
0
100
AcDbBlockEnd
  0
BLOCK
  5
6D
330
6B
100
AcDbEntity
  8
0
100
AcDbBlockBegin
  2
Blindlager
 70
     0
 71
     0
 10
1410.580073526148
 20
2433.986825587446
 30
0.0
  3
Blindlager
  1

  0
INSERT
  5
6C
330
6B
100
AcDbEntity
  8
0
100
AcDbBlockReference
  2
TOP__8
 10
1386.00886589643
 20
302.627944376054
 30
0.0
 41
2.0
 42
2.0
 43
2.0
  0
ENDBLK
  5
6E
330
6B
100
AcDbEntity
  8
0
100
AcDbBlockEnd
  0
BLOCK
  5
73
330
6F
100
AcDbEntity
  8
0
100
AcDbBlockBegin
  2
TOP__9
 70
     0
 71
     0
 10
577.38992513564
 20
66.3496393384589
 30
0.0
  3
TOP__9
  1

  0
INSERT
  5
70
330
6F
100
AcDbEntity
  8
0
100
AcDbBlockReference
  2
rahmen
 10
437.9376847302571
 20
569.3932084668369
 30
0.0
  0
INSERT
  5
71
330
6F
100
AcDbEntity
  8
0
100
AcDbBlockReference
  2
TOP__6
 10
775.383104246009
 20
554.1561439148859
 30
0.0
  0
INSERT
  5
72
330
6F
100
AcDbEntity
  8
1
100
AcDbBlockReference
  2
Blindlager
 10
705.290036763074
 20
1216.993412793723
 30
0.0
 41
0.5
 42
0.5
 43
0.5
  0
LINE
  5
491
330
6F
100
AcDbEntity
  8
1
  6
Continuous
 62
     1
100
AcDbLine
 10
894.9376763738406
 20
612.393208466837
 30
0.0
 11
1021.937684730257
 21
612.393208466837
 31
0.0
  0
LINE
  5
492
330
6F
100
AcDbEntity
  8
0
  6
Continuous
 62
     1
100
AcDbLine
 10
907.3377087302572
 20
612.393208466837
 30
0.0
 11
907.3377606451834
 21
645.3931617218457
 31
0.0
  0
LINE
  5
493
330
6F
100
AcDbEntity
  8
0
  6
Continuous
 62
     1
100
AcDbLine
 10
922.3377087302572
 20
612.393208466837
 30
0.0
 11
922.3377526657189
 21
645.3930808635753
 31
0.0
  0
LINE
  5
494
330
6F
100
AcDbEntity
  8
0
  6
Continuous
 62
     1
100
AcDbLine
 10
894.9377373738407
 20
645.393209466837
 30
0.0
 11
907.3377606451834
 21
645.3931617218457
 31
0.0
  0
LINE
  5
495
330
6F
100
AcDbEntity
  8
1
  6
Continuous
 62
     1
100
AcDbLine
 10
894.9376763738406
 20
612.393208466837
 30
0.0
 11
894.9377282888288
 21
645.393209466872
 31
0.0
  0
LINE
  5
496
330
6F
100
AcDbEntity
  8
0
  6
Continuous
 62
     1
100
AcDbLine
 10
928.3377526657189
 20
645.3930808635753
 30
0.0
 11
1021.937684730257
 21
645.3927204668369
 31
0.0
  0
LINE
  5
497
330
6F
100
AcDbEntity
  8
0
  6
Continuous
 62
     1
100
AcDbLine
 10
907.3377606451834
 20
645.3931617218457
 30
0.0
 11
928.3377526657189
 21
645.3930808635753
 31
0.0
  0
LINE
  5
498
330
6F
100
AcDbEntity
  8
0
  6
Continuous
 62
     1
100
AcDbLine
 10
894.9376763738406
 20
633.3929644668369
 30
0.0
 11
1021.587647730257
 21
633.3929644668369
 31
0.0
  0
LINE
  5
499
330
6F
100
AcDbEntity
  8
0
  6
Continuous
 62
     1
100
AcDbLine
 10
894.9376763738406
 20
621.393208466837
 30
0.0
 11
1021.587647730257
 21
621.393208466837
 31
0.0
  0
LINE
  5
49A
330
6F
100
AcDbEntity
  8
1
  6
Continuous
 62
     1
100
AcDbLine
 10
1021.937684730257
 20
645.3927204668369
 30
0.0
 11
1021.937684730257
 21
612.393208466837
 31
0.0
  0
TEXT
  5
49B
330
6F
100
AcDbEntity
  8
0
 62
     4
100
AcDbText
 10
927.3377087302572
 20
615.143208466837
 30
0.0
 40
3.0
  1
Bezeichnung
 41
0.9
  7
CONVERTER_11
100
AcDbText
  0
TEXT
  5
49C
330
6F
100
AcDbEntity
  8
0
 62
     4
100
AcDbText
 10
908.9377087302573
 20
615.143208466837
 30
0.0
 40
3.0
  1
Anzahl
 41
0.72
  7
CONVERTER_13
100
AcDbText
  0
TEXT
  5
49D
330
6F
100
AcDbEntity
  8
0
 62
     4
100
AcDbText
 10
896.3377087302572
 20
615.143208466837
 30
0.0
 40
3.0
  1
Pos.
 41
0.9
  7
CONVERTER_11
100
AcDbText
  0
TEXT
  5
49F
330
6F
100
AcDbEntity
  8
0
 62
     3
100
AcDbText
 10
900.099641603897
 20
637.592988797984
 30
0.0
 40
3.5
  1
2
 41
1.045
  7
CONVERTER_20
100
AcDbText
  0
TEXT
  5
4A0
330
6F
100
AcDbEntity
  8
0
 62
     3
100
AcDbText
 10
914.0114440828702
 20
637.7705982159023
 30
0.0
 40
3.5
  1
1
 41
1.045
  7
CONVERTER_20
100
AcDbText
  0
TEXT
  5
4A1
330
6F
100
AcDbEntity
  8
0
 62
     3
100
AcDbText
 10
914.0114440828702
 20
625.7708422159023
 30
0.0
 40
3.5
  1
1
 41
1.045
  7
CONVERTER_20
100
AcDbText
  0
TEXT
  5
4A2
330
6F
100
AcDbEntity
  8
0
 62
     3
100
AcDbText
 10
900.099641603897
 20
625.593232797984
 30
0.0
 40
3.5
  1
1
 41
1.045
  7
CONVERTER_20
100
AcDbText
  0
TEXT
  5
4A3
330
6F
100
AcDbEntity
  8
0
 62
     4
100
AcDbText
 10
927.3377087302572
 20
637.6427204668369
 30
0.0
 40
3.5
  1
T-STOP Gleitschiene BG (Bandgegenseite)
 41
0.72
  7
CONVERTER_13
100
AcDbText
  0
TEXT
  5
4A4
330
6F
100
AcDbEntity
  8
0
 62
     4
100
AcDbText
 10
927.3377087302572
 20
625.6429644668369
 30
0.0
 40
3.5
  1
Drehlager
 41
0.9
  7
CONVERTER_11
100
AcDbText
  0
ENDBLK
  5
74
330
6F
100
AcDbEntity
  8
0
100
AcDbBlockEnd
  0
BLOCK
  5
77
330
75
100
AcDbEntity
  8
0
100
AcDbBlockBegin
  2
Profil-Stahltuer
 70
     0
 71
     0
 10
38.08755252871197
 20
-856.261548798284
 30
0.0
  3
Profil-Stahltuer
  1

  0
INSERT
  5
76
330
75
100
AcDbEntity
  8
0
100
AcDbBlockReference
  2
TOP__9
 10
577.38992513564
 20
66.3496393384589
 30
0.0
  0
LINE
  5
4A5
330
75
100
AcDbEntity
  8
0
  6
Continuous
 62
     1
100
AcDbLine
 10
563.759201248117
 20
812.6491733375644
 30
0.0
 11
563.759201248117
 21
797.9511765277236
 31
0.0
  0
LINE
  5
4A6
330
75
100
AcDbEntity
  8
0
  6
Continuous
 62
     1
100
AcDbLine
 10
513.759201248117
 20
812.6491733375644
 30
0.0
 11
513.759201248117
 21
797.9511765277236
 31
0.0
  0
LINE
  5
4A7
330
75
100
AcDbEntity
  8
0
  6
Continuous
 62
     3
100
AcDbLine
 10
513.759201248117
 20
891.6491733375653
 30
0.0
 11
516.009201248117
 21
891.6491733375653
 31
0.0
  0
LINE
  5
4A8
330
75
100
AcDbEntity
  8
0
  6
Continuous
 62
     1
100
AcDbLine
 10
513.759201248117
 20
884.517207326315
 30
0.0
 11
513.759201248117
 21
825.2811393488139
 31
0.0
  0
LINE
  5
4A9
330
75
100
AcDbEntity
  8
0
  6
Continuous
 62
     1
100
AcDbLine
 10
513.759201248117
 20
906.6491733375644
 30
0.0
 11
513.759201248117
 21
936.6491733375644
 31
0.0
  0
LINE
  5
4AA
330
75
100
AcDbEntity
  8
0
  6
DASH_CENTER
 62
     3
100
AcDbLine
 10
506.4590302481181
 20
914.6491733375644
 30
0.0
 11
522.8092502481193
 21
914.6491733375644
 31
0.0
  0
LINE
  5
4AB
330
75
100
AcDbEntity
  8
0
  6
Continuous
 62
     3
100
AcDbLine
 10
513.759201248117
 20
889.3991733375644
 30
0.0
 11
513.759201248117
 21
891.6491733375653
 31
0.0
  0
LINE
  5
4AC
102
{ACAD_REACTORS
330
4F8
330
4F8
102
}
330
75
100
AcDbEntity
  8
0
  6
Continuous
 62
     1
100
AcDbLine
 10
561.759201248117
 20
812.6491733375644
 30
0.0
 11
515.759201248117
 21
812.6491733375644
 31
0.0
  0
LINE
  5
4AD
102
{ACAD_REACTORS
330
4F8
330
4F8
102
}
330
75
100
AcDbEntity
  8
0
  6
Continuous
 62
     1
100
AcDbLine
 10
557.759201248117
 20
851.369932557622
 30
0.0
 11
557.759201248117
 21
861.6491733375644
 31
0.0
  0
LINE
  5
4AE
102
{ACAD_REACTORS
330
4F8
330
4F8
102
}
330
75
100
AcDbEntity
  8
0
  6
Continuous
 62
     1
100
AcDbLine
 10
555.759201248117
 20
861.6491733375644
 30
0.0
 11
555.759201248117
 21
851.369932557622
 31
0.0
  0
LINE
  5
4AF
102
{ACAD_REACTORS
330
4F8
330
4F8
102
}
330
75
100
AcDbEntity
  8
0
  6
Continuous
 62
     1
100
AcDbLine
 10
551.509201248117
 20
861.6491733375644
 30
0.0
 11
555.759201248117
 21
861.6491733375644
 31
0.0
  0
LINE
  5
4B0
102
{ACAD_REACTORS
330
4F8
330
4F8
102
}
330
75
100
AcDbEntity
  8
0
  6
Continuous
 62
     1
100
AcDbLine
 10
561.7078845461681
 20
849.3329455715468
 30
0.0
 11
558.4429734821022
 21
850.4212492595691
 31
0.0
  0
LINE
  5
4B1
102
{ACAD_REACTORS
330
4F8
330
4F8
102
}
330
75
100
AcDbEntity
  8
0
  6
Continuous
 62
     1
100
AcDbLine
 10
557.8105179500669
 20
848.5238826634688
 30
0.0
 11
561.075429014136
 21
847.4355789754466
 31
0.0
  0
LINE
  5
4B2
102
{ACAD_REACTORS
330
4F8
330
4F8
102
}
330
75
100
AcDbEntity
  8
0
  6
Continuous
 62
     1
100
AcDbLine
 10
561.759201248117
 20
846.4868956773964
 30
0.0
 11
561.759201248117
 21
812.6491733375644
 31
0.0
  0
LINE
  5
4B3
102
{ACAD_REACTORS
330
4F8
330
4F8
102
}
330
75
100
AcDbEntity
  8
0
  6
Continuous
 62
     1
100
AcDbLine
 10
563.759201248117
 20
812.6491733375644
 30
0.0
 11
563.759201248117
 21
846.4868956773964
 31
0.0
  0
LINE
  5
4B4
102
{ACAD_REACTORS
330
4F8
330
4F8
102
}
330
75
100
AcDbEntity
  8
0
  6
Continuous
 62
     1
100
AcDbLine
 10
515.759201248117
 20
810.6491733375644
 30
0.0
 11
561.759201248117
 21
810.6491733375644
 31
0.0
  0
LINE
  5
4B5
102
{ACAD_REACTORS
330
4F8
330
4F8
102
}
330
75
100
AcDbEntity
  8
0
  6
Continuous
 62
     1
100
AcDbLine
 10
555.759201248117
 20
863.6491733375644
 30
0.0
 11
551.509201248117
 21
863.6491733375644
 31
0.0
  0
LINE
  5
4B6
102
{ACAD_REACTORS
330
4F8
330
4F8
102
}
330
75
100
AcDbEntity
  8
0
  6
Continuous
 62
     1
100
AcDbLine
 10
518.259201248117
 20
868.6491733375644
 30
0.0
 11
555.509201248117
 21
868.6491733375644
 31
0.0
  0
LINE
  5
4B7
102
{ACAD_REACTORS
330
4F8
330
4F8
102
}
330
75
100
AcDbEntity
  8
0
  6
Continuous
 62
     1
100
AcDbLine
 10
555.509201248117
 20
870.6491733375644
 30
0.0
 11
518.259201248117
 21
870.6491733375644
 31
0.0
  0
LINE
  5
4B8
102
{ACAD_REACTORS
330
4F8
330
4F8
102
}
330
75
100
AcDbEntity
  8
0
  6
Continuous
 62
     1
100
AcDbLine
 10
551.509201248117
 20
866.1491733375644
 30
0.0
 11
555.509201248117
 21
866.1491733375644
 31
0.0
  0
LINE
  5
4B9
102
{ACAD_REACTORS
330
4F8
330
4F8
102
}
330
75
100
AcDbEntity
  8
0
  6
Continuous
 62
     1
100
AcDbLine
 10
555.509201248117
 20
868.1491733375644
 30
0.0
 11
551.509201248117
 21
868.1491733375644
 31
0.0
  0
LINE
  5
4BA
102
{ACAD_REACTORS
330
4F8
330
4F8
102
}
330
75
100
AcDbEntity
  8
0
  6
Continuous
 62
     1
100
AcDbLine
 10
513.759201248117
 20
889.3991733375644
 30
0.0
 11
513.759201248117
 21
812.6491733375644
 31
0.0
  0
LINE
  5
4BB
102
{ACAD_REACTORS
330
4F8
330
4F8
102
}
330
75
100
AcDbEntity
  8
0
  6
Continuous
 62
     1
100
AcDbLine
 10
518.259201248117
 20
870.6491733375644
 30
0.0
 11
518.259201248117
 21
889.3991733375644
 31
0.0
  0
LINE
  5
4BC
102
{ACAD_REACTORS
330
4F8
330
4F8
102
}
330
75
100
AcDbEntity
  8
0
  6
Continuous
 62
     1
100
AcDbLine
 10
515.759201248117
 20
812.6491733375644
 30
0.0
 11
515.759201248117
 21
889.3991733375644
 31
0.0
  0
LINE
  5
4BD
102
{ACAD_REACTORS
330
4F8
330
4F8
102
}
330
75
100
AcDbEntity
  8
0
  6
Continuous
 62
     1
100
AcDbLine
 10
516.259201248117
 20
889.3991733375644
 30
0.0
 11
516.259201248117
 21
870.6491733375644
 31
0.0
  0
LINE
  5
4BE
102
{ACAD_REACTORS
330
4F7
330
4F7
102
}
330
75
100
AcDbEntity
  8
0
  6
Continuous
 62
     1
100
AcDbLine
 10
513.759201248117
 20
938.6491733375644
 30
0.0
 11
513.759201248117
 21
936.6491733375644
 31
0.0
  0
LINE
  5
4BF
102
{ACAD_REACTORS
330
4F7
330
4F7
102
}
330
75
100
AcDbEntity
  8
0
  6
Continuous
 62
     1
100
AcDbLine
 10
515.759201248117
 20
904.8114509977333
 30
0.0
 11
515.759201248117
 21
938.6491733375644
 31
0.0
  0
LINE
  5
4C0
102
{ACAD_REACTORS
330
4F7
330
4F7
102
}
330
75
100
AcDbEntity
  8
0
  6
Continuous
 62
     1
100
AcDbLine
 10
515.8105179500669
 20
901.965401103583
 30
0.0
 11
519.075429014136
 21
900.8770974155589
 31
0.0
  0
LINE
  5
4C1
102
{ACAD_REACTORS
330
4F7
330
4F7
102
}
330
75
100
AcDbEntity
  8
0
  6
Continuous
 62
     1
100
AcDbLine
 10
519.7078845461681
 20
902.7744640116609
 30
0.0
 11
516.4429734821022
 21
903.8627676996823
 31
0.0
  0
LINE
  5
4C2
102
{ACAD_REACTORS
330
4F7
330
4F7
102
}
330
75
100
AcDbEntity
  8
0
  6
Continuous
 62
     1
100
AcDbLine
 10
513.759201248117
 20
936.6491733375644
 30
0.0
 11
513.759201248117
 21
904.8114509977333
 31
0.0
  0
LINE
  5
4C3
102
{ACAD_REACTORS
330
4F7
330
4F7
102
}
330
75
100
AcDbEntity
  8
0
  6
Continuous
 62
     1
100
AcDbLine
 10
563.759201248117
 20
861.8991733375644
 30
0.0
 11
563.759201248117
 21
938.6491733375644
 31
0.0
  0
LINE
  5
4C4
102
{ACAD_REACTORS
330
4F7
330
4F7
102
}
330
75
100
AcDbEntity
  8
0
  6
Continuous
 62
     1
100
AcDbLine
 10
561.759201248117
 20
940.6491733375644
 30
0.0
 11
515.759201248117
 21
940.6491733375644
 31
0.0
  0
LINE
  5
4C5
102
{ACAD_REACTORS
330
4F7
330
4F7
102
}
330
75
100
AcDbEntity
  8
0
  6
Continuous
 62
     1
100
AcDbLine
 10
559.259201248117
 20
880.6491733375644
 30
0.0
 11
559.259201248117
 21
861.8991733375644
 31
0.0
  0
LINE
  5
4C6
102
{ACAD_REACTORS
330
4F7
330
4F7
102
}
330
75
100
AcDbEntity
  8
0
  6
Continuous
 62
     1
100
AcDbLine
 10
561.259201248117
 20
861.8991733375644
 30
0.0
 11
561.259201248117
 21
880.6491733375644
 31
0.0
  0
LINE
  5
4C7
102
{ACAD_REACTORS
330
4F7
330
4F7
102
}
330
75
100
AcDbEntity
  8
0
  6
Continuous
 62
     1
100
AcDbLine
 10
561.759201248117
 20
938.6491733375644
 30
0.0
 11
561.759201248117
 21
861.8991733375644
 31
0.0
  0
LINE
  5
4C8
102
{ACAD_REACTORS
330
4F7
330
4F7
102
}
330
75
100
AcDbEntity
  8
0
  6
Continuous
 62
     1
100
AcDbLine
 10
521.759201248117
 20
889.6491733375644
 30
0.0
 11
521.759201248117
 21
899.9284141175087
 31
0.0
  0
LINE
  5
4C9
102
{ACAD_REACTORS
330
4F7
330
4F7
102
}
330
75
100
AcDbEntity
  8
0
  6
Continuous
 62
     1
100
AcDbLine
 10
522.009201248117
 20
880.6491733375644
 30
0.0
 11
559.259201248117
 21
880.6491733375644
 31
0.0
  0
LINE
  5
4CA
102
{ACAD_REACTORS
330
4F7
330
4F7
102
}
330
75
100
AcDbEntity
  8
0
  6
Continuous
 62
     1
100
AcDbLine
 10
559.259201248117
 20
882.6491733375644
 30
0.0
 11
522.009201248117
 21
882.6491733375644
 31
0.0
  0
LINE
  5
4CB
102
{ACAD_REACTORS
330
4F7
330
4F7
102
}
330
75
100
AcDbEntity
  8
0
  6
Continuous
 62
     1
100
AcDbLine
 10
526.009201248117
 20
885.1491733375644
 30
0.0
 11
522.009201248117
 21
885.1491733375644
 31
0.0
  0
LINE
  5
4CC
102
{ACAD_REACTORS
330
4F7
330
4F7
102
}
330
75
100
AcDbEntity
  8
0
  6
Continuous
 62
     1
100
AcDbLine
 10
521.759201248117
 20
887.6491733375644
 30
0.0
 11
526.009201248117
 21
887.6491733375644
 31
0.0
  0
LINE
  5
4CD
102
{ACAD_REACTORS
330
4F7
330
4F7
102
}
330
75
100
AcDbEntity
  8
0
  6
Continuous
 62
     1
100
AcDbLine
 10
522.009201248117
 20
883.1491733375644
 30
0.0
 11
526.009201248117
 21
883.1491733375644
 31
0.0
  0
LINE
  5
4CE
102
{ACAD_REACTORS
330
4F7
330
4F7
102
}
330
75
100
AcDbEntity
  8
0
  6
Continuous
 62
     1
100
AcDbLine
 10
526.009201248117
 20
889.6491733375644
 30
0.0
 11
521.759201248117
 21
889.6491733375644
 31
0.0
  0
LINE
  5
4CF
102
{ACAD_REACTORS
330
4F7
330
4F7
102
}
330
75
100
AcDbEntity
  8
0
  6
Continuous
 62
     1
100
AcDbLine
 10
515.759201248117
 20
938.6491733375644
 30
0.0
 11
561.759201248117
 21
938.6491733375644
 31
0.0
  0
LINE
  5
4D0
102
{ACAD_REACTORS
330
4F7
330
4F7
102
}
330
75
100
AcDbEntity
  8
0
  6
Continuous
 62
     1
100
AcDbLine
 10
519.759201248117
 20
899.9284141175087
 30
0.0
 11
519.759201248117
 21
889.6491733375644
 31
0.0
  0
LINE
  5
4D1
330
75
100
AcDbEntity
  8
0
  6
DASH_CENTER
 62
     3
100
AcDbLine
 10
509.9538166328941
 20
797.9511765277236
 30
0.0
 11
567.8538166328942
 21
797.9511765277236
 31
0.0
  0
ARC
  5
4D2
102
{ACAD_REACTORS
330
4F8
330
4F8
102
}
330
75
100
AcDbEntity
  8
0
  6
Continuous
 62
     1
100
AcDbCircle
 10
516.009201248117
 20
889.3991733375644
 30
0.0
 40
2.25
100
AcDbArc
 50
0.0
 51
90.0
  0
ARC
  5
4D3
102
{ACAD_REACTORS
330
4F8
330
4F8
102
}
330
75
100
AcDbEntity
  8
0
  6
Continuous
 62
     1
100
AcDbCircle
 10
560.759201248117
 20
846.4868956773955
 30
0.0
 40
1.0
100
AcDbArc
 50
0.00000000005211
 51
71.56505117697088
  0
ARC
  5
4D4
102
{ACAD_REACTORS
330
4F8
330
4F8
102
}
330
75
100
AcDbEntity
  8
0
  6
Continuous
 62
     1
100
AcDbCircle
 10
558.759201248117
 20
851.369932557622
 30
0.0
 40
3.0
100
AcDbArc
 50
180.0
 51
-108.4349488229055
  0
ARC
  5
4D5
102
{ACAD_REACTORS
330
4F8
330
4F8
102
}
330
75
100
AcDbEntity
  8
0
  6
Continuous
 62
     1
100
AcDbCircle
 10
560.759201248117
 20
846.4868956773955
 30
0.0
 40
3.0
100
AcDbArc
 50
0.00000000001737
 51
71.565051177067
  0
ARC
  5
4D6
102
{ACAD_REACTORS
330
4F8
330
4F8
102
}
330
75
100
AcDbEntity
  8
0
  6
Continuous
 62
     1
100
AcDbCircle
 10
558.759201248117
 20
851.369932557622
 30
0.0
 40
1.0
100
AcDbArc
 50
180.0
 51
-108.4349488227737
  0
ARC
  5
4D7
102
{ACAD_REACTORS
330
4F8
330
4F8
102
}
330
75
100
AcDbEntity
  8
0
  6
Continuous
 62
     1
100
AcDbCircle
 10
561.759201248117
 20
812.6491733375644
 30
0.0
 40
2.0
100
AcDbArc
 50
-90.0
 51
0.0
  0
ARC
  5
4D8
102
{ACAD_REACTORS
330
4F8
330
4F8
102
}
330
75
100
AcDbEntity
  8
0
  6
Continuous
 62
     1
100
AcDbCircle
 10
555.759201248117
 20
861.6491733375644
 30
0.0
 40
2.0
100
AcDbArc
 50
0.0
 51
90.0
  0
ARC
  5
4D9
102
{ACAD_REACTORS
330
4F8
330
4F8
102
}
330
75
100
AcDbEntity
  8
0
  6
Continuous
 62
     1
100
AcDbCircle
 10
551.509201248117
 20
864.8991733375644
 30
0.0
 40
3.25
100
AcDbArc
 50
180.0
 51
-90.0
  0
ARC
  5
4DA
102
{ACAD_REACTORS
330
4F8
330
4F8
102
}
330
75
100
AcDbEntity
  8
0
  6
Continuous
 62
     1
100
AcDbCircle
 10
555.509201248117
 20
868.3991733375644
 30
0.0
 40
2.25
100
AcDbArc
 50
0.0
 51
90.0
  0
ARC
  5
4DB
102
{ACAD_REACTORS
330
4F8
330
4F8
102
}
330
75
100
AcDbEntity
  8
0
  6
Continuous
 62
     1
100
AcDbCircle
 10
555.509201248117
 20
868.3991733375644
 30
0.0
 40
0.25
100
AcDbArc
 50
0.0
 51
90.0
  0
ARC
  5
4DC
102
{ACAD_REACTORS
330
4F8
330
4F8
102
}
330
75
100
AcDbEntity
  8
0
  6
Continuous
 62
     1
100
AcDbCircle
 10
555.509201248117
 20
868.3991733375644
 30
0.0
 40
0.25
100
AcDbArc
 50
-90.0
 51
0.0
  0
ARC
  5
4DD
102
{ACAD_REACTORS
330
4F8
330
4F8
102
}
330
75
100
AcDbEntity
  8
0
  6
Continuous
 62
     1
100
AcDbCircle
 10
555.509201248117
 20
868.3991733375644
 30
0.0
 40
2.25
100
AcDbArc
 50
-90.0
 51
0.0
  0
ARC
  5
4DE
102
{ACAD_REACTORS
330
4F8
330
4F8
102
}
330
75
100
AcDbEntity
  8
0
  6
Continuous
 62
     1
100
AcDbCircle
 10
551.509201248117
 20
864.8991733375644
 30
0.0
 40
1.25
100
AcDbArc
 50
180.0
 51
-90.0
  0
ARC
  5
4DF
102
{ACAD_REACTORS
330
4F8
330
4F8
102
}
330
75
100
AcDbEntity
  8
0
  6
Continuous
 62
     1
100
AcDbCircle
 10
551.509201248117
 20
864.8991733375644
 30
0.0
 40
1.25
100
AcDbArc
 50
90.0
 51
180.0
  0
ARC
  5
4E0
102
{ACAD_REACTORS
330
4F8
330
4F8
102
}
330
75
100
AcDbEntity
  8
0
  6
Continuous
 62
     1
100
AcDbCircle
 10
551.509201248117
 20
864.8991733375644
 30
0.0
 40
3.25
100
AcDbArc
 50
90.0
 51
180.0
  0
ARC
  5
4E1
102
{ACAD_REACTORS
330
4F8
330
4F8
102
}
330
75
100
AcDbEntity
  8
0
  6
Continuous
 62
     1
100
AcDbCircle
 10
515.759201248117
 20
812.6491733375644
 30
0.0
 40
2.0
100
AcDbArc
 50
180.0
 51
-90.0
  0
ARC
  5
4E2
102
{ACAD_REACTORS
330
4F8
330
4F8
102
}
330
75
100
AcDbEntity
  8
0
  6
Continuous
 62
     1
100
AcDbCircle
 10
518.259201248117
 20
870.6491733375644
 30
0.0
 40
2.0
100
AcDbArc
 50
180.0
 51
-90.0
  0
ARC
  5
4E3
102
{ACAD_REACTORS
330
4F8
330
4F8
102
}
330
75
100
AcDbEntity
  8
0
  6
Continuous
 62
     1
100
AcDbCircle
 10
516.009201248117
 20
889.3991733375644
 30
0.0
 40
2.250000000000909
100
AcDbArc
 50
90.0
 51
180.0
  0
ARC
  5
4E4
102
{ACAD_REACTORS
330
4F8
330
4F8
102
}
330
75
100
AcDbEntity
  8
0
  6
Continuous
 62
     1
100
AcDbCircle
 10
516.009201248117
 20
889.3991733375644
 30
0.0
 40
0.25
100
AcDbArc
 50
0.0
 51
180.0
  0
ARC
  5
4E5
102
{ACAD_REACTORS
330
4F7
330
4F7
102
}
330
75
100
AcDbEntity
  8
0
  6
Continuous
 62
     1
100
AcDbCircle
 10
516.759201248117
 20
904.8114509977333
 30
0.0
 40
3.0
100
AcDbArc
 50
180.0
 51
-108.434948822922
  0
ARC
  5
4E6
102
{ACAD_REACTORS
330
4F7
330
4F7
102
}
330
75
100
AcDbEntity
  8
0
  6
Continuous
 62
     1
100
AcDbCircle
 10
516.759201248117
 20
904.8114509977333
 30
0.0
 40
1.0
100
AcDbArc
 50
180.0
 51
-108.4349488228067
  0
ARC
  5
4E7
102
{ACAD_REACTORS
330
4F7
330
4F7
102
}
330
75
100
AcDbEntity
  8
0
  6
Continuous
 62
     1
100
AcDbCircle
 10
518.759201248117
 20
899.9284141175087
 30
0.0
 40
1.0
100
AcDbArc
 50
0.0
 51
71.5650511769544
  0
ARC
  5
4E8
102
{ACAD_REACTORS
330
4F7
330
4F7
102
}
330
75
100
AcDbEntity
  8
0
  6
Continuous
 62
     1
100
AcDbCircle
 10
515.759201248117
 20
938.6491733375644
 30
0.0
 40
2.0
100
AcDbArc
 50
90.0
 51
180.0
  0
ARC
  5
4E9
102
{ACAD_REACTORS
330
4F7
330
4F7
102
}
330
75
100
AcDbEntity
  8
0
  6
Continuous
 62
     1
100
AcDbCircle
 10
561.509201248117
 20
861.8991733375644
 30
0.0
 40
2.25
100
AcDbArc
 50
180.0
 51
0.0
  0
ARC
  5
4EA
102
{ACAD_REACTORS
330
4F7
330
4F7
102
}
330
75
100
AcDbEntity
  8
0
  6
Continuous
 62
     1
100
AcDbCircle
 10
561.509201248117
 20
861.8991733375644
 30
0.0
 40
0.25
100
AcDbArc
 50
180.0
 51
0.0
  0
ARC
  5
4EB
102
{ACAD_REACTORS
330
4F7
330
4F7
102
}
330
75
100
AcDbEntity
  8
0
  6
Continuous
 62
     1
100
AcDbCircle
 10
559.259201248117
 20
880.6491733375644
 30
0.0
 40
2.0
100
AcDbArc
 50
0.0
 51
90.0
  0
ARC
  5
4EC
102
{ACAD_REACTORS
330
4F7
330
4F7
102
}
330
75
100
AcDbEntity
  8
0
  6
Continuous
 62
     1
100
AcDbCircle
 10
561.759201248117
 20
938.6491733375644
 30
0.0
 40
2.0
100
AcDbArc
 50
0.0
 51
90.0
  0
ARC
  5
4ED
102
{ACAD_REACTORS
330
4F7
330
4F7
102
}
330
75
100
AcDbEntity
  8
0
  6
Continuous
 62
     1
100
AcDbCircle
 10
522.009201248117
 20
882.8991733375644
 30
0.0
 40
0.25
100
AcDbArc
 50
90.0
 51
180.0
  0
ARC
  5
4EE
102
{ACAD_REACTORS
330
4F7
330
4F7
102
}
330
75
100
AcDbEntity
  8
0
  6
Continuous
 62
     1
100
AcDbCircle
 10
526.009201248117
 20
886.3991733375644
 30
0.0
 40
3.25
100
AcDbArc
 50
0.0
 51
90.0
  0
ARC
  5
4EF
102
{ACAD_REACTORS
330
4F7
330
4F7
102
}
330
75
100
AcDbEntity
  8
0
  6
Continuous
 62
     1
100
AcDbCircle
 10
526.009201248117
 20
886.3991733375644
 30
0.0
 40
1.25
100
AcDbArc
 50
0.0
 51
90.0
  0
ARC
  5
4F0
102
{ACAD_REACTORS
330
4F7
330
4F7
102
}
330
75
100
AcDbEntity
  8
0
  6
Continuous
 62
     1
100
AcDbCircle
 10
526.009201248117
 20
886.3991733375644
 30
0.0
 40
1.25
100
AcDbArc
 50
-90.0
 51
0.0
  0
ARC
  5
4F1
102
{ACAD_REACTORS
330
4F7
330
4F7
102
}
330
75
100
AcDbEntity
  8
0
  6
Continuous
 62
     1
100
AcDbCircle
 10
526.009201248117
 20
886.3991733375644
 30
0.0
 40
3.25
100
AcDbArc
 50
-90.0
 51
0.0
  0
ARC
  5
4F2
102
{ACAD_REACTORS
330
4F7
330
4F7
102
}
330
75
100
AcDbEntity
  8
0
  6
Continuous
 62
     1
100
AcDbCircle
 10
521.759201248117
 20
889.6491733375644
 30
0.0
 40
2.0
100
AcDbArc
 50
180.0
 51
-90.0
  0
ARC
  5
4F3
102
{ACAD_REACTORS
330
4F7
330
4F7
102
}
330
75
100
AcDbEntity
  8
0
  6
Continuous
 62
     1
100
AcDbCircle
 10
522.009201248117
 20
882.8991733375644
 30
0.0
 40
2.25
100
AcDbArc
 50
180.0
 51
-90.0
  0
ARC
  5
4F4
102
{ACAD_REACTORS
330
4F7
330
4F7
102
}
330
75
100
AcDbEntity
  8
0
  6
Continuous
 62
     1
100
AcDbCircle
 10
522.009201248117
 20
882.8991733375644
 30
0.0
 40
0.25
100
AcDbArc
 50
180.0
 51
-90.0
  0
ARC
  5
4F5
102
{ACAD_REACTORS
330
4F7
330
4F7
102
}
330
75
100
AcDbEntity
  8
0
  6
Continuous
 62
     1
100
AcDbCircle
 10
522.009201248117
 20
882.8991733375644
 30
0.0
 40
2.25
100
AcDbArc
 50
90.0
 51
180.0
  0
ARC
  5
4F6
102
{ACAD_REACTORS
330
4F7
330
4F7
102
}
330
75
100
AcDbEntity
  8
0
  6
Continuous
 62
     1
100
AcDbCircle
 10
518.759201248117
 20
899.9284141175087
 30
0.0
 40
3.0
100
AcDbArc
 50
0.0
 51
71.56505117707249
  0
HATCH
  5
4F7
330
75
100
AcDbEntity
  8
0
  6
Continuous
 62
     3
100
AcDbHatch
 10
0.0
 20
0.0
 30
0.0
210
0.0
220
0.0
230
1.0
  2
_USER
 70
     0
 71
     1
 91
        2
 92
        1
 93
       20
 72
     1
 10
561.759201248117
 20
940.6491733375644
 11
515.759201248117
 21
940.6491733375644
 72
     2
 10
515.759201248117
 20
938.6491733375644
 40
2.0
 50
90.0
 51
180.0
 73
     1
 72
     1
 10
513.759201248117
 20
938.6491733375644
 11
513.759201248117
 21
936.6491733375644
 72
     1
 10
513.759201248117
 20
936.6491733375644
 11
513.759201248117
 21
904.8114509977333
 72
     2
 10
516.759201248117
 20
904.8114509977333
 40
3.0
 50
180.0
 51
251.565051177078
 73
     1
 72
     1
 10
515.8105179500669
 20
901.965401103583
 11
519.075429014136
 21
900.8770974155589
 72
     2
 10
518.759201248117
 20
899.9284141175087
 40
1.0
 50
288.4349488230456
 51
360.0
 73
     0
 72
     1
 10
519.759201248117
 20
899.9284141175087
 11
519.759201248117
 21
889.6491733375644
 72
     2
 10
521.759201248117
 20
889.6491733375644
 40
2.0
 50
180.0
 51
270.0
 73
     1
 72
     1
 10
521.759201248117
 20
887.6491733375644
 11
526.009201248117
 21
887.6491733375644
 72
     2
 10
526.009201248117
 20
886.3991733375644
 40
1.25
 50
270.0
 51
360.0
 73
     0
 72
     2
 10
526.009201248117
 20
886.3991733375644
 40
1.25
 50
0.0
 51
90.0
 73
     0
 72
     1
 10
526.009201248117
 20
885.1491733375644
 11
522.009201248117
 21
885.1491733375644
 72
     2
 10
522.009201248117
 20
882.8991733375644
 40
2.25
 50
90.0
 51
180.0
 73
     1
 72
     2
 10
522.009201248117
 20
882.8991733375644
 40
2.25
 50
180.0
 51
270.0
 73
     1
 72
     1
 10
522.009201248117
 20
880.6491733375644
 11
559.259201248117
 21
880.6491733375644
 72
     1
 10
559.259201248117
 20
880.6491733375644
 11
559.259201248117
 21
861.8991733375644
 72
     2
 10
561.509201248117
 20
861.8991733375644
 40
2.25
 50
180.0
 51
360.0
 73
     1
 72
     1
 10
563.759201248117
 20
861.8991733375644
 11
563.759201248117
 21
938.6491733375644
 72
     2
 10
561.759201248117
 20
938.6491733375644
 40
2.0
 50
0.0
 51
90.0
 73
     1
 97
       20
330
4C4
330
4E8
330
4BE
330
4C2
330
4E5
330
4C0
330
4E7
330
4D0
330
4F2
330
4CC
330
4EF
330
4F0
330
4CB
330
4F5
330
4F3
330
4C9
330
4C5
330
4E9
330
4C3
330
4EC
 92
       16
 93
       17
 72
     2
 10
516.759201248117
 20
904.8114509977333
 40
1.0
 50
180.0
 51
251.5650511771933
 73
     1
 72
     1
 10
516.4429734821022
 20
903.8627676996823
 11
519.7078845461681
 21
902.7744640116609
 72
     2
 10
518.759201248117
 20
899.9284141175087
 40
3.0
 50
288.4349488229275
 51
360.0
 73
     0
 72
     1
 10
521.759201248117
 20
899.9284141175087
 11
521.759201248117
 21
889.6491733375644
 72
     1
 10
521.759201248117
 20
889.6491733375644
 11
526.009201248117
 21
889.6491733375644
 72
     2
 10
526.009201248117
 20
886.3991733375644
 40
3.25
 50
270.0
 51
360.0
 73
     0
 72
     2
 10
526.009201248117
 20
886.3991733375644
 40
3.25
 50
0.0
 51
90.0
 73
     0
 72
     1
 10
526.009201248117
 20
883.1491733375644
 11
522.009201248117
 21
883.1491733375644
 72
     2
 10
522.009201248117
 20
882.8991733375644
 40
0.25
 50
90.0
 51
180.0
 73
     1
 72
     2
 10
522.009201248117
 20
882.8991733375644
 40
0.25
 50
180.0
 51
270.0
 73
     1
 72
     1
 10
522.009201248117
 20
882.6491733375644
 11
559.259201248117
 21
882.6491733375644
 72
     2
 10
559.259201248117
 20
880.6491733375644
 40
2.0
 50
270.0
 51
360.0
 73
     0
 72
     1
 10
561.259201248117
 20
880.6491733375644
 11
561.259201248117
 21
861.8991733375644
 72
     2
 10
561.509201248117
 20
861.8991733375644
 40
0.25
 50
180.0
 51
360.0
 73
     1
 72
     1
 10
561.759201248117
 20
861.8991733375644
 11
561.759201248117
 21
938.6491733375644
 72
     1
 10
561.759201248117
 20
938.6491733375644
 11
515.759201248117
 21
938.6491733375644
 72
     1
 10
515.759201248117
 20
938.6491733375644
 11
515.759201248117
 21
904.8114509977333
 97
       17
330
4E6
330
4C1
330
4F6
330
4C8
330
4CE
330
4EE
330
4F1
330
4CD
330
4ED
330
4F4
330
4CA
330
4EB
330
4C6
330
4EA
330
4C7
330
4CF
330
4BF
 75
     1
 76
     0
 52
45.0
 41
2.5
 77
     0
 78
     1
 53
45.0
 43
0.0
 44
0.0
 45
-1.767766952966369
 46
1.767766952966369
 79
     0
 98
        1
 10
0.0
 20
0.0
  0
HATCH
  5
4F8
330
75
100
AcDbEntity
  8
1
  6
Continuous
 62
     3
100
AcDbHatch
 10
0.0
 20
0.0
 30
0.0
210
0.0
220
0.0
230
1.0
  2
_USER
 70
     0
 71
     1
 91
        2
 92
        1
 93
       20
 72
     1
 10
518.259201248117
 20
870.6491733375644
 11
518.259201248117
 21
889.3991733375644
 72
     2
 10
516.009201248117
 20
889.3991733375644
 40
2.25
 50
0.0
 51
90.0
 73
     1
 72
     2
 10
516.009201248117
 20
889.3991733375644
 40
2.250000000000909
 50
90.0
 51
180.0
 73
     1
 72
     1
 10
513.759201248117
 20
889.3991733375644
 11
513.759201248117
 21
812.6491733375644
 72
     2
 10
515.759201248117
 20
812.6491733375644
 40
2.0
 50
180.0
 51
270.0
 73
     1
 72
     1
 10
515.759201248117
 20
810.6491733375644
 11
561.759201248117
 21
810.6491733375644
 72
     2
 10
561.759201248117
 20
812.6491733375644
 40
2.0
 50
270.0
 51
360.0
 73
     1
 72
     1
 10
563.759201248117
 20
812.6491733375644
 11
563.759201248117
 21
846.4868956773964
 72
     2
 10
560.759201248117
 20
846.4868956773955
 40
3.0
 50
0.0000000000173701
 51
71.565051177067
 73
     1
 72
     1
 10
561.7078845461681
 20
849.3329455715468
 11
558.4429734821022
 21
850.4212492595691
 72
     2
 10
558.759201248117
 20
851.369932557622
 40
1.0
 50
108.4349488227737
 51
180.0
 73
     0
 72
     1
 10
557.759201248117
 20
851.369932557622
 11
557.759201248117
 21
861.6491733375644
 72
     2
 10
555.759201248117
 20
861.6491733375644
 40
2.0
 50
0.0
 51
90.0
 73
     1
 72
     1
 10
555.759201248117
 20
863.6491733375644
 11
551.509201248117
 21
863.6491733375644
 72
     2
 10
551.509201248117
 20
864.8991733375644
 40
1.25
 50
90.0
 51
180.0
 73
     0
 72
     2
 10
551.509201248117
 20
864.8991733375644
 40
1.25
 50
180.0
 51
270.0
 73
     0
 72
     1
 10
551.509201248117
 20
866.1491733375644
 11
555.509201248117
 21
866.1491733375644
 72
     2
 10
555.509201248117
 20
868.3991733375644
 40
2.25
 50
270.0
 51
360.0
 73
     1
 72
     2
 10
555.509201248117
 20
868.3991733375644
 40
2.25
 50
0.0
 51
90.0
 73
     1
 72
     1
 10
555.509201248117
 20
870.6491733375644
 11
518.259201248117
 21
870.6491733375644
 97
       20
330
4DA
330
4DD
330
4B8
330
4DF
330
4DE
330
4B5
330
4D8
330
4AD
330
4D6
330
4B0
330
4D5
330
4B3
330
4D7
330
4B4
330
4E1
330
4BA
330
4E3
330
4D2
330
4BB
330
4B7
 92
       16
 93
       17
 72
     1
 10
561.759201248117
 20
846.4868956773964
 11
561.759201248117
 21
812.6491733375644
 72
     1
 10
561.759201248117
 20
812.6491733375644
 11
515.759201248117
 21
812.6491733375644
 72
     1
 10
515.759201248117
 20
812.6491733375644
 11
515.759201248117
 21
889.3991733375644
 72
     2
 10
516.009201248117
 20
889.3991733375644
 40
0.25
 50
180.0
 51
360.0
 73
     0
 72
     1
 10
516.259201248117
 20
889.3991733375644
 11
516.259201248117
 21
870.6491733375644
 72
     2
 10
518.259201248117
 20
870.6491733375644
 40
2.0
 50
180.0
 51
270.0
 73
     1
 72
     1
 10
518.259201248117
 20
868.6491733375644
 11
555.509201248117
 21
868.6491733375644
 72
     2
 10
555.509201248117
 20
868.3991733375644
 40
0.25
 50
270.0
 51
360.0
 73
     0
 72
     2
 10
555.509201248117
 20
868.3991733375644
 40
0.25
 50
0.0
 51
90.0
 73
     0
 72
     1
 10
555.509201248117
 20
868.1491733375644
 11
551.509201248117
 21
868.1491733375644
 72
     2
 10
551.509201248117
 20
864.8991733375644
 40
3.25
 50
90.0
 51
180.0
 73
     1
 72
     2
 10
551.509201248117
 20
864.8991733375644
 40
3.25
 50
180.0
 51
270.0
 73
     1
 72
     1
 10
551.509201248117
 20
861.6491733375644
 11
555.759201248117
 21
861.6491733375644
 72
     1
 10
555.759201248117
 20
861.6491733375644
 11
555.759201248117
 21
851.369932557622
 72
     2
 10
558.759201248117
 20
851.369932557622
 40
3.0
 50
180.0
 51
251.5650511770945
 73
     1
 72
     1
 10
557.8105179500669
 20
848.5238826634688
 11
561.075429014136
 21
847.4355789754466
 72
     2
 10
560.759201248117
 20
846.4868956773955
 40
1.0
 50
288.4349488230291
 51
359.9999999999479
 73
     0
 97
       17
330
4B2
330
4AC
330
4BC
330
4E4
330
4BD
330
4E2
330
4B6
330
4DB
330
4DC
330
4B9
330
4E0
330
4D9
330
4AF
330
4AE
330
4D4
330
4B1
330
4D3
 75
     1
 76
     0
 52
-45.0
 41
2.8
 77
     0
 78
     1
 53
-45.0
 43
0.0
 44
0.0
 45
1.979898987322333
 46
1.979898987322333
 79
     0
 98
        1
 10
0.0
 20
0.0
  0
ENDBLK
  5
78
330
75
100
AcDbEntity
  8
0
100
AcDbBlockEnd
  0
BLOCK
  5
2C8
330
2C1
100
AcDbEntity
  8
0
100
AcDbBlockBegin
  2
*D15
 70
     1
 71
     0
 10
0.0
 20
0.0
 30
0.0
  3
*D15
  1

  0
LINE
  5
2C2
330
2C1
100
AcDbEntity
  8
1
  6
Continuous
 62
     3
100
AcDbLine
 10
570.8269310426982
 20
702.5996713389993
 30
0.0
 11
570.8269310426982
 21
730.5996713389993
 31
0.0
  0
LINE
  5
2C3
330
2C1
100
AcDbEntity
  8
1
  6
Continuous
 62
     3
100
AcDbLine
 10
535.4150370497468
 20
730.5996713389993
 30
0.0
 11
572.8269310426982
 21
730.5996713389993
 31
0.0
  0
LINE
  5
2C4
330
2C1
100
AcDbEntity
  8
1
  6
Continuous
 62
     3
100
AcDbLine
 10
562.7888753301988
 20
702.5996713389993
 30
0.0
 11
572.8269310426982
 21
702.5996713389993
 31
0.0
  0
SOLID
  5
2C5
330
2C1
100
AcDbEntity
  8
1
 62
     3
100
AcDbTrace
 10
570.3003210523486
 20
706.5996713389993
 30
0.0
 11
571.3535410330478
 21
706.5996713389993
 31
0.0
 12
570.8269310426982
 22
702.5996713389993
 32
0.0
 13
570.8269310426982
 23
702.5996713389993
 33
0.0
  0
SOLID
  5
2C6
330
2C1
100
AcDbEntity
  8
1
 62
     3
100
AcDbTrace
 10
571.3535410330478
 20
726.5996713389993
 30
0.0
 11
570.3003210523486
 21
726.5996713389993
 31
0.0
 12
570.8269310426982
 22
730.5996713389993
 32
0.0
 13
570.8269310426982
 23
730.5996713389993
 33
0.0
  0
MTEXT
  5
2C7
330
2C1
100
AcDbEntity
  8
1
 62
     1
100
AcDbMText
 10
568.8269310426982
 20
715.1000618473014
 30
0.0
 40
4.0
 41
0.0
 71
     7
 72
     1
  1
X
  7
CONVERTER_11
 11
0.0
 21
1.0
 31
0.0
 73
     1
 44
0.60024009603842
  0
ENDBLK
  5
2C9
330
2C1
100
AcDbEntity
  8
0
100
AcDbBlockEnd
  0
BLOCK
  5
440
330
439
100
AcDbEntity
  8
0
100
AcDbBlockBegin
  2
*D16
 70
     1
 71
     0
 10
0.0
 20
0.0
 30
0.0
  3
*D16
  1

  0
LINE
  5
43A
330
439
100
AcDbEntity
  8
1
  6
Continuous
 62
     3
100
AcDbLine
 10
1762.795480647259
 20
1665.66267045274
 30
0.0
 11
1722.795480647259
 21
1665.66267045274
 31
0.0
  0
LINE
  5
43B
330
439
100
AcDbEntity
  8
1
  6
Continuous
 62
     3
100
AcDbLine
 10
1762.795480647259
 20
1642.03960091459
 30
0.0
 11
1762.795480647259
 21
1669.66267045274
 31
0.0
  0
LINE
  5
43C
330
439
100
AcDbEntity
  8
1
  6
Continuous
 62
     3
100
AcDbLine
 10
1722.795480647259
 20
1643.239600914589
 30
0.0
 11
1722.795480647259
 21
1669.66267045274
 31
0.0
  0
SOLID
  5
43D
330
439
100
AcDbEntity
  8
1
 62
     3
100
AcDbTrace
 10
1755.795480647259
 20
1664.741102969628
 30
0.0
 11
1755.795480647259
 21
1666.584237935852
 31
0.0
 12
1762.795480647259
 22
1665.66267045274
 32
0.0
 13
1762.795480647259
 23
1665.66267045274
 33
0.0
  0
SOLID
  5
43E
330
439
100
AcDbEntity
  8
1
 62
     3
100
AcDbTrace
 10
1729.795480647259
 20
1666.584237935852
 30
0.0
 11
1729.795480647259
 21
1664.741102969628
 31
0.0
 12
1722.795480647259
 22
1665.66267045274
 32
0.0
 13
1722.795480647259
 23
1665.66267045274
 33
0.0
  0
MTEXT
  5
43F
330
439
100
AcDbEntity
  8
1
 62
     4
100
AcDbMText
 10
1730.492980647259
 20
1669.66267045274
 30
0.0
 40
7.0
 41
0.0
 71
     7
 72
     1
  1
\C4;40\C3;\H4.2;{\Fgdt;`}0.2
  7
CONVERTER_11
 11
0.9999999999970619
 21
2.424068405545306E-6
 31
0.0
 73
     1
 44
0.60024009603842
  0
ENDBLK
  5
441
330
439
100
AcDbEntity
  8
0
100
AcDbBlockEnd
  0
BLOCK
  5
44B
330
444
100
AcDbEntity
  8
0
100
AcDbBlockBegin
  2
*D17
 70
     1
 71
     0
 10
0.0
 20
0.0
 30
0.0
  3
*D17
  1

  0
LINE
  5
445
330
444
100
AcDbEntity
  8
1
  6
Continuous
 62
     3
100
AcDbLine
 10
1912.795480647259
 20
1665.66267045274
 30
0.0
 11
1762.795480647259
 21
1665.66267045274
 31
0.0
  0
LINE
  5
446
330
444
100
AcDbEntity
  8
1
  6
Continuous
 62
     3
100
AcDbLine
 10
1912.795480647259
 20
1508.04087291459
 30
0.0
 11
1912.795480647259
 21
1669.66267045274
 31
0.0
  0
LINE
  5
447
330
444
100
AcDbEntity
  8
1
  6
Continuous
 62
     3
100
AcDbLine
 10
1762.795480647259
 20
1643.239600914589
 30
0.0
 11
1762.795480647259
 21
1669.66267045274
 31
0.0
  0
SOLID
  5
448
330
444
100
AcDbEntity
  8
1
 62
     3
100
AcDbTrace
 10
1905.795480647259
 20
1664.741102969628
 30
0.0
 11
1905.795480647259
 21
1666.584237935852
 31
0.0
 12
1912.795480647259
 22
1665.66267045274
 32
0.0
 13
1912.795480647259
 23
1665.66267045274
 33
0.0
  0
SOLID
  5
449
330
444
100
AcDbEntity
  8
1
 62
     3
100
AcDbTrace
 10
1769.795480647259
 20
1666.584237935852
 30
0.0
 11
1769.795480647259
 21
1664.741102969628
 31
0.0
 12
1762.795480647259
 22
1665.66267045274
 32
0.0
 13
1762.795480647259
 23
1665.66267045274
 33
0.0
  0
MTEXT
  5
44A
330
444
100
AcDbEntity
  8
1
 62
     4
100
AcDbMText
 10
1823.59730589735
 20
1669.66267045274
 30
0.0
 40
7.0
 41
0.0
 71
     7
 72
     1
  1
\C4;150\C3;\H4.2;{\Fgdt;`}1
  7
CONVERTER_11
 11
0.9999999999970619
 21
2.424068405545306E-6
 31
0.0
 73
     1
 44
0.60024009603842
  0
ENDBLK
  5
44C
330
444
100
AcDbEntity
  8
0
100
AcDbBlockEnd
  0
BLOCK
  5
456
330
44F
100
AcDbEntity
  8
0
100
AcDbBlockBegin
  2
*D18
 70
     1
 71
     0
 10
0.0
 20
0.0
 30
0.0
  3
*D18
  1

  0
LINE
  5
450
330
44F
100
AcDbEntity
  8
1
  6
Continuous
 62
     3
100
AcDbLine
 10
1792.795480647259
 20
1491.03375154704
 30
0.0
 11
1364.29608064726
 21
1491.03375154704
 31
0.0
  0
LINE
  5
451
330
44F
100
AcDbEntity
  8
1
  6
Continuous
 62
     3
100
AcDbLine
 10
1792.795480647259
 20
1545.239600914589
 30
0.0
 11
1792.795480647259
 21
1487.03375154704
 31
0.0
  0
LINE
  5
452
330
44F
100
AcDbEntity
  8
1
  6
Continuous
 62
     3
100
AcDbLine
 10
1364.29608064726
 20
1545.239600914589
 30
0.0
 11
1364.29608064726
 21
1487.03375154704
 31
0.0
  0
SOLID
  5
453
330
44F
100
AcDbEntity
  8
1
 62
     3
100
AcDbTrace
 10
1785.795480647259
 20
1490.112184063928
 30
0.0
 11
1785.795480647259
 21
1491.955319030152
 31
0.0
 12
1792.795480647259
 22
1491.03375154704
 32
0.0
 13
1792.795480647259
 23
1491.03375154704
 33
0.0
  0
SOLID
  5
454
330
44F
100
AcDbEntity
  8
1
 62
     3
100
AcDbTrace
 10
1371.29608064726
 20
1491.955319030152
 30
0.0
 11
1371.29608064726
 21
1490.112184063928
 31
0.0
 12
1364.29608064726
 22
1491.03375154704
 32
0.0
 13
1364.29608064726
 23
1491.03375154704
 33
0.0
  0
MTEXT
  5
455
330
44F
100
AcDbEntity
  8
1
 62
     4
100
AcDbMText
 10
1556.38268334492
 20
1495.03375154704
 30
0.0
 40
7.0
 41
0.0
 71
     7
 72
     1
  1
\C4;428.5\C3;\H4.2;{\Fgdt;`}0.2
  7
CONVERTER_11
 11
0.9999999999970619
 21
2.424068405545306E-6
 31
0.0
 73
     1
 44
0.60024009603842
  0
ENDBLK
  5
457
330
44F
100
AcDbEntity
  8
0
100
AcDbBlockEnd
  0
BLOCK
  5
461
330
45A
100
AcDbEntity
  8
0
100
AcDbBlockBegin
  2
*D19
 70
     1
 71
     0
 10
0.0
 20
0.0
 30
0.0
  3
*D19
  1

  0
LINE
  5
45B
330
45A
100
AcDbEntity
  8
1
  6
Continuous
 62
     3
100
AcDbLine
 10
1912.795480647259
 20
1491.03375154704
 30
0.0
 11
1792.795480647259
 21
1491.03375154704
 31
0.0
  0
LINE
  5
45C
330
45A
100
AcDbEntity
  8
1
  6
Continuous
 62
     3
100
AcDbLine
 10
1912.795480647259
 20
1508.04087291459
 30
0.0
 11
1912.795480647259
 21
1487.03375154704
 31
0.0
  0
LINE
  5
45D
330
45A
100
AcDbEntity
  8
1
  6
Continuous
 62
     3
100
AcDbLine
 10
1792.795480647259
 20
1545.239600914589
 30
0.0
 11
1792.795480647259
 21
1487.03375154704
 31
0.0
  0
SOLID
  5
45E
330
45A
100
AcDbEntity
  8
1
 62
     3
100
AcDbTrace
 10
1905.795480647259
 20
1490.112184063928
 30
0.0
 11
1905.795480647259
 21
1491.955319030152
 31
0.0
 12
1912.795480647259
 22
1491.03375154704
 32
0.0
 13
1912.795480647259
 23
1491.03375154704
 33
0.0
  0
SOLID
  5
45F
330
45A
100
AcDbEntity
  8
1
 62
     3
100
AcDbTrace
 10
1799.795480647259
 20
1491.955319030152
 30
0.0
 11
1799.795480647259
 21
1490.112184063928
 31
0.0
 12
1792.795480647259
 22
1491.03375154704
 32
0.0
 13
1792.795480647259
 23
1491.03375154704
 33
0.0
  0
MTEXT
  5
460
330
45A
100
AcDbEntity
  8
1
 62
     4
100
AcDbMText
 10
1834.739902290194
 20
1495.03375154704
 30
0.0
 40
7.0
 41
0.0
 71
     7
 72
     1
  1
\C4;120\C3;\H4.2;{\Fgdt;`}1
  7
CONVERTER_11
 11
0.9999999999970619
 21
2.424068405545306E-6
 31
0.0
 73
     1
 44
0.60024009603842
  0
ENDBLK
  5
462
330
45A
100
AcDbEntity
  8
0
100
AcDbBlockEnd
  0
BLOCK
  5
46C
330
465
100
AcDbEntity
  8
0
100
AcDbBlockBegin
  2
*D20
 70
     1
 71
     0
 10
0.0
 20
0.0
 30
0.0
  3
*D20
  1

  0
LINE
  5
466
330
465
100
AcDbEntity
  8
1
  6
Continuous
 62
     3
100
AcDbLine
 10
1501.588645544903
 20
1920.76835262797
 30
0.0
 11
1541.588645544903
 21
1920.76835262797
 31
0.0
  0
LINE
  5
467
330
465
100
AcDbEntity
  8
1
  6
Continuous
 62
     3
100
AcDbLine
 10
1501.588645544903
 20
1899.043660794765
 30
0.0
 11
1501.588645544903
 21
1924.76835262797
 31
0.0
  0
LINE
  5
468
330
465
100
AcDbEntity
  8
1
  6
Continuous
 62
     3
100
AcDbLine
 10
1541.588645544903
 20
1899.043660794765
 30
0.0
 11
1541.588645544903
 21
1924.76835262797
 31
0.0
  0
SOLID
  5
469
330
465
100
AcDbEntity
  8
1
 62
     3
100
AcDbTrace
 10
1508.588645544903
 20
1921.689920111082
 30
0.0
 11
1508.588645544903
 21
1919.846785144858
 31
0.0
 12
1501.588645544903
 22
1920.76835262797
 32
0.0
 13
1501.588645544903
 23
1920.76835262797
 33
0.0
  0
SOLID
  5
46A
330
465
100
AcDbEntity
  8
1
 62
     3
100
AcDbTrace
 10
1534.588645544903
 20
1919.846785144858
 30
0.0
 11
1534.588645544903
 21
1921.689920111082
 31
0.0
 12
1541.588645544903
 22
1920.76835262797
 32
0.0
 13
1541.588645544903
 23
1920.76835262797
 33
0.0
  0
MTEXT
  5
46B
330
465
100
AcDbEntity
  8
1
 62
     4
100
AcDbMText
 10
1506.66491849134
 20
1924.76835262797
 30
0.0
 40
7.0
 41
0.0
 71
     7
 72
     1
  1
\C4;40\C3;\H4.2;{\Fgdt;`}0.2
  7
CONVERTER_11
 11
0.9999999999970619
 21
2.424068405545306E-6
 31
0.0
 73
     1
 44
0.60024009603842
  0
ENDBLK
  5
46D
330
465
100
AcDbEntity
  8
0
100
AcDbBlockEnd
  0
BLOCK
  5
477
330
470
100
AcDbEntity
  8
0
100
AcDbBlockBegin
  2
*D21
 70
     1
 71
     0
 10
0.0
 20
0.0
 30
0.0
  3
*D21
  1

  0
LINE
  5
471
330
470
100
AcDbEntity
  8
1
  6
Continuous
 62
     3
100
AcDbLine
 10
1351.588645544904
 20
1920.76835262797
 30
0.0
 11
1501.588645544903
 21
1920.76835262797
 31
0.0
  0
LINE
  5
472
330
470
100
AcDbEntity
  8
1
  6
Continuous
 62
     3
100
AcDbLine
 10
1351.588645544904
 20
1763.844932794766
 30
0.0
 11
1351.588645544904
 21
1924.76835262797
 31
0.0
  0
LINE
  5
473
330
470
100
AcDbEntity
  8
1
  6
Continuous
 62
     3
100
AcDbLine
 10
1501.588645544903
 20
1899.043660794765
 30
0.0
 11
1501.588645544903
 21
1924.76835262797
 31
0.0
  0
SOLID
  5
474
330
470
100
AcDbEntity
  8
1
 62
     3
100
AcDbTrace
 10
1358.588645544904
 20
1921.689920111082
 30
0.0
 11
1358.588645544904
 21
1919.846785144858
 31
0.0
 12
1351.588645544904
 22
1920.76835262797
 32
0.0
 13
1351.588645544904
 23
1920.76835262797
 33
0.0
  0
SOLID
  5
475
330
470
100
AcDbEntity
  8
1
 62
     3
100
AcDbTrace
 10
1494.588645544903
 20
1919.846785144858
 30
0.0
 11
1494.588645544903
 21
1921.689920111082
 31
0.0
 12
1501.588645544903
 22
1920.76835262797
 32
0.0
 13
1501.588645544903
 23
1920.76835262797
 33
0.0
  0
MTEXT
  5
476
330
470
100
AcDbEntity
  8
1
 62
     4
100
AcDbMText
 10
1417.99601610585
 20
1924.76835262797
 30
0.0
 40
7.0
 41
0.0
 71
     7
 72
     1
  1
\C4;150\C3;\H4.2;{\Fgdt;`}1
  7
CONVERTER_11
 11
0.9999999999970619
 21
2.424068405545306E-6
 31
0.0
 73
     1
 44
0.60024009603842
  0
ENDBLK
  5
478
330
470
100
AcDbEntity
  8
0
100
AcDbBlockEnd
  0
BLOCK
  5
482
330
47B
100
AcDbEntity
  8
0
100
AcDbBlockBegin
  2
*D22
 70
     1
 71
     0
 10
0.0
 20
0.0
 30
0.0
  3
*D22
  1

  0
LINE
  5
47C
330
47B
100
AcDbEntity
  8
1
  6
Continuous
 62
     3
100
AcDbLine
 10
1471.588645544904
 20
1755.09387451684
 30
0.0
 11
1900.088045544903
 21
1755.09387451684
 31
0.0
  0
LINE
  5
47D
330
47B
100
AcDbEntity
  8
1
  6
Continuous
 62
     3
100
AcDbLine
 10
1471.588645544904
 20
1801.043660794765
 30
0.0
 11
1471.588645544904
 21
1751.09387451684
 31
0.0
  0
LINE
  5
47E
330
47B
100
AcDbEntity
  8
1
  6
Continuous
 62
     3
100
AcDbLine
 10
1900.088045544903
 20
1801.043660794765
 30
0.0
 11
1900.088045544903
 21
1751.09387451684
 31
0.0
  0
SOLID
  5
47F
330
47B
100
AcDbEntity
  8
1
 62
     3
100
AcDbTrace
 10
1478.588645544904
 20
1756.015441999952
 30
0.0
 11
1478.588645544904
 21
1754.172307033728
 31
0.0
 12
1471.588645544904
 22
1755.09387451684
 32
0.0
 13
1471.588645544904
 23
1755.09387451684
 33
0.0
  0
SOLID
  5
480
330
47B
100
AcDbEntity
  8
1
 62
     3
100
AcDbTrace
 10
1893.088045544903
 20
1754.172307033728
 30
0.0
 11
1893.088045544903
 21
1756.015441999952
 31
0.0
 12
1900.088045544903
 22
1755.09387451684
 32
0.0
 13
1900.088045544903
 23
1755.09387451684
 33
0.0
  0
MTEXT
  5
481
330
47B
100
AcDbEntity
  8
1
 62
     4
100
AcDbMText
 10
1667.13082777913
 20
1759.09387451684
 30
0.0
 40
7.0
 41
0.0
 71
     7
 72
     1
  1
\C4;428.5\C3;\H4.2;{\Fgdt;`}0.2
  7
CONVERTER_11
 11
0.9999999999970619
 21
2.424068405545306E-6
 31
0.0
 73
     1
 44
0.60024009603842
  0
ENDBLK
  5
483
330
47B
100
AcDbEntity
  8
0
100
AcDbBlockEnd
  0
BLOCK
  5
48D
330
486
100
AcDbEntity
  8
0
100
AcDbBlockBegin
  2
*D23
 70
     1
 71
     0
 10
0.0
 20
0.0
 30
0.0
  3
*D23
  1

  0
LINE
  5
487
330
486
100
AcDbEntity
  8
1
  6
Continuous
 62
     3
100
AcDbLine
 10
1351.588645544904
 20
1755.09387451684
 30
0.0
 11
1471.588645544904
 21
1755.09387451684
 31
0.0
  0
LINE
  5
488
330
486
100
AcDbEntity
  8
1
  6
Continuous
 62
     3
100
AcDbLine
 10
1351.588645544904
 20
1763.844932794766
 30
0.0
 11
1351.588645544904
 21
1751.09387451684
 31
0.0
  0
LINE
  5
489
330
486
100
AcDbEntity
  8
1
  6
Continuous
 62
     3
100
AcDbLine
 10
1471.588645544904
 20
1801.043660794765
 30
0.0
 11
1471.588645544904
 21
1751.09387451684
 31
0.0
  0
SOLID
  5
48A
330
486
100
AcDbEntity
  8
1
 62
     3
100
AcDbTrace
 10
1358.588645544904
 20
1756.015441999952
 30
0.0
 11
1358.588645544904
 21
1754.172307033728
 31
0.0
 12
1351.588645544904
 22
1755.09387451684
 32
0.0
 13
1351.588645544904
 23
1755.09387451684
 33
0.0
  0
SOLID
  5
48B
330
486
100
AcDbEntity
  8
1
 62
     3
100
AcDbTrace
 10
1464.588645544904
 20
1754.172307033728
 30
0.0
 11
1464.588645544904
 21
1756.015441999952
 31
0.0
 12
1471.588645544904
 22
1755.09387451684
 32
0.0
 13
1471.588645544904
 23
1755.09387451684
 33
0.0
  0
MTEXT
  5
48C
330
486
100
AcDbEntity
  8
1
 62
     4
100
AcDbMText
 10
1406.909248882858
 20
1759.09387451684
 30
0.0
 40
7.0
 41
0.0
 71
     7
 72
     1
  1
\C4;120\C3;\H4.2;{\Fgdt;`}1
  7
CONVERTER_11
 11
0.9999999999970619
 21
2.424068405545306E-6
 31
0.0
 73
     1
 44
0.60024009603842
  0
ENDBLK
  5
48E
330
486
100
AcDbEntity
  8
0
100
AcDbBlockEnd
  0
BLOCK
  5
568
330
561
100
AcDbEntity
  8
0
100
AcDbBlockBegin
  2
*D24
 70
     1
 71
     0
 10
0.0
 20
0.0
 30
0.0
  3
*D24
  1

  0
LINE
  5
562
330
561
100
AcDbEntity
  8
1
  6
Continuous
 62
     3
100
AcDbLine
 10
486.734305518406
 20
876.1491733375642
 30
0.0
 11
486.734305518406
 21
838.149173337564
 31
0.0
  0
LINE
  5
563
330
561
100
AcDbEntity
  8
1
  6
Continuous
 62
     3
100
AcDbLine
 10
546.5574457555989
 20
876.1491733375642
 30
0.0
 11
484.734305518406
 21
876.1491733375642
 31
0.0
  0
LINE
  5
564
330
561
100
AcDbEntity
  8
1
  6
Continuous
 62
     3
100
AcDbLine
 10
551.759201248117
 20
838.149173337564
 30
0.0
 11
484.734305518406
 21
838.149173337564
 31
0.0
  0
SOLID
  5
565
330
561
100
AcDbEntity
  8
1
 62
     3
100
AcDbTrace
 10
487.1950892599619
 20
872.6491733375642
 30
0.0
 11
486.2735217768501
 21
872.6491733375642
 31
0.0
 12
486.734305518406
 22
876.1491733375642
 32
0.0
 13
486.734305518406
 23
876.1491733375642
 33
0.0
  0
SOLID
  5
566
330
561
100
AcDbEntity
  8
1
 62
     3
100
AcDbTrace
 10
486.2735217768501
 20
841.649173337564
 30
0.0
 11
487.1950892599619
 21
841.649173337564
 31
0.0
 12
486.734305518406
 22
838.149173337564
 32
0.0
 13
486.734305518406
 23
838.149173337564
 33
0.0
  0
MTEXT
  5
567
330
561
100
AcDbEntity
  8
1
 62
     4
100
AcDbMText
 10
484.734305518406
 20
852.0991733375645
 30
0.0
 40
3.5
 41
0.0
 71
     7
 72
     1
  1
\C4;38\C3;\H2.1;{\Fgdt;`}1
  7
CONVERTER_11
 11
0.0
 21
1.0
 31
0.0
 73
     1
 44
0.60024009603842
  0
ENDBLK
  5
569
330
561
100
AcDbEntity
  8
0
100
AcDbBlockEnd
  0
BLOCK
  5
573
330
56C
100
AcDbEntity
  8
0
100
AcDbBlockBegin
  2
*D25
 70
     1
 71
     0
 10
0.0
 20
0.0
 30
0.0
  3
*D25
  1

  0
LINE
  5
56D
330
56C
100
AcDbEntity
  8
1
  6
Continuous
 62
     3
100
AcDbLine
 10
502.008317288242
 20
876.1491733375642
 30
0.0
 11
502.008317288242
 21
898.1491733375642
 31
0.0
  0
LINE
  5
56E
330
56C
100
AcDbEntity
  8
1
  6
Continuous
 62
     3
100
AcDbLine
 10
546.5574457555989
 20
876.1491733375642
 30
0.0
 11
500.008317288242
 21
876.1491733375642
 31
0.0
  0
LINE
  5
56F
330
56C
100
AcDbEntity
  8
1
  6
Continuous
 62
     3
100
AcDbLine
 10
546.5574457555989
 20
898.1491733375642
 30
0.0
 11
500.008317288242
 21
898.1491733375642
 31
0.0
  0
SOLID
  5
570
330
56C
100
AcDbEntity
  8
1
 62
     3
100
AcDbTrace
 10
501.5475335466861
 20
879.6491733375642
 30
0.0
 11
502.4691010297979
 21
879.6491733375642
 31
0.0
 12
502.008317288242
 22
876.1491733375642
 32
0.0
 13
502.008317288242
 23
876.1491733375642
 33
0.0
  0
SOLID
  5
571
330
56C
100
AcDbEntity
  8
1
 62
     3
100
AcDbTrace
 10
502.4691010297979
 20
894.6491733375642
 30
0.0
 11
501.5475335466861
 21
894.6491733375642
 31
0.0
 12
502.008317288242
 22
898.1491733375642
 32
0.0
 13
502.008317288242
 23
898.1491733375642
 33
0.0
  0
MTEXT
  5
572
330
56C
100
AcDbEntity
  8
1
 62
     4
100
AcDbMText
 10
500.008317288242
 20
884.1117010749582
 30
0.0
 40
3.5
 41
0.0
 71
     7
 72
     1
  1
22
  7
CONVERTER_11
 11
0.0
 21
1.0
 31
0.0
 73
     1
 44
0.60024009603842
  0
ENDBLK
  5
574
330
56C
100
AcDbEntity
  8
0
100
AcDbBlockEnd
  0
BLOCK
  5
57E
330
577
100
AcDbEntity
  8
0
100
AcDbBlockBegin
  2
*D26
 70
     1
 71
     0
 10
0.0
 20
0.0
 30
0.0
  3
*D26
  1

  0
LINE
  5
578
330
577
100
AcDbEntity
  8
1
  6
Continuous
 62
     3
100
AcDbLine
 10
486.734305518406
 20
876.1491733375642
 30
0.0
 11
486.734305518406
 21
920.1491733375642
 31
0.0
  0
LINE
  5
579
330
577
100
AcDbEntity
  8
1
  6
Continuous
 62
     3
100
AcDbLine
 10
546.5574457555989
 20
876.1491733375642
 30
0.0
 11
484.734305518406
 21
876.1491733375642
 31
0.0
  0
LINE
  5
57A
330
577
100
AcDbEntity
  8
1
  6
Continuous
 62
     3
100
AcDbLine
 10
546.5574457555989
 20
920.1491733375642
 30
0.0
 11
484.734305518406
 21
920.1491733375642
 31
0.0
  0
SOLID
  5
57B
330
577
100
AcDbEntity
  8
1
 62
     3
100
AcDbTrace
 10
486.2735217768501
 20
879.6491733375642
 30
0.0
 11
487.1950892599619
 21
879.6491733375642
 31
0.0
 12
486.734305518406
 22
876.1491733375642
 32
0.0
 13
486.734305518406
 23
876.1491733375642
 33
0.0
  0
SOLID
  5
57C
330
577
100
AcDbEntity
  8
1
 62
     3
100
AcDbTrace
 10
487.1950892599619
 20
916.6491733375642
 30
0.0
 11
486.2735217768501
 21
916.6491733375642
 31
0.0
 12
486.734305518406
 22
920.1491733375642
 32
0.0
 13
486.734305518406
 23
920.1491733375642
 33
0.0
  0
MTEXT
  5
57D
330
577
100
AcDbEntity
  8
1
 62
     4
100
AcDbMText
 10
484.734305518406
 20
893.3295183332453
 30
0.0
 40
3.5
 41
0.0
 71
     7
 72
     1
  1
\C4;44\C3;\H2.1;{\Fgdt;`}0.1
  7
CONVERTER_11
 11
0.0
 21
1.0
 31
0.0
 73
     1
 44
0.60024009603842
  0
ENDBLK
  5
57F
330
577
100
AcDbEntity
  8
0
100
AcDbBlockEnd
  0
BLOCK
  5
589
330
582
100
AcDbEntity
  8
0
100
AcDbBlockBegin
  2
*D27
 70
     1
 71
     0
 10
0.0
 20
0.0
 30
0.0
  3
*D27
  1

  0
LINE
  5
583
330
582
100
AcDbEntity
  8
1
  6
Continuous
 62
     3
100
AcDbLine
 10
502.008317288242
 20
859.6491733375644
 30
0.0
 11
502.008317288242
 21
876.1491733375642
 31
0.0
  0
LINE
  5
584
330
582
100
AcDbEntity
  8
1
  6
Continuous
 62
     3
100
AcDbLine
 10
546.5574457555989
 20
876.1491733375642
 30
0.0
 11
500.008317288242
 21
876.1491733375642
 31
0.0
  0
LINE
  5
585
330
582
100
AcDbEntity
  8
1
  6
Continuous
 62
     3
100
AcDbLine
 10
559.509201248117
 20
859.6491733375644
 30
0.0
 11
500.008317288242
 21
859.6491733375644
 31
0.0
  0
SOLID
  5
586
330
582
100
AcDbEntity
  8
1
 62
     3
100
AcDbTrace
 10
501.5475335466861
 20
863.1491733375644
 30
0.0
 11
502.4691010297979
 21
863.1491733375644
 31
0.0
 12
502.008317288242
 22
859.6491733375644
 32
0.0
 13
502.008317288242
 23
859.6491733375644
 33
0.0
  0
SOLID
  5
587
330
582
100
AcDbEntity
  8
1
 62
     3
100
AcDbTrace
 10
502.4691010297979
 20
872.6491733375642
 30
0.0
 11
501.5475335466861
 21
872.6491733375642
 31
0.0
 12
502.008317288242
 22
876.1491733375642
 32
0.0
 13
502.008317288242
 23
876.1491733375642
 33
0.0
  0
MTEXT
  5
588
330
582
100
AcDbEntity
  8
1
 62
     4
100
AcDbMText
 10
500.008317288242
 20
863.345890555541
 30
0.0
 40
3.5
 41
0.0
 71
     7
 72
     1
  1
16.5
  7
CONVERTER_11
 11
0.0
 21
1.0
 31
0.0
 73
     1
 44
0.60024009603842
  0
ENDBLK
  5
58A
330
582
100
AcDbEntity
  8
0
100
AcDbBlockEnd
  0
ENDSEC
  0
SECTION
  2
ENTITIES
  0
INSERT
  5
79
330
1F
100
AcDbEntity
  8
0
100
AcDbBlockReference
  2
TOP__2
 10
578.617546445765
 20
-282.455247228799
 30
0.0
  0
INSERT
  5
7A
330
1F
100
AcDbEntity
  8
1
100
AcDbBlockReference
  2
Profil-Stahltuer
 10
38.08755252871197
 20
-856.261548798284
 30
0.0
  0
LINE
  5
4F9
330
1F
100
AcDbEntity
  8
1
  6
Continuous
 62
     1
100
AcDbLine
 10
561.509201248117
 20
859.6491733375644
 30
0.0
 11
559.509201248117
 21
859.6491733375644
 31
0.0
  0
LINE
  5
4FA
330
1F
100
AcDbEntity
  8
1
  6
DASH_CENTER
 62
     3
100
AcDbLine
 10
551.759201248117
 20
838.149173337564
 30
0.0
 11
564.759201248117
 21
838.149173337564
 31
0.0
  0
LINE
  5
4FB
330
1F
100
AcDbEntity
  8
0
  6
Continuous
 62
     1
100
AcDbLine
 10
554.759201248117
 20
922.6491733375642
 30
0.0
 11
561.759201248117
 21
922.6491733375642
 31
0.0
  0
LINE
  5
4FC
330
1F
100
AcDbEntity
  8
0
  6
Continuous
 62
     1
100
AcDbLine
 10
554.759201248117
 20
917.6491733375642
 30
0.0
 11
561.759201248117
 21
917.6491733375642
 31
0.0
  0
LINE
  5
4FD
330
1F
100
AcDbEntity
  8
0
  6
Continuous
 62
     3
100
AcDbLine
 10
554.759201248117
 20
918.349125337565
 30
0.0
 11
561.759201248117
 21
918.3491253375641
 31
0.0
  0
LINE
  5
4FE
330
1F
100
AcDbEntity
  8
0
  6
Continuous
 62
     3
100
AcDbLine
 10
554.759201248117
 20
921.9489783375648
 30
0.0
 11
561.759201248117
 21
921.9489783375648
 31
0.0
  0
LINE
  5
4FF
330
1F
100
AcDbEntity
  8
0
  6
Continuous
 62
     1
100
AcDbLine
 10
554.759201248117
 20
922.6491733375642
 30
0.0
 11
554.759201248117
 21
917.6491733375642
 31
0.0
  0
LINE
  5
500
330
1F
100
AcDbEntity
  8
0
  6
Continuous
 62
     1
100
AcDbLine
 10
554.759201248117
 20
878.6491733375642
 30
0.0
 11
554.759201248117
 21
873.6491733375642
 31
0.0
  0
LINE
  5
501
330
1F
100
AcDbEntity
  8
0
  6
Continuous
 62
     3
100
AcDbLine
 10
554.759201248117
 20
877.9489783375648
 30
0.0
 11
559.259201248117
 21
877.9489783375648
 31
0.0
  0
LINE
  5
502
330
1F
100
AcDbEntity
  8
0
  6
Continuous
 62
     3
100
AcDbLine
 10
554.759201248117
 20
874.349125337565
 30
0.0
 11
559.259201248117
 21
874.3491253375641
 31
0.0
  0
LINE
  5
503
330
1F
100
AcDbEntity
  8
0
  6
Continuous
 62
     1
100
AcDbLine
 10
554.759201248117
 20
873.6491733375642
 30
0.0
 11
559.259201248117
 21
873.6491733375642
 31
0.0
  0
LINE
  5
504
330
1F
100
AcDbEntity
  8
0
  6
Continuous
 62
     1
100
AcDbLine
 10
554.759201248117
 20
878.6491733375642
 30
0.0
 11
559.259201248117
 21
878.6491733375642
 31
0.0
  0
LINE
  5
505
330
1F
100
AcDbEntity
  8
1
  6
DASH_CENTER
 62
     3
100
AcDbLine
 10
600.1281177760198
 20
898.1491733375642
 30
0.0
 11
546.5574457555989
 21
898.1491733375642
 31
0.0
  0
LINE
  5
506
330
1F
100
AcDbEntity
  8
0
  6
Continuous
 62
     1
100
AcDbLine
 10
568.259201248117
 20
868.1491733375638
 30
0.0
 11
563.759201248117
 21
868.1491733375638
 31
0.0
  0
LINE
  5
507
330
1F
100
AcDbEntity
  8
0
  6
Continuous
 62
     1
100
AcDbLine
 10
589.259201248117
 20
868.1491733375638
 30
0.0
 11
568.259201248117
 21
868.1491733375638
 31
0.0
  0
LINE
  5
508
330
1F
100
AcDbEntity
  8
1
  6
Continuous
 62
     1
100
AcDbLine
 10
589.759201248117
 20
851.6491733375642
 30
0.0
 11
589.759201248117
 21
856.6491733375644
 31
0.0
  0
LINE
  5
509
330
1F
100
AcDbEntity
  8
1
  6
Continuous
 62
     1
100
AcDbLine
 10
568.259201248117
 20
851.6491733375644
 30
0.0
 11
568.259201248117
 21
856.6491733375644
 31
0.0
  0
LINE
  5
50A
330
1F
100
AcDbEntity
  8
1
  6
Continuous
 62
     1
100
AcDbLine
 10
582.7592012481172
 20
851.6491733375642
 30
0.0
 11
582.7592012481172
 21
856.6491733375644
 31
0.0
  0
LINE
  5
50B
330
1F
100
AcDbEntity
  8
1
  6
Continuous
 62
     1
100
AcDbLine
 10
568.259201248117
 20
851.6491733375644
 30
0.0
 11
589.759201248117
 21
851.6491733375642
 31
0.0
  0
LINE
  5
50C
330
1F
100
AcDbEntity
  8
1
  6
Continuous
 62
     1
100
AcDbLine
 10
589.759201248117
 20
856.6491733375644
 30
0.0
 11
568.259201248117
 21
856.6491733375644
 31
0.0
  0
LINE
  5
50D
330
1F
100
AcDbEntity
  8
1
  6
Continuous
 62
     1
100
AcDbLine
 10
569.1818509789273
 20
857.1491733375643
 30
0.0
 11
567.759201248117
 21
859.613274952702
 31
0.0
  0
LINE
  5
50E
330
1F
100
AcDbEntity
  8
1
  6
Continuous
 62
     1
100
AcDbLine
 10
589.7592012481168
 20
859.613274952702
 30
0.0
 11
588.3365515173068
 21
857.1491733375643
 31
0.0
  0
LINE
  5
50F
330
1F
100
AcDbEntity
  8
1
  6
Continuous
 62
     1
100
AcDbLine
 10
589.259201248117
 20
868.1491733375638
 30
0.0
 11
589.2592012481168
 21
867.1491733375643
 31
0.0
  0
LINE
  5
510
330
1F
100
AcDbEntity
  8
1
  6
Continuous
 62
     4
100
AcDbLine
 10
589.7592012481168
 20
866.6491733375643
 30
0.0
 11
567.759201248117
 21
866.6491733375643
 31
0.0
  0
LINE
  5
511
330
1F
100
AcDbEntity
  8
1
  6
Continuous
 62
     4
100
AcDbLine
 10
568.259201248117
 20
867.1491733375643
 30
0.0
 11
589.2592012481168
 21
867.1491733375643
 31
0.0
  0
LINE
  5
512
330
1F
100
AcDbEntity
  8
1
  6
Continuous
 62
     1
100
AcDbLine
 10
589.2592012481168
 20
867.1491733375643
 30
0.0
 11
589.7592012481168
 21
866.6491733375643
 31
0.0
  0
LINE
  5
513
330
1F
100
AcDbEntity
  8
1
  6
Continuous
 62
     1
100
AcDbLine
 10
589.7592012481168
 20
866.6491733375643
 30
0.0
 11
589.7592012481168
 21
859.613274952702
 31
0.0
  0
LINE
  5
514
330
1F
100
AcDbEntity
  8
1
  6
Continuous
 62
     1
100
AcDbLine
 10
567.759201248117
 20
859.613274952702
 30
0.0
 11
567.759201248117
 21
866.6491733375643
 31
0.0
  0
LINE
  5
515
330
1F
100
AcDbEntity
  8
1
  6
Continuous
 62
     1
100
AcDbLine
 10
567.759201248117
 20
866.6491733375643
 30
0.0
 11
568.259201248117
 21
867.1491733375643
 31
0.0
  0
LINE
  5
516
330
1F
100
AcDbEntity
  8
1
  6
Continuous
 62
     1
100
AcDbLine
 10
568.259201248117
 20
867.1491733375643
 30
0.0
 11
568.259201248117
 21
868.1491733375638
 31
0.0
  0
LINE
  5
517
330
1F
100
AcDbEntity
  8
1
  6
Continuous
 62
     1
100
AcDbLine
 10
589.7592012481168
 20
859.613274952702
 30
0.0
 11
567.759201248117
 21
859.613274952702
 31
0.0
  0
LINE
  5
518
330
1F
100
AcDbEntity
  8
1
  6
Continuous
 62
     4
100
AcDbLine
 10
596.1177660314866
 20
868.0446145937372
 30
0.0
 11
594.7374703021602
 21
868.4001450102639
 31
0.0
  0
LINE
  5
519
330
1F
100
AcDbEntity
  8
1
  6
Continuous
 62
     4
100
AcDbLine
 10
594.8616014110366
 20
868.8820661947666
 30
0.0
 11
596.2887761031494
 21
868.5144609041313
 31
0.0
  0
LINE
  5
51A
330
1F
100
AcDbEntity
  8
1
  6
DASH_CENTER
 62
     3
100
AcDbLine
 10
600.1281177760198
 20
876.1491733375642
 30
0.0
 11
546.5574457555989
 21
876.1491733375642
 31
0.0
  0
LINE
  5
51B
330
1F
100
AcDbEntity
  8
1
  6
DOT_CENTER
 62
     3
100
AcDbLine
 10
578.759201248117
 20
935.6774284793844
 30
0.0
 11
578.759201248117
 21
850.0812789532742
 31
0.0
  0
LINE
  5
51C
330
1F
100
AcDbEntity
  8
0
  6
Continuous
 62
     1
100
AcDbLine
 10
563.759201248117
 20
879.0491733375643
 30
0.0
 11
563.759201248117
 21
895.2491733375641
 31
0.0
  0
LINE
  5
51D
330
1F
100
AcDbEntity
  8
0
  6
Continuous
 62
     1
100
AcDbLine
 10
563.759201248117
 20
873.2491733375641
 30
0.0
 11
563.759201248117
 21
879.0491733375643
 31
0.0
  0
LINE
  5
51E
330
1F
100
AcDbEntity
  8
0
  6
Continuous
 62
     1
100
AcDbLine
 10
594.2605596533606
 20
869.1355257911605
 30
0.0
 11
593.9046966229846
 21
868.1491733375638
 31
0.0
  0
LINE
  5
51F
330
1F
100
AcDbEntity
  8
0
  6
Continuous
 62
     1
100
AcDbLine
 10
593.9046966229846
 20
868.1491733375638
 30
0.0
 11
589.259201248117
 21
868.1491733375638
 31
0.0
  0
LINE
  5
520
330
1F
100
AcDbEntity
  8
0
  6
Continuous
 62
     1
100
AcDbLine
 10
563.759201248117
 20
868.1491733375638
 30
0.0
 11
563.759201248117
 21
873.2491733375641
 31
0.0
  0
LINE
  5
521
330
1F
100
AcDbEntity
  8
0
  6
Continuous
 62
     1
100
AcDbLine
 10
595.1502197771881
 20
868.8117159874732
 30
0.0
 11
594.2605596533606
 21
869.1355257911605
 31
0.0
  0
LINE
  5
522
330
1F
100
AcDbEntity
  8
0
  6
Continuous
 62
     1
100
AcDbLine
 10
563.759201248117
 20
923.0491733375643
 30
0.0
 11
563.759201248117
 21
928.1491733375644
 31
0.0
  0
LINE
  5
523
330
1F
100
AcDbEntity
  8
0
  6
Continuous
 62
     1
100
AcDbLine
 10
563.759201248117
 20
923.0491733375643
 30
0.0
 11
563.759201248117
 21
917.2491733375641
 31
0.0
  0
LINE
  5
524
330
1F
100
AcDbEntity
  8
0
  6
Continuous
 62
     1
100
AcDbLine
 10
593.9046966229837
 20
928.1491733375651
 30
0.0
 11
563.759201248117
 21
928.1491733375644
 31
0.0
  0
LINE
  5
525
330
1F
100
AcDbEntity
  8
0
  6
Continuous
 62
     1
100
AcDbLine
 10
594.2605596533597
 20
927.1628208839663
 30
0.0
 11
595.1502197771886
 21
927.4866306876538
 31
0.0
  0
LINE
  5
526
330
1F
100
AcDbEntity
  8
0
  6
Continuous
 62
     1
100
AcDbLine
 10
593.9046966229837
 20
928.1491733375651
 30
0.0
 11
594.2605596533597
 21
927.1628208839663
 31
0.0
  0
LINE
  5
527
330
1F
100
AcDbEntity
  8
0
  6
Continuous
 62
     1
100
AcDbLine
 10
563.759201248117
 20
901.0491733375643
 30
0.0
 11
563.759201248117
 21
917.2491733375641
 31
0.0
  0
LINE
  5
528
330
1F
100
AcDbEntity
  8
0
  6
Continuous
 62
     1
100
AcDbLine
 10
563.759201248117
 20
895.2491733375641
 30
0.0
 11
563.759201248117
 21
901.0491733375643
 31
0.0
  0
LINE
  5
529
330
1F
100
AcDbEntity
  8
1
  6
DASH_CENTER
 62
     3
100
AcDbLine
 10
600.1281177760198
 20
920.1491733375642
 30
0.0
 11
546.5574457555989
 21
920.1491733375642
 31
0.0
  0
LINE
  5
52A
330
1F
100
AcDbEntity
  8
1
  6
Continuous
 62
     4
100
AcDbLine
 10
594.8378637612002
 20
927.3999320417886
 30
0.0
 11
594.6944354518528
 21
927.8789188057785
 31
0.0
  0
LINE
  5
52B
330
1F
100
AcDbEntity
  8
1
  6
Continuous
 62
     4
100
AcDbLine
 10
594.6944354518528
 20
927.8789188057785
 30
0.0
 11
596.151795883201
 21
928.3153123733923
 31
0.0
  0
LINE
  5
52C
330
1F
100
AcDbEntity
  8
1
  6
Continuous
 62
     4
100
AcDbLine
 10
596.29280290258
 20
927.8356005757421
 30
0.0
 11
594.8378637612002
 21
927.3999320417886
 31
0.0
  0
LINE
  5
52D
330
1F
100
AcDbEntity
  8
1
  6
Continuous
 62
     4
100
AcDbLine
 10
594.8616014110366
 20
868.8820661947666
 30
0.0
 11
594.7374703021602
 21
868.4001450102639
 31
0.0
  0
LINE
  5
52E
330
1F
100
AcDbEntity
  8
0
  6
Continuous
 62
     1
100
AcDbLine
 10
554.759201248117
 20
840.649173337564
 30
0.0
 11
561.759201248117
 21
840.649173337564
 31
0.0
  0
LINE
  5
52F
330
1F
100
AcDbEntity
  8
0
  6
Continuous
 62
     1
100
AcDbLine
 10
554.759201248117
 20
835.649173337564
 30
0.0
 11
561.759201248117
 21
835.649173337564
 31
0.0
  0
LINE
  5
530
330
1F
100
AcDbEntity
  8
0
  6
Continuous
 62
     3
100
AcDbLine
 10
554.759201248117
 20
836.3491253375648
 30
0.0
 11
561.759201248117
 21
836.3491253375639
 31
0.0
  0
LINE
  5
531
330
1F
100
AcDbEntity
  8
0
  6
Continuous
 62
     3
100
AcDbLine
 10
554.759201248117
 20
839.9489783375645
 30
0.0
 11
561.759201248117
 21
839.9489783375645
 31
0.0
  0
LINE
  5
532
330
1F
100
AcDbEntity
  8
0
  6
Continuous
 62
     1
100
AcDbLine
 10
554.759201248117
 20
840.649173337564
 30
0.0
 11
554.759201248117
 21
835.649173337564
 31
0.0
  0
LINE
  5
533
330
1F
100
AcDbEntity
  8
1
  6
DOT_CENTER
 62
     3
100
AcDbLine
 10
579.259201248117
 20
845.6201086958471
 30
0.0
 11
579.259201248117
 21
854.1095139801992
 31
0.0
  0
LINE
  5
534
330
1F
100
AcDbEntity
  8
1
  6
Continuous
 62
     1
100
AcDbLine
 10
587.259201248117
 20
851.5491243375639
 30
0.0
 11
571.259201248117
 21
851.5491243375639
 31
0.0
  0
LINE
  5
535
330
1F
100
AcDbEntity
  8
1
  6
Continuous
 62
     1
100
AcDbLine
 10
587.259201248117
 20
848.3491243375638
 30
0.0
 11
594.5487583861354
 21
848.3491243375638
 31
0.0
  0
LINE
  5
536
330
1F
100
AcDbEntity
  8
1
  6
Continuous
 62
     1
100
AcDbLine
 10
587.259201248117
 20
848.3491243375638
 30
0.0
 11
587.259201248117
 21
851.5491243375639
 31
0.0
  0
LINE
  5
537
330
1F
100
AcDbEntity
  8
1
  6
Continuous
 62
     1
100
AcDbLine
 10
571.259201248117
 20
848.3491243375638
 30
0.0
 11
587.259201248117
 21
848.3491243375638
 31
0.0
  0
LINE
  5
538
330
1F
100
AcDbEntity
  8
1
  6
Continuous
 62
     1
100
AcDbLine
 10
571.259201248117
 20
848.3491243375638
 30
0.0
 11
571.259201248117
 21
851.5491243375639
 31
0.0
  0
LINE
  5
539
330
1F
100
AcDbEntity
  8
1
  6
LONG_DASHED
 62
     3
100
AcDbLine
 10
591.909201248117
 20
846.3491243375638
 30
0.0
 11
591.909201248117
 21
829.9491243375637
 31
0.0
  0
LINE
  5
53A
330
1F
100
AcDbEntity
  8
1
  6
LONG_DASHED
 62
     3
100
AcDbLine
 10
566.609201248117
 20
829.9491243375637
 30
0.0
 11
566.609201248117
 21
846.3491243375638
 31
0.0
  0
LINE
  5
53B
330
1F
100
AcDbEntity
  8
1
  6
Continuous
 62
     3
100
AcDbLine
 10
588.759201248117
 20
848.3491243375638
 30
0.0
 11
588.759201248117
 21
846.3491243375638
 31
0.0
  0
LINE
  5
53C
330
1F
100
AcDbEntity
  8
1
  6
LONG_DASHED
 62
     3
100
AcDbLine
 10
579.259201248117
 20
821.8491243375638
 30
0.0
 11
591.909201248117
 21
821.8491243375638
 31
0.0
  0
LINE
  5
53D
330
1F
100
AcDbEntity
  8
1
  6
LONG_DASHED
 62
     3
100
AcDbLine
 10
588.759201248117
 20
827.5491243375639
 30
0.0
 11
591.909201248117
 21
827.5491243375639
 31
0.0
  0
LINE
  5
53E
330
1F
100
AcDbEntity
  8
1
  6
LONG_DASHED
 62
     3
100
AcDbLine
 10
588.759201248117
 20
829.9491243375637
 30
0.0
 11
591.909201248117
 21
829.9491243375637
 31
0.0
  0
LINE
  5
53F
330
1F
100
AcDbEntity
  8
1
  6
LONG_DASHED
 62
     3
100
AcDbLine
 10
588.759201248117
 20
846.3491243375638
 30
0.0
 11
591.909201248117
 21
846.3491243375638
 31
0.0
  0
LINE
  5
540
330
1F
100
AcDbEntity
  8
1
  6
LONG_DASHED
 62
     3
100
AcDbLine
 10
591.909201248117
 20
827.5491243375639
 30
0.0
 11
591.909201248117
 21
821.8491243375638
 31
0.0
  0
LINE
  5
541
330
1F
100
AcDbEntity
  8
1
  6
LONG_DASHED
 62
     3
100
AcDbLine
 10
588.759201248117
 20
827.5491243375639
 30
0.0
 11
588.759201248117
 21
829.9491243375637
 31
0.0
  0
LINE
  5
542
330
1F
100
AcDbEntity
  8
1
  6
Continuous
 62
     1
100
AcDbLine
 10
569.759201248117
 20
848.3491243375638
 30
0.0
 11
571.259201248117
 21
848.3491243375638
 31
0.0
  0
LINE
  5
543
330
1F
100
AcDbEntity
  8
1
  6
LONG_DASHED
 62
     3
100
AcDbLine
 10
569.759201248117
 20
846.3491243375638
 30
0.0
 11
569.759201248117
 21
848.3491243375638
 31
0.0
  0
LINE
  5
544
330
1F
100
AcDbEntity
  8
1
  6
LONG_DASHED
 62
     3
100
AcDbLine
 10
569.759201248117
 20
829.9491243375637
 30
0.0
 11
569.759201248117
 21
827.5491243375639
 31
0.0
  0
LINE
  5
545
330
1F
100
AcDbEntity
  8
1
  6
LONG_DASHED
 62
     3
100
AcDbLine
 10
566.609201248117
 20
821.8491243375638
 30
0.0
 11
566.609201248117
 21
827.5491243375639
 31
0.0
  0
LINE
  5
546
330
1F
100
AcDbEntity
  8
1
  6
LONG_DASHED
 62
     3
100
AcDbLine
 10
566.609201248117
 20
846.3491243375638
 30
0.0
 11
569.759201248117
 21
846.3491243375638
 31
0.0
  0
LINE
  5
547
330
1F
100
AcDbEntity
  8
1
  6
LONG_DASHED
 62
     3
100
AcDbLine
 10
566.609201248117
 20
829.9491243375637
 30
0.0
 11
569.759201248117
 21
829.9491243375637
 31
0.0
  0
LINE
  5
548
330
1F
100
AcDbEntity
  8
1
  6
LONG_DASHED
 62
     3
100
AcDbLine
 10
566.609201248117
 20
827.5491243375639
 30
0.0
 11
569.759201248117
 21
827.5491243375639
 31
0.0
  0
LINE
  5
549
330
1F
100
AcDbEntity
  8
1
  6
LONG_DASHED
 62
     3
100
AcDbLine
 10
566.609201248117
 20
821.8491243375638
 30
0.0
 11
579.259201248117
 21
821.8491243375638
 31
0.0
  0
LINE
  5
54A
330
1F
100
AcDbEntity
  8
1
  6
Continuous
 62
     1
100
AcDbLine
 10
563.759201248117
 20
848.3491243375638
 30
0.0
 11
563.759201248117
 21
818.3491243375638
 31
0.0
  0
LINE
  5
54B
330
1F
100
AcDbEntity
  8
1
  6
Continuous
 62
     1
100
AcDbLine
 10
563.759201248117
 20
848.3491243375638
 30
0.0
 11
569.759201248117
 21
848.3491243375638
 31
0.0
  0
LINE
  5
54C
330
1F
100
AcDbEntity
  8
1
  6
Continuous
 62
     1
100
AcDbLine
 10
563.759201248117
 20
818.3491243375638
 30
0.0
 11
594.5487583861354
 21
818.3491243375638
 31
0.0
  0
ARC
  5
54D
330
1F
100
AcDbEntity
  8
1
  6
Continuous
 62
     4
100
AcDbCircle
 10
444.1491061917574
 20
898.2164103012847
 30
0.0
 40
155.0000028430618
100
AcDbArc
 50
-11.03844046244276
 51
11.01649246173413
  0
ARC
  5
54E
330
1F
100
AcDbEntity
  8
0
  6
Continuous
 62
     1
100
AcDbCircle
 10
418.7592012481174
 20
898.1491733375638
 30
0.0
 40
179.9999999999996
100
AcDbArc
 50
-1.65544172571487
 51
1.65544172571516
  0
ARC
  5
54F
330
1F
100
AcDbEntity
  8
0
  6
Continuous
 62
     1
100
AcDbCircle
 10
418.7592012481177
 20
898.1491733375617
 30
0.0
 40
179.9999999999994
100
AcDbArc
 50
1.65544172571582
 51
5.3554006130536
  0
ARC
  5
550
330
1F
100
AcDbEntity
  8
0
  6
Continuous
 62
     1
100
AcDbCircle
 10
418.7592012481253
 20
898.149173337614
 30
0.0
 40
179.9999999999994
100
AcDbArc
 50
-9.12835634124131
 51
-8.69132255404758
  0
ARC
  5
551
330
1F
100
AcDbEntity
  8
0
  6
Continuous
 62
     1
100
AcDbCircle
 10
595.4922399205136
 20
869.7514086082595
 30
0.0
 40
1.000000000000233
100
AcDbArc
 50
-109.9999999999848
 51
-9.12835634121333
  0
ARC
  5
552
330
1F
100
AcDbEntity
  8
0
  6
Continuous
 62
     1
100
AcDbCircle
 10
418.7592012481177
 20
898.1491733375617
 30
0.0
 40
179.9999999999993
100
AcDbArc
 50
5.3554006130536
 51
8.69132255403234
  0
ARC
  5
553
330
1F
100
AcDbEntity
  8
0
  6
Continuous
 62
     1
100
AcDbCircle
 10
418.7592012481055
 20
898.1491733376401
 30
0.0
 40
179.9999999999995
100
AcDbArc
 50
8.69132255400708
 51
9.12835634120084
  0
ARC
  5
554
330
1F
100
AcDbEntity
  8
0
  6
Continuous
 62
     1
100
AcDbCircle
 10
595.4922399205136
 20
926.5469380668662
 30
0.0
 40
1.000000000001238
100
AcDbArc
 50
9.12835634137641
 51
109.9999999999336
  0
ARC
  5
555
330
1F
100
AcDbEntity
  8
0
  6
Continuous
 62
     1
100
AcDbCircle
 10
418.7592012481177
 20
898.1491733375674
 30
0.0
 40
179.9999999999994
100
AcDbArc
 50
-5.35540061305381
 51
-1.65544172571603
  0
ARC
  5
556
330
1F
100
AcDbEntity
  8
0
  6
Continuous
 62
     1
100
AcDbCircle
 10
418.7592012481169
 20
898.1491733375588
 30
0.0
 40
179.9999999999993
100
AcDbArc
 50
-8.69132255402979
 51
-5.35540061305105
  0
ARC
  5
557
330
1F
100
AcDbEntity
  8
1
  6
Continuous
 62
     4
100
AcDbCircle
 10
444.156436626201
 20
898.1919299104279
 30
0.0
 40
155.5000028339203
100
AcDbArc
 50
-11.03840517626903
 51
11.02598472380698
  0
ARC
  5
558
330
1F
100
AcDbEntity
  8
1
  6
Continuous
 62
     1
100
AcDbCircle
 10
544.759201248117
 20
833.3491243375638
 30
0.0
 40
51.99999999999997
100
AcDbArc
 50
-16.76587297267189
 51
16.76587297267189
  0
ARC
  5
559
330
1F
100
AcDbEntity
  8
1
  6
Continuous
 62
     1
100
AcDbCircle
 10
570.0478763827123
 20
857.6491733375643
 30
0.0
 40
1.000000000000476
100
AcDbArc
 50
-150.0000000000157
 51
-90.0
  0
ARC
  5
55A
330
1F
100
AcDbEntity
  8
1
  6
Continuous
 62
     1
100
AcDbCircle
 10
570.0478763827123
 20
857.6491733375643
 30
0.0
 40
1.000000000000476
100
AcDbArc
 50
-150.0000000000157
 51
-90.0
  0
ARC
  5
55B
330
1F
100
AcDbEntity
  8
1
  6
Continuous
 62
     4
100
AcDbCircle
 10
596.2887761031494
 20
868.5144609041313
 30
0.0
 40
0.5000000000011168
100
AcDbArc
 50
-109.9999999999569
 51
-11.02746646214686
  0
ARC
  5
55C
330
1F
100
AcDbEntity
  8
1
  6
Continuous
 62
     1
100
AcDbCircle
 10
587.4705261135218
 20
857.6491733375643
 30
0.0
 40
1.000000000000431
100
AcDbArc
 50
-75.1975265767062
 51
-29.99999999998426
  0
ARC
  5
55D
330
1F
100
AcDbEntity
  8
1
  6
Continuous
 62
     4
100
AcDbCircle
 10
596.295224192548
 20
927.836325609402
 30
0.0
 40
0.4999999999999915
100
AcDbArc
 50
11.0259847238057
 51
106.6698596212664
  0
SOLID
  5
55E
330
1F
100
AcDbEntity
  8
1
 62
     3
100
AcDbTrace
 10
556.8772316316754
 20
896.0880730002793
 30
0.0
 11
556.2461216551478
 21
895.4165174750573
 31
0.0
 12
554.0111913220974
 22
898.1491733375642
 32
0.0
 13
554.0111913220974
 23
898.1491733375642
 33
0.0
  0
LEADER
  5
55F
330
1F
100
AcDbEntity
  8
1
  6
Continuous
 62
     3
100
AcDbLeader
  3
Standard
 71
     0
 76
     3
 10
554.0111913220974
 20
898.1491733375642
 30
0.0
 10
559.928157036216
 20
892.588566726938
 30
0.0
 10
557.6995449787461
 20
891.4134948594663
 30
0.0
  0
MTEXT
  5
560
330
1F
100
AcDbEntity
  8
1
 62
     4
100
AcDbMText
 10
556.7787432331273
 20
892.6023853500692
 30
0.0
 40
3.5
 41
0.0
 71
     3
 72
     1
  1
wahlweise
  7
CONVERTER_11
 73
     1
 44
1.02040816326531
  0
DIMENSION
  5
56B
330
1F
100
AcDbEntity
  8
1
100
AcDbDimension
  2
*D24
 10
486.734305518406
 20
876.1491733375642
 30
0.0
 11
482.984305518406
 21
856.6491733375644
 31
0.0
 70
    32
  1
<>
 71
     5
 42
-1.0
 53
90.0
  3
ME10_DIM_19
100
AcDbAlignedDimension
 13
551.759201248117
 23
838.149173337564
 33
0.0
 14
546.5574457555989
 24
876.1491733375642
 34
0.0
 50
90.0
100
AcDbRotatedDimension
  0
DIMENSION
  5
576
330
1F
100
AcDbEntity
  8
1
100
AcDbDimension
  2
*D25
 10
502.008317288242
 20
876.1491733375642
 30
0.0
 11
498.258317288242
 21
886.7367010749582
 31
0.0
 70
    32
  1
<>
 71
     5
 42
-1.0
 53
90.0
  3
ME10_DIM_20
100
AcDbAlignedDimension
 13
546.5574457555989
 23
898.1491733375642
 33
0.0
 14
546.5574457555989
 24
876.1491733375642
 34
0.0
 50
90.0
100
AcDbRotatedDimension
  0
DIMENSION
  5
581
330
1F
100
AcDbEntity
  8
1
100
AcDbDimension
  2
*D26
 10
486.734305518406
 20
876.1491733375642
 30
0.0
 11
482.984305518406
 21
899.1657683332453
 31
0.0
 70
    32
  1
<>
 71
     5
 42
-1.0
 53
90.0
  3
ME10_DIM_21
100
AcDbAlignedDimension
 13
546.5574457555989
 23
920.1491733375642
 33
0.0
 14
546.5574457555989
 24
876.1491733375642
 34
0.0
 50
90.0
100
AcDbRotatedDimension
  0
DIMENSION
  5
58C
330
1F
100
AcDbEntity
  8
1
100
AcDbDimension
  2
*D27
 10
502.008317288242
 20
859.6491733375644
 30
0.0
 11
498.258317288242
 21
867.589640555541
 31
0.0
 70
    32
  1
<>
 71
     5
 42
-1.0
 53
90.0
  3
ME10_DIM_22
100
AcDbAlignedDimension
 13
546.5574457555989
 23
876.1491733375642
 33
0.0
 14
559.509201248117
 24
859.6491733375644
 34
0.0
 50
90.0
100
AcDbRotatedDimension
  0
ENDSEC
  0
SECTION
  2
OBJECTS
  0
DICTIONARY
  5
C
330
0
100
AcDbDictionary
281
     1
  3
ACAD_GROUP
350
D
  3
ACAD_LAYOUT
350
1A
  3
ACAD_MLINESTYLE
350
17
  3
ACAD_PLOTSETTINGS
350
19
  3
ACAD_PLOTSTYLENAME
350
E
  3
ACAD_TABLESTYLE
350
58D
  3
ACAD_VISUALSTYLE
350
2A
  0
DICTIONARY
  5
D
102
{ACAD_REACTORS
330
C
102
}
330
C
100
AcDbDictionary
281
     1
  0
DICTIONARY
  5
1A
102
{ACAD_REACTORS
330
C
102
}
330
C
100
AcDbDictionary
281
     1
  3
Layout1
350
1E
  3
Layout2
350
26
  3
Model
350
22
  0
DICTIONARY
  5
17
102
{ACAD_REACTORS
330
C
102
}
330
C
100
AcDbDictionary
281
     1
  3
Standard
350
18
  0
DICTIONARY
  5
19
102
{ACAD_REACTORS
330
C
102
}
330
C
100
AcDbDictionary
281
     1
  0
ACDBDICTIONARYWDFLT
  5
E
102
{ACAD_REACTORS
330
C
102
}
330
C
100
AcDbDictionary
281
     1
  3
Normal
350
F
100
AcDbDictionaryWithDefault
340
F
  0
DICTIONARY
  5
58D
102
{ACAD_REACTORS
330
C
102
}
330
C
100
AcDbDictionary
281
     1
  0
DICTIONARY
  5
2A
102
{ACAD_REACTORS
330
C
102
}
330
C
100
AcDbDictionary
281
     1
  3
2dWireframe
350
2F
  3
3D Hidden
350
31
  3
3dWireframe
350
30
  3
Basic
350
32
  3
Brighten
350
36
  3
ColorChange
350
3A
  3
Conceptual
350
34
  3
Dim
350
35
  3
Facepattern
350
39
  3
Flat
350
2B
  3
FlatWithEdges
350
2C
  3
Gouraud
350
2D
  3
GouraudWithEdges
350
2E
  3
Linepattern
350
38
  3
Realistic
350
33
  3
Thicken
350
37
  0
LAYOUT
  5
1E
102
{ACAD_REACTORS
330
1A
102
}
330
1A
100
AcDbPlotSettings
  1

  2
none_device
  4

  6

 40
0.0
 41
0.0
 42
0.0
 43
0.0
 44
0.0
 45
0.0
 46
0.0
 47
0.0
 48
0.0
 49
0.0
140
0.0
141
0.0
142
1.0
143
1.0
 70
   688
 72
     0
 73
     0
 74
     5
  7

 75
    16
147
1.0
148
0.0
149
0.0
100
AcDbLayout
  1
Layout1
 70
     1
 71
     1
 10
0.0
 20
0.0
 11
12.0
 21
9.0
 12
0.0
 22
0.0
 32
0.0
 14
1.00000000000000E+20
 24
1.00000000000000E+20
 34
1.00000000000000E+20
 15
-1.00000000000000E+20
 25
-1.00000000000000E+20
 35
-1.00000000000000E+20
146
0.0
 13
0.0
 23
0.0
 33
0.0
 16
1.0
 26
0.0
 36
0.0
 17
0.0
 27
1.0
 37
0.0
 76
     0
330
1B
  0
LAYOUT
  5
26
102
{ACAD_REACTORS
330
1A
102
}
330
1A
100
AcDbPlotSettings
  1

  2
none_device
  4

  6

 40
0.0
 41
0.0
 42
0.0
 43
0.0
 44
0.0
 45
0.0
 46
0.0
 47
0.0
 48
0.0
 49
0.0
140
0.0
141
0.0
142
1.0
143
1.0
 70
   688
 72
     0
 73
     0
 74
     5
  7

 75
    16
147
1.0
148
0.0
149
0.0
100
AcDbLayout
  1
Layout2
 70
     1
 71
     2
 10
0.0
 20
0.0
 11
0.0
 21
0.0
 12
0.0
 22
0.0
 32
0.0
 14
0.0
 24
0.0
 34
0.0
 15
0.0
 25
0.0
 35
0.0
146
0.0
 13
0.0
 23
0.0
 33
0.0
 16
1.0
 26
0.0
 36
0.0
 17
0.0
 27
1.0
 37
0.0
 76
     0
330
23
  0
LAYOUT
  5
22
102
{ACAD_REACTORS
330
1A
102
}
330
1A
100
AcDbPlotSettings
  1

  2
none_device
  4

  6

 40
0.0
 41
0.0
 42
0.0
 43
0.0
 44
0.0
 45
0.0
 46
0.0
 47
0.0
 48
0.0
 49
0.0
140
0.0
141
0.0
142
1.0
143
1.0
 70
  1712
 72
     0
 73
     0
 74
     0
  7

 75
     0
147
1.0
148
0.0
149
0.0
100
AcDbLayout
  1
Model
 70
     1
 71
     0
 10
0.0
 20
0.0
 11
12.0
 21
9.0
 12
0.0
 22
0.0
 32
0.0
 14
437.9376847302571
 24
569.3932084668369
 34
0.0
 15
1021.937684730257
 25
979.393208466837
 35
0.0
146
0.0
 13
0.0
 23
0.0
 33
0.0
 16
1.0
 26
0.0
 36
0.0
 17
0.0
 27
1.0
 37
0.0
 76
     0
330
1F
331
29
  0
MLINESTYLE
  5
18
102
{ACAD_REACTORS
330
17
102
}
330
17
100
AcDbMlineStyle
  2
Standard
 70
     0
  3

 62
   256
 51
90.0
 52
90.0
 71
     2
 49
0.5
 62
   256
  6
BYLAYER
 49
-0.5
 62
   256
  6
BYLAYER
  0
ACDBPLACEHOLDER
  5
F
102
{ACAD_REACTORS
330
E
102
}
330
E
  0
VISUALSTYLE
  5
2F
102
{ACAD_REACTORS
330
2A
102
}
330
2A
100
AcDbVisualStyle
  2
2dWireframe
 70
     4
 71
     0
 72
     2
 73
     0
 90
        0
 40
-0.6
 41
-30.0
 62
     5
 63
     7
 74
     1
 91
        4
 64
     7
 65
   257
 75
     1
175
     1
 42
1.0
 92
        0
 66
   257
 43
1.0
 76
     1
 77
     6
 78
     2
 67
     7
 79
     5
170
     0
171
     0
290
     0
174
     0
 93
        1
 44
0.0
173
     0
291
     0
 45
0.0
1001
ACAD
1000
AcDbSavedByObjectVersion
1070
     0
  0
VISUALSTYLE
  5
31
102
{ACAD_REACTORS
330
2A
102
}
330
2A
100
AcDbVisualStyle
  2
3D Hidden
 70
     6
 71
     1
 72
     2
 73
     2
 90
        0
 40
-0.6
 41
-30.0
 62
     5
 63
     7
 74
     2
 91
        2
 64
     7
 65
   257
 75
     2
175
     1
 42
40.0
 92
        0
 66
   257
 43
1.0
 76
     1
 77
     6
 78
     2
 67
     7
 79
     3
170
     0
171
     0
290
     0
174
     0
 93
        1
 44
0.0
173
     0
291
     0
 45
0.0
1001
ACAD
1000
AcDbSavedByObjectVersion
1070
     0
  0
VISUALSTYLE
  5
30
102
{ACAD_REACTORS
330
2A
102
}
330
2A
100
AcDbVisualStyle
  2
3dWireframe
 70
     5
 71
     0
 72
     2
 73
     0
 90
        0
 40
-0.6
 41
-30.0
 62
     5
 63
     7
 74
     1
 91
        4
 64
     7
 65
   257
 75
     1
175
     1
 42
1.0
 92
        0
 66
   257
 43
1.0
 76
     1
 77
     6
 78
     2
 67
     7
 79
     5
170
     0
171
     0
290
     0
174
     0
 93
        1
 44
0.0
173
     0
291
     0
 45
0.0
1001
ACAD
1000
AcDbSavedByObjectVersion
1070
     0
  0
VISUALSTYLE
  5
32
102
{ACAD_REACTORS
330
2A
102
}
330
2A
100
AcDbVisualStyle
  2
Basic
 70
     7
 71
     1
 72
     0
 73
     1
 90
        0
 40
-0.6
 41
-30.0
 62
     5
 63
     7
 74
     0
 91
        4
 64
     7
 65
   257
 75
     1
175
     1
 42
1.0
 92
        8
 66
     7
 43
1.0
 76
     1
 77
     6
 78
     2
 67
     7
 79
     5
170
     0
171
     0
290
     0
174
     0
 93
        1
 44
0.0
173
     0
291
     1
 45
0.0
1001
ACAD
1000
AcDbSavedByObjectVersion
1070
     0
  0
VISUALSTYLE
  5
36
102
{ACAD_REACTORS
330
2A
102
}
330
2A
100
AcDbVisualStyle
  2
Brighten
 70
    12
 71
     2
 72
     2
 73
     0
 90
        0
 40
-0.6
 41
-30.0
 62
     5
 63
     7
 74
     1
 91
        4
 64
     7
 65
   257
 75
     1
175
     1
 42
1.0
 92
        8
 66
     7
 43
1.0
 76
     1
 77
     6
 78
     2
 67
     7
 79
     5
170
     0
171
     0
290
     0
174
     0
 93
        1
 44
50.0
173
     0
291
     1
 45
0.0
1001
ACAD
1000
AcDbSavedByObjectVersion
1070
     0
  0
VISUALSTYLE
  5
3A
102
{ACAD_REACTORS
330
2A
102
}
330
2A
100
AcDbVisualStyle
  2
ColorChange
 70
    16
 71
     2
 72
     2
 73
     3
 90
        0
 40
-0.6
 41
-30.0
 62
     5
 63
     8
 74
     1
 91
        4
 64
     7
 65
   257
 75
     1
175
     1
 42
1.0
 92
        8
 66
     8
 43
1.0
 76
     1
 77
     6
 78
     2
 67
     7
 79
     5
170
     0
171
     0
290
     0
174
     0
 93
        1
 44
0.0
173
     0
291
     1
 45
0.0
1001
ACAD
1000
AcDbSavedByObjectVersion
1070
     0
  0
VISUALSTYLE
  5
34
102
{ACAD_REACTORS
330
2A
102
}
330
2A
100
AcDbVisualStyle
  2
Conceptual
 70
     9
 71
     3
 72
     2
 73
     0
 90
        0
 40
-0.6
 41
-30.0
 62
     5
 63
     7
 74
     2
 91
        2
 64
     7
 65
   257
 75
     1
175
     1
 42
40.0
 92
        8
 66
     7
 43
1.0
 76
     1
 77
     6
 78
     2
 67
     7
 79
     3
170
     0
171
     0
290
     0
174
     0
 93
        1
 44
0.0
173
     0
291
     0
 45
0.0
1001
ACAD
1000
AcDbSavedByObjectVersion
1070
     0
  0
VISUALSTYLE
  5
35
102
{ACAD_REACTORS
330
2A
102
}
330
2A
100
AcDbVisualStyle
  2
Dim
 70
    11
 71
     2
 72
     2
 73
     0
 90
        0
 40
-0.6
 41
-30.0
 62
     5
 63
     7
 74
     1
 91
        4
 64
     7
 65
   257
 75
     1
175
     1
 42
1.0
 92
        8
 66
     7
 43
1.0
 76
     1
 77
     6
 78
     2
 67
     7
 79
     5
170
     0
171
     0
290
     0
174
     0
 93
        1
 44
-50.0
173
     0
291
     1
 45
0.0
1001
ACAD
1000
AcDbSavedByObjectVersion
1070
     0
  0
VISUALSTYLE
  5
39
102
{ACAD_REACTORS
330
2A
102
}
330
2A
100
AcDbVisualStyle
  2
Facepattern
 70
    15
 71
     2
 72
     2
 73
     0
 90
        0
 40
-0.6
 41
-30.0
 62
     5
 63
     7
 74
     1
 91
        4
 64
     7
 65
   257
 75
     1
175
     1
 42
1.0
 92
        8
 66
     7
 43
1.0
 76
     1
 77
     6
 78
     2
 67
     7
 79
     5
170
     0
171
     0
290
     0
174
     0
 93
        1
 44
0.0
173
     0
291
     1
 45
0.0
1001
ACAD
1000
AcDbSavedByObjectVersion
1070
     0
  0
VISUALSTYLE
  5
2B
102
{ACAD_REACTORS
330
2A
102
}
330
2A
100
AcDbVisualStyle
  2
Flat
 70
     0
 71
     2
 72
     1
 73
     1
 90
        2
 40
-0.6
 41
30.0
 62
     5
 63
     7
 74
     0
 91
        4
 64
     7
 65
   257
 75
     1
175
     1
 42
1.0
 92
        8
 66
     7
 43
1.0
 76
     1
 77
     6
 78
     2
 67
     7
 79
     5
170
     0
171
     0
290
     0
174
     0
 93
       13
 44
0.0
173
     0
291
     1
 45
0.0
1001
ACAD
1000
AcDbSavedByObjectVersion
1070
     0
  0
VISUALSTYLE
  5
2C
102
{ACAD_REACTORS
330
2A
102
}
330
2A
100
AcDbVisualStyle
  2
FlatWithEdges
 70
     1
 71
     2
 72
     1
 73
     1
 90
        2
 40
-0.6
 41
30.0
 62
     5
 63
     7
 74
     1
 91
        4
 64
     7
 65
   257
 75
     1
175
     1
 42
1.0
 92
        0
 66
   257
 43
1.0
 76
     1
 77
     6
 78
     2
 67
     7
 79
     5
170
     0
171
     0
290
     0
174
     0
 93
       13
 44
0.0
173
     0
291
     1
 45
0.0
1001
ACAD
1000
AcDbSavedByObjectVersion
1070
     0
  0
VISUALSTYLE
  5
2D
102
{ACAD_REACTORS
330
2A
102
}
330
2A
100
AcDbVisualStyle
  2
Gouraud
 70
     2
 71
     2
 72
     2
 73
     1
 90
        2
 40
-0.6
 41
30.0
 62
     5
 63
     7
 74
     0
 91
        4
 64
     7
 65
   257
 75
     1
175
     1
 42
1.0
 92
        0
 66
     7
 43
1.0
 76
     1
 77
     6
 78
     2
 67
     7
 79
     5
170
     0
171
     0
290
     0
174
     0
 93
       13
 44
0.0
173
     0
291
     1
 45
0.0
1001
ACAD
1000
AcDbSavedByObjectVersion
1070
     0
  0
VISUALSTYLE
  5
2E
102
{ACAD_REACTORS
330
2A
102
}
330
2A
100
AcDbVisualStyle
  2
GouraudWithEdges
 70
     3
 71
     2
 72
     2
 73
     1
 90
        2
 40
-0.6
 41
30.0
 62
     5
 63
     7
 74
     1
 91
        4
 64
     7
 65
   257
 75
     1
175
     1
 42
1.0
 92
        0
 66
   257
 43
1.0
 76
     1
 77
     6
 78
     2
 67
     7
 79
     5
170
     0
171
     0
290
     0
174
     0
 93
       13
 44
0.0
173
     0
291
     1
 45
0.0
1001
ACAD
1000
AcDbSavedByObjectVersion
1070
     0
  0
VISUALSTYLE
  5
38
102
{ACAD_REACTORS
330
2A
102
}
330
2A
100
AcDbVisualStyle
  2
Linepattern
 70
    14
 71
     2
 72
     2
 73
     0
 90
        0
 40
-0.6
 41
-30.0
 62
     5
 63
     7
 74
     1
 91
        4
 64
     7
 65
   257
 75
     7
175
     7
 42
1.0
 92
        8
 66
     7
 43
1.0
 76
     1
 77
     6
 78
     2
 67
     7
 79
     5
170
     0
171
     0
290
     0
174
     0
 93
        1
 44
0.0
173
     0
291
     1
 45
0.0
1001
ACAD
1000
AcDbSavedByObjectVersion
1070
     0
  0
VISUALSTYLE
  5
33
102
{ACAD_REACTORS
330
2A
102
}
330
2A
100
AcDbVisualStyle
  2
Realistic
 70
     8
 71
     2
 72
     2
 73
     0
 90
        0
 40
-0.6
 41
-30.0
 62
     5
 63
     7
 74
     1
 91
        0
 64
     7
 65
   257
 75
     1
175
     1
 42
1.0
 92
        8
 66
     8
 43
1.0
 76
     1
 77
     6
 78
     2
 67
     7
 79
     5
170
     0
171
     0
290
     0
174
     0
 93
       13
 44
0.0
173
     0
291
     0
 45
0.0
1001
ACAD
1000
AcDbSavedByObjectVersion
1070
     0
  0
VISUALSTYLE
  5
37
102
{ACAD_REACTORS
330
2A
102
}
330
2A
100
AcDbVisualStyle
  2
Thicken
 70
    13
 71
     2
 72
     2
 73
     0
 90
        0
 40
-0.6
 41
-30.0
 62
     5
 63
     7
 74
     1
 91
        4
 64
     7
 65
   257
 75
     1
175
     1
 42
1.0
 92
       12
 66
     7
 43
1.0
 76
     1
 77
     6
 78
     2
 67
     7
 79
     5
170
     0
171
     0
290
     0
174
     0
 93
        1
 44
0.0
173
     0
291
     1
 45
0.0
1001
ACAD
1000
AcDbSavedByObjectVersion
1070
     0
  0
ENDSEC
  0
EOF
