  0
SECTION
  2
HEADER
  9
$ACADVER
  1
AC1015
  9
$ACADMAINTVER
 70
     6
  9
$DWGCODEPAGE
  3
ANSI_1252
  9
$INSBASE
 10
0.0
 20
0.0
 30
0.0
  9
$EXTMIN
 10
-1175.192309855351
 20
-1153.995960057375
 30
0.0
  9
$EXTMAX
 10
-765.1923098553503
 20
-867.9959600573752
 30
0.0
  9
$LIMMIN
 10
0.0
 20
0.0
  9
$LIMMAX
 10
12.0
 20
9.0
  9
$ORTHOMODE
 70
     0
  9
$REGENMODE
 70
     1
  9
$FILLMODE
 70
     1
  9
$QTEXTMODE
 70
     0
  9
$MIRRTEXT
 70
     1
  9
$LTSCALE
 40
1.0
  9
$ATTMODE
 70
     1
  9
$TEXTSIZE
 40
0.2
  9
$TRACEWID
 40
0.05
  9
$TEXTSTYLE
  7
Standard
  9
$CLAYER
  8
0
  9
$CELTYPE
  6
ByLayer
  9
$CECOLOR
 62
   256
  9
$CELTSCALE
 40
1.0
  9
$DISPSILH
 70
     0
  9
$DIMSCALE
 40
1.0
  9
$DIMASZ
 40
0.18
  9
$DIMEXO
 40
0.0625
  9
$DIMDLI
 40
0.38
  9
$DIMRND
 40
0.0
  9
$DIMDLE
 40
0.0
  9
$DIMEXE
 40
0.18
  9
$DIMTP
 40
0.0
  9
$DIMTM
 40
0.0
  9
$DIMTXT
 40
0.18
  9
$DIMCEN
 40
0.09
  9
$DIMTSZ
 40
0.0
  9
$DIMTOL
 70
     0
  9
$DIMLIM
 70
     0
  9
$DIMTIH
 70
     1
  9
$DIMTOH
 70
     1
  9
$DIMSE1
 70
     0
  9
$DIMSE2
 70
     0
  9
$DIMTAD
 70
     0
  9
$DIMZIN
 70
     0
  9
$DIMBLK
  1

  9
$DIMASO
 70
     1
  9
$DIMSHO
 70
     1
  9
$DIMPOST
  1

  9
$DIMAPOST
  1

  9
$DIMALT
 70
     0
  9
$DIMALTD
 70
     2
  9
$DIMALTF
 40
25.4
  9
$DIMLFAC
 40
1.0
  9
$DIMTOFL
 70
     0
  9
$DIMTVP
 40
0.0
  9
$DIMTIX
 70
     0
  9
$DIMSOXD
 70
     0
  9
$DIMSAH
 70
     0
  9
$DIMBLK1
  1

  9
$DIMBLK2
  1

  9
$DIMSTYLE
  2
Standard
  9
$DIMCLRD
 70
     0
  9
$DIMCLRE
 70
     0
  9
$DIMCLRT
 70
     0
  9
$DIMTFAC
 40
1.0
  9
$DIMGAP
 40
0.09
  9
$DIMJUST
 70
     0
  9
$DIMSD1
 70
     0
  9
$DIMSD2
 70
     0
  9
$DIMTOLJ
 70
     1
  9
$DIMTZIN
 70
     0
  9
$DIMALTZ
 70
     0
  9
$DIMALTTZ
 70
     0
  9
$DIMUPT
 70
     0
  9
$DIMDEC
 70
     4
  9
$DIMTDEC
 70
     4
  9
$DIMALTU
 70
     2
  9
$DIMALTTD
 70
     2
  9
$DIMTXSTY
  7
Standard
  9
$DIMAUNIT
 70
     0
  9
$DIMADEC
 70
     0
  9
$DIMALTRND
 40
0.0
  9
$DIMAZIN
 70
     0
  9
$DIMDSEP
 70
    46
  9
$DIMATFIT
 70
     3
  9
$DIMFRAC
 70
     0
  9
$DIMLDRBLK
  1

  9
$DIMLUNIT
 70
     2
  9
$DIMLWD
 70
    -2
  9
$DIMLWE
 70
    -2
  9
$DIMTMOVE
 70
     0
  9
$LUNITS
 70
     2
  9
$LUPREC
 70
     4
  9
$SKETCHINC
 40
0.1
  9
$FILLETRAD
 40
0.5
  9
$AUNITS
 70
     0
  9
$AUPREC
 70
     0
  9
$MENU
  1
.
  9
$ELEVATION
 40
0.0
  9
$PELEVATION
 40
0.0
  9
$THICKNESS
 40
0.0
  9
$LIMCHECK
 70
     0
  9
$CHAMFERA
 40
0.5
  9
$CHAMFERB
 40
0.5
  9
$CHAMFERC
 40
1.0
  9
$CHAMFERD
 40
0.0
  9
$SKPOLY
 70
     0
  9
$TDCREATE
 40
2456871.490607627
  9
$TDUCREATE
 40
2456871.407274294
  9
$TDUPDATE
 40
2456871.490607639
  9
$TDUUPDATE
 40
2456871.407274305
  9
$TDINDWG
 40
0.0000000116
  9
$TDUSRTIMER
 40
0.0000000116
  9
$USRTIMER
 70
     1
  9
$ANGBASE
 50
0.0
  9
$ANGDIR
 70
     0
  9
$PDMODE
 70
     0
  9
$PDSIZE
 40
0.0
  9
$PLINEWID
 40
0.0
  9
$SPLFRAME
 70
     0
  9
$SPLINETYPE
 70
     6
  9
$SPLINESEGS
 70
     8
  9
$HANDSEED
  5
2F8
  9
$SURFTAB1
 70
     6
  9
$SURFTAB2
 70
     6
  9
$SURFTYPE
 70
     6
  9
$SURFU
 70
     6
  9
$SURFV
 70
     6
  9
$UCSBASE
  2

  9
$UCSNAME
  2

  9
$UCSORG
 10
0.0
 20
0.0
 30
0.0
  9
$UCSXDIR
 10
1.0
 20
0.0
 30
0.0
  9
$UCSYDIR
 10
0.0
 20
1.0
 30
0.0
  9
$UCSORTHOREF
  2

  9
$UCSORTHOVIEW
 70
     0
  9
$UCSORGTOP
 10
0.0
 20
0.0
 30
0.0
  9
$UCSORGBOTTOM
 10
0.0
 20
0.0
 30
0.0
  9
$UCSORGLEFT
 10
0.0
 20
0.0
 30
0.0
  9
$UCSORGRIGHT
 10
0.0
 20
0.0
 30
0.0
  9
$UCSORGFRONT
 10
0.0
 20
0.0
 30
0.0
  9
$UCSORGBACK
 10
0.0
 20
0.0
 30
0.0
  9
$PUCSBASE
  2

  9
$PUCSNAME
  2

  9
$PUCSORG
 10
0.0
 20
0.0
 30
0.0
  9
$PUCSXDIR
 10
1.0
 20
0.0
 30
0.0
  9
$PUCSYDIR
 10
0.0
 20
1.0
 30
0.0
  9
$PUCSORTHOREF
  2

  9
$PUCSORTHOVIEW
 70
     0
  9
$PUCSORGTOP
 10
0.0
 20
0.0
 30
0.0
  9
$PUCSORGBOTTOM
 10
0.0
 20
0.0
 30
0.0
  9
$PUCSORGLEFT
 10
0.0
 20
0.0
 30
0.0
  9
$PUCSORGRIGHT
 10
0.0
 20
0.0
 30
0.0
  9
$PUCSORGFRONT
 10
0.0
 20
0.0
 30
0.0
  9
$PUCSORGBACK
 10
0.0
 20
0.0
 30
0.0
  9
$USERI1
 70
     0
  9
$USERI2
 70
     0
  9
$USERI3
 70
     0
  9
$USERI4
 70
     0
  9
$USERI5
 70
     0
  9
$USERR1
 40
17.0
  9
$USERR2
 40
0.0
  9
$USERR3
 40
0.0
  9
$USERR4
 40
0.0
  9
$USERR5
 40
0.0
  9
$WORLDVIEW
 70
     1
  9
$SHADEDGE
 70
     3
  9
$SHADEDIF
 70
    70
  9
$TILEMODE
 70
     1
  9
$MAXACTVP
 70
    64
  9
$PINSBASE
 10
0.0
 20
0.0
 30
0.0
  9
$PLIMCHECK
 70
     0
  9
$PEXTMIN
 10
1.00000000000000E+20
 20
1.00000000000000E+20
 30
1.00000000000000E+20
  9
$PEXTMAX
 10
-1.00000000000000E+20
 20
-1.00000000000000E+20
 30
-1.00000000000000E+20
  9
$PLIMMIN
 10
0.0
 20
0.0
  9
$PLIMMAX
 10
12.0
 20
9.0
  9
$UNITMODE
 70
     0
  9
$VISRETAIN
 70
     1
  9
$PLINEGEN
 70
     0
  9
$PSLTSCALE
 70
     1
  9
$TREEDEPTH
 70
  3020
  9
$CMLSTYLE
  2
Standard
  9
$CMLJUST
 70
     0
  9
$CMLSCALE
 40
1.0
  9
$PROXYGRAPHICS
 70
     1
  9
$MEASUREMENT
 70
     1
  9
$CELWEIGHT
370
    -1
  9
$ENDCAPS
280
     0
  9
$JOINSTYLE
280
     0
  9
$LWDISPLAY
290
     0
  9
$INSUNITS
 70
     1
  9
$HYPERLINKBASE
  1

  9
$STYLESHEET
  1

  9
$XEDIT
290
     1
  9
$CEPSNTYPE
380
     0
  9
$PSTYLEMODE
290
     1
  9
$FINGERPRINTGUID
  2
{93F4EC73-0AC8-4C6C-9ABA-1A06CB63D695}
  9
$VERSIONGUID
  2
{FAEB1C32-E019-11D5-929B-00C0DF256EC4}
  9
$EXTNAMES
290
     1
  9
$PSVPSCALE
 40
0.0
  9
$OLESTARTUP
290
     0
  0
ENDSEC
  0
SECTION
  2
CLASSES
  0
CLASS
  1
ACDBDICTIONARYWDFLT
  2
AcDbDictionaryWithDefault
  3
ObjectDBX Classes
 90
        0
280
     0
281
     0
  0
CLASS
  1
VISUALSTYLE
  2
AcDbVisualStyle
  3
ObjectDBX Classes
 90
     4095
280
     0
281
     0
  0
CLASS
  1
MATERIAL
  2
AcDbMaterial
  3
ObjectDBX Classes
 90
     1153
280
     0
281
     0
  0
CLASS
  1
SCALE
  2
AcDbScale
  3
ObjectDBX Classes
 90
     1153
280
     0
281
     0
  0
CLASS
  1

  2
exOdDbSpline
  3

 90
        0
280
     0
281
     1
  0
CLASS
  1

  2
exOdDbCircle
  3

 90
        0
280
     0
281
     1
  0
CLASS
  1
DICTIONARYVAR
  2
AcDbDictionaryVar
  3
ObjectDBX Classes
 90
        0
280
     0
281
     0
  0
CLASS
  1
ACDBPLACEHOLDER
  2
AcDbPlaceHolder
  3
ObjectDBX Classes
 90
        0
280
     0
281
     0
  0
CLASS
  1
LAYOUT
  2
AcDbLayout
  3
ObjectDBX Classes
 90
        0
280
     0
281
     0
  0
ENDSEC
  0
SECTION
  2
TABLES
  0
TABLE
  2
VPORT
  5
8
330
0
100
AcDbSymbolTable
 70
     1
  0
VPORT
  5
29
330
8
100
AcDbSymbolTableRecord
100
AcDbViewportTableRecord
  2
*Active
 70
     0
 10
0.0
 20
0.0
 11
1.0
 21
1.0
 12
-970.1923098553507
 22
-1010.995960057375
 13
0.0
 23
0.0
 14
0.5
 24
0.5
 15
0.5
 25
0.5
 16
0.0
 26
0.0
 36
1.0
 17
0.0
 27
0.0
 37
0.0
 40
314.5999999999998
 41
1.60267857142857
 42
50.0
 43
0.0
 44
0.0
 50
0.0
 51
0.0
 71
     0
 72
   100
 73
     1
 74
     3
 75
     0
 76
     0
 77
     0
 78
     0
281
     0
 65
     1
110
0.0
120
0.0
130
0.0
111
1.0
121
0.0
131
0.0
112
0.0
122
1.0
132
0.0
 79
     0
146
0.0
  0
ENDTAB
  0
TABLE
  2
LTYPE
  5
5
330
0
100
AcDbSymbolTable
 70
     8
  0
LTYPE
  5
14
330
5
100
AcDbSymbolTableRecord
100
AcDbLinetypeTableRecord
  2
ByBlock
 70
     0
  3

 72
    65
 73
     0
 40
0.0
  0
LTYPE
  5
15
330
5
100
AcDbSymbolTableRecord
100
AcDbLinetypeTableRecord
  2
ByLayer
 70
     0
  3

 72
    65
 73
     0
 40
0.0
  0
LTYPE
  5
16
330
5
100
AcDbSymbolTableRecord
100
AcDbLinetypeTableRecord
  2
Continuous
 70
     0
  3
Solid line
 72
    65
 73
     0
 40
0.0
  0
LTYPE
  5
3F
330
5
100
AcDbSymbolTableRecord
100
AcDbLinetypeTableRecord
  2
DASHED
 70
     0
  3
Dashed
 72
    65
 73
     2
 40
15.0
 49
7.0
 74
     0
 49
-8.0
 74
     0
  0
LTYPE
  5
40
330
5
100
AcDbSymbolTableRecord
100
AcDbLinetypeTableRecord
  2
DOTTED
 70
     0
  3
Dotted
 72
    65
 73
     2
 40
1.0
 49
0.0
 74
     0
 49
-1.0
 74
     0
  0
LTYPE
  5
41
330
5
100
AcDbSymbolTableRecord
100
AcDbLinetypeTableRecord
  2
DOT_CENTER
 70
     0
  3
Dot_Center
 72
    65
 73
     4
 40
14.0
 49
12.0
 74
     0
 49
-1.0
 74
     0
 49
0.0
 74
     0
 49
-1.0
 74
     0
  0
LTYPE
  5
42
330
5
100
AcDbSymbolTableRecord
100
AcDbLinetypeTableRecord
  2
LONG_DASHED
 70
     0
  3
Long_Dashed
 72
    65
 73
     2
 40
15.0
 49
10.0
 74
     0
 49
-5.0
 74
     0
  0
LTYPE
  5
43
330
5
100
AcDbSymbolTableRecord
100
AcDbLinetypeTableRecord
  2
DASH_CENTER
 70
     0
  3
Dash_Center
 72
    65
 73
     4
 40
14.0
 49
11.0
 74
     0
 49
-1.0
 74
     0
 49
1.0
 74
     0
 49
-1.0
 74
     0
  0
LTYPE
  5
44
330
5
100
AcDbSymbolTableRecord
100
AcDbLinetypeTableRecord
  2
PHANTOM
 70
     0
  3
Phantom
 72
    65
 73
     6
 40
13.0
 49
10.0
 74
     0
 49
-1.0
 74
     0
 49
0.0
 74
     0
 49
-1.0
 74
     0
 49
0.0
 74
     0
 49
-1.0
 74
     0
  0
LTYPE
  5
45
330
5
100
AcDbSymbolTableRecord
100
AcDbLinetypeTableRecord
  2
CENTER_DASH_DASH
 70
     0
  3
Center_Dash_Dash
 72
    65
 73
     6
 40
14.0
 49
9.0
 74
     0
 49
-1.0
 74
     0
 49
1.0
 74
     0
 49
-1.0
 74
     0
 49
1.0
 74
     0
 49
-1.0
 74
     0
  0
ENDTAB
  0
TABLE
  2
LAYER
  5
2
330
0
100
AcDbSymbolTable
 70
     2
  0
LAYER
  5
10
330
2
100
AcDbSymbolTableRecord
100
AcDbLayerTableRecord
  2
0
 70
     0
 62
     7
  6
Continuous
370
    -3
390
F
  0
LAYER
  5
46
330
2
100
AcDbSymbolTableRecord
100
AcDbLayerTableRecord
  2
1
 70
     0
 62
     7
  6
Continuous
370
    -3
390
F
  0
ENDTAB
  0
TABLE
  2
STYLE
  5
3
330
0
100
AcDbSymbolTable
 70
     8
  0
STYLE
  5
11
330
3
100
AcDbSymbolTableRecord
100
AcDbTextStyleTableRecord
  2
Standard
 70
     0
 40
0.0
 41
1.0
 50
0.0
 71
     0
 42
0.2
  3
txt
  4

  0
STYLE
  5
110
330
3
100
AcDbSymbolTableRecord
100
AcDbTextStyleTableRecord
  2
CONVERTER_11
 70
     0
 40
0.0
 41
0.9
 50
0.0
 71
     0
 42
0.2
  3
txt.shx
  4

  0
STYLE
  5
262
330
3
100
AcDbSymbolTableRecord
100
AcDbTextStyleTableRecord
  2
CONVERTER_12
 70
     0
 40
0.0
 41
0.99
 50
0.0
 71
     0
 42
0.2
  3
txt.shx
  4

  0
STYLE
  5
271
330
3
100
AcDbSymbolTableRecord
100
AcDbTextStyleTableRecord
  2
CONVERTER_13
 70
     0
 40
0.0
 41
0.81
 50
0.0
 71
     0
 42
0.2
  3
txt.shx
  4

  0
STYLE
  5
275
330
3
100
AcDbSymbolTableRecord
100
AcDbTextStyleTableRecord
  2
CONVERTER_14
 70
     0
 40
0.0
 41
0.72
 50
0.0
 71
     0
 42
0.2
  3
txt.shx
  4

  0
STYLE
  5
282
330
3
100
AcDbSymbolTableRecord
100
AcDbTextStyleTableRecord
  2
CONVERTER_15
 70
     0
 40
0.0
 41
0.66696267749507
 50
0.0
 71
     0
 42
0.2
  3
txt.shx
  4

  0
STYLE
  5
285
330
3
100
AcDbSymbolTableRecord
100
AcDbTextStyleTableRecord
  2
CONVERTER_16
 70
     0
 40
0.0
 41
0.54
 50
0.0
 71
     0
 42
0.2
  3
txt.shx
  4

  0
STYLE
  5
2C1
330
3
100
AcDbSymbolTableRecord
100
AcDbTextStyleTableRecord
  2
CONVERTER_17
 70
     0
 40
0.0
 41
0.765
 50
0.0
 71
     0
 42
0.2
  3
txt.shx
  4

  0
ENDTAB
  0
TABLE
  2
VIEW
  5
6
330
0
100
AcDbSymbolTable
 70
     0
  0
ENDTAB
  0
TABLE
  2
UCS
  5
7
330
0
100
AcDbSymbolTable
 70
     0
  0
ENDTAB
  0
TABLE
  2
APPID
  5
9
330
0
100
AcDbSymbolTable
 70
     1
  0
APPID
  5
12
330
9
100
AcDbSymbolTableRecord
100
AcDbRegAppTableRecord
  2
ACAD
 70
     0
  0
ENDTAB
  0
TABLE
  2
DIMSTYLE
  5
A
330
0
100
AcDbSymbolTable
 70
     7
100
AcDbDimStyleTable
  0
DIMSTYLE
105
27
330
A
100
AcDbSymbolTableRecord
100
AcDbDimStyleTableRecord
  2
Standard
 70
     0
340
11
  0
DIMSTYLE
105
134
102
{ACAD_REACTORS
330
135
102
}
330
A
100
AcDbSymbolTableRecord
100
AcDbDimStyleTableRecord
  2
ME10_DIM_10
 70
     0
 41
3.5
 42
0.0
 44
2.0
 73
     0
 74
     0
 77
     1
 78
     8
140
3.5
147
2.0
172
     1
173
     1
174
     1
175
     1
176
     3
177
     3
178
     4
271
     2
340
110
  0
DIMSTYLE
105
13F
102
{ACAD_REACTORS
330
140
102
}
330
A
100
AcDbSymbolTableRecord
100
AcDbDimStyleTableRecord
  2
ME10_DIM_11
 70
     0
 41
3.5
 42
0.0
 44
2.0
 73
     0
 74
     0
 77
     1
 78
     8
140
3.5
147
2.0
172
     1
173
     1
174
     1
175
     1
176
     3
177
     3
178
     4
271
     2
340
110
  0
DIMSTYLE
105
14A
102
{ACAD_REACTORS
330
14B
102
}
330
A
100
AcDbSymbolTableRecord
100
AcDbDimStyleTableRecord
  2
ME10_DIM_12
 70
     0
 41
3.5
 42
0.0
 44
2.0
 73
     0
 74
     0
 77
     1
 78
     8
140
3.5
147
2.0
172
     1
173
     1
174
     1
175
     1
176
     3
177
     3
178
     4
271
     2
340
110
  0
DIMSTYLE
105
18F
102
{ACAD_REACTORS
330
190
102
}
330
A
100
AcDbSymbolTableRecord
100
AcDbDimStyleTableRecord
  2
ME10_DIM_13
 70
     0
 41
3.5
 42
0.0
 44
2.0
 73
     0
 74
     0
 77
     1
 78
     8
140
3.5
147
2.0
172
     1
173
     1
174
     1
175
     1
176
     3
177
     3
178
     4
271
     2
340
110
  0
DIMSTYLE
105
19A
102
{ACAD_REACTORS
330
19B
102
}
330
A
100
AcDbSymbolTableRecord
100
AcDbDimStyleTableRecord
  2
ME10_DIM_14
 70
     0
 41
3.5
 42
0.0
 44
2.0
 73
     0
 74
     0
 77
     1
 78
     8
140
3.5
147
2.0
172
     1
173
     1
174
     1
175
     1
176
     3
177
     3
178
     4
271
     2
340
110
  0
DIMSTYLE
105
1A5
102
{ACAD_REACTORS
330
1A6
102
}
330
A
100
AcDbSymbolTableRecord
100
AcDbDimStyleTableRecord
  2
ME10_DIM_15
 70
     0
 41
3.5
 42
0.0
 44
2.0
 73
     0
 74
     0
 77
     1
 78
     8
140
3.5
147
2.0
172
     1
173
     1
174
     1
175
     1
176
     3
177
     3
178
     4
271
     2
340
110
  0
ENDTAB
  0
TABLE
  2
BLOCK_RECORD
  5
1
330
0
100
AcDbSymbolTable
 70
    18
  0
BLOCK_RECORD
  5
1F
330
1
100
AcDbSymbolTableRecord
100
AcDbBlockTableRecord
  2
*Model_Space
340
22
  0
BLOCK_RECORD
  5
1B
330
1
100
AcDbSymbolTableRecord
100
AcDbBlockTableRecord
  2
*Paper_Space
340
1E
  0
BLOCK_RECORD
  5
23
330
1
100
AcDbSymbolTableRecord
100
AcDbBlockTableRecord
  2
*Paper_Space0
340
26
  0
BLOCK_RECORD
  5
47
330
1
100
AcDbSymbolTableRecord
100
AcDbBlockTableRecord
  2
21202-EU-001__1
340
0
102
{BLKREFS
331
6D
102
}
  0
BLOCK_RECORD
  5
4A
330
1
100
AcDbSymbolTableRecord
100
AcDbBlockTableRecord
  2
AllgA
340
0
102
{BLKREFS
331
8C
102
}
  0
BLOCK_RECORD
  5
70
330
1
100
AcDbSymbolTableRecord
100
AcDbBlockTableRecord
  2
21202-EU-001__2
340
0
102
{BLKREFS
331
74
102
}
  0
BLOCK_RECORD
  5
73
330
1
100
AcDbSymbolTableRecord
100
AcDbBlockTableRecord
  2
DrfsichtA
340
0
102
{BLKREFS
331
8D
102
}
  0
BLOCK_RECORD
  5
77
330
1
100
AcDbSymbolTableRecord
100
AcDbBlockTableRecord
  2
21202-EU-001__3
340
0
102
{BLKREFS
331
7B
102
}
  0
BLOCK_RECORD
  5
7A
330
1
100
AcDbSymbolTableRecord
100
AcDbBlockTableRecord
  2
SA_LinksA
340
0
102
{BLKREFS
331
8E
102
}
  0
BLOCK_RECORD
  5
7E
330
1
100
AcDbSymbolTableRecord
100
AcDbBlockTableRecord
  2
21202-EU-001__4
340
0
102
{BLKREFS
331
82
102
}
  0
BLOCK_RECORD
  5
81
330
1
100
AcDbSymbolTableRecord
100
AcDbBlockTableRecord
  2
VordansA
340
0
102
{BLKREFS
331
8F
102
}
  0
BLOCK_RECORD
  5
85
330
1
100
AcDbSymbolTableRecord
100
AcDbBlockTableRecord
  2
a3kl
340
0
102
{BLKREFS
331
89
102
}
  0
BLOCK_RECORD
  5
88
330
1
100
AcDbSymbolTableRecord
100
AcDbBlockTableRecord
  2
Rahmen
340
0
102
{BLKREFS
331
90
102
}
  0
BLOCK_RECORD
  5
12B
330
1
100
AcDbSymbolTableRecord
100
AcDbBlockTableRecord
  2
*D11
340
0
  0
BLOCK_RECORD
  5
136
330
1
100
AcDbSymbolTableRecord
100
AcDbBlockTableRecord
  2
*D12
340
0
  0
BLOCK_RECORD
  5
141
330
1
100
AcDbSymbolTableRecord
100
AcDbBlockTableRecord
  2
*D13
340
0
  0
BLOCK_RECORD
  5
186
330
1
100
AcDbSymbolTableRecord
100
AcDbBlockTableRecord
  2
*D14
340
0
  0
BLOCK_RECORD
  5
191
330
1
100
AcDbSymbolTableRecord
100
AcDbBlockTableRecord
  2
*D15
340
0
  0
BLOCK_RECORD
  5
19C
330
1
100
AcDbSymbolTableRecord
100
AcDbBlockTableRecord
  2
*D16
340
0
  0
BLOCK_RECORD
  5
1A7
330
1
100
AcDbSymbolTableRecord
100
AcDbBlockTableRecord
  2
*D17
340
0
102
{BLKREFS
331
1B0
102
}
  0
ENDTAB
  0
ENDSEC
  0
SECTION
  2
BLOCKS
  0
BLOCK
  5
20
330
1F
100
AcDbEntity
  8
0
100
AcDbBlockBegin
  2
*Model_Space
 70
     0
 10
0.0
 20
0.0
 30
0.0
  3
*Model_Space
  1

  0
ENDBLK
  5
21
330
1F
100
AcDbEntity
  8
0
100
AcDbBlockEnd
  0
BLOCK
  5
1C
330
1B
100
AcDbEntity
 67
     1
  8
0
100
AcDbBlockBegin
  2
*Paper_Space
 70
     0
 10
0.0
 20
0.0
 30
0.0
  3
*Paper_Space
  1

  0
ENDBLK
  5
1D
330
1B
100
AcDbEntity
 67
     1
  8
0
100
AcDbBlockEnd
  0
BLOCK
  5
24
330
23
100
AcDbEntity
  8
0
100
AcDbBlockBegin
  2
*Paper_Space0
 70
     0
 10
0.0
 20
0.0
 30
0.0
  3
*Paper_Space0
  1

  0
ENDBLK
  5
25
330
23
100
AcDbEntity
  8
0
100
AcDbBlockEnd
  0
BLOCK
  5
48
330
47
100
AcDbEntity
  8
0
100
AcDbBlockBegin
  2
21202-EU-001__1
 70
     0
 10
-937.2803989651732
 20
-1031.201942858872
 30
0.0
  3
21202-EU-001__1
  1

  0
LINE
  5
91
330
47
100
AcDbEntity
  8
0
  6
Continuous
 62
     1
100
AcDbLine
 10
-778.3968991880213
 20
-954.1485075551316
 30
0.0
 11
-779.3639068524019
 21
-954.9657579974
 31
0.0
  0
LINE
  5
92
330
47
100
AcDbEntity
  8
0
  6
Continuous
 62
     1
100
AcDbLine
 10
-787.6673757884389
 20
-972.3535566169091
 30
0.0
 11
-778.3968991880213
 21
-954.1485075551316
 31
0.0
  0
LINE
  5
93
330
47
100
AcDbEntity
  8
0
  6
Continuous
 62
   124
100
AcDbLine
 10
-842.8498580371354
 20
-1020.142364682661
 30
0.0
 11
-842.4635881803135
 21
-1019.383820974756
 31
0.0
  0
LINE
  5
94
330
47
100
AcDbEntity
  8
0
  6
Continuous
 62
   124
100
AcDbLine
 10
-790.5675101000302
 20
-975.5247138287109
 30
0.0
 11
-804.5173319200062
 21
-962.5609930939412
 31
0.0
  0
LINE
  5
95
330
47
100
AcDbEntity
  8
0
  6
Continuous
 62
   124
100
AcDbLine
 10
-814.0463199758672
 20
-953.7056011301353
 30
0.0
 11
-815.8071080719379
 21
-956.0319856257653
 31
0.0
  0
LINE
  5
96
330
47
100
AcDbEntity
  8
0
  6
Continuous
 62
   124
100
AcDbLine
 10
-812.7069318869528
 20
-963.7092457058736
 30
0.0
 11
-815.7290356679931
 21
-960.900771880581
 31
0.0
  0
LINE
  5
97
330
47
100
AcDbEntity
  8
0
  6
Continuous
 62
   124
100
AcDbLine
 10
-811.999072793705
 20
-953.9721008946532
 30
0.0
 11
-813.7598608897757
 21
-956.2984853902832
 31
0.0
  0
LINE
  5
98
330
47
100
AcDbEntity
  8
0
  6
Continuous
 62
   124
100
AcDbLine
 10
-802.7129618917362
 20
-960.4599342270429
 30
0.0
 11
-802.293330313756
 21
-958.2691271269649
 31
0.0
  0
LINE
  5
99
330
47
100
AcDbEntity
  8
0
  6
Continuous
 62
   124
100
AcDbLine
 10
-805.2511064299706
 20
-960.2430592334761
 30
0.0
 11
-804.8314748519904
 21
-958.0522521333979
 31
0.0
  0
LINE
  5
9A
330
47
100
AcDbEntity
  8
0
  6
Continuous
 62
   124
100
AcDbLine
 10
-807.9567354166086
 20
-961.6913928405587
 30
0.0
 11
-805.2511064299706
 21
-960.2430592334761
 31
0.0
  0
LINE
  5
9B
330
47
100
AcDbEntity
  8
0
  6
Continuous
 62
   124
100
AcDbLine
 10
-804.8314748519904
 20
-958.0522521333979
 30
0.0
 11
-807.9567354166086
 21
-961.6913928405587
 31
0.0
  0
LINE
  5
9C
330
47
100
AcDbEntity
  8
0
  6
Continuous
 62
   124
100
AcDbLine
 10
-807.2229609066442
 20
-964.009326701024
 30
0.0
 11
-804.5173319200062
 21
-962.5609930939412
 31
0.0
  0
LINE
  5
9D
330
47
100
AcDbEntity
  8
0
  6
Continuous
 62
   124
100
AcDbLine
 10
-804.7364813961275
 20
-954.5987540986522
 30
0.0
 11
-811.6443805554353
 21
-962.6425048553738
 31
0.0
  0
LINE
  5
9E
330
47
100
AcDbEntity
  8
0
  6
Continuous
 62
   124
100
AcDbLine
 10
-788.7631400717602
 20
-973.4236549618126
 30
0.0
 11
-802.7129618917362
 21
-960.4599342270429
 31
0.0
  0
LINE
  5
9F
330
47
100
AcDbEntity
  8
0
  6
Continuous
 62
     1
100
AcDbLine
 10
-788.7631400717602
 20
-973.4236549618126
 30
0.0
 11
-779.3639068524019
 21
-954.9657579974
 31
0.0
  0
LINE
  5
A0
330
47
100
AcDbEntity
  8
0
  6
Continuous
 62
     1
100
AcDbLine
 10
-842.4635881803135
 20
-1019.383820974756
 30
0.0
 11
-790.5675101000302
 21
-975.5247138287109
 31
0.0
  0
LINE
  5
A1
330
47
100
AcDbEntity
  8
0
  6
Continuous
 62
     1
100
AcDbLine
 10
-842.8498580371354
 20
-1020.142364682661
 30
0.0
 11
-791.2761158449789
 21
-976.5556743507055
 31
0.0
  0
LINE
  5
A2
330
47
100
AcDbEntity
  8
0
  6
Continuous
 62
     1
100
AcDbLine
 10
-859.0124136097727
 20
-879.231635544849
 30
0.0
 11
-859.9794212741533
 21
-880.0488859871176
 31
0.0
  0
LINE
  5
A3
330
47
100
AcDbEntity
  8
0
  6
Continuous
 62
   124
100
AcDbLine
 10
-807.7585851771678
 20
-951.7902802733595
 30
0.0
 11
-804.7364813961275
 21
-954.5987540986522
 31
0.0
  0
LINE
  5
A4
330
47
100
AcDbEntity
  8
0
  6
Continuous
 62
   124
100
AcDbLine
 10
-810.6346003251575
 20
-952.6593446831223
 30
0.0
 11
-813.7598608897757
 21
-956.2984853902832
 31
0.0
  0
LINE
  5
A5
330
47
100
AcDbEntity
  8
0
  6
Continuous
 62
   124
100
AcDbLine
 10
-807.7585851771678
 20
-951.7902802733595
 30
0.0
 11
-814.6664843364757
 21
-959.8340310300812
 31
0.0
  0
LINE
  5
A6
330
47
100
AcDbEntity
  8
0
  6
Continuous
 62
   124
100
AcDbLine
 10
-811.6443805554353
 20
-962.6425048553738
 30
0.0
 11
-814.6664843364757
 21
-959.8340310300812
 31
0.0
  0
LINE
  5
A7
330
47
100
AcDbEntity
  8
0
  6
Continuous
 62
   124
100
AcDbLine
 10
-856.9467436157139
 20
-916.1644468133461
 30
0.0
 11
-855.1859555196432
 21
-913.8380623177161
 31
0.0
  0
LINE
  5
A8
330
47
100
AcDbEntity
  8
0
  6
Continuous
 62
   124
100
AcDbLine
 10
-855.1859555196432
 20
-913.8380623177161
 30
0.0
 11
-853.8214830510958
 21
-912.5253061061853
 31
0.0
  0
LINE
  5
A9
330
47
100
AcDbEntity
  8
0
  6
Continuous
 62
   124
100
AcDbLine
 10
-856.9467436157139
 20
-916.1644468133461
 30
0.0
 11
-853.8214830510958
 21
-912.5253061061853
 31
0.0
  0
LINE
  5
AA
330
47
100
AcDbEntity
  8
0
  6
Continuous
 62
   124
100
AcDbLine
 10
-858.9939907978762
 20
-915.8979470488282
 30
0.0
 11
-857.2332027018055
 21
-913.5715625531982
 31
0.0
  0
LINE
  5
AB
330
47
100
AcDbEntity
  8
0
  6
Continuous
 62
   124
100
AcDbLine
 10
-857.853367062414
 20
-919.6999924531442
 30
0.0
 11
-850.9454679031061
 21
-911.6562416964225
 31
0.0
  0
LINE
  5
AC
330
47
100
AcDbEntity
  8
0
  6
Continuous
 62
   124
100
AcDbLine
 10
-858.9159183939314
 20
-920.766733303644
 30
0.0
 11
-855.8938146128911
 21
-923.5752071289365
 31
0.0
  0
LINE
  5
AD
330
47
100
AcDbEntity
  8
0
  6
Continuous
 62
   124
100
AcDbLine
 10
-848.4379891559089
 20
-920.1090206565389
 30
0.0
 11
-851.1436181425469
 21
-921.5573542636217
 31
0.0
  0
LINE
  5
AE
330
47
100
AcDbEntity
  8
0
  6
Continuous
 62
   124
100
AcDbLine
 10
-848.0183575779288
 20
-917.9182135564608
 30
0.0
 11
-848.4379891559089
 21
-920.1090206565389
 31
0.0
  0
LINE
  5
AF
330
47
100
AcDbEntity
  8
0
  6
Continuous
 62
   124
100
AcDbLine
 10
-847.7042146459445
 20
-922.4269545170041
 30
0.0
 11
-850.4098436325824
 21
-923.8752881240869
 31
0.0
  0
LINE
  5
B0
330
47
100
AcDbEntity
  8
0
  6
Continuous
 62
   124
100
AcDbLine
 10
-847.1815454253132
 20
-913.4303975053167
 30
0.0
 11
-850.2036492063535
 21
-910.621923680024
 31
0.0
  0
LINE
  5
B1
330
47
100
AcDbEntity
  8
0
  6
Continuous
 62
   124
100
AcDbLine
 10
-847.9233641220658
 20
-914.4647155217152
 30
0.0
 11
-850.9454679031061
 21
-911.6562416964225
 31
0.0
  0
LINE
  5
B2
330
47
100
AcDbEntity
  8
0
  6
Continuous
 62
   124
100
AcDbLine
 10
-851.1436181425469
 20
-921.5573542636217
 30
0.0
 11
-848.0183575779288
 21
-917.9182135564608
 31
0.0
  0
LINE
  5
B3
330
47
100
AcDbEntity
  8
0
  6
Continuous
 62
   124
100
AcDbLine
 10
-854.8312632813736
 20
-922.5084662784368
 30
0.0
 11
-847.9233641220658
 21
-914.4647155217152
 31
0.0
  0
LINE
  5
B4
330
47
100
AcDbEntity
  8
0
  6
Continuous
 62
   124
100
AcDbLine
 10
-810.6346003251575
 20
-952.6593446831223
 30
0.0
 11
-811.999072793705
 21
-953.9721008946532
 31
0.0
  0
LINE
  5
B5
330
47
100
AcDbEntity
  8
0
  6
Continuous
 62
   124
100
AcDbLine
 10
-845.4802130396943
 20
-918.1350885500278
 30
0.0
 11
-845.8998446176745
 21
-920.3258956501058
 31
0.0
  0
LINE
  5
B6
330
47
100
AcDbEntity
  8
0
  6
Continuous
 62
   124
100
AcDbLine
 10
-810.8774774790497
 20
-950.2917860517063
 30
0.0
 11
-812.2419499475973
 21
-951.604542263237
 31
0.0
  0
LINE
  5
B7
330
47
100
AcDbEntity
  8
0
  6
Continuous
 62
   124
100
AcDbLine
 10
-807.0167664804153
 20
-950.7559622569611
 30
0.0
 11
-803.9946626993749
 21
-953.5644360822537
 31
0.0
  0
LINE
  5
B8
330
47
100
AcDbEntity
  8
0
  6
Continuous
 62
   124
100
AcDbLine
 10
-812.2419499475973
 20
-951.604542263237
 30
0.0
 11
-845.8998446176745
 21
-920.3258956501058
 31
0.0
  0
LINE
  5
B9
330
47
100
AcDbEntity
  8
0
  6
Continuous
 62
   124
100
AcDbLine
 10
-814.0463199758672
 20
-953.7056011301353
 30
0.0
 11
-847.7042146459445
 21
-922.4269545170041
 31
0.0
  0
LINE
  5
BA
330
47
100
AcDbEntity
  8
0
  6
Continuous
 62
     1
100
AcDbLine
 10
-869.3786544935116
 20
-898.5067829515302
 30
0.0
 11
-859.9794212741533
 21
-880.0488859871176
 31
0.0
  0
LINE
  5
BB
330
47
100
AcDbEntity
  8
0
  6
Continuous
 62
     1
100
AcDbLine
 10
-859.9794212741533
 20
-880.0488859871176
 30
0.0
 11
-779.3639068524019
 21
-954.9657579974
 31
0.0
  0
LINE
  5
BC
330
47
100
AcDbEntity
  8
0
  6
Continuous
 62
   124
100
AcDbLine
 10
-857.853367062414
 20
-919.6999924531442
 30
0.0
 11
-854.8312632813736
 21
-922.5084662784368
 31
0.0
  0
LINE
  5
BD
330
47
100
AcDbEntity
  8
0
  6
Continuous
 62
   124
100
AcDbLine
 10
-855.4288326735355
 20
-911.4705036863
 30
0.0
 11
-854.0643602049881
 21
-910.1577474747692
 31
0.0
  0
LINE
  5
BE
330
47
100
AcDbEntity
  8
0
  6
Continuous
 62
   124
100
AcDbLine
 10
-855.4288326735355
 20
-911.4705036863
 30
0.0
 11
-869.3786544935116
 21
-898.5067829515302
 31
0.0
  0
LINE
  5
BF
330
47
100
AcDbEntity
  8
0
  6
Continuous
 62
   124
100
AcDbLine
 10
-857.2332027018055
 20
-913.5715625531982
 30
0.0
 11
-871.1830245217816
 21
-900.6078418184285
 31
0.0
  0
LINE
  5
C0
330
47
100
AcDbEntity
  8
0
  6
Continuous
 62
     1
100
AcDbLine
 10
-923.0791026020648
 20
-944.4669489644732
 30
0.0
 11
-871.1830245217816
 21
-900.6078418184285
 31
0.0
  0
LINE
  5
C1
330
47
100
AcDbEntity
  8
0
  6
Continuous
 62
   124
100
AcDbLine
 10
-919.2592347182203
 20
-1013.194611855546
 30
0.0
 11
-918.8729648613986
 21
-1012.436068147641
 31
0.0
  0
LINE
  5
C2
330
47
100
AcDbEntity
  8
0
  6
Continuous
 62
     1
100
AcDbLine
 10
-859.0124136097727
 20
-879.231635544849
 30
0.0
 11
-778.3968991880213
 21
-954.1485075551316
 31
0.0
  0
SPLINE
  5
C3
330
47
100
AcDbEntity
  8
0
  6
Continuous
 62
     1
100
AcDbSpline
210
0.0
220
0.0
230
1.0
 70
     8
 71
     3
 72
    17
 73
    13
 74
    11
 42
0.0000000001
 43
0.0000000001
 44
0.00000001
 40
0.0
 40
0.0
 40
0.0
 40
0.0
 40
8.697030886795547
 40
17.4709581452951
 40
26.25340304427018
 40
34.9753480320983
 40
43.5723485027999
 40
51.98967842991988
 40
60.1872773901323
 40
68.14424634349217
 40
75.86241454801679
 40
83.36823584301473
 40
83.36823584301473
 40
83.36823584301473
 40
83.36823584301473
 10
-919.2592347182203
 20
-1013.194611855546
 30
0.0
 10
-917.0572969256746
 20
-1015.086673592756
 30
0.0
 10
-912.6339525093036
 20
-1018.887526073262
 30
0.0
 10
-905.1127335764567
 20
-1023.434534872101
 30
0.0
 10
-897.1129674679396
 20
-1027.048232286396
 30
0.0
 10
-888.7554067766459
 20
-1029.561698666057
 30
0.0
 10
-880.261246936321
 20
-1030.934813386094
 30
0.0
 10
-871.8326520905202
 20
-1031.124689148366
 30
0.0
 10
-863.6685046147785
 20
-1030.133250636782
 30
0.0
 10
-855.9913422055705
 20
-1027.951423356016
 30
0.0
 10
-848.9046811732393
 20
-1024.729409424611
 30
0.0
 10
-844.8492772511031
 20
-1021.657095201823
 30
0.0
 10
-842.8498580371354
 20
-1020.142364682661
 30
0.0
 11
-919.2592347182203
 21
-1013.194611855546
 31
0.0
 11
-912.5092410742045
 21
-1018.678764666293
 31
0.0
 11
-905.0365137106617
 21
-1023.276606038894
 31
0.0
 11
-897.0250547177969
 21
-1026.874919978669
 31
0.0
 11
-888.6721336823296
 21
-1029.385106136297
 31
0.0
 11
-880.1834267659544
 21
-1030.745353165747
 31
0.0
 11
-871.7679541677371
 21
-1030.922169597798
 31
0.0
 11
-863.6329331051252
 21
-1029.911199260282
 31
0.0
 11
-855.9786740361169
 21
-1027.737337942434
 31
0.0
 11
-848.9936513689012
 21
-1024.454111058434
 31
0.0
 11
-842.8498580371354
 21
-1020.142364682661
 31
0.0
  0
SPLINE
  5
C4
330
47
100
AcDbEntity
  8
0
  6
Continuous
 62
     1
100
AcDbSpline
210
0.0
220
0.0
230
1.0
 70
     8
 71
     3
 72
    13
 73
     9
 74
     7
 42
0.0000000001
 43
0.0000000001
 44
0.00000001
 40
0.0
 40
0.0
 40
0.0
 40
0.0
 40
0.3474921220238498
 40
0.7816320662052445
 40
1.275071759133734
 40
1.795673760282468
 40
2.30921931396864
 40
2.78202586266308
 40
2.78202586266308
 40
2.78202586266308
 40
2.78202586266308
 10
-788.7631400717602
 20
-973.4236549618126
 30
0.0
 10
-788.8204836142093
 20
-973.5243935925794
 30
0.0
 10
-788.9494694205839
 20
-973.7509902234738
 30
0.0
 10
-789.2028158686412
 20
-974.0932440236088
 30
0.0
 10
-789.5073714891913
 20
-974.4677927440177
 30
0.0
 10
-789.8496190648549
 20
-974.8450988113702
 30
0.0
 10
-790.2024115616047
 20
-975.2031502813791
 30
0.0
 10
-790.4492083788575
 20
-975.4205186125926
 30
0.0
 10
-790.5675101000302
 20
-975.5247138287109
 30
0.0
 11
-788.7631400717602
 21
-973.4236549618126
 31
0.0
 11
-788.9403723450962
 21
-973.7225520948815
 31
0.0
 11
-789.1933925914718
 21
-974.0753384977627
 31
0.0
 11
-789.5049589144861
 21
-974.4579729929676
 31
0.0
 11
-789.8538378596458
 21
-974.844379417894
 31
0.0
 11
-790.2162542876981
 21
-975.2082246712484
 31
0.0
 11
-790.5675101000302
 21
-975.5247138287109
 31
0.0
  0
SPLINE
  5
C5
330
47
100
AcDbEntity
  8
0
  6
Continuous
 62
     1
100
AcDbSpline
210
0.0
220
0.0
230
1.0
 70
     8
 71
     3
 72
    15
 73
    11
 74
     9
 42
0.0000000001
 43
0.0000000001
 44
0.00000001
 40
0.0
 40
0.0
 40
0.0
 40
0.0
 40
0.5032736075623828
 40
1.11078525098416
 40
1.801500648387982
 40
2.550427068815178
 40
3.329992309900834
 40
4.11130611624499
 40
4.865403718180311
 40
5.564488821530056
 40
5.564488821530056
 40
5.564488821530056
 40
5.564488821530056
 10
-787.6673757884389
 20
-972.3535566169091
 30
0.0
 10
-787.748721571802
 20
-972.5003712379903
 30
0.0
 10
-787.9282614781904
 20
-972.8244087262973
 30
0.0
 10
-788.2705199203261
 20
-973.3187890456883
 30
0.0
 10
-788.6820484419394
 20
-973.8631460137665
 30
0.0
 10
-789.1541680342632
 20
-974.4329744488576
 30
0.0
 10
-789.6667321601578
 20
-975.0077198342185
 30
0.0
 10
-790.2014605427075
 20
-975.5642245145355
 30
0.0
 10
-790.7352453674841
 20
-976.0841666171625
 30
0.0
 10
-791.1004339469634
 20
-976.4025223910321
 30
0.0
 10
-791.2761158449789
 20
-976.5556743507055
 30
0.0
 11
-787.6673757884389
 21
-972.3535566169091
 31
0.0
 11
-787.9178780105236
 21
-972.7900574311117
 31
0.0
 11
-788.2578508553871
 21
-973.2935342048048
 31
0.0
 11
-788.6742297588519
 21
-973.8446388853876
 31
0.0
 11
-789.1510131819441
 21
-974.422192649706
 31
0.0
 11
-789.6698788532203
 21
-975.0040005048265
 31
0.0
 11
-790.210886900428
 21
-975.5677039346906
 31
0.0
 11
-790.7532467445933
 21
-976.0916399925084
 31
0.0
 11
-791.2761158449789
 21
-976.5556743507055
 31
0.0
  0
SPLINE
  5
C6
330
47
100
AcDbEntity
  8
0
  6
Continuous
 62
   124
100
AcDbSpline
210
0.0
220
0.0
230
1.0
 70
     8
 71
     3
 72
    11
 73
     7
 74
     5
 42
0.0000000001
 43
0.0000000001
 44
0.00000001
 40
0.0
 40
0.0
 40
0.0
 40
0.0
 40
0.9843148425417316
 40
1.938591718195606
 40
2.845370349027346
 40
3.713107903706479
 40
3.713107903706479
 40
3.713107903706479
 40
3.713107903706479
 10
-814.6664843364757
 20
-959.8340310300812
 30
0.0
 10
-814.660585862666
 20
-959.5056227715405
 30
0.0
 10
-814.6489689165601
 20
-958.8588281661173
 30
0.0
 10
-814.5097465496417
 20
-957.9191104142565
 30
0.0
 10
-814.2457785280022
 20
-957.0380559939224
 30
0.0
 10
-813.9194401825425
 20
-956.5413663737986
 30
0.0
 10
-813.7598608897757
 20
-956.2984853902832
 30
0.0
 11
-814.6664843364757
 21
-959.8340310300812
 31
0.0
 11
-814.627329735954
 21
-958.8504952521321
 31
0.0
 11
-814.4840307752872
 21
-957.9070389662982
 31
0.0
 11
-814.201611204202
 21
-957.0453623035057
 31
0.0
 11
-813.7598608897757
 21
-956.2984853902832
 31
0.0
  0
SPLINE
  5
C7
330
47
100
AcDbEntity
  8
0
  6
Continuous
 62
   124
100
AcDbSpline
210
0.0
220
0.0
230
1.0
 70
     8
 71
     3
 72
     9
 73
     5
 74
     3
 42
0.0000000001
 43
0.0000000001
 44
0.00000001
 40
0.0
 40
0.0
 40
0.0
 40
0.0
 40
0.7264293233709366
 40
1.50673830110778
 40
1.50673830110778
 40
1.50673830110778
 40
1.50673830110778
 10
-815.7290356679931
 20
-960.900771880581
 30
0.0
 10
-815.5483420893017
 20
-960.739261778438
 30
0.0
 10
-815.1735527918174
 20
-960.4042622828434
 30
0.0
 10
-814.8394890975449
 20
-960.0285860661893
 30
0.0
 10
-814.6664843364757
 20
-959.8340310300812
 30
0.0
 11
-815.7290356679931
 21
-960.900771880581
 31
0.0
 11
-815.1964211957197
 21
-960.4067866725251
 31
0.0
 11
-814.6664843364757
 21
-959.8340310300812
 31
0.0
  0
SPLINE
  5
C8
330
47
100
AcDbEntity
  8
0
  6
Continuous
 62
   124
100
AcDbSpline
210
0.0
220
0.0
230
1.0
 70
     8
 71
     3
 72
    11
 73
     7
 74
     5
 42
0.0000000001
 43
0.0000000001
 44
0.00000001
 40
0.0
 40
0.0
 40
0.0
 40
0.0
 40
0.4137016111703832
 40
0.918856606586788
 40
1.523766332781802
 40
2.196234551416907
 40
2.196234551416907
 40
2.196234551416907
 40
2.196234551416907
 10
-813.7598608897757
 20
-956.2984853902832
 30
0.0
 10
-813.8779579903359
 20
-956.3750317190945
 30
0.0
 10
-814.1402588809735
 20
-956.545045801803
 30
0.0
 10
-814.6717030469188
 20
-956.5247785336363
 30
0.0
 10
-815.2459154876748
 20
-956.3675906469841
 30
0.0
 10
-815.6135624556107
 20
-956.1477299931992
 30
0.0
 10
-815.8071080719379
 20
-956.0319856257653
 30
0.0
 11
-813.7598608897757
 21
-956.2984853902832
 31
0.0
 11
-814.1259436988317
 21
-956.4911830809767
 31
0.0
 11
-814.630788207808
 21
-956.5088915860147
 31
0.0
 11
-815.2143216820639
 21
-956.349503815881
 31
0.0
 11
-815.8071080719379
 21
-956.0319856257653
 31
0.0
  0
SPLINE
  5
C9
330
47
100
AcDbEntity
  8
0
  6
Continuous
 62
   124
100
AcDbSpline
210
0.0
220
0.0
230
1.0
 70
     8
 71
     3
 72
     9
 73
     5
 74
     3
 42
0.0000000001
 43
0.0000000001
 44
0.00000001
 40
0.0
 40
0.0
 40
0.0
 40
0.0
 40
2.589989228984672
 40
5.221232144441768
 40
5.221232144441768
 40
5.221232144441768
 40
5.221232144441768
 10
-815.8071080719379
 20
-956.0319856257653
 30
0.0
 10
-816.2627250854426
 20
-956.8431187050098
 30
0.0
 10
-817.1812162397077
 20
-958.4783046970505
 30
0.0
 10
-816.2156389124659
 20
-960.0890406027393
 30
0.0
 10
-815.7290356679931
 20
-960.900771880581
 30
0.0
 11
-815.8071080719379
 21
-956.0319856257653
 31
0.0
 11
-816.7103557318912
 21
-958.4593685520967
 31
0.0
 11
-815.7290356679931
 21
-960.900771880581
 31
0.0
  0
SPLINE
  5
CA
330
47
100
AcDbEntity
  8
0
  6
Continuous
 62
   124
100
AcDbSpline
210
0.0
220
0.0
230
1.0
 70
     8
 71
     3
 72
     9
 73
     5
 74
     3
 42
0.0000000001
 43
0.0000000001
 44
0.00000001
 40
0.0
 40
0.0
 40
0.0
 40
0.0
 40
2.878764434982565
 40
5.740596831404871
 40
5.740596831404871
 40
5.740596831404871
 40
5.740596831404871
 10
-812.7069318869528
 20
-963.7092457058736
 30
0.0
 10
-811.8127286678446
 20
-964.1772409781584
 30
0.0
 10
-810.0295816677412
 20
-965.1104789133445
 30
0.0
 10
-808.1566597498262
 20
-964.375654977741
 30
0.0
 10
-807.2229609066442
 20
-964.009326701024
 30
0.0
 11
-812.7069318869528
 21
-963.7092457058736
 31
0.0
 11
-810.001745908203
 21
-964.6937524313438
 31
0.0
 11
-807.2229609066442
 21
-964.009326701024
 31
0.0
  0
SPLINE
  5
CB
330
47
100
AcDbEntity
  8
0
  6
Continuous
 62
   124
100
AcDbSpline
210
0.0
220
0.0
230
1.0
 70
     8
 71
     3
 72
    13
 73
     9
 74
     7
 42
0.0000000001
 43
0.0000000001
 44
0.00000001
 40
0.0
 40
0.0
 40
0.0
 40
0.0
 40
0.45393625744712
 40
0.8846780198261521
 40
1.278932912867681
 40
1.628321218577774
 40
1.932371949687106
 40
2.202148957596169
 40
2.202148957596169
 40
2.202148957596169
 40
2.202148957596169
 10
-814.0463199758672
 20
-953.7056011301353
 30
0.0
 10
-813.9175068455593
 20
-953.785452258413
 30
0.0
 10
-813.6664624683397
 20
-953.941074412155
 30
0.0
 10
-813.2692947519126
 20
-954.1011588457648
 30
0.0
 10
-812.8863011194776
 20
-954.1930580667652
 30
0.0
 10
-812.5362590377488
 20
-954.2045586391894
 30
0.0
 10
-812.2258109071417
 20
-954.1436987365366
 30
0.0
 10
-812.0715815485983
 20
-954.0269762998894
 30
0.0
 10
-811.999072793705
 20
-953.9721008946532
 30
0.0
 11
-814.0463199758672
 21
-953.7056011301353
 31
0.0
 11
-813.6536437268451
 21
-953.9333366988966
 31
0.0
 11
-813.2544607872633
 21
-954.0951744157744
 31
0.0
 11
-812.8700001860847
 21
-954.1825069230588
 31
0.0
 11
-812.5207077335733
 21
-954.1906904910811
 31
0.0
 11
-812.2251596001041
 21
-954.11928917533
 31
0.0
 11
-811.999072793705
 21
-953.9721008946532
 31
0.0
  0
SPLINE
  5
CC
330
47
100
AcDbEntity
  8
0
  6
Continuous
 62
   124
100
AcDbSpline
210
0.0
220
0.0
230
1.0
 70
     8
 71
     3
 72
    11
 73
     7
 74
     5
 42
0.0000000001
 43
0.0000000001
 44
0.00000001
 40
0.0
 40
0.0
 40
0.0
 40
0.0
 40
0.930675313706451
 40
1.875900572043501
 40
2.867429026831725
 40
3.83452241802389
 40
3.83452241802389
 40
3.83452241802389
 40
3.83452241802389
 10
-807.9567354166086
 20
-961.6913928405587
 30
0.0
 10
-808.2339628158228
 20
-961.8324587011145
 30
0.0
 10
-808.7927517179384
 20
-962.1167958105399
 30
0.0
 10
-809.7223400121461
 20
-962.3611789631918
 30
0.0
 10
-810.6756783382821
 20
-962.527361575814
 30
0.0
 10
-811.3241766270627
 20
-962.6044443143862
 30
0.0
 10
-811.6443805554353
 20
-962.6425048553738
 30
0.0
 11
-807.9567354166086
 21
-961.6913928405587
 31
0.0
 11
-808.8005661941286
 21
-962.083956413057
 31
0.0
 11
-809.709226446632
 21
-962.3443164225031
 31
0.0
 11
-810.6851045923859
 21
-962.5197887032049
 31
0.0
 11
-811.6443805554353
 21
-962.6425048553738
 31
0.0
  0
SPLINE
  5
CD
330
47
100
AcDbEntity
  8
0
  6
Continuous
 62
   124
100
AcDbSpline
210
0.0
220
0.0
230
1.0
 70
     8
 71
     3
 72
    11
 73
     7
 74
     5
 42
0.0000000001
 43
0.0000000001
 44
0.00000001
 40
0.0
 40
0.0
 40
0.0
 40
0.0
 40
0.6834921520065118
 40
1.36403679765903
 40
1.981917970262254
 40
2.492451553705084
 40
2.492451553705084
 40
2.492451553705084
 40
2.492451553705084
 10
-807.2229609066442
 20
-964.009326701024
 30
0.0
 10
-807.3531655742876
 20
-963.8214421294942
 30
0.0
 10
-807.6130134121469
 20
-963.4464832239292
 30
0.0
 10
-807.8619733026767
 20
-962.8318742464705
 30
0.0
 10
-808.012022291256
 20
-962.2385016027274
 30
0.0
 10
-807.973957317721
 20
-961.8618176124401
 30
0.0
 10
-807.9567354166086
 20
-961.6913928405587
 30
0.0
 11
-807.2229609066442
 21
-964.009326701024
 31
0.0
 11
-807.5913533127163
 21
-963.433611009903
 31
0.0
 11
-807.8546254003869
 21
-962.8060531858104
 31
0.0
 11
-807.9814498424657
 21
-962.2013278726731
 31
0.0
 11
-807.9567354166086
 21
-961.6913928405587
 31
0.0
  0
SPLINE
  5
CE
330
47
100
AcDbEntity
  8
0
  6
Continuous
 62
   124
100
AcDbSpline
210
0.0
220
0.0
230
1.0
 70
     8
 71
     3
 72
    13
 73
     9
 74
     7
 42
0.0000000001
 43
0.0000000001
 44
0.00000001
 40
0.0
 40
0.0
 40
0.0
 40
0.0
 40
0.4532191118846284
 40
0.9143926349748515
 40
1.365002404962193
 40
1.787535068067942
 40
2.167377593132372
 40
2.495217325060681
 40
2.495217325060681
 40
2.495217325060681
 40
2.495217325060681
 10
-804.5173319200062
 20
-962.5609930939412
 30
0.0
 10
-804.6055336178626
 20
-962.4381255846642
 30
0.0
 10
-804.783485034291
 20
-962.1902341286022
 30
0.0
 10
-804.9927259891892
 20
-961.7846092260104
 30
0.0
 10
-805.1552989789391
 20
-961.3694354190461
 30
0.0
 10
-805.2555715469018
 20
-960.9635136859857
 30
0.0
 10
-805.3003715184814
 20
-960.5859530396846
 30
0.0
 10
-805.2667034463387
 20
-960.3516172503121
 30
0.0
 10
-805.2511064299706
 20
-960.2430592334761
 30
0.0
 11
-804.5173319200062
 21
-962.5609930939412
 31
0.0
 11
-804.7726545575002
 21
-962.1865362684451
 31
0.0
 11
-804.987009364886
 21
-961.778206701857
 31
0.0
 11
-805.1489962848287
 21
-961.3577196003004
 31
0.0
 11
-805.2500011970876
 21
-960.9474369427448
 31
0.0
 11
-805.2846519602683
 21
-960.5691782105808
 31
0.0
 11
-805.2511064299706
 21
-960.2430592334761
 31
0.0
  0
SPLINE
  5
CF
330
47
100
AcDbEntity
  8
0
  6
Continuous
 62
   124
100
AcDbSpline
210
0.0
220
0.0
230
1.0
 70
     8
 71
     3
 72
    13
 73
     9
 74
     7
 42
0.0000000001
 43
0.0000000001
 44
0.00000001
 40
0.0
 40
0.0
 40
0.0
 40
0.0
 40
0.4438746566176836
 40
0.9009631802125886
 40
1.36215240618584
 40
1.81770813058867
 40
2.258752783919057
 40
2.678746479255674
 40
2.678746479255674
 40
2.678746479255674
 40
2.678746479255674
 10
-802.7129618917362
 20
-960.4599342270429
 30
0.0
 10
-802.8369894761595
 20
-960.3784321274888
 30
0.0
 10
-803.0887368675236
 20
-960.2130016625739
 30
0.0
 10
-803.5202005371614
 20
-960.0595264226645
 30
0.0
 10
-803.9728727984696
 20
-959.9777309533265
 30
0.0
 10
-804.427393129554
 20
-959.9811279043946
 30
0.0
 10
-804.8638340747074
 20
-960.0594091266253
 30
0.0
 10
-805.1241369694094
 20
-960.1828484937164
 30
0.0
 10
-805.2511064299706
 20
-960.2430592334761
 30
0.0
 11
-802.7129618917362
 21
-960.4599342270429
 31
0.0
 11
-803.0932082969182
 21
-960.2309421264507
 31
0.0
 11
-803.5218012723017
 21
-960.0720774675297
 31
0.0
 11
-803.9759481099828
 21
-959.9917895358212
 31
0.0
 11
-804.4314966534276
 21
-959.9943473867727
 31
0.0
 11
-804.8642202273938
 21
-960.0796157558508
 31
0.0
 11
-805.2511064299706
 21
-960.2430592334761
 31
0.0
  0
SPLINE
  5
D0
330
47
100
AcDbEntity
  8
0
  6
Continuous
 62
   124
100
AcDbSpline
210
0.0
220
0.0
230
1.0
 70
     8
 71
     3
 72
    11
 73
     7
 74
     5
 42
0.0000000001
 43
0.0000000001
 44
0.00000001
 40
0.0
 40
0.0
 40
0.0
 40
0.0
 40
0.9778448453576307
 40
1.904634302949886
 40
2.74027931542664
 40
3.463795155919553
 40
3.463795155919553
 40
3.463795155919553
 40
3.463795155919553
 10
-804.7364813961275
 20
-954.5987540986522
 30
0.0
 10
-804.7312597901123
 20
-954.9247431613635
 30
0.0
 10
-804.7210892093904
 20
-955.5597006949372
 30
0.0
 10
-804.6884723476578
 20
-956.4715702435345
 30
0.0
 10
-804.6857086579228
 20
-957.3037596074591
 30
0.0
 10
-804.7852728862374
 20
-957.8150103897211
 30
0.0
 10
-804.8314748519904
 20
-958.0522521333979
 30
0.0
 11
-804.7364813961275
 21
-954.5987540986522
 31
0.0
 11
-804.7175218468351
 21
-955.5764151222606
 31
0.0
 11
-804.692646584669
 21
-956.5028706905618
 31
0.0
 11
-804.7146818509084
 21
-957.3382251266661
 31
0.0
 11
-804.8314748519904
 21
-958.0522521333979
 31
0.0
  0
SPLINE
  5
D1
330
47
100
AcDbEntity
  8
0
  6
Continuous
 62
   124
100
AcDbSpline
210
0.0
220
0.0
230
1.0
 70
     8
 71
     3
 72
     9
 73
     5
 74
     3
 42
0.0000000001
 43
0.0000000001
 44
0.00000001
 40
0.0
 40
0.0
 40
0.0
 40
0.0
 40
0.555026727030711
 40
1.274680954113142
 40
1.274680954113142
 40
1.274680954113142
 40
1.274680954113142
 10
-803.9946626993749
 20
-953.5644360822537
 30
0.0
 10
-804.0895058876505
 20
-953.7236212111914
 30
0.0
 10
-804.3073238770094
 20
-954.0892076634341
 30
0.0
 10
-804.5816202546152
 20
-954.4148846821884
 30
0.0
 10
-804.7364813961275
 20
-954.5987540986522
 30
0.0
 11
-803.9946626993749
 21
-953.5644360822537
 31
0.0
 11
-804.2899002329427
 21
-954.0344248762597
 31
0.0
 11
-804.7364813961275
 21
-954.5987540986522
 31
0.0
  0
SPLINE
  5
D2
330
47
100
AcDbEntity
  8
0
  6
Continuous
 62
   124
100
AcDbSpline
210
0.0
220
0.0
230
1.0
 70
     8
 71
     3
 72
    11
 73
     7
 74
     5
 42
0.0000000001
 43
0.0000000001
 44
0.00000001
 40
0.0
 40
0.0
 40
0.0
 40
0.0
 40
0.6367530856145853
 40
1.31390507663192
 40
2.003597199804886
 40
2.67364205085052
 40
2.67364205085052
 40
2.67364205085052
 40
2.67364205085052
 10
-804.8314748519904
 20
-958.0522521333979
 30
0.0
 10
-804.6350207051581
 20
-957.9672760111728
 30
0.0
 10
-804.2296483454795
 20
-957.7919324425172
 30
0.0
 10
-803.5494770240584
 20
-957.775779584125
 30
0.0
 10
-802.87368392886
 20
-957.911768890717
 30
0.0
 10
-802.4849090079515
 20
-958.1511607311697
 30
0.0
 10
-802.293330313756
 20
-958.2691271269649
 30
0.0
 11
-804.8314748519904
 21
-958.0522521333979
 31
0.0
 11
-804.2325615599767
 21
-957.8360176294698
 31
0.0
 11
-803.5563165290397
 21
-957.8009822606017
 31
0.0
 11
-802.8832078240196
 21
-957.9513148784628
 31
0.0
 11
-802.293330313756
 21
-958.2691271269649
 31
0.0
  0
SPLINE
  5
D3
330
47
100
AcDbEntity
  8
0
  6
Continuous
 62
   124
100
AcDbSpline
210
0.0
220
0.0
230
1.0
 70
     8
 71
     3
 72
     9
 73
     5
 74
     3
 42
0.0000000001
 43
0.0000000001
 44
0.00000001
 40
0.0
 40
0.0
 40
0.0
 40
0.0
 40
2.324442133667512
 40
5.144823112416146
 40
5.144823112416146
 40
5.144823112416146
 40
5.144823112416146
 10
-802.293330313756
 20
-958.2691271269649
 30
0.0
 10
-802.2830041404299
 20
-957.4711534074064
 30
0.0
 10
-802.2601486197775
 20
-955.7049517128056
 30
0.0
 10
-803.3804925586631
 20
-954.3223663876201
 30
0.0
 10
-803.9946626993749
 20
-953.5644360822537
 30
0.0
 11
-802.293330313756
 21
-958.2691271269649
 31
0.0
 11
-802.4957075903831
 21
-955.9535117291335
 31
0.0
 11
-803.9946626993749
 21
-953.5644360822537
 31
0.0
  0
SPLINE
  5
D4
330
47
100
AcDbEntity
  8
0
  6
Continuous
 62
   124
100
AcDbSpline
210
0.0
220
0.0
230
1.0
 70
     8
 71
     3
 72
    13
 73
     9
 74
     7
 42
0.0000000001
 43
0.0000000001
 44
0.00000001
 40
0.0
 40
0.0
 40
0.0
 40
0.0
 40
0.3474921220238896
 40
0.7816320662051658
 40
1.275071759133584
 40
1.795673760282469
 40
2.309219313968401
 40
2.782025862663086
 40
2.782025862663086
 40
2.782025862663086
 40
2.782025862663086
 10
-802.7129618917362
 20
-960.4599342270429
 30
0.0
 10
-802.7703054341853
 20
-960.5606728578097
 30
0.0
 10
-802.8992912405595
 20
-960.7872694887042
 30
0.0
 10
-803.1526376886176
 20
-961.129523288839
 30
0.0
 10
-803.457193309167
 20
-961.5040720092481
 30
0.0
 10
-803.799440884831
 20
-961.8813780766
 30
0.0
 10
-804.1522333815806
 20
-962.2394295466095
 30
0.0
 10
-804.3990301988334
 20
-962.4567978778227
 30
0.0
 10
-804.5173319200062
 20
-962.5609930939412
 30
0.0
 11
-802.7129618917362
 21
-960.4599342270429
 31
0.0
 11
-802.8901941650721
 21
-960.7588313601119
 31
0.0
 11
-803.1432144114478
 21
-961.1116177629929
 31
0.0
 11
-803.454780734462
 21
-961.4942522581978
 31
0.0
 11
-803.8036596796219
 21
-961.8806586831241
 31
0.0
 11
-804.1660761076739
 21
-962.2445039364786
 31
0.0
 11
-804.5173319200062
 21
-962.5609930939412
 31
0.0
  0
SPLINE
  5
D5
330
47
100
AcDbEntity
  8
0
  6
Continuous
 62
   124
100
AcDbSpline
210
0.0
220
0.0
230
1.0
 70
     8
 71
     3
 72
    11
 73
     7
 74
     5
 42
0.0000000001
 43
0.0000000001
 44
0.00000001
 40
0.0
 40
0.0
 40
0.0
 40
0.0
 40
0.3897885611924684
 40
0.7804395243360397
 40
1.157461736138095
 40
1.507030876939448
 40
1.507030876939448
 40
1.507030876939448
 40
1.507030876939448
 10
-811.6443805554353
 20
-962.6425048553738
 30
0.0
 10
-811.7301076230375
 20
-962.7401627153598
 30
0.0
 10
-811.9017514282259
 20
-962.9356945020337
 30
0.0
 10
-812.1697255430574
 20
-963.2134065613734
 30
0.0
 10
-812.4364617528811
 20
-963.4735103947385
 30
0.0
 10
-812.6190750914662
 20
-963.6326718205889
 30
0.0
 10
-812.7069318869528
 20
-963.7092457058736
 30
0.0
 11
-811.6443805554353
 21
-962.6425048553738
 31
0.0
 11
-811.9038174128168
 21
-962.9334131561637
 31
0.0
 11
-812.1743174146793
 21
-963.2152604978177
 31
0.0
 11
-812.445477824057
 21
-963.4772104559743
 31
0.0
 11
-812.7069318869528
 21
-963.7092457058736
 31
0.0
  0
SPLINE
  5
D6
330
47
100
AcDbEntity
  8
0
  6
Continuous
 62
   124
100
AcDbSpline
210
0.0
220
0.0
230
1.0
 70
     8
 71
     3
 72
    11
 73
     7
 74
     5
 42
0.0000000001
 43
0.0000000001
 44
0.00000001
 40
0.0
 40
0.0
 40
0.0
 40
0.0
 40
0.93067531342051
 40
1.875900572043786
 40
2.867429026713796
 40
3.834522418024318
 40
3.834522418024318
 40
3.834522418024318
 40
3.834522418024318
 10
-851.1436181425469
 20
-921.5573542636217
 30
0.0
 10
-851.4208455416733
 20
-921.6984201241387
 30
0.0
 10
-851.9796344437837
 20
-921.9827572335728
 30
0.0
 10
-852.9092227379525
 20
-922.2271403862294
 30
0.0
 10
-853.8625610641809
 20
-922.3933229988716
 30
0.0
 10
-854.5110593529619
 20
-922.4704057374443
 30
0.0
 10
-854.8312632813736
 20
-922.5084662784368
 30
0.0
 11
-851.1436181425469
 21
-921.5573542636217
 31
0.0
 11
-851.9874489197971
 21
-921.949917836022
 31
0.0
 11
-852.8961091725702
 21
-922.2102778455661
 31
0.0
 11
-853.8719873182071
 21
-922.3857501262505
 31
0.0
 11
-854.8312632813736
 21
-922.5084662784368
 31
0.0
  0
SPLINE
  5
D7
330
47
100
AcDbEntity
  8
0
  6
Continuous
 62
   124
100
AcDbSpline
210
0.0
220
0.0
230
1.0
 70
     8
 71
     3
 72
     9
 73
     5
 74
     3
 42
0.0000000001
 43
0.0000000001
 44
0.00000001
 40
0.0
 40
0.0
 40
0.0
 40
0.0
 40
2.878764434982895
 40
5.740596831405172
 40
5.740596831405172
 40
5.740596831405172
 40
5.740596831405172
 10
-855.8938146128911
 20
-923.5752071289365
 30
0.0
 10
-854.9996113937827
 20
-924.0432024012214
 30
0.0
 10
-853.2164643936792
 20
-924.976440336408
 30
0.0
 10
-851.3435424757645
 20
-924.2416164008041
 30
0.0
 10
-850.4098436325824
 20
-923.8752881240869
 30
0.0
 11
-855.8938146128911
 21
-923.5752071289365
 31
0.0
 11
-853.1886286341411
 21
-924.559713854407
 31
0.0
 11
-850.4098436325824
 21
-923.8752881240869
 31
0.0
  0
SPLINE
  5
D8
330
47
100
AcDbEntity
  8
0
  6
Continuous
 62
   124
100
AcDbSpline
210
0.0
220
0.0
230
1.0
 70
     8
 71
     3
 72
    13
 73
     9
 74
     7
 42
0.0000000001
 43
0.0000000001
 44
0.00000001
 40
0.0
 40
0.0
 40
0.0
 40
0.0
 40
0.393687725875942
 40
0.7989949440521651
 40
1.220051766695661
 40
1.657433466261858
 40
2.108403994671046
 40
2.567718538804389
 40
2.567718538804389
 40
2.567718538804389
 40
2.567718538804389
 10
-855.1859555196432
 20
-913.8380623177161
 30
0.0
 10
-855.1145891434196
 20
-913.7270025226749
 30
0.0
 10
-854.9697500488016
 20
-913.5016050594242
 30
0.0
 10
-854.8728279473795
 20
-913.0995959980698
 30
0.0
 10
-854.8678352572119
 20
-912.6754138865576
 30
0.0
 10
-854.9636931949493
 20
-912.2463335108005
 30
0.0
 10
-855.146442877427
 20
-911.8311269422942
 30
0.0
 10
-855.334129273441
 20
-911.591443780335
 30
0.0
 10
-855.4288326735355
 20
-911.4705036863
 30
0.0
 11
-855.1859555196432
 21
-913.8380623177161
 31
0.0
 11
-854.991610593168
 21
-913.4956881436627
 31
0.0
 11
-854.8890859158516
 21
-913.1035623581718
 31
0.0
 11
-854.883834737177
 21
-912.6825382816427
 31
0.0
 11
-854.9761354206171
 21
-912.25500660451
 31
0.0
 11
-855.1610801922013
 21
-911.8437039799653
 31
0.0
 11
-855.4288326735355
 21
-911.4705036863
 31
0.0
  0
SPLINE
  5
D9
330
47
100
AcDbEntity
  8
0
  6
Continuous
 62
   124
100
AcDbSpline
210
0.0
220
0.0
230
1.0
 70
     8
 71
     3
 72
    13
 73
     9
 74
     7
 42
0.0000000001
 43
0.0000000001
 44
0.00000001
 40
0.0
 40
0.0
 40
0.0
 40
0.0
 40
0.2697770079091588
 40
0.5738277390183529
 40
0.9232160447285569
 40
1.317470937770061
 40
1.74821270014884
 40
2.202148957596172
 40
2.202148957596172
 40
2.202148957596172
 40
2.202148957596172
 10
-855.1859555196432
 20
-913.8380623177161
 30
0.0
 10
-855.2584642745369
 20
-913.8929377229525
 30
0.0
 10
-855.4126936330804
 20
-914.0096601595995
 30
0.0
 10
-855.7231417636871
 20
-914.0705200622522
 30
0.0
 10
-856.0731838454161
 20
-914.0590194898281
 30
0.0
 10
-856.4561774778508
 20
-913.9671202688279
 30
0.0
 10
-856.8533451942777
 20
-913.807035835218
 30
0.0
 10
-857.1043895714977
 20
-913.6514136814759
 30
0.0
 10
-857.2332027018055
 20
-913.5715625531982
 30
0.0
 11
-855.1859555196432
 21
-913.8380623177161
 31
0.0
 11
-855.4120423260425
 21
-913.9852505983929
 31
0.0
 11
-855.7075904595116
 21
-914.0566519141439
 31
0.0
 11
-856.0568829120231
 21
-914.0484683461217
 31
0.0
 11
-856.4413435132017
 21
-913.9611358388374
 31
0.0
 11
-856.8405264527833
 21
-913.7992981219597
 31
0.0
 11
-857.2332027018055
 21
-913.5715625531982
 31
0.0
  0
SPLINE
  5
DA
330
47
100
AcDbEntity
  8
0
  6
Continuous
 62
   124
100
AcDbSpline
210
0.0
220
0.0
230
1.0
 70
     8
 71
     3
 72
    13
 73
     9
 74
     7
 42
0.0000000001
 43
0.0000000001
 44
0.00000001
 40
0.0
 40
0.0
 40
0.0
 40
0.0
 40
0.3474921220240055
 40
0.7816320662052154
 40
1.275071759133633
 40
1.795673760282519
 40
2.309219313968612
 40
2.782025862662976
 40
2.782025862662976
 40
2.782025862662976
 40
2.782025862662976
 10
-855.4288326735355
 20
-911.4705036863
 30
0.0
 10
-855.4861762159845
 20
-911.5712423170668
 30
0.0
 10
-855.6151620223592
 20
-911.797838947961
 30
0.0
 10
-855.8685084704174
 20
-912.1400927480965
 30
0.0
 10
-856.1730640909664
 20
-912.514641468505
 30
0.0
 10
-856.5153116666306
 20
-912.8919475358572
 30
0.0
 10
-856.8681041633798
 20
-913.2499990058666
 30
0.0
 10
-857.1149009806327
 20
-913.4673673370798
 30
0.0
 10
-857.2332027018055
 20
-913.5715625531982
 30
0.0
 11
-855.4288326735355
 21
-911.4705036863
 31
0.0
 11
-855.6060649468716
 21
-911.769400819369
 31
0.0
 11
-855.8590851932472
 21
-912.12218722225
 31
0.0
 11
-856.1706515162614
 21
-912.5048217174549
 31
0.0
 11
-856.5195304614213
 21
-912.8912281423812
 31
0.0
 11
-856.8819468894734
 21
-913.2550733957358
 31
0.0
 11
-857.2332027018055
 21
-913.5715625531982
 31
0.0
  0
SPLINE
  5
DB
330
47
100
AcDbEntity
  8
0
  6
Continuous
 62
   124
100
AcDbSpline
210
0.0
220
0.0
230
1.0
 70
     8
 71
     3
 72
    11
 73
     7
 74
     5
 42
0.0000000001
 43
0.0000000001
 44
0.00000001
 40
0.0
 40
0.0
 40
0.0
 40
0.0
 40
0.61598361772461
 40
1.321133306131027
 40
2.138843996734814
 40
3.05294743647366
 40
3.05294743647366
 40
3.05294743647366
 40
3.05294743647366
 10
-853.8214830510958
 20
-912.5253061061853
 30
0.0
 10
-853.6593078691501
 20
-912.3968110408516
 30
0.0
 10
-853.3114820047425
 20
-912.1212207400697
 30
0.0
 10
-852.6189116948051
 20
-911.9074759348397
 30
0.0
 10
-851.8221510114479
 20
-911.7596959576028
 30
0.0
 10
-851.2483416789024
 20
-911.69198275543
 30
0.0
 10
-850.9454679031061
 20
-911.6562416964225
 30
0.0
 11
-853.8214830510958
 21
-912.5253061061853
 31
0.0
 11
-853.3175737168505
 21
-912.1710305070178
 31
0.0
 11
-852.6543336392623
 21
-911.9315546574202
 31
0.0
 11
-851.8519729512564
 21
-911.773858430863
 31
0.0
 11
-850.9454679031061
 21
-911.6562416964225
 31
0.0
  0
SPLINE
  5
DC
330
47
100
AcDbEntity
  8
0
  6
Continuous
 62
   124
100
AcDbSpline
210
0.0
220
0.0
230
1.0
 70
     8
 71
     3
 72
    11
 73
     7
 74
     5
 42
0.0000000001
 43
0.0000000001
 44
0.00000001
 40
0.0
 40
0.0
 40
0.0
 40
0.0
 40
0.684817275021091
 40
1.344701113114727
 40
1.96834839946038
 40
2.560734751292669
 40
2.560734751292669
 40
2.560734751292669
 40
2.560734751292669
 10
-854.0643602049881
 20
-910.1577474747692
 30
0.0
 10
-853.9273349055945
 20
-910.3427806221446
 30
0.0
 10
-853.6582732458786
 20
-910.7061100653618
 30
0.0
 10
-853.4889092330005
 20
-911.3526410756358
 30
0.0
 10
-853.5131275168144
 20
-911.9977787628131
 30
0.0
 10
-853.7204746509292
 20
-912.352503327982
 30
0.0
 10
-853.8214830510958
 20
-912.5253061061853
 30
0.0
 11
-854.0643602049881
 21
-910.1577474747692
 31
0.0
 11
-853.6930589193071
 21
-910.7331691075037
 31
0.0
 11
-853.519362062399
 21
-911.3697820838696
 31
0.0
 11
-853.5639381422802
 21
-911.9918342608361
 31
0.0
 11
-853.8214830510958
 21
-912.5253061061853
 31
0.0
  0
SPLINE
  5
DD
330
47
100
AcDbEntity
  8
0
  6
Continuous
 62
   124
100
AcDbSpline
210
0.0
220
0.0
230
1.0
 70
     8
 71
     3
 72
    11
 73
     7
 74
     5
 42
0.0000000001
 43
0.0000000001
 44
0.00000001
 40
0.0
 40
0.0
 40
0.0
 40
0.0
 40
0.4137016111706374
 40
0.918856606586819
 40
1.523766332782312
 40
2.196234551417056
 40
2.196234551417056
 40
2.196234551417056
 40
2.196234551417056
 10
-856.9467436157139
 20
-916.1644468133461
 30
0.0
 10
-857.0648407162739
 20
-916.2409931421574
 30
0.0
 10
-857.3271416069116
 20
-916.4110072248658
 30
0.0
 10
-857.8585857728575
 20
-916.3907399566997
 30
0.0
 10
-858.4327982136126
 20
-916.2335520700465
 30
0.0
 10
-858.8004451815491
 20
-916.013691416262
 30
0.0
 10
-858.9939907978762
 20
-915.8979470488282
 30
0.0
 11
-856.9467436157139
 21
-916.1644468133461
 31
0.0
 11
-857.3128264247702
 21
-916.3571445040398
 31
0.0
 11
-857.8176709337462
 21
-916.3748530090778
 31
0.0
 11
-858.4012044080024
 21
-916.2154652389436
 31
0.0
 11
-858.9939907978762
 21
-915.8979470488282
 31
0.0
  0
SPLINE
  5
DE
330
47
100
AcDbEntity
  8
0
  6
Continuous
 62
   124
100
AcDbSpline
210
0.0
220
0.0
230
1.0
 70
     8
 71
     3
 72
     9
 73
     5
 74
     3
 42
0.0000000001
 43
0.0000000001
 44
0.00000001
 40
0.0
 40
0.0
 40
0.0
 40
0.0
 40
0.7264293233711033
 40
1.506738301107708
 40
1.506738301107708
 40
1.506738301107708
 40
1.506738301107708
 10
-858.9159183939314
 20
-920.766733303644
 30
0.0
 10
-858.7352248152401
 20
-920.6052232015011
 30
0.0
 10
-858.3604355177556
 20
-920.2702237059065
 30
0.0
 10
-858.026371823483
 20
-919.8945474892523
 30
0.0
 10
-857.853367062414
 20
-919.6999924531442
 30
0.0
 11
-858.9159183939314
 21
-920.766733303644
 31
0.0
 11
-858.3833039216578
 21
-920.272748095588
 31
0.0
 11
-857.853367062414
 21
-919.6999924531442
 31
0.0
  0
SPLINE
  5
DF
330
47
100
AcDbEntity
  8
0
  6
Continuous
 62
   124
100
AcDbSpline
210
0.0
220
0.0
230
1.0
 70
     8
 71
     3
 72
    11
 73
     7
 74
     5
 42
0.0000000001
 43
0.0000000001
 44
0.00000001
 40
0.0
 40
0.0
 40
0.0
 40
0.0
 40
0.9843148425417271
 40
1.938591718195428
 40
2.845370349027458
 40
3.713107903706668
 40
3.713107903706668
 40
3.713107903706668
 40
3.713107903706668
 10
-857.853367062414
 20
-919.6999924531442
 30
0.0
 10
-857.8474685886044
 20
-919.3715841946037
 30
0.0
 10
-857.8358516424983
 20
-918.7247895891802
 30
0.0
 10
-857.6966292755798
 20
-917.78507183732
 30
0.0
 10
-857.4326612539411
 20
-916.9040174169852
 30
0.0
 10
-857.1063229084812
 20
-916.4073277968616
 30
0.0
 10
-856.9467436157139
 20
-916.1644468133461
 30
0.0
 11
-857.853367062414
 21
-919.6999924531442
 31
0.0
 11
-857.8142124618925
 21
-918.7164566751951
 31
0.0
 11
-857.6709135012253
 21
-917.7730003893614
 31
0.0
 11
-857.3884939301405
 21
-916.9113237265685
 31
0.0
 11
-856.9467436157139
 21
-916.1644468133461
 31
0.0
  0
SPLINE
  5
E0
330
47
100
AcDbEntity
  8
0
  6
Continuous
 62
   124
100
AcDbSpline
210
0.0
220
0.0
230
1.0
 70
     8
 71
     3
 72
    11
 73
     7
 74
     5
 42
0.0000000001
 43
0.0000000001
 44
0.00000001
 40
0.0
 40
0.0
 40
0.0
 40
0.0
 40
0.9778448453574035
 40
1.904634302950006
 40
2.74027931542632
 40
3.463795155919422
 40
3.463795155919422
 40
3.463795155919422
 40
3.463795155919422
 10
-847.9233641220658
 20
-914.4647155217152
 30
0.0
 10
-847.9181425160506
 20
-914.7907045844263
 30
0.0
 10
-847.9079719353291
 20
-915.4256621180002
 30
0.0
 10
-847.8753550735955
 20
-916.3375316665976
 30
0.0
 10
-847.8725913838615
 20
-917.1697210305218
 30
0.0
 10
-847.972155612176
 20
-917.6809718127838
 30
0.0
 10
-848.0183575779288
 20
-917.9182135564608
 30
0.0
 11
-847.9233641220658
 21
-914.4647155217152
 31
0.0
 11
-847.9044045727734
 21
-915.4423765453234
 31
0.0
 11
-847.879529310607
 21
-916.368832113625
 31
0.0
 11
-847.901564576847
 21
-917.2041865497288
 31
0.0
 11
-848.0183575779288
 21
-917.9182135564608
 31
0.0
  0
SPLINE
  5
E1
330
47
100
AcDbEntity
  8
0
  6
Continuous
 62
   124
100
AcDbSpline
210
0.0
220
0.0
230
1.0
 70
     8
 71
     3
 72
    11
 73
     7
 74
     5
 42
0.0000000001
 43
0.0000000001
 44
0.00000001
 40
0.0
 40
0.0
 40
0.0
 40
0.0
 40
0.6834921520064161
 40
1.36403679765889
 40
1.981917970262565
 40
2.49245155370507
 40
2.49245155370507
 40
2.49245155370507
 40
2.49245155370507
 10
-850.4098436325824
 20
-923.8752881240869
 30
0.0
 10
-850.5400483002259
 20
-923.6874035525575
 30
0.0
 10
-850.7998961380853
 20
-923.3124446469926
 30
0.0
 10
-851.0488560286144
 20
-922.6978356695333
 30
0.0
 10
-851.1989050171949
 20
-922.1044630257901
 30
0.0
 10
-851.1608400436595
 20
-921.727779035503
 30
0.0
 10
-851.1436181425469
 20
-921.5573542636217
 30
0.0
 11
-850.4098436325824
 21
-923.8752881240869
 31
0.0
 11
-850.7782360386544
 21
-923.299572432966
 31
0.0
 11
-851.041508126325
 21
-922.6720146088734
 31
0.0
 11
-851.1683325684044
 21
-922.0672892957358
 31
0.0
 11
-851.1436181425469
 21
-921.5573542636217
 31
0.0
  0
SPLINE
  5
E2
330
47
100
AcDbEntity
  8
0
  6
Continuous
 62
   124
100
AcDbSpline
210
0.0
220
0.0
230
1.0
 70
     8
 71
     3
 72
    13
 73
     9
 74
     7
 42
0.0000000001
 43
0.0000000001
 44
0.00000001
 40
0.0
 40
0.0
 40
0.0
 40
0.0
 40
0.3278397319285352
 40
0.7076822569929749
 40
1.130214920098614
 40
1.580824690085956
 40
2.041998213176179
 40
2.495217325060743
 40
2.495217325060743
 40
2.495217325060743
 40
2.495217325060743
 10
-848.4379891559089
 20
-920.1090206565389
 30
0.0
 10
-848.453586172277
 20
-920.2175786733749
 30
0.0
 10
-848.4872542444194
 20
-920.4519144627474
 30
0.0
 10
-848.44245427284
 20
-920.8294751090486
 30
0.0
 10
-848.3421817048772
 20
-921.2353968421087
 30
0.0
 10
-848.1796087151274
 20
-921.6505706490734
 30
0.0
 10
-847.9703677602292
 20
-922.0561955516653
 30
0.0
 10
-847.792416343801
 20
-922.3040870077275
 30
0.0
 10
-847.7042146459445
 20
-922.4269545170041
 30
0.0
 11
-848.4379891559089
 21
-920.1090206565389
 31
0.0
 11
-848.4715346862066
 21
-920.4351396336439
 31
0.0
 11
-848.4368839230258
 21
-920.8133983658079
 31
0.0
 11
-848.3358790107669
 21
-921.2236810233633
 31
0.0
 11
-848.1738920908242
 21
-921.6441681249199
 31
0.0
 11
-847.9595372834384
 21
-922.052497691508
 31
0.0
 11
-847.7042146459445
 21
-922.4269545170041
 31
0.0
  0
SPLINE
  5
E3
330
47
100
AcDbEntity
  8
0
  6
Continuous
 62
   124
100
AcDbSpline
210
0.0
220
0.0
230
1.0
 70
     8
 71
     3
 72
     9
 73
     5
 74
     3
 42
0.0000000001
 43
0.0000000001
 44
0.00000001
 40
0.0
 40
0.0
 40
0.0
 40
0.0
 40
0.7196542270825533
 40
1.274680954113179
 40
1.274680954113179
 40
1.274680954113179
 40
1.274680954113179
 10
-850.9454679031061
 20
-911.6562416964225
 30
0.0
 10
-850.7906067615936
 20
-911.4723722799588
 30
0.0
 10
-850.5163103839874
 20
-911.1466952612044
 30
0.0
 10
-850.2984923946287
 20
-910.7811088089618
 30
0.0
 10
-850.2036492063535
 20
-910.621923680024
 30
0.0
 11
-850.9454679031061
 21
-911.6562416964225
 31
0.0
 11
-850.498886739921
 21
-911.0919124740301
 31
0.0
 11
-850.2036492063535
 21
-910.621923680024
 31
0.0
  0
SPLINE
  5
E4
330
47
100
AcDbEntity
  8
0
  6
Continuous
 62
   124
100
AcDbSpline
210
0.0
220
0.0
230
1.0
 70
     8
 71
     3
 72
    10
 73
     6
 74
     4
 42
0.0000000001
 43
0.0000000001
 44
0.00000001
 40
0.0
 40
0.0
 40
0.0
 40
0.0
 40
1.736590806792116
 40
3.091382797382799
 40
4.244636161469828
 40
4.244636161469828
 40
4.244636161469828
 40
4.244636161469828
 10
-850.2036492063535
 20
-910.621923680024
 30
0.0
 10
-850.6680452670464
 20
-910.26634359256
 30
0.0
 10
-851.4947374201911
 20
-909.6333596097015
 30
0.0
 10
-853.020598347872
 20
-909.4741400375431
 30
0.0
 10
-853.7355911081496
 20
-909.942421537922
 30
0.0
 10
-854.0643602049881
 20
-910.1577474747692
 30
0.0
 11
-850.2036492063535
 21
-910.621923680024
 31
0.0
 11
-851.6866465196949
 21
-909.7183382668743
 31
0.0
 11
-853.0385992193594
 21
-909.6306727911236
 31
0.0
 11
-854.0643602049881
 21
-910.1577474747692
 31
0.0
  0
SPLINE
  5
E5
330
47
100
AcDbEntity
  8
0
  6
Continuous
 62
   124
100
AcDbSpline
210
0.0
220
0.0
230
1.0
 70
     8
 71
     3
 72
    13
 73
     9
 74
     7
 42
0.0000000001
 43
0.0000000001
 44
0.00000001
 40
0.0
 40
0.0
 40
0.0
 40
0.0
 40
0.347492122023694
 40
0.7816320662050886
 40
1.275071759133666
 40
1.795673760282476
 40
2.309219313968649
 40
2.782025862663013
 40
2.782025862663013
 40
2.782025862663013
 40
2.782025862663013
 10
-812.2419499475973
 20
-951.604542263237
 30
0.0
 10
-812.2992934900464
 20
-951.7052808940036
 30
0.0
 10
-812.4282792964208
 20
-951.9318775248978
 30
0.0
 10
-812.6816257444784
 20
-952.2741313250334
 30
0.0
 10
-812.9861813650283
 20
-952.6486800454421
 30
0.0
 10
-813.328428940692
 20
-953.0259861127945
 30
0.0
 10
-813.6812214374418
 20
-953.3840375828037
 30
0.0
 10
-813.9280182546943
 20
-953.6014059140168
 30
0.0
 10
-814.0463199758672
 20
-953.7056011301353
 30
0.0
 11
-812.2419499475973
 21
-951.604542263237
 31
0.0
 11
-812.4191822209332
 21
-951.9034393963058
 31
0.0
 11
-812.6722024673088
 21
-952.256225799187
 31
0.0
 11
-812.9837687903231
 21
-952.638860294392
 31
0.0
 11
-813.3326477354829
 21
-953.0252667193183
 31
0.0
 11
-813.6950641635351
 21
-953.3891119726729
 31
0.0
 11
-814.0463199758672
 21
-953.7056011301353
 31
0.0
  0
SPLINE
  5
E6
330
47
100
AcDbEntity
  8
0
  6
Continuous
 62
   124
100
AcDbSpline
210
0.0
220
0.0
230
1.0
 70
     8
 71
     3
 72
    13
 73
     9
 74
     7
 42
0.0000000001
 43
0.0000000001
 44
0.00000001
 40
0.0
 40
0.0
 40
0.0
 40
0.0
 40
0.3936877258758431
 40
0.7989949440520949
 40
1.220051766695815
 40
1.657433466261902
 40
2.108403994671042
 40
2.567718538804545
 40
2.567718538804545
 40
2.567718538804545
 40
2.567718538804545
 10
-811.999072793705
 20
-953.9721008946532
 30
0.0
 10
-811.9277064174812
 20
-953.8610410996118
 30
0.0
 10
-811.7828673228631
 20
-953.635643636361
 30
0.0
 10
-811.685945221441
 20
-953.2336345750069
 30
0.0
 10
-811.680952531274
 20
-952.8094524634951
 30
0.0
 10
-811.7768104690109
 20
-952.380372087737
 30
0.0
 10
-811.9595601514887
 20
-951.9651655192313
 30
0.0
 10
-812.1472465475026
 20
-951.725482357272
 30
0.0
 10
-812.2419499475973
 20
-951.604542263237
 30
0.0
 11
-811.999072793705
 21
-953.9721008946532
 31
0.0
 11
-811.8047278672298
 21
-953.6297267205999
 31
0.0
 11
-811.7022031899132
 21
-953.237600935109
 31
0.0
 11
-811.6969520112389
 21
-952.8165768585797
 31
0.0
 11
-811.7892526946789
 21
-952.389045181447
 31
0.0
 11
-811.974197466263
 21
-951.9777425569024
 31
0.0
 11
-812.2419499475973
 21
-951.604542263237
 31
0.0
  0
SPLINE
  5
E7
330
47
100
AcDbEntity
  8
0
  6
Continuous
 62
     1
100
AcDbSpline
210
0.0
220
0.0
230
1.0
 70
     8
 71
     3
 72
     9
 73
     5
 74
     3
 42
0.0000000001
 43
0.0000000001
 44
0.00000001
 40
0.0
 40
0.0
 40
0.0
 40
0.0
 40
0.1491804419324646
 40
0.302762441690582
 40
0.302762441690582
 40
0.302762441690582
 40
0.302762441690582
 10
-844.2866239322778
 20
-908.452253437987
 30
0.0
 10
-844.250224515069
 20
-908.4179284420776
 30
0.0
 10
-844.1763517185586
 20
-908.3482656938118
 30
0.0
 10
-844.1262867074505
 20
-908.2599026662881
 30
0.0
 10
-844.1008902795415
 20
-908.2150788420515
 30
0.0
 11
-844.2866239322778
 21
-908.452253437987
 31
0.0
 11
-844.1832058262735
 21
-908.3447383246046
 31
0.0
 11
-844.1008902795415
 21
-908.2150788420515
 31
0.0
  0
SPLINE
  5
E8
330
47
100
AcDbEntity
  8
0
  6
Continuous
 62
     1
100
AcDbSpline
210
0.0
220
0.0
230
1.0
 70
     8
 71
     3
 72
    19
 73
    15
 74
    13
 42
0.0000000001
 43
0.0000000001
 44
0.00000001
 40
0.0
 40
0.0
 40
0.0
 40
0.0
 40
0.3572775841785499
 40
0.7658314540725311
 40
1.250530518215053
 40
1.81041547754028
 40
2.428062695500341
 40
3.076720600950522
 40
3.725378506400598
 40
4.343025724360745
 40
4.902910683686074
 40
5.38760974782867
 40
5.79616361772275
 40
6.153441201901191
 40
6.153441201901191
 40
6.153441201901191
 40
6.153441201901191
 10
-847.5140635206334
 20
-904.6334010313712
 30
0.0
 10
-847.593437306394
 20
-904.7249160542433
 30
0.0
 10
-847.763576560733
 20
-904.9210802865915
 30
0.0
 10
-847.8305741045331
 20
-905.3500722259446
 30
0.0
 10
-847.7787766932843
 20
-905.8325205140185
 30
0.0
 10
-847.6010854427738
 20
-906.3621474930706
 30
0.0
 10
-847.3144794918417
 20
-906.9013477378892
 30
0.0
 10
-846.9356445273438
 20
-907.4177944852734
 30
0.0
 10
-846.4895715289747
 20
-907.8774161267742
 30
0.0
 10
-846.0056896535153
 20
-908.2498919054824
 30
0.0
 10
-845.5130920392637
 20
-908.5133810093962
 30
0.0
 10
-845.0460277182931
 20
-908.6448733763018
 30
0.0
 10
-844.6118698370677
 20
-908.6503221444536
 30
0.0
 10
-844.3900894615983
 20
-908.5152620208918
 30
0.0
 10
-844.2866239322778
 20
-908.452253437987
 30
0.0
 11
-847.5140635206334
 21
-904.6334010313712
 31
0.0
 11
-847.7240850475874
 21
-904.9224308401667
 31
0.0
 11
-847.8098225566863
 21
-905.3218871508427
 31
0.0
 11
-847.7654312556045
 21
-905.8045491393698
 31
0.0
 11
-847.5939382822146
 21
-906.337523179785
 31
0.0
 11
-847.3070287663732
 21
-906.8844884580005
 31
0.0
 11
-846.9242567142214
 21
-907.4081702644389
 31
0.0
 11
-846.4717061566909
 21
-907.8728799277575
 31
0.0
 11
-845.9802184880368
 21
-908.2469493830929
 31
0.0
 11
-845.4832874452414
 21
-908.5048848525131
 31
0.0
 11
-845.0147778839907
 21
-908.6291103482754
 31
0.0
 11
-844.6066186275417
 21
-908.6111580230668
 31
0.0
 11
-844.2866239322778
 21
-908.452253437987
 31
0.0
  0
SPLINE
  5
E9
330
47
100
AcDbEntity
  8
0
  6
Continuous
 62
     1
100
AcDbSpline
210
0.0
220
0.0
230
1.0
 70
     8
 71
     3
 72
    19
 73
    15
 74
    13
 42
0.0000000001
 43
0.0000000001
 44
0.00000001
 40
0.0
 40
0.0
 40
0.0
 40
0.0
 40
0.3682722227223458
 40
0.7998907523682959
 40
1.298633902304832
 40
1.854038853110589
 40
2.447012760046825
 40
3.053772562415131
 40
3.648964338962499
 40
4.208547977705178
 40
4.712874371641073
 40
5.150523986197631
 40
5.523740968205479
 40
5.855007257695669
 40
5.855007257695669
 40
5.855007257695669
 40
5.855007257695669
 10
-844.1008902795415
 20
-908.2150788420515
 30
0.0
 10
-844.0591647490864
 20
-908.0984556956956
 30
0.0
 10
-843.9685365021285
 20
-907.8451491183151
 30
0.0
 10
-843.9981702131573
 20
-907.4035140480624
 30
0.0
 10
-844.1216901074193
 20
-906.9234362346365
 30
0.0
 10
-844.3500381683716
 20
-906.4208181767732
 30
0.0
 10
-844.6645225958553
 20
-905.9257483849717
 30
0.0
 10
-845.0492659609016
 20
-905.4653251480827
 30
0.0
 10
-845.48203135481
 20
-905.0657719544517
 30
0.0
 10
-845.9381254882256
 20
-904.7500176478677
 30
0.0
 10
-846.3939438927326
 20
-904.5339499863503
 30
0.0
 10
-846.8221885416344
 20
-904.4348519181541
 30
0.0
 10
-847.2169823714634
 20
-904.4473548238386
 30
0.0
 10
-847.4190473375041
 20
-904.5738974224254
 30
0.0
 10
-847.5140635206334
 20
-904.6334010313712
 30
0.0
 11
-844.1008902795415
 21
-908.2150788420515
 31
0.0
 11
-843.9987933235849
 21
-907.8612418151405
 31
0.0
 11
-844.0087161575684
 21
-907.4297373626728
 31
0.0
 11
-844.1300754917551
 21
-906.9459846969288
 31
0.0
 11
-844.3557208209327
 21
-906.4384821404822
 31
0.0
 11
-844.6723604734942
 21
-905.9371265932575
 31
0.0
 11
-845.0613402679942
 21
-905.4714526974454
 31
0.0
 11
-845.4997460756307
 21
-905.0688938834813
 31
0.0
 11
-845.9617509762118
 21
-904.7531640613429
 31
0.0
 11
-846.4201383523326
 21
-904.542863978049
 31
0.0
 11
-846.8479047758273
 21
-904.450381157741
 31
0.0
 11
-847.2198500171781
 21
-904.4811651323947
 31
0.0
 11
-847.5140635206334
 21
-904.6334010313712
 31
0.0
  0
SPLINE
  5
EA
330
47
100
AcDbEntity
  8
0
  6
Continuous
 62
   124
100
AcDbSpline
210
0.0
220
0.0
230
1.0
 70
     8
 71
     3
 72
     9
 73
     5
 74
     3
 42
0.0000000001
 43
0.0000000001
 44
0.00000001
 40
0.0
 40
0.0
 40
0.0
 40
0.0
 40
0.5550267270306617
 40
1.274680954113196
 40
1.274680954113196
 40
1.274680954113196
 40
1.274680954113196
 10
-847.1815454253132
 20
-913.4303975053167
 30
0.0
 10
-847.2763886135886
 20
-913.5895826342544
 30
0.0
 10
-847.4942066029466
 20
-913.9551690864972
 30
0.0
 10
-847.7685029805534
 20
-914.2808461052516
 30
0.0
 10
-847.9233641220658
 20
-914.4647155217152
 30
0.0
 11
-847.1815454253132
 21
-913.4303975053167
 31
0.0
 11
-847.4767829588806
 21
-913.9003862993229
 31
0.0
 11
-847.9233641220658
 21
-914.4647155217152
 31
0.0
  0
SPLINE
  5
EB
330
47
100
AcDbEntity
  8
0
  6
Continuous
 62
   124
100
AcDbSpline
210
0.0
220
0.0
230
1.0
 70
     8
 71
     3
 72
    11
 73
     7
 74
     5
 42
0.0000000001
 43
0.0000000001
 44
0.00000001
 40
0.0
 40
0.0
 40
0.0
 40
0.0
 40
0.6367530856146151
 40
1.313905076632171
 40
2.003597199804347
 40
2.673642050850489
 40
2.673642050850489
 40
2.673642050850489
 40
2.673642050850489
 10
-848.0183575779288
 20
-917.9182135564608
 30
0.0
 10
-847.8219034310966
 20
-917.8332374342358
 30
0.0
 10
-847.4165310714177
 20
-917.65789386558
 30
0.0
 10
-846.736359749997
 20
-917.6417410071884
 30
0.0
 10
-846.0605666547983
 20
-917.7777303137798
 30
0.0
 10
-845.6717917338899
 20
-918.0171221542325
 30
0.0
 10
-845.4802130396943
 20
-918.1350885500278
 30
0.0
 11
-848.0183575779288
 21
-917.9182135564608
 31
0.0
 11
-847.419444285915
 21
-917.7019790525329
 31
0.0
 11
-846.7431992549778
 21
-917.666943683665
 31
0.0
 11
-846.0700905499583
 21
-917.8172763015255
 31
0.0
 11
-845.4802130396943
 21
-918.1350885500278
 31
0.0
  0
SPLINE
  5
EC
330
47
100
AcDbEntity
  8
0
  6
Continuous
 62
   124
100
AcDbSpline
210
0.0
220
0.0
230
1.0
 70
     8
 71
     3
 72
    13
 73
     9
 74
     7
 42
0.0000000001
 43
0.0000000001
 44
0.00000001
 40
0.0
 40
0.0
 40
0.0
 40
0.0
 40
0.443874656617781
 40
0.9009631802125123
 40
1.362152406185856
 40
1.817708130588686
 40
2.258752783919185
 40
2.678746479255609
 40
2.678746479255609
 40
2.678746479255609
 40
2.678746479255609
 10
-845.8998446176745
 20
-920.3258956501058
 30
0.0
 10
-846.0238722020977
 20
-920.2443935505516
 30
0.0
 10
-846.2756195934618
 20
-920.0789630856368
 30
0.0
 10
-846.7070832630999
 20
-919.9254878457276
 30
0.0
 10
-847.1597555244077
 20
-919.8436923763895
 30
0.0
 10
-847.6142758554923
 20
-919.8470893274575
 30
0.0
 10
-848.0507168006459
 20
-919.9253705496885
 30
0.0
 10
-848.3110196953478
 20
-920.0488099167794
 30
0.0
 10
-848.4379891559089
 20
-920.1090206565389
 30
0.0
 11
-845.8998446176745
 21
-920.3258956501058
 31
0.0
 11
-846.2800910228566
 21
-920.0969035495136
 31
0.0
 11
-846.7086839982398
 21
-919.9380388905925
 31
0.0
 11
-847.1628308359211
 21
-919.8577509588841
 31
0.0
 11
-847.6183793793659
 21
-919.8603088098357
 31
0.0
 11
-848.0511029533322
 21
-919.9455771789138
 31
0.0
 11
-848.4379891559089
 21
-920.1090206565389
 31
0.0
  0
SPLINE
  5
ED
330
47
100
AcDbEntity
  8
0
  6
Continuous
 62
     1
100
AcDbSpline
210
0.0
220
0.0
230
1.0
 70
     8
 71
     3
 72
    15
 73
    11
 74
     9
 42
0.0000000001
 43
0.0000000001
 44
0.00000001
 40
0.0
 40
0.0
 40
0.0
 40
0.0
 40
0.490656435799412
 40
1.062029687563903
 40
1.696158107612857
 40
2.364144466110692
 40
3.032130824608457
 40
3.666259244657403
 40
4.237632496422023
 40
4.728288932221442
 40
4.728288932221442
 40
4.728288932221442
 40
4.728288932221442
 10
-846.8393098485108
 20
-904.4510712656578
 30
0.0
 10
-846.8366508639301
 20
-904.6154453779827
 30
0.0
 10
-846.8308954710374
 20
-904.9712344279556
 30
0.0
 10
-846.6459103415691
 20
-905.5134510938423
 30
0.0
 10
-846.3588612726968
 20
-906.0690334617412
 30
0.0
 10
-845.9690551366627
 20
-906.6008975400646
 30
0.0
 10
-845.5096092998291
 20
-907.0739067836494
 30
0.0
 10
-845.0096483633595
 20
-907.4495502282414
 30
0.0
 10
-844.5058530233828
 20
-907.7223297478315
 30
0.0
 10
-844.1560011047982
 20
-907.7873113428448
 30
0.0
 10
-843.9943699400199
 20
-907.8173327614318
 30
0.0
 11
-846.8393098485108
 21
-904.4510712656578
 31
0.0
 11
-846.8078390449741
 21
-904.9407173894208
 31
0.0
 11
-846.6407966460407
 21
-905.4871277020893
 31
0.0
 11
-846.3502617296784
 21
-906.0507839053623
 31
0.0
 11
-845.9572490498408
 21
-906.5909198221703
 31
0.0
 11
-845.4901816048891
 21
-907.068469586075
 31
0.0
 11
-844.9828408505227
 21
-907.4488959417245
 31
0.0
 11
-844.4719196498446
 21
-907.704682805206
 31
0.0
 11
-843.9943699400199
 21
-907.8173327614318
 31
0.0
  0
SPLINE
  5
EE
330
47
100
AcDbEntity
  8
0
  6
Continuous
 62
     1
100
AcDbSpline
210
0.0
220
0.0
230
1.0
 70
     8
 71
     3
 72
    19
 73
    15
 74
    13
 42
0.0000000001
 43
0.0000000001
 44
0.00000001
 40
0.0
 40
0.0
 40
0.0
 40
0.0
 40
0.6749737400806438
 40
1.455345253542047
 40
2.348422754388074
 40
3.340799556860431
 40
4.405846684580001
 40
5.509075567244038
 40
6.612304449908219
 40
7.677351577627583
 40
8.669728380099896
 40
9.562805880945943
 40
10.34317739440734
 40
11.01815113448808
 40
11.01815113448808
 40
11.01815113448808
 40
11.01815113448808
 10
-826.9595897711753
 20
-922.490338065893
 30
0.0
 10
-827.0330766932711
 20
-922.7047807564181
 30
0.0
 10
-827.1915255882709
 20
-923.1671515617996
 30
0.0
 10
-827.1553854468575
 20
-923.964032143898
 30
0.0
 10
-826.9597660961482
 20
-924.8319946793018
 30
0.0
 10
-826.5855239788983
 20
-925.7466966846216
 30
0.0
 10
-826.0597262605432
 20
-926.6624085840868
 30
0.0
 10
-825.4042076268689
 20
-927.537215813832
 30
0.0
 10
-824.6509084768493
 20
-928.3293854666769
 30
0.0
 10
-823.8356536750284
 20
-929.0004675269031
 30
0.0
 10
-822.9961317294876
 20
-929.521946024844
 30
0.0
 10
-822.1729205796034
 20
-929.8595097905882
 30
0.0
 10
-821.3932131916898
 20
-930.0279768828638
 30
0.0
 10
-820.9108993508939
 20
-929.948817720586
 30
0.0
 10
-820.687207291417
 20
-929.9121045381338
 30
0.0
 11
-826.9595897711753
 21
-922.490338065893
 31
0.0
 11
-827.1411505848606
 21
-923.1404343823972
 31
0.0
 11
-827.1360164621849
 21
-923.9207890067869
 31
0.0
 11
-826.9444380898254
 21
-924.7930763159698
 31
0.0
 11
-826.5758261214211
 21
-925.7144540532927
 31
0.0
 11
-826.048283316833
 21
-926.6396696895587
 31
0.0
 11
-825.3877206746374
 21
-927.5232821403988
 31
0.0
 11
-824.6265802845929
 21
-928.3218929806629
 31
0.0
 11
-823.8022456001576
 21
-928.9962798965355
 31
0.0
 11
-822.9552028277794
 21
-929.5133197981361
 31
0.0
 11
-822.1270538175144
 21
-929.84762002146
 31
0.0
 11
-821.3584727616687
 21
-929.9827601695184
 31
0.0
 11
-820.687207291417
 21
-929.9121045381338
 31
0.0
  0
SPLINE
  5
EF
330
47
100
AcDbEntity
  8
0
  6
Continuous
 62
   124
100
AcDbSpline
210
0.0
220
0.0
230
1.0
 70
     8
 71
     3
 72
     9
 73
     5
 74
     3
 42
0.0000000001
 43
0.0000000001
 44
0.00000001
 40
0.0
 40
0.0
 40
0.0
 40
0.0
 40
2.589989228984778
 40
5.221232144441769
 40
5.221232144441769
 40
5.221232144441769
 40
5.221232144441769
 10
-858.9939907978762
 20
-915.8979470488282
 30
0.0
 10
-859.4496078113809
 20
-916.7090801280729
 30
0.0
 10
-860.3680989656459
 20
-918.3442661201134
 30
0.0
 10
-859.4025216384041
 20
-919.9550020258023
 30
0.0
 10
-858.9159183939314
 20
-920.766733303644
 30
0.0
 11
-858.9939907978762
 21
-915.8979470488282
 31
0.0
 11
-859.8972384578295
 21
-918.3253299751598
 31
0.0
 11
-858.9159183939314
 21
-920.766733303644
 31
0.0
  0
SPLINE
  5
F0
330
47
100
AcDbEntity
  8
0
  6
Continuous
 62
     1
100
AcDbSpline
210
0.0
220
0.0
230
1.0
 70
     8
 71
     3
 72
    13
 73
     9
 74
     7
 42
0.0000000001
 43
0.0000000001
 44
0.00000001
 40
0.0
 40
0.0
 40
0.0
 40
0.0
 40
0.9992862989420069
 40
1.96725948903294
 40
2.898557454877918
 40
3.793704906369738
 40
4.659710392138729
 40
5.509389596456667
 40
5.509389596456667
 40
5.509389596456667
 40
5.509389596456667
 10
-860.8525049067047
 20
-963.4010415338952
 30
0.0
 10
-860.6194708434291
 20
-963.6403475967822
 30
0.0
 10
-860.1607049494783
 20
-964.1114609538813
 30
0.0
 10
-859.6585711487048
 20
-964.946565306679
 30
0.0
 10
-859.3325801071683
 20
-965.8258787360052
 30
0.0
 10
-859.2132915960385
 20
-966.7214018178041
 30
0.0
 10
-859.2873633036969
 20
-967.601594345891
 30
0.0
 10
-859.510021249207
 20
-968.131613574235
 30
0.0
 10
-859.6202908267518
 20
-968.3941013838042
 30
0.0
 11
-860.8525049067047
 21
-963.4010415338952
 31
0.0
 11
-860.1838405807056
 21
-964.1436458204364
 31
0.0
 11
-859.6801293761357
 21
-964.9702334559147
 31
0.0
 11
-859.3627208578151
 21
-965.845771995149
 31
0.0
 11
-859.2450664510886
 21
-966.7331537621975
 31
0.0
 11
-859.3321538318014
 21
-967.5947692736077
 31
0.0
 11
-859.6202908267518
 21
-968.3941013838042
 31
0.0
  0
SPLINE
  5
F1
330
47
100
AcDbEntity
  8
0
  6
Continuous
 62
   124
100
AcDbSpline
210
0.0
220
0.0
230
1.0
 70
     8
 71
     3
 72
    13
 73
     9
 74
     7
 42
0.0000000001
 43
0.0000000001
 44
0.00000001
 40
0.0
 40
0.0
 40
0.0
 40
0.0
 40
0.347492122023752
 40
0.7816320662050804
 40
1.27507175913357
 40
1.79567376028238
 40
2.309219313968552
 40
2.782025862663076
 40
2.782025862663076
 40
2.782025862663076
 40
2.782025862663076
 10
-845.8998446176745
 20
-920.3258956501058
 30
0.0
 10
-845.9571881601237
 20
-920.4266342808726
 30
0.0
 10
-846.0861739664981
 20
-920.6532309117665
 30
0.0
 10
-846.3395204145556
 20
-920.9954847119021
 30
0.0
 10
-846.6440760351056
 20
-921.3700334323107
 30
0.0
 10
-846.9863236107692
 20
-921.7473394996632
 30
0.0
 10
-847.3391161075189
 20
-922.1053909696723
 30
0.0
 10
-847.5859129247717
 20
-922.3227593008855
 30
0.0
 10
-847.7042146459445
 20
-922.4269545170041
 30
0.0
 11
-845.8998446176745
 21
-920.3258956501058
 31
0.0
 11
-846.0770768910105
 21
-920.6247927831746
 31
0.0
 11
-846.330097137386
 21
-920.9775791860558
 31
0.0
 11
-846.6416634604003
 21
-921.3602136812607
 31
0.0
 11
-846.9905424055601
 21
-921.746620106187
 31
0.0
 11
-847.3529588336123
 21
-922.1104653595416
 31
0.0
 11
-847.7042146459445
 21
-922.4269545170041
 31
0.0
  0
SPLINE
  5
F2
330
47
100
AcDbEntity
  8
0
  6
Continuous
 62
   124
100
AcDbSpline
210
0.0
220
0.0
230
1.0
 70
     8
 71
     3
 72
     9
 73
     5
 74
     3
 42
0.0000000001
 43
0.0000000001
 44
0.00000001
 40
0.0
 40
0.0
 40
0.0
 40
0.0
 40
2.324442133667256
 40
5.144823112416169
 40
5.144823112416169
 40
5.144823112416169
 40
5.144823112416169
 10
-845.4802130396943
 20
-918.1350885500278
 30
0.0
 10
-845.4698868663679
 20
-917.3371148304693
 30
0.0
 10
-845.4470313457152
 20
-915.5709131358681
 30
0.0
 10
-846.5673752846012
 20
-914.1883278106831
 30
0.0
 10
-847.1815454253132
 20
-913.4303975053167
 30
0.0
 11
-845.4802130396943
 21
-918.1350885500278
 31
0.0
 11
-845.682590316321
 21
-915.8194731521967
 31
0.0
 11
-847.1815454253132
 21
-913.4303975053167
 31
0.0
  0
SPLINE
  5
F3
330
47
100
AcDbEntity
  8
0
  6
Continuous
 62
     1
100
AcDbSpline
210
0.0
220
0.0
230
1.0
 70
     8
 71
     3
 72
     9
 73
     5
 74
     3
 42
0.0000000001
 43
0.0000000001
 44
0.00000001
 40
0.0
 40
0.0
 40
0.0
 40
0.0
 40
0.2983608838648472
 40
0.6055248833813699
 40
0.6055248833813699
 40
0.6055248833813699
 40
0.6055248833813699
 10
-821.0794627751309
 20
-930.4286989297635
 30
0.0
 10
-821.0066639407136
 20
-930.3600489379448
 30
0.0
 10
-820.8589183476927
 20
-930.2207234414129
 30
0.0
 10
-820.7587883254763
 20
-930.0439973863658
 30
0.0
 10
-820.7079954696583
 20
-929.9543497378924
 30
0.0
 11
-821.0794627751309
 21
-930.4286989297635
 31
0.0
 11
-820.8726265631221
 21
-930.2136687029988
 31
0.0
 11
-820.7079954696583
 21
-929.9543497378924
 31
0.0
  0
SPLINE
  5
F4
330
47
100
AcDbEntity
  8
0
  6
Continuous
 62
     1
100
AcDbSpline
210
0.0
220
0.0
230
1.0
 70
     8
 71
     3
 72
    19
 73
    15
 74
    13
 42
0.0000000001
 43
0.0000000001
 44
0.00000001
 40
0.0
 40
0.0
 40
0.0
 40
0.0
 40
0.7365444454445824
 40
1.599781504736477
 40
2.597267804609577
 40
3.708077706221138
 40
4.89402552009361
 40
6.107545124830222
 40
7.297928677925118
 40
8.417095955410318
 40
9.425748743282014
 40
10.30104797239518
 40
11.04748193641087
 40
11.71001451539125
 40
11.71001451539125
 40
11.71001451539125
 40
11.71001451539125
 10
-820.7079954696583
 20
-929.9543497378924
 30
0.0
 10
-820.6245444087482
 20
-929.7211034451807
 30
0.0
 10
-820.443287914832
 20
-929.2144902904195
 30
0.0
 10
-820.5025553368896
 20
-928.3312201499142
 30
0.0
 10
-820.7495951254137
 20
-927.3710645230623
 30
0.0
 10
-821.2062912473186
 20
-926.3658284073362
 30
0.0
 10
-821.8352601022852
 20
-925.3756888237324
 30
0.0
 10
-822.6047468323784
 20
-924.4548423499548
 30
0.0
 10
-823.4702776201951
 20
-923.6557359626931
 30
0.0
 10
-824.3824658870261
 20
-923.0242273495244
 30
0.0
 10
-825.2941026960409
 20
-922.5920920264907
 30
0.0
 10
-826.1505919938438
 20
-922.3938958900974
 30
0.0
 10
-826.9401796535017
 20
-922.4189017014667
 30
0.0
 10
-827.3443095855832
 20
-922.67198689864
 30
0.0
 10
-827.534341951842
 20
-922.7909941165318
 30
0.0
 11
-820.7079954696583
 21
-929.9543497378924
 31
0.0
 11
-820.503801557745
 21
-929.2466756840704
 31
0.0
 11
-820.5236472257118
 21
-928.383666779135
 31
0.0
 11
-820.7663658940852
 21
-927.416161447647
 31
0.0
 11
-821.2176565524405
 21
-926.4011563347538
 31
0.0
 11
-821.8509358575636
 21
-925.3984452403045
 31
0.0
 11
-822.6288954465635
 21
-924.4670974486803
 31
0.0
 11
-823.5057070618367
 21
-923.661979820752
 31
0.0
 11
-824.4297168629987
 21
-923.0305201764752
 31
0.0
 11
-825.3464916152404
 21
-922.6099200098877
 31
0.0
 11
-826.2020244622297
 21
-922.4249543692715
 31
0.0
 11
-826.9459149449315
 21
-922.4865223185787
 31
0.0
 11
-827.534341951842
 21
-922.7909941165318
 31
0.0
  0
SPLINE
  5
F5
330
47
100
AcDbEntity
  8
0
  6
Continuous
 62
     1
100
AcDbSpline
210
0.0
220
0.0
230
1.0
 70
     8
 71
     3
 72
    21
 73
    17
 74
    15
 42
0.0000000001
 43
0.0000000001
 44
0.00000001
 40
0.0
 40
0.0
 40
0.0
 40
0.0
 40
0.6096523896916058
 40
1.286339366178341
 40
2.069465308219744
 40
2.967820225505321
 40
3.96821937908107
 40
5.043476634875875
 40
6.158110253097595
 40
7.272743871319445
 40
8.348001127114294
 40
9.34840028068994
 40
10.24675519797553
 40
11.02988114001691
 40
11.70656811650358
 40
12.31622050619536
 40
12.31622050619536
 40
12.31622050619536
 40
12.31622050619536
 10
-827.534341951842
 20
-922.7909941165318
 30
0.0
 10
-827.6731161182587
 20
-922.9431407286706
 30
0.0
 10
-827.9659234233541
 20
-923.2641632981446
 30
0.0
 10
-828.1393482705009
 20
-923.9555342000576
 30
0.0
 10
-828.1325917835211
 20
-924.7442655388228
 30
0.0
 10
-827.9344085900698
 20
-925.6227946935751
 30
0.0
 10
-827.5626860443336
 20
-926.5450232627844
 30
0.0
 10
-827.0330561302468
 20
-927.4707510653552
 30
0.0
 10
-826.3715791312513
 20
-928.3547737494256
 30
0.0
 10
-825.6101866622246
 20
-929.1543545360018
 30
0.0
 10
-824.785694878818
 20
-929.8308847344726
 30
0.0
 10
-823.9383316826436
 20
-930.351133519809
 30
0.0
 10
-823.1051291172304
 20
-930.6929866153105
 30
0.0
 10
-822.3285589766845
 20
-930.831122749906
 30
0.0
 10
-821.6179525739714
 20
-930.7753693460465
 30
0.0
 10
-821.25261310222
 20
-930.5401701147343
 30
0.0
 10
-821.0794627751309
 20
-930.4286989297635
 30
0.0
 11
-827.534341951842
 21
-922.7909941165318
 31
0.0
 11
-827.9091070709522
 21
-923.2718549506147
 31
0.0
 11
-828.1032433469563
 21
-923.9200959324155
 31
0.0
 11
-828.1070144514748
 21
-924.70321279462
 31
0.0
 11
-827.9202328512276
 21
-925.5819358404201
 31
0.0
 11
-827.5522630276552
 21
-926.5122028318882
 31
0.0
 11
-827.0215579378116
 21
-927.447366065636
 31
0.0
 11
-826.3547281225601
 21
-928.3405323997315
 31
0.0
 11
-825.5852121948348
 21
-929.1469152739589
 31
0.0
 11
-824.7515962109458
 21
-929.8260784042482
 31
0.0
 11
-823.8956815123181
 21
-930.3439669010774
 31
0.0
 11
-823.0603872290302
 21
-930.6746102402175
 31
0.0
 11
-822.287598162668
 21
-930.8014301913659
 31
0.0
 11
-821.6160658569984
 21
-930.7180657709655
 31
0.0
 11
-821.0794627751309
 21
-930.4286989297635
 31
0.0
  0
SPLINE
  5
F6
330
47
100
AcDbEntity
  8
0
  6
Continuous
 62
   124
100
AcDbSpline
210
0.0
220
0.0
230
1.0
 70
     8
 71
     3
 72
     9
 73
     5
 74
     3
 42
0.0000000001
 43
0.0000000001
 44
0.00000001
 40
0.0
 40
0.0
 40
0.0
 40
0.0
 40
0.7196542270822711
 40
1.274680954112982
 40
1.274680954112982
 40
1.274680954112982
 40
1.274680954112982
 10
-807.7585851771678
 20
-951.7902802733595
 30
0.0
 10
-807.6037240356557
 20
-951.6064108568958
 30
0.0
 10
-807.3294276580496
 20
-951.2807338381414
 30
0.0
 10
-807.1116096686908
 20
-950.9151473858988
 30
0.0
 10
-807.0167664804153
 20
-950.7559622569611
 30
0.0
 11
-807.7585851771678
 21
-951.7902802733595
 31
0.0
 11
-807.3120040139831
 21
-951.2259510509671
 31
0.0
 11
-807.0167664804153
 21
-950.7559622569611
 31
0.0
  0
SPLINE
  5
F7
330
47
100
AcDbEntity
  8
0
  6
Continuous
 62
   124
100
AcDbSpline
210
0.0
220
0.0
230
1.0
 70
     8
 71
     3
 72
    11
 73
     7
 74
     5
 42
0.0000000001
 43
0.0000000001
 44
0.00000001
 40
0.0
 40
0.0
 40
0.0
 40
0.0
 40
0.6159836177246376
 40
1.321133306130811
 40
2.138843996734935
 40
3.052947436473613
 40
3.052947436473613
 40
3.052947436473613
 40
3.052947436473613
 10
-810.6346003251575
 20
-952.6593446831223
 30
0.0
 10
-810.4724251432119
 20
-952.5308496177888
 30
0.0
 10
-810.124599278804
 20
-952.2552593170071
 30
0.0
 10
-809.4320289688671
 20
-952.0415145117761
 30
0.0
 10
-808.6352682855095
 20
-951.8937345345412
 30
0.0
 10
-808.0614589529641
 20
-951.8260213323672
 30
0.0
 10
-807.7585851771678
 20
-951.7902802733595
 30
0.0
 11
-810.6346003251575
 21
-952.6593446831223
 31
0.0
 11
-810.1306909909121
 21
-952.3050690839549
 31
0.0
 11
-809.4674509133242
 21
-952.065593234357
 31
0.0
 11
-808.6650902253178
 21
-951.9078970078004
 31
0.0
 11
-807.7585851771678
 21
-951.7902802733595
 31
0.0
  0
SPLINE
  5
F8
330
47
100
AcDbEntity
  8
0
  6
Continuous
 62
   124
100
AcDbSpline
210
0.0
220
0.0
230
1.0
 70
     8
 71
     3
 72
    11
 73
     7
 74
     5
 42
0.0000000001
 43
0.0000000001
 44
0.00000001
 40
0.0
 40
0.0
 40
0.0
 40
0.0
 40
0.6848172750212821
 40
1.344701113114359
 40
1.968348399460514
 40
2.560734751292641
 40
2.560734751292641
 40
2.560734751292641
 40
2.560734751292641
 10
-810.8774774790497
 20
-950.2917860517063
 30
0.0
 10
-810.7404521796562
 20
-950.476819199082
 30
0.0
 10
-810.4713905199401
 20
-950.8401486422988
 30
0.0
 10
-810.3020265070633
 20
-951.486679652573
 30
0.0
 10
-810.3262447908749
 20
-952.1318173397506
 30
0.0
 10
-810.5335919249906
 20
-952.4865419049192
 30
0.0
 10
-810.6346003251575
 20
-952.6593446831223
 30
0.0
 11
-810.8774774790497
 21
-950.2917860517063
 31
0.0
 11
-810.5061761933687
 21
-950.867207684441
 31
0.0
 11
-810.332479336461
 21
-951.5038206608065
 31
0.0
 11
-810.3770554163414
 21
-952.1258728377735
 31
0.0
 11
-810.6346003251575
 21
-952.6593446831223
 31
0.0
  0
SPLINE
  5
F9
330
47
100
AcDbEntity
  8
0
  6
Continuous
 62
     1
100
AcDbSpline
210
0.0
220
0.0
230
1.0
 70
     8
 71
     3
 72
     9
 73
     5
 74
     3
 42
0.0000000001
 43
0.0000000001
 44
0.00000001
 40
0.0
 40
0.0
 40
0.0
 40
0.0
 40
0.1491804419323826
 40
0.3027624416906569
 40
0.3027624416906569
 40
0.3027624416906569
 40
0.3027624416906569
 10
-801.0997412063396
 20
-948.5862920149241
 30
0.0
 10
-801.0633417891308
 20
-948.5519670190147
 30
0.0
 10
-800.9894689926205
 20
-948.4823042707487
 30
0.0
 10
-800.9394039815122
 20
-948.3939412432253
 30
0.0
 10
-800.9140075536031
 20
-948.3491174189886
 30
0.0
 11
-801.0997412063396
 21
-948.5862920149241
 31
0.0
 11
-800.9963231003352
 21
-948.4787769015418
 31
0.0
 11
-800.9140075536031
 21
-948.3491174189886
 31
0.0
  0
SPLINE
  5
FA
330
47
100
AcDbEntity
  8
0
  6
Continuous
 62
     1
100
AcDbSpline
210
0.0
220
0.0
230
1.0
 70
     8
 71
     3
 72
    19
 73
    15
 74
    13
 42
0.0000000001
 43
0.0000000001
 44
0.00000001
 40
0.0
 40
0.0
 40
0.0
 40
0.0
 40
0.357277584178483
 40
0.7658314540725993
 40
1.250530518215009
 40
1.810415477540378
 40
2.42806269550054
 40
3.076720600950629
 40
3.725378506400623
 40
4.34302572436077
 40
4.902910683686254
 40
5.38760974782871
 40
5.796163617722677
 40
6.153441201901117
 40
6.153441201901117
 40
6.153441201901117
 40
6.153441201901117
 10
-804.3271807946951
 20
-944.7674396083083
 30
0.0
 10
-804.4065545804556
 20
-944.8589546311805
 30
0.0
 10
-804.5766938347947
 20
-945.0551188635291
 30
0.0
 10
-804.6436913785949
 20
-945.4841108028818
 30
0.0
 10
-804.5918939673455
 20
-945.9665590909552
 30
0.0
 10
-804.4142027168355
 20
-946.4961860700079
 30
0.0
 10
-804.1275967659035
 20
-947.0353863148268
 30
0.0
 10
-803.7487618014053
 20
-947.5518330622103
 30
0.0
 10
-803.3026888030369
 20
-948.0114547037118
 30
0.0
 10
-802.8188069275766
 20
-948.3839304824191
 30
0.0
 10
-802.3262093133255
 20
-948.6474195863334
 30
0.0
 10
-801.8591449923547
 20
-948.7789119532389
 30
0.0
 10
-801.4249871111297
 20
-948.7843607213908
 30
0.0
 10
-801.20320673566
 20
-948.6493005978289
 30
0.0
 10
-801.0997412063396
 20
-948.5862920149241
 30
0.0
 11
-804.3271807946951
 21
-944.7674396083083
 31
0.0
 11
-804.537202321649
 21
-945.0564694171038
 31
0.0
 11
-804.622939830748
 21
-945.4559257277799
 31
0.0
 11
-804.5785485296663
 21
-945.9385877163069
 31
0.0
 11
-804.4070555562762
 21
-946.4715617567222
 31
0.0
 11
-804.1201460404347
 21
-947.0185270349378
 31
0.0
 11
-803.737373988283
 21
-947.5422088413761
 31
0.0
 11
-803.2848234307525
 21
-948.0069185046946
 31
0.0
 11
-802.7933357620984
 21
-948.38098796003
 31
0.0
 11
-802.2964047193029
 21
-948.6389234294503
 31
0.0
 11
-801.8278951580523
 21
-948.7631489252125
 31
0.0
 11
-801.4197359016034
 21
-948.7451966000039
 31
0.0
 11
-801.0997412063396
 21
-948.5862920149241
 31
0.0
  0
SPLINE
  5
FB
330
47
100
AcDbEntity
  8
0
  6
Continuous
 62
     1
100
AcDbSpline
210
0.0
220
0.0
230
1.0
 70
     8
 71
     3
 72
    19
 73
    15
 74
    13
 42
0.0000000001
 43
0.0000000001
 44
0.00000001
 40
0.0
 40
0.0
 40
0.0
 40
0.0
 40
0.3682722227223774
 40
0.7998907523683301
 40
1.298633902304866
 40
1.85403885311067
 40
2.447012760046906
 40
3.053772562415139
 40
3.64896433896259
 40
4.208547977705175
 40
4.712874371641023
 40
5.150523986197716
 40
5.523740968205565
 40
5.855007257695754
 40
5.855007257695754
 40
5.855007257695754
 40
5.855007257695754
 10
-800.9140075536031
 20
-948.3491174189886
 30
0.0
 10
-800.872282023148
 20
-948.2324942726327
 30
0.0
 10
-800.7816537761897
 20
-947.9791876952521
 30
0.0
 10
-800.8112874872191
 20
-947.5375526249999
 30
0.0
 10
-800.9348073814808
 20
-947.0574748115735
 30
0.0
 10
-801.1631554424337
 20
-946.5548567537104
 30
0.0
 10
-801.4776398699169
 20
-946.0597869619087
 30
0.0
 10
-801.8623832349631
 20
-945.5993637250195
 30
0.0
 10
-802.2951486288719
 20
-945.1998105313893
 30
0.0
 10
-802.7512427622871
 20
-944.8840562248047
 30
0.0
 10
-803.2070611667943
 20
-944.6679885632875
 30
0.0
 10
-803.6353058156961
 20
-944.5688904950912
 30
0.0
 10
-804.0300996455248
 20
-944.5813934007756
 30
0.0
 10
-804.2321646115656
 20
-944.7079359993625
 30
0.0
 10
-804.3271807946951
 20
-944.7674396083083
 30
0.0
 11
-800.9140075536031
 21
-948.3491174189886
 31
0.0
 11
-800.8119105976464
 21
-947.9952803920776
 31
0.0
 11
-800.82183343163
 21
-947.5637759396099
 31
0.0
 11
-800.9431927658167
 21
-947.0800232738659
 31
0.0
 11
-801.1688380949944
 21
-946.5725207174193
 31
0.0
 11
-801.4854777475559
 21
-946.0711651701946
 31
0.0
 11
-801.8744575420558
 21
-945.6054912743825
 31
0.0
 11
-802.3128633496924
 21
-945.2029324604184
 31
0.0
 11
-802.7748682502734
 21
-944.88720263828
 31
0.0
 11
-803.2332556263942
 21
-944.6769025549862
 31
0.0
 11
-803.661022049889
 21
-944.5844197346781
 31
0.0
 11
-804.0329672912399
 21
-944.6152037093318
 31
0.0
 11
-804.3271807946951
 21
-944.7674396083083
 31
0.0
  0
SPLINE
  5
FC
330
47
100
AcDbEntity
  8
0
  6
Continuous
 62
   124
100
AcDbSpline
210
0.0
220
0.0
230
1.0
 70
     8
 71
     3
 72
    10
 73
     6
 74
     4
 42
0.0000000001
 43
0.0000000001
 44
0.00000001
 40
0.0
 40
0.0
 40
0.0
 40
0.0
 40
1.7365908067919
 40
3.091382797382386
 40
4.244636161469621
 40
4.244636161469621
 40
4.244636161469621
 40
4.244636161469621
 10
-807.0167664804153
 20
-950.7559622569611
 30
0.0
 10
-807.4811625411082
 20
-950.4003821694973
 30
0.0
 10
-808.3078546942528
 20
-949.7673981866391
 30
0.0
 10
-809.8337156219337
 20
-949.6081786144799
 30
0.0
 10
-810.548708382211
 20
-950.0764601148587
 30
0.0
 10
-810.8774774790497
 20
-950.2917860517063
 30
0.0
 11
-807.0167664804153
 21
-950.7559622569611
 31
0.0
 11
-808.4997637937566
 21
-949.8523768438116
 31
0.0
 11
-809.8517164934209
 21
-949.7647113680605
 31
0.0
 11
-810.8774774790497
 21
-950.2917860517063
 31
0.0
  0
SPLINE
  5
FD
330
47
100
AcDbEntity
  8
0
  6
Continuous
 62
     1
100
AcDbSpline
210
0.0
220
0.0
230
1.0
 70
     8
 71
     3
 72
    15
 73
    11
 74
     9
 42
0.0000000001
 43
0.0000000001
 44
0.00000001
 40
0.0
 40
0.0
 40
0.0
 40
0.0
 40
0.4906564357994193
 40
1.062029687564019
 40
1.696158107612973
 40
2.364144466110717
 40
3.032130824608561
 40
3.666259244657416
 40
4.237632496422088
 40
4.728288932221396
 40
4.728288932221396
 40
4.728288932221396
 40
4.728288932221396
 10
-803.6524271225725
 20
-944.5851098425949
 30
0.0
 10
-803.6497681379919
 20
-944.7494839549199
 30
0.0
 10
-803.6440127450986
 20
-945.1052730048923
 30
0.0
 10
-803.459027615631
 20
-945.6474896707798
 30
0.0
 10
-803.171978546758
 20
-946.2030720386781
 30
0.0
 10
-802.7821724107248
 20
-946.734936117002
 30
0.0
 10
-802.3227265738905
 20
-947.2079453605863
 30
0.0
 10
-801.8227656374213
 20
-947.5835888051788
 30
0.0
 10
-801.3189702974446
 20
-947.8563683247689
 30
0.0
 10
-800.96911837886
 20
-947.9213499197823
 30
0.0
 10
-800.8074872140816
 20
-947.951371338369
 30
0.0
 11
-803.6524271225725
 21
-944.5851098425949
 31
0.0
 11
-803.6209563190357
 21
-945.0747559663579
 31
0.0
 11
-803.4539139201023
 21
-945.6211662790265
 31
0.0
 11
-803.16337900374
 21
-946.1848224822995
 31
0.0
 11
-802.7703663239024
 21
-946.7249583991074
 31
0.0
 11
-802.3032988789506
 21
-947.2025081630121
 31
0.0
 11
-801.7959581245843
 21
-947.5829345186615
 31
0.0
 11
-801.2850369239062
 21
-947.8387213821431
 31
0.0
 11
-800.8074872140816
 21
-947.951371338369
 31
0.0
  0
SPLINE
  5
FE
330
47
100
AcDbEntity
  8
0
  6
Continuous
 62
     1
100
AcDbSpline
210
0.0
220
0.0
230
1.0
 70
     8
 71
     3
 72
    13
 73
     9
 74
     7
 42
0.0000000001
 43
0.0000000001
 44
0.00000001
 40
0.0
 40
0.0
 40
0.0
 40
0.0
 40
0.3474921220237918
 40
0.7816320662051603
 40
1.275071759133506
 40
1.795673760282553
 40
2.309219313968565
 40
2.782025862663089
 40
2.782025862663089
 40
2.782025862663089
 40
2.782025862663089
 10
-869.3786544935116
 20
-898.5067829515302
 30
0.0
 10
-869.4359980359607
 20
-898.6075215822971
 30
0.0
 10
-869.5649838423351
 20
-898.834118213191
 30
0.0
 10
-869.8183302903929
 20
-899.1763720133262
 30
0.0
 10
-870.1228859109423
 20
-899.5509207337354
 30
0.0
 10
-870.4651334866066
 20
-899.9282268010875
 30
0.0
 10
-870.8179259833558
 20
-900.286278271097
 30
0.0
 10
-871.0647228006086
 20
-900.50364660231
 30
0.0
 10
-871.1830245217816
 20
-900.6078418184285
 30
0.0
 11
-869.3786544935116
 21
-898.5067829515302
 31
0.0
 11
-869.5558867668475
 21
-898.8056800845991
 31
0.0
 11
-869.8089070132232
 21
-899.1584664874802
 31
0.0
 11
-870.1204733362373
 21
-899.5411009826851
 31
0.0
 11
-870.4693522813973
 21
-899.9275074076115
 31
0.0
 11
-870.8317687094494
 21
-900.291352660966
 31
0.0
 11
-871.1830245217816
 21
-900.6078418184285
 31
0.0
  0
SPLINE
  5
FF
330
47
100
AcDbEntity
  8
0
  6
Continuous
 62
     1
100
AcDbSpline
210
0.0
220
0.0
230
1.0
 70
     8
 71
     3
 72
    17
 73
    13
 74
    11
 42
0.0000000001
 43
0.0000000001
 44
0.00000001
 40
0.0
 40
0.0
 40
0.0
 40
0.0
 40
0.3261471293531309
 40
0.67020472019179
 40
1.03188709768222
 40
1.405873083549247
 40
1.78369466528297
 40
2.155956642295439
 40
2.514615392503454
 40
2.855167376865974
 40
3.178411810434207
 40
3.490982053658529
 40
3.490982053658529
 40
3.490982053658529
 40
3.490982053658529
 10
-901.2337377565278
 20
-964.7680834779738
 30
0.0
 10
-901.3238797064197
 20
-964.8303560405222
 30
0.0
 10
-901.5091137767752
 20
-964.958320880934
 30
0.0
 10
-901.8517746128434
 20
-965.0360796362445
 30
0.0
 10
-902.2141335364328
 20
-965.0294849537921
 30
0.0
 10
-902.5761870257461
 20
-964.9318228003556
 30
0.0
 10
-902.9092127019679
 20
-964.7532413067063
 30
0.0
 10
-903.1887574310977
 20
-964.506420075336
 30
0.0
 10
-903.3942499605632
 20
-964.2090062482376
 30
0.0
 10
-903.5064299141862
 20
-963.883755088578
 30
0.0
 10
-903.5238566804908
 20
-963.5500209630729
 30
0.0
 10
-903.4464841228414
 20
-963.3505352171964
 30
0.0
 10
-903.4084473173912
 20
-963.252466848559
 30
0.0
 11
-901.2337377565278
 21
-964.7680834779738
 31
0.0
 11
-901.5130021151776
 21
-964.9365571197496
 31
0.0
 11
-901.8465141206402
 21
-965.0210873985025
 31
0.0
 11
-902.2081461078734
 21
-965.0150501808561
 31
0.0
 11
-902.5695662964456
 21
-964.9189202431812
 31
0.0
 11
-902.9024594906905
 21
-964.7402270176543
 31
0.0
 11
-903.1807465130073
 21
-964.4929714560601
 31
0.0
 11
-903.3826240889723
 21
-964.1965232423308
 31
0.0
 11
-903.4922781100881
 21
-963.8741079050617
 31
0.0
 11
-903.5011159773917
 21
-963.5509843127098
 31
0.0
 11
-903.4084473173912
 21
-963.252466848559
 31
0.0
  0
SPLINE
  5
100
330
47
100
AcDbEntity
  8
0
  6
Continuous
 62
     1
100
AcDbSpline
210
0.0
220
0.0
230
1.0
 70
     8
 71
     3
 72
     9
 73
     5
 74
     3
 42
0.0000000001
 43
0.0000000001
 44
0.00000001
 40
0.0
 40
0.0
 40
0.0
 40
0.0
 40
0.185379248913995
 40
0.3731261550737409
 40
0.3731261550737409
 40
0.3731261550737409
 40
0.3731261550737409
 10
-901.0024379183316
 20
-964.4776683714265
 30
0.0
 10
-901.0334989634728
 20
-964.5315259318508
 30
0.0
 10
-901.0960177643309
 20
-964.6399289195664
 30
0.0
 10
-901.187637303077
 20
-964.7251849622237
 30
0.0
 10
-901.2337377565278
 20
-964.7680834779738
 30
0.0
 11
-901.0024379183316
 21
-964.4776683714265
 31
0.0
 11
-901.1028042023712
 21
-964.6335275224443
 31
0.0
 11
-901.2337377565278
 21
-964.7680834779738
 31
0.0
  0
SPLINE
  5
101
330
47
100
AcDbEntity
  8
0
  6
Continuous
 62
     1
100
AcDbSpline
210
0.0
220
0.0
230
1.0
 70
     8
 71
     3
 72
    15
 73
    11
 74
     9
 42
0.0000000001
 43
0.0000000001
 44
0.00000001
 40
0.0
 40
0.0
 40
0.0
 40
0.0
 40
0.3460186204690214
 40
0.7122315670653785
 40
1.096495204523273
 40
1.491215244996873
 40
1.885935285470507
 40
2.270198922928303
 40
2.636411869524638
 40
2.982430489993715
 40
2.982430489993715
 40
2.982430489993715
 40
2.982430489993715
 10
-903.509902636238
 20
-963.6784243045287
 30
0.0
 10
-903.40976928191
 20
-963.6193262484325
 30
0.0
 10
-903.2036585940754
 20
-963.4976810576425
 30
0.0
 10
-902.8338658395946
 20
-963.444005746022
 30
0.0
 10
-902.4512860048735
 20
-963.4826396877335
 30
0.0
 10
-902.0801550845629
 20
-963.6190321806573
 30
0.0
 10
-901.751561194354
 20
-963.8389574576354
 30
0.0
 10
-901.4952943490263
 20
-964.1256405847516
 30
0.0
 10
-901.3212023952071
 20
-964.4562759004086
 30
0.0
 10
-901.2983531498494
 20
-964.6945133451325
 30
0.0
 10
-901.2872524563066
 20
-964.810254623362
 30
0.0
 11
-903.509902636238
 21
-963.6784243045287
 31
0.0
 11
-903.2014566873496
 21
-963.5216123715466
 31
0.0
 11
-902.8405210391641
 21
-963.4596657806503
 31
0.0
 11
-902.4581662449806
 21
-963.4979195966337
 31
0.0
 11
-902.0873077492346
 21
-963.6330783421313
 31
0.0
 11
-901.7598718682971
 21
-963.8535089530413
 31
0.0
 11
-901.5040448069026
 21
-964.1402336602616
 31
0.0
 11
-901.3418516307489
 21
-964.4685708282216
 31
0.0
 11
-901.2872524563066
 21
-964.810254623362
 31
0.0
  0
SPLINE
  5
102
330
47
100
AcDbEntity
  8
0
  6
Continuous
 62
     1
100
AcDbSpline
210
0.0
220
0.0
230
1.0
 70
     8
 71
     3
 72
    19
 73
    15
 74
    13
 42
0.0000000001
 43
0.0000000001
 44
0.00000001
 40
0.0
 40
0.0
 40
0.0
 40
0.0
 40
0.2913488392566421
 40
0.5914491261722976
 40
0.9061322607303667
 40
1.236855025771576
 40
1.580864967902622
 40
1.932317491517899
 40
2.283770015133243
 40
2.62777995726421
 40
2.958502722305482
 40
3.273185856863548
 40
3.573286143779081
 40
3.864634983035875
 40
3.864634983035875
 40
3.864634983035875
 40
3.864634983035875
 10
-903.4084473173912
 20
-963.252466848559
 30
0.0
 10
-903.3560289662939
 20
-963.1697517852461
 30
0.0
 10
-903.2496177376408
 20
-963.0018370887519
 30
0.0
 10
-902.996391719614
 20
-962.8244536964897
 30
0.0
 10
-902.6973466464987
 20
-962.7165882621589
 30
0.0
 10
-902.3651170322621
 20
-962.6879519616169
 30
0.0
 10
-902.0239530148835
 20
-962.738039369671
 30
0.0
 10
-901.6953281297015
 20
-962.8633219949229
 30
0.0
 10
-901.400719993676
 20
-963.0554055640763
 30
0.0
 10
-901.1595498655136
 20
-963.3018575968968
 30
0.0
 10
-900.9873014653526
 20
-963.5873870050613
 30
0.0
 10
-900.8986467634065
 20
-963.8926790807873
 30
0.0
 10
-900.8931632199578
 20
-964.2018039985908
 30
0.0
 10
-900.9663741101011
 20
-964.3866251565964
 30
0.0
 10
-901.0024379183316
 20
-964.4776683714265
 30
0.0
 11
-903.4084473173912
 21
-963.252466848559
 31
0.0
 11
-903.2369061019044
 21
-963.0169721404964
 31
0.0
 11
-902.995072885802
 21
-962.8392733003302
 31
0.0
 11
-902.6994272651718
 21
-962.7314811754902
 31
0.0
 11
-902.3701176615989
 21
-962.7009405089759
 31
0.0
 11
-902.029585641119
 21
-962.7497337801601
 31
0.0
 11
-901.7010378924127
 21
-962.8745346342262
 31
0.0
 11
-901.4068647519676
 21
-963.0668391838246
 31
0.0
 11
-901.167112962069
 21
-963.3135412704096
 31
0.0
 11
-900.998122157076
 21
-963.5978292496566
 31
0.0
 11
-900.9114076244721
 21
-963.9003289438888
 31
0.0
 11
-900.9128801046573
 21
-964.200425618327
 31
0.0
 11
-901.0024379183316
 21
-964.4776683714265
 31
0.0
  0
SPLINE
  5
103
330
47
100
AcDbEntity
  8
0
  6
Continuous
 62
     1
100
AcDbSpline
210
0.0
220
0.0
230
1.0
 70
     8
 71
     3
 72
    15
 73
    11
 74
     9
 42
0.0000000001
 43
0.0000000001
 44
0.00000001
 40
0.0
 40
0.0
 40
0.0
 40
0.0
 40
0.9808741050651452
 40
1.986441956897569
 40
3.034471097141816
 40
4.131884917195343
 40
5.274453949952001
 40
6.448894980042855
 40
7.636093379586347
 40
8.814714897651792
 40
8.814714897651792
 40
8.814714897651792
 40
8.814714897651792
 10
-868.5314367491949
 20
-963.8563179657765
 30
0.0
 10
-868.357679257047
 20
-963.5766877594622
 30
0.0
 10
-868.005789885164
 20
-963.0103875876353
 30
0.0
 10
-867.1874000978895
 20
-962.3825285241886
 30
0.0
 10
-866.216431601911
 20
-961.9612756714218
 30
0.0
 10
-865.1250400353517
 20
-961.7791247134736
 30
0.0
 10
-863.9797657540662
 20
-961.8381864332322
 30
0.0
 10
-862.8446355157955
 20
-962.1385670713831
 30
0.0
 10
-861.7668734666004
 20
-962.6467934462438
 30
0.0
 10
-861.1565568933697
 20
-963.1502338841713
 30
0.0
 10
-860.8525049067047
 20
-963.4010415338952
 30
0.0
 11
-868.5314367491949
 21
-963.8563179657765
 31
0.0
 11
-867.9653375499248
 21
-963.0552900595378
 31
0.0
 11
-867.1799207593755
 21
-962.427367158409
 31
0.0
 11
-866.2194722278924
 21
-962.0079584112742
 31
0.0
 11
-865.1381510363883
 21
-961.8207110528186
 31
0.0
 11
-863.9969295311416
 21
-961.8761860073206
 31
0.0
 11
-862.8601589290602
 21
-962.171252663187
 31
0.0
 11
-861.7919395616619
 21
-962.6892752717612
 31
0.0
 11
-860.8525049067047
 21
-963.4010415338952
 31
0.0
  0
SPLINE
  5
104
330
47
100
AcDbEntity
  8
0
  6
Continuous
 62
     1
100
AcDbSpline
210
0.0
220
0.0
230
1.0
 70
     8
 71
     3
 72
    15
 73
    11
 74
     9
 42
0.0000000001
 43
0.0000000001
 44
0.00000001
 40
0.0
 40
0.0
 40
0.0
 40
0.0
 40
1.990707918058943
 40
3.844049113168767
 40
5.77485713598735
 40
7.710376311890093
 40
9.649958971454346
 40
11.59718501752387
 40
13.54440874679219
 40
15.50183873633986
 40
15.50183873633986
 40
15.50183873633986
 40
15.50183873633986
 10
-932.6737625568778
 20
-956.5137978286541
 30
0.0
 10
-932.3637006207823
 20
-955.926949447039
 30
0.0
 10
-931.7649722489988
 20
-954.793747544114
 30
0.0
 10
-930.7571667330832
 20
-953.1523211909386
 30
0.0
 10
-929.6856131559794
 20
-951.5746128720323
 30
0.0
 10
-928.5168990802351
 20
-950.0309672793799
 30
0.0
 10
-927.2696457931976
 20
-948.5429320889743
 30
0.0
 10
-925.9461376206239
 20
-947.1172563414974
 30
0.0
 10
-924.5542531285882
 20
-945.7489970270207
 30
0.0
 10
-923.5716755545109
 20
-944.8950423610402
 30
0.0
 10
-923.0791026020648
 20
-944.4669489644732
 30
0.0
 11
-932.6737625568778
 21
-956.5137978286541
 31
0.0
 11
-931.7242351057336
 21
-954.7641362515067
 31
0.0
 11
-930.7590407743243
 21
-953.1819625922308
 31
0.0
 11
-929.673042947196
 21
-951.5855201909982
 31
0.0
 11
-928.505225073651
 21
-950.0420060528977
 31
0.0
 11
-927.2590482028571
 21
-948.5557274451055
 31
0.0
 11
-925.9354345331835
 21
-947.1275341360802
 31
0.0
 11
-924.5432895565694
 21
-945.7660597088823
 31
0.0
 11
-923.0791026020648
 21
-944.4669489644732
 31
0.0
  0
SPLINE
  5
105
330
47
100
AcDbEntity
  8
0
  6
Continuous
 62
   124
100
AcDbSpline
210
0.0
220
0.0
230
1.0
 70
     8
 71
     3
 72
     9
 73
     5
 74
     3
 42
0.0000000001
 43
0.0000000001
 44
0.00000001
 40
0.0
 40
0.0
 40
0.0
 40
0.0
 40
0.7803089777369326
 40
1.506738301107804
 40
1.506738301107804
 40
1.506738301107804
 40
1.506738301107804
 10
-854.8312632813736
 20
-922.5084662784368
 30
0.0
 10
-855.0042680424426
 20
-922.7030213145449
 30
0.0
 10
-855.3383317367148
 20
-923.0786975311992
 30
0.0
 10
-855.7131210341997
 20
-923.4136970267938
 30
0.0
 10
-855.8938146128911
 20
-923.5752071289365
 30
0.0
 11
-854.8312632813736
 21
-922.5084662784368
 31
0.0
 11
-855.3612001406175
 21
-923.0812219208809
 31
0.0
 11
-855.8938146128911
 21
-923.5752071289365
 31
0.0
  0
SPLINE
  5
106
330
47
100
AcDbEntity
  8
0
  6
Continuous
 62
     1
100
AcDbSpline
210
0.0
220
0.0
230
1.0
 70
     8
 71
     3
 72
    37
 73
    33
 74
    31
 42
0.0000000001
 43
0.0000000001
 44
0.00000001
 40
0.0
 40
0.0
 40
0.0
 40
0.0
 40
2.116795900944948
 40
4.224321840842071
 40
6.331711681663942
 40
8.428184906023521
 40
10.51667672663524
 40
12.59286192104674
 40
14.65329424765582
 40
16.70035741494384
 40
20.73168778980895
 40
24.7057836888694
 40
26.67970699305563
 40
28.63880961382904
 40
30.58721872944733
 40
32.52093564222286
 40
34.43821762594336
 40
36.34139725875583
 40
38.22322583470998
 40
40.09198720564671
 40
41.94382314263679
 40
43.78392307945882
 40
45.62215500059745
 40
47.45015240142884
 40
49.27330430109214
 40
51.08810955948036
 40
52.89442280286947
 40
54.69459453174048
 40
56.48309582048439
 40
58.26786601971482
 40
60.04414872640667
 40
61.81918388993737
 40
61.81918388993737
 40
61.81918388993737
 40
61.81918388993737
 10
-919.2592347182203
 20
-1013.194611855546
 30
0.0
 10
-919.771578378632
 20
-1012.709365453828
 30
0.0
 10
-920.7940220226924
 20
-1011.740997661708
 30
0.0
 10
-922.2646183104845
 20
-1010.226291558397
 30
0.0
 10
-923.682522900793
 20
-1008.671677012114
 30
0.0
 10
-925.0418100477737
 20
-1007.073714519356
 30
0.0
 10
-926.3392127199278
 20
-1005.438410207832
 30
0.0
 10
-927.5717787944412
 20
-1003.768588263309
 30
0.0
 10
-928.7370898761594
 20
-1002.067834993545
 30
0.0
 10
-930.1901383530841
 20
-999.7762660509179
 30
0.0
 10
-931.8314857606351
 20
-996.8513811338587
 30
0.0
 10
-933.2424437067398
 20
-993.835301783807
 30
0.0
 10
-934.2209834272717
 20
-991.3873772155911
 30
0.0
 10
-934.87779975228
 20
-989.5396504935009
 30
0.0
 10
-935.4573719476813
 20
-987.6803019107467
 30
0.0
 10
-935.9584760843136
 20
-985.8126988706875
 30
0.0
 10
-936.3800305983152
 20
-983.9409902016829
 30
0.0
 10
-936.7210341405396
 20
-982.0705102529907
 30
0.0
 10
-936.9814870397528
 20
-980.2034473285829
 30
0.0
 10
-937.1612341797894
 20
-978.3440767451928
 30
0.0
 10
-937.2605815352324
 20
-976.4926034523147
 30
0.0
 10
-937.2796338982198
 20
-974.6487304624841
 30
0.0
 10
-937.2179725444212
 20
-972.8137222093183
 30
0.0
 10
-937.0750929239204
 20
-970.9889021632781
 30
0.0
 10
-936.8510772275134
 20
-969.180110595936
 30
0.0
 10
-936.5460814202261
 20
-967.3905255728682
 30
0.0
 10
-936.1608446183615
 20
-965.6243065005201
 30
0.0
 10
-935.6964506234975
 20
-963.8863241306294
 30
0.0
 10
-935.1543480334876
 20
-962.178446002426
 30
0.0
 10
-934.5345608449272
 20
-960.5059025676778
 30
0.0
 10
-933.8444003503054
 20
-958.8654962371982
 30
0.0
 10
-933.3214271541156
 20
-957.8032687200667
 30
0.0
 10
-933.0600324136996
 20
-957.2723415365589
 30
0.0
 11
-919.2592347182203
 21
-1013.194611855546
 31
0.0
 11
-920.7858934846354
 21
-1011.728277003888
 31
0.0
 11
-922.2566402255482
 21
-1010.21878384013
 31
0.0
 11
-923.675851983914
 21
-1008.660923151199
 31
0.0
 11
-925.0342845061105
 21
-1007.064094712357
 31
0.0
 11
-926.3321109985787
 21
-1005.427804860219
 31
0.0
 11
-927.5649466466837
 21
-1003.757277630194
 31
0.0
 11
-928.7293599055909
 21
-1002.057417890387
 31
0.0
 11
-929.8253642889483
 21
-1000.328475438329
 31
0.0
 11
-931.7963926326137
 21
-996.8118475279896
 31
0.0
 11
-933.4784222952223
 21
-993.2112622382022
 31
0.0
 11
-934.2108520852881
 21
-991.3782538330295
 31
0.0
 11
-934.8667600054938
 21
-989.5322126961821
 31
0.0
 11
-935.4462981834306
 21
-987.6719886284585
 31
0.0
 11
-935.9471320881838
 21
-985.8042556447042
 31
0.0
 11
-936.368113351603
 21
-983.933762399341
 31
0.0
 11
-936.7091680705286
 21
-982.0613910703972
 31
0.0
 11
-936.9688860647019
 21
-980.1975709737194
 31
0.0
 11
-937.1484319249616
 21
-978.3374547554231
 31
0.0
 11
-937.2473962690557
 21
-976.4882650961058
 31
0.0
 11
-937.2661607975172
 21
-974.6482608379683
 31
0.0
 11
-937.2041893061102
 21
-972.8110738224074
 31
0.0
 11
-937.0612793969345
 21
-970.9886712172441
 31
0.0
 11
-936.8369957770406
 21
-969.1793675647045
 31
0.0
 11
-936.5319276583981
 21
-967.3903869698233
 31
0.0
 11
-936.146820752642
 21
-965.6256036391048
 31
0.0
 11
-935.6820753983151
 21
-963.8864572941822
 31
0.0
 11
-935.1405687308968
 21
-962.1819023995014
 31
0.0
 11
-934.5215189793493
 21
-960.50793045554
 31
0.0
 11
-933.8283148572868
 21
-958.8724952537517
 31
0.0
 11
-933.0600324136996
 21
-957.2723415365589
 31
0.0
  0
SPLINE
  5
107
330
47
100
AcDbEntity
  8
0
  6
Continuous
 62
     1
100
AcDbSpline
210
0.0
220
0.0
230
1.0
 70
    24
 71
     3
 72
    11
 73
     7
 74
     5
 42
0.0000000001
 43
0.0000000001
 44
0.00000001
 40
0.0
 40
0.0
 40
0.0
 40
0.0
 40
0.2128075655202789
 40
0.4256151310416235
 40
0.6384226965635114
 40
0.85123026208601
 40
0.85123026208601
 40
0.85123026208601
 40
0.85123026208601
 10
-933.0600324136996
 20
-957.2723415365589
 30
0.0
 10
-933.0278432589618
 20
-957.209129560902
 30
0.0
 10
-932.9634649494857
 20
-957.0827056095882
 30
0.0
 10
-932.8668974852812
 20
-956.8930696826114
 30
0.0
 10
-932.7703300210749
 20
-956.7034337556354
 30
0.0
 10
-932.7059517116102
 20
-956.5770098043145
 30
0.0
 10
-932.6737625568778
 20
-956.5137978286541
 30
0.0
 11
-933.0600324136996
 21
-957.2723415365589
 31
0.0
 11
-932.9634649494874
 21
-957.0827056095875
 31
0.0
 11
-932.8668974852811
 21
-956.8930696826119
 31
0.0
 11
-932.7703300210766
 21
-956.7034337556348
 31
0.0
 11
-932.6737625568778
 21
-956.5137978286541
 31
0.0
  0
SPLINE
  5
108
330
47
100
AcDbEntity
  8
0
  6
Continuous
 62
     1
100
AcDbSpline
210
0.0
220
0.0
230
1.0
 70
     8
 71
     3
 72
    19
 73
    15
 74
    13
 42
0.0000000001
 43
0.0000000001
 44
0.00000001
 40
0.0
 40
0.0
 40
0.0
 40
0.0
 40
1.016124657248722
 40
2.068212889396537
 40
3.17019278410165
 40
4.323327300113183
 40
5.51744736184009
 40
6.734169119176144
 40
7.950890876512352
 40
9.145010938239306
 40
10.29814545425075
 40
11.40012534895587
 40
12.45221358110376
 40
13.46833823835248
 40
13.46833823835248
 40
13.46833823835248
 40
13.46833823835248
 10
-868.7006974382363
 20
-964.2477471930312
 30
0.0
 10
-868.4851801869918
 20
-963.9833968731053
 30
0.0
 10
-868.0465179089618
 20
-963.445340114925
 30
0.0
 10
-867.114115415447
 20
-962.9051834652677
 30
0.0
 10
-866.0488697300784
 20
-962.5924162727
 30
0.0
 10
-864.8895646510982
 20
-962.5379811093404
 30
0.0
 10
-863.7100290706404
 20
-962.7372860998428
 30
0.0
 10
-862.5754987357759
 20
-963.1788434238251
 30
0.0
 10
-861.5510977901288
 20
-963.8366691253967
 30
0.0
 10
-860.6961445160956
 20
-964.6733778943393
 30
0.0
 10
-860.0582992767177
 20
-965.6429679642977
 30
0.0
 10
-859.6846996629631
 20
-966.6884319835473
 30
0.0
 10
-859.5731327551638
 20
-967.7602045532494
 30
0.0
 10
-859.7502709837643
 20
-968.4314360462224
 30
0.0
 10
-859.8372999945323
 20
-968.7612158644547
 30
0.0
 11
-868.7006974382363
 21
-964.2477471930312
 31
0.0
 11
-868.0131999527856
 21
-963.4995115840363
 31
0.0
 11
-867.1144098140094
 21
-962.9526423723755
 31
0.0
 11
-866.0578042778104
 21
-962.6396816253033
 31
0.0
 11
-864.9062544480836
 21
-962.5792481770047
 31
0.0
 11
-863.7282785991179
 21
-962.7749408469547
 31
0.0
 11
-862.5939679949854
 21
-963.2151127317084
 31
0.0
 11
-861.5708167444293
 21
-963.873575603297
 31
0.0
 11
-860.7197022756444
 21
-964.7111476198089
 31
0.0
 11
-860.0912694795695
 21
-965.6779937465708
 31
0.0
 11
-859.722908280783
 21
-966.716584000503
 31
0.0
 11
-859.6365398635093
 21
-967.765121145635
 31
0.0
 11
-859.8372999945323
 21
-968.7612158644547
 31
0.0
  0
SPLINE
  5
109
330
47
100
AcDbEntity
  8
0
  6
Continuous
 62
     1
100
AcDbSpline
210
0.0
220
0.0
230
1.0
 70
     8
 71
     3
 72
     9
 73
     5
 74
     3
 42
0.0000000001
 43
0.0000000001
 44
0.00000001
 40
0.0
 40
0.0
 40
0.0
 40
0.0
 40
0.1877469061596645
 40
0.3731261550734067
 40
0.3731261550734067
 40
0.3731261550734067
 40
0.3731261550734067
 10
-862.3655433031834
 20
-1000.888718197217
 30
0.0
 10
-862.3194428497322
 20
-1000.845819681467
 30
0.0
 10
-862.2278233109865
 20
-1000.76056363881
 30
0.0
 10
-862.1653045101282
 20
-1000.652160651094
 30
0.0
 10
-862.1342434649872
 20
-1000.59830309067
 30
0.0
 11
-862.3655433031834
 21
-1000.888718197217
 31
0.0
 11
-862.2346097490267
 21
-1000.754162241688
 31
0.0
 11
-862.1342434649872
 21
-1000.59830309067
 31
0.0
  0
SPLINE
  5
10A
330
47
100
AcDbEntity
  8
0
  6
Continuous
 62
     1
100
AcDbSpline
210
0.0
220
0.0
230
1.0
 70
     8
 71
     3
 72
    15
 73
    11
 74
     9
 42
0.0000000001
 43
0.0000000001
 44
0.00000001
 40
0.0
 40
0.0
 40
0.0
 40
0.0
 40
0.3460186204688344
 40
0.7122315670651191
 40
1.096495204523076
 40
1.49121524499674
 40
1.885935285470302
 40
2.270198922928208
 40
2.636411869524453
 40
2.982430489993474
 40
2.982430489993474
 40
2.982430489993474
 40
2.982430489993474
 10
-862.4190580029623
 20
-1000.930889342605
 30
0.0
 10
-862.430158696505
 20
-1000.815148064376
 30
0.0
 10
-862.4530079418627
 20
-1000.576910619652
 30
0.0
 10
-862.6270998956817
 20
-1000.246275303995
 30
0.0
 10
-862.8833667410096
 20
-999.9595921768789
 30
0.0
 10
-863.2119606312185
 20
-999.7396668999004
 30
0.0
 10
-863.5830915515292
 20
-999.6032744069771
 30
0.0
 10
-863.9656713862499
 20
-999.5646404652648
 30
0.0
 10
-864.3354641407308
 20
-999.6183157768858
 30
0.0
 10
-864.5415748285657
 20
-999.7399609676759
 30
0.0
 10
-864.6417081828936
 20
-999.799059023772
 30
0.0
 11
-862.4190580029623
 21
-1000.930889342605
 31
0.0
 11
-862.4736571774044
 21
-1000.589205547465
 31
0.0
 11
-862.635850353558
 21
-1000.260868379505
 31
0.0
 11
-862.8916774149526
 21
-999.9741436722845
 31
0.0
 11
-863.2191132958902
 21
-999.7537130613746
 31
0.0
 11
-863.5899717916362
 21
-999.6185543158771
 31
0.0
 11
-863.9723265858197
 21
-999.5803004998936
 31
0.0
 11
-864.3332622340051
 21
-999.6422470907899
 31
0.0
 11
-864.6417081828936
 21
-999.799059023772
 31
0.0
  0
SPLINE
  5
10B
330
47
100
AcDbEntity
  8
0
  6
Continuous
 62
     1
100
AcDbSpline
210
0.0
220
0.0
230
1.0
 70
     8
 71
     3
 72
    19
 73
    15
 74
    13
 42
0.0000000001
 43
0.0000000001
 44
0.00000001
 40
0.0
 40
0.0
 40
0.0
 40
0.0
 40
0.2913488392566851
 40
0.5914491261723316
 40
0.9061322607307567
 40
1.236855025771873
 40
1.580864967902842
 40
1.932317491518125
 40
2.283770015133508
 40
2.627779957264441
 40
2.958502722305548
 40
3.273185856863685
 40
3.573286143779273
 40
3.864634983036074
 40
3.864634983036074
 40
3.864634983036074
 40
3.864634983036074
 10
-862.1342434649872
 20
-1000.59830309067
 30
0.0
 10
-862.098179656757
 20
-1000.50725987584
 30
0.0
 10
-862.0249687666135
 20
-1000.322438717834
 30
0.0
 10
-862.0304523100622
 20
-1000.013313800031
 30
0.0
 10
-862.1191070120085
 20
-999.7080217243046
 30
0.0
 10
-862.2913554121692
 20
-999.42249231614
 30
0.0
 10
-862.5325255403318
 20
-999.1760402833198
 30
0.0
 10
-862.8271336763571
 20
-998.983956714166
 30
0.0
 10
-863.155758561539
 20
-998.8586740889139
 30
0.0
 10
-863.4969225789174
 20
-998.8085866808603
 30
0.0
 10
-863.829152193154
 20
-998.8372229814017
 30
0.0
 10
-864.1281972662699
 20
-998.9450884157336
 30
0.0
 10
-864.3814232842963
 20
-999.1224718079949
 30
0.0
 10
-864.4878345129493
 20
-999.2903865044892
 30
0.0
 10
-864.5402528640468
 20
-999.3731015678023
 30
0.0
 11
-862.1342434649872
 21
-1000.59830309067
 31
0.0
 11
-862.044685651313
 21
-1000.321060337571
 31
0.0
 11
-862.0432131711277
 21
-1000.020963663132
 31
0.0
 11
-862.1299277037317
 21
-999.7184639688998
 31
0.0
 11
-862.2989185087247
 21
-999.4341759896529
 31
0.0
 11
-862.5386702986232
 21
-999.1874739030678
 31
0.0
 11
-862.8328434390683
 21
-998.9951693534695
 31
0.0
 11
-863.1613911877746
 21
-998.8703684994034
 31
0.0
 11
-863.5019232082544
 21
-998.8215752282192
 31
0.0
 11
-863.8312328118272
 21
-998.8521158947336
 31
0.0
 11
-864.1268784324575
 21
-998.9599080195735
 31
0.0
 11
-864.36871164856
 21
-999.1376068597395
 31
0.0
 11
-864.5402528640468
 21
-999.3731015678023
 31
0.0
  0
SPLINE
  5
10C
330
47
100
AcDbEntity
  8
0
  6
Continuous
 62
     1
100
AcDbSpline
210
0.0
220
0.0
230
1.0
 70
     8
 71
     3
 72
    17
 73
    13
 74
    11
 42
0.0000000001
 43
0.0000000001
 44
0.00000001
 40
0.0
 40
0.0
 40
0.0
 40
0.0
 40
0.3125702432243561
 40
0.6358146767929332
 40
0.9763666611552744
 40
1.335025411363131
 40
1.707287388375591
 40
2.085108970109361
 40
2.459094955976527
 40
2.820777333467072
 40
3.164834924305511
 40
3.490982053658916
 40
3.490982053658916
 40
3.490982053658916
 40
3.490982053658916
 10
-864.5402528640468
 20
-999.3731015678023
 30
0.0
 10
-864.5782896694966
 20
-999.4711699364391
 30
0.0
 10
-864.6556622271464
 20
-999.6706556823165
 30
0.0
 10
-864.6382354608418
 20
-1000.004389807821
 30
0.0
 10
-864.526055507219
 20
-1000.329640967481
 30
0.0
 10
-864.3205629777533
 20
-1000.627054794579
 30
0.0
 10
-864.0410182486233
 20
-1000.87387602595
 30
0.0
 10
-863.7079925724016
 20
-1001.052457519599
 30
0.0
 10
-863.3459390830885
 20
-1001.150119673036
 30
0.0
 10
-862.9835801594991
 20
-1001.156714355488
 30
0.0
 10
-862.6409193234308
 20
-1001.078955600178
 30
0.0
 10
-862.4556852530752
 20
-1000.950990759766
 30
0.0
 10
-862.3655433031834
 20
-1000.888718197217
 30
0.0
 11
-864.5402528640468
 21
-999.3731015678023
 31
0.0
 11
-864.6329215240474
 21
-999.6716190319531
 31
0.0
 11
-864.6240836567438
 21
-999.9947426243053
 31
0.0
 11
-864.5144296356278
 21
-1000.317157961574
 31
0.0
 11
-864.312552059663
 21
-1000.613606175303
 31
0.0
 11
-864.0342650373462
 21
-1000.860861736898
 31
0.0
 11
-863.7013718431012
 21
-1001.039554962425
 31
0.0
 11
-863.3399516545289
 21
-1001.135684900099
 31
0.0
 11
-862.9783196672956
 21
-1001.141722117746
 31
0.0
 11
-862.6448076618333
 21
-1001.057191838993
 31
0.0
 11
-862.3655433031834
 21
-1000.888718197217
 31
0.0
  0
SPLINE
  5
10D
330
47
100
AcDbEntity
  8
0
  6
Continuous
 62
     1
100
AcDbSpline
210
0.0
220
0.0
230
1.0
 70
     8
 71
     3
 72
    21
 73
    17
 74
    15
 42
0.0000000001
 43
0.0000000001
 44
0.00000001
 40
0.0
 40
0.0
 40
0.0
 40
0.0
 40
0.9246366272251474
 40
1.870115574778088
 40
2.85203519061461
 40
3.877582794096505
 40
4.944976986515094
 40
6.044779458027969
 40
7.162161820792286
 40
8.279544183556725
 40
9.37934665506952
 40
10.44674084748811
 40
11.47228845097005
 40
12.45420806680674
 40
13.39968701435947
 40
14.32432364158475
 40
14.32432364158475
 40
14.32432364158475
 40
14.32432364158475
 10
-859.6202908267518
 20
-968.3941013838042
 30
0.0
 10
-859.7826352023753
 20
-968.6583193656842
 30
0.0
 10
-860.1109833733129
 20
-969.1927110915808
 30
0.0
 10
-860.8636681686736
 20
-969.8006285017244
 30
0.0
 10
-861.7578860953806
 20
-970.2283088682618
 30
0.0
 10
-862.7688214793977
 20
-970.4461806017081
 30
0.0
 10
-863.8400316318609
 20
-970.4492956505911
 30
0.0
 10
-864.9212111888899
 20
-970.2382715107146
 30
0.0
 10
-865.9596033911619
 20
-969.8244339297892
 30
0.0
 10
-866.9050407477796
 20
-969.2280547602684
 30
0.0
 10
-867.711621626677
 20
-968.4777830042065
 30
0.0
 10
-868.3391565106067
 20
-967.6096235351445
 30
0.0
 10
-868.7575578802071
 20
-966.663896969583
 30
0.0
 10
-868.937629487049
 20
-965.6891608961889
 30
0.0
 10
-868.8886911240759
 20
-964.7228778034298
 30
0.0
 10
-868.6496334465673
 20
-964.143017074557
 30
0.0
 10
-868.5314367491949
 20
-963.8563179657765
 30
0.0
 11
-859.6202908267518
 21
-968.3941013838042
 31
0.0
 11
-860.147707723708
 21
-969.1535645555324
 31
0.0
 11
-860.8720979586755
 21
-969.7611739923827
 31
0.0
 11
-861.7571390503886
 21
-970.1864602465032
 31
0.0
 11
-862.7584502047009
 21
-970.408099275686
 31
0.0
 11
-863.8258222486405
 21
-970.4149754537767
 31
0.0
 11
-864.9057323679108
 21
-970.2067457473381
 31
0.0
 11
-865.9440292403156
 21
-969.7938499379973
 31
0.0
 11
-866.8886488811938
 21
-969.1969939430671
 31
0.0
 11
-867.6922231526086
 21
-968.4461052251695
 31
0.0
 11
-868.3144588102191
 21
-967.5788375915022
 31
0.0
 11
-868.7241527409985
 21
-966.6386786846731
 31
0.0
 11
-868.9007630121322
 21
-965.6727724034558
 31
0.0
 11
-868.835431694719
 21
-964.7295533094854
 31
0.0
 11
-868.5314367491949
 21
-963.8563179657765
 31
0.0
  0
SPLINE
  5
10E
330
47
100
AcDbEntity
  8
0
  6
Continuous
 62
     1
100
AcDbSpline
210
0.0
220
0.0
230
1.0
 70
     8
 71
     3
 72
    35
 73
    31
 74
    29
 42
0.0000000001
 43
0.0000000001
 44
0.00000001
 40
0.0
 40
0.0
 40
0.0
 40
0.0
 40
4.233709719275656
 40
8.42699883990459
 40
10.51549066074692
 40
12.59167585492707
 40
14.65210817981493
 40
16.69917134882459
 40
20.73050172389478
 40
24.70459762274975
 40
26.67852092886929
 40
28.63762354770922
 40
30.58603266133923
 40
32.51974957610312
 40
34.43703155923983
 40
36.34021119263597
 40
38.22203976962699
 40
40.09080113952696
 40
41.94263707549322
 40
43.78273701333904
 40
45.62096893528661
 40
47.44896633530895
 40
49.27211823443452
 40
51.08692349336046
 40
52.89323673726913
 40
54.69340846562046
 40
56.48190975367692
 40
58.26667995359487
 40
60.04296266068155
 40
61.81799782381731
 40
61.81799782381731
 40
61.81799782381731
 40
61.81799782381731
 10
-918.8729648613986
 20
-1012.436068147641
 30
0.0
 10
-919.8887870962026
 20
-1011.455708843056
 30
0.0
 10
-921.9107331817523
 20
-1009.504350041856
 30
0.0
 10
-924.2201058303164
 20
-1006.861693467008
 30
0.0
 10
-925.9531189292832
 20
-1004.680077335996
 30
0.0
 10
-927.1854623384804
 20
-1003.009988754499
 30
0.0
 10
-928.3508321063568
 20
-1001.309305760494
 30
0.0
 10
-929.8038616441686
 20
-999.0177141384848
 30
0.0
 10
-931.4452182407973
 20
-996.0928402243524
 30
0.0
 10
-932.8561735640598
 20
-993.0767577325867
 30
0.0
 10
-933.8347136239121
 20
-990.6288335708291
 30
0.0
 10
-934.4915298812919
 20
-988.7811067686772
 30
0.0
 10
-935.0711020944225
 20
-986.9217582079677
 30
0.0
 10
-935.5722062263036
 20
-985.0541551624294
 30
0.0
 10
-935.9937607417169
 20
-983.1824464942831
 30
0.0
 10
-936.3347642836833
 20
-981.3119665448554
 30
0.0
 10
-936.5952171829895
 20
-979.4449036203564
 30
0.0
 10
-936.7749643229486
 20
-977.5855330372765
 30
0.0
 10
-936.8743116784
 20
-975.7340597447528
 30
0.0
 10
-936.893364041412
 20
-973.8901867546501
 30
0.0
 10
-936.8317026875841
 20
-972.0551785011437
 30
0.0
 10
-936.6888230670796
 20
-970.2303584552842
 30
0.0
 10
-936.464807370717
 20
-968.4215668882086
 30
0.0
 10
-936.1598115634135
 20
-966.6319818649677
 30
0.0
 10
-935.7745747614979
 20
-964.8657627924465
 30
0.0
 10
-935.3101807666825
 20
-963.1277804227808
 30
0.0
 10
-934.7680781767405
 20
-961.4199022947384
 30
0.0
 10
-934.148290988149
 20
-959.7473588598609
 30
0.0
 10
-933.4581304934293
 20
-958.1069525291728
 30
0.0
 10
-932.9351572972366
 20
-957.0447250120428
 30
0.0
 10
-932.6737625568778
 20
-956.5137978286541
 30
0.0
 11
-918.8729648613986
 21
-1012.436068147641
 31
0.0
 11
-921.8772098532063
 21
-1009.452980817996
 31
0.0
 11
-924.6480146492885
 21
-1006.305551004451
 31
0.0
 11
-925.9458411418974
 21
-1004.66926115213
 31
0.0
 11
-927.1786767898618
 21
-1002.998733922289
 31
0.0
 11
-928.3430900478214
 21
-1001.298874183919
 31
0.0
 11
-929.4390944321264
 21
-999.5699317304234
 31
0.0
 11
-931.4101227758856
 21
-996.0533038199015
 31
0.0
 11
-933.0921524384004
 21
-992.452718530297
 31
0.0
 11
-933.824582229149
 21
-990.6197101233153
 31
0.0
 11
-934.480490148672
 21
-988.7736689882772
 31
0.0
 11
-935.0600283260551
 21
-986.9134449224637
 31
0.0
 11
-935.5608622313619
 21
-985.0457119367992
 31
0.0
 11
-935.9818434946646
 21
-983.1752186920082
 31
0.0
 11
-936.3228982137066
 21
-981.3028473624923
 31
0.0
 11
-936.5826162080011
 21
-979.4390272647845
 31
0.0
 11
-936.7621620681398
 21
-977.5789110475181
 31
0.0
 11
-936.8611264122007
 21
-975.7297213892243
 31
0.0
 11
-936.8798909406953
 21
-973.8897171300633
 31
0.0
 11
-936.8179194492429
 21
-972.0525301136945
 31
0.0
 11
-936.6750095401127
 21
-970.2301275093392
 31
0.0
 11
-936.4507259202968
 21
-968.4208238573318
 31
0.0
 11
-936.1456578015762
 21
-966.6318432619184
 31
0.0
 11
-935.7605508956974
 21
-964.867059930695
 31
0.0
 11
-935.2958055414932
 21
-963.1279135862774
 31
0.0
 11
-934.7542988742985
 21
-961.4233586922469
 31
0.0
 11
-934.1352491225275
 21
-959.7493867476351
 31
0.0
 11
-933.4420450003025
 21
-958.1139515454869
 31
0.0
 11
-932.6737625568778
 21
-956.5137978286541
 31
0.0
  0
SPLINE
  5
10F
330
47
100
AcDbEntity
  8
0
  6
Continuous
 62
     1
100
AcDbSpline
210
0.0
220
0.0
230
1.0
 70
     8
 71
     3
 72
    17
 73
    13
 74
    11
 42
0.0000000001
 43
0.0000000001
 44
0.00000001
 40
0.0
 40
0.0
 40
0.0
 40
0.0
 40
8.697030886795476
 40
17.47095814529512
 40
26.25340304427021
 40
34.97534803209817
 40
43.57234850279992
 40
51.98967842991969
 40
60.18727739013219
 40
68.14424634349183
 40
75.86241454801655
 40
83.36823584301443
 40
83.36823584301443
 40
83.36823584301443
 40
83.36823584301443
 10
-918.8729648613986
 20
-1012.436068147641
 30
0.0
 10
-916.6710270688527
 20
-1014.328129884851
 30
0.0
 10
-912.2476826524821
 20
-1018.128982365357
 30
0.0
 10
-904.7264637196345
 20
-1022.675991164196
 30
0.0
 10
-896.7266976111176
 20
-1026.28968857849
 30
0.0
 10
-888.3691369198239
 20
-1028.803154958151
 30
0.0
 10
-879.874977079499
 20
-1030.176269678188
 30
0.0
 10
-871.4463822336984
 20
-1030.366145440461
 30
0.0
 10
-863.2822347579565
 20
-1029.374706928877
 30
0.0
 10
-855.6050723487488
 20
-1027.192879648112
 30
0.0
 10
-848.5184113164175
 20
-1023.970865716706
 30
0.0
 10
-844.463007394281
 20
-1020.898551493918
 30
0.0
 10
-842.4635881803135
 20
-1019.383820974756
 30
0.0
 11
-918.8729648613986
 21
-1012.436068147641
 31
0.0
 11
-912.1229712173828
 21
-1017.920220958388
 31
0.0
 11
-904.6502438538398
 21
-1022.518062330988
 31
0.0
 11
-896.638784860975
 21
-1026.116376270763
 31
0.0
 11
-888.2858638255077
 21
-1028.626562428391
 31
0.0
 11
-879.7971569091324
 21
-1029.986809457841
 31
0.0
 11
-871.3816843109153
 21
-1030.163625889892
 31
0.0
 11
-863.2466632483032
 21
-1029.152655552377
 31
0.0
 11
-855.592404179295
 21
-1026.978794234529
 31
0.0
 11
-848.6073815120793
 21
-1023.695567350529
 31
0.0
 11
-842.4635881803135
 21
-1019.383820974756
 31
0.0
  0
ENDBLK
  5
49
330
47
100
AcDbEntity
  8
0
100
AcDbBlockEnd
  0
BLOCK
  5
6E
330
4A
100
AcDbEntity
  8
0
100
AcDbBlockBegin
  2
AllgA
 70
     0
 10
-869.0
 20
-965.0
 30
0.0
  3
AllgA
  1

  0
INSERT
  5
6D
330
4A
100
AcDbEntity
  8
0
100
AcDbBlockReference
  2
21202-EU-001__1
 10
-937.2803989651732
 20
-1031.201942858872
 30
0.0
  0
MTEXT
  5
111
330
4A
100
AcDbEntity
  8
1
 62
     1
100
AcDbMText
 10
-868.98194725728
 20
-874.2316370723944
 30
0.0
 40
3.5
 41
0.0
 71
     8
 72
     1
  1
 
  7
CONVERTER_11
 73
     1
 44
1.02040816326531
  0
ENDBLK
  5
6F
330
4A
100
AcDbEntity
  8
0
100
AcDbBlockEnd
  0
BLOCK
  5
71
330
70
100
AcDbEntity
  8
0
100
AcDbBlockBegin
  2
21202-EU-001__2
 70
     0
 10
-1093.990736340721
 20
-1113.495962630022
 30
0.0
  3
21202-EU-001__2
  1

  0
LINE
  5
112
330
70
100
AcDbEntity
  8
1
  6
DOT_CENTER
 62
     3
100
AcDbLine
 10
-1007.990736340721
 20
-1092.495962558778
 30
0.0
 11
-1007.990736340721
 21
-1098.495962558778
 31
0.0
  0
LINE
  5
113
330
70
100
AcDbEntity
  8
1
  6
DOT_CENTER
 62
     3
100
AcDbLine
 10
-1004.990736340721
 20
-1095.495962558778
 30
0.0
 11
-1010.990736340721
 21
-1095.495962558778
 31
0.0
  0
LINE
  5
114
330
70
100
AcDbEntity
  8
1
  6
DOT_CENTER
 62
     3
100
AcDbLine
 10
-1037.990736340721
 20
-1089.995962558778
 30
0.0
 11
-1037.990736340721
 21
-1100.995962558778
 31
0.0
  0
LINE
  5
115
330
70
100
AcDbEntity
  8
1
  6
DOT_CENTER
 62
     3
100
AcDbLine
 10
-1032.490736340721
 20
-1095.495962558778
 30
0.0
 11
-1043.490736340721
 21
-1095.495962558778
 31
0.0
  0
LINE
  5
116
330
70
100
AcDbEntity
  8
1
  6
DOT_CENTER
 62
     3
100
AcDbLine
 10
-1067.990736340721
 20
-1092.495962558778
 30
0.0
 11
-1067.990736340721
 21
-1098.495962558778
 31
0.0
  0
LINE
  5
117
330
70
100
AcDbEntity
  8
1
  6
DOT_CENTER
 62
     3
100
AcDbLine
 10
-1064.990736340721
 20
-1095.495962558778
 30
0.0
 11
-1070.990736340721
 21
-1095.495962558778
 31
0.0
  0
LINE
  5
118
330
70
100
AcDbEntity
  8
0
  6
Continuous
 62
     1
100
AcDbLine
 10
-1093.990736340721
 20
-1073.495962487534
 30
0.0
 11
-1093.990736340721
 21
-1074.995962487534
 31
0.0
  0
LINE
  5
119
330
70
100
AcDbEntity
  8
0
  6
Continuous
 62
     1
100
AcDbLine
 10
-1062.027712415307
 20
-1074.995962487534
 30
0.0
 11
-1065.891415720463
 21
-1074.995962487534
 31
0.0
  0
LINE
  5
11A
330
70
100
AcDbEntity
  8
0
  6
Continuous
 62
     1
100
AcDbLine
 10
-1013.953760266135
 20
-1074.995962487534
 30
0.0
 11
-1062.027712415307
 21
-1074.995962487534
 31
0.0
  0
LINE
  5
11B
330
70
100
AcDbEntity
  8
0
  6
Continuous
 62
     1
100
AcDbLine
 10
-1070.090056960979
 20
-1074.995962487534
 30
0.0
 11
-1073.953760266135
 21
-1074.995962487534
 31
0.0
  0
LINE
  5
11C
330
70
100
AcDbEntity
  8
0
  6
Continuous
 62
     1
100
AcDbLine
 10
-1093.990736340721
 20
-1113.495962630022
 30
0.0
 11
-1093.990736340721
 21
-1074.995962487534
 31
0.0
  0
LINE
  5
11D
330
70
100
AcDbEntity
  8
0
  6
Continuous
 62
     1
100
AcDbLine
 10
-1065.891415720463
 20
-1074.995962487534
 30
0.0
 11
-1070.090056960979
 21
-1074.995962487534
 31
0.0
  0
LINE
  5
11E
330
70
100
AcDbEntity
  8
0
  6
Continuous
 62
     1
100
AcDbLine
 10
-1073.953760266135
 20
-1074.995962487534
 30
0.0
 11
-1093.990736340721
 21
-1074.995962487534
 31
0.0
  0
LINE
  5
11F
330
70
100
AcDbEntity
  8
0
  6
Continuous
 62
     1
100
AcDbLine
 10
-981.9907363407208
 20
-1073.495962487534
 30
0.0
 11
-1093.990736340721
 21
-1073.495962487534
 31
0.0
  0
LINE
  5
120
330
70
100
AcDbEntity
  8
0
  6
Continuous
 62
     1
100
AcDbLine
 10
-1013.953760266135
 20
-1074.995962487534
 30
0.0
 11
-1010.090056960979
 21
-1074.995962487534
 31
0.0
  0
LINE
  5
121
330
70
100
AcDbEntity
  8
0
  6
Continuous
 62
     1
100
AcDbLine
 10
-1010.090056960979
 20
-1074.995962487534
 30
0.0
 11
-1005.891415720463
 21
-1074.995962487534
 31
0.0
  0
LINE
  5
122
330
70
100
AcDbEntity
  8
0
  6
Continuous
 62
     1
100
AcDbLine
 10
-981.9907363407208
 20
-1073.495962487534
 30
0.0
 11
-981.9907363407208
 21
-1074.995962487534
 31
0.0
  0
LINE
  5
123
330
70
100
AcDbEntity
  8
0
  6
Continuous
 62
     1
100
AcDbLine
 10
-981.9907363407208
 20
-1113.495962630021
 30
0.0
 11
-981.9907363407208
 21
-1074.995962487534
 31
0.0
  0
LINE
  5
124
330
70
100
AcDbEntity
  8
0
  6
Continuous
 62
     1
100
AcDbLine
 10
-1002.027712415307
 20
-1074.995962487534
 30
0.0
 11
-981.9907363407208
 21
-1074.995962487534
 31
0.0
  0
LINE
  5
125
330
70
100
AcDbEntity
  8
0
  6
Continuous
 62
     1
100
AcDbLine
 10
-1005.891415720463
 20
-1074.995962487534
 30
0.0
 11
-1002.027712415307
 21
-1074.995962487534
 31
0.0
  0
LINE
  5
126
330
70
100
AcDbEntity
  8
0
  6
Continuous
 62
     1
100
AcDbLine
 10
-981.9907363407208
 20
-1113.495962630021
 30
0.0
 11
-1093.990736340721
 21
-1113.495962630022
 31
0.0
  0
CIRCLE
  5
127
330
70
100
AcDbEntity
  8
0
  6
Continuous
 62
     1
100
AcDbCircle
 10
-1067.990736340721
 20
-1095.495962558778
 30
0.0
 40
2.5
  0
CIRCLE
  5
128
330
70
100
AcDbEntity
  8
0
  6
Continuous
 62
     1
100
AcDbCircle
 10
-1037.990736340721
 20
-1095.495962558778
 30
0.0
 40
5.0
  0
CIRCLE
  5
129
330
70
100
AcDbEntity
  8
0
  6
Continuous
 62
     1
100
AcDbCircle
 10
-1007.990736340721
 20
-1095.495962558778
 30
0.0
 40
2.5
  0
ENDBLK
  5
72
330
70
100
AcDbEntity
  8
0
100
AcDbBlockEnd
  0
BLOCK
  5
75
330
73
100
AcDbEntity
  8
0
100
AcDbBlockBegin
  2
DrfsichtA
 70
     0
 10
-1038.0
 20
-1093.389846000001
 30
0.0
  3
DrfsichtA
  1

  0
INSERT
  5
74
330
73
100
AcDbEntity
  8
0
100
AcDbBlockReference
  2
21202-EU-001__2
 10
-1093.990736340721
 20
-1113.495962630022
 30
0.0
  0
MTEXT
  5
12A
330
73
100
AcDbEntity
  8
1
 62
     1
100
AcDbMText
 10
-1037.99073634072
 20
-1068.495960118219
 30
0.0
 40
3.5
 41
0.0
 71
     8
 72
     1
  1
 
  7
CONVERTER_11
 73
     1
 44
1.02040816326531
  0
DIMENSION
  5
135
330
73
100
AcDbEntity
  8
1
100
AcDbDimension
  2
*D11
 10
-1103.85194965564
 20
-1073.495962487534
 30
0.0
 11
-1107.60194965564
 21
-1093.40130418636
 31
0.0
 70
    32
  1
<>
 71
     5
 42
-1.0
 53
90.0
  3
ME10_DIM_10
100
AcDbAlignedDimension
 13
-1093.990736340721
 23
-1113.495962630022
 33
0.0
 14
-1093.990736340721
 24
-1073.495962487534
 34
0.0
 50
90.0
100
AcDbRotatedDimension
  0
DIMENSION
  5
140
330
73
100
AcDbEntity
  8
1
100
AcDbDimension
  2
*D12
 10
-971.6573047220311
 20
-1073.495962487534
 30
0.0
 11
-975.4073047220311
 21
-1084.73940530499
 31
0.0
 70
    32
  1
<>
 71
     5
 42
-1.0
 53
90.0
  3
ME10_DIM_11
100
AcDbAlignedDimension
 13
-1064.990736340721
 23
-1095.495962558778
 33
0.0
 14
-981.9907363407208
 24
-1073.495962487534
 34
0.0
 50
90.0
100
AcDbRotatedDimension
  0
DIMENSION
  5
14B
330
73
100
AcDbEntity
  8
1
100
AcDbDimension
  2
*D13
 10
-1067.990736340721
 20
-1123.495962630022
 30
0.0
 11
-1037.990736340721
 21
-1119.745962630022
 31
0.0
 70
    32
  1
<>
 71
     5
 42
-1.0
 53
0.00013888888889
  3
ME10_DIM_12
100
AcDbAlignedDimension
 13
-1007.990736340721
 23
-1098.495962558778
 33
0.0
 14
-1067.990736340721
 24
-1098.495962558778
 34
0.0
100
AcDbRotatedDimension
  0
ENDBLK
  5
76
330
73
100
AcDbEntity
  8
0
100
AcDbBlockEnd
  0
BLOCK
  5
78
330
77
100
AcDbEntity
  8
0
100
AcDbBlockBegin
  2
21202-EU-001__3
 70
     0
 10
-957.893883512467
 20
-1044.995960546248
 30
0.0
  3
21202-EU-001__3
  1

  0
LINE
  5
14C
330
77
100
AcDbEntity
  8
0
  6
Continuous
 62
     1
100
AcDbLine
 10
-956.393883512467
 20
-1033.839106296756
 30
0.0
 11
-956.3938835124669
 21
-1038.03185893111
 31
0.0
  0
LINE
  5
14D
330
77
100
AcDbEntity
  8
0
  6
Continuous
 62
   124
100
AcDbLine
 10
-957.8938835124669
 20
-960.9959604037608
 30
0.0
 11
-956.3938835124669
 21
-960.9959604037608
 31
0.0
  0
LINE
  5
14E
330
77
100
AcDbEntity
  8
0
  6
Continuous
 62
     1
100
AcDbLine
 10
-956.3938835124669
 20
-960.9959604037608
 30
0.0
 11
-956.393883512467
 21
-1033.839106296756
 31
0.0
  0
LINE
  5
14F
330
77
100
AcDbEntity
  8
0
  6
Continuous
 62
     1
100
AcDbLine
 10
-957.8938835124669
 20
-960.9959604037608
 30
0.0
 11
-957.8938835124669
 21
-1040.995960546248
 31
0.0
  0
LINE
  5
150
330
77
100
AcDbEntity
  8
0
  6
Continuous
 62
     1
100
AcDbLine
 10
-957.893883512467
 20
-904.9959604037608
 30
0.0
 11
-956.393883512467
 21
-904.9959604037608
 31
0.0
  0
LINE
  5
151
330
77
100
AcDbEntity
  8
0
  6
Continuous
 62
     1
100
AcDbLine
 10
-957.893883512467
 20
-904.9959604037608
 30
0.0
 11
-957.8938835124669
 21
-960.9959604037608
 31
0.0
  0
LINE
  5
152
330
77
100
AcDbEntity
  8
0
  6
Continuous
 62
     1
100
AcDbLine
 10
-954.3938835124669
 20
-1043.495960546248
 30
0.0
 11
-950.9297818973292
 21
-1043.495960546248
 31
0.0
  0
LINE
  5
153
330
77
100
AcDbEntity
  8
0
  6
Continuous
 62
     1
100
AcDbLine
 10
-956.3938835124669
 20
-1038.03185893111
 30
0.0
 11
-956.3938835124669
 21
-1041.495960546248
 31
0.0
  0
LINE
  5
154
330
77
100
AcDbEntity
  8
0
  6
Continuous
 62
     1
100
AcDbLine
 10
-956.393883512467
 20
-904.9959604037608
 30
0.0
 11
-956.3938835124669
 21
-960.9959604037608
 31
0.0
  0
LINE
  5
155
330
77
100
AcDbEntity
  8
0
  6
Continuous
 62
   124
100
AcDbLine
 10
-954.7599089162513
 20
-1041.861985950032
 30
0.0
 11
-951.2958073011137
 21
-1041.861985950032
 31
0.0
  0
LINE
  5
156
330
77
100
AcDbEntity
  8
0
  6
Continuous
 62
   124
100
AcDbLine
 10
-954.7599089162513
 20
-1038.397884334895
 30
0.0
 11
-954.7599089162513
 21
-1041.861985950032
 31
0.0
  0
LINE
  5
157
330
77
100
AcDbEntity
  8
0
  6
Continuous
 62
   124
100
AcDbLine
 10
-951.2958073011137
 20
-1041.861985950032
 30
0.0
 11
-954.7599089162513
 21
-1038.397884334895
 31
0.0
  0
LINE
  5
158
330
77
100
AcDbEntity
  8
0
  6
Continuous
 62
     1
100
AcDbLine
 10
-950.9297818973292
 20
-1043.495960546248
 30
0.0
 11
-946.7370292629746
 21
-1043.495960546248
 31
0.0
  0
LINE
  5
159
330
77
100
AcDbEntity
  8
0
  6
Continuous
 62
     1
100
AcDbLine
 10
-917.8938833699798
 20
-1044.995960546248
 30
0.0
 11
-917.8938833699798
 21
-1043.495960546248
 31
0.0
  0
LINE
  5
15A
330
77
100
AcDbEntity
  8
0
  6
Continuous
 62
     1
100
AcDbLine
 10
-953.8938835124669
 20
-1044.995960546248
 30
0.0
 11
-917.8938833699798
 21
-1044.995960546248
 31
0.0
  0
LINE
  5
15B
330
77
100
AcDbEntity
  8
0
  6
Continuous
 62
     1
100
AcDbLine
 10
-946.7370292629746
 20
-1043.495960546248
 30
0.0
 11
-917.8938833699798
 21
-1043.495960546248
 31
0.0
  0
LINE
  5
15C
330
77
100
AcDbEntity
  8
0
  6
Continuous
 62
     1
100
AcDbLine
 10
-948.1512428253477
 20
-1042.910174108621
 30
0.0
 11
-955.8080970748401
 21
-1035.253319859129
 31
0.0
  0
ARC
  5
15D
330
77
100
AcDbEntity
  8
0
  6
Continuous
 62
     1
100
AcDbCircle
 10
-946.7370292700136
 20
-1041.495960544005
 30
0.0
 40
2.000000002243397
100
AcDbArc
 50
234.6512308968068
 51
270.0000002016535
  0
ARC
  5
15E
330
77
100
AcDbEntity
  8
0
  6
Continuous
 62
     1
100
AcDbCircle
 10
-954.3938835102242
 20
-1033.839106303794
 30
0.0
 40
2.000000002242814
100
AcDbArc
 50
179.9999997983726
 51
215.3487691033146
  0
ARC
  5
15F
330
77
100
AcDbEntity
  8
0
  6
Continuous
 62
     1
100
AcDbCircle
 10
-954.3938835124669
 20
-1041.495960546248
 30
0.0
 40
2.0
100
AcDbArc
 50
180.0
 51
270.0
  0
ARC
  5
160
330
77
100
AcDbEntity
  8
0
  6
Continuous
 62
     1
100
AcDbCircle
 10
-953.8938835124669
 20
-1040.995960546248
 30
0.0
 40
4.0
100
AcDbArc
 50
180.0
 51
270.0
  0
SPLINE
  5
161
330
77
100
AcDbEntity
  8
0
  6
Continuous
 62
     1
100
AcDbSpline
210
0.0
220
0.0
230
1.0
 70
     8
 71
     3
 72
    15
 73
    11
 74
     9
 42
0.0000000001
 43
0.0000000001
 44
0.00000001
 40
0.0
 40
0.0
 40
0.0
 40
0.0
 40
0.0956133195104055
 40
0.1873449414357925
 40
0.2258730890550234
 40
0.2733172173727862
 40
0.2888507394361599
 40
0.3078540021380446
 40
0.3200990396342225
 40
0.3368629030055174
 40
0.3368629030055174
 40
0.3368629030055174
 40
0.3368629030055174
 10
-956.0251743776795
 20
-1034.996210497343
 30
0.0
 10
-956.0063715186739
 20
-1035.021951673733
 30
0.0
 10
-955.9695291567803
 20
-1035.072388989453
 30
0.0
 10
-955.9214787037756
 20
-1035.130412354644
 30
0.0
 10
-955.8824112211241
 20
-1035.174936934096
 30
0.0
 10
-955.8595591898369
 20
-1035.199894663306
 30
0.0
 10
-955.840810232114
 20
-1035.219775409071
 30
0.0
 10
-955.8300148628591
 20
-1035.23102877564
 30
0.0
 10
-955.8188529082221
 20
-1035.242498130841
 30
0.0
 10
-955.8120363021133
 20
-1035.249356498439
 30
0.0
 10
-955.8080970748401
 20
-1035.253319859129
 30
0.0
 11
-956.0251743776795
 21
-1034.996210497343
 31
0.0
 11
-955.9679812951679
 21
-1035.072832022913
 31
0.0
 11
-955.909701066872
 21
-1035.143670610214
 31
0.0
 11
-955.8842801224724
 21
-1035.172622186074
 31
0.0
 11
-955.8522475909998
 21
-1035.207620218009
 31
0.0
 11
-955.8415893604354
 21
-1035.218920325483
 31
0.0
 11
-955.8284354361444
 21
-1035.23263521772
 31
0.0
 11
-955.8198905235557
 21
-1035.241405931039
 31
0.0
 11
-955.8080970748401
 21
-1035.253319859129
 31
0.0
  0
SPLINE
  5
162
330
77
100
AcDbEntity
  8
0
  6
Continuous
 62
   124
100
AcDbSpline
210
0.0
220
0.0
230
1.0
 70
     8
 71
     3
 72
    11
 73
     7
 74
     5
 42
0.0000000001
 43
0.0000000001
 44
0.00000001
 40
0.0
 40
0.0
 40
0.0
 40
0.0
 40
0.9495231966957567
 40
1.830155015757061
 40
2.632459529800518
 40
3.381201710964171
 40
3.381201710964171
 40
3.381201710964171
 40
3.381201710964171
 10
-954.7599089162513
 20
-1038.397884334895
 30
0.0
 10
-954.7884004533332
 20
-1038.082321779821
 30
0.0
 10
-954.8433163623694
 20
-1037.474091886161
 30
0.0
 10
-955.023568071228
 20
-1036.614850728444
 30
0.0
 10
-955.312603545811
 20
-1035.844712109729
 30
0.0
 10
-955.6467792645446
 20
-1035.445859412732
 30
0.0
 10
-955.8080970748401
 20
-1035.253319859129
 30
0.0
 11
-954.7599089162513
 21
-1038.397884334895
 31
0.0
 11
-954.8643334272191
 21
-1037.454120687273
 31
0.0
 11
-955.0521514347805
 21
-1036.593750536246
 31
0.0
 11
-955.3590551305929
 21
-1035.852466073471
 31
0.0
 11
-955.8080970748401
 21
-1035.253319859129
 31
0.0
  0
SPLINE
  5
163
330
77
100
AcDbEntity
  8
0
  6
Continuous
 62
   124
100
AcDbSpline
210
0.0
220
0.0
230
1.0
 70
     8
 71
     3
 72
    13
 73
     9
 74
     7
 42
0.0000000001
 43
0.0000000001
 44
0.00000001
 40
0.0
 40
0.0
 40
0.0
 40
0.0
 40
0.1005090588357524
 40
0.2768050442860422
 40
0.5387855461574512
 40
0.8777245341097537
 40
1.277864225729123
 40
1.719265842896082
 40
1.719265842896082
 40
1.719265842896082
 40
1.719265842896082
 10
-956.3938835124669
 20
-1041.495960546248
 30
0.0
 10
-956.3784111196117
 20
-1041.526709707507
 30
0.0
 10
-956.3357996730502
 20
-1041.611393844863
 30
0.0
 10
-956.1529982297361
 20
-1041.673462996467
 30
0.0
 10
-955.9103187103894
 20
-1041.74553278107
 30
0.0
 10
-955.5777964960943
 20
-1041.799116226034
 30
0.0
 10
-955.1874193530184
 20
-1041.842139154854
 30
0.0
 10
-954.9069955826396
 20
-1041.855157581202
 30
0.0
 10
-954.7599089162513
 20
-1041.861985950032
 30
0.0
 11
-956.3938835124669
 21
-1041.495960546248
 31
0.0
 11
-956.3407021588181
 21
-1041.581247207175
 31
0.0
 11
-956.1839873108315
 21
-1041.661998249933
 31
0.0
 11
-955.9320723196761
 21
-1041.733919182852
 31
0.0
 11
-955.5983551213864
 21
-1041.793185270286
 31
0.0
 11
-955.2005824925028
 21
-1041.836644544559
 31
0.0
 11
-954.7599089162513
 21
-1041.861985950032
 31
0.0
  0
SPLINE
  5
164
330
77
100
AcDbEntity
  8
0
  6
Continuous
 62
   124
100
AcDbSpline
210
0.0
220
0.0
230
1.0
 70
     8
 71
     3
 72
    13
 73
     9
 74
     7
 42
0.0000000001
 43
0.0000000001
 44
0.00000001
 40
0.0
 40
0.0
 40
0.0
 40
0.0
 40
0.1005090588362585
 40
0.2768050442864474
 40
0.5387855461578251
 40
0.8777245341104833
 40
1.277864225729803
 40
1.719265842896669
 40
1.719265842896669
 40
1.719265842896669
 40
1.719265842896669
 10
-954.3938835124669
 20
-1043.495960546248
 30
0.0
 10
-954.4246326737258
 20
-1043.480488153393
 30
0.0
 10
-954.5093168110818
 20
-1043.437876706832
 30
0.0
 10
-954.5713859626862
 20
-1043.255075263517
 30
0.0
 10
-954.643455747289
 20
-1043.01239574417
 30
0.0
 10
-954.6970391922534
 20
-1042.679873529875
 30
0.0
 10
-954.740062121073
 20
-1042.289496386799
 30
0.0
 10
-954.7530805474204
 20
-1042.00907261642
 30
0.0
 10
-954.7599089162513
 20
-1041.861985950032
 30
0.0
 11
-954.3938835124669
 21
-1043.495960546248
 31
0.0
 11
-954.4791701733947
 21
-1043.442779192599
 31
0.0
 11
-954.5599212161522
 21
-1043.286064344612
 31
0.0
 11
-954.6318421490712
 21
-1043.034149353457
 31
0.0
 11
-954.6911082365058
 21
-1042.700432155167
 31
0.0
 11
-954.734567510778
 21
-1042.302659526283
 31
0.0
 11
-954.7599089162513
 21
-1041.861985950032
 31
0.0
  0
SPLINE
  5
165
330
77
100
AcDbEntity
  8
0
  6
Continuous
 62
   124
100
AcDbSpline
210
0.0
220
0.0
230
1.0
 70
     8
 71
     3
 72
    13
 73
     9
 74
     7
 42
0.0000000001
 43
0.0000000001
 44
0.00000001
 40
0.0
 40
0.0
 40
0.0
 40
0.0
 40
0.1005089256427539
 40
0.2768051212411487
 40
0.5387854759928661
 40
0.8777246009255875
 40
1.277864302028253
 40
1.719265941150476
 40
1.719265941150476
 40
1.719265941150476
 40
1.719265941150476
 10
-956.3938835124669
 20
-1038.03185893111
 30
0.0
 10
-956.3784112086146
 20
-1038.062608095893
 30
0.0
 10
-956.3357999388553
 20
-1038.147292378722
 30
0.0
 10
-956.1529982773966
 20
-1038.209361245729
 30
0.0
 10
-955.9103188346271
 20
-1038.281431297913
 30
0.0
 10
-955.57779654753
 20
-1038.335014544919
 30
0.0
 10
-955.1874193815327
 20
-1038.378037628183
 30
0.0
 10
-954.9069955936448
 20
-1038.391055996446
 30
0.0
 10
-954.7599089162513
 20
-1038.397884334895
 30
0.0
 11
-956.3938835124669
 21
-1038.03185893111
 31
0.0
 11
-956.3407024043736
 21
-1038.11714558819
 31
0.0
 11
-956.1839873245814
 21
-1038.197896639874
 31
0.0
 11
-955.9320724926117
 21
-1038.269817594467
 31
0.0
 11
-955.5983551507289
 21
-1038.329083656736
 31
0.0
 11
-955.2005825171191
 21
-1038.372542975065
 31
0.0
 11
-954.7599089162513
 21
-1038.397884334895
 31
0.0
  0
SPLINE
  5
166
330
77
100
AcDbEntity
  8
0
  6
Continuous
 62
     1
100
AcDbSpline
210
0.0
220
0.0
230
1.0
 70
     8
 71
     3
 72
    15
 73
    11
 74
     9
 42
0.0000000001
 43
0.0000000001
 44
0.00000001
 40
0.0
 40
0.0
 40
0.0
 40
0.0
 40
0.0125725471508947
 40
0.0290093580366964
 40
0.0480131698313239
 40
0.0635471005142177
 40
0.1109903153233783
 40
0.1495179518261232
 40
0.2412495823159669
 40
0.33686291001196
 40
0.33686291001196
 40
0.33686291001196
 40
0.33686291001196
 10
-948.1512428253477
 20
-1042.910174108621
 30
0.0
 10
-948.1482723090132
 20
-1042.91313035712
 30
0.0
 10
-948.1414182665611
 20
-1042.919951478578
 30
0.0
 10
-948.1299596960523
 20
-1042.931125145646
 30
0.0
 10
-948.1176976690747
 20
-1042.942887901215
 30
0.0
 10
-948.0978169331819
 20
-1042.961636898531
 30
0.0
 10
-948.0728594249845
 20
-1042.984488665488
 30
0.0
 10
-948.0283352027408
 20
-1043.023555840615
 30
0.0
 10
-947.9703119614419
 20
-1043.071606184436
 30
0.0
 10
-947.9198746418351
 20
-1043.108448550434
 30
0.0
 10
-947.8941334635595
 20
-1043.127251411463
 30
0.0
 11
-948.1512428253477
 21
-1042.910174108621
 31
0.0
 11
-948.142318282421
 21
-1042.919029698687
 31
0.0
 11
-948.1305578604666
 21
-1042.930512783096
 31
0.0
 11
-948.1168425672786
 21
-1042.943667082602
 31
0.0
 11
-948.1055421564157
 21
-1042.954325587037
 31
0.0
 11
-948.0705447838425
 21
-1042.986357485894
 31
0.0
 11
-948.0415935891233
 21
-1043.011778089719
 31
0.0
 11
-947.9707549955698
 21
-1043.070058323896
 31
0.0
 11
-947.8941334635595
 21
-1043.127251411463
 31
0.0
  0
SPLINE
  5
167
330
77
100
AcDbEntity
  8
0
  6
Continuous
 62
   124
100
AcDbSpline
210
0.0
220
0.0
230
1.0
 70
     8
 71
     3
 72
    11
 73
     7
 74
     5
 42
0.0000000001
 43
0.0000000001
 44
0.00000001
 40
0.0
 40
0.0
 40
0.0
 40
0.0
 40
0.7487421811636991
 40
1.551046695207722
 40
2.431678514267422
 40
3.381201710963869
 40
3.381201710963869
 40
3.381201710963869
 40
3.381201710963869
 10
-948.1512428253477
 20
-1042.910174108621
 30
0.0
 10
-948.3437823789512
 20
-1042.748856298326
 30
0.0
 10
-948.7426350759496
 20
-1042.414680579594
 30
0.0
 10
-949.5127736946627
 20
-1042.125645105008
 30
0.0
 10
-950.3720148523797
 20
-1041.94539339615
 30
0.0
 10
-950.9802447460395
 20
-1041.890477487114
 30
0.0
 10
-951.2958073011137
 20
-1041.861985950032
 30
0.0
 11
-948.1512428253477
 21
-1042.910174108621
 31
0.0
 11
-948.7503890396906
 21
-1042.461132164375
 31
0.0
 11
-949.4916735024653
 21
-1042.154228468561
 31
0.0
 11
-950.3520436534911
 21
-1041.966410461
 31
0.0
 11
-951.2958073011137
 21
-1041.861985950032
 31
0.0
  0
SPLINE
  5
168
330
77
100
AcDbEntity
  8
0
  6
Continuous
 62
   124
100
AcDbSpline
210
0.0
220
0.0
230
1.0
 70
     8
 71
     3
 72
    13
 73
     9
 74
     7
 42
0.0000000001
 43
0.0000000001
 44
0.00000001
 40
0.0
 40
0.0
 40
0.0
 40
0.0
 40
0.4414016391250439
 40
0.8415413402245759
 40
1.180480465157255
 40
1.442460819910519
 40
1.618757015508875
 40
1.719265941149662
 40
1.719265941149662
 40
1.719265941149662
 40
1.719265941149662
 10
-951.2958073011137
 20
-1041.861985950032
 30
0.0
 10
-951.2889789626661
 20
-1042.009072627427
 30
0.0
 10
-951.2759605944061
 20
-1042.289496415315
 30
0.0
 10
-951.2329375111348
 20
-1042.679873581311
 30
0.0
 10
-951.1793542641321
 20
-1043.012395868408
 30
0.0
 10
-951.1072842119529
 20
-1043.25507531118
 30
0.0
 10
-951.0452153449372
 20
-1043.437876972634
 30
0.0
 10
-950.9605310621114
 20
-1043.480488242395
 30
0.0
 10
-950.9297818973292
 20
-1043.495960546248
 30
0.0
 11
-951.2958073011137
 21
-1041.861985950032
 31
0.0
 11
-951.2704659412857
 21
-1042.302659550903
 31
0.0
 11
-951.2270066229535
 21
-1042.700432184509
 31
0.0
 11
-951.1677405606869
 21
-1043.034149526392
 31
0.0
 11
-951.0958196060952
 21
-1043.286064358364
 31
0.0
 11
-951.015068554406
 21
-1043.442779438154
 31
0.0
 11
-950.9297818973292
 21
-1043.495960546248
 31
0.0
  0
ENDBLK
  5
79
330
77
100
AcDbEntity
  8
0
100
AcDbBlockEnd
  0
BLOCK
  5
7C
330
7A
100
AcDbEntity
  8
0
100
AcDbBlockBegin
  2
SA_LinksA
 70
     0
 10
-938.0000000000008
 20
-974.9999999999997
 30
0.0
  3
SA_LinksA
  1

  0
INSERT
  5
7B
330
7A
100
AcDbEntity
  8
0
100
AcDbBlockReference
  2
21202-EU-001__3
 10
-957.893883512467
 20
-1044.995960546248
 30
0.0
  0
MTEXT
  5
169
330
7A
100
AcDbEntity
  8
1
 62
     1
100
AcDbMText
 10
-937.8938864315003
 20
-899.9959574847293
 30
0.0
 40
3.5
 41
0.0
 71
     8
 72
     1
  1
 
  7
CONVERTER_11
 73
     1
 44
1.02040816326531
  0
ENDBLK
  5
7D
330
7A
100
AcDbEntity
  8
0
100
AcDbBlockEnd
  0
BLOCK
  5
7F
330
7E
100
AcDbEntity
  8
0
100
AcDbBlockBegin
  2
21202-EU-001__4
 70
     0
 10
-1093.990736340721
 20
-1044.995960546248
 30
0.0
  3
21202-EU-001__4
  1

  0
LINE
  5
16A
330
7E
100
AcDbEntity
  8
1
  6
DOT_CENTER
 62
     3
100
AcDbLine
 10
-1010.990736340721
 20
-959.1459604037609
 30
0.0
 11
-1010.990736340721
 21
-962.8459604037607
 31
0.0
  0
LINE
  5
16B
330
7E
100
AcDbEntity
  8
1
  6
DOT_CENTER
 62
     3
100
AcDbLine
 10
-1009.140736340721
 20
-960.9959604037608
 30
0.0
 11
-1012.840736340721
 21
-960.9959604037608
 31
0.0
  0
LINE
  5
16C
330
7E
100
AcDbEntity
  8
1
  6
DOT_CENTER
 62
     3
100
AcDbLine
 10
-1064.990736340721
 20
-959.1459604037609
 30
0.0
 11
-1064.990736340721
 21
-962.8459604037607
 31
0.0
  0
LINE
  5
16D
330
7E
100
AcDbEntity
  8
1
  6
DOT_CENTER
 62
     3
100
AcDbLine
 10
-1063.140736340721
 20
-960.9959604037608
 30
0.0
 11
-1066.840736340721
 21
-960.9959604037608
 31
0.0
  0
LINE
  5
16E
330
7E
100
AcDbEntity
  8
1
  6
DOT_CENTER
 62
     3
100
AcDbLine
 10
-1037.990736340721
 20
-984.4959605462479
 30
0.0
 11
-1037.990736340722
 21
-1047.912240774101
 31
0.0
  0
LINE
  5
16F
330
7E
100
AcDbEntity
  8
1
  6
DOT_CENTER
 62
     3
100
AcDbLine
 10
-1032.490736340721
 20
-989.9959605462479
 30
0.0
 11
-1043.490736340721
 21
-989.9959605462479
 31
0.0
  0
LINE
  5
170
330
7E
100
AcDbEntity
  8
1
  6
DOT_CENTER
 62
     3
100
AcDbLine
 10
-1037.990736340721
 20
-904.4959604037608
 30
0.0
 11
-1037.990736340721
 21
-984.240530994458
 31
0.0
  0
LINE
  5
171
330
7E
100
AcDbEntity
  8
1
  6
DOT_CENTER
 62
     3
100
AcDbLine
 10
-981.490736340721
 20
-960.9959604037608
 30
0.0
 11
-1094.490736340721
 21
-960.9959604037608
 31
0.0
  0
LINE
  5
172
330
7E
100
AcDbEntity
  8
0
  6
Continuous
 62
     1
100
AcDbLine
 10
-1010.090056960979
 20
-1043.495960546248
 30
0.0
 11
-1013.953760266135
 21
-1043.495960546248
 31
0.0
  0
LINE
  5
173
330
7E
100
AcDbEntity
  8
0
  6
Continuous
 62
     1
100
AcDbLine
 10
-981.990736340721
 20
-960.9959604037608
 30
0.0
 11
-981.990736340721
 21
-1043.495960546248
 31
0.0
  0
LINE
  5
174
330
7E
100
AcDbEntity
  8
0
  6
Continuous
 62
     1
100
AcDbLine
 10
-1093.990736340721
 20
-1043.495960546248
 30
0.0
 11
-1093.990736340721
 21
-960.9959604037607
 31
0.0
  0
LINE
  5
175
330
7E
100
AcDbEntity
  8
0
  6
Continuous
 62
     1
100
AcDbLine
 10
-1093.990736340721
 20
-1044.995960546248
 30
0.0
 11
-1093.990736340721
 21
-1043.495960546248
 31
0.0
  0
LINE
  5
176
330
7E
100
AcDbEntity
  8
0
  6
Continuous
 62
     1
100
AcDbLine
 10
-981.990736340721
 20
-1043.495960546248
 30
0.0
 11
-1002.027712415307
 21
-1043.495960546248
 31
0.0
  0
LINE
  5
177
330
7E
100
AcDbEntity
  8
0
  6
Continuous
 62
     1
100
AcDbLine
 10
-1062.027712415307
 20
-1043.495960546248
 30
0.0
 11
-1065.891415720463
 21
-1043.495960546248
 31
0.0
  0
LINE
  5
178
330
7E
100
AcDbEntity
  8
0
  6
Continuous
 62
     1
100
AcDbLine
 10
-1013.953760266135
 20
-1043.495960546248
 30
0.0
 11
-1062.027712415307
 21
-1043.495960546248
 31
0.0
  0
LINE
  5
179
330
7E
100
AcDbEntity
  8
0
  6
Continuous
 62
     1
100
AcDbLine
 10
-1002.027712415307
 20
-1043.495960546248
 30
0.0
 11
-1005.891415720463
 21
-1043.495960546248
 31
0.0
  0
LINE
  5
17A
330
7E
100
AcDbEntity
  8
0
  6
Continuous
 62
     1
100
AcDbLine
 10
-1005.891415720463
 20
-1043.495960546248
 30
0.0
 11
-1010.090056960979
 21
-1043.495960546248
 31
0.0
  0
LINE
  5
17B
330
7E
100
AcDbEntity
  8
0
  6
Continuous
 62
     1
100
AcDbLine
 10
-1070.090056960979
 20
-1043.495960546248
 30
0.0
 11
-1073.953760266135
 21
-1043.495960546248
 31
0.0
  0
LINE
  5
17C
330
7E
100
AcDbEntity
  8
0
  6
Continuous
 62
     1
100
AcDbLine
 10
-1073.953760266135
 20
-1043.495960546248
 30
0.0
 11
-1093.990736340721
 21
-1043.495960546248
 31
0.0
  0
LINE
  5
17D
330
7E
100
AcDbEntity
  8
0
  6
Continuous
 62
     1
100
AcDbLine
 10
-981.990736340721
 20
-1044.995960546248
 30
0.0
 11
-981.990736340721
 21
-1043.495960546248
 31
0.0
  0
LINE
  5
17E
330
7E
100
AcDbEntity
  8
0
  6
Continuous
 62
     1
100
AcDbLine
 10
-1065.891415720463
 20
-1043.495960546248
 30
0.0
 11
-1070.090056960979
 21
-1043.495960546248
 31
0.0
  0
LINE
  5
17F
330
7E
100
AcDbEntity
  8
0
  6
Continuous
 62
     1
100
AcDbLine
 10
-981.990736340721
 20
-1044.995960546248
 30
0.0
 11
-1093.990736340721
 21
-1044.995960546248
 31
0.0
  0
ARC
  5
180
330
7E
100
AcDbEntity
  8
0
  6
Continuous
 62
     1
100
AcDbCircle
 10
-1037.990736340721
 20
-960.9959604037608
 30
0.0
 40
56.0
100
AcDbArc
 50
0.0
 51
90.0
  0
ARC
  5
181
330
7E
100
AcDbEntity
  8
0
  6
Continuous
 62
     1
100
AcDbCircle
 10
-1037.990736340721
 20
-960.9959604037608
 30
0.0
 40
56.0
100
AcDbArc
 50
90.0
 51
179.9999999999999
  0
CIRCLE
  5
182
330
7E
100
AcDbEntity
  8
0
  6
Continuous
 62
     1
100
AcDbCircle
 10
-1010.990736340721
 20
-960.9959604037608
 30
0.0
 40
1.350000000000023
  0
CIRCLE
  5
183
330
7E
100
AcDbEntity
  8
0
  6
Continuous
 62
     1
100
AcDbCircle
 10
-1037.990736340721
 20
-989.9959605462479
 30
0.0
 40
5.0
  0
CIRCLE
  5
184
330
7E
100
AcDbEntity
  8
0
  6
Continuous
 62
     1
100
AcDbCircle
 10
-1064.990736340721
 20
-960.9959604037608
 30
0.0
 40
1.349999999999909
  0
ENDBLK
  5
80
330
7E
100
AcDbEntity
  8
0
100
AcDbBlockEnd
  0
BLOCK
  5
83
330
81
100
AcDbEntity
  8
0
100
AcDbBlockBegin
  2
VordansA
 70
     0
 10
-1038.0
 20
-974.9999999999998
 30
0.0
  3
VordansA
  1

  0
INSERT
  5
82
330
81
100
AcDbEntity
  8
0
100
AcDbBlockReference
  2
21202-EU-001__4
 10
-1093.990736340721
 20
-1044.995960546248
 30
0.0
  0
MTEXT
  5
185
330
81
100
AcDbEntity
  8
1
 62
     1
100
AcDbMText
 10
-1037.99073634072
 20
-899.9959574847293
 30
0.0
 40
3.5
 41
0.0
 71
     8
 72
     1
  1
 
  7
CONVERTER_11
 73
     1
 44
1.02040816326531
  0
DIMENSION
  5
190
330
81
100
AcDbEntity
  8
1
100
AcDbDimension
  2
*D14
 10
-1093.990736340721
 20
-1054.995960546248
 30
0.0
 11
-1037.990736340722
 21
-1051.245960546248
 31
0.0
 70
    32
  1
<>
 71
     5
 42
-1.0
 53
0.00013888888889
  3
ME10_DIM_13
100
AcDbAlignedDimension
 13
-981.990736340721
 23
-960.9959604037608
 33
0.0
 14
-1093.990736340721
 24
-960.9959604037607
 34
0.0
100
AcDbRotatedDimension
  0
DIMENSION
  5
19B
330
81
100
AcDbEntity
  8
1
100
AcDbDimension
  2
*D15
 10
-1103.990736340721
 20
-1044.995960546248
 30
0.0
 11
-1107.740736340721
 21
-1017.83944104549
 31
0.0
 70
    32
  1
<>
 71
     5
 42
-1.0
 53
90.0
  3
ME10_DIM_14
100
AcDbAlignedDimension
 13
-1043.490736340721
 23
-989.9959605462479
 33
0.0
 14
-1093.990736340721
 24
-1044.995960546248
 34
0.0
 50
90.0
100
AcDbRotatedDimension
  0
DIMENSION
  5
1A6
330
81
100
AcDbEntity
  8
1
100
AcDbDimension
  2
*D16
 10
-1113.990736340721
 20
-1044.995960546248
 30
0.0
 11
-1117.740736340721
 21
-1006.245960475004
 31
0.0
 70
    32
  1
<>
 71
     5
 42
-1.0
 53
90.0
  3
ME10_DIM_15
100
AcDbAlignedDimension
 13
-1094.490736340721
 23
-960.9959604037608
 33
0.0
 14
-1093.990736340721
 24
-1044.995960546248
 34
0.0
 50
90.0
100
AcDbRotatedDimension
  0
INSERT
  5
1B0
330
81
100
AcDbEntity
  8
1
100
AcDbBlockReference
  2
*D17
 10
0.0
 20
0.0
 30
0.0
  0
ENDBLK
  5
84
330
81
100
AcDbEntity
  8
0
100
AcDbBlockEnd
  0
BLOCK
  5
86
330
85
100
AcDbEntity
  8
0
100
AcDbBlockBegin
  2
a3kl
 70
     0
 10
-1175.192309855351
 20
-1153.995960057375
 30
0.0
  3
a3kl
  1

  0
LINE
  5
1B1
330
85
100
AcDbEntity
  8
0
  6
Continuous
 62
     3
100
AcDbLine
 10
-970.1923098553503
 20
-1148.995960057375
 30
0.0
 11
-944.1923098553503
 21
-1148.995960057375
 31
0.0
  0
LINE
  5
1B2
330
85
100
AcDbEntity
  8
1
  6
Continuous
 62
     3
100
AcDbLine
 10
-970.1923098553503
 20
-1148.995960057375
 30
0.0
 11
-970.1923098553503
 21
-1153.995960057375
 31
0.0
  0
LINE
  5
1B3
330
85
100
AcDbEntity
  8
0
  6
Continuous
 62
     3
100
AcDbLine
 10
-1021.39226085535
 20
-1148.995960057375
 30
0.0
 11
-970.1923098553503
 21
-1148.995960057375
 31
0.0
  0
LINE
  5
1B4
330
85
100
AcDbEntity
  8
1
  6
Continuous
 62
     3
100
AcDbLine
 10
-1021.39226085535
 20
-1148.995960057375
 30
0.0
 11
-1021.39226085535
 21
-1153.995960057375
 31
0.0
  0
LINE
  5
1B5
330
85
100
AcDbEntity
  8
0
  6
Continuous
 62
     3
100
AcDbLine
 10
-1032.69230985535
 20
-1148.995960057375
 30
0.0
 11
-1021.39226085535
 21
-1148.995960057375
 31
0.0
  0
LINE
  5
1B6
330
85
100
AcDbEntity
  8
0
  6
Continuous
 62
     3
100
AcDbLine
 10
-1175.192309855351
 20
-1106.195911057375
 30
0.0
 11
-1170.19230985535
 21
-1106.195911057375
 31
0.0
  0
LINE
  5
1B7
330
85
100
AcDbEntity
  8
0
  6
Continuous
 62
     3
100
AcDbLine
 10
-1170.19230985535
 20
-1058.395984057375
 30
0.0
 11
-1175.192309855351
 21
-1058.395984057375
 31
0.0
  0
LINE
  5
1B8
330
85
100
AcDbEntity
  8
0
  6
Continuous
 62
     3
100
AcDbLine
 10
-1175.192309855351
 20
-1010.595936057375
 30
0.0
 11
-1170.19230985535
 21
-1010.595936057375
 31
0.0
  0
LINE
  5
1B9
330
85
100
AcDbEntity
  8
0
  6
Continuous
 62
     3
100
AcDbLine
 10
-1170.19230985535
 20
-962.7958870573752
 30
0.0
 11
-1175.192309855351
 21
-962.7958870573752
 31
0.0
  0
LINE
  5
1BA
330
85
100
AcDbEntity
  8
0
  6
Continuous
 62
     3
100
AcDbLine
 10
-1175.192309855351
 20
-914.9959600573752
 30
0.0
 11
-1170.19230985535
 21
-914.9959600573752
 31
0.0
  0
LINE
  5
1BB
330
85
100
AcDbEntity
  8
0
  6
Continuous
 62
     3
100
AcDbLine
 10
-1123.89226085535
 20
-867.9959600573752
 30
0.0
 11
-1123.89226085535
 21
-872.9959600573752
 31
0.0
  0
LINE
  5
1BC
330
85
100
AcDbEntity
  8
0
  6
Continuous
 62
     3
100
AcDbLine
 10
-1072.692309855351
 20
-872.9959600573752
 30
0.0
 11
-1072.692309855351
 21
-867.9959600573752
 31
0.0
  0
LINE
  5
1BD
330
85
100
AcDbEntity
  8
0
  6
Continuous
 62
     3
100
AcDbLine
 10
-1021.39226085535
 20
-867.9959600573752
 30
0.0
 11
-1021.39226085535
 21
-872.9959600573752
 31
0.0
  0
LINE
  5
1BE
330
85
100
AcDbEntity
  8
0
  6
Continuous
 62
     3
100
AcDbLine
 10
-970.1923098553503
 20
-872.9959600573752
 30
0.0
 11
-970.1923098553503
 21
-867.9959600573752
 31
0.0
  0
LINE
  5
1BF
330
85
100
AcDbEntity
  8
0
  6
Continuous
 62
     3
100
AcDbLine
 10
-918.8922608553503
 20
-867.9959600573752
 30
0.0
 11
-918.8922608553503
 21
-872.9959600573752
 31
0.0
  0
LINE
  5
1C0
330
85
100
AcDbEntity
  8
0
  6
Continuous
 62
     3
100
AcDbLine
 10
-867.6923098553503
 20
-872.9959600573752
 30
0.0
 11
-867.6923098553503
 21
-867.9959600573752
 31
0.0
  0
LINE
  5
1C1
330
85
100
AcDbEntity
  8
0
  6
Continuous
 62
     3
100
AcDbLine
 10
-816.4923588553502
 20
-867.9959600573752
 30
0.0
 11
-816.4923588553502
 21
-872.9959600573752
 31
0.0
  0
LINE
  5
1C2
330
85
100
AcDbEntity
  8
0
  6
Continuous
 62
     3
100
AcDbLine
 10
-770.1923098553503
 20
-914.9959600573752
 30
0.0
 11
-765.1923098553503
 21
-914.9959600573752
 31
0.0
  0
LINE
  5
1C3
330
85
100
AcDbEntity
  8
0
  6
Continuous
 62
     3
100
AcDbLine
 10
-770.1923098553503
 20
-962.7958870573752
 30
0.0
 11
-765.1923098553503
 21
-962.7958870573752
 31
0.0
  0
LINE
  5
1C4
330
85
100
AcDbEntity
  8
0
  6
Continuous
 62
     3
100
AcDbLine
 10
-770.1923098553503
 20
-1010.595936057375
 30
0.0
 11
-765.1923098553503
 21
-1010.595936057375
 31
0.0
  0
LINE
  5
1C5
330
85
100
AcDbEntity
  8
0
  6
Continuous
 62
     3
100
AcDbLine
 10
-770.1923098553503
 20
-1058.395984057375
 30
0.0
 11
-765.1923098553503
 21
-1058.395984057375
 31
0.0
  0
LINE
  5
1C6
330
85
100
AcDbEntity
  8
0
  6
Continuous
 62
     3
100
AcDbLine
 10
-770.1923098553503
 20
-1110.995960057375
 30
0.0
 11
-770.1923098553503
 21
-872.9959600573752
 31
0.0
  0
LINE
  5
1C7
330
85
100
AcDbEntity
  8
0
  6
Continuous
 62
     3
100
AcDbLine
 10
-770.1923098553503
 20
-872.9959600573752
 30
0.0
 11
-1170.19230985535
 21
-872.9959600573752
 31
0.0
  0
LINE
  5
1C8
330
85
100
AcDbEntity
  8
0
  6
Continuous
 62
     3
100
AcDbLine
 10
-1170.19230985535
 20
-872.9959600573752
 30
0.0
 11
-1170.19230985535
 21
-1132.495960057375
 31
0.0
  0
LINE
  5
1C9
330
85
100
AcDbEntity
  8
0
  6
Continuous
 62
     3
100
AcDbLine
 10
-1160.192309855351
 20
-1132.495960057375
 30
0.0
 11
-1160.192309855351
 21
-872.9959600573752
 31
0.0
  0
LINE
  5
1CA
330
85
100
AcDbEntity
  8
0
  6
Continuous
 62
     2
100
AcDbLine
 10
-1175.192309855351
 20
-1153.995960057375
 30
0.0
 11
-1175.192309855351
 21
-867.9959600573752
 31
0.0
  0
LINE
  5
1CB
330
85
100
AcDbEntity
  8
0
  6
Continuous
 62
     2
100
AcDbLine
 10
-1175.192309855351
 20
-867.9959600573752
 30
0.0
 11
-1160.192309855351
 21
-867.9959600573752
 31
0.0
  0
LINE
  5
1CC
330
85
100
AcDbEntity
  8
1
  6
Continuous
 62
     2
100
AcDbLine
 10
-1175.192309855351
 20
-1153.995960057375
 30
0.0
 11
-944.1923098553503
 21
-1153.995960057375
 31
0.0
  0
LINE
  5
1CD
330
85
100
AcDbEntity
  8
0
  6
Continuous
 62
     2
100
AcDbLine
 10
-1160.192309855351
 20
-867.9959600573752
 30
0.0
 11
-765.1923098553503
 21
-867.9959600573752
 31
0.0
  0
LINE
  5
1CE
330
85
100
AcDbEntity
  8
0
  6
Continuous
 62
     2
100
AcDbLine
 10
-765.1923098553503
 20
-867.9959600573752
 30
0.0
 11
-765.1923098553503
 21
-1153.995960057375
 31
0.0
  0
LINE
  5
1CF
330
85
100
AcDbEntity
  8
0
  6
Continuous
 62
     1
100
AcDbLine
 10
-944.1923098553503
 20
-1153.995960057375
 30
0.0
 11
-944.1923098553503
 21
-1110.995960057375
 31
0.0
  0
LINE
  5
1D0
330
85
100
AcDbEntity
  8
0
  6
Continuous
 62
     3
100
AcDbLine
 10
-938.6923098553503
 20
-1153.995960057375
 30
0.0
 11
-938.6923098553503
 21
-1110.995960057375
 31
0.0
  0
LINE
  5
1D1
330
85
100
AcDbEntity
  8
0
  6
Continuous
 62
     1
100
AcDbLine
 10
-897.1923098553503
 20
-1148.129293392125
 30
0.0
 11
-897.1923098553503
 21
-1153.995960057375
 31
0.0
  0
LINE
  5
1D2
330
85
100
AcDbEntity
  8
0
  6
Continuous
 62
     1
100
AcDbLine
 10
-862.1923098553503
 20
-1140.995960057375
 30
0.0
 11
-879.1923098553503
 21
-1140.995960057375
 31
0.0
  0
LINE
  5
1D3
330
85
100
AcDbEntity
  8
0
  6
Continuous
 62
     1
100
AcDbLine
 10
-879.1923098553503
 20
-1140.995960057375
 30
0.0
 11
-897.1923098553503
 21
-1140.995960057375
 31
0.0
  0
LINE
  5
1D4
330
85
100
AcDbEntity
  8
0
  6
Continuous
 62
     1
100
AcDbLine
 10
-847.1923098553503
 20
-1134.162626767375
 30
0.0
 11
-820.1923098553503
 21
-1134.162626767375
 31
0.0
  0
LINE
  5
1D5
330
85
100
AcDbEntity
  8
0
  6
Continuous
 62
     1
100
AcDbLine
 10
-847.1923098553503
 20
-1127.995960057375
 30
0.0
 11
-765.1923098553503
 21
-1127.995960057375
 31
0.0
  0
LINE
  5
1D6
330
85
100
AcDbEntity
  8
0
  6
Continuous
 62
     1
100
AcDbLine
 10
-847.1923098553503
 20
-1127.995960057375
 30
0.0
 11
-847.1923098553503
 21
-1148.495960057375
 31
0.0
  0
LINE
  5
1D7
330
85
100
AcDbEntity
  8
0
  6
Continuous
 62
     1
100
AcDbLine
 10
-847.1923098553503
 20
-1140.995960057375
 30
0.0
 11
-862.1923098553503
 21
-1140.995960057375
 31
0.0
  0
LINE
  5
1D8
330
85
100
AcDbEntity
  8
0
  6
Continuous
 62
     1
100
AcDbLine
 10
-856.1923098553503
 20
-1127.995960057375
 30
0.0
 11
-897.1923098553503
 21
-1127.995960057375
 31
0.0
  0
LINE
  5
1D9
330
85
100
AcDbEntity
  8
0
  6
Continuous
 62
     7
100
AcDbLine
 10
-891.1323130847602
 20
-1115.125127867032
 30
0.0
 11
-891.1323130847602
 21
-1115.236860905896
 31
0.0
  0
LINE
  5
1DA
330
85
100
AcDbEntity
  8
0
  6
Continuous
 62
     7
100
AcDbLine
 10
-883.0322469087984
 20
-1113.77475294769
 30
0.0
 11
-886.0337008179393
 21
-1113.77475294769
 31
0.0
  0
LINE
  5
1DB
330
85
100
AcDbEntity
  8
0
  6
Continuous
 62
     7
100
AcDbLine
 10
-884.7990964104794
 20
-1115.532375931506
 30
0.0
 11
-882.8971157491223
 21
-1114.212960076255
 31
0.0
  0
LINE
  5
1DC
330
85
100
AcDbEntity
  8
0
  6
Continuous
 62
     7
100
AcDbLine
 10
-882.9548080382983
 20
-1115.532375931506
 30
0.0
 11
-884.7990964104794
 21
-1115.532375931506
 31
0.0
  0
LINE
  5
1DD
330
85
100
AcDbEntity
  8
0
  6
Continuous
 62
     7
100
AcDbLine
 10
-882.8971157491223
 20
-1115.891604982255
 30
0.0
 11
-882.8971157491223
 21
-1115.589922733478
 31
0.0
  0
LINE
  5
1DE
330
85
100
AcDbEntity
  8
0
  6
Continuous
 62
     7
100
AcDbLine
 10
-886.0337008179393
 20
-1115.949151784227
 30
0.0
 11
-882.9548080382983
 21
-1115.949151784227
 31
0.0
  0
LINE
  5
1DF
330
85
100
AcDbEntity
  8
0
  6
Continuous
 62
     7
100
AcDbLine
 10
-886.0913931071154
 20
-1115.482375931506
 30
0.0
 11
-886.0913931071154
 21
-1115.891604982255
 31
0.0
  0
LINE
  5
1E0
330
85
100
AcDbEntity
  8
0
  6
Continuous
 62
     7
100
AcDbLine
 10
-884.1529348360514
 20
-1114.163251378527
 30
0.0
 11
-886.0913931071154
 21
-1115.482375931506
 31
0.0
  0
LINE
  5
1E1
330
85
100
AcDbEntity
  8
0
  6
Continuous
 62
     7
100
AcDbLine
 10
-886.0337008179393
 20
-1114.163251378527
 30
0.0
 11
-884.1529348360514
 21
-1114.163251378527
 31
0.0
  0
LINE
  5
1E2
330
85
100
AcDbEntity
  8
0
  6
Continuous
 62
     7
100
AcDbLine
 10
-886.0913931071154
 20
-1113.832445236865
 30
0.0
 11
-886.0913931071154
 21
-1114.105559089352
 31
0.0
  0
LINE
  5
1E3
330
85
100
AcDbEntity
  8
0
  6
Continuous
 62
     7
100
AcDbLine
 10
-888.9852658424493
 20
-1114.617644979731
 30
0.0
 11
-888.9852658424493
 21
-1114.219594604544
 31
0.0
  0
LINE
  5
1E4
330
85
100
AcDbEntity
  8
0
  6
Continuous
 62
     7
100
AcDbLine
 10
-886.6129515049444
 20
-1114.673988205748
 30
0.0
 11
-888.9275603271644
 21
-1114.673988205748
 31
0.0
  0
LINE
  5
1E5
330
85
100
AcDbEntity
  8
0
  6
Continuous
 62
     7
100
AcDbLine
 10
-886.6129515049444
 20
-1115.017009965998
 30
0.0
 11
-886.6129515049444
 21
-1114.673988205748
 31
0.0
  0
LINE
  5
1E6
330
85
100
AcDbEntity
  8
0
  6
Continuous
 62
     7
100
AcDbLine
 10
-888.9275603271644
 20
-1115.017009965998
 30
0.0
 11
-886.6129515049444
 21
-1115.017009965998
 31
0.0
  0
LINE
  5
1E7
330
85
100
AcDbEntity
  8
0
  6
Continuous
 62
     7
100
AcDbLine
 10
-886.6129515049444
 20
-1115.532375931506
 30
0.0
 11
-888.9275603271644
 21
-1115.532375931506
 31
0.0
  0
LINE
  5
1E8
330
85
100
AcDbEntity
  8
0
  6
Continuous
 62
     7
100
AcDbLine
 10
-886.6129515049444
 20
-1115.948516930976
 30
0.0
 11
-886.6129515049444
 21
-1115.532375931506
 31
0.0
  0
LINE
  5
1E9
330
85
100
AcDbEntity
  8
0
  6
Continuous
 62
     7
100
AcDbLine
 10
-889.6921749373214
 20
-1115.948516930976
 30
0.0
 11
-886.6129515049444
 21
-1115.948516930976
 31
0.0
  0
LINE
  5
1EA
330
85
100
AcDbEntity
  8
0
  6
Continuous
 62
     7
100
AcDbLine
 10
-889.8298587361094
 20
-1113.912436746478
 30
0.0
 11
-889.8298587361094
 21
-1115.810833132188
 31
0.0
  0
LINE
  5
1EB
330
85
100
AcDbEntity
  8
0
  6
Continuous
 62
     7
100
AcDbLine
 10
-886.6129515049444
 20
-1113.77475294769
 30
0.0
 11
-889.6921749373214
 21
-1113.77475294769
 31
0.0
  0
LINE
  5
1EC
330
85
100
AcDbEntity
  8
0
  6
Continuous
 62
     7
100
AcDbLine
 10
-886.6129515049444
 20
-1114.163251378527
 30
0.0
 11
-886.6129515049444
 21
-1113.77475294769
 31
0.0
  0
LINE
  5
1ED
330
85
100
AcDbEntity
  8
0
  6
Continuous
 62
     7
100
AcDbLine
 10
-888.9275603271644
 20
-1114.163251378527
 30
0.0
 11
-886.6129515049444
 21
-1114.163251378527
 31
0.0
  0
LINE
  5
1EE
330
85
100
AcDbEntity
  8
0
  6
Continuous
 62
     7
100
AcDbLine
 10
-891.9454146119543
 20
-1114.723988205747
 30
0.0
 11
-891.9454146119543
 21
-1115.067009965998
 31
0.0
  0
LINE
  5
1EF
330
85
100
AcDbEntity
  8
0
  6
Continuous
 62
     7
100
AcDbLine
 10
-890.3392755655163
 20
-1114.723988205747
 30
0.0
 11
-891.9454146119543
 21
-1114.723988205747
 31
0.0
  0
LINE
  5
1F0
330
85
100
AcDbEntity
  8
0
  6
Continuous
 62
     7
100
AcDbLine
 10
-890.3392755655163
 20
-1115.483685316336
 30
0.0
 11
-890.3392755655163
 21
-1114.723988205747
 31
0.0
  0
LINE
  5
1F1
330
85
100
AcDbEntity
  8
0
  6
Continuous
 62
     7
100
AcDbLine
 10
-890.9476765976244
 20
-1113.77475294769
 30
0.0
 11
-892.9247154297904
 21
-1113.77475294769
 31
0.0
  0
LINE
  5
1F2
330
85
100
AcDbEntity
  8
0
  6
Continuous
 62
     7
100
AcDbLine
 10
-890.3392755655163
 20
-1114.431945097351
 30
0.0
 11
-890.3392755655163
 21
-1114.244226926727
 31
0.0
  0
LINE
  5
1F3
330
85
100
AcDbEntity
  8
0
  6
Continuous
 62
     7
100
AcDbLine
 10
-891.1331463296524
 20
-1114.431945097351
 30
0.0
 11
-890.3392755655163
 21
-1114.431945097351
 31
0.0
  0
LINE
  5
1F4
330
85
100
AcDbEntity
  8
0
  6
Continuous
 62
     7
100
AcDbLine
 10
-891.1331463296524
 20
-1114.351900683301
 30
0.0
 11
-891.1331463296524
 21
-1114.431945097351
 31
0.0
  0
LINE
  5
1F5
330
85
100
AcDbEntity
  8
0
  6
Continuous
 62
     7
100
AcDbLine
 10
-891.9454146119543
 20
-1115.067009965998
 30
0.0
 11
-891.1917776725943
 21
-1115.067009965998
 31
0.0
  0
LINE
  5
1F6
330
85
100
AcDbEntity
  8
0
  6
Continuous
 62
     7
100
AcDbLine
 10
-894.3606344483323
 20
-1113.551258151156
 30
0.0
 11
-894.3606344483323
 21
-1116.176654091908
 31
0.0
  0
LINE
  5
1F7
330
85
100
AcDbEntity
  8
0
  6
Continuous
 62
     7
100
AcDbLine
 10
-878.5094333144303
 20
-1113.414738249994
 30
0.0
 11
-894.2241145471703
 21
-1113.414738249994
 31
0.0
  0
LINE
  5
1F8
330
85
100
AcDbEntity
  8
0
  6
Continuous
 62
     7
100
AcDbLine
 10
-878.3729134132693
 20
-1116.176654091908
 30
0.0
 11
-878.3729134132693
 21
-1113.551258151156
 31
0.0
  0
LINE
  5
1F9
330
85
100
AcDbEntity
  8
0
  6
Continuous
 62
     7
100
AcDbLine
 10
-895.2190750785284
 20
-1116.266988419066
 30
0.0
 11
-895.2190750785284
 21
-1113.460923823997
 31
0.0
  0
LINE
  5
1FA
330
85
100
AcDbEntity
  8
0
  6
Continuous
 62
     7
100
AcDbLine
 10
-878.1237070600733
 20
-1116.737771782934
 30
0.0
 11
-894.6098408015273
 21
-1116.737771782934
 31
0.0
  0
LINE
  5
1FB
330
85
100
AcDbEntity
  8
0
  6
Continuous
 62
     7
100
AcDbLine
 10
-877.5144727830734
 20
-1113.460923823997
 30
0.0
 11
-877.5144727830734
 21
-1116.266988419066
 31
0.0
  0
LINE
  5
1FC
330
85
100
AcDbEntity
  8
0
  6
Continuous
 62
     7
100
AcDbLine
 10
-894.6098408015273
 20
-1112.990140460129
 30
0.0
 11
-878.1237070600733
 21
-1112.990140460129
 31
0.0
  0
LINE
  5
1FD
330
85
100
AcDbEntity
  8
0
  6
Continuous
 62
     7
100
AcDbLine
 10
-878.5094333144303
 20
-1116.313173993069
 30
0.0
 11
-894.2241145471703
 21
-1116.313173993069
 31
0.0
  0
LINE
  5
1FE
330
85
100
AcDbEntity
  8
0
  6
Continuous
 62
     7
100
AcDbLine
 10
-892.5467793538664
 20
-1114.21449463281
 30
0.0
 11
-891.2714517555814
 21
-1114.21449463281
 31
0.0
  0
LINE
  5
1FF
330
85
100
AcDbEntity
  8
0
  6
Continuous
 62
     7
100
AcDbLine
 10
-892.5467793538664
 20
-1115.473804042558
 30
0.0
 11
-891.2684362026394
 21
-1115.473804042558
 31
0.0
  0
LINE
  5
200
330
85
100
AcDbEntity
  8
0
  6
Continuous
 62
     7
100
AcDbLine
 10
-892.6889864820664
 20
-1114.352482632114
 30
0.0
 11
-892.6889864820664
 21
-1115.335816043254
 31
0.0
  0
LINE
  5
201
330
85
100
AcDbEntity
  8
0
  6
Continuous
 62
     7
100
AcDbLine
 10
-893.5331164618983
 20
-1114.244226926727
 30
0.0
 11
-893.5331164618983
 21
-1115.483685316336
 31
0.0
  0
LINE
  5
202
330
85
100
AcDbEntity
  8
0
  6
Continuous
 62
     7
100
AcDbLine
 10
-892.9247154297904
 20
-1115.953159295373
 30
0.0
 11
-890.9476765976244
 21
-1115.953159295373
 31
0.0
  0
LINE
  5
203
330
85
100
AcDbEntity
  8
0
  6
Continuous
 62
     7
100
AcDbLine
 10
-888.9852658424493
 20
-1115.476032705489
 30
0.0
 11
-888.9852658424493
 21
-1115.073353192015
 31
0.0
  0
LINE
  5
204
330
85
100
AcDbEntity
  8
0
  6
Continuous
 62
     7
100
AcDbLine
 10
-881.5727589633163
 20
-1114.617644979731
 30
0.0
 11
-881.5727589633163
 21
-1114.219594604544
 31
0.0
  0
LINE
  5
205
330
85
100
AcDbEntity
  8
0
  6
Continuous
 62
     7
100
AcDbLine
 10
-879.2004446258123
 20
-1114.673988205748
 30
0.0
 11
-881.5150534480314
 21
-1114.673988205748
 31
0.0
  0
LINE
  5
206
330
85
100
AcDbEntity
  8
0
  6
Continuous
 62
     7
100
AcDbLine
 10
-879.2004446258123
 20
-1115.017009965998
 30
0.0
 11
-879.2004446258123
 21
-1114.673988205748
 31
0.0
  0
LINE
  5
207
330
85
100
AcDbEntity
  8
0
  6
Continuous
 62
     7
100
AcDbLine
 10
-881.5150534480314
 20
-1115.017009965998
 30
0.0
 11
-879.2004446258123
 21
-1115.017009965998
 31
0.0
  0
LINE
  5
208
330
85
100
AcDbEntity
  8
0
  6
Continuous
 62
     7
100
AcDbLine
 10
-879.2004446258123
 20
-1115.532375931506
 30
0.0
 11
-881.5150534480314
 21
-1115.532375931506
 31
0.0
  0
LINE
  5
209
330
85
100
AcDbEntity
  8
0
  6
Continuous
 62
     7
100
AcDbLine
 10
-879.2004446258123
 20
-1115.948516930976
 30
0.0
 11
-879.2004446258123
 21
-1115.532375931506
 31
0.0
  0
LINE
  5
20A
330
85
100
AcDbEntity
  8
0
  6
Continuous
 62
     7
100
AcDbLine
 10
-882.2796680581883
 20
-1115.948516930976
 30
0.0
 11
-879.2004446258123
 21
-1115.948516930976
 31
0.0
  0
LINE
  5
20B
330
85
100
AcDbEntity
  8
0
  6
Continuous
 62
     7
100
AcDbLine
 10
-882.4173518569773
 20
-1113.912436746478
 30
0.0
 11
-882.4173518569773
 21
-1115.810833132188
 31
0.0
  0
LINE
  5
20C
330
85
100
AcDbEntity
  8
0
  6
Continuous
 62
     7
100
AcDbLine
 10
-879.2004446258123
 20
-1113.77475294769
 30
0.0
 11
-882.2796680581883
 21
-1113.77475294769
 31
0.0
  0
LINE
  5
20D
330
85
100
AcDbEntity
  8
0
  6
Continuous
 62
     7
100
AcDbLine
 10
-879.2004446258123
 20
-1114.163251378527
 30
0.0
 11
-879.2004446258123
 21
-1113.77475294769
 31
0.0
  0
LINE
  5
20E
330
85
100
AcDbEntity
  8
0
  6
Continuous
 62
     7
100
AcDbLine
 10
-881.5150534480314
 20
-1114.163251378527
 30
0.0
 11
-879.2004446258123
 21
-1114.163251378527
 31
0.0
  0
LINE
  5
20F
330
85
100
AcDbEntity
  8
0
  6
Continuous
 62
     7
100
AcDbLine
 10
-881.5727589633163
 20
-1115.476032705489
 30
0.0
 11
-881.5727589633163
 21
-1115.073353192015
 31
0.0
  0
LINE
  5
210
330
85
100
AcDbEntity
  8
0
  6
Continuous
 62
     7
100
AcDbLine
 10
-882.8971157491223
 20
-1114.212960076255
 30
0.0
 11
-882.8971157491223
 21
-1113.913944522948
 31
0.0
  0
LINE
  5
211
330
85
100
AcDbEntity
  8
0
  6
Continuous
 62
     1
100
AcDbLine
 10
-856.1923098553503
 20
-1115.019621795969
 30
0.0
 11
-856.1923098553503
 21
-1122.995960057375
 31
0.0
  0
LINE
  5
212
330
85
100
AcDbEntity
  8
0
  6
Continuous
 62
     1
100
AcDbLine
 10
-944.1923098553503
 20
-1153.995960057375
 30
0.0
 11
-944.1923098553503
 21
-1110.995960057375
 31
0.0
  0
LINE
  5
213
330
85
100
AcDbEntity
  8
0
  6
Continuous
 62
     1
100
AcDbLine
 10
-820.1923098553503
 20
-1153.995960057375
 30
0.0
 11
-820.1923098553503
 21
-1148.495960057375
 31
0.0
  0
LINE
  5
214
330
85
100
AcDbEntity
  8
0
  6
Continuous
 62
     1
100
AcDbLine
 10
-897.1923098553503
 20
-1110.995960057375
 30
0.0
 11
-897.1923098553503
 21
-1122.995960057375
 31
0.0
  0
LINE
  5
215
330
85
100
AcDbEntity
  8
0
  6
Continuous
 62
     1
100
AcDbLine
 10
-765.1923098553503
 20
-1140.995960057375
 30
0.0
 11
-820.1923098553503
 21
-1140.995960057375
 31
0.0
  0
LINE
  5
216
330
85
100
AcDbEntity
  8
0
  6
Continuous
 62
     1
100
AcDbLine
 10
-856.1923098553503
 20
-1110.995960057375
 30
0.0
 11
-856.1923098553503
 21
-1115.019621795969
 31
0.0
  0
LINE
  5
217
330
85
100
AcDbEntity
  8
0
  6
Continuous
 62
     1
100
AcDbLine
 10
-856.1923098553503
 20
-1127.995960057375
 30
0.0
 11
-847.1923098553503
 21
-1127.995960057375
 31
0.0
  0
LINE
  5
218
330
85
100
AcDbEntity
  8
0
  6
Continuous
 62
     1
100
AcDbLine
 10
-856.1923098553503
 20
-1110.995960057375
 30
0.0
 11
-944.1923098553503
 21
-1110.995960057375
 31
0.0
  0
LINE
  5
219
330
85
100
AcDbEntity
  8
0
  6
Continuous
 62
     3
100
AcDbLine
 10
-897.1923098553503
 20
-1147.495960057375
 30
0.0
 11
-847.1923098553503
 21
-1147.495960057375
 31
0.0
  0
LINE
  5
21A
330
85
100
AcDbEntity
  8
0
  6
Continuous
 62
     1
100
AcDbLine
 10
-897.1923098553503
 20
-1123.995960057375
 30
0.0
 11
-897.1923098553503
 21
-1123.895371178414
 31
0.0
  0
LINE
  5
21B
330
85
100
AcDbEntity
  8
0
  6
Continuous
 62
     1
100
AcDbLine
 10
-856.1923098553503
 20
-1110.995960057375
 30
0.0
 11
-765.1923098553503
 21
-1110.995960057375
 31
0.0
  0
LINE
  5
21C
330
85
100
AcDbEntity
  8
0
  6
Continuous
 62
     2
100
AcDbLine
 10
-765.1923098553503
 20
-1110.995960057375
 30
0.0
 11
-765.1923098553503
 21
-1153.995960057375
 31
0.0
  0
LINE
  5
21D
330
85
100
AcDbEntity
  8
0
  6
Continuous
 62
     1
100
AcDbLine
 10
-820.1923098553503
 20
-1141.029293477375
 30
0.0
 11
-847.1923098553503
 21
-1141.029293477375
 31
0.0
  0
LINE
  5
21E
330
85
100
AcDbEntity
  8
0
  6
Continuous
 62
     3
100
AcDbLine
 10
-862.1923098553503
 20
-1140.995960057375
 30
0.0
 11
-862.1923098553503
 21
-1127.995953824449
 31
0.0
  0
LINE
  5
21F
330
85
100
AcDbEntity
  8
0
  6
Continuous
 62
     3
100
AcDbLine
 10
-879.1923098553503
 20
-1140.995960057375
 30
0.0
 11
-879.1923098553503
 21
-1127.995960057375
 31
0.0
  0
LINE
  5
220
330
85
100
AcDbEntity
  8
0
  6
Continuous
 62
     3
100
AcDbLine
 10
-897.1923098553503
 20
-1132.395960057375
 30
0.0
 11
-847.1923098553503
 21
-1132.395960057375
 31
0.0
  0
LINE
  5
221
330
85
100
AcDbEntity
  8
0
  6
Continuous
 62
     3
100
AcDbLine
 10
-847.1923098553503
 20
-1136.695960057375
 30
0.0
 11
-897.1923098553503
 21
-1136.695960057375
 31
0.0
  0
LINE
  5
222
330
85
100
AcDbEntity
  8
0
  6
Continuous
 62
     3
100
AcDbLine
 10
-911.1923098553503
 20
-1153.995960057375
 30
0.0
 11
-911.1923098553503
 21
-1110.995960057375
 31
0.0
  0
LINE
  5
223
330
85
100
AcDbEntity
  8
0
  6
Continuous
 62
     3
100
AcDbLine
 10
-919.1923098553503
 20
-1153.995960057375
 30
0.0
 11
-919.1923098553503
 21
-1110.995960057375
 31
0.0
  0
LINE
  5
224
330
85
100
AcDbEntity
  8
0
  6
Continuous
 62
     3
100
AcDbLine
 10
-931.1923098553503
 20
-1153.995960057375
 30
0.0
 11
-931.1923098553503
 21
-1110.995960057375
 31
0.0
  0
LINE
  5
225
330
85
100
AcDbEntity
  8
0
  6
Continuous
 62
     3
100
AcDbLine
 10
-944.1923098553503
 20
-1115.295963057375
 30
0.0
 11
-897.1923098553503
 21
-1115.295963057375
 31
0.0
  0
LINE
  5
226
330
85
100
AcDbEntity
  8
0
  6
Continuous
 62
     3
100
AcDbLine
 10
-897.1923098553503
 20
-1119.595966057375
 30
0.0
 11
-944.1923098553503
 21
-1119.595966057375
 31
0.0
  0
LINE
  5
227
330
85
100
AcDbEntity
  8
0
  6
Continuous
 62
     3
100
AcDbLine
 10
-944.1923098553503
 20
-1123.895969057375
 30
0.0
 11
-897.1923098553503
 21
-1123.895969057375
 31
0.0
  0
LINE
  5
228
330
85
100
AcDbEntity
  8
0
  6
Continuous
 62
     3
100
AcDbLine
 10
-897.1923098553503
 20
-1128.195972057375
 30
0.0
 11
-944.1923098553503
 21
-1128.195972057375
 31
0.0
  0
LINE
  5
229
330
85
100
AcDbEntity
  8
0
  6
Continuous
 62
     3
100
AcDbLine
 10
-944.1923098553503
 20
-1132.495960057375
 30
0.0
 11
-897.1923098553503
 21
-1132.495960057375
 31
0.0
  0
LINE
  5
22A
330
85
100
AcDbEntity
  8
0
  6
Continuous
 62
     3
100
AcDbLine
 10
-897.1923098553503
 20
-1136.795963057375
 30
0.0
 11
-944.1923098553503
 21
-1136.795963057375
 31
0.0
  0
LINE
  5
22B
330
85
100
AcDbEntity
  8
0
  6
Continuous
 62
     3
100
AcDbLine
 10
-944.1923098553503
 20
-1141.095966057375
 30
0.0
 11
-897.1923098553503
 21
-1141.095966057375
 31
0.0
  0
LINE
  5
22C
330
85
100
AcDbEntity
  8
0
  6
Continuous
 62
     3
100
AcDbLine
 10
-897.1923098553503
 20
-1145.395969057375
 30
0.0
 11
-944.1923098553503
 21
-1145.395969057375
 31
0.0
  0
LINE
  5
22D
330
85
100
AcDbEntity
  8
0
  6
Continuous
 62
     4
100
AcDbLine
 10
-944.1923098553503
 20
-1149.695957057375
 30
0.0
 11
-897.1923098553503
 21
-1149.695957057375
 31
0.0
  0
LINE
  5
22E
330
85
100
AcDbEntity
  8
0
  6
Continuous
 62
     2
100
AcDbLine
 10
-765.1923098553503
 20
-1153.995960057375
 30
0.0
 11
-944.1923098553503
 21
-1153.995960057375
 31
0.0
  0
LINE
  5
22F
330
85
100
AcDbEntity
  8
0
  6
Continuous
 62
     1
100
AcDbLine
 10
-897.1923098553503
 20
-1122.995960057375
 30
0.0
 11
-856.1923098553503
 21
-1122.995960057375
 31
0.0
  0
LINE
  5
230
330
85
100
AcDbEntity
  8
0
  6
Continuous
 62
     1
100
AcDbLine
 10
-856.1923098553503
 20
-1122.995960057375
 30
0.0
 11
-856.1923098553503
 21
-1127.995960057375
 31
0.0
  0
LINE
  5
231
330
85
100
AcDbEntity
  8
0
  6
Continuous
 62
     1
100
AcDbLine
 10
-897.1923098553503
 20
-1122.995960057375
 30
0.0
 11
-897.1923098553503
 21
-1148.129293392125
 31
0.0
  0
LINE
  5
232
330
85
100
AcDbEntity
  8
1
  6
Continuous
 62
     1
100
AcDbLine
 10
-847.1923098553503
 20
-1148.495960057375
 30
0.0
 11
-820.1923098553503
 21
-1148.495960057375
 31
0.0
  0
LINE
  5
233
330
85
100
AcDbEntity
  8
0
  6
Continuous
 62
     1
100
AcDbLine
 10
-847.1923098553503
 20
-1148.495960057375
 30
0.0
 11
-847.1923098553503
 21
-1153.995960057375
 31
0.0
  0
LINE
  5
234
330
85
100
AcDbEntity
  8
0
  6
Continuous
 62
     1
100
AcDbLine
 10
-820.1923098553503
 20
-1148.495960057375
 30
0.0
 11
-820.1923098553503
 21
-1127.995960057375
 31
0.0
  0
LINE
  5
235
330
85
100
AcDbEntity
  8
1
  6
Continuous
 62
     4
100
AcDbLine
 10
-842.1590087832619
 20
-1150.245960057375
 30
0.0
 11
-835.1590087832619
 21
-1149.245960057375
 31
0.0
  0
LINE
  5
236
330
85
100
AcDbEntity
  8
1
  6
Continuous
 62
     4
100
AcDbLine
 10
-835.1590087832619
 20
-1149.245960057375
 30
0.0
 11
-835.1590087832619
 21
-1153.245960057375
 31
0.0
  0
LINE
  5
237
330
85
100
AcDbEntity
  8
1
  6
Continuous
 62
     4
100
AcDbLine
 10
-835.1590087832619
 20
-1153.245960057375
 30
0.0
 11
-842.1590087832619
 21
-1152.245960057375
 31
0.0
  0
LINE
  5
238
330
85
100
AcDbEntity
  8
1
  6
Continuous
 62
     4
100
AcDbLine
 10
-842.1590087832619
 20
-1152.245960057375
 30
0.0
 11
-842.1590087832619
 21
-1150.245960057375
 31
0.0
  0
LINE
  5
239
330
85
100
AcDbEntity
  8
1
  6
DOT_CENTER
 62
     7
100
AcDbLine
 10
-842.8718508889681
 20
-1151.245960057375
 30
0.0
 11
-834.474199720041
 21
-1151.245960057375
 31
0.0
  0
LINE
  5
23A
330
85
100
AcDbEntity
  8
1
  6
DOT_CENTER
 62
     7
100
AcDbLine
 10
-830.7661459571382
 20
-1151.245960057375
 30
0.0
 11
-825.6130418307512
 21
-1151.245960057375
 31
0.0
  0
LINE
  5
23B
330
85
100
AcDbEntity
  8
1
  6
DOT_CENTER
 62
     7
100
AcDbLine
 10
-828.2577566469392
 20
-1153.668462544265
 30
0.0
 11
-828.2577566469392
 21
-1148.788009429856
 31
0.0
  0
LINE
  5
23C
330
85
100
AcDbEntity
  8
0
  6
Continuous
 62
     1
100
AcDbLine
 10
-944.1923098553503
 20
-1153.995960057375
 30
0.0
 11
-944.1923098553503
 21
-1110.995960057375
 31
0.0
  0
ARC
  5
23D
330
85
100
AcDbEntity
  8
0
  6
Continuous
 62
     7
100
AcDbCircle
 10
-894.2241145471703
 20
-1113.551258151156
 30
0.0
 40
0.1365199011620462
100
AcDbArc
 50
90.0
 51
180.0
  0
ARC
  5
23E
330
85
100
AcDbEntity
  8
0
  6
Continuous
 62
     7
100
AcDbCircle
 10
-894.2241145471703
 20
-1116.176654091908
 30
0.0
 40
0.1365199011620462
100
AcDbArc
 50
180.0
 51
270.0
  0
ARC
  5
23F
330
85
100
AcDbEntity
  8
0
  6
Continuous
 62
     7
100
AcDbCircle
 10
-878.5094333144303
 20
-1113.551258151156
 30
0.0
 40
0.136519901161023
100
AcDbArc
 50
0.0
 51
90.0
  0
ARC
  5
240
330
85
100
AcDbEntity
  8
0
  6
Continuous
 62
     7
100
AcDbCircle
 10
-878.5094333144303
 20
-1116.176654091908
 30
0.0
 40
0.1365199011611367
100
AcDbArc
 50
270.0
 51
0.0
  0
ARC
  5
241
330
85
100
AcDbEntity
  8
0
  6
Continuous
 62
     7
100
AcDbCircle
 10
-891.1917776725943
 20
-1115.126490156299
 30
0.0
 40
0.0594801903017
100
AcDbArc
 50
1.3123739286043
 51
90.0
  0
ARC
  5
242
330
85
100
AcDbEntity
  8
0
  6
Continuous
 62
     7
100
AcDbCircle
 10
-888.9283668396383
 20
-1114.617092234131
 30
0.0
 40
0.0569016875723298
100
AcDbArc
 50
180.5565825809293
 51
270.8121254433483
  0
ARC
  5
243
330
85
100
AcDbEntity
  8
0
  6
Continuous
 62
     7
100
AcDbCircle
 10
-888.9283668396383
 20
-1114.220147350144
 30
0.0
 40
0.0569016875726242
100
AcDbArc
 50
89.18787455665172
 51
179.4434174190707
  0
ARC
  5
244
330
85
100
AcDbEntity
  8
0
  6
Continuous
 62
     7
100
AcDbCircle
 10
-888.9283668396383
 20
-1115.073905937615
 30
0.0
 40
0.0569016875726242
100
AcDbArc
 50
89.18787455665172
 51
179.4434174190707
  0
ARC
  5
245
330
85
100
AcDbEntity
  8
0
  6
Continuous
 62
     7
100
AcDbCircle
 10
-888.9283668396383
 20
-1115.475479959889
 30
0.0
 40
0.0569016875723276
100
AcDbArc
 50
180.5565825807003
 51
270.8121254433483
  0
ARC
  5
246
330
85
100
AcDbEntity
  8
0
  6
Continuous
 62
     7
100
AcDbCircle
 10
-881.5158599605054
 20
-1114.617092234131
 30
0.0
 40
0.0569016875723298
100
AcDbArc
 50
180.5565825809293
 51
270.8121254434627
  0
ARC
  5
247
330
85
100
AcDbEntity
  8
0
  6
Continuous
 62
     7
100
AcDbCircle
 10
-881.5158599605054
 20
-1114.220147350144
 30
0.0
 40
0.0569016875726258
100
AcDbArc
 50
89.18787455653725
 51
179.4434174190707
  0
ARC
  5
248
330
85
100
AcDbEntity
  8
0
  6
Continuous
 62
     7
100
AcDbCircle
 10
-881.5158599605054
 20
-1115.073905937615
 30
0.0
 40
0.0569016875726258
100
AcDbArc
 50
89.18787455653725
 51
179.4434174190707
  0
ARC
  5
249
330
85
100
AcDbEntity
  8
0
  6
Continuous
 62
     7
100
AcDbCircle
 10
-881.5158599605054
 20
-1115.475479959889
 30
0.0
 40
0.0569016875723276
100
AcDbArc
 50
180.5565825807003
 51
270.8121254434627
  0
ARC
  5
24A
330
85
100
AcDbEntity
  8
0
  6
Continuous
 62
     7
100
AcDbCircle
 10
-886.0337008179393
 20
-1113.832445236865
 30
0.0
 40
0.0576922891748382
100
AcDbArc
 50
90.0
 51
180.0
  0
ARC
  5
24B
330
85
100
AcDbEntity
  8
0
  6
Continuous
 62
     7
100
AcDbCircle
 10
-886.0337008179393
 20
-1114.105559089352
 30
0.0
 40
0.0576922891760887
100
AcDbArc
 50
180.0
 51
270.0
  0
ARC
  5
24C
330
85
100
AcDbEntity
  8
0
  6
Continuous
 62
     7
100
AcDbCircle
 10
-886.0337735615414
 20
-1115.891532238654
 30
0.0
 40
0.0576195914927856
100
AcDbArc
 50
180.0723348140538
 51
270.0723348149595
  0
ARC
  5
24D
330
85
100
AcDbEntity
  8
0
  6
Continuous
 62
     7
100
AcDbCircle
 10
-882.9547352946963
 20
-1115.891532238654
 30
0.0
 40
0.0576195914917636
100
AcDbArc
 50
269.9276651850405
 51
359.927665185946
  0
ARC
  5
24E
330
85
100
AcDbEntity
  8
0
  6
Continuous
 62
     7
100
AcDbCircle
 10
-882.9547352946963
 20
-1115.589995477079
 30
0.0
 40
0.0576195914926717
100
AcDbArc
 50
0.07233481382786
 51
90.07233481495977
  0
CIRCLE
  5
24F
330
85
100
AcDbEntity
  8
1
  6
Continuous
 62
     4
100
AcDbCircle
 10
-828.2577566469392
 20
-1151.245960057375
 30
0.0
 40
1.0
  0
CIRCLE
  5
250
330
85
100
AcDbEntity
  8
1
  6
Continuous
 62
     4
100
AcDbCircle
 10
-828.2577566469392
 20
-1151.245960057375
 30
0.0
 40
2.0
  0
SPLINE
  5
251
330
85
100
AcDbEntity
  8
0
  6
Continuous
 62
     7
100
AcDbSpline
210
0.0
220
0.0
230
1.0
 70
     8
 71
     3
 72
    13
 73
     9
 74
     7
 42
0.0000000001
 43
0.0000000001
 44
0.00000001
 40
0.0
 40
0.0
 40
0.0
 40
0.0
 40
0.160194710955881
 40
0.3210951627358162
 40
0.4607710778823557
 40
0.6002079329856246
 40
0.7244156662366051
 40
0.8468166043877913
 40
0.8468166043877913
 40
0.8468166043877913
 40
0.8468166043877913
 10
-894.6098408015273
 20
-1112.990140460129
 30
0.0
 10
-894.6633450411856
 20
-1112.993381426292
 30
0.0
 10
-894.7705892344404
 20
-1112.999877636755
 30
0.0
 10
-894.9174871322034
 20
-1113.050673055206
 30
0.0
 10
-895.0444470952452
 20
-1113.126433017353
 30
0.0
 10
-895.1393162113582
 20
-1113.223413748006
 30
0.0
 10
-895.2047514495989
 20
-1113.337620549412
 30
0.0
 10
-895.2143239133193
 20
-1113.42002397723
 30
0.0
 10
-895.2190750785284
 20
-1113.460923823997
 30
0.0
 11
-894.6098408015273
 21
-1112.990140460129
 31
0.0
 11
-894.7691398200053
 21
-1113.007056964797
 31
0.0
 11
-894.9216463304831
 21
-1113.058347506273
 31
0.0
 11
-895.0407893658661
 21
-1113.13124674078
 31
0.0
 11
-895.1380519323824
 21
-1113.23115985161
 31
0.0
 11
-895.1968822010615
 21
-1113.340551626833
 31
0.0
 11
-895.2190750785284
 21
-1113.460923823997
 31
0.0
  0
SPLINE
  5
252
330
85
100
AcDbEntity
  8
0
  6
Continuous
 62
     7
100
AcDbSpline
210
0.0
220
0.0
230
1.0
 70
     8
 71
     3
 72
    13
 73
     9
 74
     7
 42
0.0000000001
 43
0.0000000001
 44
0.00000001
 40
0.0
 40
0.0
 40
0.0
 40
0.0
 40
0.160194710955857
 40
0.3210951627356473
 40
0.4607710778825428
 40
0.6002079329856487
 40
0.7244156662368295
 40
0.8468166043880156
 40
0.8468166043880156
 40
0.8468166043880156
 40
0.8468166043880156
 10
-894.6098408015273
 20
-1116.737771782934
 30
0.0
 10
-894.6633450411857
 20
-1116.734530816771
 30
0.0
 10
-894.7705892344406
 20
-1116.728034606309
 30
0.0
 10
-894.9174871322035
 20
-1116.677239187858
 30
0.0
 10
-895.044447095245
 20
-1116.601479225711
 30
0.0
 10
-895.1393162113584
 20
-1116.504498495057
 30
0.0
 10
-895.2047514495987
 20
-1116.390291693651
 30
0.0
 10
-895.2143239133194
 20
-1116.307888265833
 30
0.0
 10
-895.2190750785284
 20
-1116.266988419066
 30
0.0
 11
-894.6098408015273
 21
-1116.737771782934
 31
0.0
 11
-894.7691398200053
 21
-1116.720855278266
 31
0.0
 11
-894.9216463304831
 21
-1116.669564736791
 31
0.0
 11
-895.0407893658661
 21
-1116.596665502283
 31
0.0
 11
-895.1380519323824
 21
-1116.496752391453
 31
0.0
 11
-895.1968822010615
 21
-1116.38736061623
 31
0.0
 11
-895.2190750785284
 21
-1116.266988419066
 31
0.0
  0
SPLINE
  5
253
330
85
100
AcDbEntity
  8
0
  6
Continuous
 62
     7
100
AcDbSpline
210
0.0
220
0.0
230
1.0
 70
     8
 71
     3
 72
    13
 73
     9
 74
     7
 42
0.0000000001
 43
0.0000000001
 44
0.00000001
 40
0.0
 40
0.0
 40
0.0
 40
0.0
 40
0.160194710955857
 40
0.3210951627356473
 40
0.4607710778824458
 40
0.6002079329853931
 40
0.7244156662363586
 40
0.8468166043874829
 40
0.8468166043874829
 40
0.8468166043874829
 40
0.8468166043874829
 10
-878.1237070600733
 20
-1116.737771782934
 30
0.0
 10
-878.070202820415
 20
-1116.734530816771
 30
0.0
 10
-877.9629586271603
 20
-1116.728034606308
 30
0.0
 10
-877.816060729397
 20
-1116.677239187859
 30
0.0
 10
-877.6891007663559
 20
-1116.60147922571
 30
0.0
 10
-877.5942316502421
 20
-1116.504498495057
 30
0.0
 10
-877.5287964120029
 20
-1116.390291693652
 30
0.0
 10
-877.5192239482824
 20
-1116.307888265833
 30
0.0
 10
-877.5144727830734
 20
-1116.266988419066
 30
0.0
 11
-878.1237070600733
 21
-1116.737771782934
 31
0.0
 11
-877.9644080415953
 21
-1116.720855278266
 31
0.0
 11
-877.8119015311175
 21
-1116.669564736791
 31
0.0
 11
-877.6927584957347
 21
-1116.596665502283
 31
0.0
 11
-877.5954959292186
 21
-1116.496752391453
 31
0.0
 11
-877.5366656605399
 21
-1116.38736061623
 31
0.0
 11
-877.5144727830734
 21
-1116.266988419066
 31
0.0
  0
SPLINE
  5
254
330
85
100
AcDbEntity
  8
0
  6
Continuous
 62
     7
100
AcDbSpline
210
0.0
220
0.0
230
1.0
 70
     8
 71
     3
 72
    13
 73
     9
 74
     7
 42
0.0000000001
 43
0.0000000001
 44
0.00000001
 40
0.0
 40
0.0
 40
0.0
 40
0.0
 40
0.160194710955881
 40
0.3210951627358162
 40
0.4607710778822588
 40
0.6002079329853691
 40
0.7244156662361343
 40
0.8468166043872586
 40
0.8468166043872586
 40
0.8468166043872586
 40
0.8468166043872586
 10
-878.1237070600733
 20
-1112.990140460129
 30
0.0
 10
-878.070202820415
 20
-1112.993381426292
 30
0.0
 10
-877.9629586271602
 20
-1112.999877636755
 30
0.0
 10
-877.8160607293972
 20
-1113.050673055206
 30
0.0
 10
-877.6891007663555
 20
-1113.126433017353
 30
0.0
 10
-877.5942316502426
 20
-1113.223413748006
 30
0.0
 10
-877.5287964120025
 20
-1113.337620549411
 30
0.0
 10
-877.5192239482822
 20
-1113.420023977229
 30
0.0
 10
-877.5144727830734
 20
-1113.460923823997
 30
0.0
 11
-878.1237070600733
 21
-1112.990140460129
 31
0.0
 11
-877.9644080415953
 21
-1113.007056964797
 31
0.0
 11
-877.8119015311175
 21
-1113.058347506273
 31
0.0
 11
-877.6927584957347
 21
-1113.13124674078
 31
0.0
 11
-877.5954959292186
 21
-1113.23115985161
 31
0.0
 11
-877.5366656605399
 21
-1113.340551626833
 31
0.0
 11
-877.5144727830734
 21
-1113.460923823997
 31
0.0
  0
SPLINE
  5
255
330
85
100
AcDbEntity
  8
0
  6
Continuous
 62
     7
100
AcDbSpline
210
0.0
220
0.0
230
1.0
 70
     8
 71
     3
 72
    13
 73
     9
 74
     7
 42
0.0000000001
 43
0.0000000001
 44
0.00000001
 40
0.0
 40
0.0
 40
0.0
 40
0.0
 40
0.1486423989486507
 40
0.2982382234603451
 40
0.4390496453783471
 40
0.5790300758311224
 40
0.7141201510144535
 40
0.8476890380260447
 40
0.8476890380260447
 40
0.8476890380260447
 40
0.8476890380260447
 10
-892.9247154297904
 20
-1113.77475294769
 30
0.0
 10
-892.9743482155739
 20
-1113.777601595062
 30
0.0
 10
-893.0739321429198
 20
-1113.783317161667
 30
0.0
 10
-893.2147367713071
 20
-1113.82781940025
 30
0.0
 10
-893.3427954518764
 20
-1113.894744040355
 30
0.0
 10
-893.4460694196114
 20
-1113.989476592886
 30
0.0
 10
-893.5174719877067
 20
-1114.109793283923
 30
0.0
 10
-893.527921359148
 20
-1114.199585184288
 30
0.0
 10
-893.5331164618983
 20
-1114.244226926727
 30
0.0
 11
-892.9247154297904
 21
-1113.77475294769
 31
0.0
 11
-893.072635578338
 21
-1113.789388261792
 31
0.0
 11
-893.2157691931069
 21
-1113.832881698475
 31
0.0
 11
-893.3395672649859
 21
-1113.899977852922
 31
0.0
 11
-893.4420414726139
 21
-1113.995338000158
 31
0.0
 11
-893.508510660885
 21
-1114.112944017961
 31
0.0
 11
-893.5331164618983
 21
-1114.244226926727
 31
0.0
  0
SPLINE
  5
256
330
85
100
AcDbEntity
  8
0
  6
Continuous
 62
     7
100
AcDbSpline
210
0.0
220
0.0
230
1.0
 70
     8
 71
     3
 72
    13
 73
     9
 74
     7
 42
0.0000000001
 43
0.0000000001
 44
0.00000001
 40
0.0
 40
0.0
 40
0.0
 40
0.0
 40
0.148642398948877
 40
0.2982382234603538
 40
0.4390496453783558
 40
0.5790300758311311
 40
0.7141201510145181
 40
0.8476890380261093
 40
0.8476890380261093
 40
0.8476890380261093
 40
0.8476890380261093
 10
-890.9476765976244
 20
-1113.77475294769
 30
0.0
 10
-890.8980438118409
 20
-1113.777601595062
 30
0.0
 10
-890.7984598844951
 20
-1113.783317161666
 30
0.0
 10
-890.6576552561069
 20
-1113.827819400251
 30
0.0
 10
-890.5295965755383
 20
-1113.894744040354
 30
0.0
 10
-890.4263226078035
 20
-1113.989476592887
 30
0.0
 10
-890.354920039708
 20
-1114.109793283922
 30
0.0
 10
-890.3444706682668
 20
-1114.199585184288
 30
0.0
 10
-890.3392755655163
 20
-1114.244226926727
 30
0.0
 11
-890.9476765976244
 21
-1113.77475294769
 31
0.0
 11
-890.7997564490765
 21
-1113.789388261792
 31
0.0
 11
-890.6566228343079
 21
-1113.832881698475
 31
0.0
 11
-890.5328247624288
 21
-1113.899977852922
 31
0.0
 11
-890.4303505548008
 21
-1113.995338000158
 31
0.0
 11
-890.3638813665297
 21
-1114.112944017961
 31
0.0
 11
-890.3392755655163
 21
-1114.244226926727
 31
0.0
  0
SPLINE
  5
257
330
85
100
AcDbEntity
  8
0
  6
Continuous
 62
     7
100
AcDbSpline
210
0.0
220
0.0
230
1.0
 70
     8
 71
     3
 72
    13
 73
     9
 74
     7
 42
0.0000000001
 43
0.0000000001
 44
0.00000001
 40
0.0
 40
0.0
 40
0.0
 40
0.0
 40
0.1486423989488994
 40
0.2982382234603762
 40
0.4390496453782699
 40
0.5790300758312001
 40
0.7141201510145871
 40
0.8476890380261783
 40
0.8476890380261783
 40
0.8476890380261783
 40
0.8476890380261783
 10
-890.9476765976244
 20
-1115.953159295373
 30
0.0
 10
-890.8980438118408
 20
-1115.950310648001
 30
0.0
 10
-890.7984598844953
 20
-1115.944595081397
 30
0.0
 10
-890.6576552561072
 20
-1115.900092842812
 30
0.0
 10
-890.5295965755382
 20
-1115.833168202709
 30
0.0
 10
-890.4263226078034
 20
-1115.738435650177
 30
0.0
 10
-890.3549200397083
 20
-1115.61811895914
 30
0.0
 10
-890.3444706682667
 20
-1115.528327058776
 30
0.0
 10
-890.3392755655163
 20
-1115.483685316336
 30
0.0
 11
-890.9476765976244
 21
-1115.953159295373
 31
0.0
 11
-890.7997564490765
 21
-1115.938523981271
 31
0.0
 11
-890.6566228343079
 21
-1115.895030544588
 31
0.0
 11
-890.5328247624288
 21
-1115.827934390141
 31
0.0
 11
-890.4303505548008
 21
-1115.732574242905
 31
0.0
 11
-890.3638813665297
 21
-1115.614968225102
 31
0.0
 11
-890.3392755655163
 21
-1115.483685316336
 31
0.0
  0
SPLINE
  5
258
330
85
100
AcDbEntity
  8
0
  6
Continuous
 62
     7
100
AcDbSpline
210
0.0
220
0.0
230
1.0
 70
     8
 71
     3
 72
    13
 73
     9
 74
     7
 42
0.0000000001
 43
0.0000000001
 44
0.00000001
 40
0.0
 40
0.0
 40
0.0
 40
0.0
 40
0.0328394650072868
 40
0.0655975995953016
 40
0.102266444783169
 40
0.1389211607505451
 40
0.17825328135309
 40
0.2177267691609078
 40
0.2177267691609078
 40
0.2177267691609078
 40
0.2177267691609078
 10
-892.5467793538664
 20
-1114.21449463281
 30
0.0
 10
-892.5577622455028
 20
-1114.215354787623
 30
0.0
 10
-892.579700828479
 20
-1114.217072966983
 30
0.0
 10
-892.6114138975299
 20
-1114.230831234897
 30
0.0
 10
-892.6409333995165
 20
-1114.250603774183
 30
0.0
 10
-892.6670428717292
 20
-1114.278000160048
 30
0.0
 10
-892.6855137696032
 20
-1114.312875758535
 30
0.0
 10
-892.6878275277163
 20
-1114.339264561539
 30
0.0
 10
-892.6889864820664
 20
-1114.352482632114
 30
0.0
 11
-892.5467793538664
 21
-1114.21449463281
 31
0.0
 11
-892.5793278857686
 21
-1114.218856230336
 31
0.0
 11
-892.609709182361
 21
-1114.231106626209
 31
0.0
 11
-892.6400844710008
 21
-1114.251647951567
 31
0.0
 11
-892.6651530329393
 21
-1114.278389967291
 31
0.0
 11
-892.6829270634596
 21
-1114.313476995523
 31
0.0
 11
-892.6889864820664
 21
-1114.352482632114
 31
0.0
  0
SPLINE
  5
259
330
85
100
AcDbEntity
  8
0
  6
Continuous
 62
     7
100
AcDbSpline
210
0.0
220
0.0
230
1.0
 70
     8
 71
     3
 72
    13
 73
     9
 74
     7
 42
0.0000000001
 43
0.0000000001
 44
0.00000001
 40
0.0
 40
0.0
 40
0.0
 40
0.0
 40
0.1486423989486731
 40
0.2982382234603675
 40
0.4390496453782612
 40
0.5790300758311915
 40
0.7141201510145225
 40
0.8476890380261137
 40
0.8476890380261137
 40
0.8476890380261137
 40
0.8476890380261137
 10
-892.9247154297904
 20
-1115.953159295373
 30
0.0
 10
-892.9743482155739
 20
-1115.950310648001
 30
0.0
 10
-893.0739321429198
 20
-1115.944595081397
 30
0.0
 10
-893.2147367713073
 20
-1115.900092842812
 30
0.0
 10
-893.3427954518766
 20
-1115.833168202709
 30
0.0
 10
-893.4460694196115
 20
-1115.738435650177
 30
0.0
 10
-893.5174719877066
 20
-1115.61811895914
 30
0.0
 10
-893.5279213591482
 20
-1115.528327058776
 30
0.0
 10
-893.5331164618983
 20
-1115.483685316336
 30
0.0
 11
-892.9247154297904
 21
-1115.953159295373
 31
0.0
 11
-893.072635578338
 21
-1115.938523981271
 31
0.0
 11
-893.2157691931069
 21
-1115.895030544588
 31
0.0
 11
-893.3395672649859
 21
-1115.827934390141
 31
0.0
 11
-893.4420414726139
 21
-1115.732574242905
 31
0.0
 11
-893.508510660885
 21
-1115.614968225102
 31
0.0
 11
-893.5331164618983
 21
-1115.483685316336
 31
0.0
  0
SPLINE
  5
25A
330
85
100
AcDbEntity
  8
0
  6
Continuous
 62
     7
100
AcDbSpline
210
0.0
220
0.0
230
1.0
 70
     8
 71
     3
 72
    13
 73
     9
 74
     7
 42
0.0000000001
 43
0.0000000001
 44
0.00000001
 40
0.0
 40
0.0
 40
0.0
 40
0.0
 40
0.032839465007317
 40
0.0655975995951617
 40
0.1022664447831565
 40
0.1389211607505326
 40
0.1782532813530774
 40
0.2177267691608953
 40
0.2177267691608953
 40
0.2177267691608953
 40
0.2177267691608953
 10
-892.5467793538664
 20
-1115.473804042558
 30
0.0
 10
-892.5577622455028
 20
-1115.472943887745
 30
0.0
 10
-892.5797008284786
 20
-1115.471225708385
 30
0.0
 10
-892.6114138975303
 20
-1115.457467440472
 30
0.0
 10
-892.6409333995165
 20
-1115.437694901184
 30
0.0
 10
-892.6670428717292
 20
-1115.410298515321
 30
0.0
 10
-892.6855137696028
 20
-1115.375422916833
 30
0.0
 10
-892.6878275277165
 20
-1115.349034113829
 30
0.0
 10
-892.6889864820664
 20
-1115.335816043254
 30
0.0
 11
-892.5467793538664
 21
-1115.473804042558
 31
0.0
 11
-892.5793278857686
 21
-1115.469442445032
 31
0.0
 11
-892.609709182361
 21
-1115.457192049159
 31
0.0
 11
-892.6400844710008
 21
-1115.436650723801
 31
0.0
 11
-892.6651530329393
 21
-1115.409908708077
 31
0.0
 11
-892.6829270634596
 21
-1115.374821679845
 31
0.0
 11
-892.6889864820664
 21
-1115.335816043254
 31
0.0
  0
SPLINE
  5
25B
330
85
100
AcDbEntity
  8
0
  6
Continuous
 62
     7
100
AcDbSpline
210
0.0
220
0.0
230
1.0
 70
     8
 71
     3
 72
    14
 73
    10
 74
     8
 42
0.0000000001
 43
0.0000000001
 44
0.00000001
 40
0.0
 40
0.0
 40
0.0
 40
0.0
 40
0.037551074854696
 40
0.0754042334901258
 40
0.1094159352408696
 40
0.1434580761254144
 40
0.1709669697094842
 40
0.2205583987489092
 40
0.3151356117039114
 40
0.3151356117039114
 40
0.3151356117039114
 40
0.3151356117039114
 10
-891.2684362026394
 20
-1115.473804042558
 30
0.0
 10
-891.2558853629362
 20
-1115.473062086125
 30
0.0
 10
-891.2306827169095
 20
-1115.471572204508
 30
0.0
 10
-891.1961141125313
 20
-1115.457596837543
 30
0.0
 10
-891.1686181457571
 20
-1115.434971270372
 30
0.0
 10
-891.1490396255101
 20
-1115.409237198649
 30
0.0
 10
-891.1366954560708
 20
-1115.373826113601
 30
0.0
 10
-891.1335353225629
 20
-1115.316294215893
 30
0.0
 10
-891.1327972642448
 20
-1115.268327760376
 30
0.0
 10
-891.1323130847602
 20
-1115.236860905896
 30
0.0
 11
-891.2684362026394
 21
-1115.473804042558
 31
0.0
 11
-891.2311258295503
 21
-1115.469559129992
 31
0.0
 11
-891.1960232537098
 21
-1115.455393298281
 31
0.0
 11
-891.1695566615281
 21
-1115.434031759145
 31
0.0
 11
-891.1494673486441
 21
-1115.406549276291
 31
0.0
 11
-891.1400575246957
 21
-1115.380699819053
 31
0.0
 11
-891.1345900666151
 21
-1115.331410705282
 31
0.0
 11
-891.1323130847602
 21
-1115.236860905896
 31
0.0
  0
SPLINE
  5
25C
330
85
100
AcDbEntity
  8
0
  6
Continuous
 62
     7
100
AcDbSpline
210
0.0
220
0.0
230
1.0
 70
     8
 71
     3
 72
    13
 73
     9
 74
     7
 42
0.0000000001
 43
0.0000000001
 44
0.00000001
 40
0.0
 40
0.0
 40
0.0
 40
0.0
 40
0.0303249383638682
 40
0.0604417851171144
 40
0.0959479298117348
 40
0.1315593707301985
 40
0.1736623628001044
 40
0.2160932553483739
 40
0.2160932553483739
 40
0.2160932553483739
 40
0.2160932553483739
 10
-891.1331463296524
 20
-1114.351900683301
 30
0.0
 10
-891.1338195087835
 20
-1114.341761494571
 30
0.0
 10
-891.1351612476489
 20
-1114.321552692854
 30
0.0
 10
-891.1468626086013
 20
-1114.29136197912
 30
0.0
 10
-891.1648885608271
 20
-1114.262607446185
 30
0.0
 10
-891.1919934531976
 20
-1114.235774004831
 30
0.0
 10
-891.2289539505207
 20
-1114.217600561065
 30
0.0
 10
-891.2572492354786
 20
-1114.215532616029
 30
0.0
 10
-891.2714517555814
 20
-1114.21449463281
 30
0.0
 11
-891.1331463296524
 21
-1114.351900683301
 31
0.0
 11
-891.1366836288232
 21
-1114.321782758383
 31
0.0
 11
-891.1469808400778
 21
-1114.29348095811
 31
0.0
 11
-891.1659571287942
 21
-1114.263471180076
 31
0.0
 11
-891.1915528287344
 21
-1114.23871163911
 31
0.0
 11
-891.2294211431797
 21
-1114.220309120197
 31
0.0
 11
-891.2714517555814
 21
-1114.21449463281
 31
0.0
  0
SPLINE
  5
25D
330
85
100
AcDbEntity
  8
0
  6
Continuous
 62
     7
100
AcDbSpline
210
0.0
220
0.0
230
1.0
 70
     8
 71
     3
 72
    13
 73
     9
 74
     7
 42
0.0000000001
 43
0.0000000001
 44
0.00000001
 40
0.0
 40
0.0
 40
0.0
 40
0.0
 40
0.0381152522468213
 40
0.0763355512010317
 40
0.1127548768762817
 40
0.1486421571416766
 40
0.182772905494272
 40
0.2174479487767204
 40
0.2174479487767204
 40
0.2174479487767204
 40
0.2174479487767204
 10
-889.6921749373214
 20
-1113.77475294769
 30
0.0
 10
-889.7049268557618
 20
-1113.775721120862
 30
0.0
 10
-889.7304658372891
 20
-1113.77766013552
 30
0.0
 10
-889.7653411709471
 20
-1113.793421173025
 30
0.0
 10
-889.7948910696762
 20
-1113.815779803586
 30
0.0
 10
-889.817194790983
 20
-1113.844138218721
 30
0.0
 10
-889.828493416244
 20
-1113.877868524213
 30
0.0
 10
-889.8294012356894
 20
-1113.900853397695
 30
0.0
 10
-889.8298587361094
 20
-1113.912436746478
 30
0.0
 11
-889.6921749373214
 21
-1113.77475294769
 31
0.0
 11
-889.7299499619317
 21
-1113.779834283099
 31
0.0
 11
-889.7650772522996
 21
-1113.794896312296
 31
0.0
 11
-889.7939729243556
 21
-1113.817064023479
 31
0.0
 11
-889.8156935729493
 21
-1113.845631667931
 31
0.0
 11
-889.8268309031697
 21
-1113.877894151695
 31
0.0
 11
-889.8298587361094
 21
-1113.912436746478
 31
0.0
  0
SPLINE
  5
25E
330
85
100
AcDbEntity
  8
0
  6
Continuous
 62
     7
100
AcDbSpline
210
0.0
220
0.0
230
1.0
 70
     8
 71
     3
 72
    13
 73
     9
 74
     7
 42
0.0000000001
 43
0.0000000001
 44
0.00000001
 40
0.0
 40
0.0
 40
0.0
 40
0.0
 40
0.038115252246791
 40
0.076335551201091
 40
0.112754876876341
 40
0.1486421571417358
 40
0.182772905495191
 40
0.2174479487767334
 40
0.2174479487767334
 40
0.2174479487767334
 40
0.2174479487767334
 10
-889.6921749373214
 20
-1115.948516930976
 30
0.0
 10
-889.7049268557621
 20
-1115.947548757804
 30
0.0
 10
-889.7304658372893
 20
-1115.945609743147
 30
0.0
 10
-889.7653411709466
 20
-1115.929848705641
 30
0.0
 10
-889.7948910696766
 20
-1115.907490075081
 30
0.0
 10
-889.8171947909827
 20
-1115.879131659945
 30
0.0
 10
-889.8284934162439
 20
-1115.845401354453
 30
0.0
 10
-889.8294012356896
 20
-1115.822416480971
 30
0.0
 10
-889.8298587361094
 20
-1115.810833132188
 30
0.0
 11
-889.6921749373214
 21
-1115.948516930976
 31
0.0
 11
-889.7299499619317
 21
-1115.943435595568
 31
0.0
 11
-889.7650772522996
 21
-1115.92837356637
 31
0.0
 11
-889.7939729243556
 21
-1115.906205855187
 31
0.0
 11
-889.8156935729493
 21
-1115.877638210736
 31
0.0
 11
-889.8268309031697
 21
-1115.84537572697
 31
0.0
 11
-889.8298587361094
 21
-1115.810833132188
 31
0.0
  0
SPLINE
  5
25F
330
85
100
AcDbEntity
  8
0
  6
Continuous
 62
     7
100
AcDbSpline
210
0.0
220
0.0
230
1.0
 70
     8
 71
     3
 72
    13
 73
     9
 74
     7
 42
0.0000000001
 43
0.0000000001
 44
0.00000001
 40
0.0
 40
0.0
 40
0.0
 40
0.0
 40
0.0381152522469339
 40
0.0763355512011444
 40
0.1127548768763042
 40
0.1486421571418367
 40
0.1827729054946176
 40
0.2174479487770859
 40
0.2174479487770859
 40
0.2174479487770859
 40
0.2174479487770859
 10
-882.2796680581883
 20
-1113.77475294769
 30
0.0
 10
-882.2924199766289
 20
-1113.775721120862
 30
0.0
 10
-882.3179589581559
 20
-1113.77766013552
 30
0.0
 10
-882.3528342918145
 20
-1113.793421173025
 30
0.0
 10
-882.3823841905432
 20
-1113.815779803586
 30
0.0
 10
-882.4046879118496
 20
-1113.84413821872
 30
0.0
 10
-882.415986537112
 20
-1113.877868524213
 30
0.0
 10
-882.4168943565573
 20
-1113.900853397695
 30
0.0
 10
-882.4173518569773
 20
-1113.912436746478
 30
0.0
 11
-882.2796680581883
 21
-1113.77475294769
 31
0.0
 11
-882.3174430827987
 21
-1113.779834283099
 31
0.0
 11
-882.3525703731667
 21
-1113.794896312296
 31
0.0
 11
-882.3814660452225
 21
-1113.817064023479
 31
0.0
 11
-882.4031866938165
 21
-1113.845631667931
 31
0.0
 11
-882.4143240240375
 21
-1113.877894151695
 31
0.0
 11
-882.4173518569773
 21
-1113.912436746478
 31
0.0
  0
SPLINE
  5
260
330
85
100
AcDbEntity
  8
0
  6
Continuous
 62
     7
100
AcDbSpline
210
0.0
220
0.0
230
1.0
 70
     8
 71
     3
 72
    13
 73
     9
 74
     7
 42
0.0000000001
 43
0.0000000001
 44
0.00000001
 40
0.0
 40
0.0
 40
0.0
 40
0.0
 40
0.0381152522469036
 40
0.0763355512012036
 40
0.1127548768763635
 40
0.1486421571418959
 40
0.1827729054955366
 40
0.2174479487770988
 40
0.2174479487770988
 40
0.2174479487770988
 40
0.2174479487770988
 10
-882.2796680581883
 20
-1115.948516930976
 30
0.0
 10
-882.292419976629
 20
-1115.947548757804
 30
0.0
 10
-882.3179589581562
 20
-1115.945609743146
 30
0.0
 10
-882.3528342918142
 20
-1115.929848705641
 30
0.0
 10
-882.3823841905432
 20
-1115.90749007508
 30
0.0
 10
-882.4046879118499
 20
-1115.879131659945
 30
0.0
 10
-882.4159865371116
 20
-1115.845401354453
 30
0.0
 10
-882.4168943565576
 20
-1115.822416480971
 30
0.0
 10
-882.4173518569773
 20
-1115.810833132188
 30
0.0
 11
-882.2796680581883
 21
-1115.948516930976
 31
0.0
 11
-882.3174430827987
 21
-1115.943435595568
 31
0.0
 11
-882.3525703731667
 21
-1115.92837356637
 31
0.0
 11
-882.3814660452225
 21
-1115.906205855187
 31
0.0
 11
-882.4031866938165
 21
-1115.877638210736
 31
0.0
 11
-882.4143240240375
 21
-1115.84537572697
 31
0.0
 11
-882.4173518569773
 21
-1115.810833132188
 31
0.0
  0
SPLINE
  5
261
330
85
100
AcDbEntity
  8
0
  6
Continuous
 62
     7
100
AcDbSpline
210
0.0
220
0.0
230
1.0
 70
     8
 71
     3
 72
    13
 73
     9
 74
     7
 42
0.0000000001
 43
0.0000000001
 44
0.00000001
 40
0.0
 40
0.0
 40
0.0
 40
0.0
 40
0.0353323702695381
 40
0.0704203827944063
 40
0.1027084056742432
 40
0.1352293371680938
 40
0.1740111215760513
 40
0.2125287438766226
 40
0.2125287438766226
 40
0.2125287438766226
 40
0.2125287438766226
 10
-882.8971157491223
 20
-1113.913944522948
 30
0.0
 10
-882.8980019432692
 20
-1113.902122617545
 30
0.0
 10
-882.8997682026675
 20
-1113.878560566727
 30
0.0
 10
-882.9142243353418
 20
-1113.84679408332
 30
0.0
 10
-882.9349120617247
 20
-1113.820422674396
 30
0.0
 10
-882.9611696193815
 20
-1113.797913738954
 30
0.0
 10
-882.9934630486912
 20
-1113.778945559051
 30
0.0
 10
-883.019348442245
 20
-1113.776147297227
 30
0.0
 10
-883.0322469087984
 20
-1113.77475294769
 30
0.0
 11
-882.8971157491223
 21
-1113.913944522948
 31
0.0
 11
-882.9018248276625
 21
-1113.878927370463
 31
0.0
 11
-882.9158306939147
 21
-1113.846755887229
 31
0.0
 11
-882.9356099508334
 21
-1113.8212353579
 31
0.0
 11
-882.9601846098766
 21
-1113.799935190808
 31
0.0
 11
-882.9943348696903
 21
-1113.781556220311
 31
0.0
 11
-883.0322469087984
 21
-1113.77475294769
 31
0.0
  0
TEXT
  5
263
330
85
100
AcDbEntity
  8
0
 62
     3
100
AcDbText
 10
-1174.19230985535
 20
-1123.995960057375
 30
0.0
 40
1.798828
  1
A
 41
0.99
  7
CONVERTER_12
100
AcDbText
  0
TEXT
  5
264
330
85
100
AcDbEntity
  8
0
 62
     3
100
AcDbText
 10
-1174.19230985535
 20
-1081.995960057375
 30
0.0
 40
1.798828
  1
B
 41
0.99
  7
CONVERTER_12
100
AcDbText
  0
TEXT
  5
265
330
85
100
AcDbEntity
  8
0
 62
     3
100
AcDbText
 10
-1174.19230985535
 20
-1036.995960057375
 30
0.0
 40
1.798828
  1
C
 41
0.99
  7
CONVERTER_12
100
AcDbText
  0
TEXT
  5
266
330
85
100
AcDbEntity
  8
0
 62
     3
100
AcDbText
 10
-1174.19230985535
 20
-991.9959600573752
 30
0.0
 40
1.798828
  1
D
 41
0.99
  7
CONVERTER_12
100
AcDbText
  0
TEXT
  5
267
330
85
100
AcDbEntity
  8
0
 62
     3
100
AcDbText
 10
-1174.19230985535
 20
-946.9959600573752
 30
0.0
 40
1.798828
  1
E
 41
0.99
  7
CONVERTER_12
100
AcDbText
  0
TEXT
  5
268
330
85
100
AcDbEntity
  8
0
 62
     3
100
AcDbText
 10
-1174.19230985535
 20
-896.9959600573752
 30
0.0
 40
1.798828
  1
F
 41
0.99
  7
CONVERTER_12
100
AcDbText
  0
TEXT
  5
269
330
85
100
AcDbEntity
  8
0
 62
     3
100
AcDbText
 10
-845.1923098553503
 20
-871.9959600573752
 30
0.0
 40
1.798828
  1
2
 41
0.99
  7
CONVERTER_12
100
AcDbText
  0
TEXT
  5
26A
330
85
100
AcDbEntity
  8
0
 62
     3
100
AcDbText
 10
-793.1923098553503
 20
-871.9959600573752
 30
0.0
 40
1.798828
  1
1
 41
0.99
  7
CONVERTER_12
100
AcDbText
  0
TEXT
  5
26B
330
85
100
AcDbEntity
  8
0
 62
     3
100
AcDbText
 10
-896.3922608553503
 20
-871.9959600573752
 30
0.0
 40
1.798828
  1
3
 41
0.99
  7
CONVERTER_12
100
AcDbText
  0
TEXT
  5
26C
330
85
100
AcDbEntity
  8
0
 62
     3
100
AcDbText
 10
-947.5922118553505
 20
-871.9959600573752
 30
0.0
 40
1.798828
  1
4
 41
0.99
  7
CONVERTER_12
100
AcDbText
  0
TEXT
  5
26D
330
85
100
AcDbEntity
  8
0
 62
     3
100
AcDbText
 10
-998.7921628553504
 20
-871.9959600573752
 30
0.0
 40
1.798828
  1
5
 41
0.99
  7
CONVERTER_12
100
AcDbText
  0
TEXT
  5
26E
330
85
100
AcDbEntity
  8
0
 62
     3
100
AcDbText
 10
-1049.992113855351
 20
-871.9959600573752
 30
0.0
 40
1.798828
  1
6
 41
0.99
  7
CONVERTER_12
100
AcDbText
  0
TEXT
  5
26F
330
85
100
AcDbEntity
  8
0
 62
     3
100
AcDbText
 10
-1101.192064855351
 20
-871.9959600573752
 30
0.0
 40
1.798828
  1
7
 41
0.99
  7
CONVERTER_12
100
AcDbText
  0
TEXT
  5
270
330
85
100
AcDbEntity
  8
0
 62
     3
100
AcDbText
 10
-1152.392015855351
 20
-871.9959600573752
 30
0.0
 40
1.798828
  1
8
 41
0.99
  7
CONVERTER_12
100
AcDbText
  0
MTEXT
  5
272
330
85
100
AcDbEntity
  8
0
 62
     7
100
AcDbMText
 10
-1169.830271397041
 20
-1152.525083674765
 30
0.0
 40
1.3
 41
0.0
 71
     7
 72
     1
  3
Diese Zeichnung entspricht dem Entwicklungsstand des Zeichnungsdatums bzw. der letzten \U+00c4nderungseintragung. Aus der Ben\U+00fctzung der Zeichnung k\U+00f6nnen\Pkeine Anspr\U+00fcche, gleich welcher Art, einschlie\U+00dflich Schadenersatzanspr\
  3
U+00fcche, abgeleitet und gegen GEZE geltend gemacht werden. Die Zeichnung bleibt unser\PEigentum und ist Dritten nur f\U+00fcr die Vertragsdauer zur Benutzung \U+00fcberlassen. S\U+00e4mtliche sich aus der Zeichnung ergebenden Anspr\U+00fcche stehe
  3
n ausschlie\U+00dflich\PGEZE zu. Ohne vorherige Zustimmung von GEZE darf diese Zeichnung weder vervielf\U+00e4ltig noch Dritten zug\U+00e4nglich gemacht werden.\PThis drawing shows the actual state of product development at the date of the drawing o
  3
r the revision date. No claims or damages in any form can bei made\Pagainst GEZE as a result of the interpretation of this drawing. This drawing remains the property of GEZE and ist made available to third paries only for\Pthe duration of contractur
  1
al obligations. All rights connected with this drawing remain in possession of GEZE. This drawing may not bei copied of handed\Pover to third parties without the express consent of GEZE.
  7
CONVERTER_13
 73
     1
 44
0.84033613445378
  0
MTEXT
  5
273
330
85
100
AcDbEntity
  8
1
 62
     7
100
AcDbMText
 10
-987.0857446493184
 20
-1146.024161945999
 30
0.0
 40
2.0
 41
0.0
 71
     5
 72
     1
  1
EMPB = Erstmusterpr\U+00fcfbericht /First sample test report
  7
CONVERTER_11
 73
     1
 44
1.02040816326531
  0
MTEXT
  5
274
330
85
100
AcDbEntity
  8
0
 62
     4
100
AcDbMText
 10
-833.5695944416713
 20
-1145.795960057375
 30
0.0
 40
3.5
 41
0.0
 71
     5
 72
     1
  1
D
  7
CONVERTER_11
 73
     1
 44
1.02040816326531
  0
MTEXT
  5
276
330
85
100
AcDbEntity
  8
0
 62
     3
100
AcDbMText
 10
-896.4631294064924
 20
-1138.845960057375
 30
0.0
 40
1.8
 41
0.0
 71
     4
 72
     1
  1
gepr. / checked
  7
CONVERTER_14
 73
     1
 44
0.90036014405762
  0
MTEXT
  5
277
330
85
100
AcDbEntity
  8
0
 62
     3
100
AcDbMText
 10
-896.4631294064924
 20
-1134.545960057375
 30
0.0
 40
1.8
 41
0.0
 71
     4
 72
     1
  1
erstellt / drawn
  7
CONVERTER_14
 73
     1
 44
0.90036014405762
  0
TEXT
  5
278
330
85
100
AcDbEntity
  8
0
 62
     4
100
AcDbText
 10
-875.6326960281494
 20
-1114.547609584621
 30
0.0
 40
2.2
  1
GEZE GmbH
 41
0.9
  7
CONVERTER_11
100
AcDbText
  0
MTEXT
  5
279
330
85
100
AcDbEntity
  8
0
 62
     3
100
AcDbMText
 10
-875.6326960281494
 20
-1122.279086813395
 30
0.0
 40
1.8
 41
0.0
 71
     7
 72
     1
  1
P.O. Box 13 63\P71226 Leonberg\PGermany
  7
CONVERTER_14
 73
     1
 44
0.78031212484994
  0
MTEXT
  5
27A
330
85
100
AcDbEntity
  8
0
 62
     3
100
AcDbMText
 10
-819.1923098553503
 20
-1133.095960057375
 30
0.0
 40
1.8
 41
0.0
 71
     7
 72
     1
  1
Material-Nr.\PID-no.
  7
CONVERTER_14
 73
     1
 44
0.84033613445378
  0
TEXT
  5
27B
330
85
100
AcDbEntity
  8
0
 62
     3
100
AcDbText
 10
-819.1923098553503
 20
-1143.595960057375
 30
0.0
 40
1.8
  1
Zeichnungs-Nr. / document-no.
 41
0.72
  7
CONVERTER_14
100
AcDbText
  0
TEXT
  5
27C
330
85
100
AcDbEntity
  8
0
 62
     3
100
AcDbText
 10
-845.9923098553504
 20
-1143.262626807875
 30
0.0
 40
1.8
  1
Sprache / language
 41
0.72
  7
CONVERTER_14
100
AcDbText
  0
MTEXT
  5
27D
330
85
100
AcDbEntity
  8
0
 62
     3
100
AcDbMText
 10
-846.4774094361312
 20
-1138.634171808442
 30
0.0
 40
1.8
 41
0.0
 71
     7
 72
     1
  1
Ma\U+00dfstab\Pscale
  7
CONVERTER_14
 73
     1
 44
0.84033613445378
  0
TEXT
  5
27E
330
85
100
AcDbEntity
  8
0
 62
     3
100
AcDbText
 10
-855.3923528553503
 20
-1113.395954057375
 30
0.0
 40
1.8
  1
Benennung / designation
 41
0.72
  7
CONVERTER_14
100
AcDbText
  0
MTEXT
  5
27F
330
85
100
AcDbEntity
  8
0
 62
     3
100
AcDbMText
 10
-896.4631294064924
 20
-1150.745960057375
 30
0.0
 40
1.8
 41
0.0
 71
     4
 72
     1
  1
Ersetzt durch:\Psubst. with:
  7
CONVERTER_14
 73
     1
 44
0.84033613445378
  0
MTEXT
  5
280
330
85
100
AcDbEntity
  8
0
 62
     3
100
AcDbMText
 10
-896.4631294064924
 20
-1144.245960057375
 30
0.0
 40
1.8
 41
0.0
 71
     4
 72
     1
  1
Ersatz f\U+00fcr:\Psubst. for:
  7
CONVERTER_14
 73
     1
 44
0.84033613445378
  0
MTEXT
  5
281
330
85
100
AcDbEntity
  8
0
 62
     3
100
AcDbMText
 10
-846.3789710373034
 20
-1132.841647966484
 30
0.0
 40
1.8
 41
0.0
 71
     7
 72
     1
  1
Blatt / von\Psheet / of
  7
CONVERTER_14
 73
     1
 44
0.84033613445378
  0
MTEXT
  5
283
330
85
100
AcDbEntity
  8
0
 62
     3
100
AcDbMText
 10
-870.6923098553503
 20
-1131.298404040859
 30
0.0
 40
1.8
 41
0.0
 71
     8
 72
     1
  1
Datum / date
  7
CONVERTER_15
 73
     1
 44
0.90036014405762
  0
MTEXT
  5
284
330
85
100
AcDbEntity
  8
0
 62
     3
100
AcDbMText
 10
-854.6923098553503
 20
-1131.298404040859
 30
0.0
 40
1.8
 41
0.0
 71
     8
 72
     1
  1
Name / name
  7
CONVERTER_15
 73
     1
 44
0.90036014405762
  0
MTEXT
  5
286
330
85
100
AcDbEntity
  8
0
 62
     7
100
AcDbMText
 10
-934.9923098553504
 20
-1151.635530765322
 30
0.0
 40
1.3
 41
0.0
 71
     8
 72
     1
  1
Dok.version
  7
CONVERTER_16
 73
     1
 44
0.7202881152461
  0
MTEXT
  5
287
330
85
100
AcDbEntity
  8
0
 62
     7
100
AcDbMText
 10
-934.9923098553504
 20
-1153.435530765322
 30
0.0
 40
1.3
 41
0.0
 71
     8
 72
     1
  1
doc.version
  7
CONVERTER_16
 73
     1
 44
0.7202881152461
  0
MTEXT
  5
288
330
85
100
AcDbEntity
  8
0
 62
     7
100
AcDbMText
 10
-924.6923098553503
 20
-1153.435530765322
 30
0.0
 40
1.3
 41
0.0
 71
     8
 72
     1
  1
date
  7
CONVERTER_14
 73
     1
 44
0.7202881152461
  0
MTEXT
  5
289
330
85
100
AcDbEntity
  8
0
 62
     7
100
AcDbMText
 10
-924.6923098553503
 20
-1151.635530765322
 30
0.0
 40
1.3
 41
0.0
 71
     8
 72
     1
  1
Datum
  7
CONVERTER_14
 73
     1
 44
0.7202881152461
  0
MTEXT
  5
28A
330
85
100
AcDbEntity
  8
0
 62
     7
100
AcDbMText
 10
-915.6923098553503
 20
-1153.435530765322
 30
0.0
 40
1.3
 41
0.0
 71
     8
 72
     1
  1
name
  7
CONVERTER_14
 73
     1
 44
0.7202881152461
  0
MTEXT
  5
28B
330
85
100
AcDbEntity
  8
0
 62
     7
100
AcDbMText
 10
-915.6923098553503
 20
-1151.635530765322
 30
0.0
 40
1.3
 41
0.0
 71
     8
 72
     1
  1
Name
  7
CONVERTER_14
 73
     1
 44
0.7202881152461
  0
MTEXT
  5
28C
330
85
100
AcDbEntity
  8
0
 62
     7
100
AcDbMText
 10
-904.1923098553503
 20
-1153.435530765322
 30
0.0
 40
1.3
 41
0.0
 71
     8
 72
     1
  1
Doc. change no.
  7
CONVERTER_14
 73
     1
 44
0.7202881152461
  0
MTEXT
  5
28D
330
85
100
AcDbEntity
  8
0
 62
     7
100
AcDbMText
 10
-904.1923098553503
 20
-1151.635530765322
 30
0.0
 40
1.3
 41
0.0
 71
     8
 72
     1
  1
Mitteilungs-Nr.
  7
CONVERTER_14
 73
     1
 44
0.7202881152461
  0
MTEXT
  5
28E
330
85
100
AcDbEntity
  8
0
 62
     4
100
AcDbMText
 10
-825.9967524389303
 20
-1131.495960057375
 30
0.0
 40
5.0
 41
0.0
 71
     5
 72
     1
  1
/
  7
CONVERTER_11
 73
     1
 44
1.02040816326531
  0
MTEXT
  5
28F
330
85
100
AcDbEntity
  8
0
 62
     7
100
AcDbMText
 10
-934.9923098553504
 20
-1147.545963057375
 30
0.0
 40
2.0
 41
0.0
 71
     5
 72
     1
  1
E00
  7
CONVERTER_11
 73
     1
 44
1.02040816326531
  0
MTEXT
  5
290
330
85
100
AcDbEntity
  8
0
 62
     7
100
AcDbMText
 10
-934.9923098553504
 20
-1143.245975057375
 30
0.0
 40
2.0
 41
0.0
 71
     5
 72
     1
  1
 
  7
CONVERTER_11
 73
     1
 44
1.02040816326531
  0
MTEXT
  5
291
330
85
100
AcDbEntity
  8
0
 62
     7
100
AcDbMText
 10
-934.9923098553504
 20
-1138.945987057375
 30
0.0
 40
2.0
 41
0.0
 71
     5
 72
     1
  1
 
  7
CONVERTER_11
 73
     1
 44
1.02040816326531
  0
MTEXT
  5
292
330
85
100
AcDbEntity
  8
0
 62
     7
100
AcDbMText
 10
-934.9923098553504
 20
-1134.645999057375
 30
0.0
 40
2.0
 41
0.0
 71
     5
 72
     1
  1
 
  7
CONVERTER_11
 73
     1
 44
1.02040816326531
  0
MTEXT
  5
293
330
85
100
AcDbEntity
  8
0
 62
     7
100
AcDbMText
 10
-934.9923098553504
 20
-1130.346011057375
 30
0.0
 40
2.0
 41
0.0
 71
     5
 72
     1
  1
 
  7
CONVERTER_11
 73
     1
 44
1.02040816326531
  0
MTEXT
  5
294
330
85
100
AcDbEntity
  8
0
 62
     7
100
AcDbMText
 10
-934.9923098553504
 20
-1126.046023057375
 30
0.0
 40
2.0
 41
0.0
 71
     5
 72
     1
  1
 
  7
CONVERTER_11
 73
     1
 44
1.02040816326531
  0
MTEXT
  5
295
330
85
100
AcDbEntity
  8
0
 62
     7
100
AcDbMText
 10
-934.9923098553504
 20
-1121.746035057375
 30
0.0
 40
2.0
 41
0.0
 71
     5
 72
     1
  1
 
  7
CONVERTER_11
 73
     1
 44
1.02040816326531
  0
MTEXT
  5
296
330
85
100
AcDbEntity
  8
0
 62
     7
100
AcDbMText
 10
-925.1923098553503
 20
-1117.446047057375
 30
0.0
 40
2.0
 41
0.0
 71
     5
 72
     1
  1
 
  7
CONVERTER_16
 73
     1
 44
1.02040816326531
  0
MTEXT
  5
297
330
85
100
AcDbEntity
  8
0
 62
     7
100
AcDbMText
 10
-934.9923098553504
 20
-1113.146059057375
 30
0.0
 40
2.0
 41
0.0
 71
     5
 72
     1
  1
 
  7
CONVERTER_11
 73
     1
 44
1.02040816326531
  0
MTEXT
  5
298
330
85
100
AcDbEntity
  8
0
 62
     7
100
AcDbMText
 10
-904.1923098553503
 20
-1113.146059057375
 30
0.0
 40
2.0
 41
0.0
 71
     5
 72
     1
  1
 
  7
CONVERTER_11
 73
     1
 44
1.02040816326531
  0
MTEXT
  5
299
330
85
100
AcDbEntity
  8
0
 62
     7
100
AcDbMText
 10
-915.3923098553503
 20
-1117.446047057375
 30
0.0
 40
2.0
 41
0.0
 71
     5
 72
     1
  1
 
  7
CONVERTER_14
 73
     1
 44
1.02040816326531
  0
MTEXT
  5
29A
330
85
100
AcDbEntity
  8
0
 62
     7
100
AcDbMText
 10
-915.3923098553503
 20
-1121.746035057375
 30
0.0
 40
2.0
 41
0.0
 71
     5
 72
     1
  1
 
  7
CONVERTER_14
 73
     1
 44
1.02040816326531
  0
MTEXT
  5
29B
330
85
100
AcDbEntity
  8
0
 62
     7
100
AcDbMText
 10
-915.3923098553503
 20
-1126.046023057375
 30
0.0
 40
2.0
 41
0.0
 71
     5
 72
     1
  1
 
  7
CONVERTER_14
 73
     1
 44
1.02040816326531
  0
MTEXT
  5
29C
330
85
100
AcDbEntity
  8
0
 62
     7
100
AcDbMText
 10
-925.1923098553503
 20
-1130.346011057375
 30
0.0
 40
2.0
 41
0.0
 71
     5
 72
     1
  1
 
  7
CONVERTER_16
 73
     1
 44
1.02040816326531
  0
MTEXT
  5
29D
330
85
100
AcDbEntity
  8
0
 62
     7
100
AcDbMText
 10
-915.3923098553503
 20
-1134.645999057375
 30
0.0
 40
2.0
 41
0.0
 71
     5
 72
     1
  1
 
  7
CONVERTER_14
 73
     1
 44
1.02040816326531
  0
MTEXT
  5
29E
330
85
100
AcDbEntity
  8
0
 62
     7
100
AcDbMText
 10
-904.1923098553503
 20
-1138.945987057375
 30
0.0
 40
2.0
 41
0.0
 71
     5
 72
     1
  1
 
  7
CONVERTER_11
 73
     1
 44
1.02040816326531
  0
MTEXT
  5
29F
330
85
100
AcDbEntity
  8
0
 62
     7
100
AcDbMText
 10
-904.1923098553503
 20
-1143.245975057375
 30
0.0
 40
2.0
 41
0.0
 71
     5
 72
     1
  1
 
  7
CONVERTER_11
 73
     1
 44
1.02040816326531
  0
MTEXT
  5
2A0
330
85
100
AcDbEntity
  8
0
 62
     7
100
AcDbMText
 10
-925.1923098553503
 20
-1147.545963057375
 30
0.0
 40
2.0
 41
0.0
 71
     5
 72
     1
  1
01.08.14
  7
CONVERTER_16
 73
     1
 44
1.02040816326531
  0
MTEXT
  5
2A1
330
85
100
AcDbEntity
  8
0
 62
     7
100
AcDbMText
 10
-915.3923098553503
 20
-1147.545963057375
 30
0.0
 40
2.0
 41
0.0
 71
     5
 72
     1
  1
tbt7
  7
CONVERTER_14
 73
     1
 44
1.02040816326531
  0
MTEXT
  5
2A2
330
85
100
AcDbEntity
  8
0
 62
     7
100
AcDbMText
 10
-904.1923098553503
 20
-1134.645999057375
 30
0.0
 40
2.0
 41
0.0
 71
     5
 72
     1
  1
 
  7
CONVERTER_11
 73
     1
 44
1.02040816326531
  0
MTEXT
  5
2A3
330
85
100
AcDbEntity
  8
0
 62
     7
100
AcDbMText
 10
-925.1923098553503
 20
-1138.945987057375
 30
0.0
 40
2.0
 41
0.0
 71
     5
 72
     1
  1
 
  7
CONVERTER_16
 73
     1
 44
1.02040816326531
  0
MTEXT
  5
2A4
330
85
100
AcDbEntity
  8
0
 62
     7
100
AcDbMText
 10
-904.1923098553503
 20
-1147.545963057375
 30
0.0
 40
2.0
 41
0.0
 71
     5
 72
     1
  1
*
  7
CONVERTER_11
 73
     1
 44
1.02040816326531
  0
MTEXT
  5
2A5
330
85
100
AcDbEntity
  8
0
 62
     7
100
AcDbMText
 10
-925.1923098553503
 20
-1143.245975057375
 30
0.0
 40
2.0
 41
0.0
 71
     5
 72
     1
  1
 
  7
CONVERTER_16
 73
     1
 44
1.02040816326531
  0
MTEXT
  5
2A6
330
85
100
AcDbEntity
  8
0
 62
     7
100
AcDbMText
 10
-925.1923098553503
 20
-1134.645999057375
 30
0.0
 40
2.0
 41
0.0
 71
     5
 72
     1
  1
 
  7
CONVERTER_16
 73
     1
 44
1.02040816326531
  0
MTEXT
  5
2A7
330
85
100
AcDbEntity
  8
0
 62
     7
100
AcDbMText
 10
-925.1923098553503
 20
-1126.046023057375
 30
0.0
 40
2.0
 41
0.0
 71
     5
 72
     1
  1
 
  7
CONVERTER_16
 73
     1
 44
1.02040816326531
  0
MTEXT
  5
2A8
330
85
100
AcDbEntity
  8
0
 62
     7
100
AcDbMText
 10
-925.1923098553503
 20
-1121.746035057375
 30
0.0
 40
2.0
 41
0.0
 71
     5
 72
     1
  1
 
  7
CONVERTER_16
 73
     1
 44
1.02040816326531
  0
MTEXT
  5
2A9
330
85
100
AcDbEntity
  8
0
 62
     7
100
AcDbMText
 10
-925.1923098553503
 20
-1113.146059057375
 30
0.0
 40
2.0
 41
0.0
 71
     5
 72
     1
  1
 
  7
CONVERTER_16
 73
     1
 44
1.02040816326531
  0
MTEXT
  5
2AA
330
85
100
AcDbEntity
  8
0
 62
     7
100
AcDbMText
 10
-915.3923098553503
 20
-1143.245975057375
 30
0.0
 40
2.0
 41
0.0
 71
     5
 72
     1
  1
 
  7
CONVERTER_14
 73
     1
 44
1.02040816326531
  0
MTEXT
  5
2AB
330
85
100
AcDbEntity
  8
0
 62
     7
100
AcDbMText
 10
-915.3923098553503
 20
-1138.945987057375
 30
0.0
 40
2.0
 41
0.0
 71
     5
 72
     1
  1
 
  7
CONVERTER_14
 73
     1
 44
1.02040816326531
  0
MTEXT
  5
2AC
330
85
100
AcDbEntity
  8
0
 62
     7
100
AcDbMText
 10
-915.3923098553503
 20
-1130.346011057375
 30
0.0
 40
2.0
 41
0.0
 71
     5
 72
     1
  1
 
  7
CONVERTER_14
 73
     1
 44
1.02040816326531
  0
MTEXT
  5
2AD
330
85
100
AcDbEntity
  8
0
 62
     7
100
AcDbMText
 10
-915.3923098553503
 20
-1113.146059057375
 30
0.0
 40
2.0
 41
0.0
 71
     5
 72
     1
  1
 
  7
CONVERTER_14
 73
     1
 44
1.02040816326531
  0
MTEXT
  5
2AE
330
85
100
AcDbEntity
  8
0
 62
     7
100
AcDbMText
 10
-904.1923098553503
 20
-1130.346011057375
 30
0.0
 40
2.0
 41
0.0
 71
     5
 72
     1
  1
 
  7
CONVERTER_11
 73
     1
 44
1.02040816326531
  0
MTEXT
  5
2AF
330
85
100
AcDbEntity
  8
0
 62
     7
100
AcDbMText
 10
-904.1923098553503
 20
-1126.046023057375
 30
0.0
 40
2.0
 41
0.0
 71
     5
 72
     1
  1
 
  7
CONVERTER_11
 73
     1
 44
1.02040816326531
  0
MTEXT
  5
2B0
330
85
100
AcDbEntity
  8
0
 62
     7
100
AcDbMText
 10
-904.1923098553503
 20
-1121.746035057375
 30
0.0
 40
2.0
 41
0.0
 71
     5
 72
     1
  1
 
  7
CONVERTER_11
 73
     1
 44
1.02040816326531
  0
MTEXT
  5
2B1
330
85
100
AcDbEntity
  8
0
 62
     7
100
AcDbMText
 10
-904.1923098553503
 20
-1117.446047057375
 30
0.0
 40
2.0
 41
0.0
 71
     5
 72
     1
  1
 
  7
CONVERTER_11
 73
     1
 44
1.02040816326531
  0
MTEXT
  5
2B2
330
85
100
AcDbEntity
  8
0
 62
     7
100
AcDbMText
 10
-934.9923098553504
 20
-1117.446047057375
 30
0.0
 40
2.0
 41
0.0
 71
     5
 72
     1
  1
 
  7
CONVERTER_11
 73
     1
 44
1.02040816326531
  0
MTEXT
  5
2B3
330
85
100
AcDbEntity
  8
0
 62
     3
100
AcDbMText
 10
-872.1570797871684
 20
-1134.182344839537
 30
0.0
 40
2.5
 41
0.0
 71
     5
 72
     1
  1
01.08.14
  7
CONVERTER_16
 73
     1
 44
1.02040816326531
  0
MTEXT
  5
2B4
330
85
100
AcDbEntity
  8
0
 62
     3
100
AcDbMText
 10
-855.0650315371684
 20
-1134.182344839537
 30
0.0
 40
2.5
 41
0.0
 71
     5
 72
     1
  1
tbt7
  7
CONVERTER_14
 73
     1
 44
1.02040816326531
  0
MTEXT
  5
2B5
330
85
100
AcDbEntity
  8
0
 62
     1
100
AcDbMText
 10
-833.0136063711334
 20
-1137.784709749972
 30
0.0
 40
5.0
 41
0.0
 71
     5
 72
     1
  1
1:1
  7
CONVERTER_11
 73
     1
 44
1.02040816326531
  0
MTEXT
  5
2B6
330
85
100
AcDbEntity
  8
0
 62
     3
100
AcDbMText
 10
-872.1570797871684
 20
-1138.507790926672
 30
0.0
 40
2.5
 41
0.0
 71
     5
 72
     1
  1
 
  7
CONVERTER_16
 73
     1
 44
1.02040816326531
  0
MTEXT
  5
2B7
330
85
100
AcDbEntity
  8
0
 62
     3
100
AcDbMText
 10
-866.4493016689353
 20
-1151.585824388899
 30
0.0
 40
2.5
 41
0.0
 71
     5
 72
     1
  1
 
  7
CONVERTER_11
 73
     1
 44
1.02040816326531
  0
MTEXT
  5
2B8
330
85
100
AcDbEntity
  8
0
 62
     3
100
AcDbMText
 10
-866.4493016689353
 20
-1144.085824388899
 30
0.0
 40
2.5
 41
0.0
 71
     5
 72
     1
  1
 
  7
CONVERTER_11
 73
     1
 44
1.02040816326531
  0
MTEXT
  5
2B9
330
85
100
AcDbEntity
  8
0
 62
     3
100
AcDbMText
 10
-855.0650315371684
 20
-1138.507790926672
 30
0.0
 40
2.5
 41
0.0
 71
     5
 72
     1
  1
 
  7
CONVERTER_14
 73
     1
 44
1.02040816326531
  0
MTEXT
  5
2BA
330
85
100
AcDbEntity
  8
0
 62
     4
100
AcDbMText
 10
-809.1923098553503
 20
-1124.444989118427
 30
0.0
 40
3.5
 41
0.0
 71
     5
 72
     1
  1
Deckenmelder
  7
CONVERTER_14
 73
     1
 44
1.02040816326531
  0
MTEXT
  5
2BB
330
85
100
AcDbEntity
  8
0
 62
     1
100
AcDbMText
 10
-809.1923098553503
 20
-1117.556722513533
 30
0.0
 40
4.5
 41
0.0
 71
     5
 72
     1
  1
Produktzeichnung Wandwinkel
  7
CONVERTER_14
 73
     1
 44
1.02040816326531
  0
MTEXT
  5
2BC
330
85
100
AcDbEntity
  8
0
 62
     1
100
AcDbMText
 10
-790.1923098553503
 20
-1135.485808875317
 30
0.0
 40
5.0
 41
0.0
 71
     5
 72
     1
  1
 
  7
CONVERTER_11
 73
     1
 44
1.02040816326531
  0
MTEXT
  5
2BD
330
85
100
AcDbEntity
  8
0
 62
     1
100
AcDbMText
 10
-790.1923098553503
 20
-1148.610440971647
 30
0.0
 40
5.0
 41
0.0
 71
     5
 72
     1
  1
21202-EU-001
  7
CONVERTER_14
 73
     1
 44
1.02040816326531
  0
MTEXT
  5
2BE
330
85
100
AcDbEntity
  8
0
 62
     4
100
AcDbMText
 10
-822.7765064110263
 20
-1131.495960057375
 30
0.0
 40
3.5
 41
0.0
 71
     5
 72
     1
  1
1
  7
CONVERTER_11
 73
     1
 44
1.02040816326531
  0
MTEXT
  5
2BF
330
85
100
AcDbEntity
  8
0
 62
     4
100
AcDbMText
 10
-829.5695944416713
 20
-1131.495960057375
 30
0.0
 40
3.5
 41
0.0
 71
     5
 72
     1
  1
1
  7
CONVERTER_11
 73
     1
 44
1.02040816326531
  0
MTEXT
  5
2C0
330
85
100
AcDbEntity
  8
0
 62
     7
100
AcDbMText
 10
-941.5923098553503
 20
-1151.891333730257
 30
0.0
 40
1.3
 41
0.0
 71
     8
 72
     1
  1
EMPB
  7
CONVERTER_14
 73
     1
 44
0.7202881152461
  0
TEXT
  5
2C2
330
85
100
AcDbEntity
  8
0
 62
     4
100
AcDbText
 10
-896.1647141354924
 20
-1126.855095005472
 30
0.0
 40
2.5
  1
vertraulich / confidential
 41
0.765
  7
CONVERTER_17
100
AcDbText
  0
MTEXT
  5
2C3
330
85
100
AcDbEntity
  8
0
 62
     4
100
AcDbMText
 10
-941.9923098553504
 20
-1147.545963057375
 30
0.0
 40
2.0
 41
0.0
 71
     5
 72
     1
  1
 
  7
CONVERTER_11
 73
     1
 44
1.02040816326531
  0
MTEXT
  5
2C4
330
85
100
AcDbEntity
  8
0
 62
     4
100
AcDbMText
 10
-941.9923098553504
 20
-1143.245975057375
 30
0.0
 40
2.0
 41
0.0
 71
     5
 72
     1
  1
 
  7
CONVERTER_11
 73
     1
 44
1.02040816326531
  0
MTEXT
  5
2C5
330
85
100
AcDbEntity
  8
0
 62
     4
100
AcDbMText
 10
-941.9923098553504
 20
-1138.945987057375
 30
0.0
 40
2.0
 41
0.0
 71
     5
 72
     1
  1
 
  7
CONVERTER_11
 73
     1
 44
1.02040816326531
  0
MTEXT
  5
2C6
330
85
100
AcDbEntity
  8
0
 62
     4
100
AcDbMText
 10
-941.9923098553504
 20
-1134.645999057375
 30
0.0
 40
2.0
 41
0.0
 71
     5
 72
     1
  1
 
  7
CONVERTER_11
 73
     1
 44
1.02040816326531
  0
MTEXT
  5
2C7
330
85
100
AcDbEntity
  8
0
 62
     4
100
AcDbMText
 10
-941.9923098553504
 20
-1130.346011057375
 30
0.0
 40
2.0
 41
0.0
 71
     5
 72
     1
  1
 
  7
CONVERTER_11
 73
     1
 44
1.02040816326531
  0
MTEXT
  5
2C8
330
85
100
AcDbEntity
  8
0
 62
     4
100
AcDbMText
 10
-941.9923098553504
 20
-1126.046023057375
 30
0.0
 40
2.0
 41
0.0
 71
     5
 72
     1
  1
 
  7
CONVERTER_11
 73
     1
 44
1.02040816326531
  0
MTEXT
  5
2C9
330
85
100
AcDbEntity
  8
0
 62
     4
100
AcDbMText
 10
-941.9923098553504
 20
-1121.746035057375
 30
0.0
 40
2.0
 41
0.0
 71
     5
 72
     1
  1
 
  7
CONVERTER_11
 73
     1
 44
1.02040816326531
  0
MTEXT
  5
2CA
330
85
100
AcDbEntity
  8
0
 62
     4
100
AcDbMText
 10
-941.9923098553504
 20
-1117.446047057375
 30
0.0
 40
2.0
 41
0.0
 71
     5
 72
     1
  1
 
  7
CONVERTER_11
 73
     1
 44
1.02040816326531
  0
MTEXT
  5
2CB
330
85
100
AcDbEntity
  8
0
 62
     4
100
AcDbMText
 10
-941.9923098553504
 20
-1113.146059057375
 30
0.0
 40
2.0
 41
0.0
 71
     5
 72
     1
  1
 
  7
CONVERTER_11
 73
     1
 44
1.02040816326531
  0
ENDBLK
  5
87
330
85
100
AcDbEntity
  8
0
100
AcDbBlockEnd
  0
BLOCK
  5
8A
330
88
100
AcDbEntity
  8
0
100
AcDbBlockBegin
  2
Rahmen
 70
     0
 10
-1175.192309855351
 20
-1153.995960057375
 30
0.0
  3
Rahmen
  1

  0
INSERT
  5
89
330
88
100
AcDbEntity
  8
1
100
AcDbBlockReference
  2
a3kl
 10
-1175.192309855351
 20
-1153.995960057375
 30
0.0
  0
ENDBLK
  5
8B
330
88
100
AcDbEntity
  8
0
100
AcDbBlockEnd
  0
BLOCK
  5
132
330
12B
100
AcDbEntity
  8
0
100
AcDbBlockBegin
  2
*D11
 70
     1
 10
0.0
 20
0.0
 30
0.0
  3
*D11
  1

  0
LINE
  5
12C
330
12B
100
AcDbEntity
  8
1
  6
Continuous
 62
     3
100
AcDbLine
 10
-1103.85194965564
 20
-1073.495962487534
 30
0.0
 11
-1103.85194965564
 21
-1113.495962630021
 31
0.0
  0
LINE
  5
12D
330
12B
100
AcDbEntity
  8
1
  6
Continuous
 62
     3
100
AcDbLine
 10
-1093.990736340721
 20
-1113.495962630021
 30
0.0
 11
-1105.85194965564
 21
-1113.495962630021
 31
0.0
  0
LINE
  5
12E
330
12B
100
AcDbEntity
  8
1
  6
Continuous
 62
     3
100
AcDbLine
 10
-1093.990736340721
 20
-1073.495962487534
 30
0.0
 11
-1105.85194965564
 21
-1073.495962487534
 31
0.0
  0
SOLID
  5
12F
330
12B
100
AcDbEntity
  8
1
 62
     3
100
AcDbTrace
 10
-1103.391165914084
 20
-1076.995962487534
 30
0.0
 11
-1104.312733397196
 21
-1076.995962487534
 31
0.0
 12
-1103.85194965564
 22
-1073.495962487534
 32
0.0
 13
-1103.85194965564
 23
-1073.495962487534
 33
0.0
  0
SOLID
  5
130
330
12B
100
AcDbEntity
  8
1
 62
     3
100
AcDbTrace
 10
-1104.312733397196
 20
-1109.995962630021
 30
0.0
 11
-1103.391165914084
 21
-1109.995962630021
 31
0.0
 12
-1103.85194965564
 22
-1113.495962630021
 32
0.0
 13
-1103.85194965564
 23
-1113.495962630021
 33
0.0
  0
MTEXT
  5
131
330
12B
100
AcDbEntity
  8
1
 62
     4
100
AcDbMText
 10
-1105.85194965564
 20
-1096.02630418636
 30
0.0
 40
3.5
 41
0.0
 71
     7
 72
     1
  1
40
  7
CONVERTER_11
 11
0.0
 21
1.0
 31
0.0
 73
     1
 44
0.60024009603842
  0
ENDBLK
  5
133
330
12B
100
AcDbEntity
  8
0
100
AcDbBlockEnd
  0
BLOCK
  5
13D
330
136
100
AcDbEntity
  8
0
100
AcDbBlockBegin
  2
*D12
 70
     1
 10
0.0
 20
0.0
 30
0.0
  3
*D12
  1

  0
LINE
  5
137
330
136
100
AcDbEntity
  8
1
  6
Continuous
 62
     3
100
AcDbLine
 10
-971.6573047220311
 20
-1073.495962487534
 30
0.0
 11
-971.6573047220311
 21
-1095.495962558777
 31
0.0
  0
LINE
  5
138
330
136
100
AcDbEntity
  8
1
  6
Continuous
 62
     3
100
AcDbLine
 10
-1064.990736340721
 20
-1095.495962558777
 30
0.0
 11
-969.6573047220311
 21
-1095.495962558777
 31
0.0
  0
LINE
  5
139
330
136
100
AcDbEntity
  8
1
  6
Continuous
 62
     3
100
AcDbLine
 10
-981.9907363407208
 20
-1073.495962487534
 30
0.0
 11
-969.6573047220311
 21
-1073.495962487534
 31
0.0
  0
SOLID
  5
13A
330
136
100
AcDbEntity
  8
1
 62
     3
100
AcDbTrace
 10
-971.1965209804752
 20
-1076.995962487534
 30
0.0
 11
-972.118088463587
 21
-1076.995962487534
 31
0.0
 12
-971.6573047220311
 22
-1073.495962487534
 32
0.0
 13
-971.6573047220311
 23
-1073.495962487534
 33
0.0
  0
SOLID
  5
13B
330
136
100
AcDbEntity
  8
1
 62
     3
100
AcDbTrace
 10
-972.118088463587
 20
-1091.995962558777
 30
0.0
 11
-971.1965209804752
 21
-1091.995962558777
 31
0.0
 12
-971.6573047220311
 22
-1095.495962558777
 32
0.0
 13
-971.6573047220311
 23
-1095.495962558777
 33
0.0
  0
MTEXT
  5
13C
330
136
100
AcDbEntity
  8
1
 62
     4
100
AcDbMText
 10
-973.6573047220311
 20
-1087.36440530499
 30
0.0
 40
3.5
 41
0.0
 71
     7
 72
     1
  1
22
  7
CONVERTER_11
 11
0.0
 21
1.0
 31
0.0
 73
     1
 44
0.60024009603842
  0
ENDBLK
  5
13E
330
136
100
AcDbEntity
  8
0
100
AcDbBlockEnd
  0
BLOCK
  5
148
330
141
100
AcDbEntity
  8
0
100
AcDbBlockBegin
  2
*D13
 70
     1
 10
0.0
 20
0.0
 30
0.0
  3
*D13
  1

  0
LINE
  5
142
330
141
100
AcDbEntity
  8
1
  6
Continuous
 62
     3
100
AcDbLine
 10
-1067.990736340721
 20
-1123.495962630022
 30
0.0
 11
-1007.990736340721
 21
-1123.495962630022
 31
0.0
  0
LINE
  5
143
330
141
100
AcDbEntity
  8
1
  6
Continuous
 62
     3
100
AcDbLine
 10
-1007.990736340721
 20
-1098.495962558778
 30
0.0
 11
-1007.990736340721
 21
-1125.495962630022
 31
0.0
  0
LINE
  5
144
330
141
100
AcDbEntity
  8
1
  6
Continuous
 62
     3
100
AcDbLine
 10
-1067.990736340721
 20
-1098.495962558778
 30
0.0
 11
-1067.990736340721
 21
-1125.495962630022
 31
0.0
  0
SOLID
  5
145
330
141
100
AcDbEntity
  8
1
 62
     3
100
AcDbTrace
 10
-1064.490736340721
 20
-1123.035178888466
 30
0.0
 11
-1064.490736340721
 21
-1123.956746371578
 31
0.0
 12
-1067.990736340721
 22
-1123.495962630022
 32
0.0
 13
-1067.990736340721
 23
-1123.495962630022
 33
0.0
  0
SOLID
  5
146
330
141
100
AcDbEntity
  8
1
 62
     3
100
AcDbTrace
 10
-1011.490736340721
 20
-1123.956746371578
 30
0.0
 11
-1011.490736340721
 21
-1123.035178888466
 31
0.0
 12
-1007.990736340721
 22
-1123.495962630022
 32
0.0
 13
-1007.990736340721
 23
-1123.495962630022
 33
0.0
  0
MTEXT
  5
147
330
141
100
AcDbEntity
  8
1
 62
     4
100
AcDbMText
 10
-1040.615736340721
 20
-1121.495962630022
 30
0.0
 40
3.5
 41
0.0
 71
     7
 72
     1
  1
60
  7
CONVERTER_11
 11
0.9999999999970619
 21
2.424068405545306E-6
 31
0.0
 73
     1
 44
0.60024009603842
  0
ENDBLK
  5
149
330
141
100
AcDbEntity
  8
0
100
AcDbBlockEnd
  0
BLOCK
  5
18D
330
186
100
AcDbEntity
  8
0
100
AcDbBlockBegin
  2
*D14
 70
     1
 10
0.0
 20
0.0
 30
0.0
  3
*D14
  1

  0
LINE
  5
187
330
186
100
AcDbEntity
  8
1
  6
Continuous
 62
     3
100
AcDbLine
 10
-1093.990736340721
 20
-1054.995960546248
 30
0.0
 11
-981.9907363407216
 21
-1054.995960546248
 31
0.0
  0
LINE
  5
188
330
186
100
AcDbEntity
  8
1
  6
Continuous
 62
     3
100
AcDbLine
 10
-981.9907363407216
 20
-960.995960403761
 30
0.0
 11
-981.9907363407216
 21
-1056.995960546248
 31
0.0
  0
LINE
  5
189
330
186
100
AcDbEntity
  8
1
  6
Continuous
 62
     3
100
AcDbLine
 10
-1093.990736340721
 20
-960.9959604037609
 30
0.0
 11
-1093.990736340721
 21
-1056.995960546248
 31
0.0
  0
SOLID
  5
18A
330
186
100
AcDbEntity
  8
1
 62
     3
100
AcDbTrace
 10
-1090.490736340721
 20
-1054.535176804692
 30
0.0
 11
-1090.490736340721
 21
-1055.456744287804
 31
0.0
 12
-1093.990736340721
 22
-1054.995960546248
 32
0.0
 13
-1093.990736340721
 23
-1054.995960546248
 33
0.0
  0
SOLID
  5
18B
330
186
100
AcDbEntity
  8
1
 62
     3
100
AcDbTrace
 10
-985.4907363407216
 20
-1055.456744287804
 30
0.0
 11
-985.4907363407216
 21
-1054.535176804692
 31
0.0
 12
-981.9907363407216
 22
-1054.995960546248
 32
0.0
 13
-981.9907363407216
 23
-1054.995960546248
 33
0.0
  0
MTEXT
  5
18C
330
186
100
AcDbEntity
  8
1
 62
     4
100
AcDbMText
 10
-1041.140736340722
 20
-1052.995960546248
 30
0.0
 40
3.5
 41
0.0
 71
     7
 72
     1
  1
112
  7
CONVERTER_11
 11
0.9999999999970619
 21
2.424068405545306E-6
 31
0.0
 73
     1
 44
0.60024009603842
  0
ENDBLK
  5
18E
330
186
100
AcDbEntity
  8
0
100
AcDbBlockEnd
  0
BLOCK
  5
198
330
191
100
AcDbEntity
  8
0
100
AcDbBlockBegin
  2
*D15
 70
     1
 10
0.0
 20
0.0
 30
0.0
  3
*D15
  1

  0
LINE
  5
192
330
191
100
AcDbEntity
  8
1
  6
Continuous
 62
     3
100
AcDbLine
 10
-1103.990736340721
 20
-1044.995960546248
 30
0.0
 11
-1103.990736340721
 21
-989.9959605462479
 31
0.0
  0
LINE
  5
193
330
191
100
AcDbEntity
  8
1
  6
Continuous
 62
     3
100
AcDbLine
 10
-1043.490736340721
 20
-989.9959605462479
 30
0.0
 11
-1105.990736340721
 21
-989.9959605462479
 31
0.0
  0
LINE
  5
194
330
191
100
AcDbEntity
  8
1
  6
Continuous
 62
     3
100
AcDbLine
 10
-1093.990736340721
 20
-1044.995960546248
 30
0.0
 11
-1105.990736340721
 21
-1044.995960546248
 31
0.0
  0
SOLID
  5
195
330
191
100
AcDbEntity
  8
1
 62
     3
100
AcDbTrace
 10
-1104.451520082277
 20
-1041.495960546248
 30
0.0
 11
-1103.529952599165
 21
-1041.495960546248
 31
0.0
 12
-1103.990736340721
 22
-1044.995960546248
 32
0.0
 13
-1103.990736340721
 23
-1044.995960546248
 33
0.0
  0
SOLID
  5
196
330
191
100
AcDbEntity
  8
1
 62
     3
100
AcDbTrace
 10
-1103.529952599165
 20
-993.4959605462479
 30
0.0
 11
-1104.451520082277
 21
-993.4959605462479
 31
0.0
 12
-1103.990736340721
 22
-989.9959605462479
 32
0.0
 13
-1103.990736340721
 23
-989.9959605462479
 33
0.0
  0
MTEXT
  5
197
330
191
100
AcDbEntity
  8
1
 62
     4
100
AcDbMText
 10
-1105.990736340721
 20
-1020.46444104549
 30
0.0
 40
3.5
 41
0.0
 71
     7
 72
     1
  1
55
  7
CONVERTER_11
 11
0.0
 21
1.0
 31
0.0
 73
     1
 44
0.60024009603842
  0
ENDBLK
  5
199
330
191
100
AcDbEntity
  8
0
100
AcDbBlockEnd
  0
BLOCK
  5
1A3
330
19C
100
AcDbEntity
  8
0
100
AcDbBlockBegin
  2
*D16
 70
     1
 10
0.0
 20
0.0
 30
0.0
  3
*D16
  1

  0
LINE
  5
19D
330
19C
100
AcDbEntity
  8
1
  6
Continuous
 62
     3
100
AcDbLine
 10
-1113.990736340721
 20
-1044.995960546248
 30
0.0
 11
-1113.990736340721
 21
-960.9959604037605
 31
0.0
  0
LINE
  5
19E
330
19C
100
AcDbEntity
  8
1
  6
Continuous
 62
     3
100
AcDbLine
 10
-1094.490736340721
 20
-960.9959604037605
 30
0.0
 11
-1115.990736340721
 21
-960.9959604037605
 31
0.0
  0
LINE
  5
19F
330
19C
100
AcDbEntity
  8
1
  6
Continuous
 62
     3
100
AcDbLine
 10
-1093.990736340721
 20
-1044.995960546248
 30
0.0
 11
-1115.990736340721
 21
-1044.995960546248
 31
0.0
  0
SOLID
  5
1A0
330
19C
100
AcDbEntity
  8
1
 62
     3
100
AcDbTrace
 10
-1114.451520082277
 20
-1041.495960546248
 30
0.0
 11
-1113.529952599165
 21
-1041.495960546248
 31
0.0
 12
-1113.990736340721
 22
-1044.995960546248
 32
0.0
 13
-1113.990736340721
 23
-1044.995960546248
 33
0.0
  0
SOLID
  5
1A1
330
19C
100
AcDbEntity
  8
1
 62
     3
100
AcDbTrace
 10
-1113.529952599165
 20
-964.4959604037605
 30
0.0
 11
-1114.451520082277
 21
-964.4959604037605
 31
0.0
 12
-1113.990736340721
 22
-960.9959604037605
 32
0.0
 13
-1113.990736340721
 23
-960.9959604037605
 33
0.0
  0
MTEXT
  5
1A2
330
19C
100
AcDbEntity
  8
1
 62
     4
100
AcDbMText
 10
-1115.990736340721
 20
-1008.870960475004
 30
0.0
 40
3.5
 41
0.0
 71
     7
 72
     1
  1
84
  7
CONVERTER_11
 11
0.0
 21
1.0
 31
0.0
 73
     1
 44
0.60024009603842
  0
ENDBLK
  5
1A4
330
19C
100
AcDbEntity
  8
0
100
AcDbBlockEnd
  0
BLOCK
  5
1AE
330
1A7
100
AcDbEntity
  8
0
100
AcDbBlockBegin
  2
*D17
 70
     1
 10
0.0
 20
0.0
 30
0.0
  3
*D17
  1

  0
LINE
  5
1A8
330
1A7
100
AcDbEntity
  8
1
  6
Continuous
 62
     3
100
AcDbLine
 10
-1123.990736340721
 20
-904.9959604037608
 30
0.0
 11
-1123.990736340721
 21
-1044.995960546248
 31
0.0
  0
LINE
  5
1A9
330
1A7
100
AcDbEntity
  8
1
  6
Continuous
 62
     3
100
AcDbLine
 10
-981.9907363407212
 20
-1044.995960546248
 30
0.0
 11
-1125.990736340721
 21
-1044.995960546248
 31
0.0
  0
LINE
  5
1AA
330
1A7
100
AcDbEntity
  8
1
  6
Continuous
 62
     3
100
AcDbLine
 10
-1037.990736340721
 20
-904.9959604037608
 30
0.0
 11
-1125.990736340721
 21
-904.9959604037608
 31
0.0
  0
SOLID
  5
1AB
330
1A7
100
AcDbEntity
  8
1
 62
     3
100
AcDbTrace
 10
-1123.529952599165
 20
-908.4959604037608
 30
0.0
 11
-1124.451520082277
 21
-908.4959604037608
 31
0.0
 12
-1123.990736340721
 22
-904.9959604037608
 32
0.0
 13
-1123.990736340721
 23
-904.9959604037608
 33
0.0
  0
SOLID
  5
1AC
330
1A7
100
AcDbEntity
  8
1
 62
     3
100
AcDbTrace
 10
-1124.451520082277
 20
-1041.495960546248
 30
0.0
 11
-1123.529952599165
 21
-1041.495960546248
 31
0.0
 12
-1123.990736340721
 22
-1044.995960546248
 32
0.0
 13
-1123.990736340721
 23
-1044.995960546248
 33
0.0
  0
MTEXT
  5
1AD
330
1A7
100
AcDbEntity
  8
1
 62
     4
100
AcDbMText
 10
-1125.990736340721
 20
-980.140669287869
 30
0.0
 40
3.5
 41
0.0
 71
     7
 72
     1
  1
140
  7
CONVERTER_11
 11
0.0
 21
1.0
 31
0.0
 73
     1
 44
0.60024009603842
  0
ENDBLK
  5
1AF
330
1A7
100
AcDbEntity
  8
0
100
AcDbBlockEnd
  0
ENDSEC
  0
SECTION
  2
ENTITIES
  0
INSERT
  5
8C
330
1F
100
AcDbEntity
  8
0
100
AcDbBlockReference
  2
AllgA
 10
-869.0
 20
-965.0
 30
0.0
  0
INSERT
  5
8D
330
1F
100
AcDbEntity
  8
0
100
AcDbBlockReference
  2
DrfsichtA
 10
-1038.0
 20
-1093.389846000001
 30
0.0
  0
INSERT
  5
8E
330
1F
100
AcDbEntity
  8
0
100
AcDbBlockReference
  2
SA_LinksA
 10
-938.0000000000008
 20
-974.9999999999997
 30
0.0
  0
INSERT
  5
8F
330
1F
100
AcDbEntity
  8
0
100
AcDbBlockReference
  2
VordansA
 10
-1038.0
 20
-974.9999999999998
 30
0.0
  0
INSERT
  5
90
330
1F
100
AcDbEntity
  8
0
100
AcDbBlockReference
  2
Rahmen
 10
-1175.192309855351
 20
-1153.995960057375
 30
0.0
  0
ENDSEC
  0
SECTION
  2
OBJECTS
  0
DICTIONARY
  5
C
330
0
100
AcDbDictionary
281
     1
  3
ACAD_GROUP
350
D
  3
ACAD_LAYOUT
350
1A
  3
ACAD_MATERIAL
350
3B
  3
ACAD_MLEADERSTYLE
350
2CE
  3
ACAD_MLINESTYLE
350
17
  3
ACAD_PLOTSETTINGS
350
19
  3
ACAD_PLOTSTYLENAME
350
E
  3
ACAD_SCALELIST
350
4B
  3
ACAD_VISUALSTYLE
350
2A
  3
AcDbVariableDictionary
350
2CC
  0
DICTIONARY
  5
D
102
{ACAD_REACTORS
330
C
102
}
330
C
100
AcDbDictionary
281
     1
  0
DICTIONARY
  5
1A
102
{ACAD_REACTORS
330
C
102
}
330
C
100
AcDbDictionary
281
     1
  3
Layout1
350
1E
  3
Layout2
350
26
  3
Model
350
22
  0
DICTIONARY
  5
3B
102
{ACAD_REACTORS
330
C
102
}
330
C
100
AcDbDictionary
281
     1
  3
ByBlock
350
3D
  3
ByLayer
350
3C
  3
Global
350
3E
  0
DICTIONARY
  5
2CE
102
{ACAD_REACTORS
330
C
102
}
330
C
100
AcDbDictionary
281
     1
  0
DICTIONARY
  5
17
102
{ACAD_REACTORS
330
C
102
}
330
C
100
AcDbDictionary
281
     1
  3
Standard
350
18
  0
DICTIONARY
  5
19
102
{ACAD_REACTORS
330
C
102
}
330
C
100
AcDbDictionary
281
     1
  0
ACDBDICTIONARYWDFLT
  5
E
102
{ACAD_REACTORS
330
C
102
}
330
C
100
AcDbDictionary
281
     1
  3
Normal
350
F
100
AcDbDictionaryWithDefault
340
F
  0
DICTIONARY
  5
4B
102
{ACAD_REACTORS
330
C
102
}
330
C
100
AcDbDictionary
281
     1
  3
A0
350
4C
  3
A1
350
4D
  3
A2
350
4E
  3
A3
350
4F
  3
A4
350
50
  3
A5
350
51
  3
A6
350
52
  3
A7
350
53
  3
A8
350
54
  3
A9
350
55
  3
B0
350
56
  3
B1
350
57
  3
B2
350
58
  3
B3
350
59
  3
B4
350
5A
  3
B5
350
5B
  3
B6
350
5C
  3
B7
350
5D
  3
B8
350
5E
  3
B9
350
5F
  3
C0
350
60
  3
C1
350
61
  3
C2
350
62
  3
C3
350
63
  3
C4
350
64
  3
C5
350
65
  3
C6
350
66
  3
C7
350
67
  3
C8
350
68
  3
C9
350
69
  3
D0
350
6A
  3
D1
350
6B
  3
D2
350
6C
  0
DICTIONARY
  5
2A
102
{ACAD_REACTORS
330
C
102
}
330
C
100
AcDbDictionary
281
     1
  3
2dWireframe
350
2F
  3
3D Hidden
350
31
  3
3dWireframe
350
30
  3
Basic
350
32
  3
Brighten
350
36
  3
ColorChange
350
3A
  3
Conceptual
350
34
  3
Dim
350
35
  3
Facepattern
350
39
  3
Flat
350
2B
  3
FlatWithEdges
350
2C
  3
Gouraud
350
2D
  3
GouraudWithEdges
350
2E
  3
Linepattern
350
38
  3
Realistic
350
33
  3
Thicken
350
37
  0
DICTIONARY
  5
2CC
102
{ACAD_REACTORS
330
C
102
}
330
C
100
AcDbDictionary
281
     1
  3
CANNOSCALE
350
2CF
  3
DIMASSOC
350
2D0
  3
HIDETEXT
350
2D1
  0
LAYOUT
  5
1E
102
{ACAD_REACTORS
330
1A
102
}
330
1A
100
AcDbPlotSettings
  1

  2
none_device
  4

  6

 40
0.0
 41
0.0
 42
0.0
 43
0.0
 44
0.0
 45
0.0
 46
0.0
 47
0.0
 48
0.0
 49
0.0
140
0.0
141
0.0
142
1.0
143
1.0
 70
   688
 72
     0
 73
     0
 74
     5
  7

 75
    16
147
1.0
148
0.0
149
0.0
100
AcDbLayout
  1
Layout1
 70
     1
 71
     1
 10
0.0
 20
0.0
 11
12.0
 21
9.0
 12
0.0
 22
0.0
 32
0.0
 14
1.00000000000000E+20
 24
1.00000000000000E+20
 34
1.00000000000000E+20
 15
-1.00000000000000E+20
 25
-1.00000000000000E+20
 35
-1.00000000000000E+20
146
0.0
 13
0.0
 23
0.0
 33
0.0
 16
1.0
 26
0.0
 36
0.0
 17
0.0
 27
1.0
 37
0.0
 76
     0
330
1B
  0
LAYOUT
  5
26
102
{ACAD_REACTORS
330
1A
102
}
330
1A
100
AcDbPlotSettings
  1

  2
none_device
  4

  6

 40
0.0
 41
0.0
 42
0.0
 43
0.0
 44
0.0
 45
0.0
 46
0.0
 47
0.0
 48
0.0
 49
0.0
140
0.0
141
0.0
142
1.0
143
1.0
 70
   688
 72
     0
 73
     0
 74
     5
  7

 75
    16
147
1.0
148
0.0
149
0.0
100
AcDbLayout
  1
Layout2
 70
     1
 71
     2
 10
0.0
 20
0.0
 11
0.0
 21
0.0
 12
0.0
 22
0.0
 32
0.0
 14
0.0
 24
0.0
 34
0.0
 15
0.0
 25
0.0
 35
0.0
146
0.0
 13
0.0
 23
0.0
 33
0.0
 16
1.0
 26
0.0
 36
0.0
 17
0.0
 27
1.0
 37
0.0
 76
     0
330
23
  0
LAYOUT
  5
22
102
{ACAD_REACTORS
330
1A
102
}
330
1A
100
AcDbPlotSettings
  1

  2
none_device
  4

  6

 40
0.0
 41
0.0
 42
0.0
 43
0.0
 44
0.0
 45
0.0
 46
0.0
 47
0.0
 48
0.0
 49
0.0
140
0.0
141
0.0
142
1.0
143
1.0
 70
  1712
 72
     0
 73
     0
 74
     0
  7

 75
     0
147
1.0
148
0.0
149
0.0
100
AcDbLayout
  1
Model
 70
     1
 71
     0
 10
0.0
 20
0.0
 11
12.0
 21
9.0
 12
0.0
 22
0.0
 32
0.0
 14
-1175.192309855351
 24
-1153.995960057375
 34
0.0
 15
-765.1923098553503
 25
-867.9959600573752
 35
0.0
146
0.0
 13
0.0
 23
0.0
 33
0.0
 16
1.0
 26
0.0
 36
0.0
 17
0.0
 27
1.0
 37
0.0
 76
     0
330
1F
331
29
  0
MATERIAL
  5
3D
102
{ACAD_REACTORS
330
3B
102
}
102
{ACAD_XDICTIONARY
360
2F4
102
}
330
3B
100
AcDbMaterial
  1
ByBlock
  0
MATERIAL
  5
3C
102
{ACAD_REACTORS
330
3B
102
}
102
{ACAD_XDICTIONARY
360
2F2
102
}
330
3B
100
AcDbMaterial
  1
ByLayer
  0
MATERIAL
  5
3E
102
{ACAD_REACTORS
330
3B
102
}
102
{ACAD_XDICTIONARY
360
2F6
102
}
330
3B
100
AcDbMaterial
  1
Global
  0
MLINESTYLE
  5
18
102
{ACAD_REACTORS
330
17
102
}
330
17
100
AcDbMlineStyle
  2
Standard
 70
     0
  3

 62
   256
 51
90.0
 52
90.0
 71
     2
 49
0.5
 62
   256
  6
BYLAYER
 49
-0.5
 62
   256
  6
BYLAYER
  0
ACDBPLACEHOLDER
  5
F
102
{ACAD_REACTORS
330
E
102
}
330
E
  0
SCALE
  5
4C
102
{ACAD_REACTORS
330
4B
102
}
330
4B
100
AcDbScale
 70
     0
300
1:1
140
1.0
141
1.0
290
     1
  0
SCALE
  5
4D
102
{ACAD_REACTORS
330
4B
102
}
330
4B
100
AcDbScale
 70
     0
300
1:2
140
1.0
141
2.0
290
     0
  0
SCALE
  5
4E
102
{ACAD_REACTORS
330
4B
102
}
330
4B
100
AcDbScale
 70
     0
300
1:4
140
1.0
141
4.0
290
     0
  0
SCALE
  5
4F
102
{ACAD_REACTORS
330
4B
102
}
330
4B
100
AcDbScale
 70
     0
300
1:5
140
1.0
141
5.0
290
     0
  0
SCALE
  5
50
102
{ACAD_REACTORS
330
4B
102
}
330
4B
100
AcDbScale
 70
     0
300
1:8
140
1.0
141
8.0
290
     0
  0
SCALE
  5
51
102
{ACAD_REACTORS
330
4B
102
}
330
4B
100
AcDbScale
 70
     0
300
1:10
140
1.0
141
10.0
290
     0
  0
SCALE
  5
52
102
{ACAD_REACTORS
330
4B
102
}
330
4B
100
AcDbScale
 70
     0
300
1:16
140
1.0
141
16.0
290
     0
  0
SCALE
  5
53
102
{ACAD_REACTORS
330
4B
102
}
330
4B
100
AcDbScale
 70
     0
300
1:20
140
1.0
141
20.0
290
     0
  0
SCALE
  5
54
102
{ACAD_REACTORS
330
4B
102
}
330
4B
100
AcDbScale
 70
     0
300
1:30
140
1.0
141
30.0
290
     0
  0
SCALE
  5
55
102
{ACAD_REACTORS
330
4B
102
}
330
4B
100
AcDbScale
 70
     0
300
1:40
140
1.0
141
40.0
290
     0
  0
SCALE
  5
56
102
{ACAD_REACTORS
330
4B
102
}
330
4B
100
AcDbScale
 70
     0
300
1:50
140
1.0
141
50.0
290
     0
  0
SCALE
  5
57
102
{ACAD_REACTORS
330
4B
102
}
330
4B
100
AcDbScale
 70
     0
300
1:100
140
1.0
141
100.0
290
     0
  0
SCALE
  5
58
102
{ACAD_REACTORS
330
4B
102
}
330
4B
100
AcDbScale
 70
     0
300
2:1
140
2.0
141
1.0
290
     0
  0
SCALE
  5
59
102
{ACAD_REACTORS
330
4B
102
}
330
4B
100
AcDbScale
 70
     0
300
4:1
140
4.0
141
1.0
290
     0
  0
SCALE
  5
5A
102
{ACAD_REACTORS
330
4B
102
}
330
4B
100
AcDbScale
 70
     0
300
8:1
140
8.0
141
1.0
290
     0
  0
SCALE
  5
5B
102
{ACAD_REACTORS
330
4B
102
}
330
4B
100
AcDbScale
 70
     0
300
10:1
140
10.0
141
1.0
290
     0
  0
SCALE
  5
5C
102
{ACAD_REACTORS
330
4B
102
}
330
4B
100
AcDbScale
 70
     0
300
100:1
140
100.0
141
1.0
290
     0
  0
SCALE
  5
5D
102
{ACAD_REACTORS
330
4B
102
}
330
4B
100
AcDbScale
 70
     0
300
1/128" = 1'-0"
140
0.0078125
141
12.0
290
     0
  0
SCALE
  5
5E
102
{ACAD_REACTORS
330
4B
102
}
330
4B
100
AcDbScale
 70
     0
300
1/64" = 1'-0"
140
0.015625
141
12.0
290
     0
  0
SCALE
  5
5F
102
{ACAD_REACTORS
330
4B
102
}
330
4B
100
AcDbScale
 70
     0
300
1/32" = 1'-0"
140
0.03125
141
12.0
290
     0
  0
SCALE
  5
60
102
{ACAD_REACTORS
330
4B
102
}
330
4B
100
AcDbScale
 70
     0
300
1/16" = 1'-0"
140
0.0625
141
12.0
290
     0
  0
SCALE
  5
61
102
{ACAD_REACTORS
330
4B
102
}
330
4B
100
AcDbScale
 70
     0
300
3/32" = 1'-0"
140
0.09375
141
12.0
290
     0
  0
SCALE
  5
62
102
{ACAD_REACTORS
330
4B
102
}
330
4B
100
AcDbScale
 70
     0
300
1/8" = 1'-0"
140
0.125
141
12.0
290
     0
  0
SCALE
  5
63
102
{ACAD_REACTORS
330
4B
102
}
330
4B
100
AcDbScale
 70
     0
300
3/16" = 1'-0"
140
0.1875
141
12.0
290
     0
  0
SCALE
  5
64
102
{ACAD_REACTORS
330
4B
102
}
330
4B
100
AcDbScale
 70
     0
300
1/4" = 1'-0"
140
0.25
141
12.0
290
     0
  0
SCALE
  5
65
102
{ACAD_REACTORS
330
4B
102
}
330
4B
100
AcDbScale
 70
     0
300
3/8" = 1'-0"
140
0.375
141
12.0
290
     0
  0
SCALE
  5
66
102
{ACAD_REACTORS
330
4B
102
}
330
4B
100
AcDbScale
 70
     0
300
1/2" = 1'-0"
140
0.5
141
12.0
290
     0
  0
SCALE
  5
67
102
{ACAD_REACTORS
330
4B
102
}
330
4B
100
AcDbScale
 70
     0
300
3/4" = 1'-0"
140
0.75
141
12.0
290
     0
  0
SCALE
  5
68
102
{ACAD_REACTORS
330
4B
102
}
330
4B
100
AcDbScale
 70
     0
300
1" = 1'-0"
140
1.0
141
12.0
290
     0
  0
SCALE
  5
69
102
{ACAD_REACTORS
330
4B
102
}
330
4B
100
AcDbScale
 70
     0
300
1-1/2" = 1'-0"
140
1.5
141
12.0
290
     0
  0
SCALE
  5
6A
102
{ACAD_REACTORS
330
4B
102
}
330
4B
100
AcDbScale
 70
     0
300
3" = 1'-0"
140
3.0
141
12.0
290
     0
  0
SCALE
  5
6B
102
{ACAD_REACTORS
330
4B
102
}
330
4B
100
AcDbScale
 70
     0
300
6" = 1'-0"
140
6.0
141
12.0
290
     0
  0
SCALE
  5
6C
102
{ACAD_REACTORS
330
4B
102
}
330
4B
100
AcDbScale
 70
     0
300
1'-0" = 1'-0"
140
12.0
141
12.0
290
     0
  0
VISUALSTYLE
  5
2F
102
{ACAD_REACTORS
330
2A
102
}
102
{ACAD_XDICTIONARY
360
2DA
102
}
330
2A
100
AcDbVisualStyle
  2
2dWireframe
 70
     4
 71
     0
 72
     2
 73
     0
 90
        0
 40
-0.6
 41
-30.0
 62
     5
 63
     7
 74
     1
 91
        4
 64
     7
 65
   257
 75
     1
175
     1
 42
1.0
 92
        0
 66
   257
 43
1.0
 76
     1
 77
     6
 78
     2
 67
     7
 79
     5
170
     0
171
     0
290
     0
174
     0
 93
        1
 44
0.0
173
     0
291
     0
 45
0.0
1001
ACAD
1000
AcDbSavedByObjectVersion
1070
     0
  0
VISUALSTYLE
  5
31
102
{ACAD_REACTORS
330
2A
102
}
102
{ACAD_XDICTIONARY
360
2DE
102
}
330
2A
100
AcDbVisualStyle
  2
3D Hidden
 70
     6
 71
     1
 72
     2
 73
     2
 90
        0
 40
-0.6
 41
-30.0
 62
     5
 63
     7
 74
     2
 91
        2
 64
     7
 65
   257
 75
     2
175
     1
 42
40.0
 92
        0
 66
   257
 43
1.0
 76
     1
 77
     6
 78
     2
 67
     7
 79
     3
170
     0
171
     0
290
     0
174
     0
 93
        1
 44
0.0
173
     0
291
     0
 45
0.0
1001
ACAD
1000
AcDbSavedByObjectVersion
1070
     0
  0
VISUALSTYLE
  5
30
102
{ACAD_REACTORS
330
2A
102
}
102
{ACAD_XDICTIONARY
360
2DC
102
}
330
2A
100
AcDbVisualStyle
  2
3dWireframe
 70
     5
 71
     0
 72
     2
 73
     0
 90
        0
 40
-0.6
 41
-30.0
 62
     5
 63
     7
 74
     1
 91
        4
 64
     7
 65
   257
 75
     1
175
     1
 42
1.0
 92
        0
 66
   257
 43
1.0
 76
     1
 77
     6
 78
     2
 67
     7
 79
     5
170
     0
171
     0
290
     0
174
     0
 93
        1
 44
0.0
173
     0
291
     0
 45
0.0
1001
ACAD
1000
AcDbSavedByObjectVersion
1070
     0
  0
VISUALSTYLE
  5
32
102
{ACAD_REACTORS
330
2A
102
}
102
{ACAD_XDICTIONARY
360
2E0
102
}
330
2A
100
AcDbVisualStyle
  2
Basic
 70
     7
 71
     1
 72
     0
 73
     1
 90
        0
 40
-0.6
 41
-30.0
 62
     5
 63
     7
 74
     0
 91
        4
 64
     7
 65
   257
 75
     1
175
     1
 42
1.0
 92
        8
 66
     7
 43
1.0
 76
     1
 77
     6
 78
     2
 67
     7
 79
     5
170
     0
171
     0
290
     0
174
     0
 93
        1
 44
0.0
173
     0
291
     1
 45
0.0
1001
ACAD
1000
AcDbSavedByObjectVersion
1070
     0
  0
VISUALSTYLE
  5
36
102
{ACAD_REACTORS
330
2A
102
}
102
{ACAD_XDICTIONARY
360
2E8
102
}
330
2A
100
AcDbVisualStyle
  2
Brighten
 70
    12
 71
     2
 72
     2
 73
     0
 90
        0
 40
-0.6
 41
-30.0
 62
     5
 63
     7
 74
     1
 91
        4
 64
     7
 65
   257
 75
     1
175
     1
 42
1.0
 92
        8
 66
     7
 43
1.0
 76
     1
 77
     6
 78
     2
 67
     7
 79
     5
170
     0
171
     0
290
     0
174
     0
 93
        1
 44
50.0
173
     0
291
     1
 45
0.0
1001
ACAD
1000
AcDbSavedByObjectVersion
1070
     0
  0
VISUALSTYLE
  5
3A
102
{ACAD_REACTORS
330
2A
102
}
102
{ACAD_XDICTIONARY
360
2F0
102
}
330
2A
100
AcDbVisualStyle
  2
ColorChange
 70
    16
 71
     2
 72
     2
 73
     3
 90
        0
 40
-0.6
 41
-30.0
 62
     5
 63
     8
 74
     1
 91
        4
 64
     7
 65
   257
 75
     1
175
     1
 42
1.0
 92
        8
 66
     8
 43
1.0
 76
     1
 77
     6
 78
     2
 67
     7
 79
     5
170
     0
171
     0
290
     0
174
     0
 93
        1
 44
0.0
173
     0
291
     1
 45
0.0
1001
ACAD
1000
AcDbSavedByObjectVersion
1070
     0
  0
VISUALSTYLE
  5
34
102
{ACAD_REACTORS
330
2A
102
}
102
{ACAD_XDICTIONARY
360
2E4
102
}
330
2A
100
AcDbVisualStyle
  2
Conceptual
 70
     9
 71
     3
 72
     2
 73
     0
 90
        0
 40
-0.6
 41
-30.0
 62
     5
 63
     7
 74
     2
 91
        2
 64
     7
 65
   257
 75
     1
175
     1
 42
40.0
 92
        8
 66
     7
 43
1.0
 76
     1
 77
     6
 78
     2
 67
     7
 79
     3
170
     0
171
     0
290
     0
174
     0
 93
        1
 44
0.0
173
     0
291
     0
 45
0.0
1001
ACAD
1000
AcDbSavedByObjectVersion
1070
     0
  0
VISUALSTYLE
  5
35
102
{ACAD_REACTORS
330
2A
102
}
102
{ACAD_XDICTIONARY
360
2E6
102
}
330
2A
100
AcDbVisualStyle
  2
Dim
 70
    11
 71
     2
 72
     2
 73
     0
 90
        0
 40
-0.6
 41
-30.0
 62
     5
 63
     7
 74
     1
 91
        4
 64
     7
 65
   257
 75
     1
175
     1
 42
1.0
 92
        8
 66
     7
 43
1.0
 76
     1
 77
     6
 78
     2
 67
     7
 79
     5
170
     0
171
     0
290
     0
174
     0
 93
        1
 44
-50.0
173
     0
291
     1
 45
0.0
1001
ACAD
1000
AcDbSavedByObjectVersion
1070
     0
  0
VISUALSTYLE
  5
39
102
{ACAD_REACTORS
330
2A
102
}
102
{ACAD_XDICTIONARY
360
2EE
102
}
330
2A
100
AcDbVisualStyle
  2
Facepattern
 70
    15
 71
     2
 72
     2
 73
     0
 90
        0
 40
-0.6
 41
-30.0
 62
     5
 63
     7
 74
     1
 91
        4
 64
     7
 65
   257
 75
     1
175
     1
 42
1.0
 92
        8
 66
     7
 43
1.0
 76
     1
 77
     6
 78
     2
 67
     7
 79
     5
170
     0
171
     0
290
     0
174
     0
 93
        1
 44
0.0
173
     0
291
     1
 45
0.0
1001
ACAD
1000
AcDbSavedByObjectVersion
1070
     0
  0
VISUALSTYLE
  5
2B
102
{ACAD_REACTORS
330
2A
102
}
102
{ACAD_XDICTIONARY
360
2D2
102
}
330
2A
100
AcDbVisualStyle
  2
Flat
 70
     0
 71
     2
 72
     1
 73
     1
 90
        2
 40
-0.6
 41
30.0
 62
     5
 63
     7
 74
     0
 91
        4
 64
     7
 65
   257
 75
     1
175
     1
 42
1.0
 92
        8
 66
     7
 43
1.0
 76
     1
 77
     6
 78
     2
 67
     7
 79
     5
170
     0
171
     0
290
     0
174
     0
 93
       13
 44
0.0
173
     0
291
     1
 45
0.0
1001
ACAD
1000
AcDbSavedByObjectVersion
1070
     0
  0
VISUALSTYLE
  5
2C
102
{ACAD_REACTORS
330
2A
102
}
102
{ACAD_XDICTIONARY
360
2D4
102
}
330
2A
100
AcDbVisualStyle
  2
FlatWithEdges
 70
     1
 71
     2
 72
     1
 73
     1
 90
        2
 40
-0.6
 41
30.0
 62
     5
 63
     7
 74
     1
 91
        4
 64
     7
 65
   257
 75
     1
175
     1
 42
1.0
 92
        0
 66
   257
 43
1.0
 76
     1
 77
     6
 78
     2
 67
     7
 79
     5
170
     0
171
     0
290
     0
174
     0
 93
       13
 44
0.0
173
     0
291
     1
 45
0.0
1001
ACAD
1000
AcDbSavedByObjectVersion
1070
     0
  0
VISUALSTYLE
  5
2D
102
{ACAD_REACTORS
330
2A
102
}
102
{ACAD_XDICTIONARY
360
2D6
102
}
330
2A
100
AcDbVisualStyle
  2
Gouraud
 70
     2
 71
     2
 72
     2
 73
     1
 90
        2
 40
-0.6
 41
30.0
 62
     5
 63
     7
 74
     0
 91
        4
 64
     7
 65
   257
 75
     1
175
     1
 42
1.0
 92
        0
 66
     7
 43
1.0
 76
     1
 77
     6
 78
     2
 67
     7
 79
     5
170
     0
171
     0
290
     0
174
     0
 93
       13
 44
0.0
173
     0
291
     1
 45
0.0
1001
ACAD
1000
AcDbSavedByObjectVersion
1070
     0
  0
VISUALSTYLE
  5
2E
102
{ACAD_REACTORS
330
2A
102
}
102
{ACAD_XDICTIONARY
360
2D8
102
}
330
2A
100
AcDbVisualStyle
  2
GouraudWithEdges
 70
     3
 71
     2
 72
     2
 73
     1
 90
        2
 40
-0.6
 41
30.0
 62
     5
 63
     7
 74
     1
 91
        4
 64
     7
 65
   257
 75
     1
175
     1
 42
1.0
 92
        0
 66
   257
 43
1.0
 76
     1
 77
     6
 78
     2
 67
     7
 79
     5
170
     0
171
     0
290
     0
174
     0
 93
       13
 44
0.0
173
     0
291
     1
 45
0.0
1001
ACAD
1000
AcDbSavedByObjectVersion
1070
     0
  0
VISUALSTYLE
  5
38
102
{ACAD_REACTORS
330
2A
102
}
102
{ACAD_XDICTIONARY
360
2EC
102
}
330
2A
100
AcDbVisualStyle
  2
Linepattern
 70
    14
 71
     2
 72
     2
 73
     0
 90
        0
 40
-0.6
 41
-30.0
 62
     5
 63
     7
 74
     1
 91
        4
 64
     7
 65
   257
 75
     7
175
     7
 42
1.0
 92
        8
 66
     7
 43
1.0
 76
     1
 77
     6
 78
     2
 67
     7
 79
     5
170
     0
171
     0
290
     0
174
     0
 93
        1
 44
0.0
173
     0
291
     1
 45
0.0
1001
ACAD
1000
AcDbSavedByObjectVersion
1070
     0
  0
VISUALSTYLE
  5
33
102
{ACAD_REACTORS
330
2A
102
}
102
{ACAD_XDICTIONARY
360
2E2
102
}
330
2A
100
AcDbVisualStyle
  2
Realistic
 70
     8
 71
     2
 72
     2
 73
     0
 90
        0
 40
-0.6
 41
-30.0
 62
     5
 63
     7
 74
     1
 91
        0
 64
     7
 65
   257
 75
     1
175
     1
 42
1.0
 92
        8
 66
     8
 43
1.0
 76
     1
 77
     6
 78
     2
 67
     7
 79
     5
170
     0
171
     0
290
     0
174
     0
 93
       13
 44
0.0
173
     0
291
     0
 45
0.0
1001
ACAD
1000
AcDbSavedByObjectVersion
1070
     0
  0
VISUALSTYLE
  5
37
102
{ACAD_REACTORS
330
2A
102
}
102
{ACAD_XDICTIONARY
360
2EA
102
}
330
2A
100
AcDbVisualStyle
  2
Thicken
 70
    13
 71
     2
 72
     2
 73
     0
 90
        0
 40
-0.6
 41
-30.0
 62
     5
 63
     7
 74
     1
 91
        4
 64
     7
 65
   257
 75
     1
175
     1
 42
1.0
 92
       12
 66
     7
 43
1.0
 76
     1
 77
     6
 78
     2
 67
     7
 79
     5
170
     0
171
     0
290
     0
174
     0
 93
        1
 44
0.0
173
     0
291
     1
 45
0.0
1001
ACAD
1000
AcDbSavedByObjectVersion
1070
     0
  0
DICTIONARYVAR
  5
2CF
102
{ACAD_REACTORS
330
2CC
102
}
330
2CC
100
DictionaryVariables
280
     0
  1
1:1
  0
DICTIONARYVAR
  5
2D0
102
{ACAD_REACTORS
330
2CC
102
}
330
2CC
100
DictionaryVariables
280
     0
  1
2
  0
DICTIONARYVAR
  5
2D1
102
{ACAD_REACTORS
330
2CC
102
}
330
2CC
100
DictionaryVariables
280
     0
  1
1
  0
DICTIONARY
  5
2F4
330
3D
100
AcDbDictionary
280
     1
281
     1
  3
ACAD_XREC_ROUNDTRIP
360
2F5
  0
DICTIONARY
  5
2F2
330
3C
100
AcDbDictionary
280
     1
281
     1
  3
ACAD_XREC_ROUNDTRIP
360
2F3
  0
DICTIONARY
  5
2F6
330
3E
100
AcDbDictionary
280
     1
281
     1
  3
ACAD_XREC_ROUNDTRIP
360
2F7
  0
DICTIONARY
  5
2DA
330
2F
100
AcDbDictionary
280
     1
281
     1
  3
ACAD_XREC_ROUNDTRIP
360
2DB
  0
DICTIONARY
  5
2DE
330
31
100
AcDbDictionary
280
     1
281
     1
  3
ACAD_XREC_ROUNDTRIP
360
2DF
  0
DICTIONARY
  5
2DC
330
30
100
AcDbDictionary
280
     1
281
     1
  3
ACAD_XREC_ROUNDTRIP
360
2DD
  0
DICTIONARY
  5
2E0
330
32
100
AcDbDictionary
280
     1
281
     1
  3
ACAD_XREC_ROUNDTRIP
360
2E1
  0
DICTIONARY
  5
2E8
330
36
100
AcDbDictionary
280
     1
281
     1
  3
ACAD_XREC_ROUNDTRIP
360
2E9
  0
DICTIONARY
  5
2F0
330
3A
100
AcDbDictionary
280
     1
281
     1
  3
ACAD_XREC_ROUNDTRIP
360
2F1
  0
DICTIONARY
  5
2E4
330
34
100
AcDbDictionary
280
     1
281
     1
  3
ACAD_XREC_ROUNDTRIP
360
2E5
  0
DICTIONARY
  5
2E6
330
35
100
AcDbDictionary
280
     1
281
     1
  3
ACAD_XREC_ROUNDTRIP
360
2E7
  0
DICTIONARY
  5
2EE
330
39
100
AcDbDictionary
280
     1
281
     1
  3
ACAD_XREC_ROUNDTRIP
360
2EF
  0
DICTIONARY
  5
2D2
330
2B
100
AcDbDictionary
280
     1
281
     1
  3
ACAD_XREC_ROUNDTRIP
360
2D3
  0
DICTIONARY
  5
2D4
330
2C
100
AcDbDictionary
280
     1
281
     1
  3
ACAD_XREC_ROUNDTRIP
360
2D5
  0
DICTIONARY
  5
2D6
330
2D
100
AcDbDictionary
280
     1
281
     1
  3
ACAD_XREC_ROUNDTRIP
360
2D7
  0
DICTIONARY
  5
2D8
330
2E
100
AcDbDictionary
280
     1
281
     1
  3
ACAD_XREC_ROUNDTRIP
360
2D9
  0
DICTIONARY
  5
2EC
330
38
100
AcDbDictionary
280
     1
281
     1
  3
ACAD_XREC_ROUNDTRIP
360
2ED
  0
DICTIONARY
  5
2E2
330
33
100
AcDbDictionary
280
     1
281
     1
  3
ACAD_XREC_ROUNDTRIP
360
2E3
  0
DICTIONARY
  5
2EA
330
37
100
AcDbDictionary
280
     1
281
     1
  3
ACAD_XREC_ROUNDTRIP
360
2EB
  0
XRECORD
  5
2F5
102
{ACAD_REACTORS
330
2F4
102
}
330
2F4
100
AcDbXrecord
280
     1
102
MATERIAL
148
0.0
149
0.0
149
0.0
 93
        0
 94
      127
282
     0
 72
     1
 77
     1
171
     1
175
     1
179
     1
273
     0
  0
XRECORD
  5
2F3
102
{ACAD_REACTORS
330
2F2
102
}
330
2F2
100
AcDbXrecord
280
     1
102
MATERIAL
148
0.0
149
0.0
149
0.0
 93
        0
 94
      127
282
     0
 72
     1
 77
     1
171
     1
175
     1
179
     1
273
     0
  0
XRECORD
  5
2F7
102
{ACAD_REACTORS
330
2F6
102
}
330
2F6
100
AcDbXrecord
280
     1
102
MATERIAL
148
0.0
149
0.0
149
0.0
 93
        0
 94
      127
282
     0
 72
     1
 77
     1
171
     1
175
     1
179
     1
273
     0
  0
XRECORD
  5
2DB
102
{ACAD_REACTORS
330
2DA
102
}
330
2DA
100
AcDbXrecord
280
     1
102
RTVSPropertyOp0
 70
     1
102
RTVSPropertyOp1
 70
     1
102
RTVSPropertyOp2
 70
     1
102
RTVSPropertyOp3
 70
     1
102
RTVSPropertyOp4
 70
     1
102
RTVSPropertyOp5
 70
     1
102
RTVSPropertyOp6
 70
     1
102
RTVSPropertyOp7
 70
     1
102
RTVSPropertyOp8
 70
     1
102
RTVSPropertyOp9
 70
     1
102
RTVSPropertyOp10
 70
     1
102
RTVSPropertyOp11
 70
     1
102
RTVSPropertyOp12
 70
     1
102
RTVSPropertyOp13
 70
     1
102
RTVSPropertyOp14
 70
     1
102
RTVSPropertyOp15
 70
     1
102
RTVSPropertyOp16
 70
     1
102
RTVSPropertyOp17
 70
     1
102
RTVSPropertyOp18
 70
     1
102
RTVSPropertyOp19
 70
     1
102
RTVSPropertyOp20
 70
     1
102
RTVSPropertyOp21
 70
     1
102
RTVSPropertyOp22
 70
     1
102
RTVSPropertyOp23
 70
     1
102
RTVSPropertyOp24
 70
     1
102
RTVSPropertyOp25
 70
     1
102
RTVSPropertyOp26
 70
     1
102
RTVSPropertyOp27
 70
     1
  0
XRECORD
  5
2DF
102
{ACAD_REACTORS
330
2DE
102
}
330
2DE
100
AcDbXrecord
280
     1
102
RTVSPropertyOp0
 70
     1
102
RTVSPropertyOp1
 70
     1
102
RTVSPropertyOp2
 70
     1
102
RTVSPropertyOp3
 70
     1
102
RTVSPropertyOp4
 70
     1
102
RTVSPropertyOp5
 70
     1
102
RTVSPropertyOp6
 70
     1
102
RTVSPropertyOp7
 70
     1
102
RTVSPropertyOp8
 70
     1
102
RTVSPropertyOp9
 70
     1
102
RTVSPropertyOp10
 70
     1
102
RTVSPropertyOp11
 70
     1
102
RTVSPropertyOp12
 70
     1
102
RTVSPropertyOp13
 70
     1
102
RTVSPropertyOp14
 70
     1
102
RTVSPropertyOp15
 70
     1
102
RTVSPropertyOp16
 70
     1
102
RTVSPropertyOp17
 70
     1
102
RTVSPropertyOp18
 70
     1
102
RTVSPropertyOp19
 70
     1
102
RTVSPropertyOp20
 70
     1
102
RTVSPropertyOp21
 70
     1
102
RTVSPropertyOp22
 70
     1
102
RTVSPropertyOp23
 70
     1
102
RTVSPropertyOp24
 70
     1
102
RTVSPropertyOp25
 70
     1
102
RTVSPropertyOp26
 70
     1
102
RTVSPropertyOp27
 70
     1
  0
XRECORD
  5
2DD
102
{ACAD_REACTORS
330
2DC
102
}
330
2DC
100
AcDbXrecord
280
     1
102
RTVSPropertyOp0
 70
     1
102
RTVSPropertyOp1
 70
     1
102
RTVSPropertyOp2
 70
     1
102
RTVSPropertyOp3
 70
     1
102
RTVSPropertyOp4
 70
     1
102
RTVSPropertyOp5
 70
     1
102
RTVSPropertyOp6
 70
     1
102
RTVSPropertyOp7
 70
     1
102
RTVSPropertyOp8
 70
     1
102
RTVSPropertyOp9
 70
     1
102
RTVSPropertyOp10
 70
     1
102
RTVSPropertyOp11
 70
     1
102
RTVSPropertyOp12
 70
     1
102
RTVSPropertyOp13
 70
     1
102
RTVSPropertyOp14
 70
     1
102
RTVSPropertyOp15
 70
     1
102
RTVSPropertyOp16
 70
     1
102
RTVSPropertyOp17
 70
     1
102
RTVSPropertyOp18
 70
     1
102
RTVSPropertyOp19
 70
     1
102
RTVSPropertyOp20
 70
     1
102
RTVSPropertyOp21
 70
     1
102
RTVSPropertyOp22
 70
     1
102
RTVSPropertyOp23
 70
     1
102
RTVSPropertyOp24
 70
     1
102
RTVSPropertyOp25
 70
     1
102
RTVSPropertyOp26
 70
     1
102
RTVSPropertyOp27
 70
     1
  0
XRECORD
  5
2E1
102
{ACAD_REACTORS
330
2E0
102
}
330
2E0
100
AcDbXrecord
280
     1
102
RTVSPropertyOp0
 70
     1
102
RTVSPropertyOp1
 70
     1
102
RTVSPropertyOp2
 70
     1
102
RTVSPropertyOp3
 70
     1
102
RTVSPropertyOp4
 70
     1
102
RTVSPropertyOp5
 70
     1
102
RTVSPropertyOp6
 70
     1
102
RTVSPropertyOp7
 70
     1
102
RTVSPropertyOp8
 70
     1
102
RTVSPropertyOp9
 70
     1
102
RTVSPropertyOp10
 70
     1
102
RTVSPropertyOp11
 70
     1
102
RTVSPropertyOp12
 70
     1
102
RTVSPropertyOp13
 70
     1
102
RTVSPropertyOp14
 70
     1
102
RTVSPropertyOp15
 70
     1
102
RTVSPropertyOp16
 70
     1
102
RTVSPropertyOp17
 70
     1
102
RTVSPropertyOp18
 70
     1
102
RTVSPropertyOp19
 70
     1
102
RTVSPropertyOp20
 70
     1
102
RTVSPropertyOp21
 70
     1
102
RTVSPropertyOp22
 70
     1
102
RTVSPropertyOp23
 70
     1
102
RTVSPropertyOp24
 70
     1
102
RTVSPropertyOp25
 70
     1
102
RTVSPropertyOp26
 70
     1
102
RTVSPropertyOp27
 70
     1
  0
XRECORD
  5
2E9
102
{ACAD_REACTORS
330
2E8
102
}
330
2E8
100
AcDbXrecord
280
     1
102
RTVSPropertyOp0
 70
     1
102
RTVSPropertyOp1
 70
     1
102
RTVSPropertyOp2
 70
     1
102
RTVSPropertyOp3
 70
     1
102
RTVSPropertyOp4
 70
     1
102
RTVSPropertyOp5
 70
     1
102
RTVSPropertyOp6
 70
     1
102
RTVSPropertyOp7
 70
     1
102
RTVSPropertyOp8
 70
     1
102
RTVSPropertyOp9
 70
     1
102
RTVSPropertyOp10
 70
     1
102
RTVSPropertyOp11
 70
     1
102
RTVSPropertyOp12
 70
     1
102
RTVSPropertyOp13
 70
     1
102
RTVSPropertyOp14
 70
     1
102
RTVSPropertyOp15
 70
     1
102
RTVSPropertyOp16
 70
     1
102
RTVSPropertyOp17
 70
     1
102
RTVSPropertyOp18
 70
     1
102
RTVSPropertyOp19
 70
     1
102
RTVSPropertyOp20
 70
     1
102
RTVSPropertyOp21
 70
     1
102
RTVSPropertyOp22
 70
     1
102
RTVSPropertyOp23
 70
     1
102
RTVSPropertyOp24
 70
     1
102
RTVSPropertyOp25
 70
     1
102
RTVSPropertyOp26
 70
     1
102
RTVSPropertyOp27
 70
     1
  0
XRECORD
  5
2F1
102
{ACAD_REACTORS
330
2F0
102
}
330
2F0
100
AcDbXrecord
280
     1
102
RTVSPropertyOp0
 70
     1
102
RTVSPropertyOp1
 70
     1
102
RTVSPropertyOp2
 70
     1
102
RTVSPropertyOp3
 70
     1
102
RTVSPropertyOp4
 70
     1
102
RTVSPropertyOp5
 70
     1
102
RTVSPropertyOp6
 70
     1
102
RTVSPropertyOp7
 70
     1
102
RTVSPropertyOp8
 70
     1
102
RTVSPropertyOp9
 70
     1
102
RTVSPropertyOp10
 70
     1
102
RTVSPropertyOp11
 70
     1
102
RTVSPropertyOp12
 70
     1
102
RTVSPropertyOp13
 70
     1
102
RTVSPropertyOp14
 70
     1
102
RTVSPropertyOp15
 70
     1
102
RTVSPropertyOp16
 70
     1
102
RTVSPropertyOp17
 70
     1
102
RTVSPropertyOp18
 70
     1
102
RTVSPropertyOp19
 70
     1
102
RTVSPropertyOp20
 70
     1
102
RTVSPropertyOp21
 70
     1
102
RTVSPropertyOp22
 70
     1
102
RTVSPropertyOp23
 70
     1
102
RTVSPropertyOp24
 70
     1
102
RTVSPropertyOp25
 70
     1
102
RTVSPropertyOp26
 70
     1
102
RTVSPropertyOp27
 70
     1
  0
XRECORD
  5
2E5
102
{ACAD_REACTORS
330
2E4
102
}
330
2E4
100
AcDbXrecord
280
     1
102
RTVSPropertyOp0
 70
     1
102
RTVSPropertyOp1
 70
     1
102
RTVSPropertyOp2
 70
     1
102
RTVSPropertyOp3
 70
     1
102
RTVSPropertyOp4
 70
     1
102
RTVSPropertyOp5
 70
     1
102
RTVSPropertyOp6
 70
     1
102
RTVSPropertyOp7
 70
     1
102
RTVSPropertyOp8
 70
     1
102
RTVSPropertyOp9
 70
     1
102
RTVSPropertyOp10
 70
     1
102
RTVSPropertyOp11
 70
     1
102
RTVSPropertyOp12
 70
     1
102
RTVSPropertyOp13
 70
     1
102
RTVSPropertyOp14
 70
     1
102
RTVSPropertyOp15
 70
     1
102
RTVSPropertyOp16
 70
     1
102
RTVSPropertyOp17
 70
     1
102
RTVSPropertyOp18
 70
     1
102
RTVSPropertyOp19
 70
     1
102
RTVSPropertyOp20
 70
     1
102
RTVSPropertyOp21
 70
     1
102
RTVSPropertyOp22
 70
     1
102
RTVSPropertyOp23
 70
     1
102
RTVSPropertyOp24
 70
     1
102
RTVSPropertyOp25
 70
     1
102
RTVSPropertyOp26
 70
     1
102
RTVSPropertyOp27
 70
     1
  0
XRECORD
  5
2E7
102
{ACAD_REACTORS
330
2E6
102
}
330
2E6
100
AcDbXrecord
280
     1
102
RTVSPropertyOp0
 70
     1
102
RTVSPropertyOp1
 70
     1
102
RTVSPropertyOp2
 70
     1
102
RTVSPropertyOp3
 70
     1
102
RTVSPropertyOp4
 70
     1
102
RTVSPropertyOp5
 70
     1
102
RTVSPropertyOp6
 70
     1
102
RTVSPropertyOp7
 70
     1
102
RTVSPropertyOp8
 70
     1
102
RTVSPropertyOp9
 70
     1
102
RTVSPropertyOp10
 70
     1
102
RTVSPropertyOp11
 70
     1
102
RTVSPropertyOp12
 70
     1
102
RTVSPropertyOp13
 70
     1
102
RTVSPropertyOp14
 70
     1
102
RTVSPropertyOp15
 70
     1
102
RTVSPropertyOp16
 70
     1
102
RTVSPropertyOp17
 70
     1
102
RTVSPropertyOp18
 70
     1
102
RTVSPropertyOp19
 70
     1
102
RTVSPropertyOp20
 70
     1
102
RTVSPropertyOp21
 70
     1
102
RTVSPropertyOp22
 70
     1
102
RTVSPropertyOp23
 70
     1
102
RTVSPropertyOp24
 70
     1
102
RTVSPropertyOp25
 70
     1
102
RTVSPropertyOp26
 70
     1
102
RTVSPropertyOp27
 70
     1
  0
XRECORD
  5
2EF
102
{ACAD_REACTORS
330
2EE
102
}
330
2EE
100
AcDbXrecord
280
     1
102
RTVSPropertyOp0
 70
     1
102
RTVSPropertyOp1
 70
     1
102
RTVSPropertyOp2
 70
     1
102
RTVSPropertyOp3
 70
     1
102
RTVSPropertyOp4
 70
     1
102
RTVSPropertyOp5
 70
     1
102
RTVSPropertyOp6
 70
     1
102
RTVSPropertyOp7
 70
     1
102
RTVSPropertyOp8
 70
     1
102
RTVSPropertyOp9
 70
     1
102
RTVSPropertyOp10
 70
     1
102
RTVSPropertyOp11
 70
     1
102
RTVSPropertyOp12
 70
     1
102
RTVSPropertyOp13
 70
     1
102
RTVSPropertyOp14
 70
     1
102
RTVSPropertyOp15
 70
     1
102
RTVSPropertyOp16
 70
     1
102
RTVSPropertyOp17
 70
     1
102
RTVSPropertyOp18
 70
     1
102
RTVSPropertyOp19
 70
     1
102
RTVSPropertyOp20
 70
     1
102
RTVSPropertyOp21
 70
     1
102
RTVSPropertyOp22
 70
     1
102
RTVSPropertyOp23
 70
     1
102
RTVSPropertyOp24
 70
     1
102
RTVSPropertyOp25
 70
     1
102
RTVSPropertyOp26
 70
     1
102
RTVSPropertyOp27
 70
     1
  0
XRECORD
  5
2D3
102
{ACAD_REACTORS
330
2D2
102
}
330
2D2
100
AcDbXrecord
280
     1
102
RTVSPropertyOp0
 70
     1
102
RTVSPropertyOp1
 70
     1
102
RTVSPropertyOp2
 70
     1
102
RTVSPropertyOp3
 70
     1
102
RTVSPropertyOp4
 70
     1
102
RTVSPropertyOp5
 70
     1
102
RTVSPropertyOp6
 70
     1
102
RTVSPropertyOp7
 70
     1
102
RTVSPropertyOp8
 70
     1
102
RTVSPropertyOp9
 70
     1
102
RTVSPropertyOp10
 70
     1
102
RTVSPropertyOp11
 70
     1
102
RTVSPropertyOp12
 70
     1
102
RTVSPropertyOp13
 70
     1
102
RTVSPropertyOp14
 70
     1
102
RTVSPropertyOp15
 70
     1
102
RTVSPropertyOp16
 70
     1
102
RTVSPropertyOp17
 70
     1
102
RTVSPropertyOp18
 70
     1
102
RTVSPropertyOp19
 70
     1
102
RTVSPropertyOp20
 70
     1
102
RTVSPropertyOp21
 70
     1
102
RTVSPropertyOp22
 70
     1
102
RTVSPropertyOp23
 70
     1
102
RTVSPropertyOp24
 70
     1
102
RTVSPropertyOp25
 70
     1
102
RTVSPropertyOp26
 70
     1
102
RTVSPropertyOp27
 70
     1
  0
XRECORD
  5
2D5
102
{ACAD_REACTORS
330
2D4
102
}
330
2D4
100
AcDbXrecord
280
     1
102
RTVSPropertyOp0
 70
     1
102
RTVSPropertyOp1
 70
     1
102
RTVSPropertyOp2
 70
     1
102
RTVSPropertyOp3
 70
     1
102
RTVSPropertyOp4
 70
     1
102
RTVSPropertyOp5
 70
     1
102
RTVSPropertyOp6
 70
     1
102
RTVSPropertyOp7
 70
     1
102
RTVSPropertyOp8
 70
     1
102
RTVSPropertyOp9
 70
     1
102
RTVSPropertyOp10
 70
     1
102
RTVSPropertyOp11
 70
     1
102
RTVSPropertyOp12
 70
     1
102
RTVSPropertyOp13
 70
     1
102
RTVSPropertyOp14
 70
     1
102
RTVSPropertyOp15
 70
     1
102
RTVSPropertyOp16
 70
     1
102
RTVSPropertyOp17
 70
     1
102
RTVSPropertyOp18
 70
     1
102
RTVSPropertyOp19
 70
     1
102
RTVSPropertyOp20
 70
     1
102
RTVSPropertyOp21
 70
     1
102
RTVSPropertyOp22
 70
     1
102
RTVSPropertyOp23
 70
     1
102
RTVSPropertyOp24
 70
     1
102
RTVSPropertyOp25
 70
     1
102
RTVSPropertyOp26
 70
     1
102
RTVSPropertyOp27
 70
     1
  0
XRECORD
  5
2D7
102
{ACAD_REACTORS
330
2D6
102
}
330
2D6
100
AcDbXrecord
280
     1
102
RTVSPropertyOp0
 70
     1
102
RTVSPropertyOp1
 70
     1
102
RTVSPropertyOp2
 70
     1
102
RTVSPropertyOp3
 70
     1
102
RTVSPropertyOp4
 70
     1
102
RTVSPropertyOp5
 70
     1
102
RTVSPropertyOp6
 70
     1
102
RTVSPropertyOp7
 70
     1
102
RTVSPropertyOp8
 70
     1
102
RTVSPropertyOp9
 70
     1
102
RTVSPropertyOp10
 70
     1
102
RTVSPropertyOp11
 70
     1
102
RTVSPropertyOp12
 70
     1
102
RTVSPropertyOp13
 70
     1
102
RTVSPropertyOp14
 70
     1
102
RTVSPropertyOp15
 70
     1
102
RTVSPropertyOp16
 70
     1
102
RTVSPropertyOp17
 70
     1
102
RTVSPropertyOp18
 70
     1
102
RTVSPropertyOp19
 70
     1
102
RTVSPropertyOp20
 70
     1
102
RTVSPropertyOp21
 70
     1
102
RTVSPropertyOp22
 70
     1
102
RTVSPropertyOp23
 70
     1
102
RTVSPropertyOp24
 70
     1
102
RTVSPropertyOp25
 70
     1
102
RTVSPropertyOp26
 70
     1
102
RTVSPropertyOp27
 70
     1
  0
XRECORD
  5
2D9
102
{ACAD_REACTORS
330
2D8
102
}
330
2D8
100
AcDbXrecord
280
     1
102
RTVSPropertyOp0
 70
     1
102
RTVSPropertyOp1
 70
     1
102
RTVSPropertyOp2
 70
     1
102
RTVSPropertyOp3
 70
     1
102
RTVSPropertyOp4
 70
     1
102
RTVSPropertyOp5
 70
     1
102
RTVSPropertyOp6
 70
     1
102
RTVSPropertyOp7
 70
     1
102
RTVSPropertyOp8
 70
     1
102
RTVSPropertyOp9
 70
     1
102
RTVSPropertyOp10
 70
     1
102
RTVSPropertyOp11
 70
     1
102
RTVSPropertyOp12
 70
     1
102
RTVSPropertyOp13
 70
     1
102
RTVSPropertyOp14
 70
     1
102
RTVSPropertyOp15
 70
     1
102
RTVSPropertyOp16
 70
     1
102
RTVSPropertyOp17
 70
     1
102
RTVSPropertyOp18
 70
     1
102
RTVSPropertyOp19
 70
     1
102
RTVSPropertyOp20
 70
     1
102
RTVSPropertyOp21
 70
     1
102
RTVSPropertyOp22
 70
     1
102
RTVSPropertyOp23
 70
     1
102
RTVSPropertyOp24
 70
     1
102
RTVSPropertyOp25
 70
     1
102
RTVSPropertyOp26
 70
     1
102
RTVSPropertyOp27
 70
     1
  0
XRECORD
  5
2ED
102
{ACAD_REACTORS
330
2EC
102
}
330
2EC
100
AcDbXrecord
280
     1
102
RTVSPropertyOp0
 70
     1
102
RTVSPropertyOp1
 70
     1
102
RTVSPropertyOp2
 70
     1
102
RTVSPropertyOp3
 70
     1
102
RTVSPropertyOp4
 70
     1
102
RTVSPropertyOp5
 70
     1
102
RTVSPropertyOp6
 70
     1
102
RTVSPropertyOp7
 70
     1
102
RTVSPropertyOp8
 70
     1
102
RTVSPropertyOp9
 70
     1
102
RTVSPropertyOp10
 70
     1
102
RTVSPropertyOp11
 70
     1
102
RTVSPropertyOp12
 70
     1
102
RTVSPropertyOp13
 70
     1
102
RTVSPropertyOp14
 70
     1
102
RTVSPropertyOp15
 70
     1
102
RTVSPropertyOp16
 70
     1
102
RTVSPropertyOp17
 70
     1
102
RTVSPropertyOp18
 70
     1
102
RTVSPropertyOp19
 70
     1
102
RTVSPropertyOp20
 70
     1
102
RTVSPropertyOp21
 70
     1
102
RTVSPropertyOp22
 70
     1
102
RTVSPropertyOp23
 70
     1
102
RTVSPropertyOp24
 70
     1
102
RTVSPropertyOp25
 70
     1
102
RTVSPropertyOp26
 70
     1
102
RTVSPropertyOp27
 70
     1
  0
XRECORD
  5
2E3
102
{ACAD_REACTORS
330
2E2
102
}
330
2E2
100
AcDbXrecord
280
     1
102
RTVSPropertyOp0
 70
     1
102
RTVSPropertyOp1
 70
     1
102
RTVSPropertyOp2
 70
     1
102
RTVSPropertyOp3
 70
     1
102
RTVSPropertyOp4
 70
     1
102
RTVSPropertyOp5
 70
     1
102
RTVSPropertyOp6
 70
     1
102
RTVSPropertyOp7
 70
     1
102
RTVSPropertyOp8
 70
     1
102
RTVSPropertyOp9
 70
     1
102
RTVSPropertyOp10
 70
     1
102
RTVSPropertyOp11
 70
     1
102
RTVSPropertyOp12
 70
     1
102
RTVSPropertyOp13
 70
     1
102
RTVSPropertyOp14
 70
     1
102
RTVSPropertyOp15
 70
     1
102
RTVSPropertyOp16
 70
     1
102
RTVSPropertyOp17
 70
     1
102
RTVSPropertyOp18
 70
     1
102
RTVSPropertyOp19
 70
     1
102
RTVSPropertyOp20
 70
     1
102
RTVSPropertyOp21
 70
     1
102
RTVSPropertyOp22
 70
     1
102
RTVSPropertyOp23
 70
     1
102
RTVSPropertyOp24
 70
     1
102
RTVSPropertyOp25
 70
     1
102
RTVSPropertyOp26
 70
     1
102
RTVSPropertyOp27
 70
     1
  0
XRECORD
  5
2EB
102
{ACAD_REACTORS
330
2EA
102
}
330
2EA
100
AcDbXrecord
280
     1
102
RTVSPropertyOp0
 70
     1
102
RTVSPropertyOp1
 70
     1
102
RTVSPropertyOp2
 70
     1
102
RTVSPropertyOp3
 70
     1
102
RTVSPropertyOp4
 70
     1
102
RTVSPropertyOp5
 70
     1
102
RTVSPropertyOp6
 70
     1
102
RTVSPropertyOp7
 70
     1
102
RTVSPropertyOp8
 70
     1
102
RTVSPropertyOp9
 70
     1
102
RTVSPropertyOp10
 70
     1
102
RTVSPropertyOp11
 70
     1
102
RTVSPropertyOp12
 70
     1
102
RTVSPropertyOp13
 70
     1
102
RTVSPropertyOp14
 70
     1
102
RTVSPropertyOp15
 70
     1
102
RTVSPropertyOp16
 70
     1
102
RTVSPropertyOp17
 70
     1
102
RTVSPropertyOp18
 70
     1
102
RTVSPropertyOp19
 70
     1
102
RTVSPropertyOp20
 70
     1
102
RTVSPropertyOp21
 70
     1
102
RTVSPropertyOp22
 70
     1
102
RTVSPropertyOp23
 70
     1
102
RTVSPropertyOp24
 70
     1
102
RTVSPropertyOp25
 70
     1
102
RTVSPropertyOp26
 70
     1
102
RTVSPropertyOp27
 70
     1
  0
ENDSEC
  0
EOF
