  0
SECTION
  2
HEADER
  9
$ACADVER
  1
AC1018
  9
$ACADMAINTVER
 70
     0
  9
$DWGCODEPAGE
  3
ANSI_1252
  9
$INSBASE
 10
0.0
 20
0.0
 30
0.0
  9
$EXTMIN
 10
62211.6675371224
 20
145429.3655470557
 30
0.0
  9
$EXTMAX
 10
62375.6804765877
 20
145527.8655470557
 30
0.0
  9
$LIMMIN
 10
0.0
 20
0.0
  9
$LIMMAX
 10
12.0
 20
9.0
  9
$ORTHOMODE
 70
     0
  9
$REGENMODE
 70
     1
  9
$FILLMODE
 70
     1
  9
$QTEXTMODE
 70
     0
  9
$MIRRTEXT
 70
     1
  9
$LTSCALE
 40
1.0
  9
$ATTMODE
 70
     1
  9
$TEXTSIZE
 40
0.2
  9
$TRACEWID
 40
0.05
  9
$TEXTSTYLE
  7
Standard
  9
$CLAYER
  8
0
  9
$CELTYPE
  6
ByLayer
  9
$CECOLOR
 62
   256
  9
$CELTSCALE
 40
1.0
  9
$DISPSILH
 70
     0
  9
$DIMSCALE
 40
1.0
  9
$DIMASZ
 40
0.18
  9
$DIMEXO
 40
0.0625
  9
$DIMDLI
 40
0.38
  9
$DIMRND
 40
0.0
  9
$DIMDLE
 40
0.0
  9
$DIMEXE
 40
0.18
  9
$DIMTP
 40
0.0
  9
$DIMTM
 40
0.0
  9
$DIMTXT
 40
0.18
  9
$DIMCEN
 40
0.09
  9
$DIMTSZ
 40
0.0
  9
$DIMTOL
 70
     0
  9
$DIMLIM
 70
     0
  9
$DIMTIH
 70
     1
  9
$DIMTOH
 70
     1
  9
$DIMSE1
 70
     0
  9
$DIMSE2
 70
     0
  9
$DIMTAD
 70
     0
  9
$DIMZIN
 70
     0
  9
$DIMBLK
  1

  9
$DIMASO
 70
     1
  9
$DIMSHO
 70
     1
  9
$DIMPOST
  1

  9
$DIMAPOST
  1

  9
$DIMALT
 70
     0
  9
$DIMALTD
 70
     2
  9
$DIMALTF
 40
25.4
  9
$DIMLFAC
 40
1.0
  9
$DIMTOFL
 70
     0
  9
$DIMTVP
 40
0.0
  9
$DIMTIX
 70
     0
  9
$DIMSOXD
 70
     0
  9
$DIMSAH
 70
     0
  9
$DIMBLK1
  1

  9
$DIMBLK2
  1

  9
$DIMSTYLE
  2
Standard
  9
$DIMCLRD
 70
     0
  9
$DIMCLRE
 70
     0
  9
$DIMCLRT
 70
     0
  9
$DIMTFAC
 40
1.0
  9
$DIMGAP
 40
0.09
  9
$DIMJUST
 70
     0
  9
$DIMSD1
 70
     0
  9
$DIMSD2
 70
     0
  9
$DIMTOLJ
 70
     1
  9
$DIMTZIN
 70
     0
  9
$DIMALTZ
 70
     0
  9
$DIMALTTZ
 70
     0
  9
$DIMUPT
 70
     0
  9
$DIMDEC
 70
     4
  9
$DIMTDEC
 70
     4
  9
$DIMALTU
 70
     2
  9
$DIMALTTD
 70
     2
  9
$DIMTXSTY
  7
Standard
  9
$DIMAUNIT
 70
     0
  9
$DIMADEC
 70
     0
  9
$DIMALTRND
 40
0.0
  9
$DIMAZIN
 70
     0
  9
$DIMDSEP
 70
    46
  9
$DIMATFIT
 70
     3
  9
$DIMFRAC
 70
     0
  9
$DIMLDRBLK
  1

  9
$DIMLUNIT
 70
     2
  9
$DIMLWD
 70
    -2
  9
$DIMLWE
 70
    -2
  9
$DIMTMOVE
 70
     0
  9
$LUNITS
 70
     2
  9
$LUPREC
 70
     4
  9
$SKETCHINC
 40
0.1
  9
$FILLETRAD
 40
0.5
  9
$AUNITS
 70
     0
  9
$AUPREC
 70
     0
  9
$MENU
  1
.
  9
$ELEVATION
 40
0.0
  9
$PELEVATION
 40
0.0
  9
$THICKNESS
 40
0.0
  9
$LIMCHECK
 70
     0
  9
$CHAMFERA
 40
0.5
  9
$CHAMFERB
 40
0.5
  9
$CHAMFERC
 40
1.0
  9
$CHAMFERD
 40
0.0
  9
$SKPOLY
 70
     0
  9
$TDCREATE
 40
2456624.395514375
  9
$TDUCREATE
 40
2456624.353847709
  9
$TDUPDATE
 40
2456624.395514387
  9
$TDUUPDATE
 40
2456624.35384772
  9
$TDINDWG
 40
0.0000000116
  9
$TDUSRTIMER
 40
0.0000000116
  9
$USRTIMER
 70
     1
  9
$ANGBASE
 50
0.0
  9
$ANGDIR
 70
     0
  9
$PDMODE
 70
     0
  9
$PDSIZE
 40
0.0
  9
$PLINEWID
 40
0.0
  9
$SPLFRAME
 70
     0
  9
$SPLINETYPE
 70
     6
  9
$SPLINESEGS
 70
     8
  9
$HANDSEED
  5
13C
  9
$SURFTAB1
 70
     6
  9
$SURFTAB2
 70
     6
  9
$SURFTYPE
 70
     6
  9
$SURFU
 70
     6
  9
$SURFV
 70
     6
  9
$UCSBASE
  2

  9
$UCSNAME
  2

  9
$UCSORG
 10
0.0
 20
0.0
 30
0.0
  9
$UCSXDIR
 10
1.0
 20
0.0
 30
0.0
  9
$UCSYDIR
 10
0.0
 20
1.0
 30
0.0
  9
$UCSORTHOREF
  2

  9
$UCSORTHOVIEW
 70
     0
  9
$UCSORGTOP
 10
0.0
 20
0.0
 30
0.0
  9
$UCSORGBOTTOM
 10
0.0
 20
0.0
 30
0.0
  9
$UCSORGLEFT
 10
0.0
 20
0.0
 30
0.0
  9
$UCSORGRIGHT
 10
0.0
 20
0.0
 30
0.0
  9
$UCSORGFRONT
 10
0.0
 20
0.0
 30
0.0
  9
$UCSORGBACK
 10
0.0
 20
0.0
 30
0.0
  9
$PUCSBASE
  2

  9
$PUCSNAME
  2

  9
$PUCSORG
 10
0.0
 20
0.0
 30
0.0
  9
$PUCSXDIR
 10
1.0
 20
0.0
 30
0.0
  9
$PUCSYDIR
 10
0.0
 20
1.0
 30
0.0
  9
$PUCSORTHOREF
  2

  9
$PUCSORTHOVIEW
 70
     0
  9
$PUCSORGTOP
 10
0.0
 20
0.0
 30
0.0
  9
$PUCSORGBOTTOM
 10
0.0
 20
0.0
 30
0.0
  9
$PUCSORGLEFT
 10
0.0
 20
0.0
 30
0.0
  9
$PUCSORGRIGHT
 10
0.0
 20
0.0
 30
0.0
  9
$PUCSORGFRONT
 10
0.0
 20
0.0
 30
0.0
  9
$PUCSORGBACK
 10
0.0
 20
0.0
 30
0.0
  9
$USERI1
 70
     0
  9
$USERI2
 70
     0
  9
$USERI3
 70
     0
  9
$USERI4
 70
     0
  9
$USERI5
 70
     0
  9
$USERR1
 40
14.5
  9
$USERR2
 40
0.0
  9
$USERR3
 40
0.0
  9
$USERR4
 40
0.0
  9
$USERR5
 40
0.0
  9
$WORLDVIEW
 70
     1
  9
$SHADEDGE
 70
     3
  9
$SHADEDIF
 70
    70
  9
$TILEMODE
 70
     1
  9
$MAXACTVP
 70
    64
  9
$PINSBASE
 10
0.0
 20
0.0
 30
0.0
  9
$PLIMCHECK
 70
     0
  9
$PEXTMIN
 10
1.00000000000000E+20
 20
1.00000000000000E+20
 30
1.00000000000000E+20
  9
$PEXTMAX
 10
-1.00000000000000E+20
 20
-1.00000000000000E+20
 30
-1.00000000000000E+20
  9
$PLIMMIN
 10
0.0
 20
0.0
  9
$PLIMMAX
 10
12.0
 20
9.0
  9
$UNITMODE
 70
     0
  9
$VISRETAIN
 70
     1
  9
$PLINEGEN
 70
     0
  9
$PSLTSCALE
 70
     1
  9
$TREEDEPTH
 70
  3020
  9
$CMLSTYLE
  2
Standard
  9
$CMLJUST
 70
     0
  9
$CMLSCALE
 40
1.0
  9
$PROXYGRAPHICS
 70
     1
  9
$MEASUREMENT
 70
     1
  9
$CELWEIGHT
370
    -1
  9
$ENDCAPS
280
     0
  9
$JOINSTYLE
280
     0
  9
$LWDISPLAY
290
     0
  9
$INSUNITS
 70
     1
  9
$HYPERLINKBASE
  1

  9
$STYLESHEET
  1

  9
$XEDIT
290
     1
  9
$CEPSNTYPE
380
     0
  9
$PSTYLEMODE
290
     1
  9
$FINGERPRINTGUID
  2
{98CBFE07-54EC-4B90-B09A-73156B933724}
  9
$VERSIONGUID
  2
{FAEB1C32-E019-11D5-929B-00C0DF256EC4}
  9
$EXTNAMES
290
     1
  9
$PSVPSCALE
 40
0.0
  9
$OLESTARTUP
290
     0
  9
$SORTENTS
280
   127
  9
$INDEXCTL
280
     0
  9
$HIDETEXT
280
     1
  9
$XCLIPFRAME
290
     0
  9
$HALOGAP
280
     0
  9
$OBSCOLOR
 70
   257
  9
$OBSLTYPE
280
     0
  9
$INTERSECTIONDISPLAY
280
     0
  9
$INTERSECTIONCOLOR
 70
   257
  9
$DIMASSOC
280
     2
  9
$PROJECTNAME
  1

  0
ENDSEC
  0
SECTION
  2
CLASSES
  0
CLASS
  1
ACDBDICTIONARYWDFLT
  2
AcDbDictionaryWithDefault
  3
ObjectDBX Classes
 90
        0
 91
        3
280
     0
281
     0
  0
CLASS
  1

  2
exOdDbCircle
  3

 90
        0
 91
        3
280
     0
281
     1
  0
CLASS
  1

  2
exOdDbSpline
  3

 90
        0
 91
        3
280
     0
281
     1
  0
CLASS
  1

  2
exOdDbPolyline
  3

 90
        0
 91
        3
280
     0
281
     1
  0
ENDSEC
  0
SECTION
  2
TABLES
  0
TABLE
  2
VPORT
  5
8
330
0
100
AcDbSymbolTable
 70
     1
  0
VPORT
  5
29
330
8
100
AcDbSymbolTableRecord
100
AcDbViewportTableRecord
  2
*Active
 70
     0
 10
0.0
 20
0.0
 11
1.0
 21
1.0
 12
62293.67400685505
 22
145478.6155470557
 13
0.0
 23
0.0
 14
0.5
 24
0.5
 15
0.5
 25
0.5
 16
0.0
 26
0.0
 36
1.0
 17
0.0
 27
0.0
 37
0.0
 40
112.5704409032066
 41
1.60267857142857
 42
50.0
 43
0.0
 44
0.0
 50
0.0
 51
0.0
 71
     0
 72
   100
 73
     1
 74
     3
 75
     0
 76
     0
 77
     0
 78
     0
281
     0
 65
     1
110
0.0
120
0.0
130
0.0
111
1.0
121
0.0
131
0.0
112
0.0
122
1.0
132
0.0
 79
     0
146
0.0
  0
ENDTAB
  0
TABLE
  2
LTYPE
  5
5
330
0
100
AcDbSymbolTable
 70
     8
  0
LTYPE
  5
14
330
5
100
AcDbSymbolTableRecord
100
AcDbLinetypeTableRecord
  2
ByBlock
 70
     0
  3

 72
    65
 73
     0
 40
0.0
  0
LTYPE
  5
15
330
5
100
AcDbSymbolTableRecord
100
AcDbLinetypeTableRecord
  2
ByLayer
 70
     0
  3

 72
    65
 73
     0
 40
0.0
  0
LTYPE
  5
16
330
5
100
AcDbSymbolTableRecord
100
AcDbLinetypeTableRecord
  2
Continuous
 70
     0
  3
Solid line
 72
    65
 73
     0
 40
0.0
  0
LTYPE
  5
2A
330
5
100
AcDbSymbolTableRecord
100
AcDbLinetypeTableRecord
  2
DASHED
 70
     0
  3
Dashed
 72
    65
 73
     2
 40
15.0
 49
7.0
 74
     0
 49
-8.0
 74
     0
  0
LTYPE
  5
2B
330
5
100
AcDbSymbolTableRecord
100
AcDbLinetypeTableRecord
  2
DOTTED
 70
     0
  3
Dotted
 72
    65
 73
     2
 40
1.0
 49
0.0
 74
     0
 49
-1.0
 74
     0
  0
LTYPE
  5
2C
330
5
100
AcDbSymbolTableRecord
100
AcDbLinetypeTableRecord
  2
DOT_CENTER
 70
     0
  3
Dot_Center
 72
    65
 73
     4
 40
14.0
 49
12.0
 74
     0
 49
-1.0
 74
     0
 49
0.0
 74
     0
 49
-1.0
 74
     0
  0
LTYPE
  5
2D
330
5
100
AcDbSymbolTableRecord
100
AcDbLinetypeTableRecord
  2
LONG_DASHED
 70
     0
  3
Long_Dashed
 72
    65
 73
     2
 40
15.0
 49
10.0
 74
     0
 49
-5.0
 74
     0
  0
LTYPE
  5
2E
330
5
100
AcDbSymbolTableRecord
100
AcDbLinetypeTableRecord
  2
DASH_CENTER
 70
     0
  3
Dash_Center
 72
    65
 73
     4
 40
14.0
 49
11.0
 74
     0
 49
-1.0
 74
     0
 49
1.0
 74
     0
 49
-1.0
 74
     0
  0
LTYPE
  5
2F
330
5
100
AcDbSymbolTableRecord
100
AcDbLinetypeTableRecord
  2
PHANTOM
 70
     0
  3
Phantom
 72
    65
 73
     6
 40
13.0
 49
10.0
 74
     0
 49
-1.0
 74
     0
 49
0.0
 74
     0
 49
-1.0
 74
     0
 49
0.0
 74
     0
 49
-1.0
 74
     0
  0
LTYPE
  5
30
330
5
100
AcDbSymbolTableRecord
100
AcDbLinetypeTableRecord
  2
CENTER_DASH_DASH
 70
     0
  3
Center_Dash_Dash
 72
    65
 73
     6
 40
14.0
 49
9.0
 74
     0
 49
-1.0
 74
     0
 49
1.0
 74
     0
 49
-1.0
 74
     0
 49
1.0
 74
     0
 49
-1.0
 74
     0
  0
ENDTAB
  0
TABLE
  2
LAYER
  5
2
330
0
100
AcDbSymbolTable
 70
     6
  0
LAYER
  5
10
330
2
100
AcDbSymbolTableRecord
100
AcDbLayerTableRecord
  2
0
 70
     0
 62
     7
  6
Continuous
370
    -3
390
F
  0
LAYER
  5
31
330
2
100
AcDbSymbolTableRecord
100
AcDbLayerTableRecord
  2
1
 70
     0
 62
     7
  6
Continuous
370
    -3
390
F
  0
LAYER
  5
32
330
2
100
AcDbSymbolTableRecord
100
AcDbLayerTableRecord
  2
A_ACHSEN
 70
     0
 62
     7
  6
Continuous
370
    -3
390
F
  0
LAYER
  5
33
330
2
100
AcDbSymbolTableRecord
100
AcDbLayerTableRecord
  2
A_BEMASSUNGEN
 70
     0
 62
     7
  6
Continuous
370
    -3
390
F
  0
LAYER
  5
34
330
2
100
AcDbSymbolTableRecord
100
AcDbLayerTableRecord
  2
A_RUNDUNGEN
 70
     0
 62
     7
  6
Continuous
370
    -3
390
F
  0
LAYER
  5
35
330
2
100
AcDbSymbolTableRecord
100
AcDbLayerTableRecord
  2
DEFAULT_1
 70
     0
 62
     7
  6
Continuous
370
    -3
390
F
  0
ENDTAB
  0
TABLE
  2
STYLE
  5
3
330
0
100
AcDbSymbolTable
 70
     2
  0
STYLE
  5
11
330
3
100
AcDbSymbolTableRecord
100
AcDbTextStyleTableRecord
  2
Standard
 70
     0
 40
0.0
 41
1.0
 50
0.0
 71
     0
 42
0.2
  3
txt
  4

  0
STYLE
  5
CE
330
3
100
AcDbSymbolTableRecord
100
AcDbTextStyleTableRecord
  2
CONVERTER_11
 70
     0
 40
0.0
 41
0.9
 50
0.0
 71
     0
 42
0.2
  3
txt.shx
  4

  0
ENDTAB
  0
TABLE
  2
VIEW
  5
6
330
0
100
AcDbSymbolTable
 70
     0
  0
ENDTAB
  0
TABLE
  2
UCS
  5
7
330
0
100
AcDbSymbolTable
 70
     0
  0
ENDTAB
  0
TABLE
  2
APPID
  5
9
330
0
100
AcDbSymbolTable
 70
     1
  0
APPID
  5
12
330
9
100
AcDbSymbolTableRecord
100
AcDbRegAppTableRecord
  2
ACAD
 70
     0
  0
ENDTAB
  0
TABLE
  2
DIMSTYLE
  5
A
330
0
100
AcDbSymbolTable
 70
    11
100
AcDbDimStyleTable
  0
DIMSTYLE
105
27
330
A
100
AcDbSymbolTableRecord
100
AcDbDimStyleTableRecord
  2
Standard
 70
     0
340
11
  0
DIMSTYLE
105
D2
102
{ACAD_REACTORS
330
D3
102
}
330
A
100
AcDbSymbolTableRecord
100
AcDbDimStyleTableRecord
  2
ME10_DIM_10
 70
     0
 41
3.5
 42
0.0
 44
2.0
 73
     0
 74
     0
 77
     1
 78
     8
140
3.5
147
2.0
172
     1
173
     1
176
     2
177
     2
178
     2
271
     3
340
CE
  0
DIMSTYLE
105
DD
102
{ACAD_REACTORS
330
DE
102
}
330
A
100
AcDbSymbolTableRecord
100
AcDbDimStyleTableRecord
  2
ME10_DIM_11
 70
     0
 41
3.5
 42
0.0
 44
2.0
 73
     0
 74
     0
 77
     1
 78
     8
140
3.5
147
2.0
172
     1
173
     1
176
     2
177
     2
178
     2
271
     3
340
CE
  0
DIMSTYLE
105
E8
102
{ACAD_REACTORS
330
E9
102
}
330
A
100
AcDbSymbolTableRecord
100
AcDbDimStyleTableRecord
  2
ME10_DIM_12
 70
     0
 41
3.5
 42
0.0
 44
2.0
 73
     0
 74
     0
 77
     1
 78
     8
140
3.5
147
2.0
172
     1
173
     1
176
     2
177
     2
178
     2
271
     3
340
CE
  0
DIMSTYLE
105
F3
102
{ACAD_REACTORS
330
F4
102
}
330
A
100
AcDbSymbolTableRecord
100
AcDbDimStyleTableRecord
  2
ME10_DIM_13
 70
     0
 41
3.5
 42
0.0
 44
2.0
 73
     0
 74
     0
 77
     1
 78
     8
140
3.5
147
2.0
172
     1
173
     1
176
     2
177
     2
178
     2
271
     3
340
CE
  0
DIMSTYLE
105
FE
102
{ACAD_REACTORS
330
FF
102
}
330
A
100
AcDbSymbolTableRecord
100
AcDbDimStyleTableRecord
  2
ME10_DIM_14
 70
     0
 41
3.5
 42
0.0
 44
2.0
 73
     0
 74
     0
 77
     1
 78
     8
140
3.5
147
2.0
172
     1
173
     1
176
     2
177
     2
178
     2
271
     3
340
CE
  0
DIMSTYLE
105
109
102
{ACAD_REACTORS
330
10A
102
}
330
A
100
AcDbSymbolTableRecord
100
AcDbDimStyleTableRecord
  2
ME10_DIM_15
 70
     0
 41
3.5
 42
0.0
 44
2.0
 73
     0
 74
     0
 77
     1
 78
     8
140
3.5
147
2.0
172
     1
173
     1
176
     2
177
     2
178
     2
271
     3
340
CE
  0
DIMSTYLE
105
116
102
{ACAD_REACTORS
330
117
102
}
330
A
100
AcDbSymbolTableRecord
100
AcDbDimStyleTableRecord
  2
ME10_DIM_16
 70
     0
 41
3.5
 42
0.0
 44
2.0
 73
     0
 74
     0
 77
     1
 78
     8
140
3.5
147
2.0
172
     1
173
     1
176
     2
177
     2
178
     2
271
     3
340
CE
  0
DIMSTYLE
105
122
102
{ACAD_REACTORS
330
123
102
}
330
A
100
AcDbSymbolTableRecord
100
AcDbDimStyleTableRecord
  2
ME10_DIM_17
 70
     0
 41
3.5
 42
0.0
 44
2.0
 73
     0
 74
     0
 77
     1
 78
     8
140
3.5
147
2.0
172
     1
173
     1
176
     2
177
     2
178
     2
271
     3
340
CE
  0
DIMSTYLE
105
12F
102
{ACAD_REACTORS
330
130
102
}
330
A
100
AcDbSymbolTableRecord
100
AcDbDimStyleTableRecord
  2
ME10_DIM_18
 70
     0
 41
3.5
 42
0.0
 44
2.0
 73
     0
 74
     0
 77
     1
 78
     8
140
3.5
147
2.0
172
     1
173
     1
176
     2
177
     2
178
     2
271
     3
340
CE
  0
DIMSTYLE
105
13A
102
{ACAD_REACTORS
330
13B
102
}
330
A
100
AcDbSymbolTableRecord
100
AcDbDimStyleTableRecord
  2
ME10_DIM_19
 70
     0
 41
3.5
 42
0.0
 44
2.0
 73
     0
 74
     0
 77
     1
 78
     8
140
3.5
147
2.0
172
     1
173
     1
176
     2
177
     2
178
     2
271
     3
340
CE
  0
ENDTAB
  0
TABLE
  2
BLOCK_RECORD
  5
1
330
0
100
AcDbSymbolTable
 70
    11
  0
BLOCK_RECORD
  5
1F
330
1
100
AcDbSymbolTableRecord
100
AcDbBlockTableRecord
  2
*Model_Space
340
22
  0
BLOCK_RECORD
  5
1B
330
1
100
AcDbSymbolTableRecord
100
AcDbBlockTableRecord
  2
*Paper_Space
340
1E
  0
BLOCK_RECORD
  5
23
330
1
100
AcDbSymbolTableRecord
100
AcDbBlockTableRecord
  2
*Paper_Space0
340
26
  0
BLOCK_RECORD
  5
C6
330
1
100
AcDbSymbolTableRecord
100
AcDbBlockTableRecord
  2
*D1
340
0
  0
BLOCK_RECORD
  5
D4
330
1
100
AcDbSymbolTableRecord
100
AcDbBlockTableRecord
  2
*D2
340
0
  0
BLOCK_RECORD
  5
DF
330
1
100
AcDbSymbolTableRecord
100
AcDbBlockTableRecord
  2
*D3
340
0
  0
BLOCK_RECORD
  5
EA
330
1
100
AcDbSymbolTableRecord
100
AcDbBlockTableRecord
  2
*D4
340
0
  0
BLOCK_RECORD
  5
F5
330
1
100
AcDbSymbolTableRecord
100
AcDbBlockTableRecord
  2
*D5
340
0
  0
BLOCK_RECORD
  5
100
330
1
100
AcDbSymbolTableRecord
100
AcDbBlockTableRecord
  2
*D6
340
0
  0
BLOCK_RECORD
  5
10B
330
1
100
AcDbSymbolTableRecord
100
AcDbBlockTableRecord
  2
*D7
340
0
  0
BLOCK_RECORD
  5
118
330
1
100
AcDbSymbolTableRecord
100
AcDbBlockTableRecord
  2
*D8
340
0
  0
BLOCK_RECORD
  5
124
330
1
100
AcDbSymbolTableRecord
100
AcDbBlockTableRecord
  2
*D9
340
0
  0
BLOCK_RECORD
  5
131
330
1
100
AcDbSymbolTableRecord
100
AcDbBlockTableRecord
  2
*D10
340
0
  0
ENDTAB
  0
ENDSEC
  0
SECTION
  2
BLOCKS
  0
BLOCK
  5
20
330
1F
100
AcDbEntity
  8
0
100
AcDbBlockBegin
  2
*Model_Space
 70
     0
 71
     0
 10
0.0
 20
0.0
 30
0.0
  3
*Model_Space
  1

  0
ENDBLK
  5
21
330
1F
100
AcDbEntity
  8
0
100
AcDbBlockEnd
  0
BLOCK
  5
1C
330
1B
100
AcDbEntity
 67
     1
  8
0
100
AcDbBlockBegin
  2
*Paper_Space
 70
     0
 71
     0
 10
0.0
 20
0.0
 30
0.0
  3
*Paper_Space
  1

  0
ENDBLK
  5
1D
330
1B
100
AcDbEntity
 67
     1
  8
0
100
AcDbBlockEnd
  0
BLOCK
  5
24
330
23
100
AcDbEntity
  8
0
100
AcDbBlockBegin
  2
*Paper_Space0
 70
     0
 71
     0
 10
0.0
 20
0.0
 30
0.0
  3
*Paper_Space0
  1

  0
ENDBLK
  5
25
330
23
100
AcDbEntity
  8
0
100
AcDbBlockEnd
  0
BLOCK
  5
D0
330
C6
100
AcDbEntity
  8
0
100
AcDbBlockBegin
  2
*D1
 70
     1
 71
     0
 10
0.0
 20
0.0
 30
0.0
  3
*D1
  1

  0
LINE
  5
C7
330
C6
100
AcDbEntity
  8
1
  6
Continuous
 62
     2
100
AcDbLine
 10
62291.23890593098
 20
145431.3655470557
 30
0.0
 11
62281.7497106627
 21
145431.3655470557
 31
0.0
  0
LINE
  5
C8
330
C6
100
AcDbEntity
  8
1
  6
Continuous
 62
     2
100
AcDbLine
 10
62294.73890593098
 20
145431.3655470557
 30
0.0
 11
62291.23890593098
 21
145431.3655470557
 31
0.0
  0
LINE
  5
C9
330
C6
100
AcDbEntity
  8
1
  6
Continuous
 62
     2
100
AcDbLine
 10
62301.73890593098
 20
145431.3655470557
 30
0.0
 11
62294.73890593098
 21
145431.3655470557
 31
0.0
  0
LINE
  5
CA
330
C6
100
AcDbEntity
  8
1
  6
Continuous
 62
     2
100
AcDbLine
 10
62291.23890593098
 20
145455.3655470557
 30
0.0
 11
62291.23890593098
 21
145429.3655470557
 31
0.0
  0
LINE
  5
CB
330
C6
100
AcDbEntity
  8
1
  6
Continuous
 62
     2
100
AcDbLine
 10
62294.73890593098
 20
145459.3655470557
 30
0.0
 11
62294.73890593098
 21
145429.3655470557
 31
0.0
  0
SOLID
  5
CC
330
C6
100
AcDbEntity
  8
1
 62
     2
100
AcDbTrace
 10
62298.23890593098
 20
145431.8263307973
 30
0.0
 11
62298.23890593098
 21
145430.9047633141
 31
0.0
 12
62294.73890593098
 22
145431.3655470557
 32
0.0
 13
62294.73890593098
 23
145431.3655470557
 33
0.0
  0
SOLID
  5
CD
330
C6
100
AcDbEntity
  8
1
 62
     2
100
AcDbTrace
 10
62287.73890593098
 20
145430.9047633141
 30
0.0
 11
62287.73890593098
 21
145431.8263307973
 31
0.0
 12
62291.23890593098
 22
145431.3655470557
 32
0.0
 13
62291.23890593098
 23
145431.3655470557
 33
0.0
  0
MTEXT
  5
CF
330
C6
100
AcDbEntity
  8
1
 62
     2
100
AcDbMText
 10
62281.7497106627
 20
145433.3655470557
 30
0.0
 40
3.5
 41
0.0
 71
     7
 72
     1
  1
3.5
  7
CONVERTER_11
 11
0.9999999999970621
 21
2.424068405545307E-6
 31
0.0
 73
     1
 44
0.60024009603842
  0
ENDBLK
  5
D1
330
C6
100
AcDbEntity
  8
0
100
AcDbBlockEnd
  0
BLOCK
  5
DB
330
D4
100
AcDbEntity
  8
0
100
AcDbBlockBegin
  2
*D2
 70
     1
 71
     0
 10
0.0
 20
0.0
 30
0.0
  3
*D2
  1

  0
LINE
  5
D5
330
D4
100
AcDbEntity
  8
1
  6
Continuous
 62
     2
100
AcDbLine
 10
62312.73890593098
 20
145431.366670399
 30
0.0
 11
62294.73890593098
 21
145431.366670399
 31
0.0
  0
LINE
  5
D6
330
D4
100
AcDbEntity
  8
1
  6
Continuous
 62
     2
100
AcDbLine
 10
62294.73890593098
 20
145459.3655470557
 30
0.0
 11
62294.73890593098
 21
145429.366670399
 31
0.0
  0
LINE
  5
D7
330
D4
100
AcDbEntity
  8
1
  6
Continuous
 62
     2
100
AcDbLine
 10
62312.73890593098
 20
145444.0539504032
 30
0.0
 11
62312.73890593098
 21
145429.366670399
 31
0.0
  0
SOLID
  5
D8
330
D4
100
AcDbEntity
  8
1
 62
     2
100
AcDbTrace
 10
62309.23890593098
 20
145430.9058866574
 30
0.0
 11
62309.23890593098
 21
145431.8274541406
 31
0.0
 12
62312.73890593098
 22
145431.366670399
 32
0.0
 13
62312.73890593098
 23
145431.366670399
 33
0.0
  0
SOLID
  5
D9
330
D4
100
AcDbEntity
  8
1
 62
     2
100
AcDbTrace
 10
62298.23890593098
 20
145431.8274541406
 30
0.0
 11
62298.23890593098
 21
145430.9058866574
 31
0.0
 12
62294.73890593098
 22
145431.366670399
 32
0.0
 13
62294.73890593098
 23
145431.366670399
 33
0.0
  0
MTEXT
  5
DA
330
D4
100
AcDbEntity
  8
1
 62
     2
100
AcDbMText
 10
62300.87229070245
 20
145433.366670399
 30
0.0
 40
3.5
 41
0.0
 71
     7
 72
     1
  1
18
  7
CONVERTER_11
 11
0.9999999999970621
 21
2.424068405545307E-6
 31
0.0
 73
     1
 44
0.60024009603842
  0
ENDBLK
  5
DC
330
D4
100
AcDbEntity
  8
0
100
AcDbBlockEnd
  0
BLOCK
  5
E6
330
DF
100
AcDbEntity
  8
0
100
AcDbBlockBegin
  2
*D3
 70
     1
 71
     0
 10
0.0
 20
0.0
 30
0.0
  3
*D3
  1

  0
LINE
  5
E0
330
DF
100
AcDbEntity
  8
1
  6
Continuous
 62
     2
100
AcDbLine
 10
62373.6804765877
 20
145495.1655470557
 30
0.0
 11
62373.6804765877
 21
145460.1655470557
 31
0.0
  0
LINE
  5
E1
330
DF
100
AcDbEntity
  8
1
  6
Continuous
 62
     2
100
AcDbLine
 10
62334.73890593098
 20
145495.1655470557
 30
0.0
 11
62375.6804765877
 21
145495.1655470557
 31
0.0
  0
LINE
  5
E2
330
DF
100
AcDbEntity
  8
1
  6
Continuous
 62
     2
100
AcDbLine
 10
62336.73892551748
 20
145460.1655470557
 30
0.0
 11
62375.6804765877
 21
145460.1655470557
 31
0.0
  0
SOLID
  5
E3
330
DF
100
AcDbEntity
  8
1
 62
     2
100
AcDbTrace
 10
62374.14126032926
 20
145491.6655470557
 30
0.0
 11
62373.21969284615
 21
145491.6655470557
 31
0.0
 12
62373.6804765877
 22
145495.1655470557
 32
0.0
 13
62373.6804765877
 23
145495.1655470557
 33
0.0
  0
SOLID
  5
E4
330
DF
100
AcDbEntity
  8
1
 62
     2
100
AcDbTrace
 10
62373.21969284615
 20
145463.6655470557
 30
0.0
 11
62374.14126032926
 21
145463.6655470557
 31
0.0
 12
62373.6804765877
 22
145460.1655470557
 32
0.0
 13
62373.6804765877
 23
145460.1655470557
 33
0.0
  0
MTEXT
  5
E5
330
DF
100
AcDbEntity
  8
1
 62
     2
100
AcDbMText
 10
62371.6804765877
 20
145475.628776269
 30
0.0
 40
3.5
 41
0.0
 71
     7
 72
     1
  1
35
  7
CONVERTER_11
 11
0.0
 21
1.0
 31
0.0
 73
     1
 44
0.60024009603842
  0
ENDBLK
  5
E7
330
DF
100
AcDbEntity
  8
0
100
AcDbBlockEnd
  0
BLOCK
  5
F1
330
EA
100
AcDbEntity
  8
0
100
AcDbBlockBegin
  2
*D4
 70
     1
 71
     0
 10
0.0
 20
0.0
 30
0.0
  3
*D4
  1

  0
LINE
  5
EB
330
EA
100
AcDbEntity
  8
1
  6
Continuous
 62
     2
100
AcDbLine
 10
62362.73895381232
 20
145476.1655470557
 30
0.0
 11
62362.73895381232
 21
145460.1655470557
 31
0.0
  0
LINE
  5
EC
330
EA
100
AcDbEntity
  8
1
  6
Continuous
 62
     2
100
AcDbLine
 10
62336.73892551748
 20
145460.1655470557
 30
0.0
 11
62364.73895381232
 21
145460.1655470557
 31
0.0
  0
LINE
  5
ED
330
EA
100
AcDbEntity
  8
1
  6
Continuous
 62
     2
100
AcDbLine
 10
62316.73892551748
 20
145476.1655470557
 30
0.0
 11
62364.73895381232
 21
145476.1655470557
 31
0.0
  0
SOLID
  5
EE
330
EA
100
AcDbEntity
  8
1
 62
     2
100
AcDbTrace
 10
62363.19973755387
 20
145472.6655470557
 30
0.0
 11
62362.27817007076
 21
145472.6655470557
 31
0.0
 12
62362.73895381232
 22
145476.1655470557
 32
0.0
 13
62362.73895381232
 23
145476.1655470557
 33
0.0
  0
SOLID
  5
EF
330
EA
100
AcDbEntity
  8
1
 62
     2
100
AcDbTrace
 10
62362.27817007076
 20
145463.6655470557
 30
0.0
 11
62363.19973755387
 21
145463.6655470557
 31
0.0
 12
62362.73895381232
 22
145460.1655470557
 32
0.0
 13
62362.73895381232
 23
145460.1655470557
 33
0.0
  0
MTEXT
  5
F0
330
EA
100
AcDbEntity
  8
1
 62
     2
100
AcDbMText
 10
62360.73895381232
 20
145465.660182307
 30
0.0
 40
3.5
 41
0.0
 71
     7
 72
     1
  1
16
  7
CONVERTER_11
 11
0.0
 21
1.0
 31
0.0
 73
     1
 44
0.60024009603842
  0
ENDBLK
  5
F2
330
EA
100
AcDbEntity
  8
0
100
AcDbBlockEnd
  0
BLOCK
  5
FC
330
F5
100
AcDbEntity
  8
0
100
AcDbBlockBegin
  2
*D5
 70
     1
 71
     0
 10
0.0
 20
0.0
 30
0.0
  3
*D5
  1

  0
LINE
  5
F6
330
F5
100
AcDbEntity
  8
1
  6
Continuous
 62
     2
100
AcDbLine
 10
62294.73895381232
 20
145522.3655470557
 30
0.0
 11
62306.73890593097
 21
145522.3655470557
 31
0.0
  0
LINE
  5
F7
330
F5
100
AcDbEntity
  8
1
  6
Continuous
 62
     2
100
AcDbLine
 10
62306.73890593097
 20
145490.9251788054
 30
0.0
 11
62306.73890593097
 21
145524.3655470557
 31
0.0
  0
LINE
  5
F8
330
F5
100
AcDbEntity
  8
1
  6
Continuous
 62
     2
100
AcDbLine
 10
62294.73895381232
 20
145485.3655470557
 30
0.0
 11
62294.73895381232
 21
145524.3655470557
 31
0.0
  0
SOLID
  5
F9
330
F5
100
AcDbEntity
  8
1
 62
     2
100
AcDbTrace
 10
62298.23895381232
 20
145522.8263307973
 30
0.0
 11
62298.23895381232
 21
145521.9047633141
 31
0.0
 12
62294.73895381232
 22
145522.3655470557
 32
0.0
 13
62294.73895381232
 23
145522.3655470557
 33
0.0
  0
SOLID
  5
FA
330
F5
100
AcDbEntity
  8
1
 62
     2
100
AcDbTrace
 10
62303.23890593097
 20
145521.9047633141
 30
0.0
 11
62303.23890593097
 21
145522.8263307973
 31
0.0
 12
62306.73890593097
 22
145522.3655470557
 32
0.0
 13
62306.73890593097
 23
145522.3655470557
 33
0.0
  0
MTEXT
  5
FB
330
F5
100
AcDbEntity
  8
1
 62
     2
100
AcDbMText
 10
62298.6579051488
 20
145524.3655470557
 30
0.0
 40
3.5
 41
0.0
 71
     7
 72
     1
  1
12
  7
CONVERTER_11
 11
0.9999999999970621
 21
2.424068405545307E-6
 31
0.0
 73
     1
 44
0.60024009603842
  0
ENDBLK
  5
FD
330
F5
100
AcDbEntity
  8
0
100
AcDbBlockEnd
  0
BLOCK
  5
107
330
100
100
AcDbEntity
  8
0
100
AcDbBlockBegin
  2
*D6
 70
     1
 71
     0
 10
0.0
 20
0.0
 30
0.0
  3
*D6
  1

  0
LINE
  5
101
330
100
100
AcDbEntity
  8
1
  6
Continuous
 62
     2
100
AcDbLine
 10
62314.73890593098
 20
145522.3655470557
 30
0.0
 11
62334.73890593098
 21
145522.3655470557
 31
0.0
  0
LINE
  5
102
330
100
100
AcDbEntity
  8
1
  6
Continuous
 62
     2
100
AcDbLine
 10
62334.73890593098
 20
145495.1655470557
 30
0.0
 11
62334.73890593098
 21
145524.3655470557
 31
0.0
  0
LINE
  5
103
330
100
100
AcDbEntity
  8
1
  6
Continuous
 62
     2
100
AcDbLine
 10
62314.73890593098
 20
145495.1655470557
 30
0.0
 11
62314.73890593098
 21
145524.3655470557
 31
0.0
  0
SOLID
  5
104
330
100
100
AcDbEntity
  8
1
 62
     2
100
AcDbTrace
 10
62318.23890593098
 20
145522.8263307973
 30
0.0
 11
62318.23890593098
 21
145521.9047633141
 31
0.0
 12
62314.73890593098
 22
145522.3655470557
 32
0.0
 13
62314.73890593098
 23
145522.3655470557
 33
0.0
  0
SOLID
  5
105
330
100
100
AcDbEntity
  8
1
 62
     2
100
AcDbTrace
 10
62331.23890593098
 20
145521.9047633141
 30
0.0
 11
62331.23890593098
 21
145522.8263307973
 31
0.0
 12
62334.73890593098
 22
145522.3655470557
 32
0.0
 13
62334.73890593098
 23
145522.3655470557
 33
0.0
  0
MTEXT
  5
106
330
100
100
AcDbEntity
  8
1
 62
     2
100
AcDbMText
 10
62321.9320426573
 20
145524.3655470557
 30
0.0
 40
3.5
 41
0.0
 71
     7
 72
     1
  1
20
  7
CONVERTER_11
 11
0.9999999999970621
 21
2.424068405545307E-6
 31
0.0
 73
     1
 44
0.60024009603842
  0
ENDBLK
  5
108
330
100
100
AcDbEntity
  8
0
100
AcDbBlockEnd
  0
BLOCK
  5
114
330
10B
100
AcDbEntity
  8
0
100
AcDbBlockBegin
  2
*D7
 70
     1
 71
     0
 10
0.0
 20
0.0
 30
0.0
  3
*D7
  1

  0
LINE
  5
10C
330
10B
100
AcDbEntity
  8
1
  6
Continuous
 62
     2
100
AcDbLine
 10
62306.73890593097
 20
145522.3655470557
 30
0.0
 11
62299.73890593097
 21
145522.3655470557
 31
0.0
  0
LINE
  5
10D
330
10B
100
AcDbEntity
  8
1
  6
Continuous
 62
     2
100
AcDbLine
 10
62314.73890593098
 20
145522.3655470557
 30
0.0
 11
62306.73890593097
 21
145522.3655470557
 31
0.0
  0
LINE
  5
10E
330
10B
100
AcDbEntity
  8
1
  6
Continuous
 62
     2
100
AcDbLine
 10
62321.73890593098
 20
145522.3655470557
 30
0.0
 11
62314.73890593098
 21
145522.3655470557
 31
0.0
  0
LINE
  5
10F
330
10B
100
AcDbEntity
  8
1
  6
Continuous
 62
     2
100
AcDbLine
 10
62306.73890593097
 20
145490.9251788054
 30
0.0
 11
62306.73890593097
 21
145524.3655470557
 31
0.0
  0
LINE
  5
110
330
10B
100
AcDbEntity
  8
1
  6
Continuous
 62
     2
100
AcDbLine
 10
62314.73890593098
 20
145495.1655470557
 30
0.0
 11
62314.73890593098
 21
145524.3655470557
 31
0.0
  0
SOLID
  5
111
330
10B
100
AcDbEntity
  8
1
 62
     2
100
AcDbTrace
 10
62318.23890593098
 20
145522.8263307973
 30
0.0
 11
62318.23890593098
 21
145521.9047633141
 31
0.0
 12
62314.73890593098
 22
145522.3655470557
 32
0.0
 13
62314.73890593098
 23
145522.3655470557
 33
0.0
  0
SOLID
  5
112
330
10B
100
AcDbEntity
  8
1
 62
     2
100
AcDbTrace
 10
62303.23890593097
 20
145521.9047633141
 30
0.0
 11
62303.23890593097
 21
145522.8263307973
 31
0.0
 12
62306.73890593097
 22
145522.3655470557
 32
0.0
 13
62306.73890593097
 23
145522.3655470557
 33
0.0
  0
MTEXT
  5
113
330
10B
100
AcDbEntity
  8
1
 62
     2
100
AcDbMText
 10
62309.34190455055
 20
145524.3655470557
 30
0.0
 40
3.5
 41
0.0
 71
     7
 72
     1
  1
8
  7
CONVERTER_11
 11
0.9999999999970621
 21
2.424068405545307E-6
 31
0.0
 73
     1
 44
0.60024009603842
  0
ENDBLK
  5
115
330
10B
100
AcDbEntity
  8
0
100
AcDbBlockEnd
  0
BLOCK
  5
120
330
118
100
AcDbEntity
  8
0
100
AcDbBlockBegin
  2
*D8
 70
     1
 71
     0
 10
0.0
 20
0.0
 30
0.0
  3
*D8
  1

  0
LINE
  5
119
330
118
100
AcDbEntity
  8
1
  6
Continuous
 62
     2
100
AcDbLine
 10
62217.1675371224
 20
145455.3655470557
 30
0.0
 11
62217.1675371224
 21
145479.3655470557
 31
0.0
  0
LINE
  5
11A
330
118
100
AcDbEntity
  8
1
  6
Continuous
 62
     2
100
AcDbLine
 10
62224.4059240041
 20
145455.3655470557
 30
0.0
 11
62215.1675371224
 21
145455.3655470557
 31
0.0
  0
LINE
  5
11B
330
118
100
AcDbEntity
  8
1
  6
Continuous
 62
     2
100
AcDbLine
 10
62291.23890593098
 20
145455.3655470557
 30
0.0
 11
62229.6135085973
 21
145455.3655470557
 31
0.0
  0
LINE
  5
11C
330
118
100
AcDbEntity
  8
1
  6
Continuous
 62
     2
100
AcDbLine
 10
62291.23890593098
 20
145479.3655470557
 30
0.0
 11
62215.1675371224
 21
145479.3655470557
 31
0.0
  0
SOLID
  5
11D
330
118
100
AcDbEntity
  8
1
 62
     2
100
AcDbTrace
 10
62216.70675338084
 20
145458.8655470557
 30
0.0
 11
62217.62832086395
 21
145458.8655470557
 31
0.0
 12
62217.1675371224
 22
145455.3655470557
 32
0.0
 13
62217.1675371224
 23
145455.3655470557
 33
0.0
  0
SOLID
  5
11E
330
118
100
AcDbEntity
  8
1
 62
     2
100
AcDbTrace
 10
62217.62832086395
 20
145475.8655470557
 30
0.0
 11
62216.70675338084
 21
145475.8655470557
 31
0.0
 12
62217.1675371224
 22
145479.3655470557
 32
0.0
 13
62217.1675371224
 23
145479.3655470557
 33
0.0
  0
MTEXT
  5
11F
330
118
100
AcDbEntity
  8
1
 62
     2
100
AcDbMText
 10
62215.1675371224
 20
145465.605958401
 30
0.0
 40
3.5
 41
0.0
 71
     7
 72
     1
  1
24
  7
CONVERTER_11
 11
0.0
 21
1.0
 31
0.0
 73
     1
 44
0.60024009603842
  0
ENDBLK
  5
121
330
118
100
AcDbEntity
  8
0
100
AcDbBlockEnd
  0
BLOCK
  5
12D
330
124
100
AcDbEntity
  8
0
100
AcDbBlockBegin
  2
*D9
 70
     1
 71
     0
 10
0.0
 20
0.0
 30
0.0
  3
*D9
  1

  0
LINE
  5
125
330
124
100
AcDbEntity
  8
1
  6
Continuous
 62
     2
100
AcDbLine
 10
62227.17008381232
 20
145467.644075955
 30
0.0
 11
62227.17008381232
 21
145459.3655470557
 31
0.0
  0
LINE
  5
126
330
124
100
AcDbEntity
  8
1
  6
Continuous
 62
     2
100
AcDbLine
 10
62227.17008381232
 20
145459.3655470557
 30
0.0
 11
62227.17008381232
 21
145458.8655470557
 31
0.0
  0
LINE
  5
127
330
124
100
AcDbEntity
  8
1
  6
Continuous
 62
     2
100
AcDbLine
 10
62227.17008381232
 20
145458.8655470557
 30
0.0
 11
62227.17008381232
 21
145451.8655470557
 31
0.0
  0
LINE
  5
128
330
124
100
AcDbEntity
  8
1
  6
Continuous
 62
     2
100
AcDbLine
 10
62312.73926442624
 20
145459.3655470557
 30
0.0
 11
62225.17008381232
 21
145459.3655470557
 31
0.0
  0
LINE
  5
129
330
124
100
AcDbEntity
  8
1
  6
Continuous
 62
     2
100
AcDbLine
 10
62313.23901381781
 20
145458.8655470557
 30
0.0
 11
62225.17008381232
 21
145458.8655470557
 31
0.0
  0
SOLID
  5
12A
330
124
100
AcDbEntity
  8
1
 62
     2
100
AcDbTrace
 10
62226.70930007077
 20
145462.8655470557
 30
0.0
 11
62227.63086755387
 21
145462.8655470557
 31
0.0
 12
62227.17008381232
 22
145459.3655470557
 32
0.0
 13
62227.17008381232
 23
145459.3655470557
 33
0.0
  0
SOLID
  5
12B
330
124
100
AcDbEntity
  8
1
 62
     2
100
AcDbTrace
 10
62227.63086755387
 20
145455.3655470557
 30
0.0
 11
62226.70930007077
 21
145455.3655470557
 31
0.0
 12
62227.17008381232
 22
145458.8655470557
 32
0.0
 13
62227.17008381232
 23
145458.8655470557
 33
0.0
  0
MTEXT
  5
12C
330
124
100
AcDbEntity
  8
1
 62
     2
100
AcDbMText
 10
62225.17008381232
 20
145461.256575955
 30
0.0
 40
3.5
 41
0.0
 71
     7
 72
     1
  1
0.5
  7
CONVERTER_11
 11
0.0
 21
1.0
 31
0.0
 73
     1
 44
0.60024009603842
  0
ENDBLK
  5
12E
330
124
100
AcDbEntity
  8
0
100
AcDbBlockEnd
  0
BLOCK
  5
138
330
131
100
AcDbEntity
  8
0
100
AcDbBlockBegin
  2
*D10
 70
     1
 71
     0
 10
0.0
 20
0.0
 30
0.0
  3
*D10
  1

  0
LINE
  5
132
330
131
100
AcDbEntity
  8
1
  6
Continuous
 62
     2
100
AcDbLine
 10
62362.73895381232
 20
145445.1655470557
 30
0.0
 11
62362.73895381232
 21
145460.1655470557
 31
0.0
  0
LINE
  5
133
330
131
100
AcDbEntity
  8
1
  6
Continuous
 62
     2
100
AcDbLine
 10
62335.73892551748
 20
145460.1655470557
 30
0.0
 11
62364.73895381232
 21
145460.1655470557
 31
0.0
  0
LINE
  5
134
330
131
100
AcDbEntity
  8
1
  6
Continuous
 62
     2
100
AcDbLine
 10
62329.73890593098
 20
145445.1655470557
 30
0.0
 11
62364.73895381232
 21
145445.1655470557
 31
0.0
  0
SOLID
  5
135
330
131
100
AcDbEntity
  8
1
 62
     2
100
AcDbTrace
 10
62362.27817007076
 20
145448.6655470557
 30
0.0
 11
62363.19973755387
 21
145448.6655470557
 31
0.0
 12
62362.73895381232
 22
145445.1655470557
 32
0.0
 13
62362.73895381232
 23
145445.1655470557
 33
0.0
  0
SOLID
  5
136
330
131
100
AcDbEntity
  8
1
 62
     2
100
AcDbTrace
 10
62363.19973755387
 20
145456.6655470557
 30
0.0
 11
62362.27817007076
 21
145456.6655470557
 31
0.0
 12
62362.73895381232
 22
145460.1655470557
 32
0.0
 13
62362.73895381232
 23
145460.1655470557
 33
0.0
  0
MTEXT
  5
137
330
131
100
AcDbEntity
  8
1
 62
     2
100
AcDbMText
 10
62360.73895381232
 20
145451.2318849402
 30
0.0
 40
3.5
 41
0.0
 71
     7
 72
     1
  1
15
  7
CONVERTER_11
 11
0.0
 21
1.0
 31
0.0
 73
     1
 44
0.60024009603842
  0
ENDBLK
  5
139
330
131
100
AcDbEntity
  8
0
100
AcDbBlockEnd
  0
ENDSEC
  0
SECTION
  2
ENTITIES
  0
POINT
  5
36
330
1F
100
AcDbEntity
  8
A_BEMASSUNGEN
 62
     7
100
AcDbPoint
 10
62306.73890593098
 20
145479.1655470557
 30
0.0
  0
POINT
  5
37
330
1F
100
AcDbEntity
  8
A_BEMASSUNGEN
 62
     3
100
AcDbPoint
 10
62349.73895381232
 20
145460.1655470557
 30
0.0
  0
POINT
  5
38
330
1F
100
AcDbEntity
  8
A_BEMASSUNGEN
 62
     7
100
AcDbPoint
 10
62291.23890593098
 20
145479.3655470557
 30
0.0
  0
POINT
  5
39
330
1F
100
AcDbEntity
  8
A_BEMASSUNGEN
 62
     7
100
AcDbPoint
 10
62294.73890593098
 20
145479.3655470557
 30
0.0
  0
POINT
  5
3A
330
1F
100
AcDbEntity
  8
A_BEMASSUNGEN
 62
     7
100
AcDbPoint
 10
62294.73890593098
 20
145478.2958326054
 30
0.0
  0
POINT
  5
3B
330
1F
100
AcDbEntity
  8
A_BEMASSUNGEN
 62
     7
100
AcDbPoint
 10
62314.23890593098
 20
145459.1655470557
 30
0.0
  0
POINT
  5
3C
330
1F
100
AcDbEntity
  8
A_BEMASSUNGEN
 62
     7
100
AcDbPoint
 10
62313.73890593098
 20
145460.1655470557
 30
0.0
  0
POINT
  5
3D
330
1F
100
AcDbEntity
  8
A_BEMASSUNGEN
 62
     7
100
AcDbPoint
 10
62335.23890593098
 20
145459.1655470557
 30
0.0
  0
POINT
  5
3E
330
1F
100
AcDbEntity
  8
A_BEMASSUNGEN
 62
     7
100
AcDbPoint
 10
62335.73890593098
 20
145460.1655470557
 30
0.0
  0
POINT
  5
3F
330
1F
100
AcDbEntity
  8
A_BEMASSUNGEN
 62
     7
100
AcDbPoint
 10
62314.23890593098
 20
145459.1655470557
 30
0.0
  0
POINT
  5
40
330
1F
100
AcDbEntity
  8
1
 62
     3
 60
     1
100
AcDbPoint
 10
62324.73891572423
 20
145496.1655470557
 30
0.0
  0
POINT
  5
41
330
1F
100
AcDbEntity
  8
1
 62
     3
 60
     1
100
AcDbPoint
 10
62324.73891572423
 20
145476.1655470557
 30
0.0
  0
POINT
  5
42
330
1F
100
AcDbEntity
  8
1
 62
     3
 60
     1
100
AcDbPoint
 10
62324.73890593098
 20
145476.1655470557
 30
0.0
  0
LINE
  5
43
330
1F
100
AcDbEntity
  8
0
  6
Continuous
 62
     7
100
AcDbLine
 10
62273.73895381232
 20
145485.805915306
 30
0.0
 11
62273.73895381232
 21
145485.3655470557
 31
0.0
  0
LINE
  5
44
330
1F
100
AcDbEntity
  8
0
  6
Continuous
 62
     7
100
AcDbLine
 10
62281.73895381232
 20
145490.9251788054
 30
0.0
 11
62281.73895381232
 21
145487.2655470557
 31
0.0
  0
LINE
  5
45
330
1F
100
AcDbEntity
  8
0
  6
Continuous
 62
     7
100
AcDbLine
 10
62281.73895381232
 20
145492.6155470557
 30
0.0
 11
62281.73895381232
 21
145490.9251788054
 31
0.0
  0
LINE
  5
46
330
1F
100
AcDbEntity
  8
1
  6
Continuous
 62
     7
100
AcDbLine
 10
62273.73895381232
 20
145485.3655470557
 30
0.0
 11
62294.73895381232
 21
145485.3655470557
 31
0.0
  0
LINE
  5
47
330
1F
100
AcDbEntity
  8
0
  6
Continuous
 62
     7
100
AcDbLine
 10
62275.50257581232
 20
145486.8655470557
 30
0.0
 11
62275.29551981232
 21
145486.8655470557
 31
0.0
  0
LINE
  5
48
330
1F
100
AcDbEntity
  8
0
  6
Continuous
 62
     7
100
AcDbLine
 10
62281.33895381232
 20
145486.8655470557
 30
0.0
 11
62279.42934781232
 21
145486.8655469873
 31
0.0
  0
LINE
  5
49
330
1F
100
AcDbEntity
  8
0
  6
Continuous
 62
     7
100
AcDbLine
 10
62283.69908781232
 20
145490.4655470557
 30
0.0
 11
62283.69908781232
 21
145489.7655470557
 31
0.0
  0
LINE
  5
4A
330
1F
100
AcDbEntity
  8
0
  6
Continuous
 62
     7
100
AcDbLine
 10
62276.97970181231
 20
145487.3690750557
 30
0.0
 11
62277.98356681231
 21
145490.8655470557
 31
0.0
  0
LINE
  5
4B
330
1F
100
AcDbEntity
  8
0
  6
Continuous
 62
     7
100
AcDbLine
 10
62274.90914981232
 20
145487.3690750557
 30
0.0
 11
62275.91301381232
 21
145490.8655470557
 31
0.0
  0
LINE
  5
4C
330
1F
100
AcDbEntity
  8
0
  6
Continuous
 62
     7
100
AcDbLine
 10
62282.73895381232
 20
145487.2655470557
 30
0.0
 11
62282.73895381232
 21
145492.2155470557
 31
0.0
  0
LINE
  5
4D
330
1F
100
AcDbEntity
  8
0
  6
Continuous
 62
     7
100
AcDbLine
 10
62282.33895381232
 20
145492.6155470557
 30
0.0
 11
62281.73895381232
 21
145492.6155470557
 31
0.0
  0
LINE
  5
4E
330
1F
100
AcDbEntity
  8
0
  6
Continuous
 62
     7
100
AcDbLine
 10
62279.04160489141
 20
145487.3638093677
 30
0.0
 11
62279.73895381232
 21
145490.1155470557
 31
0.0
  0
LINE
  5
4F
330
1F
100
AcDbEntity
  8
0
  6
Continuous
 62
     7
100
AcDbLine
 10
62279.73895381232
 20
145490.1155470557
 30
0.0
 11
62279.73895381232
 21
145490.8655470557
 31
0.0
  0
LINE
  5
50
330
1F
100
AcDbEntity
  8
0
  6
Continuous
 62
     7
100
AcDbLine
 10
62279.73895381232
 20
145490.8655470557
 30
0.0
 11
62279.01884281232
 21
145490.8655470557
 31
0.0
  0
LINE
  5
51
330
1F
100
AcDbEntity
  8
0
  6
Continuous
 62
     7
100
AcDbLine
 10
62279.01884281232
 20
145490.8655470557
 30
0.0
 11
62277.95950141732
 21
145487.162031659
 31
0.0
  0
LINE
  5
52
330
1F
100
AcDbEntity
  8
0
  6
Continuous
 62
     7
100
AcDbLine
 10
62277.57312781231
 20
145486.8655470557
 30
0.0
 11
62277.36607281231
 21
145486.8655463101
 31
0.0
  0
LINE
  5
53
330
1F
100
AcDbEntity
  8
0
  6
Continuous
 62
     7
100
AcDbLine
 10
62277.98356681231
 20
145490.8655470557
 30
0.0
 11
62276.94828981232
 21
145490.8655470557
 31
0.0
  0
LINE
  5
54
330
1F
100
AcDbEntity
  8
0
  6
Continuous
 62
     7
100
AcDbLine
 10
62276.94828981232
 20
145490.8655470557
 30
0.0
 11
62275.88894941731
 21
145487.1620316592
 31
0.0
  0
LINE
  5
55
330
1F
100
AcDbEntity
  8
0
  6
Continuous
 62
     7
100
AcDbLine
 10
62275.91301381232
 20
145490.8655470557
 30
0.0
 11
62274.87773781231
 21
145490.8655470557
 31
0.0
  0
LINE
  5
56
330
1F
100
AcDbEntity
  8
0
  6
Continuous
 62
     7
100
AcDbLine
 10
62274.87773781231
 20
145490.8655470557
 30
0.0
 11
62273.73895381232
 21
145486.8655470557
 31
0.0
  0
LINE
  5
57
330
1F
100
AcDbEntity
  8
0
  6
Continuous
 62
     7
100
AcDbLine
 10
62273.73895381232
 20
145486.8655470557
 30
0.0
 11
62273.73895381232
 21
145485.8655470557
 31
0.0
  0
LINE
  5
58
330
1F
100
AcDbEntity
  8
0
  6
Continuous
 62
     7
100
AcDbLine
 10
62274.23895381232
 20
145485.3655470557
 30
0.0
 11
62292.98921581232
 21
145485.3655470557
 31
0.0
  0
LINE
  5
59
330
1F
100
AcDbEntity
  8
0
  6
Continuous
 62
     7
100
AcDbLine
 10
62292.98921581232
 20
145490.8655470557
 30
0.0
 11
62284.09908781231
 21
145490.8655470557
 31
0.0
  0
LINE
  5
5A
330
1F
100
AcDbEntity
  8
0
  6
Continuous
 62
     7
100
AcDbLine
 10
62284.09908781231
 20
145489.3655470557
 30
0.0
 11
62292.98921581232
 21
145489.3655470557
 31
0.0
  0
LINE
  5
5B
330
1F
100
AcDbEntity
  8
0
  6
Continuous
 62
     7
100
AcDbLine
 10
62292.98921581232
 20
145486.8655470557
 30
0.0
 11
62283.13895381232
 21
145486.8655470557
 31
0.0
  0
LINE
  5
5C
330
1F
100
AcDbEntity
  8
1
  6
Continuous
 62
     7
100
AcDbLine
 10
62291.23890593098
 20
145479.3655470557
 30
0.0
 11
62291.23890593098
 21
145455.3655470557
 31
0.0
  0
LINE
  5
5D
330
1F
100
AcDbEntity
  8
0
  6
Continuous
 62
     7
100
AcDbLine
 10
62336.73892551748
 20
145460.1655470557
 30
0.0
 11
62349.73895381232
 21
145460.1655470557
 31
0.0
  0
LINE
  5
5E
330
1F
100
AcDbEntity
  8
0
  6
Continuous
 62
     7
100
AcDbLine
 10
62312.73890593098
 20
145455.3655470557
 30
0.0
 11
62291.23890593098
 21
145455.3655470557
 31
0.0
  0
LINE
  5
5F
330
1F
100
AcDbEntity
  8
1
  6
DOT_CENTER
 62
     2
100
AcDbLine
 10
62237.17008381232
 20
145436.8655470557
 30
0.0
 11
62237.17008381232
 21
145441.3655470557
 31
0.0
  0
LINE
  5
60
330
1F
100
AcDbEntity
  8
0
  6
DASH_CENTER
 62
     2
100
AcDbLine
 10
62237.17008381232
 20
145512.209624489
 30
0.0
 11
62237.17008381232
 21
145512.3655470557
 31
0.0
  0
LINE
  5
61
330
1F
100
AcDbEntity
  8
1
  6
DOT_CENTER
 62
     2
100
AcDbLine
 10
62237.17008381232
 20
145512.3655470557
 30
0.0
 11
62237.17008381232
 21
145517.209624489
 31
0.0
  0
LINE
  5
62
330
1F
100
AcDbEntity
  8
1
  6
Continuous
 62
     7
100
AcDbLine
 10
62273.73895381232
 20
145485.3655470557
 30
0.0
 11
62274.5320783657
 21
145485.3655470557
 31
0.0
  0
LINE
  5
63
330
1F
100
AcDbEntity
  8
1
  6
Continuous
 62
     7
100
AcDbLine
 10
62312.73890593098
 20
145455.3655470557
 30
0.0
 11
62312.73890593098
 21
145444.0539504032
 31
0.0
  0
LINE
  5
64
330
1F
100
AcDbEntity
  8
1
  6
Continuous
 62
     7
100
AcDbLine
 10
62294.73892551748
 20
145459.3655470557
 30
0.0
 11
62312.73926442624
 21
145459.3655470557
 31
0.0
  0
LINE
  5
65
330
1F
100
AcDbEntity
  8
0
  6
Continuous
 62
     7
100
AcDbLine
 10
62314.73890593098
 20
145479.1655470557
 30
0.0
 11
62306.73890593098
 21
145479.1655470557
 31
0.0
  0
LINE
  5
66
330
1F
100
AcDbEntity
  8
0
  6
Continuous
 62
     7
100
AcDbLine
 10
62306.73890593098
 20
145473.1655470557
 30
0.0
 11
62314.73890593098
 21
145473.1655470557
 31
0.0
  0
LINE
  5
67
330
1F
100
AcDbEntity
  8
0
  6
Continuous
 62
     7
100
AcDbLine
 10
62352.73895381232
 20
145463.1655470557
 30
0.0
 11
62352.73895381232
 21
145512.3655470557
 31
0.0
  0
LINE
  5
68
330
1F
100
AcDbEntity
  8
0
  6
Continuous
 62
     7
100
AcDbLine
 10
62306.73890593098
 20
145462.1655470557
 30
0.0
 11
62306.73890593097
 21
145490.9251788054
 31
0.0
  0
LINE
  5
69
330
1F
100
AcDbEntity
  8
0
  6
Continuous
 62
     7
100
AcDbLine
 10
62286.73895381232
 20
145512.3655470557
 30
0.0
 11
62286.73895381232
 21
145492.8655470557
 31
0.0
  0
LINE
  5
6A
330
1F
100
AcDbEntity
  8
0
  6
Continuous
 62
     7
100
AcDbLine
 10
62281.73895381232
 20
145512.3655470557
 30
0.0
 11
62281.73895381232
 21
145492.555915306
 31
0.0
  0
LINE
  5
6B
330
1F
100
AcDbEntity
  8
0
  6
Continuous
 62
     7
100
AcDbLine
 10
62273.73895381232
 20
145490.9251788054
 30
0.0
 11
62273.73895381232
 21
145485.805915306
 31
0.0
  0
LINE
  5
6C
330
1F
100
AcDbEntity
  8
0
  6
DOT_CENTER
 62
     2
100
AcDbLine
 10
62237.17008381232
 20
145441.3655470557
 30
0.0
 11
62237.17008381232
 21
145512.209624489
 31
0.0
  0
LINE
  5
6D
330
1F
100
AcDbEntity
  8
0
  6
Continuous
 62
     7
100
AcDbLine
 10
62292.73895381232
 20
145490.9251788054
 30
0.0
 11
62306.73890593097
 21
145490.9251788054
 31
0.0
  0
LINE
  5
6E
330
1F
100
AcDbEntity
  8
0
  6
Continuous
 62
     7
100
AcDbLine
 10
62281.73895381232
 20
145490.9251788054
 30
0.0
 11
62273.73895381232
 21
145490.9251788054
 31
0.0
  0
LINE
  5
6F
330
1F
100
AcDbEntity
  8
0
  6
Continuous
 62
     7
100
AcDbLine
 10
62308.73890593098
 20
145460.1655470557
 30
0.0
 11
62314.73892551748
 21
145460.1655470557
 31
0.0
  0
LINE
  5
70
330
1F
100
AcDbEntity
  8
0
  6
Continuous
 62
     7
100
AcDbLine
 10
62309.75513179039
 20
145441.3655470557
 30
0.0
 11
62237.17008381232
 21
145441.3655470557
 31
0.0
  0
LINE
  5
71
330
1F
100
AcDbEntity
  8
DEFAULT_1
  6
DOT_CENTER
 62
     2
100
AcDbLine
 10
62316.73892551748
 20
145476.1655470557
 30
0.0
 11
62304.96859111825
 21
145476.1655470557
 31
0.0
  0
LINE
  5
72
330
1F
100
AcDbEntity
  8
0
  6
Continuous
 62
     7
100
AcDbLine
 10
62294.73895381232
 20
145485.3655470557
 30
0.0
 11
62294.73892551748
 21
145479.3655470557
 31
0.0
  0
LINE
  5
73
330
1F
100
AcDbEntity
  8
0
  6
Continuous
 62
     7
100
AcDbLine
 10
62312.73926442624
 20
145459.3655470557
 30
0.0
 11
62312.73922153463
 21
145458.8869730854
 31
0.0
  0
LINE
  5
74
330
1F
100
AcDbEntity
  8
0
  6
Continuous
 62
     7
100
AcDbLine
 10
62314.73892551748
 20
145460.1655470557
 30
0.0
 11
62315.73892551748
 21
145460.1655470557
 31
0.0
  0
LINE
  5
75
330
1F
100
AcDbEntity
  8
0
  6
Continuous
 62
     7
100
AcDbLine
 10
62315.73892551748
 20
145460.1655470557
 30
0.0
 11
62324.73890593098
 21
145460.1655470557
 31
0.0
  0
LINE
  5
76
330
1F
100
AcDbEntity
  8
0
  6
Continuous
 62
     3
100
AcDbLine
 10
62335.73892551748
 20
145460.1655470557
 30
0.0
 11
62336.73892551748
 21
145460.1655470557
 31
0.0
  0
LINE
  5
77
330
1F
100
AcDbEntity
  8
1
  6
DOT_CENTER
 62
     2
100
AcDbLine
 10
62234.17008381232
 20
145512.3655470557
 30
0.0
 11
62283.17008381232
 21
145512.3655470557
 31
0.0
  0
LINE
  5
78
330
1F
100
AcDbEntity
  8
1
  6
DOT_CENTER
 62
     2
100
AcDbLine
 10
62285.1397606255
 20
145512.3655470557
 30
0.0
 11
62355.73895381232
 21
145512.3655470557
 31
0.0
  0
LINE
  5
79
330
1F
100
AcDbEntity
  8
1
  6
Continuous
 62
     7
100
AcDbLine
 10
62294.73892551748
 20
145479.3655470557
 30
0.0
 11
62291.23890593098
 21
145479.3655470557
 31
0.0
  0
LINE
  5
7A
330
1F
100
AcDbEntity
  8
1
  6
Continuous
 62
     7
100
AcDbLine
 10
62294.73890593098
 20
145479.3655470557
 30
0.0
 11
62291.23890593098
 21
145479.3655470557
 31
0.0
  0
LINE
  5
7B
330
1F
100
AcDbEntity
  8
0
  6
Continuous
 62
     7
100
AcDbLine
 10
62314.73890593098
 20
145495.1655470557
 30
0.0
 11
62334.73890593098
 21
145495.1655470557
 31
0.0
  0
LINE
  5
7C
330
1F
100
AcDbEntity
  8
0
  6
Continuous
 62
     7
100
AcDbLine
 10
62334.73890593098
 20
145495.1655470557
 30
0.0
 11
62334.73890593098
 21
145460.1655470557
 31
0.0
  0
LINE
  5
7D
330
1F
100
AcDbEntity
  8
0
  6
Continuous
 62
     7
100
AcDbLine
 10
62314.73890593098
 20
145495.1655470557
 30
0.0
 11
62314.73890593098
 21
145460.1655470557
 31
0.0
  0
LINE
  5
7E
330
1F
100
AcDbEntity
  8
A_ACHSEN
  6
DOT_CENTER
 62
     2
100
AcDbLine
 10
62296.73890593098
 20
145471.3655470557
 30
0.0
 11
62280.73890593098
 21
145471.3655470557
 31
0.0
  0
LINE
  5
7F
330
1F
100
AcDbEntity
  8
A_ACHSEN
  6
DOT_CENTER
 62
     2
100
AcDbLine
 10
62296.73890593098
 20
145467.3655470557
 30
0.0
 11
62280.73890593098
 21
145467.3655470557
 31
0.0
  0
LINE
  5
80
330
1F
100
AcDbEntity
  8
1
  6
Continuous
 62
     7
100
AcDbLine
 10
62291.23890593098
 20
145479.3655470557
 30
0.0
 11
62291.23890593098
 21
145459.3655470557
 31
0.0
  0
LINE
  5
81
330
1F
100
AcDbEntity
  8
0
  6
Continuous
 62
     7
100
AcDbLine
 10
62294.73890593098
 20
145479.3655470557
 30
0.0
 11
62294.73890593098
 21
145459.3655470557
 31
0.0
  0
LINE
  5
82
330
1F
100
AcDbEntity
  8
0
  6
Continuous
 62
     7
100
AcDbLine
 10
62313.23901381781
 20
145458.8655470557
 30
0.0
 11
62295.23890593098
 21
145458.8655470557
 31
0.0
  0
LINE
  5
83
330
1F
100
AcDbEntity
  8
1
  6
Continuous
 62
     7
100
AcDbLine
 10
62295.23890593098
 20
145455.3655470557
 30
0.0
 11
62312.73890593098
 21
145455.3655470557
 31
0.0
  0
LINE
  5
84
330
1F
100
AcDbEntity
  8
1
  6
Continuous
 62
     7
100
AcDbLine
 10
62313.23901381781
 20
145458.8655470557
 30
0.0
 11
62314.76701482656
 21
145458.8655470557
 31
0.0
  0
LINE
  5
85
330
1F
100
AcDbEntity
  8
0
  6
DASHED
 62
     2
100
AcDbLine
 10
62312.73922153463
 20
145458.8869730854
 30
0.0
 11
62312.73890593098
 21
145455.3655470557
 31
0.0
  0
LINE
  5
86
330
1F
100
AcDbEntity
  8
1
  6
Continuous
 62
     7
100
AcDbLine
 10
62312.73890593098
 20
145455.3655470557
 30
0.0
 11
62314.76701482655
 21
145455.3655470557
 31
0.0
  0
LINE
  5
87
330
1F
100
AcDbEntity
  8
0
  6
Continuous
 62
     7
100
AcDbLine
 10
62328.23890593098
 20
145459.1655470557
 30
0.0
 11
62335.23890593098
 21
145459.1655470557
 31
0.0
  0
LINE
  5
88
330
1F
100
AcDbEntity
  8
0
  6
Continuous
 62
     7
100
AcDbLine
 10
62321.73890593098
 20
145459.1655470557
 30
0.0
 11
62324.73890593098
 21
145459.1655470557
 31
0.0
  0
LINE
  5
89
330
1F
100
AcDbEntity
  8
0
  6
Continuous
 62
     7
100
AcDbLine
 10
62335.73890593098
 20
145459.6655470557
 30
0.0
 11
62335.73890593098
 21
145460.1655470557
 31
0.0
  0
LINE
  5
8A
330
1F
100
AcDbEntity
  8
0
  6
Continuous
 62
     7
100
AcDbLine
 10
62313.73890593098
 20
145460.1655470557
 30
0.0
 11
62313.73890593098
 21
145459.6655470557
 31
0.0
  0
LINE
  5
8B
330
1F
100
AcDbEntity
  8
0
  6
Continuous
 62
     7
100
AcDbLine
 10
62328.23890593098
 20
145460.1655470557
 30
0.0
 11
62328.23890593098
 21
145459.1655470557
 31
0.0
  0
LINE
  5
8C
330
1F
100
AcDbEntity
  8
0
  6
Continuous
 62
     7
100
AcDbLine
 10
62324.73890593098
 20
145460.1655470557
 30
0.0
 11
62324.73890593098
 21
145459.1655470557
 31
0.0
  0
LINE
  5
8D
330
1F
100
AcDbEntity
  8
0
  6
Continuous
 62
     7
100
AcDbLine
 10
62331.73890593098
 20
145460.1655470557
 30
0.0
 11
62331.73890593098
 21
145459.1655470557
 31
0.0
  0
LINE
  5
8E
330
1F
100
AcDbEntity
  8
A_RUNDUNGEN
  6
Continuous
 62
     7
100
AcDbLine
 10
62321.73890593098
 20
145459.1655470557
 30
0.0
 11
62314.23890593098
 21
145459.1655470557
 31
0.0
  0
LINE
  5
8F
330
1F
100
AcDbEntity
  8
0
  6
Continuous
 62
     7
100
AcDbLine
 10
62321.73890593098
 20
145460.1655470557
 30
0.0
 11
62321.73890593098
 21
145459.1655470557
 31
0.0
  0
LINE
  5
90
330
1F
100
AcDbEntity
  8
0
  6
Continuous
 62
     7
100
AcDbLine
 10
62324.73890593098
 20
145459.1655470557
 30
0.0
 11
62324.73890593098
 21
145457.6655470556
 31
0.0
  0
LINE
  5
91
330
1F
100
AcDbEntity
  8
0
  6
Continuous
 62
     7
100
AcDbLine
 10
62328.23890593098
 20
145459.1655470557
 30
0.0
 11
62328.23890593098
 21
145455.3101158311
 31
0.0
  0
LINE
  5
92
330
1F
100
AcDbEntity
  8
1
  6
Continuous
 62
     7
100
AcDbLine
 10
62327.97016986397
 20
145454.5498189186
 30
0.0
 11
62316.06928744442
 21
145458.6476213581
 31
0.0
  0
LINE
  5
93
330
1F
100
AcDbEntity
  8
1
  6
Continuous
 62
     7
100
AcDbLine
 10
62326.83068132336
 20
145451.2405039039
 30
0.0
 11
62314.92979890377
 21
145455.3383063435
 31
0.0
  0
LINE
  5
94
330
1F
100
AcDbEntity
  8
0
  6
Continuous
 62
     7
100
AcDbLine
 10
62328.42710192208
 20
145454.9192472341
 30
0.0
 11
62330.92810250852
 21
145452.9241470512
 31
0.0
  0
LINE
  5
95
330
1F
100
AcDbEntity
  8
0
  6
Continuous
 62
     7
100
AcDbLine
 10
62324.73890593098
 20
145457.5830470557
 30
0.0
 11
62324.73890593098
 21
145455.3101158311
 31
0.0
  0
LINE
  5
96
330
1F
100
AcDbEntity
  8
0
  6
Continuous
 62
     7
100
AcDbLine
 10
62324.73890593098
 20
145457.6655470556
 30
0.0
 11
62324.73890593098
 21
145457.5830470557
 31
0.0
  0
LINE
  5
97
330
1F
100
AcDbEntity
  8
1
  6
DOT_CENTER
 62
     2
100
AcDbLine
 10
62324.73890593098
 20
145457.5830470557
 30
0.0
 11
62324.73890593098
 21
145432.7480470557
 31
0.0
  0
LINE
  5
98
330
1F
100
AcDbEntity
  8
1
  6
DOT_CENTER
 62
     2
100
AcDbLine
 10
62337.15640593099
 20
145445.1655470557
 30
0.0
 11
62312.32140593097
 21
145445.1655470557
 31
0.0
  0
LINE
  5
99
330
1F
100
AcDbEntity
  8
0
  6
Continuous
 62
     7
100
AcDbLine
 10
62330.92810250852
 20
145452.9241470512
 30
0.0
 11
62330.97498610917
 21
145452.886747028
 31
0.0
  0
LINE
  5
9A
330
1F
100
AcDbEntity
  8
0
  6
DASHED
 62
     2
100
AcDbLine
 10
62326.24447385977
 20
145452.183167056
 30
0.0
 11
62328.79235804694
 21
145450.1506668496
 31
0.0
  0
LINE
  5
9B
330
1F
100
AcDbEntity
  8
0
  6
Continuous
 62
     7
100
AcDbLine
 10
62321.46276535491
 20
145450.6925288655
 30
0.0
 11
62319.67818973275
 21
145453.7031802012
 31
0.0
  0
LINE
  5
9C
330
1F
100
AcDbEntity
  8
A_RUNDUNGEN
  6
Continuous
 62
     7
100
AcDbLine
 10
62321.73890593098
 20
145459.1655470557
 30
0.0
 11
62314.23890593098
 21
145459.1655470557
 31
0.0
  0
LINE
  5
9D
330
1F
100
AcDbEntity
  8
1
  6
DOT_CENTER
 62
     2
100
AcDbLine
 10
62324.73891572423
 20
145496.1655470557
 30
0.0
 11
62324.73891572423
 21
145476.1655470557
 31
0.0
  0
LINE
  5
9E
330
1F
100
AcDbEntity
  8
1
  6
DOT_CENTER
 62
     2
100
AcDbLine
 10
62324.73890593098
 20
145460.1655470557
 30
0.0
 11
62324.73890593098
 21
145476.1655470557
 31
0.0
  0
LINE
  5
9F
330
1F
100
AcDbEntity
  8
0
  6
Continuous
 62
     7
100
AcDbLine
 10
62324.73890593098
 20
145460.1655470557
 30
0.0
 11
62335.73892551748
 21
145460.1655470557
 31
0.0
  0
ARC
  5
A0
330
1F
100
AcDbEntity
  8
1
  6
Continuous
 62
     7
100
AcDbCircle
 10
62292.98921581232
 20
145488.1155470557
 30
0.0
 40
1.25
100
AcDbArc
 50
-90.0
 51
90.0
  0
ARC
  5
A1
330
1F
100
AcDbEntity
  8
0
  6
Continuous
 62
     7
100
AcDbCircle
 10
62284.09908781231
 20
145490.4655470557
 30
0.0
 40
0.3999999999941792
100
AcDbArc
 50
90.0
 51
180.0
  0
ARC
  5
A2
330
1F
100
AcDbEntity
  8
0
  6
Continuous
 62
     7
100
AcDbCircle
 10
62292.98921581232
 20
145488.1155470557
 30
0.0
 40
2.75
100
AcDbArc
 50
-90.0
 51
90.0
  0
ARC
  5
A3
330
1F
100
AcDbEntity
  8
0
  6
Continuous
 62
     7
100
AcDbCircle
 10
62288.73895381232
 20
145492.9251788054
 30
0.0
 40
2.000000000035778
100
AcDbArc
 50
-113.5630524175826
 51
-90.0
  0
ARC
  5
A4
330
1F
100
AcDbEntity
  8
0
  6
Continuous
 62
     7
100
AcDbCircle
 10
62309.75513279927
 20
145444.3655460468
 30
0.0
 40
2.999998991115887
100
AcDbArc
 50
-90.00001926813799
 51
-5.96179267330172
  0
ARC
  5
A5
330
1F
100
AcDbEntity
  8
0
  6
Continuous
 62
     7
100
AcDbCircle
 10
62288.73895381232
 20
145492.9251788054
 30
0.0
 40
2.0
100
AcDbArc
 50
180.0
 51
-113.5630524175826
  0
ARC
  5
A6
330
1F
100
AcDbEntity
  8
0
  6
Continuous
 62
     7
100
AcDbCircle
 10
62349.73895381232
 20
145463.1655470557
 30
0.0
 40
3.0
100
AcDbArc
 50
-90.0
 51
0.0
  0
ARC
  5
A7
330
1F
100
AcDbEntity
  8
0
  6
Continuous
 62
     7
100
AcDbCircle
 10
62295.23890593098
 20
145459.3655470557
 30
0.0
 40
4.0
100
AcDbArc
 50
180.0
 51
-90.0
  0
ARC
  5
A8
330
1F
100
AcDbEntity
  8
0
  6
Continuous
 62
     7
100
AcDbCircle
 10
62295.23890593098
 20
145459.3655470557
 30
0.0
 40
0.5
100
AcDbArc
 50
180.0
 51
-90.0
  0
ARC
  5
A9
330
1F
100
AcDbEntity
  8
0
  6
Continuous
 62
     7
100
AcDbCircle
 10
62314.23890593098
 20
145459.6655470557
 30
0.0
 40
0.5
100
AcDbArc
 50
180.0
 51
-90.0
  0
ARC
  5
AA
330
1F
100
AcDbEntity
  8
0
  6
Continuous
 62
     7
100
AcDbCircle
 10
62335.23890593098
 20
145459.6655470557
 30
0.0
 40
0.5
100
AcDbArc
 50
-90.0
 51
0.0
  0
ARC
  5
AB
330
1F
100
AcDbEntity
  8
1
  6
DASHED
 62
     2
100
AcDbCircle
 10
62324.73890593098
 20
145445.1655470557
 30
0.0
 40
9.92481879763749
100
AcDbArc
 50
51.41990756197896
 51
120.6575119076179
  0
ARC
  5
AC
330
1F
100
AcDbEntity
  8
0
  6
Continuous
 62
     7
100
AcDbCircle
 10
62328.73890593098
 20
145455.3101158311
 30
0.0
 40
0.5
100
AcDbArc
 50
180.0
 51
-128.5800924291689
  0
ARC
  5
AD
330
1F
100
AcDbEntity
  8
0
  6
DASHED
 62
     2
100
AcDbCircle
 10
62328.73890593098
 20
145455.3101158311
 30
0.0
 40
4.0
100
AcDbArc
 50
180.0
 51
-128.5800924374569
  0
ARC
  5
AE
330
1F
100
AcDbEntity
  8
0
  6
Continuous
 62
     7
100
AcDbCircle
 10
62324.73912893191
 20
145445.16548717
 30
0.0
 40
9.924984023808664
100
AcDbArc
 50
120.6584430518453
 51
71.00132977468155
  0
ARC
  5
AF
330
1F
100
AcDbEntity
  8
1
  6
Continuous
 62
     7
100
AcDbCircle
 10
62324.73890593098
 20
145445.1655470557
 30
0.0
 40
6.424999999971829
100
AcDbArc
 50
70.9999999999947
 51
120.6575119070614
  0
ARC
  5
B0
330
1F
100
AcDbEntity
  8
0
  6
Continuous
 62
     7
100
AcDbCircle
 10
62324.73890593098
 20
145445.1655470557
 30
0.0
 40
6.425000000016159
100
AcDbArc
 50
120.6575119070614
 51
70.9999999999947
  0
ARC
  5
B1
330
1F
100
AcDbEntity
  8
0
  6
Continuous
 62
     7
100
AcDbCircle
 10
62314.23890593098
 20
145459.6655470557
 30
0.0
 40
0.5
100
AcDbArc
 50
180.0
 51
-90.0
  0
CIRCLE
  5
B2
330
1F
100
AcDbEntity
  8
1
  6
DASHED
 62
     2
100
AcDbCircle
 10
62324.73890593098
 20
145445.1655470557
 30
0.0
 40
5.0
  0
SPLINE
  5
B3
330
1F
100
AcDbEntity
  8
0
  6
Continuous
 62
     7
100
AcDbSpline
210
0.0
220
0.0
230
1.0
 70
     8
 71
     3
 72
     9
 73
     5
 74
     3
 42
0.0000000001
 43
0.0000000001
 44
0.00000001
 40
0.0
 40
0.0
 40
0.0
 40
0.0
 40
0.3861702158408821
 40
0.7723404316440815
 40
0.7723404316440815
 40
0.7723404316440815
 40
0.7723404316440815
 10
62273.73895381232
 20
145485.8655470557
 30
0.0
 10
62273.76736966713
 20
145485.7272962438
 30
0.0
 10
62273.82420137673
 20
145485.4507946201
 30
0.0
 10
62274.10070300047
 20
145485.3939629105
 30
0.0
 10
62274.23895381232
 20
145485.3655470557
 30
0.0
 11
62273.73895381232
 21
145485.8655470557
 31
0.0
 11
62273.87911885526
 21
145485.5057120986
 31
0.0
 11
62274.23895381232
 21
145485.3655470557
 31
0.0
  0
SPLINE
  5
B4
330
1F
100
AcDbEntity
  8
0
  6
Continuous
 62
     7
100
AcDbSpline
210
0.0
220
0.0
230
1.0
 70
     8
 71
     3
 72
     9
 73
     5
 74
     3
 42
0.0000000001
 43
0.0000000001
 44
0.00000001
 40
0.0
 40
0.0
 40
0.0
 40
0.0
 40
0.308936172670735
 40
0.6178723453294084
 40
0.6178723453294084
 40
0.6178723453294084
 40
0.6178723453294084
 10
62282.73895381232
 20
145487.2655470557
 30
0.0
 10
62282.76168649616
 20
145487.1549464062
 30
0.0
 10
62282.80715186383
 20
145486.9337451072
 30
0.0
 10
62283.02835316282
 20
145486.8882797395
 30
0.0
 10
62283.13895381232
 20
145486.8655470557
 30
0.0
 11
62282.73895381232
 21
145487.2655470557
 31
0.0
 11
62282.85108584665
 21
145486.97767909
 31
0.0
 11
62283.13895381232
 21
145486.8655470557
 31
0.0
  0
SPLINE
  5
B5
330
1F
100
AcDbEntity
  8
0
  6
Continuous
 62
     7
100
AcDbSpline
210
0.0
220
0.0
230
1.0
 70
     8
 71
     3
 72
     9
 73
     5
 74
     3
 42
0.0000000001
 43
0.0000000001
 44
0.00000001
 40
0.0
 40
0.0
 40
0.0
 40
0.0
 40
0.3089361726323422
 40
0.6178723452646844
 40
0.6178723452646844
 40
0.6178723452646844
 40
0.6178723452646844
 10
62282.73895381232
 20
145492.2155470557
 30
0.0
 10
62282.71622112845
 20
145492.3261477052
 30
0.0
 10
62282.67075576074
 20
145492.5473490042
 30
0.0
 10
62282.44955446178
 20
145492.5928143718
 30
0.0
 10
62282.33895381232
 20
145492.6155470557
 30
0.0
 11
62282.73895381232
 21
145492.2155470557
 31
0.0
 11
62282.62682177794
 21
145492.5034150213
 31
0.0
 11
62282.33895381232
 21
145492.6155470557
 31
0.0
  0
SPLINE
  5
B6
330
1F
100
AcDbEntity
  8
0
  6
Continuous
 62
     7
100
AcDbSpline
210
0.0
220
0.0
230
1.0
 70
     8
 71
     3
 72
     9
 73
     5
 74
     3
 42
0.0000000001
 43
0.0000000001
 44
0.00000001
 40
0.0
 40
0.0
 40
0.0
 40
0.0
 40
0.3089361726285584
 40
0.6178723452853787
 40
0.6178723452853787
 40
0.6178723452853787
 40
0.6178723452853787
 10
62281.33895381232
 20
145486.8655470557
 30
0.0
 10
62281.44955446181
 20
145486.8882797396
 30
0.0
 10
62281.67075576077
 20
145486.9337451073
 30
0.0
 10
62281.71622112847
 20
145487.1549464062
 30
0.0
 10
62281.73895381232
 20
145487.2655470557
 30
0.0
 11
62281.33895381232
 21
145486.8655470557
 31
0.0
 11
62281.62682177794
 21
145486.9776790901
 31
0.0
 11
62281.73895381232
 21
145487.2655470557
 31
0.0
  0
SPLINE
  5
B7
330
1F
100
AcDbEntity
  8
0
  6
Continuous
 62
     7
100
AcDbSpline
210
0.0
220
0.0
230
1.0
 70
     8
 71
     3
 72
     9
 73
     5
 74
     3
 42
0.0000000001
 43
0.0000000001
 44
0.00000001
 40
0.0
 40
0.0
 40
0.0
 40
0.0
 40
0.3574601413576872
 40
0.7149202827130301
 40
0.7149202827130301
 40
0.7149202827130301
 40
0.7149202827130301
 10
62279.04160489141
 20
145487.3638093677
 30
0.0
 10
62279.04005244038
 20
145487.2292679093
 30
0.0
 10
62279.0369475383
 20
145486.9601849926
 30
0.0
 10
62279.29854772097
 20
145486.897092989
 30
0.0
 10
62279.42934781232
 20
145486.8655469873
 30
0.0
 11
62279.04160489141
 21
145487.3638093677
 31
0.0
 11
62279.10312380949
 21
145487.0116827209
 31
0.0
 11
62279.42934781232
 21
145486.8655469873
 31
0.0
  0
SPLINE
  5
B8
330
1F
100
AcDbEntity
  8
0
  6
Continuous
 62
     7
100
AcDbSpline
210
0.0
220
0.0
230
1.0
 70
     8
 71
     3
 72
     9
 73
     5
 74
     3
 42
0.0000000001
 43
0.0000000001
 44
0.00000001
 40
0.0
 40
0.0
 40
0.0
 40
0.0
 40
0.2582379264263415
 40
0.5164758528658797
 40
0.5164758528658797
 40
0.5164758528658797
 40
0.5164758528658797
 10
62277.57312781231
 20
145486.8655470557
 30
0.0
 10
62277.66368990738
 20
145486.8808614337
 30
0.0
 10
62277.84481409751
 20
145486.9114901898
 30
0.0
 10
62277.92127231072
 20
145487.0785178359
 30
0.0
 10
62277.95950141732
 20
145487.162031659
 30
0.0
 11
62277.57312781231
 21
145486.8655470557
 31
0.0
 11
62277.81864760327
 21
145486.9455899123
 31
0.0
 11
62277.95950141732
 21
145487.162031659
 31
0.0
  0
SPLINE
  5
B9
330
1F
100
AcDbEntity
  8
0
  6
Continuous
 62
     7
100
AcDbSpline
210
0.0
220
0.0
230
1.0
 70
     8
 71
     3
 72
     9
 73
     5
 74
     3
 42
0.0000000001
 43
0.0000000001
 44
0.00000001
 40
0.0
 40
0.0
 40
0.0
 40
0.0
 40
0.3601505353811985
 40
0.7203010707373295
 40
0.7203010707373295
 40
0.7203010707373295
 40
0.7203010707373295
 10
62276.97970181231
 20
145487.3690750557
 30
0.0
 10
62276.9765424853
 20
145487.2333172382
 30
0.0
 10
62276.97022383126
 20
145486.9618016032
 30
0.0
 10
62277.23412315195
 20
145486.8976314078
 30
0.0
 10
62277.36607281231
 20
145486.8655463101
 30
0.0
 11
62276.97970181231
 21
145487.3690750557
 31
0.0
 11
62277.03777832494
 21
145487.0136379631
 31
0.0
 11
62277.36607281231
 21
145486.8655463101
 31
0.0
  0
SPLINE
  5
BA
330
1F
100
AcDbEntity
  8
0
  6
Continuous
 62
     7
100
AcDbSpline
210
0.0
220
0.0
230
1.0
 70
     8
 71
     3
 72
     9
 73
     5
 74
     3
 42
0.0000000001
 43
0.0000000001
 44
0.00000001
 40
0.0
 40
0.0
 40
0.0
 40
0.0
 40
0.2582379264789715
 40
0.5164758529883028
 40
0.5164758529883028
 40
0.5164758529883028
 40
0.5164758529883028
 10
62275.50257581232
 20
145486.8655470557
 30
0.0
 10
62275.5931379074
 20
145486.8808614337
 30
0.0
 10
62275.77426209758
 20
145486.9114901898
 30
0.0
 10
62275.85072031074
 20
145487.0785178361
 30
0.0
 10
62275.88894941731
 20
145487.1620316592
 30
0.0
 11
62275.50257581232
 21
145486.8655470557
 31
0.0
 11
62275.74809560332
 21
145486.9455899124
 31
0.0
 11
62275.88894941731
 21
145487.1620316592
 31
0.0
  0
SPLINE
  5
BB
330
1F
100
AcDbEntity
  8
0
  6
Continuous
 62
     7
100
AcDbSpline
210
0.0
220
0.0
230
1.0
 70
     8
 71
     3
 72
     9
 73
     5
 74
     3
 42
0.0000000001
 43
0.0000000001
 44
0.00000001
 40
0.0
 40
0.0
 40
0.0
 40
0.0
 40
0.3601498209277827
 40
0.7202996939039839
 40
0.7202996939039839
 40
0.7202996939039839
 40
0.7202996939039839
 10
62274.90914981232
 20
145487.3690750557
 30
0.0
 10
62274.90599042139
 20
145487.2333175125
 30
0.0
 10
62274.89967163908
 20
145486.9618024065
 30
0.0
 10
62275.16357041489
 20
145486.8976321742
 30
0.0
 10
62275.29551981232
 20
145486.8655470557
 30
0.0
 11
62274.90914981232
 21
145487.3690750557
 31
0.0
 11
62274.9672260193
 21
145487.0136386371
 31
0.0
 11
62275.29551981232
 21
145486.8655470557
 31
0.0
  0
SPLINE
  5
BC
330
1F
100
AcDbEntity
  8
0
  6
Continuous
 62
     7
100
AcDbSpline
210
0.0
220
0.0
230
1.0
 70
     8
 71
     3
 72
     9
 73
     5
 74
     3
 42
0.0000000001
 43
0.0000000001
 44
0.00000001
 40
0.0
 40
0.0
 40
0.0
 40
0.0
 40
0.3861702158408821
 40
0.7723404316440815
 40
0.7723404316440815
 40
0.7723404316440815
 40
0.7723404316440815
 10
62273.73895381232
 20
145485.8655470557
 30
0.0
 10
62273.76736966713
 20
145485.7272962438
 30
0.0
 10
62273.82420137673
 20
145485.4507946201
 30
0.0
 10
62274.10070300047
 20
145485.3939629105
 30
0.0
 10
62274.23895381232
 20
145485.3655470557
 30
0.0
 11
62273.73895381232
 21
145485.8655470557
 31
0.0
 11
62273.87911885526
 21
145485.5057120986
 31
0.0
 11
62274.23895381232
 21
145485.3655470557
 31
0.0
  0
SPLINE
  5
BD
330
1F
100
AcDbEntity
  8
0
  6
Continuous
 62
     7
100
AcDbSpline
210
0.0
220
0.0
230
1.0
 70
     8
 71
     3
 72
     9
 73
     5
 74
     3
 42
0.0000000001
 43
0.0000000001
 44
0.00000001
 40
0.0
 40
0.0
 40
0.0
 40
0.0
 40
0.3089361726624572
 40
0.617872345306073
 40
0.617872345306073
 40
0.617872345306073
 40
0.617872345306073
 10
62284.09908781231
 20
145490.8655470557
 30
0.0
 10
62283.98848716282
 20
145490.8428143719
 30
0.0
 10
62283.76728586383
 20
145490.7973490041
 30
0.0
 10
62283.72182049616
 20
145490.5761477052
 30
0.0
 10
62283.69908781232
 20
145490.4655470557
 30
0.0
 11
62284.09908781231
 21
145490.8655470557
 31
0.0
 11
62283.81121984666
 21
145490.7534150213
 31
0.0
 11
62283.69908781232
 21
145490.4655470557
 31
0.0
  0
SPLINE
  5
BE
330
1F
100
AcDbEntity
  8
0
  6
Continuous
 62
     7
100
AcDbSpline
210
0.0
220
0.0
230
1.0
 70
     8
 71
     3
 72
     9
 73
     5
 74
     3
 42
0.0000000001
 43
0.0000000001
 44
0.00000001
 40
0.0
 40
0.0
 40
0.0
 40
0.0
 40
0.3089361726680941
 40
0.6178723453267675
 40
0.6178723453267675
 40
0.6178723453267675
 40
0.6178723453267675
 10
62283.69908781232
 20
145489.7655470557
 30
0.0
 10
62283.72182049614
 20
145489.6549464062
 30
0.0
 10
62283.76728586379
 20
145489.4337451071
 30
0.0
 10
62283.98848716282
 20
145489.3882797395
 30
0.0
 10
62284.09908781231
 20
145489.3655470557
 30
0.0
 11
62283.69908781232
 21
145489.7655470557
 31
0.0
 11
62283.81121984665
 21
145489.47767909
 31
0.0
 11
62284.09908781231
 21
145489.3655470557
 31
0.0
  0
XLINE
  5
BF
330
1F
100
AcDbEntity
  8
1
  6
DOT_CENTER
 62
     3
 60
     1
100
AcDbXline
 10
62324.73890593098
 20
145476.1655470557
 30
0.0
 11
-1.0
 21
0.0
 31
0.0
  0
LWPOLYLINE
  5
C0
330
1F
100
AcDbEntity
  8
1
  6
Continuous
 62
     7
 60
     1
100
AcDbPolyline
 90
        2
 70
     0
 43
0.0
 10
62312.75510349554
 20
145442.1655470557
 10
62312.75470549554
 20
145453.6655470557
  0
LWPOLYLINE
  5
C1
330
1F
100
AcDbEntity
  8
1
  6
Continuous
 62
     7
 60
     1
100
AcDbPolyline
 90
        2
 70
     0
 43
0.0
 10
62312.73890593098
 20
145455.3655470557
 10
62291.23890593098
 20
145455.3655470557
  0
LWPOLYLINE
  5
C2
330
1F
100
AcDbEntity
  8
1
  6
Continuous
 62
     7
 60
     1
100
AcDbPolyline
 90
        3
 70
     0
 43
0.0
 10
62291.23890593098
 20
145479.3655470557
 10
62294.73892551748
 20
145479.3655470557
 10
62294.73892551748
 20
145484.8655470557
  0
ARC
  5
C3
330
1F
100
AcDbEntity
  8
1
  6
Continuous
 62
     7
100
AcDbCircle
 10
62308.73890593098
 20
145462.1655470557
 30
0.0
 40
2.0
100
AcDbArc
 50
180.0
 51
-90.0
  0
ARC
  5
C4
330
1F
100
AcDbEntity
  8
1
  6
Continuous
 62
     7
100
AcDbCircle
 10
62314.76701052182
 20
145454.8655213312
 30
0.0
 40
4.000025724497286
100
AcDbArc
 50
71.00006166186289
 51
89.99993833953397
  0
ARC
  5
C5
330
1F
100
AcDbEntity
  8
1
  6
Continuous
 62
     7
100
AcDbCircle
 10
62314.76701482655
 20
145454.8655470557
 30
0.0
 40
0.5000000000016053
100
AcDbArc
 50
71.00000000112242
 51
90.0
  0
DIMENSION
  5
D3
330
1F
100
AcDbEntity
  8
1
100
AcDbDimension
  2
*D1
 10
62294.73890593098
 20
145431.3655470557
 30
0.0
 11
62284.9434606627
 21
145435.1155470557
 31
0.0
 70
    32
  1
<>
 71
     5
 42
-1.0
 53
0.00013888888889
  3
ME10_DIM_10
100
AcDbAlignedDimension
 13
62291.23890593098
 23
145455.3655470557
 33
0.0
 14
62294.73890593098
 24
145459.3655470557
 34
0.0
100
AcDbRotatedDimension
  0
DIMENSION
  5
DE
330
1F
100
AcDbEntity
  8
1
100
AcDbDimension
  2
*D2
 10
62312.73890593098
 20
145431.366670399
 30
0.0
 11
62302.97229070245
 21
145435.116670399
 31
0.0
 70
    32
  1
<>
 71
     5
 42
-1.0
 53
0.00013888888889
  3
ME10_DIM_11
100
AcDbAlignedDimension
 13
62294.73890593098
 23
145459.3655470557
 33
0.0
 14
62312.73890593098
 24
145444.0539504032
 34
0.0
100
AcDbRotatedDimension
  0
DIMENSION
  5
E9
330
1F
100
AcDbEntity
  8
1
100
AcDbDimension
  2
*D3
 10
62373.6804765877
 20
145495.1655470557
 30
0.0
 11
62369.9304765877
 21
145478.253776269
 31
0.0
 70
    32
  1
<>
 71
     5
 42
-1.0
 53
90.0
  3
ME10_DIM_12
100
AcDbAlignedDimension
 13
62336.73892551748
 23
145460.1655470557
 33
0.0
 14
62334.73890593098
 24
145495.1655470557
 34
0.0
 50
90.0
100
AcDbRotatedDimension
  0
DIMENSION
  5
F4
330
1F
100
AcDbEntity
  8
1
100
AcDbDimension
  2
*D4
 10
62362.73895381232
 20
145476.1655470557
 30
0.0
 11
62358.98895381232
 21
145467.760182307
 31
0.0
 70
    32
  1
<>
 71
     5
 42
-1.0
 53
90.0
  3
ME10_DIM_13
100
AcDbAlignedDimension
 13
62336.73892551748
 23
145460.1655470557
 33
0.0
 14
62316.73892551748
 24
145476.1655470557
 34
0.0
 50
90.0
100
AcDbRotatedDimension
  0
DIMENSION
  5
FF
330
1F
100
AcDbEntity
  8
1
100
AcDbDimension
  2
*D5
 10
62294.73895381232
 20
145522.3655470557
 30
0.0
 11
62300.7579051488
 21
145526.1155470557
 31
0.0
 70
    32
  1
<>
 71
     5
 42
-1.0
 53
0.00013888888889
  3
ME10_DIM_14
100
AcDbAlignedDimension
 13
62306.73890593097
 23
145490.9251788054
 33
0.0
 14
62294.73895381232
 24
145485.3655470557
 34
0.0
100
AcDbRotatedDimension
  0
DIMENSION
  5
10A
330
1F
100
AcDbEntity
  8
1
100
AcDbDimension
  2
*D6
 10
62314.73890593098
 20
145522.3655470557
 30
0.0
 11
62324.5570426573
 21
145526.1155470557
 31
0.0
 70
    32
  1
<>
 71
     5
 42
-1.0
 53
0.00013888888889
  3
ME10_DIM_15
100
AcDbAlignedDimension
 13
62334.73890593098
 23
145495.1655470557
 33
0.0
 14
62314.73890593098
 24
145495.1655470557
 34
0.0
100
AcDbRotatedDimension
  0
DIMENSION
  5
117
330
1F
100
AcDbEntity
  8
1
100
AcDbDimension
  2
*D7
 10
62314.73890593098
 20
145522.3655470557
 30
0.0
 11
62310.39190455055
 21
145526.1155470557
 31
0.0
 70
    32
  1
<>
 71
     5
 42
-1.0
 53
0.00013888888889
  3
ME10_DIM_16
100
AcDbAlignedDimension
 13
62306.73890593097
 23
145490.9251788054
 33
0.0
 14
62314.73890593098
 24
145495.1655470557
 34
0.0
100
AcDbRotatedDimension
  0
DIMENSION
  5
123
330
1F
100
AcDbEntity
  8
1
100
AcDbDimension
  2
*D8
 10
62217.1675371224
 20
145455.3655470557
 30
0.0
 11
62213.4175371224
 21
145468.230958401
 31
0.0
 70
    32
  1
<>
 71
     5
 42
-1.0
 53
90.0
  3
ME10_DIM_17
100
AcDbAlignedDimension
 13
62291.23890593098
 23
145479.3655470557
 33
0.0
 14
62291.23890593098
 24
145455.3655470557
 34
0.0
 50
90.0
100
AcDbRotatedDimension
  0
DIMENSION
  5
130
330
1F
100
AcDbEntity
  8
1
100
AcDbDimension
  2
*D9
 10
62227.17008381232
 20
145459.3655470557
 30
0.0
 11
62223.42008381232
 21
145464.450325955
 31
0.0
 70
    32
  1
<>
 71
     5
 42
-1.0
 53
90.0
  3
ME10_DIM_18
100
AcDbAlignedDimension
 13
62313.23901381781
 23
145458.8655470557
 33
0.0
 14
62312.73926442624
 24
145459.3655470557
 34
0.0
 50
90.0
100
AcDbRotatedDimension
  0
DIMENSION
  5
13B
330
1F
100
AcDbEntity
  8
1
100
AcDbDimension
  2
*D10
 10
62362.73895381232
 20
145445.1655470557
 30
0.0
 11
62358.98895381232
 21
145453.3318849402
 31
0.0
 70
    32
  1
<>
 71
     5
 42
-1.0
 53
90.0
  3
ME10_DIM_19
100
AcDbAlignedDimension
 13
62335.73892551748
 23
145460.1655470557
 33
0.0
 14
62329.73890593098
 24
145445.1655470557
 34
0.0
 50
90.0
100
AcDbRotatedDimension
  0
ENDSEC
  0
SECTION
  2
OBJECTS
  0
DICTIONARY
  5
C
330
0
100
AcDbDictionary
281
     1
  3
ACAD_GROUP
350
D
  3
ACAD_LAYOUT
350
1A
  3
ACAD_MLINESTYLE
350
17
  3
ACAD_PLOTSETTINGS
350
19
  3
ACAD_PLOTSTYLENAME
350
E
  0
DICTIONARY
  5
D
102
{ACAD_REACTORS
330
C
102
}
330
C
100
AcDbDictionary
281
     1
  0
DICTIONARY
  5
1A
102
{ACAD_REACTORS
330
C
102
}
330
C
100
AcDbDictionary
281
     1
  3
Layout1
350
1E
  3
Layout2
350
26
  3
Model
350
22
  0
DICTIONARY
  5
17
102
{ACAD_REACTORS
330
C
102
}
330
C
100
AcDbDictionary
281
     1
  3
Standard
350
18
  0
DICTIONARY
  5
19
102
{ACAD_REACTORS
330
C
102
}
330
C
100
AcDbDictionary
281
     1
  0
ACDBDICTIONARYWDFLT
  5
E
102
{ACAD_REACTORS
330
C
102
}
330
C
100
AcDbDictionary
281
     1
  3
Normal
350
F
100
AcDbDictionaryWithDefault
340
F
  0
LAYOUT
  5
1E
102
{ACAD_REACTORS
330
1A
102
}
330
1A
100
AcDbPlotSettings
  1

  2

  4

  6

 40
0.0
 41
0.0
 42
0.0
 43
0.0
 44
0.0
 45
0.0
 46
0.0
 47
0.0
 48
0.0
 49
0.0
140
0.0
141
0.0
142
1.0
143
1.0
 70
   688
 72
     0
 73
     0
 74
     5
  7

 75
    16
 76
     0
 77
     2
 78
   300
147
1.0
148
0.0
149
0.0
100
AcDbLayout
  1
Layout1
 70
     1
 71
     1
 10
0.0
 20
0.0
 11
0.0
 21
0.0
 12
0.0
 22
0.0
 32
0.0
 14
0.0
 24
0.0
 34
0.0
 15
0.0
 25
0.0
 35
0.0
146
0.0
 13
0.0
 23
0.0
 33
0.0
 16
1.0
 26
0.0
 36
0.0
 17
0.0
 27
1.0
 37
0.0
 76
     0
330
1B
  0
LAYOUT
  5
26
102
{ACAD_REACTORS
330
1A
102
}
330
1A
100
AcDbPlotSettings
  1

  2

  4

  6

 40
0.0
 41
0.0
 42
0.0
 43
0.0
 44
0.0
 45
0.0
 46
0.0
 47
0.0
 48
0.0
 49
0.0
140
0.0
141
0.0
142
1.0
143
1.0
 70
   688
 72
     0
 73
     0
 74
     5
  7

 75
    16
 76
     0
 77
     2
 78
   300
147
1.0
148
0.0
149
0.0
100
AcDbLayout
  1
Layout2
 70
     1
 71
     2
 10
0.0
 20
0.0
 11
0.0
 21
0.0
 12
0.0
 22
0.0
 32
0.0
 14
0.0
 24
0.0
 34
0.0
 15
0.0
 25
0.0
 35
0.0
146
0.0
 13
0.0
 23
0.0
 33
0.0
 16
1.0
 26
0.0
 36
0.0
 17
0.0
 27
1.0
 37
0.0
 76
     0
330
23
  0
LAYOUT
  5
22
102
{ACAD_REACTORS
330
1A
102
}
330
1A
100
AcDbPlotSettings
  1

  2

  4

  6

 40
0.0
 41
0.0
 42
0.0
 43
0.0
 44
0.0
 45
0.0
 46
0.0
 47
0.0
 48
0.0
 49
0.0
140
0.0
141
0.0
142
1.0
143
1.0
 70
  1712
 72
     0
 73
     0
 74
     0
  7

 75
     0
 76
     0
 77
     2
 78
   300
147
1.0
148
0.0
149
0.0
100
AcDbLayout
  1
Model
 70
     1
 71
     0
 10
0.0
 20
0.0
 11
0.0
 21
0.0
 12
0.0
 22
0.0
 32
0.0
 14
62211.6675371224
 24
145429.3655470557
 34
0.0
 15
62375.6804765877
 25
145527.8655470557
 35
0.0
146
0.0
 13
0.0
 23
0.0
 33
0.0
 16
1.0
 26
0.0
 36
0.0
 17
0.0
 27
1.0
 37
0.0
 76
     0
330
1F
  0
MLINESTYLE
  5
18
102
{ACAD_REACTORS
330
17
102
}
330
17
100
AcDbMlineStyle
  2
Standard
 70
     0
  3

 62
   256
 51
90.0
 52
90.0
 71
     2
 49
0.5
 62
   256
  6
BYLAYER
 49
-0.5
 62
   256
  6
BYLAYER
  0
ACDBPLACEHOLDER
  5
F
102
{ACAD_REACTORS
330
E
102
}
330
E
  0
ENDSEC
  0
EOF
