999
DXF file: d:\tmp\workingDir\0000064244\baka_protect_4010_3d_v01_01.dxf
999
Pro/ENGINEER 2016380 by Parametric Technology Corporation
  0
SECTION
  2
HEADER
  9
$ACADVER
  1
AC1014
  9
$DWGCODEPAGE
  3
ANSI_1252
  9
$EXTMAX
 10
130.048
 20
150.0
 30
0.0
  9
$EXTMIN
 10
0.0
 20
0.0
 30
0.0
  9
$LIMMIN
 10
0.0
 20
0.0
  9
$LIMMAX
 10
130.048
 20
150.0
  9
$VIEWCTR
 10
65.024
 20
75.0
  9
$VIEWSIZE
 40
150.0
  9
$CLAYER
  8
0
  9
$LTSCALE
 40
9.7777777778
  9
$CELTYPE
  6
BYLAYER
  9
$DIMSCALE
 40
1.0
  9
$DIMASZ
 40
3.5
  9
$DIMEXO
 40
0.0
  9
$DIMDLI
 40
6.7555555556
  9
$DIMEXE
 40
2.0
  9
$DIMCEN
 40
1.6
  9
$DIMLFAC
 40
1.0
  9
$DIMBLK
  1
_ARROW_FILLED
  9
$DIMALT
 70
0
  9
$DIMALTF
 40
25.4
  9
$DIMTXT
 40
3.5
  9
$DIMTOL
 70
1
  9
$DIMLIM
 70
0
  9
$DIMTFAC
 40
1.0
  9
$DIMTP
 40
0.01
  9
$DIMTM
 40
0.01
  9
$DIMGAP
 40
0.625
  9
$AUNITS
 70
0
  9
$PDMODE
 70
3
  9
$PDSIZE
 40
0.3125
  9
$HANDSEED
  5
399
  9
$TILEMODE
 70
1
  9
$MEASUREMENT
 70
1
  0
ENDSEC
  0
SECTION
  2
CLASSES
  0
ENDSEC
  0
SECTION
  2
TABLES
  0
TABLE
  2
VPORT
  5
8
100
AcDbSymbolTable
 70
2
  0
VPORT
  5
1F4
100
AcDbSymbolTableRecord
100
AcDbViewportTableRecord
  2
*ACTIVE
 70
0
 10
0.0
 20
0.0
 11
1.0
 21
1.0
 12
65.024
 22
75.0
 13
0.0
 23
0.0
 14
1.0
 24
1.0
 15
0.0
 25
0.0
 16
0.0
 26
0.0
 36
1.0
 17
0.0
 27
0.0
 37
0.0
 40
150.0
 41
0.8669866667
 42
50.0
 43
0.0
 44
0.0
 50
0.0
 51
0.0
 71
0
 72
100
 73
1
 74
1
 75
0
 76
0
 77
0
 78
0
  0
ENDTAB
  0
TABLE
  2
LTYPE
  5
5
100
AcDbSymbolTable
 70
6
  0
LTYPE
  5
14
100
AcDbSymbolTableRecord
100
AcDbLinetypeTableRecord
  2
BYBLOCK
 70
0
  3

 72
65
 73
0
 40
0.0
  0
LTYPE
  5
15
100
AcDbSymbolTableRecord
100
AcDbLinetypeTableRecord
  2
BYLAYER
 70
0
  3

 72
65
 73
0
 40
0.0
  0
LTYPE
  5
16
100
AcDbSymbolTableRecord
100
AcDbLinetypeTableRecord
  2
CONTINUOUS
 70
64
  3
Solid line
 72
65
 73
0
 40
0.0
  0
LTYPE
  5
1F5
100
AcDbSymbolTableRecord
100
AcDbLinetypeTableRecord
  2
CENTER
 70
64
  3
____ _ ____ _ ____ _ ____ _ ____ _ ____ _ ____
 72
65
 73
4
 40
0.6
 49
0.375
 74
0
 49
-0.075
 74
0
 49
0.075
 74
0
 49
-0.075
 74
0
  0
LTYPE
  5
1F6
100
AcDbSymbolTableRecord
100
AcDbLinetypeTableRecord
  2
HIDDEN
 70
64
  3
- - - - - - - - - - - - - - - - - - - -
 72
65
 73
2
 40
0.2
 49
0.1
 74
0
 49
-0.1
 74
0
  0
LTYPE
  5
1F7
100
AcDbSymbolTableRecord
100
AcDbLinetypeTableRecord
  2
PHANTOM
 70
64
  3
_____ _ _ _____ _ _ _____ _ _ _____
 72
65
 73
6
 40
0.8
 49
0.45
 74
0
 49
-0.05
 74
0
 49
0.1
 74
0
 49
-0.05
 74
0
 49
0.1
 74
0
 49
-0.05
 74
0
  0
LTYPE
  5
1F8
100
AcDbSymbolTableRecord
100
AcDbLinetypeTableRecord
  2
DOT
 70
64
  3
. . . . . . . . . . . . . . . . . . . .
 72
65
 73
2
 40
0.2
 49
0.1
 74
0
 49
-0.1
 74
0
  0
LTYPE
  5
1F9
100
AcDbSymbolTableRecord
100
AcDbLinetypeTableRecord
  2
DASHED
 70
64
  3
- - - - - - - - - - - - - - - - - - - -
 72
65
 73
2
 40
0.2
 49
0.1
 74
0
 49
-0.1
 74
0
  0
ENDTAB
  0
TABLE
  2
LAYER
  5
2
100
AcDbSymbolTable
 70
36
  0
LAYER
  5
10
100
AcDbSymbolTableRecord
100
AcDbLayerTableRecord
  2
0
 70
0
 62
7
  6
CONTINUOUS
  0
LAYER
  5
1FA
100
AcDbSymbolTableRecord
100
AcDbLayerTableRecord
  2
DEFAULT_1
 70
0
 62
7
  6
CENTER
  0
LAYER
  5
1FB
100
AcDbSymbolTableRecord
100
AcDbLayerTableRecord
  2
DEFAULT_2
 70
0
 62
8
  6
HIDDEN
  0
LAYER
  5
1FC
100
AcDbSymbolTableRecord
100
AcDbLayerTableRecord
  2
DEFAULT_3
 70
0
 62
7
  6
PHANTOM
  0
LAYER
  5
1FD
100
AcDbSymbolTableRecord
100
AcDbLayerTableRecord
  2
A_ACHSEN
 70
0
 62
7
  6
CONTINUOUS
  0
LAYER
  5
1FE
100
AcDbSymbolTableRecord
100
AcDbLayerTableRecord
  2
A_BASISEBENEN
 70
0
 62
7
  6
CONTINUOUS
  0
LAYER
  5
1FF
100
AcDbSymbolTableRecord
100
AcDbLayerTableRecord
  2
A_BEMASSUNGEN
 70
0
 62
7
  6
CONTINUOUS
  0
LAYER
  5
200
100
AcDbSymbolTableRecord
100
AcDbLayerTableRecord
  2
A_BOHRUNGEN
 70
0
 62
7
  6
CONTINUOUS
  0
LAYER
  5
201
100
AcDbSymbolTableRecord
100
AcDbLayerTableRecord
  2
A_EBENEN
 70
0
 62
7
  6
CONTINUOUS
  0
LAYER
  5
202
100
AcDbSymbolTableRecord
100
AcDbLayerTableRecord
  2
A_FASEN
 70
0
 62
7
  6
CONTINUOUS
  0
LAYER
  5
203
100
AcDbSymbolTableRecord
100
AcDbLayerTableRecord
  2
A_FLAECHEN
 70
0
 62
7
  6
CONTINUOUS
  0
LAYER
  5
204
100
AcDbSymbolTableRecord
100
AcDbLayerTableRecord
  2
A_FL_VERBAENDE
 70
0
 62
7
  6
CONTINUOUS
  0
LAYER
  5
205
100
AcDbSymbolTableRecord
100
AcDbLayerTableRecord
  2
A_KURVEN
 70
0
 62
7
  6
CONTINUOUS
  0
LAYER
  5
206
100
AcDbSymbolTableRecord
100
AcDbLayerTableRecord
  2
A_NOTIZEN_SYMB
 70
0
 62
7
  6
CONTINUOUS
  0
LAYER
  5
207
100
AcDbSymbolTableRecord
100
AcDbLayerTableRecord
  2
A_PUNKTE
 70
0
 62
7
  6
CONTINUOUS
  0
LAYER
  5
208
100
AcDbSymbolTableRecord
100
AcDbLayerTableRecord
  2
A_RUNDUNGEN
 70
0
 62
7
  6
CONTINUOUS
  0
LAYER
  5
209
100
AcDbSymbolTableRecord
100
AcDbLayerTableRecord
  2
A_TABELLEN
 70
0
 62
7
  6
CONTINUOUS
  0
LAYER
  5
20A
100
AcDbSymbolTableRecord
100
AcDbLayerTableRecord
  2
B-ACHSEN
 70
0
 62
7
  6
CONTINUOUS
  0
LAYER
  5
20B
100
AcDbSymbolTableRecord
100
AcDbLayerTableRecord
  2
B-EBENEN
 70
0
 62
7
  6
CONTINUOUS
  0
LAYER
  5
20C
100
AcDbSymbolTableRecord
100
AcDbLayerTableRecord
  2
B-KOORSYS
 70
0
 62
7
  6
CONTINUOUS
  0
LAYER
  5
20D
100
AcDbSymbolTableRecord
100
AcDbLayerTableRecord
  2
BASISEBENEN
 70
0
 62
7
  6
CONTINUOUS
  0
LAYER
  5
20E
100
AcDbSymbolTableRecord
100
AcDbLayerTableRecord
  2
BEMASSUNG
 70
0
 62
7
  6
CONTINUOUS
  0
LAYER
  5
20F
100
AcDbSymbolTableRecord
100
AcDbLayerTableRecord
  2
BOHRUNGEN
 70
0
 62
7
  6
CONTINUOUS
  0
LAYER
  5
210
100
AcDbSymbolTableRecord
100
AcDbLayerTableRecord
  2
KOERPER
 70
0
 62
7
  6
CONTINUOUS
  0
LAYER
  5
211
100
AcDbSymbolTableRecord
100
AcDbLayerTableRecord
  2
LAY0001
 70
0
 62
7
  6
CONTINUOUS
  0
LAYER
  5
212
100
AcDbSymbolTableRecord
100
AcDbLayerTableRecord
  2
RUNDUNGEN
 70
0
 62
7
  6
CONTINUOUS
  0
LAYER
  5
213
100
AcDbSymbolTableRecord
100
AcDbLayerTableRecord
  2
VERBUNDFLAECHEN
 70
0
 62
7
  6
CONTINUOUS
  0
LAYER
  5
214
100
AcDbSymbolTableRecord
100
AcDbLayerTableRecord
  2
XSEC_DATUMS
 70
0
 62
7
  6
CONTINUOUS
  0
ENDTAB
  0
TABLE
  2
STYLE
  5
3
100
AcDbSymbolTable
 70
1
  0
STYLE
  5
11
100
AcDbSymbolTableRecord
100
AcDbTextStyleTableRecord
  2
STANDARD
 70
0
 40
0.0
 41
1.0
 50
0.0
 71
0
 42
0.2
  3
txt
  4

  0
STYLE
  5
215
100
AcDbSymbolTableRecord
100
AcDbTextStyleTableRecord
  2
TEXTSTYLE_1
 70
0
 40
0.0
 41
0.8
 50
0.0
 71
0
 42
0.2
  3
gdt
  4

  0
STYLE
  5
216
100
AcDbSymbolTableRecord
100
AcDbTextStyleTableRecord
  2
TEXTSTYLE_2
 70
0
 40
0.0
 41
1.0
 50
0.0
 71
0
 42
0.2
  3
txt
  4

  0
ENDTAB
  0
TABLE
  2
VIEW
  5
6
100
AcDbSymbolTable
 70
0
  0
ENDTAB
  0
TABLE
  2
UCS
  5
7
100
AcDbSymbolTable
 70
0
  0
ENDTAB
  0
TABLE
  2
APPID
  5
9
100
AcDbSymbolTable
 70
1
  0
APPID
  5
217
100
AcDbSymbolTableRecord
100
AcDbRegAppTableRecord
  2
ACAD
 70
0
  0
ENDTAB
  0
TABLE
  2
BLOCK_RECORD
  5
1
100
AcDbSymbolTable
 70
0
  0
BLOCK_RECORD
  5
1F
100
AcDbSymbolTableRecord
100
AcDbBlockTableRecord
  2
*MODEL_SPACE
  0
BLOCK_RECORD
  5
1B
100
AcDbSymbolTableRecord
100
AcDbBlockTableRecord
  2
*PAPER_SPACE
  0
BLOCK_RECORD
  5
218
100
AcDbSymbolTableRecord
100
AcDbBlockTableRecord
  2
_ARROW_FILLED
  0
BLOCK_RECORD
  5
219
100
AcDbSymbolTableRecord
100
AcDbBlockTableRecord
  2
*D0
  0
BLOCK_RECORD
  5
21A
100
AcDbSymbolTableRecord
100
AcDbBlockTableRecord
  2
*D1
  0
BLOCK_RECORD
  5
21B
100
AcDbSymbolTableRecord
100
AcDbBlockTableRecord
  2
*D2
  0
BLOCK_RECORD
  5
21C
100
AcDbSymbolTableRecord
100
AcDbBlockTableRecord
  2
*D3
  0
ENDTAB
  0
TABLE
  2
DIMSTYLE
  5
A
100
AcDbSymbolTable
 70
1
  0
DIMSTYLE
105
21D
100
AcDbSymbolTableRecord
100
AcDbDimStyleTableRecord
  2
STANDARD
 70
0
  3

  4

  5
_ARROW_FILLED
  6
_ARROW_FILLED
  7
_ARROW_FILLED
 40
1.0
 41
3.5
 42
0.0
 43
0.38
 44
2.0
 45
0.0
 46
0.0
 47
0.01
 48
0.01
140
3.5
141
0.09
142
0.0
143
25.4
144
1.0
145
0.0
146
1.0
147
0.625
 71
1.0
 72
0.0
 73
0
 74
0
 75
0
 76
0
 77
1
 78
8
170
0
171
1
172
0
173
0
174
0
175
0
176
0
177
0
178
5
270
2
271
2
272
2
273
2
274
2
275
0
280
0
281
0
282
0
283
1
284
8
285
0
286
0
287
3
288
0
340
11
  0
DIMSTYLE
105
21E
100
AcDbSymbolTableRecord
100
AcDbDimStyleTableRecord
  2
DIMSTYLE_1
 70
0
  3

  4

  5
_ARROW_FILLED
  6
_ARROW_FILLED
  7
_ARROW_FILLED
 40
1.0
 41
3.5
 42
0.0
 43
0.38
 44
2.0
 45
0.0
 46
0.0
 47
0.3
 48
0.3
140
3.5
141
0.09
142
0.0
143
25.4
144
1.0
145
0.0
146
1.0
147
0.875
 71
0.0
 72
0.0
 73
0
 74
0
 75
0
 76
0
 77
1
 78
8
170
0
171
1
172
0
173
0
174
0
175
0
176
0
177
0
178
5
270
2
271
0
272
-1
273
2
274
2
275
0
280
0
281
0
282
0
283
1
284
8
285
0
286
0
287
3
288
0
340
216
  0
DIMSTYLE
105
21F
100
AcDbSymbolTableRecord
100
AcDbDimStyleTableRecord
  2
DIMSTYLE_2
 70
0
  3

  4

  5
_ARROW_FILLED
  6
_ARROW_FILLED
  7
_ARROW_FILLED
 40
1.0
 41
3.5
 42
0.0
 43
0.38
 44
2.0
 45
0.0
 46
0.0
 47
0.5
 48
0.5
140
3.5
141
0.09
142
0.0
143
25.4
144
1.0
145
0.0
146
1.0
147
0.875
 71
0.0
 72
0.0
 73
0
 74
0
 75
0
 76
0
 77
1
 78
8
170
0
171
1
172
0
173
0
174
0
175
0
176
0
177
0
178
5
270
2
271
3
272
-1
273
2
274
2
275
0
280
0
281
0
282
0
283
1
284
8
285
0
286
0
287
3
288
0
340
216
  0
DIMSTYLE
105
220
100
AcDbSymbolTableRecord
100
AcDbDimStyleTableRecord
  2
DIMSTYLE_3
 70
0
  3

  4

  5
_ARROW_FILLED
  6
_ARROW_FILLED
  7
_ARROW_FILLED
 40
1.0
 41
3.5
 42
0.0
 43
0.38
 44
2.0
 45
0.0
 46
0.0
 47
0.3
 48
0.3
140
3.5
141
0.09
142
0.0
143
25.4
144
1.0
145
0.0
146
1.0
147
0.875
 71
0.0
 72
0.0
 73
0
 74
0
 75
0
 76
0
 77
1
 78
8
170
0
171
1
172
0
173
0
174
0
175
0
176
0
177
0
178
5
270
2
271
4
272
-1
273
2
274
2
275
0
280
0
281
0
282
0
283
1
284
8
285
0
286
0
287
3
288
0
340
216
  0
DIMSTYLE
105
221
100
AcDbSymbolTableRecord
100
AcDbDimStyleTableRecord
  2
DIMSTYLE_4
 70
0
  3

  4

  5
_ARROW_FILLED
  6
_ARROW_FILLED
  7
_ARROW_FILLED
 40
1.0
 41
3.5
 42
0.0
 43
0.38
 44
2.0
 45
0.0
 46
0.0
 47
0.2
 48
0.2
140
3.5
141
0.09
142
0.0
143
25.4
144
1.0
145
0.0
146
1.0
147
0.875
 71
0.0
 72
0.0
 73
0
 74
0
 75
0
 76
0
 77
1
 78
8
170
0
171
1
172
0
173
0
174
0
175
0
176
0
177
0
178
5
270
2
271
3
272
-1
273
2
274
2
275
0
280
0
281
0
282
0
283
1
284
8
285
0
286
0
287
3
288
0
340
216
  0
ENDTAB
  0
ENDSEC
  0
SECTION
  2
BLOCKS
  0
BLOCK
  5
20
100
AcDbEntity
  8
0
100
AcDbBlockBegin
  2
*MODEL_SPACE
 70
0
 10
0.0
 20
0.0
 30
0.0
  3
*MODEL_SPACE
  1

  0
ENDBLK
  5
21
100
AcDbEntity
  8
0
100
AcDbBlockEnd
  0
BLOCK
  5
1C
100
AcDbEntity
  8
0
100
AcDbBlockBegin
  2
*PAPER_SPACE
 70
0
 10
0.0
 20
0.0
 30
0.0
  3
*PAPER_SPACE
  1

  0
ENDBLK
  5
1D
100
AcDbEntity
  8
0
100
AcDbBlockEnd
  0
BLOCK
  5
222
100
AcDbEntity
  8
0
100
AcDbBlockBegin
  2
_ARROW_FILLED
 70
64
 10
0.0
 20
0.0
  3
_ARROW_FILLED
  1

  0
SOLID
  5
223
100
AcDbEntity
  8
0
  6
BYBLOCK
 62
0
100
AcDbTrace
 10
0.0
 20
0.0
 11
-1.0
 21
0.1428571429
 12
-1.0
 22
-0.1428571429
 13
-1.0
 23
-0.1428571429
  0
ENDBLK
  5
224
100
AcDbEntity
  8
0
  6
BYBLOCK
 62
0
100
AcDbBlockEnd
  0
BLOCK
  5
225
100
AcDbEntity
  8
A_BEMASSUNGEN
100
AcDbBlockBegin
 62
2
  6
CONTINUOUS
  2
*D0
 70
65
 10
0.0
 20
0.0
  3
*D0
  1

  0
MTEXT
  5
226
100
AcDbEntity
  8
A_BEMASSUNGEN
100
AcDbMText
 62
5
  6
CONTINUOUS
  7
TEXTSTYLE_2
 71
2
 72
1
 10
115.262816299
 20
74.1433283063
 30
0.0
 11
0.0
 21
1.0
 31
0.0
  1
110
 40
3.5
 41
10.125
  0
LINE
  5
227
100
AcDbEntity
  8
A_BEMASSUNGEN
100
AcDbLine
 62
2
  6
CONTINUOUS
 10
99.0631926533
 20
129.0433283063
 11
121.637816299
 21
129.0433283063
  0
LINE
  5
228
100
AcDbEntity
  8
A_BEMASSUNGEN
100
AcDbLine
 62
2
  6
CONTINUOUS
 10
101.3793691239
 20
19.2433283063
 11
121.637816299
 21
19.2433283063
  0
LINE
  5
229
100
AcDbEntity
  8
A_BEMASSUNGEN
100
AcDbLine
 62
2
  6
CONTINUOUS
 10
119.637816299
 20
129.0433283063
 11
119.637816299
 21
74.1433283063
  0
LINE
  5
22A
100
AcDbEntity
  8
A_BEMASSUNGEN
100
AcDbLine
 62
2
  6
CONTINUOUS
 10
119.637816299
 20
19.2433283063
 11
119.637816299
 21
74.1433283063
  0
INSERT
  5
22B
100
AcDbEntity
  8
A_BEMASSUNGEN
100
AcDbBlockReference
 62
2
  6
CONTINUOUS
  2
_ARROW_FILLED
 10
119.637816299
 20
129.0433283063
 41
3.5
 42
3.5
 43
3.5
 50
90.0
  0
INSERT
  5
22C
100
AcDbEntity
  8
A_BEMASSUNGEN
100
AcDbBlockReference
 62
2
  6
CONTINUOUS
  2
_ARROW_FILLED
 10
119.637816299
 20
19.2433283063
 41
3.5
 42
3.5
 43
3.5
 50
270.0
  0
ENDBLK
  5
22D
100
AcDbEntity
  8
0
  6
BYBLOCK
 62
0
100
AcDbBlockEnd
  0
BLOCK
  5
22E
100
AcDbEntity
  8
A_BEMASSUNGEN
100
AcDbBlockBegin
 62
2
  6
CONTINUOUS
  2
*D1
 70
65
 10
0.0
 20
0.0
  3
*D1
  1

  0
MTEXT
  5
22F
100
AcDbEntity
  8
A_BEMASSUNGEN
100
AcDbMText
 62
5
  6
CONTINUOUS
  7
TEXTSTYLE_2
 71
2
 72
1
 10
10.5645405405
 20
74.1433283063
 30
0.0
 11
0.0
 21
1.0
 31
0.0
  1
140
 40
3.5
 41
11.25
  0
LINE
  5
230
100
AcDbEntity
  8
A_BEMASSUNGEN
100
AcDbLine
 62
2
  6
CONTINUOUS
 10
33.3998514202
 20
144.1433283063
 11
12.9395405405
 21
144.1433283063
  0
LINE
  5
231
100
AcDbEntity
  8
A_BEMASSUNGEN
100
AcDbLine
 62
2
  6
CONTINUOUS
 10
33.3998514202
 20
4.1433283063
 11
12.9395405405
 21
4.1433283063
  0
LINE
  5
232
100
AcDbEntity
  8
A_BEMASSUNGEN
100
AcDbLine
 62
2
  6
CONTINUOUS
 10
14.9395405405
 20
144.1433283063
 11
14.9395405405
 21
74.1433283063
  0
LINE
  5
233
100
AcDbEntity
  8
A_BEMASSUNGEN
100
AcDbLine
 62
2
  6
CONTINUOUS
 10
14.9395405405
 20
4.1433283063
 11
14.9395405405
 21
74.1433283063
  0
INSERT
  5
234
100
AcDbEntity
  8
A_BEMASSUNGEN
100
AcDbBlockReference
 62
2
  6
CONTINUOUS
  2
_ARROW_FILLED
 10
14.9395405405
 20
144.1433283063
 41
3.5
 42
3.5
 43
3.5
 50
90.0
  0
INSERT
  5
235
100
AcDbEntity
  8
A_BEMASSUNGEN
100
AcDbBlockReference
 62
2
  6
CONTINUOUS
  2
_ARROW_FILLED
 10
14.9395405405
 20
4.1433283063
 41
3.5
 42
3.5
 43
3.5
 50
270.0
  0
ENDBLK
  5
236
100
AcDbEntity
  8
0
  6
BYBLOCK
 62
0
100
AcDbBlockEnd
  0
BLOCK
  5
237
100
AcDbEntity
  8
A_BEMASSUNGEN
100
AcDbBlockBegin
 62
2
  6
CONTINUOUS
  2
*D2
 70
65
 10
0.0
 20
0.0
  3
*D2
  1

  0
MTEXT
  5
238
100
AcDbEntity
  8
A_BEMASSUNGEN
100
AcDbMText
 62
5
  6
CONTINUOUS
  7
TEXTSTYLE_2
 71
2
 72
1
 10
89.476013011
 20
143.1043623917
 30
0.0
 11
1.0
 21
0.0
 31
0.0
  1
35
 40
3.5
 41
7.5
  0
LINE
  5
239
100
AcDbEntity
  8
A_BEMASSUNGEN
100
AcDbLine
 62
2
  6
CONTINUOUS
 10
107.5998514202
 20
128.5433283063
 11
107.5998514202
 21
140.7293623917
  0
LINE
  5
23A
100
AcDbEntity
  8
A_BEMASSUNGEN
100
AcDbLine
 62
2
  6
CONTINUOUS
 10
72.5998514202
 20
128.0966413276
 11
72.5998514202
 21
140.7293623917
  0
LINE
  5
23B
100
AcDbEntity
  8
A_BEMASSUNGEN
100
AcDbLine
 62
2
  6
CONTINUOUS
 10
107.5998514202
 20
138.7293623917
 11
90.0998514202
 21
138.7293623917
  0
LINE
  5
23C
100
AcDbEntity
  8
A_BEMASSUNGEN
100
AcDbLine
 62
2
  6
CONTINUOUS
 10
72.5998514202
 20
138.7293623917
 11
90.0998514202
 21
138.7293623917
  0
INSERT
  5
23D
100
AcDbEntity
  8
A_BEMASSUNGEN
100
AcDbBlockReference
 62
2
  6
CONTINUOUS
  2
_ARROW_FILLED
 10
107.5998514202
 20
138.7293623917
 41
3.5
 42
3.5
 43
3.5
  0
INSERT
  5
23E
100
AcDbEntity
  8
A_BEMASSUNGEN
100
AcDbBlockReference
 62
2
  6
CONTINUOUS
  2
_ARROW_FILLED
 10
72.5998514202
 20
138.7293623917
 41
3.5
 42
3.5
 43
3.5
 50
180.0
  0
ENDBLK
  5
23F
100
AcDbEntity
  8
0
  6
BYBLOCK
 62
0
100
AcDbBlockEnd
  0
BLOCK
  5
240
100
AcDbEntity
  8
A_BEMASSUNGEN
100
AcDbBlockBegin
 62
2
  6
CONTINUOUS
  2
*D3
 70
65
 10
0.0
 20
0.0
  3
*D3
  1

  0
MTEXT
  5
241
100
AcDbEntity
  8
A_BEMASSUNGEN
100
AcDbMText
 62
5
  6
CONTINUOUS
  7
TEXTSTYLE_2
 71
2
 72
1
 10
58.1885766389
 20
56.9079274207
 30
0.0
 11
1.0
 21
0.0
 31
0.0
  1
20
 40
3.5
 41
8.25
  0
LINE
  5
242
100
AcDbEntity
  8
A_BEMASSUNGEN
100
AcDbLine
 62
2
  6
CONTINUOUS
 10
47.5998514202
 20
52.5329274207
 11
57.5996121168
 21
52.5329274207
  0
LINE
  5
243
100
AcDbEntity
  8
A_BEMASSUNGEN
100
AcDbLine
 62
2
  6
CONTINUOUS
 10
67.5993728134
 20
52.5329274207
 11
57.5996121168
 21
52.5329274207
  0
INSERT
  5
244
100
AcDbEntity
  8
A_BEMASSUNGEN
100
AcDbBlockReference
 62
2
  6
CONTINUOUS
  2
_ARROW_FILLED
 10
47.5998514202
 20
52.5329274207
 41
3.5
 42
3.5
 43
3.5
 50
180.0
  0
INSERT
  5
245
100
AcDbEntity
  8
A_BEMASSUNGEN
100
AcDbBlockReference
 62
2
  6
CONTINUOUS
  2
_ARROW_FILLED
 10
67.5993728134
 20
52.5329274207
 41
3.5
 42
3.5
 43
3.5
  0
ENDBLK
  5
246
100
AcDbEntity
  8
0
  6
BYBLOCK
 62
0
100
AcDbBlockEnd
  0
ENDSEC
  0
SECTION
  2
ENTITIES
  0
DIMENSION
  5
247
100
AcDbEntity
  8
A_BEMASSUNGEN
100
AcDbDimension
 62
2
  6
CONTINUOUS
  2
*D0
 10
119.637816299
 20
19.2433283063
 11
119.637816299
 21
73.6433249413
 70
160
  3
DIMSTYLE_1
100
AcDbAlignedDimension
 13
99.0631926533
 23
129.0433283063
 14
101.3793691239
 24
19.2433283063
 50
270.0
100
AcDbRotatedDimension
  0
DIMENSION
  5
248
100
AcDbEntity
  8
A_BEMASSUNGEN
100
AcDbDimension
 62
2
  6
CONTINUOUS
  2
*D1
 10
14.9395405405
 20
4.1433283063
 11
14.9395405405
 21
73.6433286728
 70
160
  3
DIMSTYLE_2
100
AcDbAlignedDimension
 13
33.3998514202
 23
144.1433283063
 14
33.3998514202
 24
4.1433283063
 50
270.0
100
AcDbRotatedDimension
  0
DIMENSION
  5
249
100
AcDbEntity
  8
A_BEMASSUNGEN
100
AcDbDimension
 62
2
  6
CONTINUOUS
  2
*D2
 10
72.5998514202
 20
138.7293623917
 11
88.9760182292
 21
138.7293623917
 70
160
  3
DIMSTYLE_3
100
AcDbAlignedDimension
 13
107.5998514202
 23
128.5433283063
 14
72.5998514202
 24
128.0966413276
 50
180.0
100
AcDbRotatedDimension
  0
DIMENSION
  5
24A
100
AcDbEntity
  8
A_BEMASSUNGEN
100
AcDbDimension
 62
2
  6
CONTINUOUS
  2
*D3
 10
67.5993728134
 20
52.5329274207
 11
57.688577908
 21
52.5329274207
 70
160
  3
DIMSTYLE_4
100
AcDbAlignedDimension
 13
47.5998514202
 23
36.6433283063
 14
67.5993728134
 24
36.6433283063
100
AcDbRotatedDimension
  0
LINE
  5
24B
100
AcDbEntity
  8
DEFAULT_2
100
AcDbLine
 62
8
  6
HIDDEN
 10
32.1907273239
 20
133.368763555
 11
32.9085010588
 21
133.8141469306
  0
LINE
  5
24C
100
AcDbEntity
  8
DEFAULT_2
100
AcDbLine
 62
8
  6
HIDDEN
 10
27.4665044196
 20
130.672208706
 11
28.2111047577
 21
131.0711273888
  0
LINE
  5
24D
100
AcDbEntity
  8
0
100
AcDbLine
 62
7
  6
CONTINUOUS
 10
33.3998514202
 20
4.1433283063
 11
37.3998514202
 21
4.1433283063
  0
LINE
  5
24E
100
AcDbEntity
  8
0
100
AcDbLine
 62
3
  6
CONTINUOUS
 10
43.8998514202
 20
4.1433283063
 11
67.5249136353
 21
4.1433283063
  0
LINE
  5
24F
100
AcDbEntity
  8
0
100
AcDbLine
 62
3
  6
CONTINUOUS
 10
43.3998514202
 20
8.6433283063
 11
43.8998514202
 21
8.6433283063
  0
LINE
  5
250
100
AcDbEntity
  8
DEFAULT_2
100
AcDbLine
 62
8
  6
HIDDEN
 10
28.2111046047
 20
17.2155293057
 11
27.4665044196
 21
17.6144479065
  0
LINE
  5
251
100
AcDbEntity
  8
DEFAULT_2
100
AcDbLine
 62
8
  6
HIDDEN
 10
32.9085010588
 20
14.472509682
 11
32.1907273239
 21
14.9178930575
  0
LINE
  5
252
100
AcDbEntity
  8
DEFAULT_2
100
AcDbLine
 62
8
  6
HIDDEN
 10
30.6089754694
 20
126.9178930282
 11
29.8912017817
 21
126.472509682
  0
LINE
  5
253
100
AcDbEntity
  8
DEFAULT_2
100
AcDbLine
 62
8
  6
HIDDEN
 10
35.3331984909
 20
129.614447944
 11
34.5885980735
 21
129.2155292187
  0
LINE
  5
254
100
AcDbEntity
  8
DEFAULT_2
100
AcDbLine
 62
8
  6
HIDDEN
 10
34.5885982358
 20
19.0711273069
 11
35.3331984208
 21
18.672208706
  0
LINE
  5
255
100
AcDbEntity
  8
DEFAULT_2
100
AcDbLine
 62
8
  6
HIDDEN
 10
29.8912017817
 20
21.8141469306
 11
30.6089755166
 21
21.368763555
  0
LINE
  5
256
100
AcDbEntity
  8
0
100
AcDbLine
 62
7
  6
CONTINUOUS
 10
72.5998514202
 20
18.1433283063
 11
72.0998514202
 21
18.1433283063
  0
LINE
  5
257
100
AcDbEntity
  8
A_ACHSEN
100
AcDbLine
 62
7
  6
CENTER
 10
22.2297432432
 20
18.1433283063
 11
40.5699595972
 21
18.1433283063
  0
LINE
  5
258
100
AcDbEntity
  8
0
100
AcDbLine
 62
7
  6
CONTINUOUS
 10
72.5998514202
 20
19.2433283063
 11
85.0573499407
 21
19.2433283063
  0
LINE
  5
259
100
AcDbEntity
  8
0
100
AcDbLine
 62
7
  6
CONTINUOUS
 10
92.1423528998
 20
19.2433283063
 11
107.0998514202
 21
19.2433283063
  0
LINE
  5
25A
100
AcDbEntity
  8
0
100
AcDbLine
 62
7
  6
CONTINUOUS
 10
74.5998514202
 20
19.7230616699
 11
82.5998514202
 21
19.7230616699
  0
LINE
  5
25B
100
AcDbEntity
  8
0
100
AcDbLine
 62
7
  6
CONTINUOUS
 10
74.5998514202
 20
19.7469417164
 11
82.5998514202
 21
19.7469417164
  0
LINE
  5
25C
100
AcDbEntity
  8
0
100
AcDbLine
 62
7
  6
CONTINUOUS
 10
74.5998514202
 20
20.7796073243
 11
82.5998514202
 21
20.7796073243
  0
LINE
  5
25D
100
AcDbEntity
  8
A_RUNDUNGEN
100
AcDbLine
 62
7
  6
CONTINUOUS
 10
72.8998514202
 20
21.7306723179
 11
72.5998514202
 21
21.7306723179
  0
LINE
  5
25E
100
AcDbEntity
  8
A_ACHSEN
100
AcDbLine
 62
7
  6
CONTINUOUS
 10
89.0442958647
 20
22.1433283063
 11
88.1554069758
 21
22.1433283063
  0
LINE
  5
25F
100
AcDbEntity
  8
A_ACHSEN
100
AcDbLine
 62
7
  6
CENTER
 10
86.377629198
 20
22.1433283063
 11
85.5997514202
 21
22.1433283063
  0
LINE
  5
260
100
AcDbEntity
  8
A_ACHSEN
100
AcDbLine
 62
7
  6
CENTER
 10
90.8220736425
 20
22.1433283063
 11
91.5999514202
 21
22.1433283063
  0
LINE
  5
261
100
AcDbEntity
  8
0
100
AcDbLine
 62
7
  6
CONTINUOUS
 10
74.5998514202
 20
22.5356562378
 11
82.5998514202
 21
22.5356562378
  0
LINE
  5
262
100
AcDbEntity
  8
0
100
AcDbLine
 62
7
  6
CONTINUOUS
 10
74.5998514202
 20
23.2207757246
 11
82.5998514202
 21
23.2207757246
  0
LINE
  5
263
100
AcDbEntity
  8
0
100
AcDbLine
 62
7
  6
CONTINUOUS
 10
74.5998514202
 20
24.5680882325
 11
82.5998514202
 21
24.5680882325
  0
LINE
  5
264
100
AcDbEntity
  8
A_ACHSEN
100
AcDbLine
 62
7
  6
CONTINUOUS
 10
31.8442958647
 20
29.1433283063
 11
30.9554069758
 21
29.1433283063
  0
LINE
  5
265
100
AcDbEntity
  8
A_ACHSEN
100
AcDbLine
 62
7
  6
CENTER
 10
29.177629198
 20
29.1433283063
 11
24.8998514202
 21
29.1433283063
  0
LINE
  5
266
100
AcDbEntity
  8
A_ACHSEN
100
AcDbLine
 62
7
  6
CENTER
 10
33.6220736425
 20
29.1433283063
 11
37.8998514202
 21
29.1433283063
  0
LINE
  5
267
100
AcDbEntity
  8
DEFAULT_2
100
AcDbLine
 62
8
  6
HIDDEN
 10
29.0019805084
 20
20.4409645545
 11
28.9751540582
 21
21.2852665308
  0
LINE
  5
268
100
AcDbEntity
  8
0
100
AcDbLine
 62
7
  6
CONTINUOUS
 10
23.3998514202
 20
134.1433283063
 11
23.3998514202
 21
14.1433283063
  0
LINE
  5
269
100
AcDbEntity
  8
DEFAULT_2
100
AcDbLine
 62
8
  6
HIDDEN
 10
28.9751540561
 20
127.0013900169
 11
29.0019805084
 21
127.8456920581
  0
LINE
  5
26A
100
AcDbEntity
  8
DEFAULT_2
100
AcDbLine
 62
8
  6
HIDDEN
 10
36.1907273239
 20
105.368763555
 11
36.9085010588
 21
105.8141469306
  0
LINE
  5
26B
100
AcDbEntity
  8
DEFAULT_2
100
AcDbLine
 62
8
  6
HIDDEN
 10
31.4665044196
 20
102.672208706
 11
32.2111047139
 21
103.0711273654
  0
LINE
  5
26C
100
AcDbEntity
  8
DEFAULT_1
100
AcDbLine
 62
7
  6
CENTER
 10
79.3508446684
 20
35.1433283063
 11
97.8488581721
 21
35.1433283063
  0
LINE
  5
26D
100
AcDbEntity
  8
0
100
AcDbLine
 62
3
  6
CONTINUOUS
 10
43.8998514202
 20
35.7433283063
 11
67.5249136353
 21
35.7433283063
  0
LINE
  5
26E
100
AcDbEntity
  8
A_ACHSEN
100
AcDbLine
 62
7
  6
CONTINUOUS
 10
49.1248549026
 20
36.0433283063
 11
66.0748479379
 21
36.0433283063
  0
LINE
  5
26F
100
AcDbEntity
  8
0
100
AcDbLine
 62
7
  6
CONTINUOUS
 10
67.5993728134
 20
36.6433283063
 11
47.5994957448
 21
36.6433283063
  0
LINE
  5
270
100
AcDbEntity
  8
0
100
AcDbLine
 62
3
  6
CONTINUOUS
 10
67.5993728134
 20
36.6433283063
 11
67.840592161
 21
36.6433283063
  0
LINE
  5
271
100
AcDbEntity
  8
A_RUNDUNGEN
100
AcDbLine
 62
3
  6
CONTINUOUS
 10
67.840592161
 20
36.6433283063
 11
71.5998514202
 21
36.6433283063
  0
LINE
  5
272
100
AcDbEntity
  8
DEFAULT_2
100
AcDbLine
 62
8
  6
HIDDEN
 10
32.2111046047
 20
45.2155293057
 11
31.4665044196
 21
45.6144479065
  0
LINE
  5
273
100
AcDbEntity
  8
DEFAULT_2
100
AcDbLine
 62
8
  6
HIDDEN
 10
36.9085010588
 20
42.472509682
 11
36.1907273239
 21
42.9178930575
  0
LINE
  5
274
100
AcDbEntity
  8
DEFAULT_2
100
AcDbLine
 62
8
  6
HIDDEN
 10
29.0019805084
 20
76.4409645545
 11
28.9751540582
 21
77.2852665308
  0
LINE
  5
275
100
AcDbEntity
  8
DEFAULT_2
100
AcDbLine
 62
8
  6
HIDDEN
 10
29.0019805084
 20
132.4409645545
 11
28.9751540582
 21
133.2852665308
  0
LINE
  5
276
100
AcDbEntity
  8
DEFAULT_2
100
AcDbLine
 62
8
  6
HIDDEN
 10
33.7977223321
 20
15.8456920581
 11
33.8245487823
 21
15.0013900817
  0
LINE
  5
277
100
AcDbEntity
  8
DEFAULT_2
100
AcDbLine
 62
8
  6
HIDDEN
 10
33.0019805084
 20
48.4409645545
 11
32.9751540582
 21
49.2852665308
  0
LINE
  5
278
100
AcDbEntity
  8
A_ACHSEN
100
AcDbLine
 62
7
  6
CONTINUOUS
 10
31.3998514202
 20
29.5877727507
 11
31.3998514202
 21
28.6988838618
  0
LINE
  5
279
100
AcDbEntity
  8
A_ACHSEN
100
AcDbLine
 62
7
  6
CENTER
 10
31.3998514202
 20
8.9732201293
 11
31.3998514202
 21
27.3134364833
  0
LINE
  5
27A
100
AcDbEntity
  8
A_ACHSEN
100
AcDbLine
 62
7
  6
CENTER
 10
31.3998514202
 20
31.3655505285
 11
31.3998514202
 21
35.6433283063
  0
LINE
  5
27B
100
AcDbEntity
  8
A_ACHSEN
100
AcDbLine
 62
7
  6
CENTER
 10
31.3998514202
 20
67.3515985076
 11
31.3998514202
 21
80.9350581049
  0
LINE
  5
27C
100
AcDbEntity
  8
A_ACHSEN
100
AcDbLine
 62
7
  6
CENTER
 10
31.3998514202
 20
113.7852741833
 11
31.3998514202
 21
136.9405175643
  0
LINE
  5
27D
100
AcDbEntity
  8
DEFAULT_2
100
AcDbLine
 62
8
  6
HIDDEN
 10
28.9751540582
 20
71.0013900817
 11
29.0019805123
 21
71.8456921819
  0
LINE
  5
27E
100
AcDbEntity
  8
DEFAULT_2
100
AcDbLine
 62
8
  6
HIDDEN
 10
28.9751540582
 20
15.0013900817
 11
29.0019805084
 21
15.8456920581
  0
LINE
  5
27F
100
AcDbEntity
  8
DEFAULT_2
100
AcDbLine
 62
8
  6
HIDDEN
 10
33.8245487823
 20
133.2852665308
 11
33.7977223321
 21
132.4409645545
  0
LINE
  5
280
100
AcDbEntity
  8
DEFAULT_2
100
AcDbLine
 62
8
  6
HIDDEN
 10
32.9751540582
 20
99.0013900817
 11
33.0019805084
 21
99.8456920581
  0
LINE
  5
281
100
AcDbEntity
  8
DEFAULT_2
100
AcDbLine
 62
8
  6
HIDDEN
 10
34.6089755166
 20
98.9178930575
 11
33.8912017817
 21
98.472509682
  0
LINE
  5
282
100
AcDbEntity
  8
DEFAULT_2
100
AcDbLine
 62
8
  6
HIDDEN
 10
39.3331984208
 20
101.6144479065
 11
38.5885980608
 21
101.2155292119
  0
LINE
  5
283
100
AcDbEntity
  8
DEFAULT_2
100
AcDbLine
 62
8
  6
HIDDEN
 10
38.5885982358
 20
47.0711273069
 11
39.3331984208
 21
46.672208706
  0
LINE
  5
284
100
AcDbEntity
  8
DEFAULT_2
100
AcDbLine
 62
8
  6
HIDDEN
 10
33.8912017817
 20
49.8141469306
 11
34.6089755166
 21
49.368763555
  0
LINE
  5
285
100
AcDbEntity
  8
DEFAULT_2
100
AcDbLine
 62
8
  6
HIDDEN
 10
33.7977223321
 20
71.8456920581
 11
33.8245487823
 21
71.0013900817
  0
LINE
  5
286
100
AcDbEntity
  8
DEFAULT_2
100
AcDbLine
 62
8
  6
HIDDEN
 10
33.0019805084
 20
104.4409645545
 11
32.9751540582
 21
105.2852665308
  0
LINE
  5
287
100
AcDbEntity
  8
DEFAULT_2
100
AcDbLine
 62
8
  6
HIDDEN
 10
33.7977223321
 20
127.8456920581
 11
33.8245487823
 21
127.0013900817
  0
LINE
  5
288
100
AcDbEntity
  8
DEFAULT_2
100
AcDbLine
 62
8
  6
HIDDEN
 10
37.7977223321
 20
43.8456920581
 11
37.8245487823
 21
43.0013900817
  0
LINE
  5
289
100
AcDbEntity
  8
DEFAULT_2
100
AcDbLine
 62
8
  6
HIDDEN
 10
37.7977223321
 20
99.8456920581
 11
37.8245487823
 21
99.0013900817
  0
LINE
  5
28A
100
AcDbEntity
  8
A_ACHSEN
100
AcDbLine
 62
7
  6
CENTER
 10
35.3998514202
 20
38.4867336428
 11
35.3998514202
 21
53.7999229697
  0
LINE
  5
28B
100
AcDbEntity
  8
A_ACHSEN
100
AcDbLine
 62
7
  6
CENTER
 10
35.3998514202
 20
94.4867336428
 11
35.3998514202
 21
109.7999229697
  0
LINE
  5
28C
100
AcDbEntity
  8
DEFAULT_2
100
AcDbLine
 62
8
  6
HIDDEN
 10
33.8245487823
 20
77.2852665308
 11
33.797722327
 21
76.4409643927
  0
LINE
  5
28D
100
AcDbEntity
  8
DEFAULT_2
100
AcDbLine
 62
8
  6
HIDDEN
 10
32.9751540582
 20
43.0013900817
 11
33.0019805084
 21
43.8456920581
  0
LINE
  5
28E
100
AcDbEntity
  8
DEFAULT_2
100
AcDbLine
 62
8
  6
HIDDEN
 10
33.8245487823
 20
21.2852665308
 11
33.7977223321
 21
20.4409645545
  0
LINE
  5
28F
100
AcDbEntity
  8
DEFAULT_2
100
AcDbLine
 62
8
  6
HIDDEN
 10
37.8245487823
 20
105.2852665308
 11
37.7977223321
 21
104.4409645545
  0
LINE
  5
290
100
AcDbEntity
  8
DEFAULT_2
100
AcDbLine
 62
8
  6
HIDDEN
 10
37.8245487823
 20
49.2852665308
 11
37.7977223321
 21
48.4409645545
  0
LINE
  5
291
100
AcDbEntity
  8
A_ACHSEN
100
AcDbLine
 62
7
  6
CENTER
 10
27.7432567568
 20
46.1433283063
 11
43.0564460837
 21
46.1433283063
  0
LINE
  5
292
100
AcDbEntity
  8
0
100
AcDbLine
 62
7
  6
CONTINUOUS
 10
87.4451508819
 20
47.1433283063
 11
89.7545519586
 21
47.1433283063
  0
LINE
  5
293
100
AcDbEntity
  8
0
100
AcDbLine
 62
7
  6
CONTINUOUS
 10
43.3998514202
 20
6.1433283063
 11
43.3998514202
 21
142.1433283063
  0
LINE
  5
294
100
AcDbEntity
  8
0
100
AcDbLine
 62
3
  6
CONTINUOUS
 10
43.8998514202
 20
4.1433283063
 11
43.8998514202
 21
35.7433283063
  0
LINE
  5
295
100
AcDbEntity
  8
A_RUNDUNGEN
100
AcDbLine
 62
3
  6
CONTINUOUS
 10
43.8998514202
 20
35.7433283063
 11
43.8998514202
 21
112.5433283063
  0
LINE
  5
296
100
AcDbEntity
  8
0
100
AcDbLine
 62
3
  6
CONTINUOUS
 10
43.8998514202
 20
112.5433283063
 11
43.8998514202
 21
144.1433283063
  0
LINE
  5
297
100
AcDbEntity
  8
0
100
AcDbLine
 62
7
  6
CONTINUOUS
 10
88.5998514202
 20
115.452729383
 11
86.5998514202
 21
114.2980288446
  0
LINE
  5
298
100
AcDbEntity
  8
A_ACHSEN
100
AcDbLine
 62
7
  6
CENTER
 10
80.358681145
 20
49.1433283063
 11
96.8410216955
 21
49.1433283063
  0
LINE
  5
299
100
AcDbEntity
  8
0
100
AcDbLine
 62
7
  6
CONTINUOUS
 10
89.7545519586
 20
51.1433283063
 11
87.4451508819
 21
51.1433283063
  0
LINE
  5
29A
100
AcDbEntity
  8
0
100
AcDbLine
 62
7
  6
CONTINUOUS
 10
86.5998514202
 20
33.9886277679
 11
88.5998514202
 21
32.8339272295
  0
LINE
  5
29B
100
AcDbEntity
  8
A_RUNDUNGEN
100
AcDbLine
 62
7
  6
CONTINUOUS
 10
47.3998514202
 20
112.5433283063
 11
47.3998514202
 21
35.7433283063
  0
LINE
  5
29C
100
AcDbEntity
  8
0
100
AcDbLine
 62
7
  6
CONTINUOUS
 10
47.5998514202
 20
36.6433283063
 11
47.5998514202
 21
111.6433283063
  0
LINE
  5
29D
100
AcDbEntity
  8
A_ACHSEN
100
AcDbLine
 62
7
  6
CONTINUOUS
 10
49.1248514202
 20
112.2433283063
 11
49.1248514202
 21
111.6433283063
  0
LINE
  5
29E
100
AcDbEntity
  8
A_ACHSEN
100
AcDbLine
 62
7
  6
CONTINUOUS
 10
49.1248514202
 20
36.0433283063
 11
49.1248514202
 21
36.6433283063
  0
LINE
  5
29F
100
AcDbEntity
  8
DEFAULT_2
100
AcDbLine
 62
8
  6
HIDDEN
 10
32.1907273239
 20
77.368763555
 11
32.9085010588
 21
77.8141469306
  0
LINE
  5
2A0
100
AcDbEntity
  8
DEFAULT_2
100
AcDbLine
 62
8
  6
HIDDEN
 10
30.6089755166
 20
70.9178930575
 11
29.8912017817
 21
70.472509682
  0
LINE
  5
2A1
100
AcDbEntity
  8
0
100
AcDbLine
 62
7
  6
CONTINUOUS
 10
88.5998514202
 20
110.8339272295
 11
90.5998514202
 21
111.9886277679
  0
LINE
  5
2A2
100
AcDbEntity
  8
DEFAULT_2
100
AcDbLine
 62
8
  6
HIDDEN
 10
27.4665043267
 20
74.6722086562
 11
28.2111047283
 21
75.0711273731
  0
LINE
  5
2A3
100
AcDbEntity
  8
DEFAULT_2
100
AcDbLine
 62
8
  6
HIDDEN
 10
28.2111046047
 20
73.2155293057
 11
27.4665044196
 21
73.6144479065
  0
LINE
  5
2A4
100
AcDbEntity
  8
0
100
AcDbLine
 62
7
  6
CONTINUOUS
 10
90.5998514202
 20
36.2980288446
 11
88.5998514202
 21
37.452729383
  0
LINE
  5
2A5
100
AcDbEntity
  8
DEFAULT_2
100
AcDbLine
 62
8
  6
HIDDEN
 10
32.9085010588
 20
70.472509682
 11
32.1907273239
 21
70.9178930575
  0
LINE
  5
2A6
100
AcDbEntity
  8
DEFAULT_2
100
AcDbLine
 62
8
  6
HIDDEN
 10
29.8912016837
 20
77.8141469913
 11
30.6089756588
 21
77.3687634668
  0
LINE
  5
2A7
100
AcDbEntity
  8
A_ACHSEN
100
AcDbLine
 62
7
  6
CONTINUOUS
 10
52.5998514202
 20
112.5433283063
 11
52.5998514202
 21
112.2433283063
  0
LINE
  5
2A8
100
AcDbEntity
  8
A_ACHSEN
100
AcDbLine
 62
7
  6
CONTINUOUS
 10
52.5998514202
 20
36.0433283063
 11
52.5998514202
 21
35.7433283063
  0
LINE
  5
2A9
100
AcDbEntity
  8
DEFAULT_2
100
AcDbLine
 62
8
  6
HIDDEN
 10
35.3331984208
 20
73.6144479065
 11
34.5885982358
 21
73.2155293057
  0
LINE
  5
2AA
100
AcDbEntity
  8
DEFAULT_2
100
AcDbLine
 62
8
  6
HIDDEN
 10
34.5885982792
 20
75.0711272836
 11
35.3331984208
 21
74.672208706
  0
LINE
  5
2AB
100
AcDbEntity
  8
A_ACHSEN
100
AcDbLine
 62
7
  6
CENTER
 10
57.5998514202
 20
0.9746689388
 11
57.5998514202
 21
49.419527027
  0
LINE
  5
2AC
100
AcDbEntity
  8
A_ACHSEN
100
AcDbLine
 62
7
  6
CENTER
 10
57.5998514202
 20
58.9676351351
 11
57.5998514202
 21
147.3119876737
  0
LINE
  5
2AD
100
AcDbEntity
  8
A_RUNDUNGEN
100
AcDbLine
 62
7
  6
CONTINUOUS
 10
88.4950244201
 20
68.1377934912
 11
94.6334410851
 21
68.0283033708
  0
LINE
  5
2AE
100
AcDbEntity
  8
A_ACHSEN
100
AcDbLine
 62
7
  6
CONTINUOUS
 10
62.5998514202
 20
112.5433283063
 11
62.5998514202
 21
112.2433283063
  0
LINE
  5
2AF
100
AcDbEntity
  8
A_ACHSEN
100
AcDbLine
 62
7
  6
CONTINUOUS
 10
62.5998514202
 20
36.0433283063
 11
62.5998514202
 21
35.7433283063
  0
LINE
  5
2B0
100
AcDbEntity
  8
A_ACHSEN
100
AcDbLine
 62
7
  6
CONTINUOUS
 10
66.0748514202
 20
112.2433283063
 11
66.0748514202
 21
111.6433283063
  0
LINE
  5
2B1
100
AcDbEntity
  8
A_ACHSEN
100
AcDbLine
 62
7
  6
CONTINUOUS
 10
66.0748514202
 20
36.0433283063
 11
66.0748514202
 21
36.6433283063
  0
LINE
  5
2B2
100
AcDbEntity
  8
0
100
AcDbLine
 62
7
  6
CONTINUOUS
 10
87.4451508819
 20
72.1433283063
 11
89.7545519586
 21
72.1433283063
  0
LINE
  5
2B3
100
AcDbEntity
  8
A_ACHSEN
100
AcDbLine
 62
7
  6
CENTER
 10
19.6351486486
 20
74.1433283063
 11
107.5998514202
 21
74.1433283063
  0
LINE
  5
2B4
100
AcDbEntity
  8
0
100
AcDbLine
 62
3
  6
CONTINUOUS
 10
67.5248514202
 20
4.1433283063
 11
67.5248514202
 21
35.7433283063
  0
LINE
  5
2B5
100
AcDbEntity
  8
0
100
AcDbLine
 62
3
  6
CONTINUOUS
 10
67.5248514202
 20
112.5433283063
 11
67.5248514202
 21
144.1433283063
  0
LINE
  5
2B6
100
AcDbEntity
  8
0
100
AcDbLine
 62
7
  6
CONTINUOUS
 10
67.5993728134
 20
36.6433283063
 11
67.5993728134
 21
111.6433283063
  0
LINE
  5
2B7
100
AcDbEntity
  8
A_RUNDUNGEN
100
AcDbLine
 62
7
  6
CONTINUOUS
 10
71.5998514202
 20
18.6435757558
 11
71.5998514202
 21
129.6430808271
  0
LINE
  5
2B8
100
AcDbEntity
  8
0
100
AcDbLine
 62
7
  6
CONTINUOUS
 10
87.4451508819
 20
101.1433283063
 11
86.2904503435
 21
99.1433283063
  0
LINE
  5
2B9
100
AcDbEntity
  8
A_RUNDUNGEN
100
AcDbLine
 62
7
  6
CONTINUOUS
 10
71.6877193859
 20
73.7311962719
 11
71.8877193859
 21
73.9311962719
  0
LINE
  5
2BA
100
AcDbEntity
  8
DEFAULT_2
100
AcDbLine
 62
8
  6
HIDDEN
 10
36.1907273239
 20
49.368763555
 11
36.9085010588
 21
49.8141469306
  0
LINE
  5
2BB
100
AcDbEntity
  8
A_RUNDUNGEN
100
AcDbLine
 62
7
  6
CONTINUOUS
 10
94.6334410851
 20
80.2583532418
 11
88.4950244201
 21
80.1488631213
  0
LINE
  5
2BC
100
AcDbEntity
  8
0
100
AcDbLine
 62
7
  6
CONTINUOUS
 10
89.7545519586
 20
76.1433283063
 11
87.4451508819
 21
76.1433283063
  0
LINE
  5
2BD
100
AcDbEntity
  8
DEFAULT_2
100
AcDbLine
 62
8
  6
HIDDEN
 10
36.9085011296
 20
98.472509638
 11
36.1907273239
 21
98.9178930575
  0
LINE
  5
2BE
100
AcDbEntity
  8
A_RUNDUNGEN
100
AcDbLine
 62
7
  6
CONTINUOUS
 10
71.8877193859
 20
74.3554603406
 11
71.6877193859
 21
74.5554603406
  0
LINE
  5
2BF
100
AcDbEntity
  8
0
100
AcDbLine
 62
7
  6
CONTINUOUS
 10
86.2904503435
 20
49.1433283063
 11
87.4451508819
 21
47.1433283063
  0
LINE
  5
2C0
100
AcDbEntity
  8
A_RUNDUNGEN
100
AcDbLine
 62
7
  6
CONTINUOUS
 10
72.5998514202
 20
126.2814219779
 11
72.5998514202
 21
109.8840267839
  0
LINE
  5
2C1
100
AcDbEntity
  8
A_RUNDUNGEN
100
AcDbLine
 62
7
  6
CONTINUOUS
 10
72.5998514202
 20
38.6974390075
 11
72.5998514202
 21
22.1348826252
  0
LINE
  5
2C2
100
AcDbEntity
  8
A_RUNDUNGEN
100
AcDbLine
 62
7
  6
CONTINUOUS
 10
72.5998514202
 20
18.1435896567
 11
72.5998514202
 21
21.7306723179
  0
LINE
  5
2C3
100
AcDbEntity
  8
A_RUNDUNGEN
100
AcDbLine
 62
7
  6
CONTINUOUS
 10
72.5998514202
 20
38.7115553759
 11
72.5998514202
 21
109.5751012366
  0
LINE
  5
2C4
100
AcDbEntity
  8
A_RUNDUNGEN
100
AcDbLine
 62
7
  6
CONTINUOUS
 10
72.5998514202
 20
126.5559842947
 11
72.5998514202
 21
130.1430669558
  0
LINE
  5
2C5
100
AcDbEntity
  8
0
100
AcDbLine
 62
7
  6
CONTINUOUS
 10
74.5998514202
 20
19.7469417164
 11
74.5998514202
 21
20.7796073296
  0
LINE
  5
2C6
100
AcDbEntity
  8
0
100
AcDbLine
 62
7
  6
CONTINUOUS
 10
74.5998514202
 20
22.5356562288
 11
74.5998514202
 21
24.5680882362
  0
LINE
  5
2C7
100
AcDbEntity
  8
0
100
AcDbLine
 62
7
  6
CONTINUOUS
 10
74.5998514202
 20
123.7185683763
 11
74.5998514202
 21
125.7510003837
  0
LINE
  5
2C8
100
AcDbEntity
  8
0
100
AcDbLine
 62
7
  6
CONTINUOUS
 10
74.5998514202
 20
127.5070492829
 11
74.5998514202
 21
128.5635949424
  0
LINE
  5
2C9
100
AcDbEntity
  8
0
100
AcDbLine
 62
7
  6
CONTINUOUS
 10
89.7545519586
 20
97.1433283063
 11
90.909252497
 21
99.1433283063
  0
LINE
  5
2CA
100
AcDbEntity
  8
A_RUNDUNGEN
100
AcDbLine
 62
7
  6
CONTINUOUS
 10
97.1138029331
 20
93.7184165304
 11
107.0685495125
 21
104.5837639041
  0
LINE
  5
2CB
100
AcDbEntity
  8
DEFAULT_2
100
AcDbLine
 62
8
  6
HIDDEN
 10
34.6089755166
 20
42.9178930575
 11
33.8912017817
 21
42.472509682
  0
LINE
  5
2CC
100
AcDbEntity
  8
DEFAULT_2
100
AcDbLine
 62
8
  6
HIDDEN
 10
31.4665044196
 20
46.672208706
 11
32.2111046047
 21
47.0711273069
  0
LINE
  5
2CD
100
AcDbEntity
  8
DEFAULT_2
100
AcDbLine
 62
8
  6
HIDDEN
 10
32.2111046047
 20
101.2155293057
 11
31.4665044196
 21
101.6144479065
  0
LINE
  5
2CE
100
AcDbEntity
  8
DEFAULT_2
100
AcDbLine
 62
8
  6
HIDDEN
 10
33.8912017464
 20
105.8141469525
 11
34.6089755166
 21
105.368763555
  0
LINE
  5
2CF
100
AcDbEntity
  8
A_RUNDUNGEN
100
AcDbLine
 62
7
  6
CONTINUOUS
 10
107.0685495125
 20
43.7028927084
 11
97.1138029331
 21
54.5682400821
  0
LINE
  5
2D0
100
AcDbEntity
  8
0
100
AcDbLine
 62
7
  6
CONTINUOUS
 10
90.909252497
 20
49.1433283063
 11
89.7545519586
 21
51.1433283063
  0
LINE
  5
2D1
100
AcDbEntity
  8
DEFAULT_2
100
AcDbLine
 62
8
  6
HIDDEN
 10
39.3331984208
 20
45.6144479065
 11
38.5885982358
 21
45.2155293057
  0
LINE
  5
2D2
100
AcDbEntity
  8
DEFAULT_2
100
AcDbLine
 62
8
  6
HIDDEN
 10
38.5885982358
 20
103.0711273069
 11
39.3331984208
 21
102.672208706
  0
LINE
  5
2D3
100
AcDbEntity
  8
A_RUNDUNGEN
100
AcDbLine
 62
7
  6
CONTINUOUS
 10
85.6003083348
 20
126.0909710869
 11
85.557350057
 21
128.5520491727
  0
LINE
  5
2D4
100
AcDbEntity
  8
0
100
AcDbLine
 62
7
  6
CONTINUOUS
 10
82.5998514202
 20
19.7469417164
 11
82.5998514202
 21
20.7796073296
  0
LINE
  5
2D5
100
AcDbEntity
  8
0
100
AcDbLine
 62
7
  6
CONTINUOUS
 10
82.5998514202
 20
22.5356562288
 11
82.5998514202
 21
24.5680882362
  0
LINE
  5
2D6
100
AcDbEntity
  8
0
100
AcDbLine
 62
7
  6
CONTINUOUS
 10
82.5998514202
 20
123.7185683763
 11
82.5998514202
 21
125.7510003837
  0
LINE
  5
2D7
100
AcDbEntity
  8
0
100
AcDbLine
 62
7
  6
CONTINUOUS
 10
82.5998514202
 20
127.5070492829
 11
82.5998514202
 21
128.5635949424
  0
LINE
  5
2D8
100
AcDbEntity
  8
0
100
AcDbLine
 62
7
  6
CONTINUOUS
 10
86.5998514202
 20
114.2980288446
 11
86.5998514202
 21
111.9886277679
  0
LINE
  5
2D9
100
AcDbEntity
  8
0
100
AcDbLine
 62
7
  6
CONTINUOUS
 10
86.5998514202
 20
36.2980288446
 11
86.5998514202
 21
33.9886277679
  0
LINE
  5
2DA
100
AcDbEntity
  8
A_RUNDUNGEN
100
AcDbLine
 62
7
  6
CONTINUOUS
 10
85.557350057
 20
19.7346074398
 11
85.6003083348
 21
22.1956855256
  0
LINE
  5
2DB
100
AcDbEntity
  8
0
100
AcDbLine
 62
7
  6
CONTINUOUS
 10
87.4451508819
 20
76.1433283063
 11
86.2904503435
 21
74.1433283063
  0
LINE
  5
2DC
100
AcDbEntity
  8
0
100
AcDbLine
 62
7
  6
CONTINUOUS
 10
89.7545519586
 20
72.1433283063
 11
90.909252497
 21
74.1433283063
  0
LINE
  5
2DD
100
AcDbEntity
  8
0
100
AcDbLine
 62
7
  6
CONTINUOUS
 10
86.2904503435
 20
74.1433283063
 11
87.4451508819
 21
72.1433283063
  0
LINE
  5
2DE
100
AcDbEntity
  8
0
100
AcDbLine
 62
7
  6
CONTINUOUS
 10
90.909252497
 20
74.1433283063
 11
89.7545519586
 21
76.1433283063
  0
LINE
  5
2DF
100
AcDbEntity
  8
A_RUNDUNGEN
100
AcDbLine
 62
7
  6
CONTINUOUS
 10
91.5993945057
 20
22.1956855256
 11
91.6423527835
 21
19.7346074398
  0
LINE
  5
2E0
100
AcDbEntity
  8
A_ACHSEN
100
AcDbLine
 62
7
  6
CENTER
 10
88.4998514202
 20
63.8508370087
 11
88.4998514202
 21
83.4455038891
  0
LINE
  5
2E1
100
AcDbEntity
  8
A_ACHSEN
100
AcDbLine
 62
7
  6
CENTER
 10
88.5998514202
 20
128.3655505285
 11
88.5998514202
 21
126.7824723803
  0
LINE
  5
2E2
100
AcDbEntity
  8
A_ACHSEN
100
AcDbLine
 62
7
  6
CONTINUOUS
 10
88.5998514202
 20
126.5877727507
 11
88.5998514202
 21
125.6988838618
  0
LINE
  5
2E3
100
AcDbEntity
  8
DEFAULT_1
100
AcDbLine
 62
7
  6
CENTER
 10
88.5998514202
 20
115.3655505285
 11
88.5998514202
 21
103.4873106697
  0
LINE
  5
2E4
100
AcDbEntity
  8
A_ACHSEN
100
AcDbLine
 62
7
  6
CONTINUOUS
 10
88.5998514202
 20
22.5877727507
 11
88.5998514202
 21
21.6988838618
  0
LINE
  5
2E5
100
AcDbEntity
  8
A_ACHSEN
100
AcDbLine
 62
7
  6
CENTER
 10
88.5998514202
 20
19.921106084
 11
88.5998514202
 21
19.1432283063
  0
LINE
  5
2E6
100
AcDbEntity
  8
A_ACHSEN
100
AcDbLine
 62
7
  6
CENTER
 10
88.5998514202
 20
24.3655505285
 11
88.5998514202
 21
25.1434283063
  0
LINE
  5
2E7
100
AcDbEntity
  8
DEFAULT_1
100
AcDbLine
 62
7
  6
CENTER
 10
88.5998514202
 20
25.8943215544
 11
88.5998514202
 21
44.3923350581
  0
LINE
  5
2E8
100
AcDbEntity
  8
A_ACHSEN
100
AcDbLine
 62
7
  6
CENTER
 10
88.5998514202
 20
40.902158031
 11
88.5998514202
 21
57.3844985815
  0
LINE
  5
2E9
100
AcDbEntity
  8
A_ACHSEN
100
AcDbLine
 62
7
  6
CENTER
 10
88.5998514202
 20
90.9603024431
 11
88.5998514202
 21
107.3263541694
  0
LINE
  5
2EA
100
AcDbEntity
  8
A_ACHSEN
100
AcDbLine
 62
7
  6
CENTER
 10
88.5998514202
 20
123.921106084
 11
88.5998514202
 21
125.6195841382
  0
LINE
  5
2EB
100
AcDbEntity
  8
0
100
AcDbLine
 62
7
  6
CONTINUOUS
 10
90.5998514202
 20
33.9886277679
 11
90.5998514202
 21
36.2980288446
  0
LINE
  5
2EC
100
AcDbEntity
  8
0
100
AcDbLine
 62
7
  6
CONTINUOUS
 10
90.5998514202
 20
111.9886277679
 11
90.5998514202
 21
114.2980288446
  0
LINE
  5
2ED
100
AcDbEntity
  8
A_RUNDUNGEN
100
AcDbLine
 62
7
  6
CONTINUOUS
 10
91.6423527835
 20
128.5520491727
 11
91.5993945057
 21
126.0909710869
  0
LINE
  5
2EE
100
AcDbEntity
  8
DEFAULT_2
100
AcDbLine
 62
8
  6
HIDDEN
 10
32.1907273239
 20
21.368763555
 11
32.9085010588
 21
21.8141469306
  0
LINE
  5
2EF
100
AcDbEntity
  8
0
100
AcDbLine
 62
7
  6
CONTINUOUS
 10
87.4451508819
 20
97.1433283063
 11
89.7545519586
 21
97.1433283063
  0
LINE
  5
2F0
100
AcDbEntity
  8
A_ACHSEN
100
AcDbLine
 62
7
  6
CONTINUOUS
 10
88.4538595725
 20
99.1433283063
 11
88.1554069758
 21
99.1433283063
  0
LINE
  5
2F1
100
AcDbEntity
  8
A_ACHSEN
100
AcDbLine
 62
7
  6
CENTER
 10
87.2132441879
 20
99.1433283063
 11
80.4168255571
 21
99.1433283063
  0
LINE
  5
2F2
100
AcDbEntity
  8
A_ACHSEN
100
AcDbLine
 62
7
  6
CENTER
 10
88.4538595725
 20
99.1433283063
 11
96.7828772834
 21
99.1433283063
  0
LINE
  5
2F3
100
AcDbEntity
  8
0
100
AcDbLine
 62
7
  6
CONTINUOUS
 10
89.7545519586
 20
101.1433283063
 11
87.4451508819
 21
101.1433283063
  0
LINE
  5
2F4
100
AcDbEntity
  8
DEFAULT_2
100
AcDbLine
 62
8
  6
HIDDEN
 10
32.9085010588
 20
126.472509682
 11
32.1907273239
 21
126.9178930575
  0
LINE
  5
2F5
100
AcDbEntity
  8
A_RUNDUNGEN
100
AcDbLine
 62
7
  6
CONTINUOUS
 10
96.5903114688
 20
55.9146244011
 11
96.5903114688
 21
66.0354833277
  0
LINE
  5
2F6
100
AcDbEntity
  8
A_RUNDUNGEN
100
AcDbLine
 62
7
  6
CONTINUOUS
 10
96.5903114688
 20
82.2511732848
 11
96.5903114688
 21
92.3720322114
  0
LINE
  5
2F7
100
AcDbEntity
  8
0
100
AcDbLine
 62
7
  6
CONTINUOUS
 10
87.4451508819
 20
51.1433283063
 11
86.2904503435
 21
49.1433283063
  0
LINE
  5
2F8
100
AcDbEntity
  8
DEFAULT_2
100
AcDbLine
 62
8
  6
HIDDEN
 10
30.6089755166
 20
14.9178930575
 11
29.8912017817
 21
14.472509682
  0
LINE
  5
2F9
100
AcDbEntity
  8
DEFAULT_2
100
AcDbLine
 62
8
  6
HIDDEN
 10
27.4665044196
 20
18.672208706
 11
28.2111046047
 21
19.0711273069
  0
LINE
  5
2FA
100
AcDbEntity
  8
A_ACHSEN
100
AcDbLine
 62
7
  6
CENTER
 10
27.7432567568
 20
102.1433283063
 11
43.0564460837
 21
102.1433283063
  0
LINE
  5
2FB
100
AcDbEntity
  8
DEFAULT_2
100
AcDbLine
 62
8
  6
HIDDEN
 10
28.2111046047
 20
129.2155293057
 11
27.4665044196
 21
129.6144479065
  0
LINE
  5
2FC
100
AcDbEntity
  8
DEFAULT_2
100
AcDbLine
 62
8
  6
HIDDEN
 10
29.8912017817
 20
133.8141469306
 11
30.6089758209
 21
133.3687633662
  0
LINE
  5
2FD
100
AcDbEntity
  8
0
100
AcDbLine
 62
7
  6
CONTINUOUS
 10
86.2904503435
 20
99.1433283063
 11
87.4451508819
 21
97.1433283063
  0
LINE
  5
2FE
100
AcDbEntity
  8
0
100
AcDbLine
 62
7
  6
CONTINUOUS
 10
101.0998514202
 20
98.0690849392
 11
101.0998514202
 21
50.2175716733
  0
LINE
  5
2FF
100
AcDbEntity
  8
0
100
AcDbLine
 62
7
  6
CONTINUOUS
 10
89.7545519586
 20
47.1433283063
 11
90.909252497
 21
49.1433283063
  0
LINE
  5
300
100
AcDbEntity
  8
DEFAULT_2
100
AcDbLine
 62
8
  6
HIDDEN
 10
35.3331984208
 20
17.6144479065
 11
34.5885982358
 21
17.2155293057
  0
LINE
  5
301
100
AcDbEntity
  8
A_RUNDUNGEN
100
AcDbLine
 62
7
  6
CONTINUOUS
 10
72.2998514202
 20
109.5839810855
 11
72.5998514202
 21
109.5839810855
  0
LINE
  5
302
100
AcDbEntity
  8
0
100
AcDbLine
 62
7
  6
CONTINUOUS
 10
67.5993728134
 20
111.6433283063
 11
47.5994957448
 21
111.6433283063
  0
LINE
  5
303
100
AcDbEntity
  8
0
100
AcDbLine
 62
3
  6
CONTINUOUS
 10
67.5993728134
 20
111.6433283063
 11
67.840592161
 21
111.6433283063
  0
LINE
  5
304
100
AcDbEntity
  8
A_RUNDUNGEN
100
AcDbLine
 62
3
  6
CONTINUOUS
 10
67.840592161
 20
111.6433283063
 11
71.5998514202
 21
111.6433283063
  0
LINE
  5
305
100
AcDbEntity
  8
A_ACHSEN
100
AcDbLine
 62
7
  6
CONTINUOUS
 10
49.1248520086
 20
112.2433283063
 11
66.0748508319
 21
112.2433283063
  0
LINE
  5
306
100
AcDbEntity
  8
0
100
AcDbLine
 62
3
  6
CONTINUOUS
 10
43.8998514202
 20
112.5433283063
 11
67.5249136353
 21
112.5433283063
  0
LINE
  5
307
100
AcDbEntity
  8
DEFAULT_2
100
AcDbLine
 62
8
  6
HIDDEN
 10
34.5885982358
 20
131.0711273069
 11
35.3331984208
 21
130.672208706
  0
LINE
  5
308
100
AcDbEntity
  8
0
100
AcDbLine
 62
7
  6
CONTINUOUS
 10
90.909252497
 20
99.1433283063
 11
89.7545519586
 21
101.1433283063
  0
LINE
  5
309
100
AcDbEntity
  8
A_RUNDUNGEN
100
AcDbLine
 62
3
  6
CONTINUOUS
 10
104.5998514202
 20
47.1433283063
 11
104.5998514202
 21
101.1433283063
  0
LINE
  5
30A
100
AcDbEntity
  8
A_RUNDUNGEN
100
AcDbLine
 62
7
  6
CONTINUOUS
 10
107.5998514202
 20
19.7433283063
 11
107.5998514202
 21
128.5433283063
  0
LINE
  5
30B
100
AcDbEntity
  8
0
100
AcDbLine
 62
7
  6
CONTINUOUS
 10
88.5998514202
 20
37.452729383
 11
86.5998514202
 21
36.2980288446
  0
LINE
  5
30C
100
AcDbEntity
  8
DEFAULT_1
100
AcDbLine
 62
7
  6
CENTER
 10
78.9438337837
 20
113.1433283063
 11
98.2558690568
 21
113.1433283063
  0
LINE
  5
30D
100
AcDbEntity
  8
0
100
AcDbLine
 62
7
  6
CONTINUOUS
 10
86.5998514202
 20
111.9886277679
 11
88.5998514202
 21
110.8339272295
  0
LINE
  5
30E
100
AcDbEntity
  8
0
100
AcDbLine
 62
7
  6
CONTINUOUS
 10
88.5998514202
 20
32.8339272295
 11
90.5998514202
 21
33.9886277679
  0
LINE
  5
30F
100
AcDbEntity
  8
A_ACHSEN
100
AcDbLine
 62
7
  6
CENTER
 10
26.0417972973
 20
119.1433283063
 11
36.7579055432
 21
119.1433283063
  0
LINE
  5
310
100
AcDbEntity
  8
0
100
AcDbLine
 62
7
  6
CONTINUOUS
 10
74.5998514202
 20
123.71856838
 11
82.5998514202
 21
123.71856838
  0
LINE
  5
311
100
AcDbEntity
  8
0
100
AcDbLine
 62
7
  6
CONTINUOUS
 10
90.5998514202
 20
114.2980288446
 11
88.5998514202
 21
115.452729383
  0
LINE
  5
312
100
AcDbEntity
  8
0
100
AcDbLine
 62
7
  6
CONTINUOUS
 10
74.5998514202
 20
125.0658808879
 11
82.5998514202
 21
125.0658808879
  0
LINE
  5
313
100
AcDbEntity
  8
0
100
AcDbLine
 62
7
  6
CONTINUOUS
 10
74.5998514202
 20
125.7510003747
 11
82.5998514202
 21
125.7510003747
  0
LINE
  5
314
100
AcDbEntity
  8
A_ACHSEN
100
AcDbLine
 62
7
  6
CENTER
 10
90.8220736425
 20
126.1433283063
 11
88.9446726663
 21
126.1433283063
  0
LINE
  5
315
100
AcDbEntity
  8
A_ACHSEN
100
AcDbLine
 62
7
  6
CONTINUOUS
 10
88.9446726663
 20
126.1433283063
 11
88.1554069758
 21
126.1433283063
  0
LINE
  5
316
100
AcDbEntity
  8
A_ACHSEN
100
AcDbLine
 62
7
  6
CENTER
 10
86.377629198
 20
126.1433283063
 11
87.6267326585
 21
126.1433283063
  0
LINE
  5
317
100
AcDbEntity
  8
A_RUNDUNGEN
100
AcDbLine
 62
7
  6
CONTINUOUS
 10
72.2998514202
 20
126.5559842947
 11
72.5998514202
 21
126.5559842947
  0
LINE
  5
318
100
AcDbEntity
  8
0
100
AcDbLine
 62
7
  6
CONTINUOUS
 10
74.5998514202
 20
127.5070492883
 11
82.5998514202
 21
127.5070492883
  0
LINE
  5
319
100
AcDbEntity
  8
0
100
AcDbLine
 62
7
  6
CONTINUOUS
 10
74.5998514202
 20
128.5397148961
 11
82.5998514202
 21
128.5397148961
  0
LINE
  5
31A
100
AcDbEntity
  8
0
100
AcDbLine
 62
7
  6
CONTINUOUS
 10
74.5998514202
 20
128.5635949426
 11
82.5998514202
 21
128.5635949426
  0
LINE
  5
31B
100
AcDbEntity
  8
0
100
AcDbLine
 62
7
  6
CONTINUOUS
 10
72.5998514202
 20
129.0433283063
 11
85.0573499407
 21
129.0433283063
  0
LINE
  5
31C
100
AcDbEntity
  8
0
100
AcDbLine
 62
7
  6
CONTINUOUS
 10
92.1423528998
 20
129.0433283063
 11
107.0998514202
 21
129.0433283063
  0
LINE
  5
31D
100
AcDbEntity
  8
0
100
AcDbLine
 62
7
  6
CONTINUOUS
 10
72.5998514202
 20
130.1433283063
 11
72.0998514202
 21
130.1433283063
  0
LINE
  5
31E
100
AcDbEntity
  8
A_ACHSEN
100
AcDbLine
 62
7
  6
CENTER
 10
24.6026621622
 20
130.1433283063
 11
38.1970406783
 21
130.1433283063
  0
LINE
  5
31F
100
AcDbEntity
  8
0
100
AcDbLine
 62
3
  6
CONTINUOUS
 10
43.3998514202
 20
139.6433283063
 11
43.8998514202
 21
139.6433283063
  0
LINE
  5
320
100
AcDbEntity
  8
0
100
AcDbLine
 62
7
  6
CONTINUOUS
 10
37.3998514202
 20
144.1433283063
 11
33.3998514202
 21
144.1433283063
  0
LINE
  5
321
100
AcDbEntity
  8
0
100
AcDbLine
 62
3
  6
CONTINUOUS
 10
43.8998514202
 20
144.1433283063
 11
67.5249136353
 21
144.1433283063
  0
CIRCLE
  5
322
100
AcDbEntity
  8
A_ACHSEN
100
AcDbCircle
 62
8
  6
HIDDEN
 10
31.3998514202
 20
18.1433283063
 40
5.25
  0
CIRCLE
  5
323
100
AcDbEntity
  8
A_ACHSEN
100
AcDbCircle
 62
7
  6
CONTINUOUS
 10
31.3998514202
 20
29.1433283063
 40
3.5
  0
CIRCLE
  5
324
100
AcDbEntity
  8
A_ACHSEN
100
AcDbCircle
 62
7
  6
CONTINUOUS
 10
31.3998514202
 20
29.1433283063
 40
2.5
  0
CIRCLE
  5
325
100
AcDbEntity
  8
A_ACHSEN
100
AcDbCircle
 62
3
  6
CONTINUOUS
 10
31.3998514202
 20
29.1433283063
 40
2.0
  0
ARC
  5
326
100
AcDbEntity
  8
DEFAULT_2
100
AcDbCircle
 62
8
  6
HIDDEN
 10
27.5027371032
 20
15.8933283063
 40
1.5
100
AcDbArc
 50
358.1801233609
 51
61.8198766391
  0
ARC
  5
327
100
AcDbEntity
  8
DEFAULT_2
100
AcDbCircle
 62
8
  6
HIDDEN
 10
31.3998514202
 20
13.6433283063
 40
1.5
100
AcDbArc
 50
58.1801233609
 51
121.8198766391
  0
ARC
  5
328
100
AcDbEntity
  8
DEFAULT_2
100
AcDbCircle
 62
8
  6
HIDDEN
 10
27.5027371032
 20
20.3933283063
 40
1.5
100
AcDbArc
 50
298.1801233609
 51
1.8198766391
  0
ARC
  5
329
100
AcDbEntity
  8
DEFAULT_2
100
AcDbCircle
 62
8
  6
HIDDEN
 10
31.3998514202
 20
22.6433283063
 40
1.5
100
AcDbArc
 50
238.1801233609
 51
301.8198766391
  0
ARC
  5
32A
100
AcDbEntity
  8
DEFAULT_2
100
AcDbCircle
 62
8
  6
HIDDEN
 10
29.5748514202
 20
14.9823355824
 40
0.6
100
AcDbArc
 50
178.1801233609
 51
301.8198766391
  0
ARC
  5
32B
100
AcDbEntity
  8
DEFAULT_2
100
AcDbCircle
 62
8
  6
HIDDEN
 10
33.2248514202
 20
14.9823355824
 40
0.6
100
AcDbArc
 50
238.1801233609
 51
1.8198766391
  0
ARC
  5
32C
100
AcDbEntity
  8
DEFAULT_2
100
AcDbCircle
 62
8
  6
HIDDEN
 10
27.7498514202
 20
18.1433283063
 40
0.6
100
AcDbArc
 50
118.1801233609
 51
241.8198766391
  0
ARC
  5
32D
100
AcDbEntity
  8
DEFAULT_2
100
AcDbCircle
 62
8
  6
HIDDEN
 10
29.5748514202
 20
21.3043210301
 40
0.6
100
AcDbArc
 50
58.1801233609
 51
181.8198766391
  0
ARC
  5
32E
100
AcDbEntity
  8
DEFAULT_2
100
AcDbCircle
 62
8
  6
HIDDEN
 10
33.2248514202
 20
21.3043210301
 40
0.6
100
AcDbArc
 50
358.1801233609
 51
121.8198766391
  0
ARC
  5
32F
100
AcDbEntity
  8
DEFAULT_2
100
AcDbCircle
 62
8
  6
HIDDEN
 10
27.5027371032
 20
71.8933283063
 40
1.5
100
AcDbArc
 50
358.1801280943
 51
61.8198766391
  0
ARC
  5
330
100
AcDbEntity
  8
DEFAULT_2
100
AcDbCircle
 62
8
  6
HIDDEN
 10
31.3998514202
 20
69.6433283063
 40
1.5
100
AcDbArc
 50
58.1801233609
 51
121.8198766391
  0
ARC
  5
331
100
AcDbEntity
  8
DEFAULT_2
100
AcDbCircle
 62
8
  6
HIDDEN
 10
31.5027371032
 20
43.8933283063
 40
1.5
100
AcDbArc
 50
358.1801233609
 51
61.8198766391
  0
ARC
  5
332
100
AcDbEntity
  8
DEFAULT_2
100
AcDbCircle
 62
8
  6
HIDDEN
 10
31.5027371032
 20
48.3933283063
 40
1.5
100
AcDbArc
 50
298.1801233609
 51
1.8198766391
  0
ARC
  5
333
100
AcDbEntity
  8
DEFAULT_2
100
AcDbCircle
 62
8
  6
HIDDEN
 10
29.5748514202
 20
70.9823355824
 40
0.6
100
AcDbArc
 50
178.1801233609
 51
301.8198766391
  0
ARC
  5
334
100
AcDbEntity
  8
DEFAULT_2
100
AcDbCircle
 62
8
  6
HIDDEN
 10
33.2248514202
 20
70.9823355824
 40
0.6
100
AcDbArc
 50
238.1801233609
 51
1.8198766391
  0
ARC
  5
335
100
AcDbEntity
  8
DEFAULT_2
100
AcDbCircle
 62
8
  6
HIDDEN
 10
31.7498514202
 20
46.1433283063
 40
0.6
100
AcDbArc
 50
118.1801233609
 51
241.8198766391
  0
ARC
  5
336
100
AcDbEntity
  8
0
100
AcDbCircle
 62
7
  6
CONTINUOUS
 10
37.3998514202
 20
14.1433283063
 40
10.0
100
AcDbArc
 50
270.0
 51
306.8698976458
  0
ARC
  5
337
100
AcDbEntity
  8
0
100
AcDbCircle
 62
7
  6
CONTINUOUS
 10
33.3998514202
 20
14.1433283063
 40
10.0
100
AcDbArc
 50
180.0
 51
270.0
  0
ARC
  5
338
100
AcDbEntity
  8
DEFAULT_2
100
AcDbCircle
 62
8
  6
HIDDEN
 10
35.2969657373
 20
15.8933283063
 40
1.5
100
AcDbArc
 50
118.1801233609
 51
181.8198766391
  0
ARC
  5
339
100
AcDbEntity
  8
DEFAULT_2
100
AcDbCircle
 62
8
  6
HIDDEN
 10
35.2969657373
 20
20.3933283063
 40
1.5
100
AcDbArc
 50
178.1801233609
 51
241.8198766391
  0
ARC
  5
33A
100
AcDbEntity
  8
DEFAULT_2
100
AcDbCircle
 62
8
  6
HIDDEN
 10
35.3998514202
 20
41.6433283063
 40
1.5
100
AcDbArc
 50
58.1801233609
 51
121.8198766391
  0
ARC
  5
33B
100
AcDbEntity
  8
DEFAULT_2
100
AcDbCircle
 62
8
  6
HIDDEN
 10
35.0498514202
 20
18.1433283063
 40
0.6
100
AcDbArc
 50
298.1801233609
 51
61.8198766391
  0
CIRCLE
  5
33C
100
AcDbEntity
  8
A_ACHSEN
100
AcDbCircle
 62
8
  6
HIDDEN
 10
35.3998514202
 20
46.1433283063
 40
5.25
  0
ARC
  5
33D
100
AcDbEntity
  8
DEFAULT_2
100
AcDbCircle
 62
8
  6
HIDDEN
 10
35.2969657373
 20
71.8933283063
 40
1.5
100
AcDbArc
 50
118.1801233609
 51
181.8198766391
  0
ARC
  5
33E
100
AcDbEntity
  8
DEFAULT_2
100
AcDbCircle
 62
8
  6
HIDDEN
 10
39.2969657373
 20
43.8933283063
 40
1.5
100
AcDbArc
 50
118.1801233609
 51
181.8198766391
  0
ARC
  5
33F
100
AcDbEntity
  8
DEFAULT_2
100
AcDbCircle
 62
8
  6
HIDDEN
 10
35.3998514202
 20
50.6433283063
 40
1.5
100
AcDbArc
 50
238.1801233609
 51
301.8198766391
  0
ARC
  5
340
100
AcDbEntity
  8
DEFAULT_2
100
AcDbCircle
 62
8
  6
HIDDEN
 10
39.2969657373
 20
48.3933283063
 40
1.5
100
AcDbArc
 50
178.1801233609
 51
241.8198766391
  0
ARC
  5
341
100
AcDbEntity
  8
DEFAULT_2
100
AcDbCircle
 62
8
  6
HIDDEN
 10
33.5748514202
 20
42.9823355824
 40
0.6
100
AcDbArc
 50
178.1801233609
 51
301.8198766391
  0
ARC
  5
342
100
AcDbEntity
  8
DEFAULT_2
100
AcDbCircle
 62
8
  6
HIDDEN
 10
37.2248514202
 20
42.9823355824
 40
0.6
100
AcDbArc
 50
238.1801233609
 51
1.8198766391
  0
ARC
  5
343
100
AcDbEntity
  8
DEFAULT_2
100
AcDbCircle
 62
8
  6
HIDDEN
 10
33.5748514202
 20
49.3043210301
 40
0.6
100
AcDbArc
 50
58.1801233609
 51
181.8198766391
  0
ARC
  5
344
100
AcDbEntity
  8
DEFAULT_2
100
AcDbCircle
 62
8
  6
HIDDEN
 10
37.2248514202
 20
49.3043210301
 40
0.6
100
AcDbArc
 50
358.1801233609
 51
121.8198766391
  0
ARC
  5
345
100
AcDbEntity
  8
DEFAULT_2
100
AcDbCircle
 62
8
  6
HIDDEN
 10
39.0498514202
 20
46.1433283063
 40
0.6
100
AcDbArc
 50
298.1801233609
 51
61.8198766391
  0
CIRCLE
  5
346
100
AcDbEntity
  8
A_ACHSEN
100
AcDbCircle
 62
8
  6
HIDDEN
 10
31.3998514202
 20
74.1433283063
 40
5.25
  0
ARC
  5
347
100
AcDbEntity
  8
DEFAULT_2
100
AcDbCircle
 62
8
  6
HIDDEN
 10
27.5027371032
 20
76.3933283063
 40
1.5
100
AcDbArc
 50
298.1801287173
 51
1.8198766391
  0
ARC
  5
348
100
AcDbEntity
  8
DEFAULT_2
100
AcDbCircle
 62
8
  6
HIDDEN
 10
31.3998514202
 20
78.6433283063
 40
1.5
100
AcDbArc
 50
238.1801297527
 51
301.8198766391
  0
ARC
  5
349
100
AcDbEntity
  8
DEFAULT_2
100
AcDbCircle
 62
8
  6
HIDDEN
 10
31.5027371032
 20
99.8933283063
 40
1.5
100
AcDbArc
 50
358.1801233609
 51
61.8198766391
  0
ARC
  5
34A
100
AcDbEntity
  8
DEFAULT_2
100
AcDbCircle
 62
8
  6
HIDDEN
 10
27.7498514202
 20
74.1433283063
 40
0.6
100
AcDbArc
 50
118.1801334342
 51
241.8198766391
  0
ARC
  5
34B
100
AcDbEntity
  8
DEFAULT_2
100
AcDbCircle
 62
8
  6
HIDDEN
 10
29.5748514202
 20
77.3043210301
 40
0.6
100
AcDbArc
 50
58.1801343715
 51
181.8198766391
  0
ARC
  5
34C
100
AcDbEntity
  8
DEFAULT_2
100
AcDbCircle
 62
8
  6
HIDDEN
 10
33.2248514202
 20
77.3043210301
 40
0.6
100
AcDbArc
 50
358.1801233609
 51
121.8198766391
  0
ARC
  5
34D
100
AcDbEntity
  8
DEFAULT_2
100
AcDbCircle
 62
8
  6
HIDDEN
 10
31.7498514202
 20
102.1433283063
 40
0.6
100
AcDbArc
 50
118.1801233609
 51
241.8198766391
  0
CIRCLE
  5
34E
100
AcDbEntity
  8
A_ACHSEN
100
AcDbCircle
 62
8
  6
HIDDEN
 10
31.3998514202
 20
130.1433283063
 40
5.25
  0
CIRCLE
  5
34F
100
AcDbEntity
  8
A_ACHSEN
100
AcDbCircle
 62
7
  6
CONTINUOUS
 10
31.3998514202
 20
119.1433283063
 40
3.5
  0
CIRCLE
  5
350
100
AcDbEntity
  8
A_ACHSEN
100
AcDbCircle
 62
7
  6
CONTINUOUS
 10
31.3998514202
 20
119.1433283063
 40
2.5
  0
CIRCLE
  5
351
100
AcDbEntity
  8
A_ACHSEN
100
AcDbCircle
 62
3
  6
CONTINUOUS
 10
31.3998514202
 20
119.1433283063
 40
2.0
  0
ARC
  5
352
100
AcDbEntity
  8
DEFAULT_2
100
AcDbCircle
 62
8
  6
HIDDEN
 10
27.5027371032
 20
127.8933283063
 40
1.5
100
AcDbArc
 50
358.1801233609
 51
61.8198766391
  0
ARC
  5
353
100
AcDbEntity
  8
DEFAULT_2
100
AcDbCircle
 62
8
  6
HIDDEN
 10
31.3998514202
 20
125.6433283063
 40
1.5
100
AcDbArc
 50
58.1801233609
 51
121.8198787585
  0
ARC
  5
354
100
AcDbEntity
  8
DEFAULT_2
100
AcDbCircle
 62
8
  6
HIDDEN
 10
27.5027371032
 20
132.3933283063
 40
1.5
100
AcDbArc
 50
298.1801299899
 51
1.8198766391
  0
ARC
  5
355
100
AcDbEntity
  8
DEFAULT_2
100
AcDbCircle
 62
8
  6
HIDDEN
 10
31.3998514202
 20
134.6433283063
 40
1.5
100
AcDbArc
 50
238.1801370392
 51
301.8198766391
  0
ARC
  5
356
100
AcDbEntity
  8
DEFAULT_2
100
AcDbCircle
 62
8
  6
HIDDEN
 10
31.5027371032
 20
104.3933283063
 40
1.5
100
AcDbArc
 50
298.1801280942
 51
1.8198766391
  0
ARC
  5
357
100
AcDbEntity
  8
DEFAULT_2
100
AcDbCircle
 62
8
  6
HIDDEN
 10
29.5748514202
 20
126.9823355824
 40
0.6
100
AcDbArc
 50
178.1801295538
 51
301.8198766391
  0
ARC
  5
358
100
AcDbEntity
  8
DEFAULT_2
100
AcDbCircle
 62
8
  6
HIDDEN
 10
33.2248514202
 20
126.9823355824
 40
0.6
100
AcDbArc
 50
238.1801233609
 51
1.8198766391
  0
ARC
  5
359
100
AcDbEntity
  8
DEFAULT_2
100
AcDbCircle
 62
8
  6
HIDDEN
 10
27.7498514202
 20
130.1433283063
 40
0.6
100
AcDbArc
 50
118.1801233609
 51
241.8198766391
  0
ARC
  5
35A
100
AcDbEntity
  8
DEFAULT_2
100
AcDbCircle
 62
8
  6
HIDDEN
 10
29.5748514202
 20
133.3043210301
 40
0.6
100
AcDbArc
 50
58.1801233609
 51
181.8198766391
  0
ARC
  5
35B
100
AcDbEntity
  8
DEFAULT_2
100
AcDbCircle
 62
8
  6
HIDDEN
 10
33.2248514202
 20
133.3043210301
 40
0.6
100
AcDbArc
 50
358.1801233609
 51
121.8198766391
  0
CIRCLE
  5
35C
100
AcDbEntity
  8
A_ACHSEN
100
AcDbCircle
 62
8
  6
HIDDEN
 10
35.3998514202
 20
102.1433283063
 40
5.25
  0
ARC
  5
35D
100
AcDbEntity
  8
DEFAULT_2
100
AcDbCircle
 62
8
  6
HIDDEN
 10
35.2969657373
 20
76.3933283063
 40
1.5
100
AcDbArc
 50
178.1801295425
 51
241.819878519
  0
ARC
  5
35E
100
AcDbEntity
  8
DEFAULT_2
100
AcDbCircle
 62
8
  6
HIDDEN
 10
39.2969657373
 20
99.8933283063
 40
1.5
100
AcDbArc
 50
118.1801309424
 51
181.8198766391
  0
ARC
  5
35F
100
AcDbEntity
  8
DEFAULT_2
100
AcDbCircle
 62
8
  6
HIDDEN
 10
35.3998514202
 20
97.6433283063
 40
1.5
100
AcDbArc
 50
58.1801233609
 51
121.8198766391
  0
ARC
  5
360
100
AcDbEntity
  8
DEFAULT_2
100
AcDbCircle
 62
8
  6
HIDDEN
 10
35.0498514202
 20
74.1433283063
 40
0.6
100
AcDbArc
 50
298.1801233609
 51
61.8198766391
  0
ARC
  5
361
100
AcDbEntity
  8
DEFAULT_2
100
AcDbCircle
 62
8
  6
HIDDEN
 10
33.5748514202
 20
98.9823355824
 40
0.6
100
AcDbArc
 50
178.1801233609
 51
301.8198766391
  0
ARC
  5
362
100
AcDbEntity
  8
DEFAULT_2
100
AcDbCircle
 62
8
  6
HIDDEN
 10
37.2248514202
 20
98.9823355824
 40
0.6
100
AcDbArc
 50
238.1801313246
 51
1.8198766391
  0
ARC
  5
363
100
AcDbEntity
  8
DEFAULT_2
100
AcDbCircle
 62
8
  6
HIDDEN
 10
39.0498514202
 20
102.1433283063
 40
0.6
100
AcDbArc
 50
298.1801233609
 51
61.8198766391
  0
ARC
  5
364
100
AcDbEntity
  8
0
100
AcDbCircle
 62
7
  6
CONTINUOUS
 10
37.3998514202
 20
134.1433283063
 40
10.0
100
AcDbArc
 50
53.1301023542
 51
90.0
  0
ARC
  5
365
100
AcDbEntity
  8
0
100
AcDbCircle
 62
7
  6
CONTINUOUS
 10
33.3998514202
 20
134.1433283063
 40
10.0
100
AcDbArc
 50
90.0
 51
180.0
  0
ARC
  5
366
100
AcDbEntity
  8
DEFAULT_2
100
AcDbCircle
 62
8
  6
HIDDEN
 10
35.2969657373
 20
127.8933283063
 40
1.5
100
AcDbArc
 50
118.1801303929
 51
181.8198766391
  0
ARC
  5
367
100
AcDbEntity
  8
DEFAULT_2
100
AcDbCircle
 62
8
  6
HIDDEN
 10
35.2969657373
 20
132.3933283063
 40
1.5
100
AcDbArc
 50
178.1801233609
 51
241.8198766391
  0
ARC
  5
368
100
AcDbEntity
  8
DEFAULT_2
100
AcDbCircle
 62
8
  6
HIDDEN
 10
35.3998514202
 20
106.6433283063
 40
1.5
100
AcDbArc
 50
238.1801233609
 51
301.8198766391
  0
ARC
  5
369
100
AcDbEntity
  8
DEFAULT_2
100
AcDbCircle
 62
8
  6
HIDDEN
 10
39.2969657373
 20
104.3933283063
 40
1.5
100
AcDbArc
 50
178.1801233609
 51
241.8198766391
  0
ARC
  5
36A
100
AcDbEntity
  8
DEFAULT_2
100
AcDbCircle
 62
8
  6
HIDDEN
 10
35.0498514202
 20
130.1433283063
 40
0.6
100
AcDbArc
 50
298.1801309469
 51
61.8198766391
  0
ARC
  5
36B
100
AcDbEntity
  8
DEFAULT_2
100
AcDbCircle
 62
8
  6
HIDDEN
 10
33.5748514202
 20
105.3043210301
 40
0.6
100
AcDbArc
 50
58.1801273294
 51
181.8198766391
  0
ARC
  5
36C
100
AcDbEntity
  8
DEFAULT_2
100
AcDbCircle
 62
8
  6
HIDDEN
 10
37.2248514202
 20
105.3043210301
 40
0.6
100
AcDbArc
 50
358.1801233609
 51
121.8198766391
  0
CIRCLE
  5
36D
100
AcDbEntity
  8
0
100
AcDbCircle
 62
7
  6
CONTINUOUS
 10
88.5998514202
 20
35.1433283063
 40
7.0
  0
CIRCLE
  5
36E
100
AcDbEntity
  8
A_FASEN
100
AcDbCircle
 62
7
  6
CONTINUOUS
 10
88.5998514202
 20
49.1433283063
 40
4.7
  0
ARC
  5
36F
100
AcDbEntity
  8
0
100
AcDbCircle
 62
7
  6
CONTINUOUS
 10
88.5998514202
 20
22.1433283063
 40
3.0
100
AcDbArc
 50
1.0
 51
179.0
  0
ARC
  5
370
100
AcDbEntity
  8
A_RUNDUNGEN
100
AcDbCircle
 62
3
  6
CONTINUOUS
 10
101.5998514202
 20
47.1433283063
 40
3.0
100
AcDbArc
 50
347.2065258409
 51
360.0
  0
CIRCLE
  5
371
100
AcDbEntity
  8
0
100
AcDbCircle
 62
7
  6
CONTINUOUS
 10
88.5998514202
 20
49.1433283063
 40
2.3094010768
  0
CIRCLE
  5
372
100
AcDbEntity
  8
0
100
AcDbCircle
 62
7
  6
CONTINUOUS
 10
88.5998514202
 20
35.1433283063
 40
2.3094010768
  0
ARC
  5
373
100
AcDbEntity
  8
A_RUNDUNGEN
100
AcDbCircle
 62
7
  6
CONTINUOUS
 10
92.1423151059
 20
19.7434053532
 40
0.5000421823
100
AcDbArc
 50
181.0081385406
 51
270.0043304743
  0
ARC
  5
374
100
AcDbEntity
  8
A_RUNDUNGEN
100
AcDbCircle
 62
7
  6
CONTINUOUS
 10
85.0573877412
 20
19.7434053497
 40
0.5000421752
100
AcDbArc
 50
269.9956687711
 51
358.9918618462
  0
ARC
  5
375
100
AcDbEntity
  8
A_RUNDUNGEN
100
AcDbCircle
 62
7
  6
CONTINUOUS
 10
107.0998514202
 20
19.7433283063
 40
0.5
100
AcDbArc
 50
270.0
 51
360.0
  0
ARC
  5
376
100
AcDbEntity
  8
A_RUNDUNGEN
100
AcDbCircle
 62
7
  6
CONTINUOUS
 10
72.0998514202
 20
18.6433283063
 40
0.5
100
AcDbArc
 50
180.0
 51
270.0
  0
ARC
  5
377
100
AcDbEntity
  8
A_RUNDUNGEN
100
AcDbCircle
 62
7
  6
CONTINUOUS
 10
71.8998514202
 20
73.5190642375
 40
0.3
100
AcDbArc
 50
135.0000000006
 51
180.0000000004
  0
CIRCLE
  5
378
100
AcDbEntity
  8
A_ACHSEN
100
AcDbCircle
 62
7
  6
CONTINUOUS
 10
88.5998514202
 20
74.1433283063
 40
5.5
  0
CIRCLE
  5
379
100
AcDbEntity
  8
A_FASEN
100
AcDbCircle
 62
7
  6
CONTINUOUS
 10
88.5998514202
 20
99.1433283063
 40
4.7
  0
CIRCLE
  5
37A
100
AcDbEntity
  8
0
100
AcDbCircle
 62
7
  6
CONTINUOUS
 10
88.5998514202
 20
74.1433283063
 40
4.0
  0
CIRCLE
  5
37B
100
AcDbEntity
  8
A_ACHSEN
100
AcDbCircle
 62
7
  6
CONTINUOUS
 10
88.5998514202
 20
74.1433283063
 40
3.975
  0
CIRCLE
  5
37C
100
AcDbEntity
  8
0
100
AcDbCircle
 62
7
  6
CONTINUOUS
 10
88.5998514202
 20
99.1433283063
 40
2.3094010768
  0
CIRCLE
  5
37D
100
AcDbEntity
  8
0
100
AcDbCircle
 62
7
  6
CONTINUOUS
 10
88.5998514202
 20
74.1433283063
 40
2.3094010768
  0
ARC
  5
37E
100
AcDbEntity
  8
A_RUNDUNGEN
100
AcDbCircle
 62
7
  6
CONTINUOUS
 10
71.6755873515
 20
74.1433283063
 40
0.3
100
AcDbArc
 50
315.0
 51
45.0
  0
ARC
  5
37F
100
AcDbEntity
  8
A_RUNDUNGEN
100
AcDbCircle
 62
7
  6
CONTINUOUS
 10
71.8998514202
 20
74.767592375
 40
0.3
100
AcDbArc
 50
180.0
 51
225.0
  0
CIRCLE
  5
380
100
AcDbEntity
  8
0
100
AcDbCircle
 62
7
  6
CONTINUOUS
 10
88.5998514202
 20
113.1433283063
 40
7.0
  0
ARC
  5
381
100
AcDbEntity
  8
0
100
AcDbCircle
 62
7
  6
CONTINUOUS
 10
88.5998514202
 20
126.1433283063
 40
3.0
100
AcDbArc
 50
181.0
 51
359.0
  0
CIRCLE
  5
382
100
AcDbEntity
  8
0
100
AcDbCircle
 62
7
  6
CONTINUOUS
 10
88.5998514202
 20
113.1433283063
 40
2.3094010768
  0
ARC
  5
383
100
AcDbEntity
  8
A_RUNDUNGEN
100
AcDbCircle
 62
7
  6
CONTINUOUS
 10
85.0573877412
 20
128.5432512628
 40
0.5000421752
100
AcDbArc
 50
1.0081381537
 51
90.0043312289
  0
ARC
  5
384
100
AcDbEntity
  8
A_RUNDUNGEN
100
AcDbCircle
 62
7
  6
CONTINUOUS
 10
72.0998514202
 20
129.6433283063
 40
0.5
100
AcDbArc
 50
90.0
 51
180.0
  0
ARC
  5
385
100
AcDbEntity
  8
A_RUNDUNGEN
100
AcDbCircle
 62
3
  6
CONTINUOUS
 10
101.5998514202
 20
101.1433283063
 40
3.0
100
AcDbArc
 50
0.0
 51
12.7934741591
  0
ARC
  5
386
100
AcDbEntity
  8
A_RUNDUNGEN
100
AcDbCircle
 62
7
  6
CONTINUOUS
 10
92.1423151059
 20
128.5432512593
 40
0.5000421823
100
AcDbArc
 50
89.9956695257
 51
178.9918614594
  0
ARC
  5
387
100
AcDbEntity
  8
A_RUNDUNGEN
100
AcDbCircle
 62
7
  6
CONTINUOUS
 10
107.0998514202
 20
128.5433283063
 40
0.5
100
AcDbArc
 50
0.0
 51
90.0
  0
SPLINE
  5
388
100
AcDbEntity
  8
A_RUNDUNGEN
100
AcDbSpline
 62
7
  6
CONTINUOUS
 70
0
 71
3
 72
9
 73
5
 74
0
 42
0.0000001
 43
0.0000001
 44
0.0000000001
 40
0.0
 40
0.0
 40
0.0
 40
0.0
 40
0.5390872823
 40
1.0
 40
1.0
 40
1.0
 40
1.0
 10
72.2998514202
 20
126.5559842947
 30
0.0
 10
72.3486051943
 20
126.5559842947
 30
0.0
 10
72.4404874595
 20
126.5365157196
 30
0.0
 10
72.5148973687
 20
126.4795227521
 30
0.0
 10
72.5412047018
 20
126.4471890584
 30
0.0
  0
SPLINE
  5
389
100
AcDbEntity
  8
A_RUNDUNGEN
100
AcDbSpline
 62
7
  6
CONTINUOUS
 70
0
 71
3
 72
9
 73
5
 74
0
 42
0.0000001
 43
0.0000001
 44
0.0000000001
 40
0.0
 40
0.0
 40
0.0
 40
0.0
 40
0.5120100992
 40
1.0
 40
1.0
 40
1.0
 40
1.0
 10
72.5412047018
 20
126.4471890584
 30
0.0
 10
72.5604273993
 20
126.4235629153
 30
0.0
 10
72.5901811325
 20
126.370394226
 30
0.0
 10
72.5998514202
 20
126.3104513514
 30
0.0
 10
72.5998514202
 20
126.2814219779
 30
0.0
  0
SPLINE
  5
38A
100
AcDbEntity
  8
A_RUNDUNGEN
100
AcDbSpline
 62
7
  6
CONTINUOUS
 70
0
 71
3
 72
12
 73
8
 74
0
 42
0.0000001
 43
0.0000001
 44
0.0000000001
 40
0.0
 40
0.0
 40
0.0
 40
0.0
 40
0.1253267295
 40
0.250807568
 40
0.5001247508
 40
0.7499715236
 40
1.0
 40
1.0
 40
1.0
 40
1.0
 10
72.8998514202
 20
21.7306723179
 30
0.0
 10
72.8767025313
 20
21.7306723179
 30
0.0
 10
72.8301053644
 20
21.7381067591
 30
0.0
 10
72.7459058356
 20
21.7786172389
 30
0.0
 10
72.665036588
 20
21.866403317
 30
0.0
 10
72.6113155925
 20
21.9958778082
 30
0.0
 10
72.5998514202
 20
22.0887002869
 30
0.0
 10
72.5998514202
 20
22.1348826252
 30
0.0
  0
ELLIPSE
  5
38B
100
AcDbEntity
  8
A_RUNDUNGEN
100
AcDbEllipse
 62
7
  6
CONTINUOUS
 10
105.5998514202
 20
105.9518095403
 30
0.0
 11
0.0678477772
 21
2.0155713646
 31
0.0
 40
0.9917033321
 41
-2.2829550889
 42
-1.5368659281
  0
ELLIPSE
  5
38C
100
AcDbEntity
  8
A_RUNDUNGEN
100
AcDbEllipse
 62
7
  6
CONTINUOUS
 10
98.5971850324
 20
55.920258506
 30
0.0
 11
1.8576860035
 21
0.7623544693
 31
0.0
 40
0.9960000447
 41
2.7535771071
 42
3.492564825
  0
ELLIPSE
  5
38D
100
AcDbEntity
  8
A_RUNDUNGEN
100
AcDbEllipse
 62
7
  6
CONTINUOUS
 10
98.5971850324
 20
92.3663981065
 30
0.0
 11
1.8576860035
 21
-0.7623544693
 31
0.0
 40
0.9960000447
 41
2.7906204821
 42
3.5296082001
  0
ELLIPSE
  5
38E
100
AcDbEntity
  8
0
100
AcDbEllipse
 62
7
  6
CONTINUOUS
 10
88.6019534885
 20
99.1433283063
 30
0.0
 11
5.5064904459
 21
-0.0
 31
0.0
 40
0.9999999271
 41
0.0
 42
6.2831853072
  0
ELLIPSE
  5
38F
100
AcDbEntity
  8
0
100
AcDbEllipse
 62
7
  6
CONTINUOUS
 10
88.6019534885
 20
49.1433283063
 30
0.0
 11
5.5064904459
 21
0.0
 31
0.0
 40
0.9999999271
 41
0.0
 42
6.2831853072
  0
ELLIPSE
  5
390
100
AcDbEntity
  8
A_RUNDUNGEN
100
AcDbEllipse
 62
7
  6
CONTINUOUS
 10
105.5998514202
 20
42.3348470722
 30
0.0
 11
-0.0678477772
 21
2.0155713646
 31
0.0
 40
0.9917033321
 41
-1.6047267255
 42
-0.8586375646
  0
ELLIPSE
  5
391
100
AcDbEntity
  8
A_RUNDUNGEN
100
AcDbEllipse
 62
7
  6
CONTINUOUS
 10
94.5834379051
 20
66.0212497759
 30
0.0
 11
1.3990984701
 21
1.449016588
 31
0.0
 40
0.9929299967
 41
-0.7993773008
 42
0.746500488
  0
ELLIPSE
  5
392
100
AcDbEntity
  8
0
100
AcDbEllipse
 62
7
  6
CONTINUOUS
 10
88.6021443604
 20
74.1433283063
 30
0.0
 11
6.0064905187
 21
0.0
 31
0.0
 40
0.9999999271
 41
1.5886313036
 42
4.6945540035
  0
ELLIPSE
  5
393
100
AcDbEntity
  8
A_RUNDUNGEN
100
AcDbEllipse
 62
7
  6
CONTINUOUS
 10
94.5834379051
 20
82.2654068366
 30
0.0
 11
-1.3990984701
 21
1.449016588
 31
0.0
 40
0.9929299967
 41
-3.8880931416
 42
-2.3422153528
  0
ELLIPSE
  5
394
100
AcDbEntity
  8
A_RUNDUNGEN
100
AcDbEllipse
 62
7
  6
CONTINUOUS
 10
72.2998514202
 20
109.8840267839
 30
0.0
 11
0.0
 21
0.3000456984
 31
0.0
 40
0.9998476952
 41
-3.1415926536
 42
-1.5707963268
  0
ENDSEC
  0
SECTION
  2
OBJECTS
  0
DICTIONARY
  5
395
100
AcDbDictionary
  3
ACAD_GROUP
350
396
  3
ACAD_MLINESTYLE
350
397
  0
DICTIONARY
  5
396
102
{ACAD_REACTORS
330
395
102
}
100
AcDbDictionary
  0
DICTIONARY
  5
397
102
{ACAD_REACTORS
330
395
102
}
100
AcDbDictionary
  3
STANDARD
350
398
  0
MLINESTYLE
  5
398
102
{ACAD_REACTORS
330
397
102
}
100
AcDbMlineStyle
  2
STANDARD
 70
0
  3

 62
256
 51
90.0
 52
90.0
 71
2
 49
0.5
 62
256
  6
BYLAYER
 49
-0.5
 62
256
  6
BYLAYER
  0
ENDSEC
  0
EOF
