  0
SECTION
  2
HEADER
  9
$ACADVER
  1
AC1018
  9
$ACADMAINTVER
 70
     0
  9
$DWGCODEPAGE
  3
ANSI_1252
  9
$INSBASE
 10
0.0
 20
0.0
 30
0.0
  9
$EXTMIN
 10
62276.5
 20
145126.712521877
 30
0.0
  9
$EXTMAX
 10
62442.0768494214
 20
145226.546892726
 30
0.0
  9
$LIMMIN
 10
0.0
 20
0.0
  9
$LIMMAX
 10
12.0
 20
9.0
  9
$ORTHOMODE
 70
     0
  9
$REGENMODE
 70
     1
  9
$FILLMODE
 70
     1
  9
$QTEXTMODE
 70
     0
  9
$MIRRTEXT
 70
     1
  9
$LTSCALE
 40
1.0
  9
$ATTMODE
 70
     1
  9
$TEXTSIZE
 40
0.2
  9
$TRACEWID
 40
0.05
  9
$TEXTSTYLE
  7
Standard
  9
$CLAYER
  8
0
  9
$CELTYPE
  6
ByLayer
  9
$CECOLOR
 62
   256
  9
$CELTSCALE
 40
1.0
  9
$DISPSILH
 70
     0
  9
$DIMSCALE
 40
1.0
  9
$DIMASZ
 40
0.18
  9
$DIMEXO
 40
0.0625
  9
$DIMDLI
 40
0.38
  9
$DIMRND
 40
0.0
  9
$DIMDLE
 40
0.0
  9
$DIMEXE
 40
0.18
  9
$DIMTP
 40
0.0
  9
$DIMTM
 40
0.0
  9
$DIMTXT
 40
0.18
  9
$DIMCEN
 40
0.09
  9
$DIMTSZ
 40
0.0
  9
$DIMTOL
 70
     0
  9
$DIMLIM
 70
     0
  9
$DIMTIH
 70
     1
  9
$DIMTOH
 70
     1
  9
$DIMSE1
 70
     0
  9
$DIMSE2
 70
     0
  9
$DIMTAD
 70
     0
  9
$DIMZIN
 70
     0
  9
$DIMBLK
  1

  9
$DIMASO
 70
     1
  9
$DIMSHO
 70
     1
  9
$DIMPOST
  1

  9
$DIMAPOST
  1

  9
$DIMALT
 70
     0
  9
$DIMALTD
 70
     2
  9
$DIMALTF
 40
25.4
  9
$DIMLFAC
 40
1.0
  9
$DIMTOFL
 70
     0
  9
$DIMTVP
 40
0.0
  9
$DIMTIX
 70
     0
  9
$DIMSOXD
 70
     0
  9
$DIMSAH
 70
     0
  9
$DIMBLK1
  1

  9
$DIMBLK2
  1

  9
$DIMSTYLE
  2
Standard
  9
$DIMCLRD
 70
     0
  9
$DIMCLRE
 70
     0
  9
$DIMCLRT
 70
     0
  9
$DIMTFAC
 40
1.0
  9
$DIMGAP
 40
0.09
  9
$DIMJUST
 70
     0
  9
$DIMSD1
 70
     0
  9
$DIMSD2
 70
     0
  9
$DIMTOLJ
 70
     1
  9
$DIMTZIN
 70
     0
  9
$DIMALTZ
 70
     0
  9
$DIMALTTZ
 70
     0
  9
$DIMUPT
 70
     0
  9
$DIMDEC
 70
     4
  9
$DIMTDEC
 70
     4
  9
$DIMALTU
 70
     2
  9
$DIMALTTD
 70
     2
  9
$DIMTXSTY
  7
Standard
  9
$DIMAUNIT
 70
     0
  9
$DIMADEC
 70
     0
  9
$DIMALTRND
 40
0.0
  9
$DIMAZIN
 70
     0
  9
$DIMDSEP
 70
    46
  9
$DIMATFIT
 70
     3
  9
$DIMFRAC
 70
     0
  9
$DIMLDRBLK
  1

  9
$DIMLUNIT
 70
     2
  9
$DIMLWD
 70
    -2
  9
$DIMLWE
 70
    -2
  9
$DIMTMOVE
 70
     0
  9
$LUNITS
 70
     2
  9
$LUPREC
 70
     4
  9
$SKETCHINC
 40
0.1
  9
$FILLETRAD
 40
0.5
  9
$AUNITS
 70
     0
  9
$AUPREC
 70
     0
  9
$MENU
  1
.
  9
$ELEVATION
 40
0.0
  9
$PELEVATION
 40
0.0
  9
$THICKNESS
 40
0.0
  9
$LIMCHECK
 70
     0
  9
$CHAMFERA
 40
0.5
  9
$CHAMFERB
 40
0.5
  9
$CHAMFERC
 40
1.0
  9
$CHAMFERD
 40
0.0
  9
$SKPOLY
 70
     0
  9
$TDCREATE
 40
2456624.405861759
  9
$TDUCREATE
 40
2456624.364195093
  9
$TDUPDATE
 40
2456624.405861771
  9
$TDUUPDATE
 40
2456624.364195104
  9
$TDINDWG
 40
0.0000000116
  9
$TDUSRTIMER
 40
0.0000000116
  9
$USRTIMER
 70
     1
  9
$ANGBASE
 50
0.0
  9
$ANGDIR
 70
     0
  9
$PDMODE
 70
     0
  9
$PDSIZE
 40
0.0
  9
$PLINEWID
 40
0.0
  9
$SPLFRAME
 70
     0
  9
$SPLINETYPE
 70
     6
  9
$SPLINESEGS
 70
     8
  9
$HANDSEED
  5
151
  9
$SURFTAB1
 70
     6
  9
$SURFTAB2
 70
     6
  9
$SURFTYPE
 70
     6
  9
$SURFU
 70
     6
  9
$SURFV
 70
     6
  9
$UCSBASE
  2

  9
$UCSNAME
  2

  9
$UCSORG
 10
0.0
 20
0.0
 30
0.0
  9
$UCSXDIR
 10
1.0
 20
0.0
 30
0.0
  9
$UCSYDIR
 10
0.0
 20
1.0
 30
0.0
  9
$UCSORTHOREF
  2

  9
$UCSORTHOVIEW
 70
     0
  9
$UCSORGTOP
 10
0.0
 20
0.0
 30
0.0
  9
$UCSORGBOTTOM
 10
0.0
 20
0.0
 30
0.0
  9
$UCSORGLEFT
 10
0.0
 20
0.0
 30
0.0
  9
$UCSORGRIGHT
 10
0.0
 20
0.0
 30
0.0
  9
$UCSORGFRONT
 10
0.0
 20
0.0
 30
0.0
  9
$UCSORGBACK
 10
0.0
 20
0.0
 30
0.0
  9
$PUCSBASE
  2

  9
$PUCSNAME
  2

  9
$PUCSORG
 10
0.0
 20
0.0
 30
0.0
  9
$PUCSXDIR
 10
1.0
 20
0.0
 30
0.0
  9
$PUCSYDIR
 10
0.0
 20
1.0
 30
0.0
  9
$PUCSORTHOREF
  2

  9
$PUCSORTHOVIEW
 70
     0
  9
$PUCSORGTOP
 10
0.0
 20
0.0
 30
0.0
  9
$PUCSORGBOTTOM
 10
0.0
 20
0.0
 30
0.0
  9
$PUCSORGLEFT
 10
0.0
 20
0.0
 30
0.0
  9
$PUCSORGRIGHT
 10
0.0
 20
0.0
 30
0.0
  9
$PUCSORGFRONT
 10
0.0
 20
0.0
 30
0.0
  9
$PUCSORGBACK
 10
0.0
 20
0.0
 30
0.0
  9
$USERI1
 70
     0
  9
$USERI2
 70
     0
  9
$USERI3
 70
     0
  9
$USERI4
 70
     0
  9
$USERI5
 70
     0
  9
$USERR1
 40
14.5
  9
$USERR2
 40
0.0
  9
$USERR3
 40
0.0
  9
$USERR4
 40
0.0
  9
$USERR5
 40
0.0
  9
$WORLDVIEW
 70
     1
  9
$SHADEDGE
 70
     3
  9
$SHADEDIF
 70
    70
  9
$TILEMODE
 70
     1
  9
$MAXACTVP
 70
    64
  9
$PINSBASE
 10
0.0
 20
0.0
 30
0.0
  9
$PLIMCHECK
 70
     0
  9
$PEXTMIN
 10
1.00000000000000E+20
 20
1.00000000000000E+20
 30
1.00000000000000E+20
  9
$PEXTMAX
 10
-1.00000000000000E+20
 20
-1.00000000000000E+20
 30
-1.00000000000000E+20
  9
$PLIMMIN
 10
0.0
 20
0.0
  9
$PLIMMAX
 10
12.0
 20
9.0
  9
$UNITMODE
 70
     0
  9
$VISRETAIN
 70
     1
  9
$PLINEGEN
 70
     0
  9
$PSLTSCALE
 70
     1
  9
$TREEDEPTH
 70
  3020
  9
$CMLSTYLE
  2
Standard
  9
$CMLJUST
 70
     0
  9
$CMLSCALE
 40
1.0
  9
$PROXYGRAPHICS
 70
     1
  9
$MEASUREMENT
 70
     1
  9
$CELWEIGHT
370
    -1
  9
$ENDCAPS
280
     0
  9
$JOINSTYLE
280
     0
  9
$LWDISPLAY
290
     0
  9
$INSUNITS
 70
     1
  9
$HYPERLINKBASE
  1

  9
$STYLESHEET
  1

  9
$XEDIT
290
     1
  9
$CEPSNTYPE
380
     0
  9
$PSTYLEMODE
290
     1
  9
$FINGERPRINTGUID
  2
{B600A255-B77B-4468-BF2F-3DE8850D4BDA}
  9
$VERSIONGUID
  2
{FAEB1C32-E019-11D5-929B-00C0DF256EC4}
  9
$EXTNAMES
290
     1
  9
$PSVPSCALE
 40
0.0
  9
$OLESTARTUP
290
     0
  9
$SORTENTS
280
   127
  9
$INDEXCTL
280
     0
  9
$HIDETEXT
280
     1
  9
$XCLIPFRAME
290
     0
  9
$HALOGAP
280
     0
  9
$OBSCOLOR
 70
   257
  9
$OBSLTYPE
280
     0
  9
$INTERSECTIONDISPLAY
280
     0
  9
$INTERSECTIONCOLOR
 70
   257
  9
$DIMASSOC
280
     2
  9
$PROJECTNAME
  1

  0
ENDSEC
  0
SECTION
  2
CLASSES
  0
CLASS
  1
ACDBDICTIONARYWDFLT
  2
AcDbDictionaryWithDefault
  3
ObjectDBX Classes
 90
        0
 91
        3
280
     0
281
     0
  0
CLASS
  1

  2
exOdDbCircle
  3

 90
        0
 91
        3
280
     0
281
     1
  0
CLASS
  1

  2
exOdDbSpline
  3

 90
        0
 91
        3
280
     0
281
     1
  0
CLASS
  1

  2
exOdDbPolyline
  3

 90
        0
 91
        3
280
     0
281
     1
  0
ENDSEC
  0
SECTION
  2
TABLES
  0
TABLE
  2
VPORT
  5
8
330
0
100
AcDbSymbolTable
 70
     1
  0
VPORT
  5
29
330
8
100
AcDbSymbolTableRecord
100
AcDbViewportTableRecord
  2
*Active
 70
     0
 10
0.0
 20
0.0
 11
1.0
 21
1.0
 12
62359.2884247107
 22
145176.6297073015
 13
0.0
 23
0.0
 14
0.5
 24
0.5
 15
0.5
 25
0.5
 16
0.0
 26
0.0
 36
1.0
 17
0.0
 27
0.0
 37
0.0
 40
113.643832026275
 41
1.60267857142857
 42
50.0
 43
0.0
 44
0.0
 50
0.0
 51
0.0
 71
     0
 72
   100
 73
     1
 74
     3
 75
     0
 76
     0
 77
     0
 78
     0
281
     0
 65
     1
110
0.0
120
0.0
130
0.0
111
1.0
121
0.0
131
0.0
112
0.0
122
1.0
132
0.0
 79
     0
146
0.0
  0
ENDTAB
  0
TABLE
  2
LTYPE
  5
5
330
0
100
AcDbSymbolTable
 70
     8
  0
LTYPE
  5
14
330
5
100
AcDbSymbolTableRecord
100
AcDbLinetypeTableRecord
  2
ByBlock
 70
     0
  3

 72
    65
 73
     0
 40
0.0
  0
LTYPE
  5
15
330
5
100
AcDbSymbolTableRecord
100
AcDbLinetypeTableRecord
  2
ByLayer
 70
     0
  3

 72
    65
 73
     0
 40
0.0
  0
LTYPE
  5
16
330
5
100
AcDbSymbolTableRecord
100
AcDbLinetypeTableRecord
  2
Continuous
 70
     0
  3
Solid line
 72
    65
 73
     0
 40
0.0
  0
LTYPE
  5
2A
330
5
100
AcDbSymbolTableRecord
100
AcDbLinetypeTableRecord
  2
DASHED
 70
     0
  3
Dashed
 72
    65
 73
     2
 40
15.0
 49
7.0
 74
     0
 49
-8.0
 74
     0
  0
LTYPE
  5
2B
330
5
100
AcDbSymbolTableRecord
100
AcDbLinetypeTableRecord
  2
DOTTED
 70
     0
  3
Dotted
 72
    65
 73
     2
 40
1.0
 49
0.0
 74
     0
 49
-1.0
 74
     0
  0
LTYPE
  5
2C
330
5
100
AcDbSymbolTableRecord
100
AcDbLinetypeTableRecord
  2
DOT_CENTER
 70
     0
  3
Dot_Center
 72
    65
 73
     4
 40
14.0
 49
12.0
 74
     0
 49
-1.0
 74
     0
 49
0.0
 74
     0
 49
-1.0
 74
     0
  0
LTYPE
  5
2D
330
5
100
AcDbSymbolTableRecord
100
AcDbLinetypeTableRecord
  2
LONG_DASHED
 70
     0
  3
Long_Dashed
 72
    65
 73
     2
 40
15.0
 49
10.0
 74
     0
 49
-5.0
 74
     0
  0
LTYPE
  5
2E
330
5
100
AcDbSymbolTableRecord
100
AcDbLinetypeTableRecord
  2
DASH_CENTER
 70
     0
  3
Dash_Center
 72
    65
 73
     4
 40
14.0
 49
11.0
 74
     0
 49
-1.0
 74
     0
 49
1.0
 74
     0
 49
-1.0
 74
     0
  0
LTYPE
  5
2F
330
5
100
AcDbSymbolTableRecord
100
AcDbLinetypeTableRecord
  2
PHANTOM
 70
     0
  3
Phantom
 72
    65
 73
     6
 40
13.0
 49
10.0
 74
     0
 49
-1.0
 74
     0
 49
0.0
 74
     0
 49
-1.0
 74
     0
 49
0.0
 74
     0
 49
-1.0
 74
     0
  0
LTYPE
  5
30
330
5
100
AcDbSymbolTableRecord
100
AcDbLinetypeTableRecord
  2
CENTER_DASH_DASH
 70
     0
  3
Center_Dash_Dash
 72
    65
 73
     6
 40
14.0
 49
9.0
 74
     0
 49
-1.0
 74
     0
 49
1.0
 74
     0
 49
-1.0
 74
     0
 49
1.0
 74
     0
 49
-1.0
 74
     0
  0
ENDTAB
  0
TABLE
  2
LAYER
  5
2
330
0
100
AcDbSymbolTable
 70
     6
  0
LAYER
  5
10
330
2
100
AcDbSymbolTableRecord
100
AcDbLayerTableRecord
  2
0
 70
     0
 62
     7
  6
Continuous
370
    -3
390
F
  0
LAYER
  5
31
330
2
100
AcDbSymbolTableRecord
100
AcDbLayerTableRecord
  2
1
 70
     0
 62
     7
  6
Continuous
370
    -3
390
F
  0
LAYER
  5
32
330
2
100
AcDbSymbolTableRecord
100
AcDbLayerTableRecord
  2
A_ACHSEN
 70
     0
 62
     7
  6
Continuous
370
    -3
390
F
  0
LAYER
  5
33
330
2
100
AcDbSymbolTableRecord
100
AcDbLayerTableRecord
  2
A_BEMASSUNGEN
 70
     0
 62
     7
  6
Continuous
370
    -3
390
F
  0
LAYER
  5
34
330
2
100
AcDbSymbolTableRecord
100
AcDbLayerTableRecord
  2
A_RUNDUNGEN
 70
     0
 62
     7
  6
Continuous
370
    -3
390
F
  0
LAYER
  5
35
330
2
100
AcDbSymbolTableRecord
100
AcDbLayerTableRecord
  2
DEFAULT_2
 70
     0
 62
     7
  6
Continuous
370
    -3
390
F
  0
ENDTAB
  0
TABLE
  2
STYLE
  5
3
330
0
100
AcDbSymbolTable
 70
     2
  0
STYLE
  5
11
330
3
100
AcDbSymbolTableRecord
100
AcDbTextStyleTableRecord
  2
Standard
 70
     0
 40
0.0
 41
1.0
 50
0.0
 71
     0
 42
0.2
  3
txt
  4

  0
STYLE
  5
CB
330
3
100
AcDbSymbolTableRecord
100
AcDbTextStyleTableRecord
  2
CONVERTER_11
 70
     0
 40
0.0
 41
0.9
 50
0.0
 71
     0
 42
0.2
  3
txt.shx
  4

  0
ENDTAB
  0
TABLE
  2
VIEW
  5
6
330
0
100
AcDbSymbolTable
 70
     0
  0
ENDTAB
  0
TABLE
  2
UCS
  5
7
330
0
100
AcDbSymbolTable
 70
     0
  0
ENDTAB
  0
TABLE
  2
APPID
  5
9
330
0
100
AcDbSymbolTable
 70
     1
  0
APPID
  5
12
330
9
100
AcDbSymbolTableRecord
100
AcDbRegAppTableRecord
  2
ACAD
 70
     0
  0
ENDTAB
  0
TABLE
  2
DIMSTYLE
  5
A
330
0
100
AcDbSymbolTable
 70
    13
100
AcDbDimStyleTable
  0
DIMSTYLE
105
27
330
A
100
AcDbSymbolTableRecord
100
AcDbDimStyleTableRecord
  2
Standard
 70
     0
340
11
  0
DIMSTYLE
105
CF
102
{ACAD_REACTORS
330
D0
102
}
330
A
100
AcDbSymbolTableRecord
100
AcDbDimStyleTableRecord
  2
ME10_DIM_10
 70
     0
 41
3.5
 42
0.0
 44
2.0
 73
     0
 74
     0
 77
     1
 78
     8
140
3.5
147
2.0
172
     1
173
     1
176
     2
177
     2
178
     2
271
     3
340
CB
  0
DIMSTYLE
105
DC
102
{ACAD_REACTORS
330
DD
102
}
330
A
100
AcDbSymbolTableRecord
100
AcDbDimStyleTableRecord
  2
ME10_DIM_11
 70
     0
 41
3.5
 42
0.0
 44
2.0
 73
     0
 74
     0
 77
     1
 78
     8
140
3.5
147
2.0
172
     1
173
     1
176
     2
177
     2
178
     2
271
     3
340
CB
  0
DIMSTYLE
105
E8
102
{ACAD_REACTORS
330
E9
102
}
330
A
100
AcDbSymbolTableRecord
100
AcDbDimStyleTableRecord
  2
ME10_DIM_12
 70
     0
 41
3.5
 42
0.0
 44
2.0
 73
     0
 74
     0
 77
     1
 78
     8
140
3.5
147
2.0
172
     1
173
     1
176
     2
177
     2
178
     2
271
     3
340
CB
  0
DIMSTYLE
105
F3
102
{ACAD_REACTORS
330
F4
102
}
330
A
100
AcDbSymbolTableRecord
100
AcDbDimStyleTableRecord
  2
ME10_DIM_13
 70
     0
 41
3.5
 42
0.0
 44
2.0
 73
     0
 74
     0
 77
     1
 78
     8
140
3.5
147
2.0
172
     1
173
     1
176
     2
177
     2
178
     2
271
     3
340
CB
  0
DIMSTYLE
105
FE
102
{ACAD_REACTORS
330
FF
102
}
330
A
100
AcDbSymbolTableRecord
100
AcDbDimStyleTableRecord
  2
ME10_DIM_14
 70
     0
 41
3.5
 42
0.0
 44
2.0
 73
     0
 74
     0
 77
     1
 78
     8
140
3.5
147
2.0
172
     1
173
     1
176
     2
177
     2
178
     2
271
     3
340
CB
  0
DIMSTYLE
105
109
102
{ACAD_REACTORS
330
10A
102
}
330
A
100
AcDbSymbolTableRecord
100
AcDbDimStyleTableRecord
  2
ME10_DIM_15
 70
     0
 41
3.5
 42
0.0
 44
2.0
 73
     0
 74
     0
 77
     1
 78
     8
140
3.5
147
2.0
172
     1
173
     1
176
     2
177
     2
178
     2
271
     3
340
CB
  0
DIMSTYLE
105
114
102
{ACAD_REACTORS
330
115
102
}
330
A
100
AcDbSymbolTableRecord
100
AcDbDimStyleTableRecord
  2
ME10_DIM_16
 70
     0
 41
3.5
 42
0.0
 44
2.0
 73
     0
 74
     0
 77
     1
 78
     8
140
3.5
147
2.0
172
     1
173
     1
176
     2
177
     2
178
     2
271
     3
340
CB
  0
DIMSTYLE
105
121
102
{ACAD_REACTORS
330
122
102
}
330
A
100
AcDbSymbolTableRecord
100
AcDbDimStyleTableRecord
  2
ME10_DIM_17
 70
     0
 41
3.5
 42
0.0
 44
2.0
 73
     0
 74
     0
 77
     1
 78
     8
140
3.5
147
2.0
172
     1
173
     1
176
     2
177
     2
178
     2
271
     3
340
CB
  0
DIMSTYLE
105
12C
102
{ACAD_REACTORS
330
12D
102
}
330
A
100
AcDbSymbolTableRecord
100
AcDbDimStyleTableRecord
  2
ME10_DIM_18
 70
     0
 41
3.5
 42
0.0
 44
2.0
 73
     0
 74
     0
 77
     1
 78
     8
140
3.5
147
2.0
172
     1
173
     1
176
     2
177
     2
178
     2
271
     3
340
CB
  0
DIMSTYLE
105
137
102
{ACAD_REACTORS
330
138
102
}
330
A
100
AcDbSymbolTableRecord
100
AcDbDimStyleTableRecord
  2
ME10_DIM_19
 70
     0
 41
3.5
 42
0.0
 44
2.0
 73
     0
 74
     0
 77
     1
 78
     8
140
3.5
147
2.0
172
     1
173
     1
176
     2
177
     2
178
     2
271
     3
340
CB
  0
DIMSTYLE
105
142
102
{ACAD_REACTORS
330
143
102
}
330
A
100
AcDbSymbolTableRecord
100
AcDbDimStyleTableRecord
  2
ME10_DIM_20
 70
     0
 41
3.5
 42
0.0
 44
2.0
 73
     0
 74
     0
 77
     1
 78
     8
140
3.5
147
2.0
172
     1
173
     1
176
     2
177
     2
178
     2
271
     3
340
CB
  0
DIMSTYLE
105
14F
102
{ACAD_REACTORS
330
150
102
}
330
A
100
AcDbSymbolTableRecord
100
AcDbDimStyleTableRecord
  2
ME10_DIM_21
 70
     0
 41
3.5
 42
0.0
 44
2.0
 73
     0
 74
     0
 77
     1
 78
     8
140
3.5
147
2.0
172
     1
173
     1
176
     2
177
     2
178
     2
271
     3
340
CB
  0
ENDTAB
  0
TABLE
  2
BLOCK_RECORD
  5
1
330
0
100
AcDbSymbolTable
 70
    13
  0
BLOCK_RECORD
  5
1F
330
1
100
AcDbSymbolTableRecord
100
AcDbBlockTableRecord
  2
*Model_Space
340
22
  0
BLOCK_RECORD
  5
1B
330
1
100
AcDbSymbolTableRecord
100
AcDbBlockTableRecord
  2
*Paper_Space
340
1E
  0
BLOCK_RECORD
  5
23
330
1
100
AcDbSymbolTableRecord
100
AcDbBlockTableRecord
  2
*Paper_Space0
340
26
  0
BLOCK_RECORD
  5
C5
330
1
100
AcDbSymbolTableRecord
100
AcDbBlockTableRecord
  2
*D1
340
0
  0
BLOCK_RECORD
  5
D1
330
1
100
AcDbSymbolTableRecord
100
AcDbBlockTableRecord
  2
*D2
340
0
  0
BLOCK_RECORD
  5
DE
330
1
100
AcDbSymbolTableRecord
100
AcDbBlockTableRecord
  2
*D3
340
0
  0
BLOCK_RECORD
  5
EA
330
1
100
AcDbSymbolTableRecord
100
AcDbBlockTableRecord
  2
*D4
340
0
  0
BLOCK_RECORD
  5
F5
330
1
100
AcDbSymbolTableRecord
100
AcDbBlockTableRecord
  2
*D5
340
0
  0
BLOCK_RECORD
  5
100
330
1
100
AcDbSymbolTableRecord
100
AcDbBlockTableRecord
  2
*D6
340
0
  0
BLOCK_RECORD
  5
10B
330
1
100
AcDbSymbolTableRecord
100
AcDbBlockTableRecord
  2
*D7
340
0
  0
BLOCK_RECORD
  5
116
330
1
100
AcDbSymbolTableRecord
100
AcDbBlockTableRecord
  2
*D8
340
0
  0
BLOCK_RECORD
  5
123
330
1
100
AcDbSymbolTableRecord
100
AcDbBlockTableRecord
  2
*D9
340
0
  0
BLOCK_RECORD
  5
12E
330
1
100
AcDbSymbolTableRecord
100
AcDbBlockTableRecord
  2
*D10
340
0
  0
BLOCK_RECORD
  5
139
330
1
100
AcDbSymbolTableRecord
100
AcDbBlockTableRecord
  2
*D11
340
0
  0
BLOCK_RECORD
  5
144
330
1
100
AcDbSymbolTableRecord
100
AcDbBlockTableRecord
  2
*D12
340
0
  0
ENDTAB
  0
ENDSEC
  0
SECTION
  2
BLOCKS
  0
BLOCK
  5
20
330
1F
100
AcDbEntity
  8
0
100
AcDbBlockBegin
  2
*Model_Space
 70
     0
 71
     0
 10
0.0
 20
0.0
 30
0.0
  3
*Model_Space
  1

  0
ENDBLK
  5
21
330
1F
100
AcDbEntity
  8
0
100
AcDbBlockEnd
  0
BLOCK
  5
1C
330
1B
100
AcDbEntity
 67
     1
  8
0
100
AcDbBlockBegin
  2
*Paper_Space
 70
     0
 71
     0
 10
0.0
 20
0.0
 30
0.0
  3
*Paper_Space
  1

  0
ENDBLK
  5
1D
330
1B
100
AcDbEntity
 67
     1
  8
0
100
AcDbBlockEnd
  0
BLOCK
  5
24
330
23
100
AcDbEntity
  8
0
100
AcDbBlockBegin
  2
*Paper_Space0
 70
     0
 71
     0
 10
0.0
 20
0.0
 30
0.0
  3
*Paper_Space0
  1

  0
ENDBLK
  5
25
330
23
100
AcDbEntity
  8
0
100
AcDbBlockEnd
  0
BLOCK
  5
CD
330
C5
100
AcDbEntity
  8
0
100
AcDbBlockBegin
  2
*D1
 70
     1
 71
     0
 10
0.0
 20
0.0
 30
0.0
  3
*D1
  1

  0
LINE
  5
C6
330
C5
100
AcDbEntity
  8
1
  6
Continuous
 62
     2
100
AcDbLine
 10
62365.16664503897
 20
145138.294259944
 30
0.0
 11
62355.16664503897
 21
145138.294259944
 31
0.0
  0
LINE
  5
C7
330
C5
100
AcDbEntity
  8
1
  6
Continuous
 62
     2
100
AcDbLine
 10
62355.16664503897
 20
145169.9399321485
 30
0.0
 11
62355.16664503897
 21
145136.294259944
 31
0.0
  0
LINE
  5
C8
330
C5
100
AcDbEntity
  8
1
  6
Continuous
 62
     2
100
AcDbLine
 10
62365.16664503897
 20
145151.760664877
 30
0.0
 11
62365.16664503897
 21
145136.294259944
 31
0.0
  0
SOLID
  5
C9
330
C5
100
AcDbEntity
  8
1
 62
     2
100
AcDbTrace
 10
62361.66664503897
 20
145137.8334762024
 30
0.0
 11
62361.66664503897
 21
145138.7550436856
 31
0.0
 12
62365.16664503897
 22
145138.294259944
 32
0.0
 13
62365.16664503897
 23
145138.294259944
 33
0.0
  0
SOLID
  5
CA
330
C5
100
AcDbEntity
  8
1
 62
     2
100
AcDbTrace
 10
62358.66664503897
 20
145138.7550436856
 30
0.0
 11
62358.66664503897
 21
145137.8334762024
 31
0.0
 12
62355.16664503897
 22
145138.294259944
 32
0.0
 13
62355.16664503897
 23
145138.294259944
 33
0.0
  0
MTEXT
  5
CC
330
C5
100
AcDbEntity
  8
1
 62
     2
100
AcDbMText
 10
62358.22721802408
 20
145140.294259944
 30
0.0
 40
3.5
 41
0.0
 71
     7
 72
     1
  1
10
  7
CONVERTER_11
 11
0.9999999999970621
 21
2.424068405545307E-6
 31
0.0
 73
     1
 44
0.60024009603842
  0
ENDBLK
  5
CE
330
C5
100
AcDbEntity
  8
0
100
AcDbBlockEnd
  0
BLOCK
  5
DA
330
D1
100
AcDbEntity
  8
0
100
AcDbBlockBegin
  2
*D2
 70
     1
 71
     0
 10
0.0
 20
0.0
 30
0.0
  3
*D2
  1

  0
LINE
  5
D2
330
D1
100
AcDbEntity
  8
1
  6
Continuous
 62
     2
100
AcDbLine
 10
62292.0
 20
145173.17842666
 30
0.0
 11
62292.0
 21
145163.439855877
 31
0.0
  0
LINE
  5
D3
330
D1
100
AcDbEntity
  8
1
  6
Continuous
 62
     2
100
AcDbLine
 10
62292.0
 20
145163.439855877
 30
0.0
 11
62292.0
 21
145162.939855877
 31
0.0
  0
LINE
  5
D4
330
D1
100
AcDbEntity
  8
1
  6
Continuous
 62
     2
100
AcDbLine
 10
62292.0
 20
145162.939855877
 30
0.0
 11
62292.0
 21
145155.939855877
 31
0.0
  0
LINE
  5
D5
330
D1
100
AcDbEntity
  8
1
  6
Continuous
 62
     2
100
AcDbLine
 10
62350.72299241817
 20
145163.439855877
 30
0.0
 11
62290.0
 21
145163.439855877
 31
0.0
  0
LINE
  5
D6
330
D1
100
AcDbEntity
  8
1
  6
Continuous
 62
     2
100
AcDbLine
 10
62350.72302658916
 20
145162.939855877
 30
0.0
 11
62290.0
 21
145162.939855877
 31
0.0
  0
SOLID
  5
D7
330
D1
100
AcDbEntity
  8
1
 62
     2
100
AcDbTrace
 10
62291.53921625845
 20
145166.939855877
 30
0.0
 11
62292.46078374155
 21
145166.939855877
 31
0.0
 12
62292.0
 22
145163.439855877
 32
0.0
 13
62292.0
 23
145163.439855877
 33
0.0
  0
SOLID
  5
D8
330
D1
100
AcDbEntity
  8
1
 62
     2
100
AcDbTrace
 10
62292.46078374155
 20
145159.439855877
 30
0.0
 11
62291.53921625845
 21
145159.439855877
 31
0.0
 12
62292.0
 22
145162.939855877
 32
0.0
 13
62292.0
 23
145162.939855877
 33
0.0
  0
MTEXT
  5
D9
330
D1
100
AcDbEntity
  8
1
 62
     2
100
AcDbMText
 10
62290.0
 20
145166.79092666
 30
0.0
 40
3.5
 41
0.0
 71
     7
 72
     1
  1
0.5
  7
CONVERTER_11
 11
0.0
 21
1.0
 31
0.0
 73
     1
 44
0.60024009603842
  0
ENDBLK
  5
DB
330
D1
100
AcDbEntity
  8
0
100
AcDbBlockEnd
  0
BLOCK
  5
E6
330
DE
100
AcDbEntity
  8
0
100
AcDbBlockBegin
  2
*D3
 70
     1
 71
     0
 10
0.0
 20
0.0
 30
0.0
  3
*D3
  1

  0
LINE
  5
DF
330
DE
100
AcDbEntity
  8
1
  6
Continuous
 62
     2
100
AcDbLine
 10
62282.0
 20
145190.4395418232
 30
0.0
 11
62282.0
 21
145159.439855877
 31
0.0
  0
LINE
  5
E0
330
DE
100
AcDbEntity
  8
1
  6
Continuous
 62
     2
100
AcDbLine
 10
62338.66705958915
 20
145159.439855877
 30
0.0
 11
62295.568151294
 21
145159.439855877
 31
0.0
  0
LINE
  5
E1
330
DE
100
AcDbEntity
  8
1
  6
Continuous
 62
     2
100
AcDbLine
 10
62290.0987656285
 20
145159.439855877
 30
0.0
 11
62280.0
 21
145159.439855877
 31
0.0
  0
LINE
  5
E2
330
DE
100
AcDbEntity
  8
1
  6
Continuous
 62
     2
100
AcDbLine
 10
62338.66658603896
 20
145190.4395418232
 30
0.0
 11
62280.0
 21
145190.4395418232
 31
0.0
  0
SOLID
  5
E3
330
DE
100
AcDbEntity
  8
1
 62
     2
100
AcDbTrace
 10
62282.46078374155
 20
145186.9395418232
 30
0.0
 11
62281.53921625845
 21
145186.9395418232
 31
0.0
 12
62282.0
 22
145190.4395418232
 32
0.0
 13
62282.0
 23
145190.4395418232
 33
0.0
  0
SOLID
  5
E4
330
DE
100
AcDbEntity
  8
1
 62
     2
100
AcDbTrace
 10
62281.53921625845
 20
145162.939855877
 30
0.0
 11
62282.46078374155
 21
145162.939855877
 31
0.0
 12
62282.0
 22
145159.439855877
 32
0.0
 13
62282.0
 23
145159.439855877
 33
0.0
  0
MTEXT
  5
E5
330
DE
100
AcDbEntity
  8
1
 62
     2
100
AcDbMText
 10
62280.0
 20
145171.9146909105
 30
0.0
 40
3.5
 41
0.0
 71
     7
 72
     1
  1
31
  7
CONVERTER_11
 11
0.0
 21
1.0
 31
0.0
 73
     1
 44
0.60024009603842
  0
ENDBLK
  5
E7
330
DE
100
AcDbEntity
  8
0
100
AcDbBlockEnd
  0
BLOCK
  5
F1
330
EA
100
AcDbEntity
  8
0
100
AcDbBlockBegin
  2
*D4
 70
     1
 71
     0
 10
0.0
 20
0.0
 30
0.0
  3
*D4
  1

  0
LINE
  5
EB
330
EA
100
AcDbEntity
  8
1
  6
Continuous
 62
     2
100
AcDbLine
 10
62430.00130068269
 20
145185.439855877
 30
0.0
 11
62430.00130068269
 21
145169.4398368769
 31
0.0
  0
LINE
  5
EC
330
EA
100
AcDbEntity
  8
1
  6
Continuous
 62
     2
100
AcDbLine
 10
62406.95315758916
 20
145169.4398368769
 30
0.0
 11
62432.00130068269
 21
145169.4398368769
 31
0.0
  0
LINE
  5
ED
330
EA
100
AcDbEntity
  8
1
  6
Continuous
 62
     2
100
AcDbLine
 10
62365.16705958915
 20
145185.439855877
 30
0.0
 11
62432.00130068269
 21
145185.439855877
 31
0.0
  0
SOLID
  5
EE
330
EA
100
AcDbEntity
  8
1
 62
     2
100
AcDbTrace
 10
62430.46208442425
 20
145181.939855877
 30
0.0
 11
62429.54051694114
 21
145181.939855877
 31
0.0
 12
62430.00130068269
 22
145185.439855877
 32
0.0
 13
62430.00130068269
 23
145185.439855877
 33
0.0
  0
SOLID
  5
EF
330
EA
100
AcDbEntity
  8
1
 62
     2
100
AcDbTrace
 10
62429.54051694114
 20
145172.9398368769
 30
0.0
 11
62430.46208442425
 21
145172.9398368769
 31
0.0
 12
62430.00130068269
 22
145169.4398368769
 32
0.0
 13
62430.00130068269
 23
145169.4398368769
 33
0.0
  0
MTEXT
  5
F0
330
EA
100
AcDbEntity
  8
1
 62
     2
100
AcDbMText
 10
62428.00130068269
 20
145175.411526907
 30
0.0
 40
3.5
 41
0.0
 71
     7
 72
     1
  1
16
  7
CONVERTER_11
 11
0.0
 21
1.0
 31
0.0
 73
     1
 44
0.60024009603842
  0
ENDBLK
  5
F2
330
EA
100
AcDbEntity
  8
0
100
AcDbBlockEnd
  0
BLOCK
  5
FC
330
F5
100
AcDbEntity
  8
0
100
AcDbBlockBegin
  2
*D5
 70
     1
 71
     0
 10
0.0
 20
0.0
 30
0.0
  3
*D5
  1

  0
LINE
  5
F6
330
F5
100
AcDbEntity
  8
1
  6
Continuous
 62
     2
100
AcDbLine
 10
62440.0768494214
 20
145169.439855877
 30
0.0
 11
62440.0768494214
 21
145204.439855877
 31
0.0
  0
LINE
  5
F7
330
F5
100
AcDbEntity
  8
1
  6
Continuous
 62
     2
100
AcDbLine
 10
62387.16705958915
 20
145204.439855877
 30
0.0
 11
62442.0768494214
 21
145204.439855877
 31
0.0
  0
LINE
  5
F8
330
F5
100
AcDbEntity
  8
1
  6
Continuous
 62
     2
100
AcDbLine
 10
62388.16705958915
 20
145169.439855877
 30
0.0
 11
62442.0768494214
 21
145169.439855877
 31
0.0
  0
SOLID
  5
F9
330
F5
100
AcDbEntity
  8
1
 62
     2
100
AcDbTrace
 10
62439.61606567985
 20
145172.939855877
 30
0.0
 11
62440.53763316295
 21
145172.939855877
 31
0.0
 12
62440.0768494214
 22
145169.439855877
 32
0.0
 13
62440.0768494214
 23
145169.439855877
 33
0.0
  0
SOLID
  5
FA
330
F5
100
AcDbEntity
  8
1
 62
     2
100
AcDbTrace
 10
62440.53763316295
 20
145200.939855877
 30
0.0
 11
62439.61606567985
 21
145200.939855877
 31
0.0
 12
62440.0768494214
 22
145204.439855877
 32
0.0
 13
62440.0768494214
 23
145204.439855877
 33
0.0
  0
MTEXT
  5
FB
330
F5
100
AcDbEntity
  8
1
 62
     2
100
AcDbMText
 10
62438.0768494214
 20
145185.960430925
 30
0.0
 40
3.5
 41
0.0
 71
     7
 72
     1
  1
35
  7
CONVERTER_11
 11
0.0
 21
1.0
 31
0.0
 73
     1
 44
0.60024009603842
  0
ENDBLK
  5
FD
330
F5
100
AcDbEntity
  8
0
100
AcDbBlockEnd
  0
BLOCK
  5
107
330
100
100
AcDbEntity
  8
0
100
AcDbBlockBegin
  2
*D6
 70
     1
 71
     0
 10
0.0
 20
0.0
 30
0.0
  3
*D6
  1

  0
LINE
  5
101
330
100
100
AcDbEntity
  8
1
  6
Continuous
 62
     2
100
AcDbLine
 10
62367.16705958915
 20
145221.046892726
 30
0.0
 11
62387.16705958915
 21
145221.046892726
 31
0.0
  0
LINE
  5
102
330
100
100
AcDbEntity
  8
1
  6
Continuous
 62
     2
100
AcDbLine
 10
62367.16705958915
 20
145204.439855877
 30
0.0
 11
62367.16705958915
 21
145223.046892726
 31
0.0
  0
LINE
  5
103
330
100
100
AcDbEntity
  8
1
  6
Continuous
 62
     2
100
AcDbLine
 10
62387.16705958915
 20
145204.439855877
 30
0.0
 11
62387.16705958915
 21
145223.046892726
 31
0.0
  0
SOLID
  5
104
330
100
100
AcDbEntity
  8
1
 62
     2
100
AcDbTrace
 10
62370.66705958915
 20
145221.5076764676
 30
0.0
 11
62370.66705958915
 21
145220.5861089845
 31
0.0
 12
62367.16705958915
 22
145221.046892726
 32
0.0
 13
62367.16705958915
 23
145221.046892726
 33
0.0
  0
SOLID
  5
105
330
100
100
AcDbEntity
  8
1
 62
     2
100
AcDbTrace
 10
62383.66705958915
 20
145220.5861089845
 30
0.0
 11
62383.66705958915
 21
145221.5076764676
 31
0.0
 12
62387.16705958915
 22
145221.046892726
 32
0.0
 13
62387.16705958915
 23
145221.046892726
 33
0.0
  0
MTEXT
  5
106
330
100
100
AcDbEntity
  8
1
 62
     2
100
AcDbMText
 10
62373.4273922507
 20
145223.046892726
 30
0.0
 40
3.5
 41
0.0
 71
     7
 72
     1
  1
20
  7
CONVERTER_11
 11
0.9999999999970621
 21
2.424068405545307E-6
 31
0.0
 73
     1
 44
0.60024009603842
  0
ENDBLK
  5
108
330
100
100
AcDbEntity
  8
0
100
AcDbBlockEnd
  0
BLOCK
  5
112
330
10B
100
AcDbEntity
  8
0
100
AcDbBlockBegin
  2
*D7
 70
     1
 71
     0
 10
0.0
 20
0.0
 30
0.0
  3
*D7
  1

  0
LINE
  5
10C
330
10B
100
AcDbEntity
  8
1
  6
Continuous
 62
     2
100
AcDbLine
 10
62357.16681858916
 20
145221.046892726
 30
0.0
 11
62367.16705958916
 21
145221.046892726
 31
0.0
  0
LINE
  5
10D
330
10B
100
AcDbEntity
  8
1
  6
Continuous
 62
     2
100
AcDbLine
 10
62357.16681858915
 20
145188.439854805
 30
0.0
 11
62357.16681858915
 21
145223.046892726
 31
0.0
  0
LINE
  5
10E
330
10B
100
AcDbEntity
  8
1
  6
Continuous
 62
     2
100
AcDbLine
 10
62367.16705958916
 20
145204.439855877
 30
0.0
 11
62367.16705958916
 21
145223.046892726
 31
0.0
  0
SOLID
  5
10F
330
10B
100
AcDbEntity
  8
1
 62
     2
100
AcDbTrace
 10
62360.66681858916
 20
145221.5076764676
 30
0.0
 11
62360.66681858916
 21
145220.5861089845
 31
0.0
 12
62357.16681858916
 22
145221.046892726
 32
0.0
 13
62357.16681858916
 23
145221.046892726
 33
0.0
  0
SOLID
  5
110
330
10B
100
AcDbEntity
  8
1
 62
     2
100
AcDbTrace
 10
62363.66705958916
 20
145220.5861089845
 30
0.0
 11
62363.66705958916
 21
145221.5076764676
 31
0.0
 12
62367.16705958916
 22
145221.046892726
 32
0.0
 13
62367.16705958916
 23
145221.046892726
 33
0.0
  0
MTEXT
  5
111
330
10B
100
AcDbEntity
  8
1
 62
     2
100
AcDbMText
 10
62361.79264791428
 20
145223.046892726
 30
0.0
 40
3.5
 41
0.0
 71
     7
 72
     1
  1
10
  7
CONVERTER_11
 11
0.9999999999970621
 21
2.424068405545307E-6
 31
0.0
 73
     1
 44
0.60024009603842
  0
ENDBLK
  5
113
330
10B
100
AcDbEntity
  8
0
100
AcDbBlockEnd
  0
BLOCK
  5
11F
330
116
100
AcDbEntity
  8
0
100
AcDbBlockBegin
  2
*D8
 70
     1
 71
     0
 10
0.0
 20
0.0
 30
0.0
  3
*D8
  1

  0
LINE
  5
117
330
116
100
AcDbEntity
  8
1
  6
Continuous
 62
     2
100
AcDbLine
 10
62420.00130048342
 20
145176.439855877
 30
0.0
 11
62420.00130048342
 21
145169.439855877
 31
0.0
  0
LINE
  5
118
330
116
100
AcDbEntity
  8
1
  6
Continuous
 62
     2
100
AcDbLine
 10
62420.00130048342
 20
145169.439855877
 30
0.0
 11
62420.00130048342
 21
145163.439855877
 31
0.0
  0
LINE
  5
119
330
116
100
AcDbEntity
  8
1
  6
Continuous
 62
     2
100
AcDbLine
 10
62420.00130048342
 20
145163.439855877
 30
0.0
 11
62420.00130048342
 21
145156.439855877
 31
0.0
  0
LINE
  5
11A
330
116
100
AcDbEntity
  8
1
  6
Continuous
 62
     2
100
AcDbLine
 10
62388.16705958915
 20
145169.439855877
 30
0.0
 11
62422.00130048342
 21
145169.439855877
 31
0.0
  0
LINE
  5
11B
330
116
100
AcDbEntity
  8
1
  6
Continuous
 62
     2
100
AcDbLine
 10
62365.16664503896
 20
145163.439855877
 30
0.0
 11
62422.00130048342
 21
145163.439855877
 31
0.0
  0
SOLID
  5
11C
330
116
100
AcDbEntity
  8
1
 62
     2
100
AcDbTrace
 10
62419.54051674186
 20
145172.939855877
 30
0.0
 11
62420.46208422497
 21
145172.939855877
 31
0.0
 12
62420.00130048342
 22
145169.439855877
 32
0.0
 13
62420.00130048342
 23
145169.439855877
 33
0.0
  0
SOLID
  5
11D
330
116
100
AcDbEntity
  8
1
 62
     2
100
AcDbTrace
 10
62420.46208422497
 20
145159.939855877
 30
0.0
 11
62419.54051674186
 21
145159.939855877
 31
0.0
 12
62420.00130048342
 22
145163.439855877
 32
0.0
 13
62420.00130048342
 23
145163.439855877
 33
0.0
  0
MTEXT
  5
11E
330
116
100
AcDbEntity
  8
1
 62
     2
100
AcDbMText
 10
62418.00130048342
 20
145165.4140677814
 30
0.0
 40
3.5
 41
0.0
 71
     7
 72
     1
  1
6
  7
CONVERTER_11
 11
0.0
 21
1.0
 31
0.0
 73
     1
 44
0.60024009603842
  0
ENDBLK
  5
120
330
116
100
AcDbEntity
  8
0
100
AcDbBlockEnd
  0
BLOCK
  5
12A
330
123
100
AcDbEntity
  8
0
100
AcDbBlockBegin
  2
*D9
 70
     1
 71
     0
 10
0.0
 20
0.0
 30
0.0
  3
*D9
  1

  0
LINE
  5
124
330
123
100
AcDbEntity
  8
1
  6
Continuous
 62
     2
100
AcDbLine
 10
62430.00130039702
 20
145154.439855877
 30
0.0
 11
62430.00130039702
 21
145169.439855877
 31
0.0
  0
LINE
  5
125
330
123
100
AcDbEntity
  8
1
  6
Continuous
 62
     2
100
AcDbLine
 10
62388.16705958915
 20
145169.439855877
 30
0.0
 11
62432.00130039702
 21
145169.439855877
 31
0.0
  0
LINE
  5
126
330
123
100
AcDbEntity
  8
1
  6
Continuous
 62
     2
100
AcDbLine
 10
62389.58455958919
 20
145154.439855877
 30
0.0
 11
62432.00130039702
 21
145154.439855877
 31
0.0
  0
SOLID
  5
127
330
123
100
AcDbEntity
  8
1
 62
     2
100
AcDbTrace
 10
62429.54051665547
 20
145157.939855877
 30
0.0
 11
62430.46208413858
 21
145157.939855877
 31
0.0
 12
62430.00130039702
 22
145154.439855877
 32
0.0
 13
62430.00130039702
 23
145154.439855877
 33
0.0
  0
SOLID
  5
128
330
123
100
AcDbEntity
  8
1
 62
     2
100
AcDbTrace
 10
62430.46208413858
 20
145165.939855877
 30
0.0
 11
62429.54051665547
 21
145165.939855877
 31
0.0
 12
62430.00130039702
 22
145169.439855877
 32
0.0
 13
62430.00130039702
 23
145169.439855877
 33
0.0
  0
MTEXT
  5
129
330
123
100
AcDbEntity
  8
1
 62
     2
100
AcDbMText
 10
62428.00130039702
 20
145158.6490419134
 30
0.0
 40
3.5
 41
0.0
 71
     7
 72
     1
  1
15
  7
CONVERTER_11
 11
0.0
 21
1.0
 31
0.0
 73
     1
 44
0.60024009603842
  0
ENDBLK
  5
12B
330
123
100
AcDbEntity
  8
0
100
AcDbBlockEnd
  0
BLOCK
  5
135
330
12E
100
AcDbEntity
  8
0
100
AcDbBlockBegin
  2
*D10
 70
     1
 71
     0
 10
0.0
 20
0.0
 30
0.0
  3
*D10
  1

  0
LINE
  5
12F
330
12E
100
AcDbEntity
  8
1
  6
Continuous
 62
     2
100
AcDbLine
 10
62357.16681858915
 20
145221.046892726
 30
0.0
 11
62345.16685958914
 21
145221.046892726
 31
0.0
  0
LINE
  5
130
330
12E
100
AcDbEntity
  8
1
  6
Continuous
 62
     2
100
AcDbLine
 10
62357.16681858915
 20
145182.439854805
 30
0.0
 11
62357.16681858915
 21
145223.046892726
 31
0.0
  0
LINE
  5
131
330
12E
100
AcDbEntity
  8
1
  6
Continuous
 62
     2
100
AcDbLine
 10
62345.16685958914
 20
145190.4396001485
 30
0.0
 11
62345.16685958914
 21
145223.046892726
 31
0.0
  0
SOLID
  5
132
330
12E
100
AcDbEntity
  8
1
 62
     2
100
AcDbTrace
 10
62353.66681858915
 20
145220.5861089845
 30
0.0
 11
62353.66681858915
 21
145221.5076764676
 31
0.0
 12
62357.16681858915
 22
145221.046892726
 32
0.0
 13
62357.16681858915
 23
145221.046892726
 33
0.0
  0
SOLID
  5
133
330
12E
100
AcDbEntity
  8
1
 62
     2
100
AcDbTrace
 10
62348.66685958914
 20
145221.5076764676
 30
0.0
 11
62348.66685958914
 21
145220.5861089845
 31
0.0
 12
62345.16685958914
 22
145221.046892726
 32
0.0
 13
62345.16685958914
 23
145221.046892726
 33
0.0
  0
MTEXT
  5
134
330
12E
100
AcDbEntity
  8
1
 62
     2
100
AcDbMText
 10
62349.4298333181
 20
145223.046892726
 30
0.0
 40
3.5
 41
0.0
 71
     7
 72
     1
  1
12
  7
CONVERTER_11
 11
0.9999999999970621
 21
2.424068405545307E-6
 31
0.0
 73
     1
 44
0.60024009603842
  0
ENDBLK
  5
136
330
12E
100
AcDbEntity
  8
0
100
AcDbBlockEnd
  0
BLOCK
  5
140
330
139
100
AcDbEntity
  8
0
100
AcDbBlockBegin
  2
*D11
 70
     1
 71
     0
 10
0.0
 20
0.0
 30
0.0
  3
*D11
  1

  0
LINE
  5
13A
330
139
100
AcDbEntity
  8
1
  6
Continuous
 62
     2
100
AcDbLine
 10
62365.16664503896
 20
145128.712521877
 30
0.0
 11
62345.16685958914
 21
145128.712521877
 31
0.0
  0
LINE
  5
13B
330
139
100
AcDbEntity
  8
1
  6
Continuous
 62
     2
100
AcDbLine
 10
62345.16685958914
 20
145170.4399321485
 30
0.0
 11
62345.16685958914
 21
145126.712521877
 31
0.0
  0
LINE
  5
13C
330
139
100
AcDbEntity
  8
1
  6
Continuous
 62
     2
100
AcDbLine
 10
62365.16664503896
 20
145151.760664877
 30
0.0
 11
62365.16664503896
 21
145126.712521877
 31
0.0
  0
SOLID
  5
13D
330
139
100
AcDbEntity
  8
1
 62
     2
100
AcDbTrace
 10
62361.66664503896
 20
145128.2517381354
 30
0.0
 11
62361.66664503896
 21
145129.1733056185
 31
0.0
 12
62365.16664503896
 22
145128.712521877
 32
0.0
 13
62365.16664503896
 23
145128.712521877
 33
0.0
  0
SOLID
  5
13E
330
139
100
AcDbEntity
  8
1
 62
     2
100
AcDbTrace
 10
62348.66685958914
 20
145129.1733056185
 30
0.0
 11
62348.66685958914
 21
145128.2517381354
 31
0.0
 12
62345.16685958914
 22
145128.712521877
 32
0.0
 13
62345.16685958914
 23
145128.712521877
 33
0.0
  0
MTEXT
  5
13F
330
139
100
AcDbEntity
  8
1
 62
     2
100
AcDbMText
 10
62352.85397958884
 20
145130.712521877
 30
0.0
 40
3.5
 41
0.0
 71
     7
 72
     1
  1
20
  7
CONVERTER_11
 11
0.9999999999970621
 21
2.424068405545307E-6
 31
0.0
 73
     1
 44
0.60024009603842
  0
ENDBLK
  5
141
330
139
100
AcDbEntity
  8
0
100
AcDbBlockEnd
  0
BLOCK
  5
14D
330
144
100
AcDbEntity
  8
0
100
AcDbBlockBegin
  2
*D12
 70
     1
 71
     0
 10
0.0
 20
0.0
 30
0.0
  3
*D12
  1

  0
LINE
  5
145
330
144
100
AcDbEntity
  8
1
  6
Continuous
 62
     2
100
AcDbLine
 10
62338.66658603896
 20
145128.712521877
 30
0.0
 11
62326.9344771689
 21
145128.712521877
 31
0.0
  0
LINE
  5
146
330
144
100
AcDbEntity
  8
1
  6
Continuous
 62
     2
100
AcDbLine
 10
62345.16685958914
 20
145128.712521877
 30
0.0
 11
62338.66658603896
 21
145128.712521877
 31
0.0
  0
LINE
  5
147
330
144
100
AcDbEntity
  8
1
  6
Continuous
 62
     2
100
AcDbLine
 10
62352.16685958914
 20
145128.712521877
 30
0.0
 11
62345.16685958914
 21
145128.712521877
 31
0.0
  0
LINE
  5
148
330
144
100
AcDbEntity
  8
1
  6
Continuous
 62
     2
100
AcDbLine
 10
62338.66658603896
 20
145163.439855877
 30
0.0
 11
62338.66658603896
 21
145126.712521877
 31
0.0
  0
LINE
  5
149
330
144
100
AcDbEntity
  8
1
  6
Continuous
 62
     2
100
AcDbLine
 10
62345.16685958914
 20
145170.4399321485
 30
0.0
 11
62345.16685958914
 21
145126.712521877
 31
0.0
  0
SOLID
  5
14A
330
144
100
AcDbEntity
  8
1
 62
     2
100
AcDbTrace
 10
62348.66685958914
 20
145129.1733056185
 30
0.0
 11
62348.66685958914
 21
145128.2517381354
 31
0.0
 12
62345.16685958914
 22
145128.712521877
 32
0.0
 13
62345.16685958914
 23
145128.712521877
 33
0.0
  0
SOLID
  5
14B
330
144
100
AcDbEntity
  8
1
 62
     2
100
AcDbTrace
 10
62335.16658603896
 20
145128.2517381354
 30
0.0
 11
62335.16658603896
 21
145129.1733056185
 31
0.0
 12
62338.66658603896
 22
145128.712521877
 32
0.0
 13
62338.66658603896
 23
145128.712521877
 33
0.0
  0
MTEXT
  5
14C
330
144
100
AcDbEntity
  8
1
 62
     2
100
AcDbMText
 10
62326.9344771689
 20
145130.712521877
 30
0.0
 40
3.5
 41
0.0
 71
     7
 72
     1
  1
6.5
  7
CONVERTER_11
 11
0.9999999999970621
 21
2.424068405545307E-6
 31
0.0
 73
     1
 44
0.60024009603842
  0
ENDBLK
  5
14E
330
144
100
AcDbEntity
  8
0
100
AcDbBlockEnd
  0
ENDSEC
  0
SECTION
  2
ENTITIES
  0
POINT
  5
36
330
1F
100
AcDbEntity
  8
1
 62
     3
 60
     1
100
AcDbPoint
 10
62328.70661203898
 20
145211.046892726
 30
0.0
  0
POINT
  5
37
330
1F
100
AcDbEntity
  8
1
 62
     3
 60
     1
100
AcDbPoint
 10
62333.00130058915
 20
145211.046892726
 30
0.0
  0
POINT
  5
38
330
1F
100
AcDbEntity
  8
A_BEMASSUNGEN
 62
     7
100
AcDbPoint
 10
62406.95315758916
 20
145169.4398368769
 30
0.0
  0
POINT
  5
39
330
1F
100
AcDbEntity
  8
A_BEMASSUNGEN
 62
     7
100
AcDbPoint
 10
62387.66705958915
 20
145168.439855877
 30
0.0
  0
POINT
  5
3A
330
1F
100
AcDbEntity
  8
A_BEMASSUNGEN
 62
     7
100
AcDbPoint
 10
62366.16705958915
 20
145169.439855877
 30
0.0
  0
POINT
  5
3B
330
1F
100
AcDbEntity
  8
A_BEMASSUNGEN
 62
     7
100
AcDbPoint
 10
62366.66705958915
 20
145168.439855877
 30
0.0
  0
POINT
  5
3C
330
1F
100
AcDbEntity
  8
A_BEMASSUNGEN
 62
     7
100
AcDbPoint
 10
62388.16705958915
 20
145169.439855877
 30
0.0
  0
POINT
  5
3D
330
1F
100
AcDbEntity
  8
1
 62
     3
 60
     1
100
AcDbPoint
 10
62302.0
 20
145148.0
 30
0.0
  0
POINT
  5
3E
330
1F
100
AcDbEntity
  8
1
 62
     3
 60
     1
100
AcDbPoint
 10
62350.05448458916
 20
145211.046892726
 30
0.0
  0
LINE
  5
3F
330
1F
100
AcDbEntity
  8
DEFAULT_2
  6
Continuous
 62
     7
100
AcDbLine
 10
62351.78401108971
 20
145163.439855877
 30
0.0
 11
62364.8656032591
 21
145163.439855877
 31
0.0
  0
LINE
  5
40
330
1F
100
AcDbEntity
  8
0
  6
Continuous
 62
     7
100
AcDbLine
 10
62355.15524158915
 20
145164.681208862
 30
0.0
 11
62353.25684312865
 21
145164.681208862
 31
0.0
  0
LINE
  5
41
330
1F
100
AcDbEntity
  8
0
  6
Continuous
 62
     7
100
AcDbLine
 10
62357.53828049322
 20
145164.6812086307
 30
0.0
 11
62363.57281335176
 21
145164.6812088495
 31
0.0
  0
LINE
  5
42
330
1F
100
AcDbEntity
  8
0
  6
Continuous
 62
     7
100
AcDbLine
 10
62360.19228659193
 20
145167.8499685336
 30
0.0
 11
62356.76629996038
 21
145167.8499685336
 31
0.0
  0
LINE
  5
43
330
1F
100
AcDbEntity
  8
0
  6
Continuous
 62
     7
100
AcDbLine
 10
62360.22015871349
 20
145168.3981144882
 30
0.0
 11
62356.62802705397
 21
145168.3981144882
 31
0.0
  0
LINE
  5
44
330
1F
100
AcDbEntity
  8
0
  6
Continuous
 62
     7
100
AcDbLine
 10
62363.9411354312
 20
145168.6121615083
 30
0.0
 11
62360.95447956662
 21
145168.6121615083
 31
0.0
  0
LINE
  5
45
330
1F
100
AcDbEntity
  8
0
  6
Continuous
 62
     7
100
AcDbLine
 10
62363.57281332686
 20
145164.681208862
 30
0.0
 11
62362.18981570146
 21
145165.3757107577
 31
0.0
  0
LINE
  5
46
330
1F
100
AcDbEntity
  8
0
  6
Continuous
 62
     7
100
AcDbLine
 10
62364.80562622903
 20
145164.6409115511
 30
0.0
 11
62362.97129730911
 21
145165.7131511537
 31
0.0
  0
LINE
  5
47
330
1F
100
AcDbEntity
  8
0
  6
Continuous
 62
     7
100
AcDbLine
 10
62356.63532574235
 20
145168.3017897901
 30
0.0
 11
62356.62802705397
 21
145168.3981144882
 31
0.0
  0
LINE
  5
48
330
1F
100
AcDbEntity
  8
0
  6
Continuous
 62
     7
100
AcDbLine
 10
62355.16664503896
 20
145169.64662182
 30
0.0
 11
62355.16664503896
 21
145169.548590877
 31
0.0
  0
LINE
  5
49
330
1F
100
AcDbEntity
  8
0
  6
Continuous
 62
     7
100
AcDbLine
 10
62356.29314823752
 20
145168.3981144882
 30
0.0
 11
62356.29314823752
 21
145168.5087151717
 31
0.0
  0
LINE
  5
4A
330
1F
100
AcDbEntity
  8
0
  6
Continuous
 62
     7
100
AcDbLine
 10
62354.22884873102
 20
145166.4802496304
 30
0.0
 11
62352.09685955587
 21
145164.9241298681
 31
0.0
  0
LINE
  5
4B
330
1F
100
AcDbEntity
  8
0
  6
Continuous
 62
     7
100
AcDbLine
 10
62353.18350613323
 20
145164.9060798376
 30
0.0
 11
62354.61513460809
 21
145165.9510112428
 31
0.0
  0
LINE
  5
4C
330
1F
100
AcDbEntity
  8
0
  6
Continuous
 62
     7
100
AcDbLine
 10
62362.18333901946
 20
145167.7172355017
 30
0.0
 11
62363.9411354312
 21
145168.6121615083
 31
0.0
  0
LINE
  5
4D
330
1F
100
AcDbEntity
  8
0
  6
Continuous
 62
     7
100
AcDbLine
 10
62363.12174738884
 20
145167.6340125339
 30
0.0
 11
62364.81769105194
 21
145168.4780259051
 31
0.0
  0
LINE
  5
4E
330
1F
100
AcDbEntity
  8
0
  6
Continuous
 62
     7
100
AcDbLine
 10
62352.69439761141
 20
145166.4802496223
 30
0.0
 11
62351.15873924441
 21
145165.3593875339
 31
0.0
  0
LINE
  5
4F
330
1F
100
AcDbEntity
  8
0
  6
Continuous
 62
     7
100
AcDbLine
 10
62351.94981000856
 20
145165.1255979274
 30
0.0
 11
62353.08068349755
 21
145165.9510112412
 31
0.0
  0
LINE
  5
50
330
1F
100
AcDbEntity
  8
0
  6
Continuous
 62
     7
100
AcDbLine
 10
62345.16658603896
 20
145190.4396001484
 30
0.0
 11
62338.66658603896
 21
145190.4395418232
 31
0.0
  0
LINE
  5
51
330
1F
100
AcDbEntity
  8
0
  6
Continuous
 62
     7
100
AcDbLine
 10
62367.16705958915
 20
145182.439854805
 30
0.0
 11
62367.16705958915
 21
145169.439855877
 31
0.0
  0
LINE
  5
52
330
1F
100
AcDbEntity
  8
0
  6
Continuous
 62
     7
100
AcDbLine
 10
62367.16705958915
 20
145188.439854805
 30
0.0
 11
62367.16705958915
 21
145182.439854805
 31
0.0
  0
LINE
  5
53
330
1F
100
AcDbEntity
  8
1
  6
DOT_CENTER
 62
     2
100
AcDbLine
 10
62328.70661203898
 20
145211.046892726
 30
0.0
 11
62333.00130058915
 21
145211.046892726
 31
0.0
  0
LINE
  5
54
330
1F
100
AcDbEntity
  8
1
  6
Continuous
 62
     7
100
AcDbLine
 10
62328.70661203898
 20
145193.418621877
 30
0.0
 11
62328.70661203898
 21
145211.046892726
 31
0.0
  0
LINE
  5
55
330
1F
100
AcDbEntity
  8
A_ACHSEN
  6
DOT_CENTER
 62
     2
100
AcDbLine
 10
62322.98829850508
 20
145182.4399321485
 30
0.0
 11
62348.90095880535
 21
145182.4399321485
 31
0.0
  0
LINE
  5
56
330
1F
100
AcDbEntity
  8
A_ACHSEN
  6
DOT_CENTER
 62
     2
100
AcDbLine
 10
62322.98829850508
 20
145172.4399321485
 30
0.0
 11
62345.16685958914
 21
145172.4399321485
 31
0.0
  0
LINE
  5
57
330
1F
100
AcDbEntity
  8
0
  6
Continuous
 62
     7
100
AcDbLine
 10
62350.72299241817
 20
145163.439855877
 30
0.0
 11
62350.72275303898
 21
145166.942521877
 31
0.0
  0
LINE
  5
58
330
1F
100
AcDbEntity
  8
1
  6
Continuous
 62
     7
100
AcDbLine
 10
62338.66658603896
 20
145190.4395418232
 30
0.0
 11
62338.66658603896
 21
145163.439855877
 31
0.0
  0
LINE
  5
59
330
1F
100
AcDbEntity
  8
0
  6
Continuous
 62
     7
100
AcDbLine
 10
62377.16705958915
 20
145166.857355877
 30
0.0
 11
62377.16705958915
 21
145169.439855877
 31
0.0
  0
LINE
  5
5A
330
1F
100
AcDbEntity
  8
0
  6
Continuous
 62
     7
100
AcDbLine
 10
62380.66705958915
 20
145168.439855877
 30
0.0
 11
62387.66705958915
 21
145168.439855877
 31
0.0
  0
LINE
  5
5B
330
1F
100
AcDbEntity
  8
1
  6
DOT_CENTER
 62
     2
100
AcDbLine
 10
62389.58455958919
 20
145154.439855877
 30
0.0
 11
62364.74955958914
 21
145154.439855877
 31
0.0
  0
LINE
  5
5C
330
1F
100
AcDbEntity
  8
1
  6
DOT_CENTER
 62
     2
100
AcDbLine
 10
62377.16705958915
 20
145166.857355877
 30
0.0
 11
62377.16705958915
 21
145142.0223558769
 31
0.0
  0
LINE
  5
5D
330
1F
100
AcDbEntity
  8
0
  6
Continuous
 62
     7
100
AcDbLine
 10
62367.16705958915
 20
145204.439855877
 30
0.0
 11
62367.16705958915
 21
145188.439854805
 31
0.0
  0
LINE
  5
5E
330
1F
100
AcDbEntity
  8
0
  6
Continuous
 62
     7
100
AcDbLine
 10
62342.66705958915
 20
145159.439855877
 30
0.0
 11
62365.16664503896
 21
145159.439855877
 31
0.0
  0
LINE
  5
5F
330
1F
100
AcDbEntity
  8
0
  6
Continuous
 62
     7
100
AcDbLine
 10
62388.16705958915
 20
145169.439855877
 30
0.0
 11
62387.66691858915
 21
145169.439855877
 31
0.0
  0
LINE
  5
60
330
1F
100
AcDbEntity
  8
0
  6
Continuous
 62
     7
100
AcDbLine
 10
62384.16705958915
 20
145169.439855877
 30
0.0
 11
62384.16705958915
 21
145168.439855877
 31
0.0
  0
LINE
  5
61
330
1F
100
AcDbEntity
  8
0
  6
Continuous
 62
     7
100
AcDbLine
 10
62388.16705958915
 20
145168.939855877
 30
0.0
 11
62388.16705958915
 21
145169.439855877
 31
0.0
  0
LINE
  5
62
330
1F
100
AcDbEntity
  8
0
  6
Continuous
 62
     7
100
AcDbLine
 10
62374.16705958915
 20
145169.439855877
 30
0.0
 11
62374.16705958915
 21
145168.439855877
 31
0.0
  0
LINE
  5
63
330
1F
100
AcDbEntity
  8
A_RUNDUNGEN
  6
Continuous
 62
     7
100
AcDbLine
 10
62350.72302658916
 20
145162.939855877
 30
0.0
 11
62366.66666158916
 21
145162.939855877
 31
0.0
  0
LINE
  5
64
330
1F
100
AcDbEntity
  8
A_RUNDUNGEN
  6
Continuous
 62
     7
100
AcDbLine
 10
62365.66666158916
 20
145162.939855877
 30
0.0
 11
62365.66666158916
 21
145159.439855877
 31
0.0
  0
LINE
  5
65
330
1F
100
AcDbEntity
  8
A_RUNDUNGEN
  6
Continuous
 62
     7
100
AcDbLine
 10
62342.66705958915
 20
145162.939855877
 30
0.0
 11
62350.72302658916
 21
145162.939855877
 31
0.0
  0
LINE
  5
66
330
1F
100
AcDbEntity
  8
0
  6
Continuous
 62
     7
100
AcDbLine
 10
62366.66666158916
 20
145162.939855877
 30
0.0
 11
62367.26705958915
 21
145162.939855877
 31
0.0
  0
LINE
  5
67
330
1F
100
AcDbEntity
  8
0
  6
Continuous
 62
     7
100
AcDbLine
 10
62367.34304641155
 20
145162.9456636038
 30
0.0
 11
62375.66252050556
 21
145164.2248628849
 31
0.0
  0
LINE
  5
68
330
1F
100
AcDbEntity
  8
0
  6
Continuous
 62
     7
100
AcDbLine
 10
62365.66666158916
 20
145159.439855877
 30
0.0
 11
62367.26705958915
 21
145159.439855877
 31
0.0
  0
LINE
  5
69
330
1F
100
AcDbEntity
  8
0
  6
Continuous
 62
     7
100
AcDbLine
 10
62367.87495416845
 20
145159.4863176919
 30
0.0
 11
62376.19442826236
 21
145160.765516973
 31
0.0
  0
LINE
  5
6A
330
1F
100
AcDbEntity
  8
0
  6
Continuous
 62
     7
100
AcDbLine
 10
62371.66856562866
 20
145157.7149992579
 30
0.0
 11
62368.6400982519
 21
145159.5188868233
 31
0.0
  0
LINE
  5
6B
330
1F
100
AcDbEntity
  8
0
  6
Continuous
 62
     7
100
AcDbLine
 10
62355.16664503896
 20
145166.9425981485
 30
0.0
 11
62355.16664503896
 21
145169.9399321485
 31
0.0
  0
LINE
  5
6C
330
1F
100
AcDbEntity
  8
0
  6
Continuous
 62
     7
100
AcDbLine
 10
62345.65571858914
 20
145166.9425981485
 30
0.0
 11
62355.16664503896
 21
145166.9425981485
 31
0.0
  0
LINE
  5
6D
330
1F
100
AcDbEntity
  8
0
  6
Continuous
 62
     7
100
AcDbLine
 10
62355.16664503896
 20
145169.9399321485
 30
0.0
 11
62345.66685958914
 21
145169.9399321485
 31
0.0
  0
LINE
  5
6E
330
1F
100
AcDbEntity
  8
0
  6
DASHED
 62
     2
100
AcDbLine
 10
62381.20510367805
 20
145159.4694383583
 30
0.0
 11
62378.66284620066
 21
145161.51051191
 31
0.0
  0
LINE
  5
6F
330
1F
100
AcDbEntity
  8
0
  6
Continuous
 62
     7
100
AcDbLine
 10
62377.16705958915
 20
145168.439855877
 30
0.0
 11
62366.66705958915
 21
145168.439855877
 31
0.0
  0
LINE
  5
70
330
1F
100
AcDbEntity
  8
0
  6
Continuous
 62
     7
100
AcDbLine
 10
62383.39629039296
 20
145162.1986691621
 30
0.0
 11
62380.85403291555
 21
145164.2397427138
 31
0.0
  0
LINE
  5
71
330
1F
100
AcDbEntity
  8
0
  6
Continuous
 62
     7
100
AcDbLine
 10
62367.16705958915
 20
145204.439855877
 30
0.0
 11
62387.16705958915
 21
145204.439855877
 31
0.0
  0
LINE
  5
72
330
1F
100
AcDbEntity
  8
0
  6
Continuous
 62
     7
100
AcDbLine
 10
62342.16705958915
 20
145190.4399321485
 30
0.0
 11
62342.16705958915
 21
145163.4399321485
 31
0.0
  0
LINE
  5
73
330
1F
100
AcDbEntity
  8
0
  6
Continuous
 62
     7
100
AcDbLine
 10
62345.16685958914
 20
145190.4396001485
 30
0.0
 11
62345.16685958914
 21
145185.9399321485
 31
0.0
  0
LINE
  5
74
330
1F
100
AcDbEntity
  8
0
  6
Continuous
 62
     7
100
AcDbLine
 10
62377.16705958915
 20
145164.364855877
 30
0.0
 11
62377.16705958915
 21
145164.8679651849
 31
0.0
  0
LINE
  5
75
330
1F
100
AcDbEntity
  8
0
  6
Continuous
 62
     7
100
AcDbLine
 10
62380.66705958915
 20
145164.6296328286
 30
0.0
 11
62380.66705958915
 21
145169.439855877
 31
0.0
  0
LINE
  5
76
330
1F
100
AcDbEntity
  8
0
  6
Continuous
 62
     7
100
AcDbLine
 10
62366.16705958915
 20
145168.939855877
 30
0.0
 11
62366.16705958915
 21
145169.439855877
 31
0.0
  0
LINE
  5
77
330
1F
100
AcDbEntity
  8
0
  6
Continuous
 62
     7
100
AcDbLine
 10
62345.16685958914
 20
145190.439523877
 30
0.0
 11
62345.16685958914
 21
145170.4399321485
 31
0.0
  0
LINE
  5
78
330
1F
100
AcDbEntity
  8
0
  6
Continuous
 62
     7
100
AcDbLine
 10
62377.16705958915
 20
145164.8679651849
 30
0.0
 11
62377.16705958915
 21
145166.857355877
 31
0.0
  0
LINE
  5
79
330
1F
100
AcDbEntity
  8
0
  6
Continuous
 62
     7
100
AcDbLine
 10
62387.16705958915
 20
145169.439855877
 30
0.0
 11
62387.66691858915
 21
145169.439855877
 31
0.0
  0
LINE
  5
7A
330
1F
100
AcDbEntity
  8
0
  6
Continuous
 62
     7
100
AcDbLine
 10
62384.16705958915
 20
145169.439855877
 30
0.0
 11
62380.66705958915
 21
145169.439855877
 31
0.0
  0
LINE
  5
7B
330
1F
100
AcDbEntity
  8
0
  6
Continuous
 62
     7
100
AcDbLine
 10
62374.16705958915
 20
145169.439855877
 30
0.0
 11
62367.16705958915
 21
145169.439855877
 31
0.0
  0
LINE
  5
7C
330
1F
100
AcDbEntity
  8
0
  6
Continuous
 62
     7
100
AcDbLine
 10
62367.16705958915
 20
145169.439855877
 30
0.0
 11
62366.16705958915
 21
145169.439855877
 31
0.0
  0
LINE
  5
7D
330
1F
100
AcDbEntity
  8
0
  6
Continuous
 62
     7
100
AcDbLine
 10
62387.16705958915
 20
145204.439855877
 30
0.0
 11
62387.16705958915
 21
145169.439855877
 31
0.0
  0
LINE
  5
7E
330
1F
100
AcDbEntity
  8
0
  6
Continuous
 62
     7
100
AcDbLine
 10
62387.16705958915
 20
145169.439855877
 30
0.0
 11
62384.16705958915
 21
145169.439855877
 31
0.0
  0
LINE
  5
7F
330
1F
100
AcDbEntity
  8
0
  6
Continuous
 62
     7
100
AcDbLine
 10
62365.16664503896
 20
145159.439855877
 30
0.0
 11
62365.66666158916
 21
145159.439855877
 31
0.0
  0
LINE
  5
80
330
1F
100
AcDbEntity
  8
0
  6
Continuous
 62
     7
100
AcDbLine
 10
62357.16681858915
 20
145182.439854805
 30
0.0
 11
62357.16681858915
 21
145170.9639088769
 31
0.0
  0
LINE
  5
81
330
1F
100
AcDbEntity
  8
0
  6
Continuous
 62
     7
100
AcDbLine
 10
62367.16705958915
 20
145188.439854805
 30
0.0
 11
62357.16681858915
 21
145188.439854805
 31
0.0
  0
LINE
  5
82
330
1F
100
AcDbEntity
  8
1
  6
DOT_CENTER
 62
     2
100
AcDbLine
 10
62302.0
 20
145212.712521877
 30
0.0
 11
62302.0
 21
145146.712521877
 31
0.0
  0
LINE
  5
83
330
1F
100
AcDbEntity
  8
1
  6
DOT_CENTER
 62
     2
100
AcDbLine
 10
62300.0
 20
145211.046892726
 30
0.0
 11
62328.70661203898
 21
145211.046892726
 31
0.0
  0
LINE
  5
84
330
1F
100
AcDbEntity
  8
0
  6
Continuous
 62
     7
100
AcDbLine
 10
62343.64251403896
 20
145193.418622877
 30
0.0
 11
62328.70661203898
 21
145193.418621877
 31
0.0
  0
LINE
  5
85
330
1F
100
AcDbEntity
  8
1
  6
Continuous
 62
     7
100
AcDbLine
 10
62345.16658603896
 20
145191.894550877
 30
0.0
 11
62345.16658603896
 21
145190.4396001484
 31
0.0
  0
LINE
  5
86
330
1F
100
AcDbEntity
  8
1
  6
Continuous
 62
     7
100
AcDbLine
 10
62338.66705958915
 20
145163.439855877
 30
0.0
 11
62338.66705958915
 21
145159.439855877
 31
0.0
  0
LINE
  5
87
330
1F
100
AcDbEntity
  8
1
  6
Continuous
 62
     7
100
AcDbLine
 10
62342.66705958915
 20
145159.439855877
 30
0.0
 11
62338.66705958915
 21
145159.439855877
 31
0.0
  0
LINE
  5
88
330
1F
100
AcDbEntity
  8
1
  6
Continuous
 62
     7
100
AcDbLine
 10
62350.72299241817
 20
145163.439855877
 30
0.0
 11
62364.93248083651
 21
145163.439855877
 31
0.0
  0
LINE
  5
89
330
1F
100
AcDbEntity
  8
1
  6
Continuous
 62
     7
100
AcDbLine
 10
62364.93248083651
 20
145163.439855877
 30
0.0
 11
62365.16664503896
 21
145163.439855877
 31
0.0
  0
LINE
  5
8A
330
1F
100
AcDbEntity
  8
1
  6
Continuous
 62
     7
100
AcDbLine
 10
62365.16664503896
 20
145163.439855877
 30
0.0
 11
62365.16664503896
 21
145162.939855877
 31
0.0
  0
LINE
  5
8B
330
1F
100
AcDbEntity
  8
0
  6
Continuous
 62
     7
100
AcDbLine
 10
62365.16664503896
 20
145159.439855877
 30
0.0
 11
62365.16664503896
 21
145151.760664877
 31
0.0
  0
LINE
  5
8C
330
1F
100
AcDbEntity
  8
0
  6
Continuous
 62
     7
100
AcDbLine
 10
62302.0
 20
145148.712521877
 30
0.0
 11
62362.11850203897
 21
145148.712521877
 31
0.0
  0
LINE
  5
8D
330
1F
100
AcDbEntity
  8
1
  6
DOT_CENTER
 62
     2
100
AcDbLine
 10
62342.00130058915
 20
145211.046892726
 30
0.0
 11
62412.00130058915
 21
145211.046892726
 31
0.0
  0
LINE
  5
8E
330
1F
100
AcDbEntity
  8
0
  6
Continuous
 62
     7
100
AcDbLine
 10
62350.05448458916
 20
145211.046892726
 30
0.0
 11
62350.05448458916
 21
145191.2848638769
 31
0.0
  0
LINE
  5
8F
330
1F
100
AcDbEntity
  8
0
  6
Continuous
 62
     7
100
AcDbLine
 10
62351.57855558916
 20
145189.7607918769
 30
0.0
 11
62355.65634460324
 21
145189.7607918769
 31
0.0
  0
LINE
  5
90
330
1F
100
AcDbEntity
  8
0
  6
Continuous
 62
     7
100
AcDbLine
 10
62357.16681858915
 20
145188.439854805
 30
0.0
 11
62357.15322057506
 21
145188.439854805
 31
0.0
  0
LINE
  5
91
330
1F
100
AcDbEntity
  8
0
  6
Continuous
 62
     7
100
AcDbLine
 10
62357.16681858915
 20
145182.439854805
 30
0.0
 11
62367.16705958915
 21
145182.439854805
 31
0.0
  0
LINE
  5
92
330
1F
100
AcDbEntity
  8
1
  6
DOT_CENTER
 62
     2
100
AcDbLine
 10
62356.16691858915
 20
145185.439855877
 30
0.0
 11
62365.16705958915
 21
145185.439855877
 31
0.0
  0
LINE
  5
93
330
1F
100
AcDbEntity
  8
0
  6
Continuous
 62
     3
100
AcDbLine
 10
62357.16681858915
 20
145188.439854805
 30
0.0
 11
62357.16681858915
 21
145182.439854805
 31
0.0
  0
LINE
  5
94
330
1F
100
AcDbEntity
  8
0
  6
Continuous
 62
     7
100
AcDbLine
 10
62358.53303158915
 20
145169.439855877
 30
0.0
 11
62367.16705958915
 21
145169.439855877
 31
0.0
  0
LINE
  5
95
330
1F
100
AcDbEntity
  8
0
  6
Continuous
 62
     7
100
AcDbLine
 10
62388.16705958915
 20
145169.439855877
 30
0.0
 11
62406.95315758916
 21
145169.4398368769
 31
0.0
  0
LINE
  5
96
330
1F
100
AcDbEntity
  8
0
  6
Continuous
 62
     7
100
AcDbLine
 10
62410.00130058915
 20
145172.487979877
 30
0.0
 11
62410.00130127915
 21
145211.046892726
 31
0.0
  0
LINE
  5
97
330
1F
100
AcDbEntity
  8
1
  6
DOT_CENTER
 62
     2
100
AcDbLine
 10
62377.16705958915
 20
145205.439855877
 30
0.0
 11
62377.16705958915
 21
145169.439855877
 31
0.0
  0
LINE
  5
98
330
1F
100
AcDbEntity
  8
0
  6
Continuous
 62
     7
100
AcDbLine
 10
62380.66705958915
 20
145169.439855877
 30
0.0
 11
62377.16705958915
 21
145169.439855877
 31
0.0
  0
LINE
  5
99
330
1F
100
AcDbEntity
  8
0
  6
Continuous
 62
     7
100
AcDbLine
 10
62377.16705958915
 20
145169.439855877
 30
0.0
 11
62374.16705958915
 21
145169.439855877
 31
0.0
  0
ARC
  5
9A
330
1F
100
AcDbEntity
  8
0
  6
Continuous
 62
     7
100
AcDbCircle
 10
62364.53733589036
 20
145169.0286941812
 30
0.0
 40
0.6179276389255431
100
AcDbArc
 50
-63.01853409246758
 51
41.71210603830946
  0
ARC
  5
9B
330
1F
100
AcDbEntity
  8
0
  6
Continuous
 62
     7
100
AcDbCircle
 10
62336.6740579822
 20
145164.681208862
 30
0.0
 40
20.34058075782558
100
AcDbArc
 50
1.45618139924455
 51
8.96233305969715
  0
ARC
  5
9C
330
1F
100
AcDbEntity
  8
0
  6
Continuous
 62
     7
100
AcDbCircle
 10
62362.7785617109
 20
145166.5481105647
 30
0.0
 40
1.311923462222423
100
AcDbArc
 50
116.9814689310713
 51
-116.6645082824605
  0
ARC
  5
9D
330
1F
100
AcDbEntity
  8
0
  6
Continuous
 62
     7
100
AcDbCircle
 10
62355.16094331406
 20
145168.5144168966
 30
0.0
 40
1.132219280162134
100
AcDbArc
 50
-0.28853611624994
 51
89.71146388410342
  0
ARC
  5
9E
330
1F
100
AcDbEntity
  8
0
  6
Continuous
 62
     7
100
AcDbCircle
 10
62363.53215664106
 20
145166.6355448887
 30
0.0
 40
1.079524614271409
100
AcDbArc
 50
112.3445793296325
 51
-121.3015940884706
  0
ARC
  5
9F
330
1F
100
AcDbEntity
  8
0
  6
Continuous
 62
     7
100
AcDbCircle
 10
62360.19228659193
 20
145168.6121615083
 30
0.0
 40
0.762192974681966
100
AcDbArc
 50
-90.0
 51
0.0
  0
ARC
  5
A0
330
1F
100
AcDbEntity
  8
0
  6
Continuous
 62
     7
100
AcDbCircle
 10
62357.53828049322
 20
145165.2115906153
 30
0.0
 40
0.5303819845527138
100
AcDbArc
 50
-178.5438185955403
 51
-90.0
  0
ARC
  5
A1
330
1F
100
AcDbEntity
  8
0
  6
Continuous
 62
     7
100
AcDbCircle
 10
62360.22015871349
 20
145168.7868540212
 30
0.0
 40
0.3887395329948049
100
AcDbArc
 50
-90.0
 51
53.61296809313256
  0
ARC
  5
A2
330
1F
100
AcDbEntity
  8
DEFAULT_2
  6
Continuous
 62
     7
100
AcDbCircle
 10
62354.42199168075
 20
145166.2156304448
 30
0.0
 40
0.3276087795777638
100
AcDbArc
 50
60.34387531457371
 51
126.1253398127561
  0
ARC
  5
A3
330
1F
100
AcDbEntity
  8
0
  6
Continuous
 62
     7
100
AcDbCircle
 10
62354.42199168075
 20
145166.2156304448
 30
0.0
 40
0.3276087795683136
100
AcDbArc
 50
-53.87466504235461
 51
60.34387531457371
  0
ARC
  5
A4
330
1F
100
AcDbEntity
  8
0
  6
Continuous
 62
     7
100
AcDbCircle
 10
62360.63049053391
 20
145169.3436782862
 30
0.0
 40
0.3029435338577662
100
AcDbArc
 50
161.4895897317617
 51
-126.3870422064504
  0
ARC
  5
A5
330
1F
100
AcDbEntity
  8
0
  6
Continuous
 62
     7
100
AcDbCircle
 10
62356.46058764575
 20
145168.3369884496
 30
0.0
 40
0.1782479958482474
100
AcDbArc
 50
159.9447006604317
 51
-11.38905946804906
  0
ARC
  5
A6
330
1F
100
AcDbEntity
  8
0
  6
Continuous
 62
     7
100
AcDbCircle
 10
62364.52101524605
 20
145164.0741054696
 30
0.0
 40
0.6342495925657512
100
AcDbArc
 50
-0.49058622523999
 51
63.33734792770021
  0
ARC
  5
A7
330
1F
100
AcDbEntity
  8
DEFAULT_2
  6
Continuous
 62
     7
100
AcDbCircle
 10
62352.88754057235
 20
145166.2156304448
 30
0.0
 40
0.3276087795705636
100
AcDbArc
 50
60.34387531678532
 51
126.1253422308778
  0
ARC
  5
A8
330
1F
100
AcDbEntity
  8
0
  6
Continuous
 62
     7
100
AcDbCircle
 10
62352.88754057235
 20
145166.2156304448
 30
0.0
 40
0.3276087796001217
100
AcDbArc
 50
-53.8746655095832
 51
60.34387531678532
  0
ARC
  5
A9
330
1F
100
AcDbEntity
  8
0
  6
Continuous
 62
     7
100
AcDbCircle
 10
62352.02333477753
 20
145165.0248638944
 30
0.0
 40
0.1247126178786381
100
AcDbArc
 50
126.125334499117
 51
-53.87466019959886
  0
ARC
  5
AA
330
1F
100
AcDbEntity
  8
0
  6
Continuous
 62
     7
100
AcDbCircle
 10
62353.25684314362
 20
145164.8056030231
 30
0.0
 40
0.1243941612121717
100
AcDbArc
 50
126.1253280495259
 51
-90.00000689696732
  0
ARC
  5
AB
330
1F
100
AcDbEntity
  8
0
  6
Continuous
 62
     7
100
AcDbCircle
 10
62351.78475507775
 20
145164.5017026659
 30
0.0
 40
1.061847049439568
100
AcDbArc
 50
126.1253422240911
 51
-90.04014455600463
  0
ARC
  5
AC
330
1F
100
AcDbEntity
  8
0
  6
Continuous
 62
     7
100
AcDbCircle
 10
62377.16705958915
 20
145154.439855877
 30
0.0
 40
9.925000000024928
100
AcDbArc
 50
149.2201231650149
 51
90.0
  0
ARC
  5
AD
330
1F
100
AcDbEntity
  8
0
  6
Continuous
 62
     7
100
AcDbCircle
 10
62366.66705958915
 20
145168.939855877
 30
0.0
 40
0.5
100
AcDbArc
 50
180.0
 51
-90.0
  0
ARC
  5
AE
330
1F
100
AcDbEntity
  8
0
  6
Continuous
 62
     7
100
AcDbCircle
 10
62342.66682281406
 20
145163.4400926521
 30
0.0
 40
4.00023678210774
100
AcDbArc
 50
-179.9966086470566
 51
-89.99660864747345
  0
ARC
  5
AF
330
1F
100
AcDbEntity
  8
0
  6
Continuous
 62
     7
100
AcDbCircle
 10
62367.26705958915
 20
145163.439855877
 30
0.0
 40
0.5
100
AcDbArc
 50
-90.0
 51
-81.25868047763862
  0
ARC
  5
B0
330
1F
100
AcDbEntity
  8
0
  6
Continuous
 62
     7
100
AcDbCircle
 10
62367.26705958915
 20
145163.439855877
 30
0.0
 40
4.0
100
AcDbArc
 50
-90.0
 51
-81.25868047595128
  0
ARC
  5
B1
330
1F
100
AcDbEntity
  8
0
  6
DASHED
 62
     2
100
AcDbCircle
 10
62381.16234397272
 20
145164.6394423895
 30
0.0
 40
4.004709110343692
100
AcDbArc
 50
-176.0683781838846
 51
-128.6190684180862
  0
ARC
  5
B2
330
1F
100
AcDbEntity
  8
0
  6
Continuous
 62
     7
100
AcDbCircle
 10
62381.16705958915
 20
145164.6296328286
 30
0.0
 40
0.5
100
AcDbArc
 50
180.0
 51
-128.7595421655556
  0
ARC
  5
B3
330
1F
100
AcDbEntity
  8
0
  6
Continuous
 62
     7
100
AcDbCircle
 10
62387.66705958915
 20
145168.939855877
 30
0.0
 40
0.5
100
AcDbArc
 50
-90.0
 51
0.0
  0
ARC
  5
B4
330
1F
100
AcDbEntity
  8
0
  6
Continuous
 62
     7
100
AcDbCircle
 10
62377.16487730519
 20
145154.4647994969
 30
0.0
 40
9.900056620631187
100
AcDbArc
 50
89.98737020744994
 51
100.0126297926048
  0
ARC
  5
B5
330
1F
100
AcDbEntity
  8
0
  6
Continuous
 62
     7
100
AcDbCircle
 10
62342.66709772343
 20
145163.4398940113
 30
0.0
 40
0.5000381357377208
100
AcDbArc
 50
179.9956301328011
 51
-90.00436953371876
  0
ARC
  5
B6
330
1F
100
AcDbEntity
  8
0
  6
Continuous
 62
     7
100
AcDbCircle
 10
62345.66685958914
 20
145170.4399321485
 30
0.0
 40
0.5
100
AcDbArc
 50
180.0
 51
-90.0
  0
ARC
  5
B7
330
1F
100
AcDbEntity
  8
0
  6
Continuous
 62
     7
100
AcDbCircle
 10
62345.66274552334
 20
145170.4384773232
 30
0.0
 40
3.495886236915838
100
AcDbArc
 50
179.9761561593889
 51
-90.11516791913995
  0
ARC
  5
B8
330
1F
100
AcDbEntity
  8
0
  6
Continuous
 62
     7
100
AcDbCircle
 10
62406.95315758916
 20
145172.487979877
 30
0.0
 40
3.048143000109121
100
AcDbArc
 50
-90.0
 51
0.0
  0
ARC
  5
B9
330
1F
100
AcDbEntity
  8
0
  6
Continuous
 62
     7
100
AcDbCircle
 10
62364.52101524605
 20
145164.0741054696
 30
0.0
 40
0.6342495926073752
100
AcDbArc
 50
-90.0
 51
-0.49058622523999
  0
CIRCLE
  5
BA
330
1F
100
AcDbEntity
  8
1
  6
Continuous
 62
     7
100
AcDbCircle
 10
62377.16705958915
 20
145154.439855877
 30
0.0
 40
6.425000000024738
  0
CIRCLE
  5
BB
330
1F
100
AcDbEntity
  8
A_RUNDUNGEN
  6
DASHED
 62
     2
100
AcDbCircle
 10
62377.16705958915
 20
145154.439855877
 30
0.0
 40
5.024999999994179
  0
SPLINE
  5
BC
330
1F
100
AcDbEntity
  8
0
  6
Continuous
 62
     7
100
AcDbSpline
210
0.0
220
0.0
230
1.0
 70
     8
 71
     3
 72
     9
 73
     5
 74
     3
 42
0.0000000001
 43
0.0000000001
 44
0.00000001
 40
0.0
 40
0.0
 40
0.0
 40
0.0
 40
1.177102426309538
 40
2.354204852609655
 40
2.354204852609655
 40
2.354204852609655
 40
2.354204852609655
 10
62345.16658603896
 20
145191.894550877
 30
0.0
 10
62345.07997042162
 20
145192.3159592597
 30
0.0
 10
62344.90673918695
 20
145193.158776025
 30
0.0
 10
62344.06392242163
 20
145193.3320072597
 30
0.0
 10
62343.64251403896
 20
145193.418622877
 30
0.0
 11
62345.16658603896
 21
145191.894550877
 31
0.0
 11
62344.73934280428
 21
145192.9913796423
 31
0.0
 11
62343.64251403896
 21
145193.418622877
 31
0.0
  0
SPLINE
  5
BD
330
1F
100
AcDbEntity
  8
0
  6
Continuous
 62
     7
100
AcDbSpline
210
0.0
220
0.0
230
1.0
 70
     8
 71
     3
 72
     9
 73
     5
 74
     3
 42
0.0000000001
 43
0.0000000001
 44
0.00000001
 40
0.0
 40
0.0
 40
0.0
 40
0.0
 40
2.399694762515564
 40
4.736645983777418
 40
4.736645983777418
 40
4.736645983777418
 40
4.736645983777418
 10
62362.11850203897
 20
145148.712521877
 30
0.0
 10
62362.98545281043
 20
145148.8793017489
 30
0.0
 10
62364.69668665316
 20
145149.2085007883
 30
0.0
 10
62365.01138177024
 20
145150.9174895009
 30
0.0
 10
62365.16664503896
 20
145151.760664877
 30
0.0
 11
62362.11850203897
 21
145148.712521877
 31
0.0
 11
62364.36090884997
 21
145149.567008066
 31
0.0
 11
62365.16664503896
 21
145151.760664877
 31
0.0
  0
SPLINE
  5
BE
330
1F
100
AcDbEntity
  8
0
  6
Continuous
 62
     7
100
AcDbSpline
210
0.0
220
0.0
230
1.0
 70
     8
 71
     3
 72
     9
 73
     5
 74
     3
 42
0.0000000001
 43
0.0000000001
 44
0.00000001
 40
0.0
 40
0.0
 40
0.0
 40
0.0
 40
1.07840161356562
 40
2.15680322718715
 40
2.15680322718715
 40
2.15680322718715
 40
2.15680322718715
 10
62357.16681858915
 20
145188.439854805
 30
0.0
 10
62357.04522170491
 20
145188.808834384
 30
0.0
 10
62356.80202793641
 20
145189.5467935418
 30
0.0
 10
62356.03823904763
 20
145189.6894590985
 30
0.0
 10
62355.65634460324
 20
145189.7607918769
 30
0.0
 11
62357.16681858915
 21
145188.439854805
 31
0.0
 11
62356.67187915635
 21
145189.3979701415
 31
0.0
 11
62355.65634460324
 21
145189.7607918769
 31
0.0
  0
SPLINE
  5
BF
330
1F
100
AcDbEntity
  8
0
  6
Continuous
 62
     7
100
AcDbSpline
210
0.0
220
0.0
230
1.0
 70
     8
 71
     3
 72
     9
 73
     5
 74
     3
 42
0.0000000001
 43
0.0000000001
 44
0.00000001
 40
0.0
 40
0.0
 40
0.0
 40
0.0
 40
1.177101770453824
 40
2.354203742022907
 40
2.354203742022907
 40
2.354203742022907
 40
2.354203742022907
 10
62350.05448458916
 20
145191.2848638769
 30
0.0
 10
62350.14110017004
 20
145190.8634557903
 30
0.0
 10
62350.3143313466
 20
145190.0206395449
 30
0.0
 10
62351.15714748431
 20
145189.8474077712
 30
0.0
 10
62351.57855558916
 20
145189.7607918769
 30
0.0
 11
62350.05448458916
 21
145191.2848638769
 31
0.0
 11
62350.48172754349
 21
145190.1880357062
 31
0.0
 11
62351.57855558916
 21
145189.7607918769
 31
0.0
  0
SPLINE
  5
C0
330
1F
100
AcDbEntity
  8
0
  6
Continuous
 62
     7
100
AcDbSpline
210
0.0
220
0.0
230
1.0
 70
     8
 71
     3
 72
     9
 73
     5
 74
     3
 42
0.0000000001
 43
0.0000000001
 44
0.00000001
 40
0.0
 40
0.0
 40
0.0
 40
0.0
 40
1.173426364720168
 40
2.220396438694339
 40
2.220396438694339
 40
2.220396438694339
 40
2.220396438694339
 10
62357.16681858915
 20
145170.9639088769
 30
0.0
 10
62357.24470413922
 20
145170.542307747
 30
0.0
 10
62357.39208177041
 20
145169.744540051
 30
0.0
 10
62358.16743430721
 20
145169.5374865563
 30
0.0
 10
62358.53303158915
 20
145169.439855877
 30
0.0
 11
62357.16681858915
 21
145170.9639088769
 31
0.0
 11
62357.57586043385
 21
145169.8640842533
 31
0.0
 11
62358.53303158915
 21
145169.439855877
 31
0.0
  0
XLINE
  5
C1
330
1F
100
AcDbEntity
  8
1
  6
DOT_CENTER
 62
     3
 60
     1
100
AcDbXline
 10
62328.70661203898
 20
145211.046892726
 30
0.0
 11
-1.0
 21
0.0
 31
0.0
  0
LWPOLYLINE
  5
C2
330
1F
100
AcDbEntity
  8
1
  6
Continuous
 62
     3
 60
     1
100
AcDbPolyline
 90
        9
 70
     0
 43
0.0
 10
62365.10164503896
 20
145159.7709639925
 10
62338.60178603896
 20
145159.7682979924
 10
62338.60178603896
 20
145190.7682979924
 10
62347.10158603897
 20
145190.7679659924
 10
62346.99544015838
 20
145192.8212108746
 10
62346.5383966667
 20
145193.4390371573
 10
62345.57751403897
 20
145193.7470649924
 10
62343.51949903896
 20
145193.4091635241
 10
62330.64161203896
 20
145193.7470639925
  0
LWPOLYLINE
  5
C3
330
1F
100
AcDbEntity
  8
1
  6
Continuous
 62
     7
 60
     1
100
AcDbPolyline
 90
        5
 70
     0
 43
0.0
 10
62347.10158603897
 20
145192.2229929924
 10
62347.10158603897
 20
145190.7679659924
 10
62338.60178603896
 20
145190.7682979924
 10
62338.60178603896
 20
145159.7682979924
 10
62365.10164503896
 20
145159.7709639925
  0
LWPOLYLINE
  5
C4
330
1F
100
AcDbEntity
  8
1
  6
Continuous
 62
     3
 60
     1
100
AcDbPolyline
 90
        2
 70
     0
 43
0.0
 10
62365.10164503896
 20
145152.0891069924
 10
62365.10164503896
 20
145159.7709639925
  0
DIMENSION
  5
D0
330
1F
100
AcDbEntity
  8
1
100
AcDbDimension
  2
*D1
 10
62365.16664503897
 20
145138.294259944
 30
0.0
 11
62360.32721802408
 21
145142.044259944
 31
0.0
 70
    32
  1
<>
 71
     5
 42
-1.0
 53
0.00013888888889
  3
ME10_DIM_10
100
AcDbAlignedDimension
 13
62355.16664503896
 23
145169.9399321485
 33
0.0
 14
62365.16664503896
 24
145151.760664877
 34
0.0
100
AcDbRotatedDimension
  0
DIMENSION
  5
DD
330
1F
100
AcDbEntity
  8
1
100
AcDbDimension
  2
*D2
 10
62292.0
 20
145163.439855877
 30
0.0
 11
62288.25
 21
145169.98467666
 31
0.0
 70
    32
  1
<>
 71
     5
 42
-1.0
 53
90.0
  3
ME10_DIM_11
100
AcDbAlignedDimension
 13
62350.72302658916
 23
145162.939855877
 33
0.0
 14
62350.72299241817
 24
145163.439855877
 34
0.0
 50
90.0
100
AcDbRotatedDimension
  0
DIMENSION
  5
E9
330
1F
100
AcDbEntity
  8
1
100
AcDbDimension
  2
*D3
 10
62282.0
 20
145190.4395418232
 30
0.0
 11
62278.25
 21
145174.0146909105
 31
0.0
 70
    32
  1
<>
 71
     5
 42
-1.0
 53
90.0
  3
ME10_DIM_12
100
AcDbAlignedDimension
 13
62338.66705958915
 23
145159.439855877
 33
0.0
 14
62338.66658603896
 24
145190.4395418232
 34
0.0
 50
90.0
100
AcDbRotatedDimension
  0
DIMENSION
  5
F4
330
1F
100
AcDbEntity
  8
1
100
AcDbDimension
  2
*D4
 10
62430.00130068269
 20
145185.439855877
 30
0.0
 11
62426.25130068269
 21
145177.511526907
 31
0.0
 70
    32
  1
<>
 71
     5
 42
-1.0
 53
90.0
  3
ME10_DIM_13
100
AcDbAlignedDimension
 13
62406.95315758916
 23
145169.4398368769
 33
0.0
 14
62365.16705958915
 24
145185.439855877
 34
0.0
 50
90.0
100
AcDbRotatedDimension
  0
DIMENSION
  5
FF
330
1F
100
AcDbEntity
  8
1
100
AcDbDimension
  2
*D5
 10
62440.0768494214
 20
145169.439855877
 30
0.0
 11
62436.3268494214
 21
145188.585430925
 31
0.0
 70
    32
  1
<>
 71
     5
 42
-1.0
 53
90.0
  3
ME10_DIM_14
100
AcDbAlignedDimension
 13
62387.16705958915
 23
145204.439855877
 33
0.0
 14
62388.16705958915
 24
145169.439855877
 34
0.0
 50
90.0
100
AcDbRotatedDimension
  0
DIMENSION
  5
10A
330
1F
100
AcDbEntity
  8
1
100
AcDbDimension
  2
*D6
 10
62367.16705958915
 20
145221.046892726
 30
0.0
 11
62376.0523922507
 21
145224.796892726
 31
0.0
 70
    32
  1
<>
 71
     5
 42
-1.0
 53
0.00013888888889
  3
ME10_DIM_15
100
AcDbAlignedDimension
 13
62387.16705958915
 23
145204.439855877
 33
0.0
 14
62367.16705958915
 24
145204.439855877
 34
0.0
100
AcDbRotatedDimension
  0
DIMENSION
  5
115
330
1F
100
AcDbEntity
  8
1
100
AcDbDimension
  2
*D7
 10
62357.16681858916
 20
145221.046892726
 30
0.0
 11
62363.89264791428
 21
145224.796892726
 31
0.0
 70
    32
  1
<>
 71
     5
 42
-1.0
 53
0.00013888888889
  3
ME10_DIM_16
100
AcDbAlignedDimension
 13
62367.16705958915
 23
145204.439855877
 33
0.0
 14
62357.16681858915
 24
145188.439854805
 34
0.0
100
AcDbRotatedDimension
  0
DIMENSION
  5
122
330
1F
100
AcDbEntity
  8
1
100
AcDbDimension
  2
*D8
 10
62420.00130048342
 20
145169.439855877
 30
0.0
 11
62416.25130048342
 21
145166.4640677814
 31
0.0
 70
    32
  1
<>
 71
     5
 42
-1.0
 53
90.0
  3
ME10_DIM_17
100
AcDbAlignedDimension
 13
62365.16664503896
 23
145163.439855877
 33
0.0
 14
62388.16705958915
 24
145169.439855877
 34
0.0
 50
90.0
100
AcDbRotatedDimension
  0
DIMENSION
  5
12D
330
1F
100
AcDbEntity
  8
1
100
AcDbDimension
  2
*D9
 10
62430.00130039702
 20
145154.439855877
 30
0.0
 11
62426.25130039702
 21
145160.7490419134
 31
0.0
 70
    32
  1
<>
 71
     5
 42
-1.0
 53
90.0
  3
ME10_DIM_18
100
AcDbAlignedDimension
 13
62388.16705958915
 23
145169.439855877
 33
0.0
 14
62389.58455958919
 24
145154.439855877
 34
0.0
 50
90.0
100
AcDbRotatedDimension
  0
DIMENSION
  5
138
330
1F
100
AcDbEntity
  8
1
100
AcDbDimension
  2
*D10
 10
62357.16681858915
 20
145221.046892726
 30
0.0
 11
62351.5298333181
 21
145224.796892726
 31
0.0
 70
    32
  1
<>
 71
     5
 42
-1.0
 53
0.00013888888889
  3
ME10_DIM_19
100
AcDbAlignedDimension
 13
62345.16685958914
 23
145190.4396001485
 33
0.0
 14
62357.16681858915
 24
145182.439854805
 34
0.0
100
AcDbRotatedDimension
  0
DIMENSION
  5
143
330
1F
100
AcDbEntity
  8
1
100
AcDbDimension
  2
*D11
 10
62365.16664503896
 20
145128.712521877
 30
0.0
 11
62355.47897958884
 21
145132.462521877
 31
0.0
 70
    32
  1
<>
 71
     5
 42
-1.0
 53
0.00013888888889
  3
ME10_DIM_20
100
AcDbAlignedDimension
 13
62345.16685958914
 23
145170.4399321485
 33
0.0
 14
62365.16664503896
 24
145151.760664877
 34
0.0
100
AcDbRotatedDimension
  0
DIMENSION
  5
150
330
1F
100
AcDbEntity
  8
1
100
AcDbDimension
  2
*D12
 10
62345.16685958914
 20
145128.712521877
 30
0.0
 11
62330.1282271689
 21
145132.462521877
 31
0.0
 70
    32
  1
<>
 71
     5
 42
-1.0
 53
0.00013888888889
  3
ME10_DIM_21
100
AcDbAlignedDimension
 13
62338.66658603896
 23
145163.439855877
 33
0.0
 14
62345.16685958914
 24
145170.4399321485
 34
0.0
100
AcDbRotatedDimension
  0
ENDSEC
  0
SECTION
  2
OBJECTS
  0
DICTIONARY
  5
C
330
0
100
AcDbDictionary
281
     1
  3
ACAD_GROUP
350
D
  3
ACAD_LAYOUT
350
1A
  3
ACAD_MLINESTYLE
350
17
  3
ACAD_PLOTSETTINGS
350
19
  3
ACAD_PLOTSTYLENAME
350
E
  0
DICTIONARY
  5
D
102
{ACAD_REACTORS
330
C
102
}
330
C
100
AcDbDictionary
281
     1
  0
DICTIONARY
  5
1A
102
{ACAD_REACTORS
330
C
102
}
330
C
100
AcDbDictionary
281
     1
  3
Layout1
350
1E
  3
Layout2
350
26
  3
Model
350
22
  0
DICTIONARY
  5
17
102
{ACAD_REACTORS
330
C
102
}
330
C
100
AcDbDictionary
281
     1
  3
Standard
350
18
  0
DICTIONARY
  5
19
102
{ACAD_REACTORS
330
C
102
}
330
C
100
AcDbDictionary
281
     1
  0
ACDBDICTIONARYWDFLT
  5
E
102
{ACAD_REACTORS
330
C
102
}
330
C
100
AcDbDictionary
281
     1
  3
Normal
350
F
100
AcDbDictionaryWithDefault
340
F
  0
LAYOUT
  5
1E
102
{ACAD_REACTORS
330
1A
102
}
330
1A
100
AcDbPlotSettings
  1

  2

  4

  6

 40
0.0
 41
0.0
 42
0.0
 43
0.0
 44
0.0
 45
0.0
 46
0.0
 47
0.0
 48
0.0
 49
0.0
140
0.0
141
0.0
142
1.0
143
1.0
 70
   688
 72
     0
 73
     0
 74
     5
  7

 75
    16
 76
     0
 77
     2
 78
   300
147
1.0
148
0.0
149
0.0
100
AcDbLayout
  1
Layout1
 70
     1
 71
     1
 10
0.0
 20
0.0
 11
0.0
 21
0.0
 12
0.0
 22
0.0
 32
0.0
 14
0.0
 24
0.0
 34
0.0
 15
0.0
 25
0.0
 35
0.0
146
0.0
 13
0.0
 23
0.0
 33
0.0
 16
1.0
 26
0.0
 36
0.0
 17
0.0
 27
1.0
 37
0.0
 76
     0
330
1B
  0
LAYOUT
  5
26
102
{ACAD_REACTORS
330
1A
102
}
330
1A
100
AcDbPlotSettings
  1

  2

  4

  6

 40
0.0
 41
0.0
 42
0.0
 43
0.0
 44
0.0
 45
0.0
 46
0.0
 47
0.0
 48
0.0
 49
0.0
140
0.0
141
0.0
142
1.0
143
1.0
 70
   688
 72
     0
 73
     0
 74
     5
  7

 75
    16
 76
     0
 77
     2
 78
   300
147
1.0
148
0.0
149
0.0
100
AcDbLayout
  1
Layout2
 70
     1
 71
     2
 10
0.0
 20
0.0
 11
0.0
 21
0.0
 12
0.0
 22
0.0
 32
0.0
 14
0.0
 24
0.0
 34
0.0
 15
0.0
 25
0.0
 35
0.0
146
0.0
 13
0.0
 23
0.0
 33
0.0
 16
1.0
 26
0.0
 36
0.0
 17
0.0
 27
1.0
 37
0.0
 76
     0
330
23
  0
LAYOUT
  5
22
102
{ACAD_REACTORS
330
1A
102
}
330
1A
100
AcDbPlotSettings
  1

  2

  4

  6

 40
0.0
 41
0.0
 42
0.0
 43
0.0
 44
0.0
 45
0.0
 46
0.0
 47
0.0
 48
0.0
 49
0.0
140
0.0
141
0.0
142
1.0
143
1.0
 70
  1712
 72
     0
 73
     0
 74
     0
  7

 75
     0
 76
     0
 77
     2
 78
   300
147
1.0
148
0.0
149
0.0
100
AcDbLayout
  1
Model
 70
     1
 71
     0
 10
0.0
 20
0.0
 11
0.0
 21
0.0
 12
0.0
 22
0.0
 32
0.0
 14
62276.5
 24
145126.712521877
 34
0.0
 15
62442.0768494214
 25
145226.546892726
 35
0.0
146
0.0
 13
0.0
 23
0.0
 33
0.0
 16
1.0
 26
0.0
 36
0.0
 17
0.0
 27
1.0
 37
0.0
 76
     0
330
1F
  0
MLINESTYLE
  5
18
102
{ACAD_REACTORS
330
17
102
}
330
17
100
AcDbMlineStyle
  2
Standard
 70
     0
  3

 62
   256
 51
90.0
 52
90.0
 71
     2
 49
0.5
 62
   256
  6
BYLAYER
 49
-0.5
 62
   256
  6
BYLAYER
  0
ACDBPLACEHOLDER
  5
F
102
{ACAD_REACTORS
330
E
102
}
330
E
  0
ENDSEC
  0
EOF
