999
DXF file: d:\tmp\workingDir\0000090888\keep_close_kc_50_h_q02_01.dxf
999
Pro/ENGINEER 2016380 by Parametric Technology Corporation
  0
SECTION
  2
HEADER
  9
$ACADVER
  1
AC1014
  9
$DWGCODEPAGE
  3
ANSI_1252
  9
$EXTMAX
 10
109.982
 20
100.0
 30
0.0
  9
$EXTMIN
 10
0.0
 20
0.0
 30
0.0
  9
$LIMMIN
 10
0.0
 20
0.0
  9
$LIMMAX
 10
109.982
 20
100.0
  9
$VIEWCTR
 10
54.991
 20
50.0
  9
$VIEWSIZE
 40
100.0
  9
$CLAYER
  8
0
  9
$LTSCALE
 40
6.5185185185
  9
$CELTYPE
  6
BYLAYER
  9
$DIMSCALE
 40
1.0
  9
$DIMASZ
 40
3.5
  9
$DIMEXO
 40
0.0
  9
$DIMDLI
 40
4.5037037037
  9
$DIMEXE
 40
2.0
  9
$DIMCEN
 40
1.0666666667
  9
$DIMLFAC
 40
1.0
  9
$DIMBLK
  1
_ARROW_FILLED
  9
$DIMALT
 70
0
  9
$DIMALTF
 40
25.4
  9
$DIMTXT
 40
3.5
  9
$DIMTOL
 70
1
  9
$DIMLIM
 70
0
  9
$DIMTFAC
 40
1.0
  9
$DIMTP
 40
0.01
  9
$DIMTM
 40
0.01
  9
$DIMGAP
 40
0.625
  9
$AUNITS
 70
0
  9
$PDMODE
 70
0
  9
$PDSIZE
 40
0.04
  9
$HANDSEED
  5
2A3
  9
$TILEMODE
 70
1
  9
$MEASUREMENT
 70
1
  0
ENDSEC
  0
SECTION
  2
CLASSES
  0
ENDSEC
  0
SECTION
  2
TABLES
  0
TABLE
  2
VPORT
  5
8
100
AcDbSymbolTable
 70
2
  0
VPORT
  5
1F4
100
AcDbSymbolTableRecord
100
AcDbViewportTableRecord
  2
*ACTIVE
 70
0
 10
0.0
 20
0.0
 11
1.0
 21
1.0
 12
54.991
 22
50.0
 13
0.0
 23
0.0
 14
1.0
 24
1.0
 15
0.0
 25
0.0
 16
0.0
 26
0.0
 36
1.0
 17
0.0
 27
0.0
 37
0.0
 40
100.0
 41
1.09982
 42
50.0
 43
0.0
 44
0.0
 50
0.0
 51
0.0
 71
0
 72
100
 73
1
 74
1
 75
0
 76
0
 77
0
 78
0
  0
ENDTAB
  0
TABLE
  2
LTYPE
  5
5
100
AcDbSymbolTable
 70
6
  0
LTYPE
  5
14
100
AcDbSymbolTableRecord
100
AcDbLinetypeTableRecord
  2
BYBLOCK
 70
0
  3

 72
65
 73
0
 40
0.0
  0
LTYPE
  5
15
100
AcDbSymbolTableRecord
100
AcDbLinetypeTableRecord
  2
BYLAYER
 70
0
  3

 72
65
 73
0
 40
0.0
  0
LTYPE
  5
16
100
AcDbSymbolTableRecord
100
AcDbLinetypeTableRecord
  2
CONTINUOUS
 70
64
  3
Solid line
 72
65
 73
0
 40
0.0
  0
LTYPE
  5
1F5
100
AcDbSymbolTableRecord
100
AcDbLinetypeTableRecord
  2
CENTER
 70
64
  3
____ _ ____ _ ____ _ ____ _ ____ _ ____ _ ____
 72
65
 73
4
 40
0.6
 49
0.375
 74
0
 49
-0.075
 74
0
 49
0.075
 74
0
 49
-0.075
 74
0
  0
LTYPE
  5
1F6
100
AcDbSymbolTableRecord
100
AcDbLinetypeTableRecord
  2
HIDDEN
 70
64
  3
- - - - - - - - - - - - - - - - - - - -
 72
65
 73
2
 40
0.2
 49
0.1
 74
0
 49
-0.1
 74
0
  0
LTYPE
  5
1F7
100
AcDbSymbolTableRecord
100
AcDbLinetypeTableRecord
  2
PHANTOM
 70
64
  3
_____ _ _ _____ _ _ _____ _ _ _____
 72
65
 73
6
 40
0.8
 49
0.45
 74
0
 49
-0.05
 74
0
 49
0.1
 74
0
 49
-0.05
 74
0
 49
0.1
 74
0
 49
-0.05
 74
0
  0
LTYPE
  5
1F8
100
AcDbSymbolTableRecord
100
AcDbLinetypeTableRecord
  2
DOT
 70
64
  3
. . . . . . . . . . . . . . . . . . . .
 72
65
 73
2
 40
0.2
 49
0.1
 74
0
 49
-0.1
 74
0
  0
LTYPE
  5
1F9
100
AcDbSymbolTableRecord
100
AcDbLinetypeTableRecord
  2
DASHED
 70
64
  3
- - - - - - - - - - - - - - - - - - - -
 72
65
 73
2
 40
0.2
 49
0.1
 74
0
 49
-0.1
 74
0
  0
ENDTAB
  0
TABLE
  2
LAYER
  5
2
100
AcDbSymbolTable
 70
36
  0
LAYER
  5
10
100
AcDbSymbolTableRecord
100
AcDbLayerTableRecord
  2
0
 70
0
 62
7
  6
CONTINUOUS
  0
LAYER
  5
1FA
100
AcDbSymbolTableRecord
100
AcDbLayerTableRecord
  2
DEFAULT_1
 70
0
 62
7
  6
CENTER
  0
LAYER
  5
1FB
100
AcDbSymbolTableRecord
100
AcDbLayerTableRecord
  2
DEFAULT_2
 70
0
 62
8
  6
HIDDEN
  0
LAYER
  5
1FC
100
AcDbSymbolTableRecord
100
AcDbLayerTableRecord
  2
DEFAULT_3
 70
0
 62
7
  6
PHANTOM
  0
LAYER
  5
1FD
100
AcDbSymbolTableRecord
100
AcDbLayerTableRecord
  2
A_ACHSEN
 70
0
 62
7
  6
CONTINUOUS
  0
LAYER
  5
1FE
100
AcDbSymbolTableRecord
100
AcDbLayerTableRecord
  2
A_BASISEBENEN
 70
0
 62
7
  6
CONTINUOUS
  0
LAYER
  5
1FF
100
AcDbSymbolTableRecord
100
AcDbLayerTableRecord
  2
A_BEMASSUNGEN
 70
0
 62
7
  6
CONTINUOUS
  0
LAYER
  5
200
100
AcDbSymbolTableRecord
100
AcDbLayerTableRecord
  2
A_BOHRUNGEN
 70
0
 62
7
  6
CONTINUOUS
  0
LAYER
  5
201
100
AcDbSymbolTableRecord
100
AcDbLayerTableRecord
  2
A_EBENEN
 70
0
 62
7
  6
CONTINUOUS
  0
LAYER
  5
202
100
AcDbSymbolTableRecord
100
AcDbLayerTableRecord
  2
A_FASEN
 70
0
 62
7
  6
CONTINUOUS
  0
LAYER
  5
203
100
AcDbSymbolTableRecord
100
AcDbLayerTableRecord
  2
A_FLAECHEN
 70
0
 62
7
  6
CONTINUOUS
  0
LAYER
  5
204
100
AcDbSymbolTableRecord
100
AcDbLayerTableRecord
  2
A_FL_VERBAENDE
 70
0
 62
7
  6
CONTINUOUS
  0
LAYER
  5
205
100
AcDbSymbolTableRecord
100
AcDbLayerTableRecord
  2
A_KURVEN
 70
0
 62
7
  6
CONTINUOUS
  0
LAYER
  5
206
100
AcDbSymbolTableRecord
100
AcDbLayerTableRecord
  2
A_NOTIZEN_SYMB
 70
0
 62
7
  6
CONTINUOUS
  0
LAYER
  5
207
100
AcDbSymbolTableRecord
100
AcDbLayerTableRecord
  2
A_PUNKTE
 70
0
 62
7
  6
CONTINUOUS
  0
LAYER
  5
208
100
AcDbSymbolTableRecord
100
AcDbLayerTableRecord
  2
A_RUNDUNGEN
 70
0
 62
7
  6
CONTINUOUS
  0
LAYER
  5
209
100
AcDbSymbolTableRecord
100
AcDbLayerTableRecord
  2
BASISEBENEN
 70
0
 62
7
  6
CONTINUOUS
  0
ENDTAB
  0
TABLE
  2
STYLE
  5
3
100
AcDbSymbolTable
 70
1
  0
STYLE
  5
11
100
AcDbSymbolTableRecord
100
AcDbTextStyleTableRecord
  2
STANDARD
 70
0
 40
0.0
 41
1.0
 50
0.0
 71
0
 42
0.2
  3
txt
  4

  0
STYLE
  5
20A
100
AcDbSymbolTableRecord
100
AcDbTextStyleTableRecord
  2
TEXTSTYLE_1
 70
0
 40
0.0
 41
0.8
 50
0.0
 71
0
 42
0.2
  3
gdt
  4

  0
STYLE
  5
20B
100
AcDbSymbolTableRecord
100
AcDbTextStyleTableRecord
  2
TEXTSTYLE_2
 70
0
 40
0.0
 41
1.0
 50
0.0
 71
0
 42
0.2
  3
txt
  4

  0
ENDTAB
  0
TABLE
  2
VIEW
  5
6
100
AcDbSymbolTable
 70
0
  0
ENDTAB
  0
TABLE
  2
UCS
  5
7
100
AcDbSymbolTable
 70
0
  0
ENDTAB
  0
TABLE
  2
APPID
  5
9
100
AcDbSymbolTable
 70
1
  0
APPID
  5
20C
100
AcDbSymbolTableRecord
100
AcDbRegAppTableRecord
  2
ACAD
 70
0
  0
ENDTAB
  0
TABLE
  2
BLOCK_RECORD
  5
1
100
AcDbSymbolTable
 70
0
  0
BLOCK_RECORD
  5
1F
100
AcDbSymbolTableRecord
100
AcDbBlockTableRecord
  2
*MODEL_SPACE
  0
BLOCK_RECORD
  5
1B
100
AcDbSymbolTableRecord
100
AcDbBlockTableRecord
  2
*PAPER_SPACE
  0
BLOCK_RECORD
  5
20D
100
AcDbSymbolTableRecord
100
AcDbBlockTableRecord
  2
_ARROW_FILLED
  0
BLOCK_RECORD
  5
20E
100
AcDbSymbolTableRecord
100
AcDbBlockTableRecord
  2
*D0
  0
BLOCK_RECORD
  5
20F
100
AcDbSymbolTableRecord
100
AcDbBlockTableRecord
  2
*D1
  0
BLOCK_RECORD
  5
210
100
AcDbSymbolTableRecord
100
AcDbBlockTableRecord
  2
*D2
  0
BLOCK_RECORD
  5
211
100
AcDbSymbolTableRecord
100
AcDbBlockTableRecord
  2
*D3
  0
ENDTAB
  0
TABLE
  2
DIMSTYLE
  5
A
100
AcDbSymbolTable
 70
1
  0
DIMSTYLE
105
212
100
AcDbSymbolTableRecord
100
AcDbDimStyleTableRecord
  2
STANDARD
 70
0
  3

  4

  5
_ARROW_FILLED
  6
_ARROW_FILLED
  7
_ARROW_FILLED
 40
1.0
 41
3.5
 42
0.0
 43
0.38
 44
2.0
 45
0.0
 46
0.0
 47
0.01
 48
0.01
140
3.5
141
0.09
142
0.0
143
25.4
144
1.0
145
0.0
146
1.0
147
0.625
 71
1.0
 72
0.0
 73
0
 74
0
 75
0
 76
0
 77
1
 78
8
170
0
171
1
172
0
173
0
174
0
175
0
176
0
177
0
178
5
270
2
271
2
272
2
273
2
274
2
275
0
280
0
281
0
282
0
283
1
284
8
285
0
286
0
287
3
288
0
340
11
  0
DIMSTYLE
105
213
100
AcDbSymbolTableRecord
100
AcDbDimStyleTableRecord
  2
DIMSTYLE_1
 70
0
  3

  4

  5
_ARROW_FILLED
  6
_ARROW_FILLED
  7
_ARROW_FILLED
 40
1.0
 41
3.5
 42
0.0
 43
0.38
 44
2.0
 45
0.0
 46
0.0
 47
0.1
 48
0.1
140
3.5
141
0.09
142
0.0
143
25.4
144
1.0
145
0.0
146
1.0
147
0.875
 71
0.0
 72
0.0
 73
0
 74
0
 75
0
 76
0
 77
1
 78
8
170
0
171
1
172
0
173
0
174
0
175
0
176
0
177
0
178
5
270
2
271
4
272
-1
273
2
274
2
275
0
280
0
281
0
282
0
283
1
284
8
285
0
286
0
287
3
288
0
340
20B
  0
DIMSTYLE
105
214
100
AcDbSymbolTableRecord
100
AcDbDimStyleTableRecord
  2
DIMSTYLE_2
 70
0
  3

  4

  5
_ARROW_FILLED
  6
_ARROW_FILLED
  7
_ARROW_FILLED
 40
1.0
 41
3.5
 42
0.0
 43
0.38
 44
2.0
 45
0.0
 46
0.0
 47
0.2
 48
0.2
140
3.5
141
0.09
142
0.0
143
25.4
144
1.0
145
0.0
146
1.0
147
0.875
 71
0.0
 72
0.0
 73
0
 74
0
 75
0
 76
0
 77
1
 78
8
170
0
171
1
172
0
173
0
174
0
175
0
176
0
177
0
178
5
270
2
271
4
272
-1
273
2
274
2
275
0
280
0
281
0
282
0
283
1
284
8
285
0
286
0
287
3
288
0
340
20B
  0
ENDTAB
  0
ENDSEC
  0
SECTION
  2
BLOCKS
  0
BLOCK
  5
20
100
AcDbEntity
  8
0
100
AcDbBlockBegin
  2
*MODEL_SPACE
 70
0
 10
0.0
 20
0.0
 30
0.0
  3
*MODEL_SPACE
  1

  0
ENDBLK
  5
21
100
AcDbEntity
  8
0
100
AcDbBlockEnd
  0
BLOCK
  5
1C
100
AcDbEntity
  8
0
100
AcDbBlockBegin
  2
*PAPER_SPACE
 70
0
 10
0.0
 20
0.0
 30
0.0
  3
*PAPER_SPACE
  1

  0
ENDBLK
  5
1D
100
AcDbEntity
  8
0
100
AcDbBlockEnd
  0
BLOCK
  5
215
100
AcDbEntity
  8
0
100
AcDbBlockBegin
  2
_ARROW_FILLED
 70
64
 10
0.0
 20
0.0
  3
_ARROW_FILLED
  1

  0
SOLID
  5
216
100
AcDbEntity
  8
0
  6
BYBLOCK
 62
0
100
AcDbTrace
 10
0.0
 20
0.0
 11
-1.0
 21
0.1428571429
 12
-1.0
 22
-0.1428571429
 13
-1.0
 23
-0.1428571429
  0
ENDBLK
  5
217
100
AcDbEntity
  8
0
  6
BYBLOCK
 62
0
100
AcDbBlockEnd
  0
BLOCK
  5
218
100
AcDbEntity
  8
A_BEMASSUNGEN
100
AcDbBlockBegin
 62
2
  6
CONTINUOUS
  2
*D0
 70
65
 10
0.0
 20
0.0
  3
*D0
  1

  0
MTEXT
  5
219
100
AcDbEntity
  8
A_BEMASSUNGEN
100
AcDbMText
 62
5
  6
CONTINUOUS
  7
TEXTSTYLE_2
 71
1
 72
1
 10
58.4824689045
 20
70.2720356758
 30
0.0
 11
1.0
 21
0.0
 31
0.0
  1
3
 40
3.5
 41
3.75
  0
LINE
  5
21A
100
AcDbEntity
  8
A_BEMASSUNGEN
100
AcDbLine
 62
2
  6
CONTINUOUS
 10
52.4687139724
 20
48.8034402672
 11
52.4687139724
 21
67.8970356758
  0
LINE
  5
21B
100
AcDbEntity
  8
A_BEMASSUNGEN
100
AcDbLine
 62
2
  6
CONTINUOUS
 10
55.4687139724
 20
50.8576525172
 11
55.4687139724
 21
67.8970356758
  0
LINE
  5
21C
100
AcDbEntity
  8
A_BEMASSUNGEN
100
AcDbLine
 62
2
  6
CONTINUOUS
 10
52.4687139724
 20
65.8970356758
 11
44.9687139724
 21
65.8970356758
  0
LINE
  5
21D
100
AcDbEntity
  8
A_BEMASSUNGEN
100
AcDbLine
 62
2
  6
CONTINUOUS
 10
44.9687139724
 20
65.8970356758
 11
53.9687139724
 21
65.8970356758
  0
LINE
  5
21E
100
AcDbEntity
  8
A_BEMASSUNGEN
100
AcDbLine
 62
2
  6
CONTINUOUS
 10
55.4687139724
 20
65.8970356758
 11
60.9824689045
 21
65.8970356758
  0
LINE
  5
21F
100
AcDbEntity
  8
A_BEMASSUNGEN
100
AcDbLine
 62
2
  6
CONTINUOUS
 10
60.9824689045
 20
65.8970356758
 11
53.9687139724
 21
65.8970356758
  0
INSERT
  5
220
100
AcDbEntity
  8
A_BEMASSUNGEN
100
AcDbBlockReference
 62
2
  6
CONTINUOUS
  2
_ARROW_FILLED
 10
52.4687139724
 20
65.8970356758
 41
3.5
 42
3.5
 43
3.5
  0
INSERT
  5
221
100
AcDbEntity
  8
A_BEMASSUNGEN
100
AcDbBlockReference
 62
2
  6
CONTINUOUS
  2
_ARROW_FILLED
 10
55.4687139724
 20
65.8970356758
 41
3.5
 42
3.5
 43
3.5
 50
180.0
  0
ENDBLK
  5
222
100
AcDbEntity
  8
0
  6
BYBLOCK
 62
0
100
AcDbBlockEnd
  0
BLOCK
  5
223
100
AcDbEntity
  8
A_BEMASSUNGEN
100
AcDbBlockBegin
 62
2
  6
CONTINUOUS
  2
*D1
 70
65
 10
0.0
 20
0.0
  3
*D1
  1

  0
MTEXT
  5
224
100
AcDbEntity
  8
A_BEMASSUNGEN
100
AcDbMText
 62
5
  6
CONTINUOUS
  7
TEXTSTYLE_2
 71
3
 72
1
 10
54.6555677334
 20
9.0495455298
 30
0.0
 11
1.0
 21
0.0
 31
0.0
  1
3.5
 40
3.5
 41
10.5
  0
LINE
  5
225
100
AcDbEntity
  8
A_BEMASSUNGEN
100
AcDbLine
 62
2
  6
CONTINUOUS
 10
55.4687139724
 20
28.2232080491
 11
55.4687139724
 21
2.6745455298
  0
LINE
  5
226
100
AcDbEntity
  8
A_BEMASSUNGEN
100
AcDbLine
 62
2
  6
CONTINUOUS
 10
58.9687139724
 20
28.0723071481
 11
58.9687139724
 21
2.6745455298
  0
LINE
  5
227
100
AcDbEntity
  8
A_BEMASSUNGEN
100
AcDbLine
 62
2
  6
CONTINUOUS
 10
55.4687139724
 20
4.6745455298
 11
47.6555677334
 21
4.6745455298
  0
LINE
  5
228
100
AcDbEntity
  8
A_BEMASSUNGEN
100
AcDbLine
 62
2
  6
CONTINUOUS
 10
47.6555677334
 20
4.6745455298
 11
57.2187139724
 21
4.6745455298
  0
LINE
  5
229
100
AcDbEntity
  8
A_BEMASSUNGEN
100
AcDbLine
 62
2
  6
CONTINUOUS
 10
58.9687139724
 20
4.6745455298
 11
66.4687139724
 21
4.6745455298
  0
LINE
  5
22A
100
AcDbEntity
  8
A_BEMASSUNGEN
100
AcDbLine
 62
2
  6
CONTINUOUS
 10
66.4687139724
 20
4.6745455298
 11
57.2187139724
 21
4.6745455298
  0
INSERT
  5
22B
100
AcDbEntity
  8
A_BEMASSUNGEN
100
AcDbBlockReference
 62
2
  6
CONTINUOUS
  2
_ARROW_FILLED
 10
55.4687139724
 20
4.6745455298
 41
3.5
 42
3.5
 43
3.5
  0
INSERT
  5
22C
100
AcDbEntity
  8
A_BEMASSUNGEN
100
AcDbBlockReference
 62
2
  6
CONTINUOUS
  2
_ARROW_FILLED
 10
58.9687139724
 20
4.6745455298
 41
3.5
 42
3.5
 43
3.5
 50
180.0
  0
ENDBLK
  5
22D
100
AcDbEntity
  8
0
  6
BYBLOCK
 62
0
100
AcDbBlockEnd
  0
BLOCK
  5
22E
100
AcDbEntity
  8
A_BEMASSUNGEN
100
AcDbBlockBegin
 62
2
  6
CONTINUOUS
  2
*D2
 70
65
 10
0.0
 20
0.0
  3
*D2
  1

  0
MTEXT
  5
22F
100
AcDbEntity
  8
A_BEMASSUNGEN
100
AcDbMText
 62
5
  6
CONTINUOUS
  7
TEXTSTYLE_2
 71
2
 72
1
 10
2.8646813385
 20
42.7232080491
 30
0.0
 11
0.0
 21
1.0
 31
0.0
  1
13
 40
3.5
 41
6.75
  0
LINE
  5
230
100
AcDbEntity
  8
A_BEMASSUNGEN
100
AcDbLine
 62
2
  6
CONTINUOUS
 10
52.4687139724
 20
36.2232080491
 11
5.2396813385
 21
36.2232080491
  0
LINE
  5
231
100
AcDbEntity
  8
A_BEMASSUNGEN
100
AcDbLine
 62
2
  6
CONTINUOUS
 10
52.4687139724
 20
49.2232080491
 11
29.5602290422
 21
49.2232080491
  0
LINE
  5
232
100
AcDbEntity
  8
A_BEMASSUNGEN
100
AcDbLine
 62
2
  6
CONTINUOUS
 10
35.0458186133
 20
49.2232080491
 11
5.2396813385
 21
49.2232080491
  0
LINE
  5
233
100
AcDbEntity
  8
A_BEMASSUNGEN
100
AcDbLine
 62
2
  6
CONTINUOUS
 10
7.2396813385
 20
36.2232080491
 11
7.2396813385
 21
42.7232080491
  0
LINE
  5
234
100
AcDbEntity
  8
A_BEMASSUNGEN
100
AcDbLine
 62
2
  6
CONTINUOUS
 10
7.2396813385
 20
49.2232080491
 11
7.2396813385
 21
42.7232080491
  0
INSERT
  5
235
100
AcDbEntity
  8
A_BEMASSUNGEN
100
AcDbBlockReference
 62
2
  6
CONTINUOUS
  2
_ARROW_FILLED
 10
7.2396813385
 20
36.2232080491
 41
3.5
 42
3.5
 43
3.5
 50
270.0
  0
INSERT
  5
236
100
AcDbEntity
  8
A_BEMASSUNGEN
100
AcDbBlockReference
 62
2
  6
CONTINUOUS
  2
_ARROW_FILLED
 10
7.2396813385
 20
49.2232080491
 41
3.5
 42
3.5
 43
3.5
 50
90.0
  0
ENDBLK
  5
237
100
AcDbEntity
  8
0
  6
BYBLOCK
 62
0
100
AcDbBlockEnd
  0
BLOCK
  5
238
100
AcDbEntity
  8
A_BEMASSUNGEN
100
AcDbBlockBegin
 62
2
  6
CONTINUOUS
  2
*D3
 70
65
 10
0.0
 20
0.0
  3
*D3
  1

  0
MTEXT
  5
239
100
AcDbEntity
  8
A_BEMASSUNGEN
100
AcDbMText
 62
5
  6
CONTINUOUS
  7
TEXTSTYLE_2
 71
2
 72
1
 10
2.8646813385
 20
33.7232080491
 30
0.0
 11
0.0
 21
1.0
 31
0.0
  1
5
 40
3.5
 41
3.75
  0
LINE
  5
23A
100
AcDbEntity
  8
A_BEMASSUNGEN
100
AcDbLine
 62
2
  6
CONTINUOUS
 10
58.9687139724
 20
31.2232080491
 11
5.2396813385
 21
31.2232080491
  0
LINE
  5
23B
100
AcDbEntity
  8
A_BEMASSUNGEN
100
AcDbLine
 62
2
  6
CONTINUOUS
 10
52.4687139724
 20
36.2232080491
 11
5.2396813385
 21
36.2232080491
  0
LINE
  5
23C
100
AcDbEntity
  8
A_BEMASSUNGEN
100
AcDbLine
 62
2
  6
CONTINUOUS
 10
7.2396813385
 20
31.2232080491
 11
7.2396813385
 21
23.7232080491
  0
LINE
  5
23D
100
AcDbEntity
  8
A_BEMASSUNGEN
100
AcDbLine
 62
2
  6
CONTINUOUS
 10
7.2396813385
 20
23.7232080491
 11
7.2396813385
 21
33.7232080491
  0
LINE
  5
23E
100
AcDbEntity
  8
A_BEMASSUNGEN
100
AcDbLine
 62
2
  6
CONTINUOUS
 10
7.2396813385
 20
36.2232080491
 11
7.2396813385
 21
43.7232080491
  0
LINE
  5
23F
100
AcDbEntity
  8
A_BEMASSUNGEN
100
AcDbLine
 62
2
  6
CONTINUOUS
 10
7.2396813385
 20
43.7232080491
 11
7.2396813385
 21
33.7232080491
  0
INSERT
  5
240
100
AcDbEntity
  8
A_BEMASSUNGEN
100
AcDbBlockReference
 62
2
  6
CONTINUOUS
  2
_ARROW_FILLED
 10
7.2396813385
 20
31.2232080491
 41
3.5
 42
3.5
 43
3.5
 50
90.0
  0
INSERT
  5
241
100
AcDbEntity
  8
A_BEMASSUNGEN
100
AcDbBlockReference
 62
2
  6
CONTINUOUS
  2
_ARROW_FILLED
 10
7.2396813385
 20
36.2232080491
 41
3.5
 42
3.5
 43
3.5
 50
270.0
  0
ENDBLK
  5
242
100
AcDbEntity
  8
0
  6
BYBLOCK
 62
0
100
AcDbBlockEnd
  0
ENDSEC
  0
SECTION
  2
ENTITIES
  0
DIMENSION
  5
243
100
AcDbEntity
  8
A_BEMASSUNGEN
100
AcDbDimension
 62
2
  6
CONTINUOUS
  2
*D0
 10
55.4687139724
 20
65.8970356758
 11
59.2324713542
 21
65.8970356758
 70
160
  3
DIMSTYLE_1
100
AcDbAlignedDimension
 13
52.4687139724
 23
48.8034402672
 14
55.4687139724
 24
50.8576525172
100
AcDbRotatedDimension
  0
DIMENSION
  5
244
100
AcDbEntity
  8
A_BEMASSUNGEN
100
AcDbDimension
 62
2
  6
CONTINUOUS
  2
*D1
 10
58.9687139724
 20
4.6745455298
 11
50.6555688657
 21
4.6745455298
 70
160
  3
DIMSTYLE_1
100
AcDbAlignedDimension
 13
55.4687139724
 23
28.2232080491
 14
58.9687139724
 24
28.0723071481
100
AcDbRotatedDimension
  0
DIMENSION
  5
245
100
AcDbEntity
  8
A_BEMASSUNGEN
100
AcDbDimension
 62
2
  6
CONTINUOUS
  2
*D2
 10
7.2396813385
 20
49.2232080491
 11
7.2396813385
 21
42.2232083512
 70
160
  3
DIMSTYLE_2
100
AcDbAlignedDimension
 13
52.4687139724
 23
36.2232080491
 14
52.4687139724
 24
49.2232080491
 50
90.0
100
AcDbRotatedDimension
  0
DIMENSION
  5
246
100
AcDbEntity
  8
A_BEMASSUNGEN
100
AcDbDimension
 62
2
  6
CONTINUOUS
  2
*D3
 10
7.2396813385
 20
36.2232080491
 11
7.2396813385
 21
33.2232083512
 70
160
  3
DIMSTYLE_1
100
AcDbAlignedDimension
 13
58.9687139724
 23
31.2232080491
 14
52.4687139724
 24
36.2232080491
 50
90.0
100
AcDbRotatedDimension
  0
LINE
  5
247
100
AcDbEntity
  8
A_NOTIZEN_SYMB
100
AcDbLine
 62
7
  6
CONTINUOUS
 10
61.1678663654
 20
33.2223390773
 11
82.7198047997
 21
33.128300409
  0
LINE
  5
248
100
AcDbEntity
  8
0
100
AcDbLine
 62
7
  6
CONTINUOUS
 10
15.4687139724
 20
93.2232080491
 11
15.4687139724
 21
28.2232080491
  0
LINE
  5
249
100
AcDbEntity
  8
0
100
AcDbLine
 62
7
  6
CONTINUOUS
 10
45.9687139724
 20
12.7232080491
 11
105.9687139724
 21
12.7232080491
  0
LINE
  5
24A
100
AcDbEntity
  8
0
100
AcDbLine
 62
7
  6
CONTINUOUS
 10
45.9687139724
 20
27.2232080491
 11
58.9687139724
 21
27.2232080491
  0
LINE
  5
24B
100
AcDbEntity
  8
0
100
AcDbLine
 62
7
  6
CONTINUOUS
 10
15.4687139724
 20
28.2232080491
 11
55.4687139724
 21
28.2232080491
  0
LINE
  5
24C
100
AcDbEntity
  8
0
100
AcDbLine
 62
7
  6
CONTINUOUS
 10
82.4713319543
 20
32.2706037391
 11
59.2687098601
 21
32.1491139837
  0
LINE
  5
24D
100
AcDbEntity
  8
0
100
AcDbLine
 62
7
  6
CONTINUOUS
 10
83.7622526218
 20
31.3813909563
 11
58.9687139724
 21
31.2732080491
  0
LINE
  5
24E
100
AcDbEntity
  8
0
100
AcDbLine
 62
7
  6
CONTINUOUS
 10
61.2198047997
 20
32.3243036464
 11
82.6687168282
 21
32.4178927743
  0
LINE
  5
24F
100
AcDbEntity
  8
0
100
AcDbLine
 62
7
  6
CONTINUOUS
 10
58.9687139724
 20
31.2232080491
 11
84.9687139724
 21
31.2232080491
  0
LINE
  5
250
100
AcDbEntity
  8
0
100
AcDbLine
 62
7
  6
CONTINUOUS
 10
82.7198047997
 20
33.1528940686
 11
70.9687139724
 21
33.2044194537
  0
LINE
  5
251
100
AcDbEntity
  8
0
100
AcDbLine
 62
7
  6
CONTINUOUS
 10
52.4687139724
 20
36.2232080491
 11
55.4687139724
 21
36.2232080491
  0
LINE
  5
252
100
AcDbEntity
  8
0
100
AcDbLine
 62
7
  6
CONTINUOUS
 10
84.5687139724
 20
37.2232080491
 11
84.9687139724
 21
37.2232080491
  0
LINE
  5
253
100
AcDbEntity
  8
0
100
AcDbLine
 62
7
  6
CONTINUOUS
 10
45.9687139724
 20
12.7232080491
 11
45.9687139724
 21
27.2232080491
  0
LINE
  5
254
100
AcDbEntity
  8
A_ACHSEN
100
AcDbLine
 62
7
  6
CENTER
 10
55.9485197589
 20
38.2232080491
 11
88.2687139724
 21
38.2232080491
  0
LINE
  5
255
100
AcDbEntity
  8
0
100
AcDbLine
 62
7
  6
CONTINUOUS
 10
84.5687139724
 20
39.2232080491
 11
84.9687139724
 21
39.2232080491
  0
LINE
  5
256
100
AcDbEntity
  8
0
100
AcDbLine
 62
7
  6
CONTINUOUS
 10
52.4687139724
 20
36.2232080491
 11
52.4687139724
 21
49.2232080491
  0
LINE
  5
257
100
AcDbEntity
  8
0
100
AcDbLine
 62
7
  6
CONTINUOUS
 10
61.1678439994
 20
43.1990184852
 11
61.9690162731
 21
43.2025317755
  0
LINE
  5
258
100
AcDbEntity
  8
0
100
AcDbLine
 62
7
  6
CONTINUOUS
 10
63.9689778141
 20
43.2113019811
 11
82.7198047997
 21
43.2935220295
  0
LINE
  5
259
100
AcDbEntity
  8
0
100
AcDbLine
 62
7
  6
CONTINUOUS
 10
59.5187139724
 20
41.6501633112
 11
60.9687139724
 21
41.6501633112
  0
LINE
  5
25A
100
AcDbEntity
  8
A_ACHSEN
100
AcDbLine
 62
7
  6
CENTER
 10
56.4707074598
 20
42.7232080491
 11
36.7263670479
 21
42.7232080491
  0
LINE
  5
25B
100
AcDbEntity
  8
0
100
AcDbLine
 62
7
  6
CONTINUOUS
 10
58.9687139724
 20
44.2232080491
 11
84.9687139724
 21
44.2232080491
  0
LINE
  5
25C
100
AcDbEntity
  8
A_RUNDUNGEN
100
AcDbLine
 62
7
  6
CONTINUOUS
 10
60.9687139724
 20
43.1603595544
 11
59.5187139724
 21
43.1658028824
  0
LINE
  5
25D
100
AcDbEntity
  8
0
100
AcDbLine
 62
7
  6
CONTINUOUS
 10
61.2198047997
 20
44.1221124517
 11
82.6687168282
 21
44.0285233238
  0
LINE
  5
25E
100
AcDbEntity
  8
0
100
AcDbLine
 62
7
  6
CONTINUOUS
 10
83.7622526218
 20
44.0650156225
 11
82.9687139724
 21
44.06847811
  0
LINE
  5
25F
100
AcDbEntity
  8
A_RUNDUNGEN
100
AcDbLine
 62
7
  6
CONTINUOUS
 10
68.2622526218
 20
44.1326475602
 11
59.2676571912
 21
44.1718941355
  0
LINE
  5
260
100
AcDbEntity
  8
A_FASEN
100
AcDbLine
 62
7
  6
CONTINUOUS
 10
58.9687139724
 20
44.1731985297
 11
59.2676571912
 21
44.1718941355
  0
LINE
  5
261
100
AcDbEntity
  8
A_RUNDUNGEN
100
AcDbLine
 62
7
  6
CONTINUOUS
 10
70.9687139724
 20
44.1208383198
 11
82.9687139724
 21
44.06847811
  0
LINE
  5
262
100
AcDbEntity
  8
0
100
AcDbLine
 62
7
  6
CONTINUOUS
 10
55.4687139724
 20
28.2232080491
 11
55.4687139724
 21
57.7232080491
  0
LINE
  5
263
100
AcDbEntity
  8
0
100
AcDbLine
 62
7
  6
CONTINUOUS
 10
56.4687139724
 20
56.7232080491
 11
56.4687139724
 21
55.3035305845
  0
LINE
  5
264
100
AcDbEntity
  8
0
100
AcDbLine
 62
7
  6
CONTINUOUS
 10
52.4687139724
 20
49.2232080491
 11
55.4687139724
 21
49.2232080491
  0
LINE
  5
265
100
AcDbEntity
  8
0
100
AcDbLine
 62
7
  6
CONTINUOUS
 10
58.9687139724
 20
27.2232080491
 11
58.9687139724
 21
31.8475431945
  0
LINE
  5
266
100
AcDbEntity
  8
A_FASEN
100
AcDbLine
 62
7
  6
CONTINUOUS
 10
58.9687139724
 20
31.8475431945
 11
58.9687139724
 21
44.1731985297
  0
LINE
  5
267
100
AcDbEntity
  8
0
100
AcDbLine
 62
7
  6
CONTINUOUS
 10
58.9687139724
 20
44.1345565212
 11
58.9687139724
 21
52.7232080491
  0
LINE
  5
268
100
AcDbEntity
  8
A_RUNDUNGEN
100
AcDbLine
 62
7
  6
CONTINUOUS
 10
59.2676571912
 20
43.6064185176
 11
59.2676571912
 21
44.1718941355
  0
LINE
  5
269
100
AcDbEntity
  8
A_RUNDUNGEN
100
AcDbLine
 62
7
  6
CONTINUOUS
 10
59.2687098601
 20
32.1491139837
 11
59.2687098601
 21
43.1969978502
  0
LINE
  5
26A
100
AcDbEntity
  8
0
100
AcDbLine
 62
7
  6
CONTINUOUS
 10
60.9687139724
 20
33.0473023312
 11
60.9687139724
 21
32.5743012666
  0
LINE
  5
26B
100
AcDbEntity
  8
0
100
AcDbLine
 62
7
  6
CONTINUOUS
 10
60.9687139724
 20
33.0941800993
 11
60.9687139724
 21
33.7232080491
  0
LINE
  5
26C
100
AcDbEntity
  8
A_RUNDUNGEN
100
AcDbLine
 62
7
  6
CONTINUOUS
 10
60.9687139724
 20
33.7232080491
 11
60.9687139724
 21
42.7232080491
  0
LINE
  5
26D
100
AcDbEntity
  8
0
100
AcDbLine
 62
7
  6
CONTINUOUS
 10
60.9687139724
 20
42.7232080491
 11
60.9687139724
 21
43.8721148315
  0
LINE
  5
26E
100
AcDbEntity
  8
A_FASEN
100
AcDbLine
 62
7
  6
CONTINUOUS
 10
61.1678439994
 20
43.1053523797
 11
61.1678439994
 21
43.1990184852
  0
LINE
  5
26F
100
AcDbEntity
  8
0
100
AcDbLine
 62
7
  6
CONTINUOUS
 10
105.9687139724
 20
52.7232080491
 11
58.9687139724
 21
52.7232080491
  0
LINE
  5
270
100
AcDbEntity
  8
0
100
AcDbLine
 62
7
  6
CONTINUOUS
 10
55.4687139724
 20
54.7232080491
 11
58.9687139724
 21
52.7232080491
  0
LINE
  5
271
100
AcDbEntity
  8
0
100
AcDbLine
 62
7
  6
CONTINUOUS
 10
56.4687139724
 20
55.3035305845
 11
59.2342784095
 21
53.7232080491
  0
LINE
  5
272
100
AcDbEntity
  8
0
100
AcDbLine
 62
7
  6
CONTINUOUS
 10
61.9687139724
 20
33.1749475384
 11
61.9687139724
 21
43.2714685597
  0
LINE
  5
273
100
AcDbEntity
  8
0
100
AcDbLine
 62
7
  6
CONTINUOUS
 10
63.9687139724
 20
33.1749475384
 11
63.9687139724
 21
43.2113008241
  0
LINE
  5
274
100
AcDbEntity
  8
0
100
AcDbLine
 62
7
  6
CONTINUOUS
 10
64.7031495353
 20
53.7232080491
 11
67.4687139724
 21
55.3035305845
  0
LINE
  5
275
100
AcDbEntity
  8
0
100
AcDbLine
 62
7
  6
CONTINUOUS
 10
64.9687139724
 20
52.7232080491
 11
68.4687139724
 21
54.7232080491
  0
LINE
  5
276
100
AcDbEntity
  8
0
100
AcDbLine
 62
7
  6
CONTINUOUS
 10
59.2342784095
 20
53.7232080491
 11
64.7031495353
 21
53.7232080491
  0
LINE
  5
277
100
AcDbEntity
  8
0
100
AcDbLine
 62
7
  6
CONTINUOUS
 10
67.4687139724
 20
56.7232080491
 11
56.4687139724
 21
56.7232080491
  0
LINE
  5
278
100
AcDbEntity
  8
0
100
AcDbLine
 62
7
  6
CONTINUOUS
 10
67.4687139724
 20
55.3035305845
 11
67.4687139724
 21
56.7232080491
  0
LINE
  5
279
100
AcDbEntity
  8
0
100
AcDbLine
 62
7
  6
CONTINUOUS
 10
68.4687139724
 20
54.7232080491
 11
68.4687139724
 21
93.2232080491
  0
LINE
  5
27A
100
AcDbEntity
  8
0
100
AcDbLine
 62
7
  6
CONTINUOUS
 10
68.4687139724
 20
57.7232080491
 11
55.4687139724
 21
57.7232080491
  0
LINE
  5
27B
100
AcDbEntity
  8
A_RUNDUNGEN
100
AcDbLine
 62
7
  6
CONTINUOUS
 10
70.9687139724
 20
44.0795745408
 11
70.9687139724
 21
44.1208383198
  0
LINE
  5
27C
100
AcDbEntity
  8
0
100
AcDbLine
 62
7
  6
CONTINUOUS
 10
82.9687139724
 20
43.727214331
 11
82.6687168282
 21
44.0285233238
  0
LINE
  5
27D
100
AcDbEntity
  8
0
100
AcDbLine
 62
7
  6
CONTINUOUS
 10
84.3230378548
 20
43.7082462241
 11
84.1143948496
 21
43.9178015981
  0
LINE
  5
27E
100
AcDbEntity
  8
0
100
AcDbLine
 62
7
  6
CONTINUOUS
 10
58.9687139724
 20
31.8475431945
 11
59.2687098601
 21
32.1491139837
  0
LINE
  5
27F
100
AcDbEntity
  8
A_RUNDUNGEN
100
AcDbLine
 62
7
  6
CONTINUOUS
 10
80.9687139724
 20
33.7232080491
 11
80.9687139724
 21
42.7232080491
  0
LINE
  5
280
100
AcDbEntity
  8
0
100
AcDbLine
 62
7
  6
CONTINUOUS
 10
82.9687139724
 20
32.7192017671
 11
82.9687139724
 21
44.06847811
  0
LINE
  5
281
100
AcDbEntity
  8
0
100
AcDbLine
 62
7
  6
CONTINUOUS
 10
84.4687139724
 20
32.0909415706
 11
84.4687139724
 21
43.3554650081
  0
LINE
  5
282
100
AcDbEntity
  8
0
100
AcDbLine
 62
7
  6
CONTINUOUS
 10
84.9687139724
 20
44.2232080491
 11
84.9687139724
 21
31.2232080491
  0
LINE
  5
283
100
AcDbEntity
  8
0
100
AcDbLine
 62
7
  6
CONTINUOUS
 10
82.9687139724
 20
32.7192017671
 11
82.6687168282
 21
32.4178927743
  0
LINE
  5
284
100
AcDbEntity
  8
0
100
AcDbLine
 62
7
  6
CONTINUOUS
 10
84.3230378548
 20
31.7381603547
 11
84.1143948496
 21
31.5286049807
  0
LINE
  5
285
100
AcDbEntity
  8
0
100
AcDbLine
 62
7
  6
CONTINUOUS
 10
68.4687139724
 20
93.2232080491
 11
15.4687139724
 21
93.2232080491
  0
LINE
  5
286
100
AcDbEntity
  8
0
100
AcDbLine
 62
7
  6
CONTINUOUS
 10
105.9687139724
 20
12.7232080491
 11
105.9687139724
 21
52.7232080491
  0
ARC
  5
287
100
AcDbEntity
  8
A_RUNDUNGEN
100
AcDbCircle
 62
7
  6
CONTINUOUS
 10
46.8877410277
 20
20.7442909116
 40
25.7657059426
100
AcDbArc
 50
61.4302376619
 51
62.0385096024
  0
ARC
  5
288
100
AcDbEntity
  8
A_RUNDUNGEN
100
AcDbCircle
 62
7
  6
CONTINUOUS
 10
61.4687139724
 20
42.7232080491
 40
0.5
100
AcDbArc
 50
100.4124261408
 51
180.0000000001
  0
ARC
  5
289
100
AcDbEntity
  8
A_RUNDUNGEN
100
AcDbCircle
 62
7
  6
CONTINUOUS
 10
61.4687139724
 20
33.7232080491
 40
0.5
100
AcDbArc
 50
179.9999999999
 51
239.2957202585
  0
ARC
  5
28A
100
AcDbEntity
  8
A_RUNDUNGEN
100
AcDbCircle
 62
7
  6
CONTINUOUS
 10
80.4687139724
 20
42.7232080491
 40
0.5
100
AcDbArc
 50
0.0
 51
90.0
  0
ARC
  5
28B
100
AcDbEntity
  8
A_RUNDUNGEN
100
AcDbCircle
 62
7
  6
CONTINUOUS
 10
80.4687139724
 20
33.7232080491
 40
0.5
100
AcDbArc
 50
270.0
 51
360.0
  0
ARC
  5
28C
100
AcDbEntity
  8
A_RUNDUNGEN
100
AcDbCircle
 62
7
  6
CONTINUOUS
 10
68.2600709672
 20
43.6326523198
 40
0.5
100
AcDbArc
 50
67.4700217713
 51
89.75
  0
ARC
  5
28D
100
AcDbEntity
  8
0
100
AcDbCircle
 62
7
  6
CONTINUOUS
 10
82.4687139724
 20
32.7705968852
 40
0.5
100
AcDbArc
 50
270.3
 51
360.0
  0
ARC
  5
28E
100
AcDbEntity
  8
0
100
AcDbCircle
 62
7
  6
CONTINUOUS
 10
83.7600709672
 20
31.8813861966
 40
0.5
100
AcDbArc
 50
270.25
 51
315.125
  0
ARC
  5
28F
100
AcDbEntity
  8
0
100
AcDbCircle
 62
7
  6
CONTINUOUS
 10
83.7600709672
 20
43.5650203821
 40
0.5
100
AcDbArc
 50
44.875
 51
89.75
  0
ARC
  5
290
100
AcDbEntity
  8
0
100
AcDbCircle
 62
7
  6
CONTINUOUS
 10
83.9687139724
 20
32.0909415706
 40
0.5
100
AcDbArc
 50
315.125
 51
360.0
  0
ARC
  5
291
100
AcDbEntity
  8
0
100
AcDbCircle
 62
7
  6
CONTINUOUS
 10
83.9687139724
 20
43.3554650081
 40
0.5
100
AcDbArc
 50
0.0
 51
44.875
  0
ARC
  5
292
100
AcDbEntity
  8
A_RUNDUNGEN
100
AcDbCircle
 62
7
  6
CONTINUOUS
 10
58.7678306872
 20
43.6063916414
 40
0.4998265047
100
AcDbArc
 50
332.1181771928
 51
0.0030808481
  0
ARC
  5
293
100
AcDbEntity
  8
0
100
AcDbCircle
 62
7
  6
CONTINUOUS
 10
61.2187139724
 20
32.5743012666
 40
0.25
100
AcDbArc
 50
180.0
 51
270.25
  0
ARC
  5
294
100
AcDbEntity
  8
0
100
AcDbCircle
 62
7
  6
CONTINUOUS
 10
61.2187139724
 20
43.8721148315
 40
0.25
100
AcDbArc
 50
89.75
 51
180.0
  0
ARC
  5
295
100
AcDbEntity
  8
0
100
AcDbCircle
 62
7
  6
CONTINUOUS
 10
84.5687139724
 20
39.3232080491
 40
0.1
100
AcDbArc
 50
180.0
 51
270.0
  0
ARC
  5
296
100
AcDbEntity
  8
0
100
AcDbCircle
 62
7
  6
CONTINUOUS
 10
84.5687139724
 20
37.1232080491
 40
0.1
100
AcDbArc
 50
90.0
 51
180.0
  0
SPLINE
  5
297
100
AcDbEntity
  8
0
100
AcDbSpline
 62
7
  6
CONTINUOUS
 70
0
 71
3
 72
11
 73
7
 74
0
 42
0.0000001
 43
0.0000001
 44
0.0000000001
 40
0.0
 40
0.0
 40
0.0
 40
0.0
 40
0.2500112211
 40
0.5000177191
 40
0.7500064833
 40
1.0
 40
1.0
 40
1.0
 40
1.0
 10
82.9687139724
 20
43.5446751626
 30
0.0
 10
82.9687139724
 20
43.5121731726
 30
0.0
 10
82.955839542
 20
43.4464704031
 30
0.0
 10
82.9006656495
 20
43.3631533912
 30
0.0
 10
82.8179602765
 20
43.3070214141
 30
0.0
 10
82.7523041758
 20
43.2936645235
 30
0.0
 10
82.7198047997
 20
43.2935220295
 30
0.0
  0
SPLINE
  5
298
100
AcDbEntity
  8
0
100
AcDbSpline
 62
7
  6
CONTINUOUS
 70
0
 71
3
 72
11
 73
7
 74
0
 42
0.0000001
 43
0.0000001
 44
0.0000000001
 40
0.0
 40
0.0
 40
0.0
 40
0.0
 40
0.2499935167
 40
0.4999822809
 40
0.7499887789
 40
1.0
 40
1.0
 40
1.0
 40
1.0
 10
82.7198047997
 20
33.1528940686
 30
0.0
 10
82.7523041758
 20
33.1527515746
 30
0.0
 10
82.8179602765
 20
33.139394684
 30
0.0
 10
82.9006656495
 20
33.0832627069
 30
0.0
 10
82.955839542
 20
32.999945695
 30
0.0
 10
82.9687139724
 20
32.9342429255
 30
0.0
 10
82.9687139724
 20
32.9017409355
 30
0.0
  0
LINE
  5
299
100
AcDbEntity
  8
0
100
AcDbLine
 62
7
  6
CONTINUOUS
 10
61.1678439994
 20
43.1990184852
 11
60.9687139724
 21
43.399112619
  0
LINE
  5
29A
100
AcDbEntity
  8
0
100
AcDbLine
 62
7
  6
CONTINUOUS
 10
60.9687139724
 20
33.0473023312
 11
61.2687139724
 21
33.3487850063
  0
SPLINE
  5
29B
100
AcDbEntity
  8
0
100
AcDbSpline
 62
7
  6
CONTINUOUS
 70
0
 71
3
 72
8
 73
4
 74
0
 42
0.0000001
 43
0.0000001
 44
0.0000000001
 40
0.0
 40
0.0
 40
0.0
 40
0.0
 40
1.0
 40
1.0
 40
1.0
 40
1.0
 10
59.2687139724
 20
41.9001633112
 30
0.0
 10
59.2687139724
 20
41.8703004651
 30
0.0
 10
59.2742581803
 20
41.8399776202
 30
0.0
 10
59.2847661848
 20
41.8120245986
 30
0.0
  0
SPLINE
  5
29C
100
AcDbEntity
  8
0
100
AcDbSpline
 62
7
  6
CONTINUOUS
 70
0
 71
3
 72
11
 73
7
 74
0
 42
0.0000001
 43
0.0000001
 44
0.0000000001
 40
0.0
 40
0.0
 40
0.0
 40
0.0
 40
0.2498515408
 40
0.4997326068
 40
0.7496485831
 40
1.0
 40
1.0
 40
1.0
 40
1.0
 10
59.2847661848
 20
41.8120245986
 30
0.0
 10
59.2936008724
 20
41.7885228751
 30
0.0
 10
59.3186151093
 20
41.7439252892
 30
0.0
 10
59.3742561922
 20
41.6915067156
 30
0.0
 10
59.4429479293
 20
41.657851347
 30
0.0
 10
59.493561815
 20
41.6501470595
 30
0.0
 10
59.5187194417
 20
41.6501852666
 30
0.0
  0
SPLINE
  5
29D
100
AcDbEntity
  8
A_RUNDUNGEN
100
AcDbSpline
 62
7
  6
CONTINUOUS
 70
0
 71
3
 72
13
 73
9
 74
0
 42
0.0000001
 43
0.0000001
 44
0.0000000001
 40
0.0
 40
0.0
 40
0.0
 40
0.0
 40
0.0948679331
 40
0.1947166529
 40
0.303529112
 40
0.4236192133
 40
0.6968782023
 40
1.0
 40
1.0
 40
1.0
 40
1.0
 10
59.2687139724
 20
43.0157034334
 30
0.0
 10
59.2687139724
 20
43.025792916
 30
0.0
 10
59.2721571681
 20
43.0466270201
 30
0.0
 10
59.2869465104
 20
43.0757965917
 30
0.0
 10
59.3106520476
 20
43.1019633934
 30
0.0
 10
59.3543458675
 20
43.1332140094
 30
0.0
 10
59.424961505
 20
43.1593202615
 30
0.0
 10
59.4864763081
 20
43.1659238923
 30
0.0
 10
59.5187139724
 20
43.1658028824
 30
0.0
  0
SPLINE
  5
29E
100
AcDbEntity
  8
A_RUNDUNGEN
100
AcDbSpline
 62
7
  6
CONTINUOUS
 70
0
 71
3
 72
10
 73
6
 74
0
 42
0.0000001
 43
0.0000001
 44
0.0000000001
 40
0.0
 40
0.0
 40
0.0
 40
0.0
 40
0.2050984111
 40
0.4438896413
 40
1.0
 40
1.0
 40
1.0
 40
1.0
 10
59.2687098601
 20
43.1969978503
 30
0.0
 10
59.2687098601
 20
43.2097726357
 30
0.0
 10
59.2652545997
 20
43.2374174944
 30
0.0
 10
59.2481149085
 20
43.297430617
 30
0.0
 10
59.2263724591
 20
43.3423227664
 30
0.0
 10
59.2096343509
 20
43.3726480692
 30
0.0
  0
ENDSEC
  0
SECTION
  2
OBJECTS
  0
DICTIONARY
  5
29F
100
AcDbDictionary
  3
ACAD_GROUP
350
2A0
  3
ACAD_MLINESTYLE
350
2A1
  0
DICTIONARY
  5
2A0
102
{ACAD_REACTORS
330
29F
102
}
100
AcDbDictionary
  0
DICTIONARY
  5
2A1
102
{ACAD_REACTORS
330
29F
102
}
100
AcDbDictionary
  3
STANDARD
350
2A2
  0
MLINESTYLE
  5
2A2
102
{ACAD_REACTORS
330
2A1
102
}
100
AcDbMlineStyle
  2
STANDARD
 70
0
  3

 62
256
 51
90.0
 52
90.0
 71
2
 49
0.5
 62
256
  6
BYLAYER
 49
-0.5
 62
256
  6
BYLAYER
  0
ENDSEC
  0
EOF
