999
DXF file: d:\tmp\workingDir\0000093750\kcm_50_h_q03_01.dxf
999
Pro/ENGINEER 2016380 by Parametric Technology Corporation
  0
SECTION
  2
HEADER
  9
$ACADVER
  1
AC1014
  9
$DWGCODEPAGE
  3
ANSI_1252
  9
$EXTMAX
 10
130.048
 20
80.0
 30
0.0
  9
$EXTMIN
 10
0.0
 20
0.0
 30
0.0
  9
$LIMMIN
 10
0.0
 20
0.0
  9
$LIMMAX
 10
130.048
 20
80.0
  9
$VIEWCTR
 10
65.024
 20
40.0
  9
$VIEWSIZE
 40
80.0
  9
$CLAYER
  8
0
  9
$LTSCALE
 40
7.15264
  9
$CELTYPE
  6
BYLAYER
  9
$DIMSCALE
 40
1.0
  9
$DIMASZ
 40
3.5
  9
$DIMEXO
 40
0.0
  9
$DIMDLI
 40
4.941824
  9
$DIMEXE
 40
2.0
  9
$DIMCEN
 40
1.170432
  9
$DIMLFAC
 40
1.0
  9
$DIMBLK
  1
_ARROW_FILLED
  9
$DIMALT
 70
0
  9
$DIMALTF
 40
25.4
  9
$DIMTXT
 40
3.5
  9
$DIMTOL
 70
1
  9
$DIMLIM
 70
0
  9
$DIMTFAC
 40
1.0
  9
$DIMTP
 40
0.01
  9
$DIMTM
 40
0.01
  9
$DIMGAP
 40
0.625
  9
$AUNITS
 70
0
  9
$PDMODE
 70
0
  9
$PDSIZE
 40
0.04
  9
$HANDSEED
  5
2AC
  9
$TILEMODE
 70
1
  9
$MEASUREMENT
 70
1
  0
ENDSEC
  0
SECTION
  2
CLASSES
  0
ENDSEC
  0
SECTION
  2
TABLES
  0
TABLE
  2
VPORT
  5
8
100
AcDbSymbolTable
 70
2
  0
VPORT
  5
1F4
100
AcDbSymbolTableRecord
100
AcDbViewportTableRecord
  2
*ACTIVE
 70
0
 10
0.0
 20
0.0
 11
1.0
 21
1.0
 12
65.024
 22
40.0
 13
0.0
 23
0.0
 14
1.0
 24
1.0
 15
0.0
 25
0.0
 16
0.0
 26
0.0
 36
1.0
 17
0.0
 27
0.0
 37
0.0
 40
80.0
 41
1.6256
 42
50.0
 43
0.0
 44
0.0
 50
0.0
 51
0.0
 71
0
 72
100
 73
1
 74
1
 75
0
 76
0
 77
0
 78
0
  0
ENDTAB
  0
TABLE
  2
LTYPE
  5
5
100
AcDbSymbolTable
 70
6
  0
LTYPE
  5
14
100
AcDbSymbolTableRecord
100
AcDbLinetypeTableRecord
  2
BYBLOCK
 70
0
  3

 72
65
 73
0
 40
0.0
  0
LTYPE
  5
15
100
AcDbSymbolTableRecord
100
AcDbLinetypeTableRecord
  2
BYLAYER
 70
0
  3

 72
65
 73
0
 40
0.0
  0
LTYPE
  5
16
100
AcDbSymbolTableRecord
100
AcDbLinetypeTableRecord
  2
CONTINUOUS
 70
64
  3
Solid line
 72
65
 73
0
 40
0.0
  0
LTYPE
  5
1F5
100
AcDbSymbolTableRecord
100
AcDbLinetypeTableRecord
  2
CENTER
 70
64
  3
____ _ ____ _ ____ _ ____ _ ____ _ ____ _ ____
 72
65
 73
4
 40
0.6
 49
0.375
 74
0
 49
-0.075
 74
0
 49
0.075
 74
0
 49
-0.075
 74
0
  0
LTYPE
  5
1F6
100
AcDbSymbolTableRecord
100
AcDbLinetypeTableRecord
  2
HIDDEN
 70
64
  3
- - - - - - - - - - - - - - - - - - - -
 72
65
 73
2
 40
0.2
 49
0.1
 74
0
 49
-0.1
 74
0
  0
LTYPE
  5
1F7
100
AcDbSymbolTableRecord
100
AcDbLinetypeTableRecord
  2
PHANTOM
 70
64
  3
_____ _ _ _____ _ _ _____ _ _ _____
 72
65
 73
6
 40
0.8
 49
0.45
 74
0
 49
-0.05
 74
0
 49
0.1
 74
0
 49
-0.05
 74
0
 49
0.1
 74
0
 49
-0.05
 74
0
  0
LTYPE
  5
1F8
100
AcDbSymbolTableRecord
100
AcDbLinetypeTableRecord
  2
DOT
 70
64
  3
. . . . . . . . . . . . . . . . . . . .
 72
65
 73
2
 40
0.2
 49
0.1
 74
0
 49
-0.1
 74
0
  0
LTYPE
  5
1F9
100
AcDbSymbolTableRecord
100
AcDbLinetypeTableRecord
  2
DASHED
 70
64
  3
- - - - - - - - - - - - - - - - - - - -
 72
65
 73
2
 40
0.2
 49
0.1
 74
0
 49
-0.1
 74
0
  0
ENDTAB
  0
TABLE
  2
LAYER
  5
2
100
AcDbSymbolTable
 70
36
  0
LAYER
  5
10
100
AcDbSymbolTableRecord
100
AcDbLayerTableRecord
  2
0
 70
0
 62
7
  6
CONTINUOUS
  0
LAYER
  5
1FA
100
AcDbSymbolTableRecord
100
AcDbLayerTableRecord
  2
DEFAULT_1
 70
0
 62
7
  6
CENTER
  0
LAYER
  5
1FB
100
AcDbSymbolTableRecord
100
AcDbLayerTableRecord
  2
DEFAULT_2
 70
0
 62
8
  6
HIDDEN
  0
LAYER
  5
1FC
100
AcDbSymbolTableRecord
100
AcDbLayerTableRecord
  2
DEFAULT_3
 70
0
 62
7
  6
PHANTOM
  0
LAYER
  5
1FD
100
AcDbSymbolTableRecord
100
AcDbLayerTableRecord
  2
A_ACHSEN
 70
0
 62
7
  6
CONTINUOUS
  0
LAYER
  5
1FE
100
AcDbSymbolTableRecord
100
AcDbLayerTableRecord
  2
A_BASISEBENEN
 70
0
 62
7
  6
CONTINUOUS
  0
LAYER
  5
1FF
100
AcDbSymbolTableRecord
100
AcDbLayerTableRecord
  2
A_BEMASSUNGEN
 70
0
 62
7
  6
CONTINUOUS
  0
LAYER
  5
200
100
AcDbSymbolTableRecord
100
AcDbLayerTableRecord
  2
A_BOHRUNGEN
 70
0
 62
7
  6
CONTINUOUS
  0
LAYER
  5
201
100
AcDbSymbolTableRecord
100
AcDbLayerTableRecord
  2
A_EBENEN
 70
0
 62
7
  6
CONTINUOUS
  0
LAYER
  5
202
100
AcDbSymbolTableRecord
100
AcDbLayerTableRecord
  2
A_FASEN
 70
0
 62
7
  6
CONTINUOUS
  0
LAYER
  5
203
100
AcDbSymbolTableRecord
100
AcDbLayerTableRecord
  2
A_FLAECHEN
 70
0
 62
7
  6
CONTINUOUS
  0
LAYER
  5
204
100
AcDbSymbolTableRecord
100
AcDbLayerTableRecord
  2
A_FL_VERBAENDE
 70
0
 62
7
  6
CONTINUOUS
  0
LAYER
  5
205
100
AcDbSymbolTableRecord
100
AcDbLayerTableRecord
  2
A_KURVEN
 70
0
 62
7
  6
CONTINUOUS
  0
LAYER
  5
206
100
AcDbSymbolTableRecord
100
AcDbLayerTableRecord
  2
A_NOTIZEN_SYMB
 70
0
 62
7
  6
CONTINUOUS
  0
LAYER
  5
207
100
AcDbSymbolTableRecord
100
AcDbLayerTableRecord
  2
A_PUNKTE
 70
0
 62
7
  6
CONTINUOUS
  0
LAYER
  5
208
100
AcDbSymbolTableRecord
100
AcDbLayerTableRecord
  2
A_RUNDUNGEN
 70
0
 62
7
  6
CONTINUOUS
  0
LAYER
  5
209
100
AcDbSymbolTableRecord
100
AcDbLayerTableRecord
  2
BASISEBENEN
 70
0
 62
7
  6
CONTINUOUS
  0
ENDTAB
  0
TABLE
  2
STYLE
  5
3
100
AcDbSymbolTable
 70
1
  0
STYLE
  5
11
100
AcDbSymbolTableRecord
100
AcDbTextStyleTableRecord
  2
STANDARD
 70
0
 40
0.0
 41
1.0
 50
0.0
 71
0
 42
0.2
  3
txt
  4

  0
STYLE
  5
20A
100
AcDbSymbolTableRecord
100
AcDbTextStyleTableRecord
  2
TEXTSTYLE_1
 70
0
 40
0.0
 41
0.8
 50
0.0
 71
0
 42
0.2
  3
gdt
  4

  0
STYLE
  5
20B
100
AcDbSymbolTableRecord
100
AcDbTextStyleTableRecord
  2
TEXTSTYLE_2
 70
0
 40
0.0
 41
1.0
 50
0.0
 71
0
 42
0.2
  3
txt
  4

  0
ENDTAB
  0
TABLE
  2
VIEW
  5
6
100
AcDbSymbolTable
 70
0
  0
ENDTAB
  0
TABLE
  2
UCS
  5
7
100
AcDbSymbolTable
 70
0
  0
ENDTAB
  0
TABLE
  2
APPID
  5
9
100
AcDbSymbolTable
 70
1
  0
APPID
  5
20C
100
AcDbSymbolTableRecord
100
AcDbRegAppTableRecord
  2
ACAD
 70
0
  0
ENDTAB
  0
TABLE
  2
BLOCK_RECORD
  5
1
100
AcDbSymbolTable
 70
0
  0
BLOCK_RECORD
  5
1F
100
AcDbSymbolTableRecord
100
AcDbBlockTableRecord
  2
*MODEL_SPACE
  0
BLOCK_RECORD
  5
1B
100
AcDbSymbolTableRecord
100
AcDbBlockTableRecord
  2
*PAPER_SPACE
  0
BLOCK_RECORD
  5
20D
100
AcDbSymbolTableRecord
100
AcDbBlockTableRecord
  2
_ARROW_FILLED
  0
BLOCK_RECORD
  5
20E
100
AcDbSymbolTableRecord
100
AcDbBlockTableRecord
  2
*D0
  0
BLOCK_RECORD
  5
20F
100
AcDbSymbolTableRecord
100
AcDbBlockTableRecord
  2
*D1
  0
BLOCK_RECORD
  5
210
100
AcDbSymbolTableRecord
100
AcDbBlockTableRecord
  2
*D2
  0
BLOCK_RECORD
  5
211
100
AcDbSymbolTableRecord
100
AcDbBlockTableRecord
  2
*D3
  0
ENDTAB
  0
TABLE
  2
DIMSTYLE
  5
A
100
AcDbSymbolTable
 70
1
  0
DIMSTYLE
105
212
100
AcDbSymbolTableRecord
100
AcDbDimStyleTableRecord
  2
STANDARD
 70
0
  3

  4

  5
_ARROW_FILLED
  6
_ARROW_FILLED
  7
_ARROW_FILLED
 40
1.0
 41
3.5
 42
0.0
 43
0.38
 44
2.0
 45
0.0
 46
0.0
 47
0.01
 48
0.01
140
3.5
141
0.09
142
0.0
143
25.4
144
1.0
145
0.0
146
1.0
147
0.625
 71
1.0
 72
0.0
 73
0
 74
0
 75
0
 76
0
 77
1
 78
8
170
0
171
1
172
0
173
0
174
0
175
0
176
0
177
0
178
5
270
2
271
2
272
2
273
2
274
2
275
0
280
0
281
0
282
0
283
1
284
8
285
0
286
0
287
3
288
0
340
11
  0
DIMSTYLE
105
213
100
AcDbSymbolTableRecord
100
AcDbDimStyleTableRecord
  2
DIMSTYLE_1
 70
0
  3

  4

  5
_ARROW_FILLED
  6
_ARROW_FILLED
  7
_ARROW_FILLED
 40
1.0
 41
3.5
 42
0.0
 43
0.38
 44
2.0
 45
0.0
 46
0.0
 47
0.1
 48
0.1
140
3.5
141
0.09
142
0.0
143
25.4
144
1.0
145
0.0
146
1.0
147
0.875
 71
0.0
 72
0.0
 73
0
 74
0
 75
0
 76
0
 77
1
 78
8
170
0
171
1
172
0
173
0
174
0
175
0
176
0
177
0
178
5
270
2
271
4
272
-1
273
2
274
2
275
0
280
0
281
0
282
0
283
1
284
8
285
0
286
0
287
3
288
0
340
20B
  0
DIMSTYLE
105
214
100
AcDbSymbolTableRecord
100
AcDbDimStyleTableRecord
  2
DIMSTYLE_2
 70
0
  3

  4

  5
_ARROW_FILLED
  6
_ARROW_FILLED
  7
_ARROW_FILLED
 40
1.0
 41
3.5
 42
0.0
 43
0.38
 44
2.0
 45
0.0
 46
0.0
 47
0.2
 48
0.2
140
3.5
141
0.09
142
0.0
143
25.4
144
1.0
145
0.0
146
1.0
147
0.875
 71
0.0
 72
0.0
 73
0
 74
0
 75
0
 76
0
 77
1
 78
8
170
0
171
1
172
0
173
0
174
0
175
0
176
0
177
0
178
5
270
2
271
4
272
-1
273
2
274
2
275
0
280
0
281
0
282
0
283
1
284
8
285
0
286
0
287
3
288
0
340
20B
  0
ENDTAB
  0
ENDSEC
  0
SECTION
  2
BLOCKS
  0
BLOCK
  5
20
100
AcDbEntity
  8
0
100
AcDbBlockBegin
  2
*MODEL_SPACE
 70
0
 10
0.0
 20
0.0
 30
0.0
  3
*MODEL_SPACE
  1

  0
ENDBLK
  5
21
100
AcDbEntity
  8
0
100
AcDbBlockEnd
  0
BLOCK
  5
1C
100
AcDbEntity
  8
0
100
AcDbBlockBegin
  2
*PAPER_SPACE
 70
0
 10
0.0
 20
0.0
 30
0.0
  3
*PAPER_SPACE
  1

  0
ENDBLK
  5
1D
100
AcDbEntity
  8
0
100
AcDbBlockEnd
  0
BLOCK
  5
215
100
AcDbEntity
  8
0
100
AcDbBlockBegin
  2
_ARROW_FILLED
 70
64
 10
0.0
 20
0.0
  3
_ARROW_FILLED
  1

  0
SOLID
  5
216
100
AcDbEntity
  8
0
  6
BYBLOCK
 62
0
100
AcDbTrace
 10
0.0
 20
0.0
 11
-1.0
 21
0.1428571429
 12
-1.0
 22
-0.1428571429
 13
-1.0
 23
-0.1428571429
  0
ENDBLK
  5
217
100
AcDbEntity
  8
0
  6
BYBLOCK
 62
0
100
AcDbBlockEnd
  0
BLOCK
  5
218
100
AcDbEntity
  8
A_BEMASSUNGEN
100
AcDbBlockBegin
 62
2
  6
CONTINUOUS
  2
*D0
 70
65
 10
0.0
 20
0.0
  3
*D0
  1

  0
MTEXT
  5
219
100
AcDbEntity
  8
A_BEMASSUNGEN
100
AcDbMText
 62
5
  6
CONTINUOUS
  7
TEXTSTYLE_2
 71
1
 72
1
 10
64.934101702
 20
15.6748441312
 30
0.0
 11
1.0
 21
0.0
 31
0.0
  1
3.5
 40
3.5
 41
10.5
  0
LINE
  5
21A
100
AcDbEntity
  8
A_BEMASSUNGEN
100
AcDbLine
 62
2
  6
CONTINUOUS
 10
57.5047434065
 20
19.8959378582
 11
57.5047434065
 21
9.2998441312
  0
LINE
  5
21B
100
AcDbEntity
  8
A_BEMASSUNGEN
100
AcDbLine
 62
2
  6
CONTINUOUS
 10
61.0047434065
 20
19.8959378582
 11
61.0047434065
 21
9.2998441312
  0
LINE
  5
21C
100
AcDbEntity
  8
A_BEMASSUNGEN
100
AcDbLine
 62
2
  6
CONTINUOUS
 10
57.5047434065
 20
11.2998441312
 11
50.0047434065
 21
11.2998441312
  0
LINE
  5
21D
100
AcDbEntity
  8
A_BEMASSUNGEN
100
AcDbLine
 62
2
  6
CONTINUOUS
 10
50.0047434065
 20
11.2998441312
 11
59.2547434065
 21
11.2998441312
  0
LINE
  5
21E
100
AcDbEntity
  8
A_BEMASSUNGEN
100
AcDbLine
 62
2
  6
CONTINUOUS
 10
61.0047434065
 20
11.2998441312
 11
71.934101702
 21
11.2998441312
  0
LINE
  5
21F
100
AcDbEntity
  8
A_BEMASSUNGEN
100
AcDbLine
 62
2
  6
CONTINUOUS
 10
71.934101702
 20
11.2998441312
 11
59.2547434065
 21
11.2998441312
  0
INSERT
  5
220
100
AcDbEntity
  8
A_BEMASSUNGEN
100
AcDbBlockReference
 62
2
  6
CONTINUOUS
  2
_ARROW_FILLED
 10
57.5047434065
 20
11.2998441312
 41
3.5
 42
3.5
 43
3.5
  0
INSERT
  5
221
100
AcDbEntity
  8
A_BEMASSUNGEN
100
AcDbBlockReference
 62
2
  6
CONTINUOUS
  2
_ARROW_FILLED
 10
61.0047434065
 20
11.2998441312
 41
3.5
 42
3.5
 43
3.5
 50
180.0
  0
ENDBLK
  5
222
100
AcDbEntity
  8
0
  6
BYBLOCK
 62
0
100
AcDbBlockEnd
  0
BLOCK
  5
223
100
AcDbEntity
  8
A_BEMASSUNGEN
100
AcDbBlockBegin
 62
2
  6
CONTINUOUS
  2
*D1
 70
65
 10
0.0
 20
0.0
  3
*D1
  1

  0
MTEXT
  5
224
100
AcDbEntity
  8
A_BEMASSUNGEN
100
AcDbMText
 62
5
  6
CONTINUOUS
  7
TEXTSTYLE_2
 71
1
 72
1
 10
61.6265819942
 20
7.9122978783
 30
0.0
 11
1.0
 21
0.0
 31
0.0
  1
3
 40
3.5
 41
3.75
  0
LINE
  5
225
100
AcDbEntity
  8
A_BEMASSUNGEN
100
AcDbLine
 62
2
  6
CONTINUOUS
 10
57.5047434065
 20
19.8959378582
 11
57.5047434065
 21
1.5372978783
  0
LINE
  5
226
100
AcDbEntity
  8
A_BEMASSUNGEN
100
AcDbLine
 62
2
  6
CONTINUOUS
 10
54.5047434065
 20
28.8959378582
 11
54.5047434065
 21
24.9431340345
  0
LINE
  5
227
100
AcDbEntity
  8
A_BEMASSUNGEN
100
AcDbLine
 62
2
  6
CONTINUOUS
 10
54.5047434065
 20
22.2704781096
 11
54.5047434065
 21
13.6062028991
  0
LINE
  5
228
100
AcDbEntity
  8
A_BEMASSUNGEN
100
AcDbLine
 62
2
  6
CONTINUOUS
 10
54.5047434065
 20
9.2562249799
 11
54.5047434065
 21
1.5372978783
  0
LINE
  5
229
100
AcDbEntity
  8
A_BEMASSUNGEN
100
AcDbLine
 62
2
  6
CONTINUOUS
 10
57.5047434065
 20
3.5372978783
 11
64.1265819942
 21
3.5372978783
  0
LINE
  5
22A
100
AcDbEntity
  8
A_BEMASSUNGEN
100
AcDbLine
 62
2
  6
CONTINUOUS
 10
64.1265819942
 20
3.5372978783
 11
56.0047434065
 21
3.5372978783
  0
LINE
  5
22B
100
AcDbEntity
  8
A_BEMASSUNGEN
100
AcDbLine
 62
2
  6
CONTINUOUS
 10
54.5047434065
 20
3.5372978783
 11
47.0047434065
 21
3.5372978783
  0
LINE
  5
22C
100
AcDbEntity
  8
A_BEMASSUNGEN
100
AcDbLine
 62
2
  6
CONTINUOUS
 10
47.0047434065
 20
3.5372978783
 11
56.0047434065
 21
3.5372978783
  0
INSERT
  5
22D
100
AcDbEntity
  8
A_BEMASSUNGEN
100
AcDbBlockReference
 62
2
  6
CONTINUOUS
  2
_ARROW_FILLED
 10
57.5047434065
 20
3.5372978783
 41
3.5
 42
3.5
 43
3.5
 50
180.0
  0
INSERT
  5
22E
100
AcDbEntity
  8
A_BEMASSUNGEN
100
AcDbBlockReference
 62
2
  6
CONTINUOUS
  2
_ARROW_FILLED
 10
54.5047434065
 20
3.5372978783
 41
3.5
 42
3.5
 43
3.5
  0
ENDBLK
  5
22F
100
AcDbEntity
  8
0
  6
BYBLOCK
 62
0
100
AcDbBlockEnd
  0
BLOCK
  5
230
100
AcDbEntity
  8
A_BEMASSUNGEN
100
AcDbBlockBegin
 62
2
  6
CONTINUOUS
  2
*D2
 70
65
 10
0.0
 20
0.0
  3
*D2
  1

  0
MTEXT
  5
231
100
AcDbEntity
  8
A_BEMASSUNGEN
100
AcDbMText
 62
5
  6
CONTINUOUS
  7
TEXTSTYLE_2
 71
2
 72
1
 10
6.3911987229
 20
26.3959378582
 30
0.0
 11
0.0
 21
1.0
 31
0.0
  1
5
 40
3.5
 41
3.75
  0
LINE
  5
232
100
AcDbEntity
  8
A_BEMASSUNGEN
100
AcDbLine
 62
2
  6
CONTINUOUS
 10
61.0047434065
 20
23.8959378582
 11
8.7661987229
 21
23.8959378582
  0
LINE
  5
233
100
AcDbEntity
  8
A_BEMASSUNGEN
100
AcDbLine
 62
2
  6
CONTINUOUS
 10
54.5047434065
 20
28.8959378582
 11
8.7661987229
 21
28.8959378582
  0
LINE
  5
234
100
AcDbEntity
  8
A_BEMASSUNGEN
100
AcDbLine
 62
2
  6
CONTINUOUS
 10
10.7661987229
 20
23.8959378582
 11
10.7661987229
 21
16.3959378582
  0
LINE
  5
235
100
AcDbEntity
  8
A_BEMASSUNGEN
100
AcDbLine
 62
2
  6
CONTINUOUS
 10
10.7661987229
 20
16.3959378582
 11
10.7661987229
 21
26.3959378582
  0
LINE
  5
236
100
AcDbEntity
  8
A_BEMASSUNGEN
100
AcDbLine
 62
2
  6
CONTINUOUS
 10
10.7661987229
 20
28.8959378582
 11
10.7661987229
 21
36.3959378582
  0
LINE
  5
237
100
AcDbEntity
  8
A_BEMASSUNGEN
100
AcDbLine
 62
2
  6
CONTINUOUS
 10
10.7661987229
 20
36.3959378582
 11
10.7661987229
 21
26.3959378582
  0
INSERT
  5
238
100
AcDbEntity
  8
A_BEMASSUNGEN
100
AcDbBlockReference
 62
2
  6
CONTINUOUS
  2
_ARROW_FILLED
 10
10.7661987229
 20
23.8959378582
 41
3.5
 42
3.5
 43
3.5
 50
90.0
  0
INSERT
  5
239
100
AcDbEntity
  8
A_BEMASSUNGEN
100
AcDbBlockReference
 62
2
  6
CONTINUOUS
  2
_ARROW_FILLED
 10
10.7661987229
 20
28.8959378582
 41
3.5
 42
3.5
 43
3.5
 50
270.0
  0
ENDBLK
  5
23A
100
AcDbEntity
  8
0
  6
BYBLOCK
 62
0
100
AcDbBlockEnd
  0
BLOCK
  5
23B
100
AcDbEntity
  8
A_BEMASSUNGEN
100
AcDbBlockBegin
 62
2
  6
CONTINUOUS
  2
*D3
 70
65
 10
0.0
 20
0.0
  3
*D3
  1

  0
MTEXT
  5
23C
100
AcDbEntity
  8
A_BEMASSUNGEN
100
AcDbMText
 62
5
  6
CONTINUOUS
  7
TEXTSTYLE_2
 71
2
 72
1
 10
6.3911987229
 20
35.3959378582
 30
0.0
 11
0.0
 21
1.0
 31
0.0
  1
13
 40
3.5
 41
6.75
  0
LINE
  5
23D
100
AcDbEntity
  8
A_BEMASSUNGEN
100
AcDbLine
 62
2
  6
CONTINUOUS
 10
54.5047434065
 20
28.8959378582
 11
8.7661987229
 21
28.8959378582
  0
LINE
  5
23E
100
AcDbEntity
  8
A_BEMASSUNGEN
100
AcDbLine
 62
2
  6
CONTINUOUS
 10
54.5047434065
 20
41.8959378582
 11
8.7661987229
 21
41.8959378582
  0
LINE
  5
23F
100
AcDbEntity
  8
A_BEMASSUNGEN
100
AcDbLine
 62
2
  6
CONTINUOUS
 10
10.7661987229
 20
28.8959378582
 11
10.7661987229
 21
35.3959378582
  0
LINE
  5
240
100
AcDbEntity
  8
A_BEMASSUNGEN
100
AcDbLine
 62
2
  6
CONTINUOUS
 10
10.7661987229
 20
41.8959378582
 11
10.7661987229
 21
35.3959378582
  0
INSERT
  5
241
100
AcDbEntity
  8
A_BEMASSUNGEN
100
AcDbBlockReference
 62
2
  6
CONTINUOUS
  2
_ARROW_FILLED
 10
10.7661987229
 20
28.8959378582
 41
3.5
 42
3.5
 43
3.5
 50
270.0
  0
INSERT
  5
242
100
AcDbEntity
  8
A_BEMASSUNGEN
100
AcDbBlockReference
 62
2
  6
CONTINUOUS
  2
_ARROW_FILLED
 10
10.7661987229
 20
41.8959378582
 41
3.5
 42
3.5
 43
3.5
 50
90.0
  0
ENDBLK
  5
243
100
AcDbEntity
  8
0
  6
BYBLOCK
 62
0
100
AcDbBlockEnd
  0
ENDSEC
  0
SECTION
  2
ENTITIES
  0
DIMENSION
  5
244
100
AcDbEntity
  8
A_BEMASSUNGEN
100
AcDbDimension
 62
2
  6
CONTINUOUS
  2
*D0
 10
61.0047434065
 20
11.2998441312
 11
67.9341018125
 21
11.2998441312
 70
160
  3
DIMSTYLE_1
100
AcDbAlignedDimension
 13
57.5047434065
 23
19.8959378582
 14
61.0047434065
 24
19.8959378582
100
AcDbRotatedDimension
  0
DIMENSION
  5
245
100
AcDbEntity
  8
A_BEMASSUNGEN
100
AcDbDimension
 62
2
  6
CONTINUOUS
  2
*D1
 10
54.5047434065
 20
3.5372978783
 11
62.3765818125
 21
3.5372978783
 70
160
  3
DIMSTYLE_1
100
AcDbAlignedDimension
 13
57.5047434065
 23
19.8959378582
 14
54.5047434065
 24
28.8959378582
 50
180.0
100
AcDbRotatedDimension
  0
DIMENSION
  5
246
100
AcDbEntity
  8
A_BEMASSUNGEN
100
AcDbDimension
 62
2
  6
CONTINUOUS
  2
*D2
 10
10.7661987229
 20
28.8959378582
 11
10.7661987229
 21
25.8959376704
 70
160
  3
DIMSTYLE_1
100
AcDbAlignedDimension
 13
61.0047434065
 23
23.8959378582
 14
54.5047434065
 24
28.8959378582
 50
90.0
100
AcDbRotatedDimension
  0
DIMENSION
  5
247
100
AcDbEntity
  8
A_BEMASSUNGEN
100
AcDbDimension
 62
2
  6
CONTINUOUS
  2
*D3
 10
10.7661987229
 20
41.8959378582
 11
10.7661987229
 21
34.8959376548
 70
160
  3
DIMSTYLE_2
100
AcDbAlignedDimension
 13
54.5047434065
 23
28.8959378582
 14
54.5047434065
 24
41.8959378582
 50
90.0
100
AcDbRotatedDimension
  0
LINE
  5
248
100
AcDbEntity
  8
0
100
AcDbLine
 62
7
  6
CONTINUOUS
 10
17.5047434065
 20
74.8959378582
 11
17.5047434065
 21
19.8959378582
  0
LINE
  5
249
100
AcDbEntity
  8
0
100
AcDbLine
 62
7
  6
CONTINUOUS
 10
121.0047434065
 20
19.8959378582
 11
61.0047434065
 21
19.8959378582
  0
LINE
  5
24A
100
AcDbEntity
  8
0
100
AcDbLine
 62
7
  6
CONTINUOUS
 10
17.5047434065
 20
19.8959378582
 11
57.5047434065
 21
19.8959378582
  0
LINE
  5
24B
100
AcDbEntity
  8
0
100
AcDbLine
 62
7
  6
CONTINUOUS
 10
61.0047434065
 20
23.9459378582
 11
85.7982820559
 21
24.0541207654
  0
LINE
  5
24C
100
AcDbEntity
  8
0
100
AcDbLine
 62
7
  6
CONTINUOUS
 10
87.0047434065
 20
23.8959378582
 11
61.0047434065
 21
23.8959378582
  0
LINE
  5
24D
100
AcDbEntity
  8
0
100
AcDbLine
 62
7
  6
CONTINUOUS
 10
61.3047392942
 20
24.8218437928
 11
84.5073613884
 21
24.9433335482
  0
LINE
  5
24E
100
AcDbEntity
  8
0
100
AcDbLine
 62
7
  6
CONTINUOUS
 10
84.7047462623
 20
25.0906225834
 11
63.2558342338
 21
24.9970334555
  0
LINE
  5
24F
100
AcDbEntity
  8
0
100
AcDbLine
 62
7
  6
CONTINUOUS
 10
64.0047434065
 20
25.8459378582
 11
66.0047434065
 21
25.8459378582
  0
LINE
  5
250
100
AcDbEntity
  8
0
100
AcDbLine
 62
7
  6
CONTINUOUS
 10
82.5047434065
 20
25.8959378582
 11
66.0047434065
 21
25.8959378582
  0
LINE
  5
251
100
AcDbEntity
  8
0
100
AcDbLine
 62
7
  6
CONTINUOUS
 10
64.0047434065
 20
25.8959378582
 11
63.5047434065
 21
25.8959378582
  0
LINE
  5
252
100
AcDbEntity
  8
0
100
AcDbLine
 62
7
  6
CONTINUOUS
 10
84.7558342338
 20
25.8010302181
 11
73.0047434065
 21
25.8523043499
  0
LINE
  5
253
100
AcDbEntity
  8
0
100
AcDbLine
 62
7
  6
CONTINUOUS
 10
57.5047434065
 20
28.8959378582
 11
54.5047434065
 21
28.8959378582
  0
LINE
  5
254
100
AcDbEntity
  8
0
100
AcDbLine
 62
7
  6
CONTINUOUS
 10
86.6047434065
 20
29.8959378582
 11
87.0047434065
 21
29.8959378582
  0
LINE
  5
255
100
AcDbEntity
  8
A_ACHSEN
100
AcDbLine
 62
7
  6
CENTER
 10
88.6729676496
 20
30.8959378582
 11
59.2884646335
 21
30.8959378582
  0
LINE
  5
256
100
AcDbEntity
  8
0
100
AcDbLine
 62
7
  6
CONTINUOUS
 10
86.6047434065
 20
31.8959378582
 11
87.0047434065
 21
31.8959378582
  0
LINE
  5
257
100
AcDbEntity
  8
0
100
AcDbLine
 62
7
  6
CONTINUOUS
 10
54.5047434065
 20
41.8959378582
 11
54.5047434065
 21
28.8959378582
  0
LINE
  5
258
100
AcDbEntity
  8
0
100
AcDbLine
 62
7
  6
CONTINUOUS
 10
57.5047434065
 20
19.8959378582
 11
57.5047434065
 21
49.8959378582
  0
LINE
  5
259
100
AcDbEntity
  8
0
100
AcDbLine
 62
7
  6
CONTINUOUS
 10
84.7558342338
 20
35.9908454982
 11
66.0049044545
 21
35.9090286133
  0
LINE
  5
25A
100
AcDbEntity
  8
0
100
AcDbLine
 62
7
  6
CONTINUOUS
 10
64.0049425314
 20
35.9003020778
 11
63.2038734335
 21
35.8968067323
  0
LINE
  5
25B
100
AcDbEntity
  8
0
100
AcDbLine
 62
7
  6
CONTINUOUS
 10
61.5547434065
 20
34.3228931203
 11
63.0047434065
 21
34.3228931203
  0
LINE
  5
25C
100
AcDbEntity
  8
A_ACHSEN
100
AcDbLine
 62
7
  6
CENTER
 10
42.2847117926
 20
35.3959378582
 11
59.0608117524
 21
35.3959378582
  0
LINE
  5
25D
100
AcDbEntity
  8
0
100
AcDbLine
 62
7
  6
CONTINUOUS
 10
82.5047434065
 20
35.8959378582
 11
66.0047434065
 21
35.8959378582
  0
LINE
  5
25E
100
AcDbEntity
  8
0
100
AcDbLine
 62
7
  6
CONTINUOUS
 10
64.0047434065
 20
35.8959378582
 11
63.5047434065
 21
35.8959378582
  0
LINE
  5
25F
100
AcDbEntity
  8
0
100
AcDbLine
 62
7
  6
CONTINUOUS
 10
64.0047434065
 20
35.9459378582
 11
66.0047434065
 21
35.9459378582
  0
LINE
  5
260
100
AcDbEntity
  8
A_RUNDUNGEN
100
AcDbLine
 62
7
  6
CONTINUOUS
 10
63.0047434065
 20
35.8330893635
 11
61.5547434065
 21
35.8385326915
  0
LINE
  5
261
100
AcDbEntity
  8
0
100
AcDbLine
 62
7
  6
CONTINUOUS
 10
63.0047434065
 20
36.0959367155
 11
63.2038734335
 21
35.8968067323
  0
LINE
  5
262
100
AcDbEntity
  8
0
100
AcDbLine
 62
7
  6
CONTINUOUS
 10
58.5047434065
 20
47.4762603936
 11
58.5047434065
 21
48.8959378582
  0
LINE
  5
263
100
AcDbEntity
  8
0
100
AcDbLine
 62
7
  6
CONTINUOUS
 10
61.0047434065
 20
19.8959378582
 11
61.0047434065
 21
24.5202730036
  0
LINE
  5
264
100
AcDbEntity
  8
A_FASEN
100
AcDbLine
 62
7
  6
CONTINUOUS
 10
61.0047434065
 20
24.5202730036
 11
61.0047434065
 21
36.8459283388
  0
LINE
  5
265
100
AcDbEntity
  8
0
100
AcDbLine
 62
7
  6
CONTINUOUS
 10
61.0047434065
 20
36.8072863303
 11
61.0047434065
 21
44.8959378582
  0
LINE
  5
266
100
AcDbEntity
  8
A_RUNDUNGEN
100
AcDbLine
 62
7
  6
CONTINUOUS
 10
61.3036866253
 20
36.2791483267
 11
61.3036866253
 21
36.8446239446
  0
LINE
  5
267
100
AcDbEntity
  8
A_RUNDUNGEN
100
AcDbLine
 62
7
  6
CONTINUOUS
 10
61.3047392942
 20
24.8218437928
 11
61.3047392942
 21
35.8697276594
  0
LINE
  5
268
100
AcDbEntity
  8
0
100
AcDbLine
 62
7
  6
CONTINUOUS
 10
87.0047434065
 20
36.8959378582
 11
61.0047434065
 21
36.8959378582
  0
LINE
  5
269
100
AcDbEntity
  8
0
100
AcDbLine
 62
7
  6
CONTINUOUS
 10
84.7047462623
 20
36.7012531329
 11
63.2558342338
 21
36.7948422608
  0
LINE
  5
26A
100
AcDbEntity
  8
A_RUNDUNGEN
100
AcDbLine
 62
7
  6
CONTINUOUS
 10
70.2982820559
 20
36.8053773693
 11
61.3036866253
 21
36.8446239446
  0
LINE
  5
26B
100
AcDbEntity
  8
A_FASEN
100
AcDbLine
 62
7
  6
CONTINUOUS
 10
61.0047434065
 20
36.8459283388
 11
61.3036866253
 21
36.8446239446
  0
LINE
  5
26C
100
AcDbEntity
  8
A_RUNDUNGEN
100
AcDbLine
 62
7
  6
CONTINUOUS
 10
73.0047434065
 20
36.7935681289
 11
85.0047434065
 21
36.7412079191
  0
LINE
  5
26D
100
AcDbEntity
  8
0
100
AcDbLine
 62
7
  6
CONTINUOUS
 10
85.0047434065
 20
36.7412079191
 11
85.7982820559
 21
36.7377454316
  0
LINE
  5
26E
100
AcDbEntity
  8
0
100
AcDbLine
 62
7
  6
CONTINUOUS
 10
63.0047434065
 20
25.2470310757
 11
63.0047434065
 21
26.3959378582
  0
LINE
  5
26F
100
AcDbEntity
  8
A_RUNDUNGEN
100
AcDbLine
 62
7
  6
CONTINUOUS
 10
63.0047434065
 20
26.3959378582
 11
63.0047434065
 21
35.3959378582
  0
LINE
  5
270
100
AcDbEntity
  8
0
100
AcDbLine
 62
7
  6
CONTINUOUS
 10
63.0047434065
 20
35.3959378582
 11
63.0047434065
 21
36.5448446406
  0
LINE
  5
271
100
AcDbEntity
  8
0
100
AcDbLine
 62
7
  6
CONTINUOUS
 10
63.2038734335
 20
35.8968067323
 11
63.2038734335
 21
35.7780821888
  0
LINE
  5
272
100
AcDbEntity
  8
0
100
AcDbLine
 62
7
  6
CONTINUOUS
 10
64.0047434065
 20
25.8476773475
 11
64.0047434065
 21
35.9441983688
  0
LINE
  5
273
100
AcDbEntity
  8
0
100
AcDbLine
 62
7
  6
CONTINUOUS
 10
57.5047434065
 20
41.8959378582
 11
54.5047434065
 21
41.8959378582
  0
LINE
  5
274
100
AcDbEntity
  8
0
100
AcDbLine
 62
7
  6
CONTINUOUS
 10
61.0047434065
 20
44.8959378582
 11
57.5047434065
 21
46.8959378582
  0
LINE
  5
275
100
AcDbEntity
  8
0
100
AcDbLine
 62
7
  6
CONTINUOUS
 10
61.2703078436
 20
45.8959378582
 11
58.5047434065
 21
47.4762603936
  0
LINE
  5
276
100
AcDbEntity
  8
0
100
AcDbLine
 62
7
  6
CONTINUOUS
 10
66.0047434065
 20
25.8476773475
 11
66.0047434065
 21
35.9441983688
  0
LINE
  5
277
100
AcDbEntity
  8
0
100
AcDbLine
 62
7
  6
CONTINUOUS
 10
69.5047434065
 20
48.8959378582
 11
69.5047434065
 21
47.4762603936
  0
LINE
  5
278
100
AcDbEntity
  8
0
100
AcDbLine
 62
7
  6
CONTINUOUS
 10
69.5047434065
 20
47.4762603936
 11
66.7391789694
 21
45.8959378582
  0
LINE
  5
279
100
AcDbEntity
  8
0
100
AcDbLine
 62
7
  6
CONTINUOUS
 10
61.0047434065
 20
44.8959378582
 11
74.0047434065
 21
44.8959378582
  0
LINE
  5
27A
100
AcDbEntity
  8
0
100
AcDbLine
 62
7
  6
CONTINUOUS
 10
66.7391789694
 20
45.8959378582
 11
61.2703078436
 21
45.8959378582
  0
LINE
  5
27B
100
AcDbEntity
  8
0
100
AcDbLine
 62
7
  6
CONTINUOUS
 10
70.5047434065
 20
46.8959378582
 11
70.5047434065
 21
74.8959378582
  0
LINE
  5
27C
100
AcDbEntity
  8
0
100
AcDbLine
 62
7
  6
CONTINUOUS
 10
71.0047434065
 20
36.8959378582
 11
71.0047434065
 21
36.7610310516
  0
LINE
  5
27D
100
AcDbEntity
  8
0
100
AcDbLine
 62
7
  6
CONTINUOUS
 10
71.0047434065
 20
23.9895713664
 11
71.0047434065
 21
23.8959378582
  0
LINE
  5
27E
100
AcDbEntity
  8
0
100
AcDbLine
 62
7
  6
CONTINUOUS
 10
73.0047434065
 20
25.8959378582
 11
73.0047434065
 21
25.8523043499
  0
LINE
  5
27F
100
AcDbEntity
  8
A_RUNDUNGEN
100
AcDbLine
 62
7
  6
CONTINUOUS
 10
73.0047434065
 20
36.7523043499
 11
73.0047434065
 21
36.7935681289
  0
LINE
  5
280
100
AcDbEntity
  8
0
100
AcDbLine
 62
7
  6
CONTINUOUS
 10
70.5047434065
 20
46.8959378582
 11
67.0047434065
 21
44.8959378582
  0
LINE
  5
281
100
AcDbEntity
  8
0
100
AcDbLine
 62
7
  6
CONTINUOUS
 10
58.5047434065
 20
48.8959378582
 11
69.5047434065
 21
48.8959378582
  0
LINE
  5
282
100
AcDbEntity
  8
0
100
AcDbLine
 62
7
  6
CONTINUOUS
 10
57.5047434065
 20
49.8959378582
 11
70.5047434065
 21
49.8959378582
  0
LINE
  5
283
100
AcDbEntity
  8
0
100
AcDbLine
 62
7
  6
CONTINUOUS
 10
84.7047462623
 20
36.7012531329
 11
85.0047434065
 21
36.3999441401
  0
LINE
  5
284
100
AcDbEntity
  8
0
100
AcDbLine
 62
7
  6
CONTINUOUS
 10
86.1504242837
 20
36.5905314072
 11
86.3590672889
 21
36.3809760332
  0
LINE
  5
285
100
AcDbEntity
  8
0
100
AcDbLine
 62
7
  6
CONTINUOUS
 10
74.0047434065
 20
44.8959378582
 11
74.0047434065
 21
60.8959378582
  0
LINE
  5
286
100
AcDbEntity
  8
0
100
AcDbLine
 62
7
  6
CONTINUOUS
 10
61.3047392942
 20
24.8218437928
 11
61.0047434065
 21
24.5202730036
  0
LINE
  5
287
100
AcDbEntity
  8
0
100
AcDbLine
 62
7
  6
CONTINUOUS
 10
63.2681430945
 20
25.9593375461
 11
63.0047434065
 21
25.6959378582
  0
LINE
  5
288
100
AcDbEntity
  8
A_RUNDUNGEN
100
AcDbLine
 62
7
  6
CONTINUOUS
 10
83.0047434065
 20
26.3959378582
 11
83.0047434065
 21
35.3959378582
  0
LINE
  5
289
100
AcDbEntity
  8
0
100
AcDbLine
 62
7
  6
CONTINUOUS
 10
85.0047434065
 20
25.3919315762
 11
85.0047434065
 21
36.7412079191
  0
LINE
  5
28A
100
AcDbEntity
  8
0
100
AcDbLine
 62
7
  6
CONTINUOUS
 10
74.0047434065
 20
60.8959378582
 11
121.0047434065
 21
60.8959378582
  0
LINE
  5
28B
100
AcDbEntity
  8
0
100
AcDbLine
 62
7
  6
CONTINUOUS
 10
86.5047434065
 20
36.0281948172
 11
86.5047434065
 21
24.7636713797
  0
LINE
  5
28C
100
AcDbEntity
  8
0
100
AcDbLine
 62
7
  6
CONTINUOUS
 10
87.0047434065
 20
23.8959378582
 11
87.0047434065
 21
36.8959378582
  0
LINE
  5
28D
100
AcDbEntity
  8
0
100
AcDbLine
 62
7
  6
CONTINUOUS
 10
84.7047462623
 20
25.0906225834
 11
85.0047434065
 21
25.3919315762
  0
LINE
  5
28E
100
AcDbEntity
  8
0
100
AcDbLine
 62
7
  6
CONTINUOUS
 10
70.5047434065
 20
74.8959378582
 11
17.5047434065
 21
74.8959378582
  0
LINE
  5
28F
100
AcDbEntity
  8
0
100
AcDbLine
 62
7
  6
CONTINUOUS
 10
86.1504242837
 20
24.2013347898
 11
86.3590672889
 21
24.4108901638
  0
LINE
  5
290
100
AcDbEntity
  8
0
100
AcDbLine
 62
7
  6
CONTINUOUS
 10
121.0047434065
 20
60.8959378582
 11
121.0047434065
 21
19.8959378582
  0
ARC
  5
291
100
AcDbEntity
  8
A_RUNDUNGEN
100
AcDbCircle
 62
7
  6
CONTINUOUS
 10
48.9237704621
 20
13.4170207212
 40
25.765705942
100
AcDbArc
 50
61.4302376619
 51
62.0385096024
  0
ARC
  5
292
100
AcDbEntity
  8
A_RUNDUNGEN
100
AcDbCircle
 62
7
  6
CONTINUOUS
 10
63.5047434065
 20
35.3959378582
 40
0.5
100
AcDbArc
 50
90.0
 51
180.0000000001
  0
ARC
  5
293
100
AcDbEntity
  8
A_RUNDUNGEN
100
AcDbCircle
 62
7
  6
CONTINUOUS
 10
63.5047434065
 20
26.3959378582
 40
0.5
100
AcDbArc
 50
179.9999999999
 51
270.0
  0
ARC
  5
294
100
AcDbEntity
  8
A_RUNDUNGEN
100
AcDbCircle
 62
7
  6
CONTINUOUS
 10
82.5047434065
 20
35.3959378582
 40
0.5
100
AcDbArc
 50
0.0
 51
90.0
  0
ARC
  5
295
100
AcDbEntity
  8
A_RUNDUNGEN
100
AcDbCircle
 62
7
  6
CONTINUOUS
 10
82.5047434065
 20
26.3959378582
 40
0.5
100
AcDbArc
 50
270.0
 51
360.0
  0
ARC
  5
296
100
AcDbEntity
  8
A_RUNDUNGEN
100
AcDbCircle
 62
7
  6
CONTINUOUS
 10
70.2961004013
 20
36.3053821289
 40
0.5
100
AcDbArc
 50
67.4700217713
 51
89.75
  0
ARC
  5
297
100
AcDbEntity
  8
A_RUNDUNGEN
100
AcDbCircle
 62
7
  6
CONTINUOUS
 10
72.5047434065
 20
25.3804942671
 40
0.5
100
AcDbArc
 50
288.24
 51
316.2481932223
  0
ARC
  5
298
100
AcDbEntity
  8
0
100
AcDbCircle
 62
7
  6
CONTINUOUS
 10
84.5047434065
 20
25.4433266943
 40
0.5
100
AcDbArc
 50
270.3
 51
360.0
  0
ARC
  5
299
100
AcDbEntity
  8
0
100
AcDbCircle
 62
7
  6
CONTINUOUS
 10
85.7961004013
 20
24.5541160057
 40
0.5
100
AcDbArc
 50
270.25
 51
315.125
  0
ARC
  5
29A
100
AcDbEntity
  8
0
100
AcDbCircle
 62
7
  6
CONTINUOUS
 10
85.7961004013
 20
36.2377501912
 40
0.5
100
AcDbArc
 50
44.875
 51
89.75
  0
ARC
  5
29B
100
AcDbEntity
  8
0
100
AcDbCircle
 62
7
  6
CONTINUOUS
 10
86.0047434065
 20
24.7636713797
 40
0.5
100
AcDbArc
 50
315.125
 51
360.0
  0
ARC
  5
29C
100
AcDbEntity
  8
0
100
AcDbCircle
 62
7
  6
CONTINUOUS
 10
86.0047434065
 20
36.0281948172
 40
0.5
100
AcDbArc
 50
0.0
 51
44.875
  0
ARC
  5
29D
100
AcDbEntity
  8
A_RUNDUNGEN
100
AcDbCircle
 62
7
  6
CONTINUOUS
 10
60.8038601213
 20
36.2791214506
 40
0.4998265047
100
AcDbArc
 50
332.1181771928
 51
0.003080848
  0
ARC
  5
29E
100
AcDbEntity
  8
0
100
AcDbCircle
 62
7
  6
CONTINUOUS
 10
63.2547434065
 20
25.2470310757
 40
0.25
100
AcDbArc
 50
180.0
 51
270.25
  0
ARC
  5
29F
100
AcDbEntity
  8
0
100
AcDbCircle
 62
7
  6
CONTINUOUS
 10
63.2547434065
 20
36.5448446406
 40
0.25
100
AcDbArc
 50
89.75
 51
180.0
  0
ARC
  5
2A0
100
AcDbEntity
  8
0
100
AcDbCircle
 62
7
  6
CONTINUOUS
 10
84.7547434065
 20
36.2408431183
 40
0.25
100
AcDbArc
 50
270.250000002
 51
359.999999964
  0
ARC
  5
2A1
100
AcDbEntity
  8
0
100
AcDbCircle
 62
7
  6
CONTINUOUS
 10
84.7547434065
 20
25.551032598
 40
0.25
100
AcDbArc
 50
0.0000000141
 51
89.7499999992
  0
ARC
  5
2A2
100
AcDbEntity
  8
0
100
AcDbCircle
 62
7
  6
CONTINUOUS
 10
86.6047434065
 20
31.9959378582
 40
0.1
100
AcDbArc
 50
180.0
 51
270.0
  0
ARC
  5
2A3
100
AcDbEntity
  8
0
100
AcDbCircle
 62
7
  6
CONTINUOUS
 10
86.6047434065
 20
29.7959378582
 40
0.1
100
AcDbArc
 50
90.0
 51
180.0
  0
SPLINE
  5
2A4
100
AcDbEntity
  8
0
100
AcDbSpline
 62
7
  6
CONTINUOUS
 70
0
 71
3
 72
8
 73
4
 74
0
 42
0.0000001
 43
0.0000001
 44
0.0000000001
 40
0.0
 40
0.0
 40
0.0
 40
0.0
 40
1.0
 40
1.0
 40
1.0
 40
1.0
 10
61.3047434065
 20
34.5728931203
 30
0.0
 10
61.3047434065
 20
34.5430302743
 30
0.0
 10
61.3102876144
 20
34.5127074293
 30
0.0
 10
61.3207956189
 20
34.4847544077
 30
0.0
  0
SPLINE
  5
2A5
100
AcDbEntity
  8
0
100
AcDbSpline
 62
7
  6
CONTINUOUS
 70
0
 71
3
 72
11
 73
7
 74
0
 42
0.0000001
 43
0.0000001
 44
0.0000000001
 40
0.0
 40
0.0
 40
0.0
 40
0.0
 40
0.2498515408
 40
0.4997326068
 40
0.7496485831
 40
1.0
 40
1.0
 40
1.0
 40
1.0
 10
61.3207956189
 20
34.4847544077
 30
0.0
 10
61.3296303066
 20
34.4612526842
 30
0.0
 10
61.3546445434
 20
34.4166550983
 30
0.0
 10
61.4102856263
 20
34.3642365247
 30
0.0
 10
61.4789773634
 20
34.3305811561
 30
0.0
 10
61.5295912491
 20
34.3228768686
 30
0.0
 10
61.5547488758
 20
34.3229150757
 30
0.0
  0
SPLINE
  5
2A6
100
AcDbEntity
  8
A_RUNDUNGEN
100
AcDbSpline
 62
7
  6
CONTINUOUS
 70
0
 71
3
 72
13
 73
9
 74
0
 42
0.0000001
 43
0.0000001
 44
0.0000000001
 40
0.0
 40
0.0
 40
0.0
 40
0.0
 40
0.0948679331
 40
0.1947166529
 40
0.303529112
 40
0.4236192133
 40
0.6968782023
 40
1.0
 40
1.0
 40
1.0
 40
1.0
 10
61.3047434065
 20
35.6884332425
 30
0.0
 10
61.3047434065
 20
35.6985227251
 30
0.0
 10
61.3081866022
 20
35.7193568292
 30
0.0
 10
61.3229759445
 20
35.7485264008
 30
0.0
 10
61.3466814817
 20
35.7746932025
 30
0.0
 10
61.3903753016
 20
35.8059438185
 30
0.0
 10
61.4609909391
 20
35.8320500706
 30
0.0
 10
61.5225057422
 20
35.8386537014
 30
0.0
 10
61.5547434065
 20
35.8385326915
 30
0.0
  0
SPLINE
  5
2A7
100
AcDbEntity
  8
A_RUNDUNGEN
100
AcDbSpline
 62
7
  6
CONTINUOUS
 70
0
 71
3
 72
10
 73
6
 74
0
 42
0.0000001
 43
0.0000001
 44
0.0000000001
 40
0.0
 40
0.0
 40
0.0
 40
0.0
 40
0.2050984111
 40
0.4438896413
 40
1.0
 40
1.0
 40
1.0
 40
1.0
 10
61.3047392942
 20
35.8697276594
 30
0.0
 10
61.3047392942
 20
35.8825024448
 30
0.0
 10
61.3012840339
 20
35.9101473035
 30
0.0
 10
61.2841443426
 20
35.9701604261
 30
0.0
 10
61.2624018932
 20
36.0150525755
 30
0.0
 10
61.245663785
 20
36.0453778783
 30
0.0
  0
ENDSEC
  0
SECTION
  2
OBJECTS
  0
DICTIONARY
  5
2A8
100
AcDbDictionary
  3
ACAD_GROUP
350
2A9
  3
ACAD_MLINESTYLE
350
2AA
  0
DICTIONARY
  5
2A9
102
{ACAD_REACTORS
330
2A8
102
}
100
AcDbDictionary
  0
DICTIONARY
  5
2AA
102
{ACAD_REACTORS
330
2A8
102
}
100
AcDbDictionary
  3
STANDARD
350
2AB
  0
MLINESTYLE
  5
2AB
102
{ACAD_REACTORS
330
2AA
102
}
100
AcDbMlineStyle
  2
STANDARD
 70
0
  3

 62
256
 51
90.0
 52
90.0
 71
2
 49
0.5
 62
256
  6
BYLAYER
 49
-0.5
 62
256
  6
BYLAYER
  0
ENDSEC
  0
EOF
