  0
SECTION
  2
HEADER
  9
$ACADVER
  1
AC1018
  9
$ACADMAINTVER
 70
     0
  9
$DWGCODEPAGE
  3
ANSI_1252
  9
$INSBASE
 10
0.0
 20
0.0
 30
0.0
  9
$EXTMIN
 10
57.6786906868733
 20
118.429088804946
 30
0.0
  9
$EXTMAX
 10
95.2545947391
 20
270.5515655761
 30
0.0
  9
$LIMMIN
 10
0.0
 20
0.0
  9
$LIMMAX
 10
12.0
 20
9.0
  9
$ORTHOMODE
 70
     0
  9
$REGENMODE
 70
     1
  9
$FILLMODE
 70
     1
  9
$QTEXTMODE
 70
     0
  9
$MIRRTEXT
 70
     1
  9
$LTSCALE
 40
1.0
  9
$ATTMODE
 70
     1
  9
$TEXTSIZE
 40
0.2
  9
$TRACEWID
 40
0.05
  9
$TEXTSTYLE
  7
Standard
  9
$CLAYER
  8
0
  9
$CELTYPE
  6
ByLayer
  9
$CECOLOR
 62
   256
  9
$CELTSCALE
 40
1.0
  9
$DISPSILH
 70
     0
  9
$DIMSCALE
 40
1.0
  9
$DIMASZ
 40
0.18
  9
$DIMEXO
 40
0.0625
  9
$DIMDLI
 40
0.38
  9
$DIMRND
 40
0.0
  9
$DIMDLE
 40
0.0
  9
$DIMEXE
 40
0.18
  9
$DIMTP
 40
0.0
  9
$DIMTM
 40
0.0
  9
$DIMTXT
 40
0.18
  9
$DIMCEN
 40
0.09
  9
$DIMTSZ
 40
0.0
  9
$DIMTOL
 70
     0
  9
$DIMLIM
 70
     0
  9
$DIMTIH
 70
     1
  9
$DIMTOH
 70
     1
  9
$DIMSE1
 70
     0
  9
$DIMSE2
 70
     0
  9
$DIMTAD
 70
     0
  9
$DIMZIN
 70
     0
  9
$DIMBLK
  1

  9
$DIMASO
 70
     1
  9
$DIMSHO
 70
     1
  9
$DIMPOST
  1

  9
$DIMAPOST
  1

  9
$DIMALT
 70
     0
  9
$DIMALTD
 70
     2
  9
$DIMALTF
 40
25.4
  9
$DIMLFAC
 40
1.0
  9
$DIMTOFL
 70
     0
  9
$DIMTVP
 40
0.0
  9
$DIMTIX
 70
     0
  9
$DIMSOXD
 70
     0
  9
$DIMSAH
 70
     0
  9
$DIMBLK1
  1

  9
$DIMBLK2
  1

  9
$DIMSTYLE
  2
Standard
  9
$DIMCLRD
 70
     0
  9
$DIMCLRE
 70
     0
  9
$DIMCLRT
 70
     0
  9
$DIMTFAC
 40
1.0
  9
$DIMGAP
 40
0.09
  9
$DIMJUST
 70
     0
  9
$DIMSD1
 70
     0
  9
$DIMSD2
 70
     0
  9
$DIMTOLJ
 70
     1
  9
$DIMTZIN
 70
     0
  9
$DIMALTZ
 70
     0
  9
$DIMALTTZ
 70
     0
  9
$DIMUPT
 70
     0
  9
$DIMDEC
 70
     4
  9
$DIMTDEC
 70
     4
  9
$DIMALTU
 70
     2
  9
$DIMALTTD
 70
     2
  9
$DIMTXSTY
  7
Standard
  9
$DIMAUNIT
 70
     0
  9
$DIMADEC
 70
     0
  9
$DIMALTRND
 40
0.0
  9
$DIMAZIN
 70
     0
  9
$DIMDSEP
 70
    46
  9
$DIMATFIT
 70
     3
  9
$DIMFRAC
 70
     0
  9
$DIMLDRBLK
  1

  9
$DIMLUNIT
 70
     2
  9
$DIMLWD
 70
    -2
  9
$DIMLWE
 70
    -2
  9
$DIMTMOVE
 70
     0
  9
$LUNITS
 70
     2
  9
$LUPREC
 70
     4
  9
$SKETCHINC
 40
0.1
  9
$FILLETRAD
 40
0.5
  9
$AUNITS
 70
     0
  9
$AUPREC
 70
     0
  9
$MENU
  1
.
  9
$ELEVATION
 40
0.0
  9
$PELEVATION
 40
0.0
  9
$THICKNESS
 40
0.0
  9
$LIMCHECK
 70
     0
  9
$CHAMFERA
 40
0.5
  9
$CHAMFERB
 40
0.5
  9
$CHAMFERC
 40
1.0
  9
$CHAMFERD
 40
0.0
  9
$SKPOLY
 70
     0
  9
$TDCREATE
 40
2456472.350395741
  9
$TDUCREATE
 40
2456472.267062407
  9
$TDUPDATE
 40
2456472.350395752
  9
$TDUUPDATE
 40
2456472.267062419
  9
$TDINDWG
 40
0.0000000116
  9
$TDUSRTIMER
 40
0.0000000116
  9
$USRTIMER
 70
     1
  9
$ANGBASE
 50
0.0
  9
$ANGDIR
 70
     0
  9
$PDMODE
 70
     0
  9
$PDSIZE
 40
0.0
  9
$PLINEWID
 40
0.0
  9
$SPLFRAME
 70
     0
  9
$SPLINETYPE
 70
     6
  9
$SPLINESEGS
 70
     8
  9
$HANDSEED
  5
DD
  9
$SURFTAB1
 70
     6
  9
$SURFTAB2
 70
     6
  9
$SURFTYPE
 70
     6
  9
$SURFU
 70
     6
  9
$SURFV
 70
     6
  9
$UCSBASE
  2

  9
$UCSNAME
  2

  9
$UCSORG
 10
0.0
 20
0.0
 30
0.0
  9
$UCSXDIR
 10
1.0
 20
0.0
 30
0.0
  9
$UCSYDIR
 10
0.0
 20
1.0
 30
0.0
  9
$UCSORTHOREF
  2

  9
$UCSORTHOVIEW
 70
     0
  9
$UCSORGTOP
 10
0.0
 20
0.0
 30
0.0
  9
$UCSORGBOTTOM
 10
0.0
 20
0.0
 30
0.0
  9
$UCSORGLEFT
 10
0.0
 20
0.0
 30
0.0
  9
$UCSORGRIGHT
 10
0.0
 20
0.0
 30
0.0
  9
$UCSORGFRONT
 10
0.0
 20
0.0
 30
0.0
  9
$UCSORGBACK
 10
0.0
 20
0.0
 30
0.0
  9
$PUCSBASE
  2

  9
$PUCSNAME
  2

  9
$PUCSORG
 10
0.0
 20
0.0
 30
0.0
  9
$PUCSXDIR
 10
1.0
 20
0.0
 30
0.0
  9
$PUCSYDIR
 10
0.0
 20
1.0
 30
0.0
  9
$PUCSORTHOREF
  2

  9
$PUCSORTHOVIEW
 70
     0
  9
$PUCSORGTOP
 10
0.0
 20
0.0
 30
0.0
  9
$PUCSORGBOTTOM
 10
0.0
 20
0.0
 30
0.0
  9
$PUCSORGLEFT
 10
0.0
 20
0.0
 30
0.0
  9
$PUCSORGRIGHT
 10
0.0
 20
0.0
 30
0.0
  9
$PUCSORGFRONT
 10
0.0
 20
0.0
 30
0.0
  9
$PUCSORGBACK
 10
0.0
 20
0.0
 30
0.0
  9
$USERI1
 70
     0
  9
$USERI2
 70
     0
  9
$USERI3
 70
     0
  9
$USERI4
 70
     0
  9
$USERI5
 70
     0
  9
$USERR1
 40
14.5
  9
$USERR2
 40
0.0
  9
$USERR3
 40
0.0
  9
$USERR4
 40
0.0
  9
$USERR5
 40
0.0
  9
$WORLDVIEW
 70
     1
  9
$SHADEDGE
 70
     3
  9
$SHADEDIF
 70
    70
  9
$TILEMODE
 70
     1
  9
$MAXACTVP
 70
    64
  9
$PINSBASE
 10
0.0
 20
0.0
 30
0.0
  9
$PLIMCHECK
 70
     0
  9
$PEXTMIN
 10
1.00000000000000E+20
 20
1.00000000000000E+20
 30
1.00000000000000E+20
  9
$PEXTMAX
 10
-1.00000000000000E+20
 20
-1.00000000000000E+20
 30
-1.00000000000000E+20
  9
$PLIMMIN
 10
0.0
 20
0.0
  9
$PLIMMAX
 10
12.0
 20
9.0
  9
$UNITMODE
 70
     0
  9
$VISRETAIN
 70
     1
  9
$PLINEGEN
 70
     0
  9
$PSLTSCALE
 70
     1
  9
$TREEDEPTH
 70
  3020
  9
$CMLSTYLE
  2
Standard
  9
$CMLJUST
 70
     0
  9
$CMLSCALE
 40
1.0
  9
$PROXYGRAPHICS
 70
     1
  9
$MEASUREMENT
 70
     1
  9
$CELWEIGHT
370
    -1
  9
$ENDCAPS
280
     0
  9
$JOINSTYLE
280
     0
  9
$LWDISPLAY
290
     0
  9
$INSUNITS
 70
     1
  9
$HYPERLINKBASE
  1

  9
$STYLESHEET
  1

  9
$XEDIT
290
     1
  9
$CEPSNTYPE
380
     0
  9
$PSTYLEMODE
290
     1
  9
$FINGERPRINTGUID
  2
{6F03600E-6811-4C09-B4D1-86E8620F03C4}
  9
$VERSIONGUID
  2
{FAEB1C32-E019-11D5-929B-00C0DF256EC4}
  9
$EXTNAMES
290
     1
  9
$PSVPSCALE
 40
0.0
  9
$OLESTARTUP
290
     0
  9
$SORTENTS
280
   127
  9
$INDEXCTL
280
     0
  9
$HIDETEXT
280
     1
  9
$XCLIPFRAME
290
     0
  9
$HALOGAP
280
     0
  9
$OBSCOLOR
 70
   257
  9
$OBSLTYPE
280
     0
  9
$INTERSECTIONDISPLAY
280
     0
  9
$INTERSECTIONCOLOR
 70
   257
  9
$DIMASSOC
280
     2
  9
$PROJECTNAME
  1

  0
ENDSEC
  0
SECTION
  2
CLASSES
  0
CLASS
  1
ACDBDICTIONARYWDFLT
  2
AcDbDictionaryWithDefault
  3
ObjectDBX Classes
 90
        0
 91
        3
280
     0
281
     0
  0
CLASS
  1

  2
exOdDbCircle
  3

 90
        0
 91
        3
280
     0
281
     1
  0
CLASS
  1

  2
exOdDbSpline
  3

 90
        0
 91
        3
280
     0
281
     1
  0
ENDSEC
  0
SECTION
  2
TABLES
  0
TABLE
  2
VPORT
  5
8
330
0
100
AcDbSymbolTable
 70
     1
  0
VPORT
  5
29
330
8
100
AcDbSymbolTableRecord
100
AcDbViewportTableRecord
  2
*Active
 70
     0
 10
0.0
 20
0.0
 11
1.0
 21
1.0
 12
76.46664271298665
 22
194.490327190523
 13
0.0
 23
0.0
 14
0.5
 24
0.5
 15
0.5
 25
0.5
 16
0.0
 26
0.0
 36
1.0
 17
0.0
 27
0.0
 37
0.0
 40
167.3347244482694
 41
1.60267857142857
 42
50.0
 43
0.0
 44
0.0
 50
0.0
 51
0.0
 71
     0
 72
   100
 73
     1
 74
     3
 75
     0
 76
     0
 77
     0
 78
     0
281
     0
 65
     1
110
0.0
120
0.0
130
0.0
111
1.0
121
0.0
131
0.0
112
0.0
122
1.0
132
0.0
 79
     0
146
0.0
  0
ENDTAB
  0
TABLE
  2
LTYPE
  5
5
330
0
100
AcDbSymbolTable
 70
     9
  0
LTYPE
  5
14
330
5
100
AcDbSymbolTableRecord
100
AcDbLinetypeTableRecord
  2
ByBlock
 70
     0
  3

 72
    65
 73
     0
 40
0.0
  0
LTYPE
  5
15
330
5
100
AcDbSymbolTableRecord
100
AcDbLinetypeTableRecord
  2
ByLayer
 70
     0
  3

 72
    65
 73
     0
 40
0.0
  0
LTYPE
  5
16
330
5
100
AcDbSymbolTableRecord
100
AcDbLinetypeTableRecord
  2
Continuous
 70
     0
  3
Solid line
 72
    65
 73
     0
 40
0.0
  0
LTYPE
  5
2A
330
5
100
AcDbSymbolTableRecord
100
AcDbLinetypeTableRecord
  2
DASHED
 70
     0
  3
Dashed
 72
    65
 73
     2
 40
15.0
 49
7.0
 74
     0
 49
-8.0
 74
     0
  0
LTYPE
  5
2B
330
5
100
AcDbSymbolTableRecord
100
AcDbLinetypeTableRecord
  2
DOTTED
 70
     0
  3
Dotted
 72
    65
 73
     2
 40
1.0
 49
0.0
 74
     0
 49
-1.0
 74
     0
  0
LTYPE
  5
2C
330
5
100
AcDbSymbolTableRecord
100
AcDbLinetypeTableRecord
  2
DOT_CENTER
 70
     0
  3
Dot_Center
 72
    65
 73
     4
 40
14.0
 49
12.0
 74
     0
 49
-1.0
 74
     0
 49
0.0
 74
     0
 49
-1.0
 74
     0
  0
LTYPE
  5
2D
330
5
100
AcDbSymbolTableRecord
100
AcDbLinetypeTableRecord
  2
LONG_DASHED
 70
     0
  3
Long_Dashed
 72
    65
 73
     2
 40
15.0
 49
10.0
 74
     0
 49
-5.0
 74
     0
  0
LTYPE
  5
2E
330
5
100
AcDbSymbolTableRecord
100
AcDbLinetypeTableRecord
  2
DASH_CENTER
 70
     0
  3
Dash_Center
 72
    65
 73
     4
 40
14.0
 49
11.0
 74
     0
 49
-1.0
 74
     0
 49
1.0
 74
     0
 49
-1.0
 74
     0
  0
LTYPE
  5
2F
330
5
100
AcDbSymbolTableRecord
100
AcDbLinetypeTableRecord
  2
PHANTOM
 70
     0
  3
Phantom
 72
    65
 73
     6
 40
13.0
 49
10.0
 74
     0
 49
-1.0
 74
     0
 49
0.0
 74
     0
 49
-1.0
 74
     0
 49
0.0
 74
     0
 49
-1.0
 74
     0
  0
LTYPE
  5
30
330
5
100
AcDbSymbolTableRecord
100
AcDbLinetypeTableRecord
  2
CENTER_DASH_DASH
 70
     0
  3
Center_Dash_Dash
 72
    65
 73
     6
 40
14.0
 49
9.0
 74
     0
 49
-1.0
 74
     0
 49
1.0
 74
     0
 49
-1.0
 74
     0
 49
1.0
 74
     0
 49
-1.0
 74
     0
  0
LTYPE
  5
31
330
5
100
AcDbSymbolTableRecord
100
AcDbLinetypeTableRecord
  2
CENTER
 70
     0
  3
CENTER
 72
    65
 73
     4
 40
14.0
 49
8.0
 74
     0
 49
-2.0
 74
     0
 49
2.0
 74
     0
 49
-2.0
 74
     0
  0
ENDTAB
  0
TABLE
  2
LAYER
  5
2
330
0
100
AcDbSymbolTable
 70
     4
  0
LAYER
  5
10
330
2
100
AcDbSymbolTableRecord
100
AcDbLayerTableRecord
  2
0
 70
     0
 62
     7
  6
Continuous
370
    -3
390
F
  0
LAYER
  5
32
330
2
100
AcDbSymbolTableRecord
100
AcDbLayerTableRecord
  2
1
 70
     0
 62
     7
  6
Continuous
370
    -3
390
F
  0
LAYER
  5
33
330
2
100
AcDbSymbolTableRecord
100
AcDbLayerTableRecord
  2
A_ACHSEN
 70
     0
 62
     7
  6
Continuous
370
    -3
390
F
  0
LAYER
  5
34
330
2
100
AcDbSymbolTableRecord
100
AcDbLayerTableRecord
  2
DEFAULT_1
 70
     0
 62
     7
  6
Continuous
370
    -3
390
F
  0
ENDTAB
  0
TABLE
  2
STYLE
  5
3
330
0
100
AcDbSymbolTable
 70
     2
  0
STYLE
  5
11
330
3
100
AcDbSymbolTableRecord
100
AcDbTextStyleTableRecord
  2
Standard
 70
     0
 40
0.0
 41
1.0
 50
0.0
 71
     0
 42
0.2
  3
txt
  4

  0
STYLE
  5
CC
330
3
100
AcDbSymbolTableRecord
100
AcDbTextStyleTableRecord
  2
CONVERTER_11
 70
     0
 40
0.0
 41
0.9
 50
0.0
 71
     0
 42
0.2
  3
txt.shx
  4

  0
ENDTAB
  0
TABLE
  2
VIEW
  5
6
330
0
100
AcDbSymbolTable
 70
     0
  0
ENDTAB
  0
TABLE
  2
UCS
  5
7
330
0
100
AcDbSymbolTable
 70
     0
  0
ENDTAB
  0
TABLE
  2
APPID
  5
9
330
0
100
AcDbSymbolTable
 70
     1
  0
APPID
  5
12
330
9
100
AcDbSymbolTableRecord
100
AcDbRegAppTableRecord
  2
ACAD
 70
     0
  0
ENDTAB
  0
TABLE
  2
DIMSTYLE
  5
A
330
0
100
AcDbSymbolTable
 70
     3
100
AcDbDimStyleTable
  0
DIMSTYLE
105
27
330
A
100
AcDbSymbolTableRecord
100
AcDbDimStyleTableRecord
  2
Standard
 70
     0
340
11
  0
DIMSTYLE
105
D0
102
{ACAD_REACTORS
330
D1
102
}
330
A
100
AcDbSymbolTableRecord
100
AcDbDimStyleTableRecord
  2
ME10_DIM_10
 70
     0
 41
3.5
 42
0.0
 44
2.0
 73
     0
 74
     0
 77
     1
 78
     8
140
3.5
147
2.0
172
     1
173
     1
176
     2
177
     2
178
     2
271
     3
340
CC
  0
DIMSTYLE
105
DB
102
{ACAD_REACTORS
330
DC
102
}
330
A
100
AcDbSymbolTableRecord
100
AcDbDimStyleTableRecord
  2
ME10_DIM_11
 70
     0
 41
3.5
 42
0.0
 44
2.0
 73
     0
 74
     0
 77
     1
 78
     8
140
3.5
147
2.0
172
     1
173
     1
176
     2
177
     2
178
     2
271
     3
340
CC
  0
ENDTAB
  0
TABLE
  2
BLOCK_RECORD
  5
1
330
0
100
AcDbSymbolTable
 70
     3
  0
BLOCK_RECORD
  5
1F
330
1
100
AcDbSymbolTableRecord
100
AcDbBlockTableRecord
  2
*Model_Space
340
22
  0
BLOCK_RECORD
  5
1B
330
1
100
AcDbSymbolTableRecord
100
AcDbBlockTableRecord
  2
*Paper_Space
340
1E
  0
BLOCK_RECORD
  5
23
330
1
100
AcDbSymbolTableRecord
100
AcDbBlockTableRecord
  2
*Paper_Space0
340
26
  0
BLOCK_RECORD
  5
C6
330
1
100
AcDbSymbolTableRecord
100
AcDbBlockTableRecord
  2
*D1
340
0
  0
BLOCK_RECORD
  5
D2
330
1
100
AcDbSymbolTableRecord
100
AcDbBlockTableRecord
  2
*D2
340
0
  0
ENDTAB
  0
ENDSEC
  0
SECTION
  2
BLOCKS
  0
BLOCK
  5
20
330
1F
100
AcDbEntity
  8
0
100
AcDbBlockBegin
  2
*Model_Space
 70
     0
 71
     0
 10
0.0
 20
0.0
 30
0.0
  3
*Model_Space
  1

  0
ENDBLK
  5
21
330
1F
100
AcDbEntity
  8
0
100
AcDbBlockEnd
  0
BLOCK
  5
1C
330
1B
100
AcDbEntity
 67
     1
  8
0
100
AcDbBlockBegin
  2
*Paper_Space
 70
     0
 71
     0
 10
0.0
 20
0.0
 30
0.0
  3
*Paper_Space
  1

  0
ENDBLK
  5
1D
330
1B
100
AcDbEntity
 67
     1
  8
0
100
AcDbBlockEnd
  0
BLOCK
  5
24
330
23
100
AcDbEntity
  8
0
100
AcDbBlockBegin
  2
*Paper_Space0
 70
     0
 71
     0
 10
0.0
 20
0.0
 30
0.0
  3
*Paper_Space0
  1

  0
ENDBLK
  5
25
330
23
100
AcDbEntity
  8
0
100
AcDbBlockEnd
  0
BLOCK
  5
CE
330
C6
100
AcDbEntity
  8
0
100
AcDbBlockBegin
  2
*D1
 70
     1
 71
     0
 10
0.0
 20
0.0
 30
0.0
  3
*D1
  1

  0
LINE
  5
C7
330
C6
100
AcDbEntity
  8
1
  6
Continuous
 62
     2
100
AcDbLine
 10
63.1786906868733
 20
270.5515655761
 30
0.0
 11
63.1786906868733
 21
130.5515655761
 31
0.0
  0
LINE
  5
C8
330
C6
100
AcDbEntity
  8
1
  6
Continuous
 62
     2
100
AcDbLine
 10
73.5045947391
 20
270.5515655761
 30
0.0
 11
61.1786906868733
 21
270.5515655761
 31
0.0
  0
LINE
  5
C9
330
C6
100
AcDbEntity
  8
1
  6
Continuous
 62
     2
100
AcDbLine
 10
73.5045947391
 20
130.5515655761
 30
0.0
 11
61.1786906868733
 21
130.5515655761
 31
0.0
  0
SOLID
  5
CA
330
C6
100
AcDbEntity
  8
1
 62
     2
100
AcDbTrace
 10
63.63947442842919
 20
267.0515655761
 30
0.0
 11
62.71790694531742
 21
267.0515655761
 31
0.0
 12
63.1786906868733
 22
270.5515655761
 32
0.0
 13
63.1786906868733
 23
270.5515655761
 33
0.0
  0
SOLID
  5
CB
330
C6
100
AcDbEntity
  8
1
 62
     2
100
AcDbTrace
 10
62.71790694531742
 20
134.0515655761
 30
0.0
 11
63.63947442842919
 21
134.0515655761
 31
0.0
 12
63.1786906868733
 22
130.5515655761
 32
0.0
 13
63.1786906868733
 23
130.5515655761
 33
0.0
  0
MTEXT
  5
CD
330
C6
100
AcDbEntity
  8
1
 62
     2
100
AcDbMText
 10
61.1786906868733
 20
195.148463772909
 30
0.0
 40
3.5
 41
0.0
 71
     7
 72
     1
  1
140
  7
CONVERTER_11
 11
0.0
 21
1.0
 31
0.0
 73
     1
 44
0.60024009603842
  0
ENDBLK
  5
CF
330
C6
100
AcDbEntity
  8
0
100
AcDbBlockEnd
  0
BLOCK
  5
D9
330
D2
100
AcDbEntity
  8
0
100
AcDbBlockBegin
  2
*D2
 70
     1
 71
     0
 10
0.0
 20
0.0
 30
0.0
  3
*D2
  1

  0
LINE
  5
D3
330
D2
100
AcDbEntity
  8
1
  6
Continuous
 62
     2
100
AcDbLine
 10
73.5045947391
 20
120.429088804946
 30
0.0
 11
93.5045947391
 21
120.429088804946
 31
0.0
  0
LINE
  5
D4
330
D2
100
AcDbEntity
  8
1
  6
Continuous
 62
     2
100
AcDbLine
 10
73.5045947391
 20
130.5515655761
 30
0.0
 11
73.5045947391
 21
118.429088804946
 31
0.0
  0
LINE
  5
D5
330
D2
100
AcDbEntity
  8
1
  6
Continuous
 62
     2
100
AcDbLine
 10
93.5045947391
 20
130.5515655761
 30
0.0
 11
93.5045947391
 21
118.429088804946
 31
0.0
  0
SOLID
  5
D6
330
D2
100
AcDbEntity
  8
1
 62
     2
100
AcDbTrace
 10
77.0045947391
 20
120.8898725465019
 30
0.0
 11
77.0045947391
 21
119.9683050633901
 31
0.0
 12
73.5045947391
 22
120.429088804946
 32
0.0
 13
73.5045947391
 23
120.429088804946
 33
0.0
  0
SOLID
  5
D7
330
D2
100
AcDbEntity
  8
1
 62
     2
100
AcDbTrace
 10
90.0045947391
 20
119.9683050633901
 30
0.0
 11
90.0045947391
 21
120.8898725465019
 31
0.0
 12
93.5045947391
 22
120.429088804946
 32
0.0
 13
93.5045947391
 23
120.429088804946
 33
0.0
  0
MTEXT
  5
D8
330
D2
100
AcDbEntity
  8
1
 62
     2
100
AcDbMText
 10
79.9034082610768
 20
122.429088804946
 30
0.0
 40
3.5
 41
0.0
 71
     7
 72
     1
  1
20
  7
CONVERTER_11
 11
0.9999999999970621
 21
2.424068405545307E-6
 31
0.0
 73
     1
 44
0.60024009603842
  0
ENDBLK
  5
DA
330
D2
100
AcDbEntity
  8
0
100
AcDbBlockEnd
  0
ENDSEC
  0
SECTION
  2
ENTITIES
  0
LINE
  5
35
330
1F
100
AcDbEntity
  8
0
  6
Continuous
 62
     7
100
AcDbLine
 10
93.5045947391
 20
130.5515655761
 30
0.0
 11
73.5045947391
 21
130.5515655761
 31
0.0
  0
LINE
  5
36
330
1F
100
AcDbEntity
  8
A_ACHSEN
  6
Continuous
 62
     7
100
AcDbLine
 10
84.9053442732
 20
263.0794719521
 30
0.0
 11
85.645663399
 21
263.3243647197
 31
0.0
  0
LINE
  5
37
330
1F
100
AcDbEntity
  8
DEFAULT_1
  6
DOT_CENTER
 62
     2
100
AcDbLine
 10
83.5045947391
 20
140.5515655761
 30
0.0
 11
75.5045947391
 21
140.5515655761
 31
0.0
  0
LINE
  5
38
330
1F
100
AcDbEntity
  8
DEFAULT_1
  6
DOT_CENTER
 62
     2
100
AcDbLine
 10
83.5045947391
 20
140.5515655761
 30
0.0
 11
91.5045947391
 21
140.5515655761
 31
0.0
  0
LINE
  5
39
330
1F
100
AcDbEntity
  8
A_ACHSEN
  6
Continuous
 62
     7
100
AcDbLine
 10
85.645663399
 20
137.7787664325
 30
0.0
 11
84.9053442732
 21
138.0236592001
 31
0.0
  0
LINE
  5
3A
330
1F
100
AcDbEntity
  8
A_ACHSEN
  6
Continuous
 62
     7
100
AcDbLine
 10
80.0299654934
 20
260.998266485
 30
0.0
 11
80.7266155041
 21
261.3485858224
 31
0.0
  0
LINE
  5
3B
330
1F
100
AcDbEntity
  8
A_ACHSEN
  6
Continuous
 62
     7
100
AcDbLine
 10
86.9792239848
 20
260.1048646672
 30
0.0
 11
86.282573974
 21
259.7545453298
 31
0.0
  0
LINE
  5
3C
330
1F
100
AcDbEntity
  8
A_ACHSEN
  6
Continuous
 62
     7
100
AcDbLine
 10
82.103845205
 20
258.0236592001
 30
0.0
 11
81.3635260791
 21
257.7787664325
 31
0.0
  0
LINE
  5
3D
330
1F
100
AcDbEntity
  8
A_ACHSEN
  6
Continuous
 62
     7
100
AcDbLine
 10
81.3635260791
 20
143.3243647197
 30
0.0
 11
82.103845205
 21
143.0794719521
 31
0.0
  0
LINE
  5
3E
330
1F
100
AcDbEntity
  8
A_ACHSEN
  6
Continuous
 62
     7
100
AcDbLine
 10
80.7266155041
 20
139.7545453298
 30
0.0
 11
80.0299654934
 21
140.1048646672
 31
0.0
  0
LINE
  5
3F
330
1F
100
AcDbEntity
  8
A_ACHSEN
  6
Continuous
 62
     7
100
AcDbLine
 10
86.282573974
 20
141.3485858224
 30
0.0
 11
86.9792239848
 21
140.998266485
 31
0.0
  0
LINE
  5
40
330
1F
100
AcDbEntity
  8
A_ACHSEN
  6
Continuous
 62
     7
100
AcDbLine
 10
82.7075744928
 20
263.3295448111
 30
0.0
 11
83.0578938302
 21
264.0261948218
 31
0.0
  0
LINE
  5
41
330
1F
100
AcDbEntity
  8
DEFAULT_1
  6
DOT_CENTER
 62
     2
100
AcDbLine
 10
87.5045947391
 20
170.5515655761
 30
0.0
 11
80.0045947391
 21
170.5515655761
 31
0.0
  0
LINE
  5
42
330
1F
100
AcDbEntity
  8
DEFAULT_1
  6
CENTER
 62
     2
100
AcDbLine
 10
80.0045947391
 20
170.5515655761
 30
0.0
 11
79.7545947391
 21
170.5515655761
 31
0.0
  0
LINE
  5
43
330
1F
100
AcDbEntity
  8
DEFAULT_1
  6
DOT_CENTER
 62
     2
100
AcDbLine
 10
87.5045947391
 20
170.5515655761
 30
0.0
 11
95.0045947391
 21
170.5515655761
 31
0.0
  0
LINE
  5
44
330
1F
100
AcDbEntity
  8
DEFAULT_1
  6
DOT_CENTER
 62
     2
100
AcDbLine
 10
95.0045947391
 20
170.5515655761
 30
0.0
 11
95.2545947391
 21
170.5515655761
 31
0.0
  0
LINE
  5
45
330
1F
100
AcDbEntity
  8
A_ACHSEN
  6
Continuous
 62
     7
100
AcDbLine
 10
83.0578938302
 20
137.0769363304
 30
0.0
 11
82.7075744928
 21
137.7735863411
 31
0.0
  0
LINE
  5
46
330
1F
100
AcDbEntity
  8
A_ACHSEN
  6
Continuous
 62
     7
100
AcDbLine
 10
84.3016149854
 20
257.7735863411
 30
0.0
 11
83.9512956479
 21
257.0769363304
 31
0.0
  0
LINE
  5
47
330
1F
100
AcDbEntity
  8
A_ACHSEN
  6
Continuous
 62
     7
100
AcDbLine
 10
83.9512956479
 20
144.0261948218
 30
0.0
 11
84.3016149854
 21
143.3295448111
 31
0.0
  0
LINE
  5
48
330
1F
100
AcDbEntity
  8
A_ACHSEN
  6
Continuous
 62
     7
100
AcDbLine
 10
80.7317955955
 20
258.4104969162
 30
0.0
 11
80.9766883631
 21
259.150816042
 31
0.0
  0
LINE
  5
49
330
1F
100
AcDbEntity
  8
A_ACHSEN
  6
Continuous
 62
     7
100
AcDbLine
 10
80.9766883631
 20
141.9523151102
 30
0.0
 11
80.7317955955
 21
142.692634236
 31
0.0
  0
LINE
  5
4A
330
1F
100
AcDbEntity
  8
A_ACHSEN
  6
Continuous
 62
     7
100
AcDbLine
 10
86.2773938826
 20
262.692634236
 30
0.0
 11
86.032501115
 21
261.9523151102
 31
0.0
  0
LINE
  5
4B
330
1F
100
AcDbEntity
  8
A_ACHSEN
  6
Continuous
 62
     7
100
AcDbLine
 10
86.032501115
 20
139.150816042
 30
0.0
 11
86.2773938826
 21
138.4104969162
 31
0.0
  0
LINE
  5
4C
330
1F
100
AcDbEntity
  8
0
  6
Continuous
 62
     7
100
AcDbLine
 10
73.5045947391
 20
130.5515655761
 30
0.0
 11
73.5045947391
 21
270.5515655761
 31
0.0
  0
LINE
  5
4D
330
1F
100
AcDbEntity
  8
DEFAULT_1
  6
DOT_CENTER
 62
     2
100
AcDbLine
 10
83.5045947391
 20
260.5515655761
 30
0.0
 11
83.5045947391
 21
252.5515655761
 31
0.0
  0
LINE
  5
4E
330
1F
100
AcDbEntity
  8
DEFAULT_1
  6
DOT_CENTER
 62
     2
100
AcDbLine
 10
83.5045947391
 20
200.5515655761
 30
0.0
 11
83.5045947391
 21
197.5514655761
 31
0.0
  0
LINE
  5
4F
330
1F
100
AcDbEntity
  8
DEFAULT_1
  6
DOT_CENTER
 62
     2
100
AcDbLine
 10
83.5045947391
 20
197.5514655761
 30
0.0
 11
83.5045947391
 21
192.5515655761
 31
0.0
  0
LINE
  5
50
330
1F
100
AcDbEntity
  8
DEFAULT_1
  6
DOT_CENTER
 62
     2
100
AcDbLine
 10
83.5045947391
 20
140.5515655761
 30
0.0
 11
83.5045947391
 21
132.5515655761
 31
0.0
  0
LINE
  5
51
330
1F
100
AcDbEntity
  8
DEFAULT_1
  6
DOT_CENTER
 62
     2
100
AcDbLine
 10
83.5045947391
 20
140.5515655761
 30
0.0
 11
83.5045947391
 21
148.5515655761
 31
0.0
  0
LINE
  5
52
330
1F
100
AcDbEntity
  8
DEFAULT_1
  6
DOT_CENTER
 62
     2
100
AcDbLine
 10
83.5045947391
 20
200.5515655761
 30
0.0
 11
83.5045947391
 21
203.5516655761
 31
0.0
  0
LINE
  5
53
330
1F
100
AcDbEntity
  8
DEFAULT_1
  6
DOT_CENTER
 62
     2
100
AcDbLine
 10
83.5045947391
 20
203.5516655761
 30
0.0
 11
83.5045947391
 21
208.5515655761
 31
0.0
  0
LINE
  5
54
330
1F
100
AcDbEntity
  8
DEFAULT_1
  6
DOT_CENTER
 62
     2
100
AcDbLine
 10
83.5045947391
 20
260.5515655761
 30
0.0
 11
83.5045947391
 21
268.5515655761
 31
0.0
  0
LINE
  5
55
330
1F
100
AcDbEntity
  8
A_ACHSEN
  6
Continuous
 62
     7
100
AcDbLine
 10
80.7317955955
 20
198.4104969162
 30
0.0
 11
80.9766883631
 21
199.150816042
 31
0.0
  0
LINE
  5
56
330
1F
100
AcDbEntity
  8
A_ACHSEN
  6
Continuous
 62
     7
100
AcDbLine
 10
82.7075744928
 20
203.3295448111
 30
0.0
 11
83.0578938302
 21
204.0261948218
 31
0.0
  0
LINE
  5
57
330
1F
100
AcDbEntity
  8
A_ACHSEN
  6
Continuous
 62
     7
100
AcDbLine
 10
80.0299654934
 20
200.998266485
 30
0.0
 11
80.7266155041
 21
201.3485858224
 31
0.0
  0
LINE
  5
58
330
1F
100
AcDbEntity
  8
A_ACHSEN
  6
Continuous
 62
     7
100
AcDbLine
 10
84.9053442732
 20
203.0794719521
 30
0.0
 11
85.645663399
 21
203.3243647197
 31
0.0
  0
LINE
  5
59
330
1F
100
AcDbEntity
  8
DEFAULT_1
  6
DOT_CENTER
 62
     2
100
AcDbLine
 10
83.5045947391
 20
200.5515655761
 30
0.0
 11
80.5044947391
 21
200.5515655761
 31
0.0
  0
LINE
  5
5A
330
1F
100
AcDbEntity
  8
DEFAULT_1
  6
DOT_CENTER
 62
     2
100
AcDbLine
 10
80.5044947391
 20
200.5515655761
 30
0.0
 11
75.5045947391
 21
200.5515655761
 31
0.0
  0
LINE
  5
5B
330
1F
100
AcDbEntity
  8
DEFAULT_1
  6
DOT_CENTER
 62
     2
100
AcDbLine
 10
83.5045947391
 20
200.5515655761
 30
0.0
 11
86.5046947391
 21
200.5515655761
 31
0.0
  0
LINE
  5
5C
330
1F
100
AcDbEntity
  8
DEFAULT_1
  6
DOT_CENTER
 62
     2
100
AcDbLine
 10
86.5046947391
 20
200.5515655761
 30
0.0
 11
91.5045947391
 21
200.5515655761
 31
0.0
  0
LINE
  5
5D
330
1F
100
AcDbEntity
  8
A_ACHSEN
  6
Continuous
 62
     7
100
AcDbLine
 10
85.645663399
 20
197.7787664325
 30
0.0
 11
84.9053442732
 21
198.0236592001
 31
0.0
  0
LINE
  5
5E
330
1F
100
AcDbEntity
  8
A_ACHSEN
  6
Continuous
 62
     7
100
AcDbLine
 10
80.7266155041
 20
199.7545453298
 30
0.0
 11
80.0299654934
 21
200.1048646672
 31
0.0
  0
LINE
  5
5F
330
1F
100
AcDbEntity
  8
A_ACHSEN
  6
Continuous
 62
     7
100
AcDbLine
 10
83.0578938302
 20
197.0769363304
 30
0.0
 11
82.7075744928
 21
197.7735863411
 31
0.0
  0
LINE
  5
60
330
1F
100
AcDbEntity
  8
A_ACHSEN
  6
Continuous
 62
     7
100
AcDbLine
 10
80.9766883631
 20
201.9523151102
 30
0.0
 11
80.7317955955
 21
202.692634236
 31
0.0
  0
LINE
  5
61
330
1F
100
AcDbEntity
  8
DEFAULT_1
  6
DOT_CENTER
 62
     2
100
AcDbLine
 10
87.5045947391
 20
230.5515655761
 30
0.0
 11
87.5045947391
 21
223.0515655761
 31
0.0
  0
LINE
  5
62
330
1F
100
AcDbEntity
  8
DEFAULT_1
  6
CENTER
 62
     2
100
AcDbLine
 10
87.5045947391
 20
223.0515655761
 30
0.0
 11
87.5045947391
 21
222.8015655761
 31
0.0
  0
LINE
  5
63
330
1F
100
AcDbEntity
  8
DEFAULT_1
  6
DOT_CENTER
 62
     2
100
AcDbLine
 10
87.5045947391
 20
170.5515655761
 30
0.0
 11
87.5045947391
 21
163.0515655761
 31
0.0
  0
LINE
  5
64
330
1F
100
AcDbEntity
  8
DEFAULT_1
  6
DOT_CENTER
 62
     2
100
AcDbLine
 10
87.5045947391
 20
163.0515655761
 30
0.0
 11
87.5045947391
 21
162.8015655761
 31
0.0
  0
LINE
  5
65
330
1F
100
AcDbEntity
  8
DEFAULT_1
  6
DOT_CENTER
 62
     2
100
AcDbLine
 10
87.5045947391
 20
170.5515655761
 30
0.0
 11
87.5045947391
 21
178.0515655761
 31
0.0
  0
LINE
  5
66
330
1F
100
AcDbEntity
  8
DEFAULT_1
  6
CENTER
 62
     2
100
AcDbLine
 10
87.5045947391
 20
178.0515655761
 30
0.0
 11
87.5045947391
 21
178.3015655761
 31
0.0
  0
LINE
  5
67
330
1F
100
AcDbEntity
  8
DEFAULT_1
  6
DOT_CENTER
 62
     2
100
AcDbLine
 10
87.5045947391
 20
230.5515655761
 30
0.0
 11
87.5045947391
 21
238.0515655761
 31
0.0
  0
LINE
  5
68
330
1F
100
AcDbEntity
  8
DEFAULT_1
  6
CENTER
 62
     2
100
AcDbLine
 10
87.5045947391
 20
238.0515655761
 30
0.0
 11
87.5045947391
 21
238.3015655761
 31
0.0
  0
LINE
  5
69
330
1F
100
AcDbEntity
  8
A_ACHSEN
  6
Continuous
 62
     7
100
AcDbLine
 10
86.2773938826
 20
202.692634236
 30
0.0
 11
86.032501115
 21
201.9523151102
 31
0.0
  0
LINE
  5
6A
330
1F
100
AcDbEntity
  8
A_ACHSEN
  6
Continuous
 62
     7
100
AcDbLine
 10
84.3016149854
 20
197.7735863411
 30
0.0
 11
83.9512956479
 21
197.0769363304
 31
0.0
  0
LINE
  5
6B
330
1F
100
AcDbEntity
  8
A_ACHSEN
  6
Continuous
 62
     7
100
AcDbLine
 10
86.9792239848
 20
200.1048646672
 30
0.0
 11
86.282573974
 21
199.7545453298
 31
0.0
  0
LINE
  5
6C
330
1F
100
AcDbEntity
  8
A_ACHSEN
  6
Continuous
 62
     7
100
AcDbLine
 10
82.103845205
 20
198.0236592001
 30
0.0
 11
81.3635260791
 21
197.7787664325
 31
0.0
  0
LINE
  5
6D
330
1F
100
AcDbEntity
  8
A_ACHSEN
  6
Continuous
 62
     7
100
AcDbLine
 10
81.3635260791
 20
203.3243647197
 30
0.0
 11
82.103845205
 21
203.0794719521
 31
0.0
  0
LINE
  5
6E
330
1F
100
AcDbEntity
  8
A_ACHSEN
  6
Continuous
 62
     7
100
AcDbLine
 10
86.282573974
 20
201.3485858224
 30
0.0
 11
86.9792239848
 21
200.998266485
 31
0.0
  0
LINE
  5
6F
330
1F
100
AcDbEntity
  8
A_ACHSEN
  6
Continuous
 62
     7
100
AcDbLine
 10
83.9512956479
 20
204.0261948218
 30
0.0
 11
84.3016149854
 21
203.3295448111
 31
0.0
  0
LINE
  5
70
330
1F
100
AcDbEntity
  8
A_ACHSEN
  6
Continuous
 62
     7
100
AcDbLine
 10
86.032501115
 20
199.150816042
 30
0.0
 11
86.2773938826
 21
198.4104969162
 31
0.0
  0
LINE
  5
71
330
1F
100
AcDbEntity
  8
0
  6
Continuous
 62
     7
100
AcDbLine
 10
89.53658119
 20
167.3998151001
 30
0.0
 11
89.53658119
 21
173.7033160521
 31
0.0
  0
LINE
  5
72
330
1F
100
AcDbEntity
  8
0
  6
Continuous
 62
     7
100
AcDbLine
 10
89.53658119
 20
227.3998151001
 30
0.0
 11
89.53658119
 21
233.7033160521
 31
0.0
  0
LINE
  5
73
330
1F
100
AcDbEntity
  8
0
  6
Continuous
 62
     7
100
AcDbLine
 10
93.5045947391
 20
270.5515655761
 30
0.0
 11
93.5045947391
 21
130.5515655761
 31
0.0
  0
LINE
  5
74
330
1F
100
AcDbEntity
  8
A_ACHSEN
  6
Continuous
 62
     7
100
AcDbLine
 10
80.7317955955
 20
138.4104969162
 30
0.0
 11
80.9766883631
 21
139.150816042
 31
0.0
  0
LINE
  5
75
330
1F
100
AcDbEntity
  8
A_ACHSEN
  6
Continuous
 62
     7
100
AcDbLine
 10
80.9766883631
 20
261.9523151102
 30
0.0
 11
80.7317955955
 21
262.692634236
 31
0.0
  0
LINE
  5
76
330
1F
100
AcDbEntity
  8
A_ACHSEN
  6
Continuous
 62
     7
100
AcDbLine
 10
86.2773938826
 20
142.692634236
 30
0.0
 11
86.032501115
 21
141.9523151102
 31
0.0
  0
LINE
  5
77
330
1F
100
AcDbEntity
  8
A_ACHSEN
  6
Continuous
 62
     7
100
AcDbLine
 10
86.032501115
 20
259.150816042
 30
0.0
 11
86.2773938826
 21
258.4104969162
 31
0.0
  0
LINE
  5
78
330
1F
100
AcDbEntity
  8
A_ACHSEN
  6
Continuous
 62
     7
100
AcDbLine
 10
82.7075744928
 20
143.3295448111
 30
0.0
 11
83.0578938302
 21
144.0261948218
 31
0.0
  0
LINE
  5
79
330
1F
100
AcDbEntity
  8
A_ACHSEN
  6
Continuous
 62
     7
100
AcDbLine
 10
84.3016149854
 20
137.7735863411
 30
0.0
 11
83.9512956479
 21
137.0769363304
 31
0.0
  0
LINE
  5
7A
330
1F
100
AcDbEntity
  8
A_ACHSEN
  6
Continuous
 62
     7
100
AcDbLine
 10
83.0578938302
 20
257.0769363304
 30
0.0
 11
82.7075744928
 21
257.7735863411
 31
0.0
  0
LINE
  5
7B
330
1F
100
AcDbEntity
  8
A_ACHSEN
  6
Continuous
 62
     7
100
AcDbLine
 10
83.9512956479
 20
264.0261948218
 30
0.0
 11
84.3016149854
 21
263.3295448111
 31
0.0
  0
LINE
  5
7C
330
1F
100
AcDbEntity
  8
DEFAULT_1
  6
DOT_CENTER
 62
     2
100
AcDbLine
 10
87.5045947391
 20
230.5515655761
 30
0.0
 11
80.0045947391
 21
230.5515655761
 31
0.0
  0
LINE
  5
7D
330
1F
100
AcDbEntity
  8
DEFAULT_1
  6
CENTER
 62
     2
100
AcDbLine
 10
80.0045947391
 20
230.5515655761
 30
0.0
 11
79.7545947391
 21
230.5515655761
 31
0.0
  0
LINE
  5
7E
330
1F
100
AcDbEntity
  8
DEFAULT_1
  6
DOT_CENTER
 62
     2
100
AcDbLine
 10
87.5045947391
 20
230.5515655761
 30
0.0
 11
95.0045947391
 21
230.5515655761
 31
0.0
  0
LINE
  5
7F
330
1F
100
AcDbEntity
  8
DEFAULT_1
  6
CENTER
 62
     2
100
AcDbLine
 10
95.0045947391
 20
230.5515655761
 30
0.0
 11
95.2545947391
 21
230.5515655761
 31
0.0
  0
LINE
  5
80
330
1F
100
AcDbEntity
  8
A_ACHSEN
  6
Continuous
 62
     7
100
AcDbLine
 10
80.0299654934
 20
140.998266485
 30
0.0
 11
80.7266155041
 21
141.3485858224
 31
0.0
  0
LINE
  5
81
330
1F
100
AcDbEntity
  8
A_ACHSEN
  6
Continuous
 62
     7
100
AcDbLine
 10
80.7266155041
 20
259.7545453298
 30
0.0
 11
80.0299654934
 21
260.1048646672
 31
0.0
  0
LINE
  5
82
330
1F
100
AcDbEntity
  8
A_ACHSEN
  6
Continuous
 62
     7
100
AcDbLine
 10
86.9792239848
 20
140.1048646672
 30
0.0
 11
86.282573974
 21
139.7545453298
 31
0.0
  0
LINE
  5
83
330
1F
100
AcDbEntity
  8
A_ACHSEN
  6
Continuous
 62
     7
100
AcDbLine
 10
84.9053442732
 20
143.0794719521
 30
0.0
 11
85.645663399
 21
143.3243647197
 31
0.0
  0
LINE
  5
84
330
1F
100
AcDbEntity
  8
A_ACHSEN
  6
Continuous
 62
     7
100
AcDbLine
 10
85.645663399
 20
257.7787664325
 30
0.0
 11
84.9053442732
 21
258.0236592001
 31
0.0
  0
LINE
  5
85
330
1F
100
AcDbEntity
  8
A_ACHSEN
  6
Continuous
 62
     7
100
AcDbLine
 10
86.282573974
 20
261.3485858224
 30
0.0
 11
86.9792239848
 21
260.998266485
 31
0.0
  0
LINE
  5
86
330
1F
100
AcDbEntity
  8
A_ACHSEN
  6
Continuous
 62
     7
100
AcDbLine
 10
82.103845205
 20
138.0236592001
 30
0.0
 11
81.3635260791
 21
137.7787664325
 31
0.0
  0
LINE
  5
87
330
1F
100
AcDbEntity
  8
DEFAULT_1
  6
DOT_CENTER
 62
     2
100
AcDbLine
 10
83.5045947391
 20
260.5515655761
 30
0.0
 11
75.5045947391
 21
260.5515655761
 31
0.0
  0
LINE
  5
88
330
1F
100
AcDbEntity
  8
DEFAULT_1
  6
DOT_CENTER
 62
     2
100
AcDbLine
 10
83.5045947391
 20
260.5515655761
 30
0.0
 11
91.5045947391
 21
260.5515655761
 31
0.0
  0
LINE
  5
89
330
1F
100
AcDbEntity
  8
A_ACHSEN
  6
Continuous
 62
     7
100
AcDbLine
 10
81.3635260791
 20
263.3243647197
 30
0.0
 11
82.103845205
 21
263.0794719521
 31
0.0
  0
LINE
  5
8A
330
1F
100
AcDbEntity
  8
0
  6
Continuous
 62
     7
100
AcDbLine
 10
73.5045947391
 20
270.5515655761
 30
0.0
 11
93.5045947391
 21
270.5515655761
 31
0.0
  0
ARC
  5
8B
330
1F
100
AcDbEntity
  8
A_ACHSEN
  6
Continuous
 62
     7
100
AcDbCircle
 10
83.5045947391
 20
197.3015655761
 30
0.0
 40
0.5000000000358299
100
AcDbArc
 50
-153.3038805260051
 51
-26.69611947914306
  0
ARC
  5
8C
330
1F
100
AcDbEntity
  8
A_ACHSEN
  6
Continuous
 62
     7
100
AcDbCircle
 10
82.2608735839
 20
197.5489570954
 30
0.0
 40
0.5000000000358554
100
AcDbArc
 50
26.69611947399702
 51
108.3038805208582
  0
ARC
  5
8D
330
1F
100
AcDbEntity
  8
A_ACHSEN
  6
Continuous
 62
     7
100
AcDbCircle
 10
81.2064977002
 20
198.2534685372
 30
0.0
 40
0.5000000000179766
100
AcDbArc
 50
161.6961194682617
 51
-71.69611947914179
  0
ARC
  5
8E
330
1F
100
AcDbEntity
  8
A_ACHSEN
  6
Continuous
 62
     7
100
AcDbCircle
 10
80.5019862584
 20
199.3078444209
 30
0.0
 40
0.4999999999865748
100
AcDbArc
 50
-18.30388052086027
 51
63.3038805260037
  0
ARC
  5
8F
330
1F
100
AcDbEntity
  8
A_ACHSEN
  6
Continuous
 62
     7
100
AcDbCircle
 10
80.5019862584
 20
141.7952867313
 30
0.0
 40
0.5000000000358363
100
AcDbArc
 50
-63.3038805260037
 51
18.30388052086027
  0
ARC
  5
90
330
1F
100
AcDbEntity
  8
A_ACHSEN
  6
Continuous
 62
     7
100
AcDbCircle
 10
81.2064977002
 20
142.849662615
 30
0.0
 40
0.4999999999865569
100
AcDbArc
 50
71.69611947914078
 51
-161.6961194682617
  0
ARC
  5
91
330
1F
100
AcDbEntity
  8
A_ACHSEN
  6
Continuous
 62
     7
100
AcDbCircle
 10
82.2608735839
 20
143.5541740568
 30
0.0
 40
0.4999999999865838
100
AcDbArc
 50
-108.3038805208582
 51
-26.69611947399702
  0
ARC
  5
92
330
1F
100
AcDbEntity
  8
A_ACHSEN
  6
Continuous
 62
     7
100
AcDbCircle
 10
83.5045947391
 20
143.8015655761
 30
0.0
 40
0.4999999999465009
100
AcDbArc
 50
26.69611947914597
 51
153.3038805260022
  0
ARC
  5
93
330
1F
100
AcDbEntity
  8
A_ACHSEN
  6
Continuous
 62
     7
100
AcDbCircle
 10
83.5045947391
 20
137.3015655761
 30
0.0
 40
0.5000000000358299
100
AcDbArc
 50
-153.3038805260051
 51
-26.69611947914306
  0
ARC
  5
94
330
1F
100
AcDbEntity
  8
A_ACHSEN
  6
Continuous
 62
     7
100
AcDbCircle
 10
82.2608735839
 20
137.5489570954
 30
0.0
 40
0.5000000000358554
100
AcDbArc
 50
26.69611947399702
 51
108.3038805208582
  0
ARC
  5
95
330
1F
100
AcDbEntity
  8
A_ACHSEN
  6
Continuous
 62
     7
100
AcDbCircle
 10
81.2064977002
 20
138.2534685372
 30
0.0
 40
0.5000000000179766
100
AcDbArc
 50
161.6961194682617
 51
-71.69611947914179
  0
ARC
  5
96
330
1F
100
AcDbEntity
  8
A_ACHSEN
  6
Continuous
 62
     7
100
AcDbCircle
 10
80.5019862584
 20
139.3078444209
 30
0.0
 40
0.4999999999865748
100
AcDbArc
 50
-18.30388052086027
 51
63.3038805260037
  0
ARC
  5
97
330
1F
100
AcDbEntity
  8
A_ACHSEN
  6
Continuous
 62
     7
100
AcDbCircle
 10
80.2545947391
 20
140.5515655761
 30
0.0
 40
0.5000000000358363
100
AcDbArc
 50
116.6961194739963
 51
-116.6961194739963
  0
ARC
  5
98
330
1F
100
AcDbEntity
  8
A_ACHSEN
  6
Continuous
 62
     7
100
AcDbCircle
 10
80.5019862584
 20
261.7952867313
 30
0.0
 40
0.5000000000358109
100
AcDbArc
 50
-63.30388052600224
 51
18.30388052086027
  0
ARC
  5
99
330
1F
100
AcDbEntity
  8
A_ACHSEN
  6
Continuous
 62
     7
100
AcDbCircle
 10
81.2064977002
 20
262.849662615
 30
0.0
 40
0.4999999999865569
100
AcDbArc
 50
71.69611947914078
 51
-161.6961194682617
  0
ARC
  5
9A
330
1F
100
AcDbEntity
  8
A_ACHSEN
  6
Continuous
 62
     7
100
AcDbCircle
 10
82.2608735839
 20
263.5541740568
 30
0.0
 40
0.4999999999865569
100
AcDbArc
 50
-108.3038805208592
 51
-26.69611947399411
  0
ARC
  5
9B
330
1F
100
AcDbEntity
  8
A_ACHSEN
  6
Continuous
 62
     7
100
AcDbCircle
 10
83.5045947391
 20
263.8015655761
 30
0.0
 40
0.4999999999464881
100
AcDbArc
 50
26.69611947914306
 51
153.3038805260051
  0
ARC
  5
9C
330
1F
100
AcDbEntity
  8
A_ACHSEN
  6
Continuous
 62
     7
100
AcDbCircle
 10
83.5045947391
 20
257.3015655761
 30
0.0
 40
0.5000000000358554
100
AcDbArc
 50
-153.3038805259993
 51
-26.69611947914888
  0
ARC
  5
9D
330
1F
100
AcDbEntity
  8
A_ACHSEN
  6
Continuous
 62
     7
100
AcDbCircle
 10
82.2608735839
 20
257.5489570954
 30
0.0
 40
0.5000000000358427
100
AcDbArc
 50
26.69611947399411
 51
108.3038805208592
  0
ARC
  5
9E
330
1F
100
AcDbEntity
  8
A_ACHSEN
  6
Continuous
 62
     7
100
AcDbCircle
 10
81.2064977002
 20
258.2534685372
 30
0.0
 40
0.5000000000179766
100
AcDbArc
 50
161.6961194682617
 51
-71.69611947914078
  0
ARC
  5
9F
330
1F
100
AcDbEntity
  8
A_ACHSEN
  6
Continuous
 62
     7
100
AcDbCircle
 10
80.5019862584
 20
259.3078444209
 30
0.0
 40
0.4999999999865748
100
AcDbArc
 50
-18.30388052086027
 51
63.30388052600517
  0
ARC
  5
A0
330
1F
100
AcDbEntity
  8
A_ACHSEN
  6
Continuous
 62
     7
100
AcDbCircle
 10
80.2545947391
 20
260.5515655761
 30
0.0
 40
0.5000000000358109
100
AcDbArc
 50
116.6961194739978
 51
-116.6961194739949
  0
ARC
  5
A1
330
1F
100
AcDbEntity
  8
A_ACHSEN
  6
Continuous
 62
     7
100
AcDbCircle
 10
80.5019862584
 20
201.7952867313
 30
0.0
 40
0.5000000000358363
100
AcDbArc
 50
-63.3038805260037
 51
18.30388052086027
  0
ARC
  5
A2
330
1F
100
AcDbEntity
  8
A_ACHSEN
  6
Continuous
 62
     7
100
AcDbCircle
 10
81.2064977002
 20
202.849662615
 30
0.0
 40
0.4999999999865569
100
AcDbArc
 50
71.69611947914078
 51
-161.6961194682617
  0
ARC
  5
A3
330
1F
100
AcDbEntity
  8
A_ACHSEN
  6
Continuous
 62
     7
100
AcDbCircle
 10
82.2608735839
 20
203.5541740568
 30
0.0
 40
0.4999999999865838
100
AcDbArc
 50
-108.3038805208582
 51
-26.69611947399702
  0
ARC
  5
A4
330
1F
100
AcDbEntity
  8
A_ACHSEN
  6
Continuous
 62
     7
100
AcDbCircle
 10
83.5045947391
 20
203.8015655761
 30
0.0
 40
0.4999999999465009
100
AcDbArc
 50
26.69611947914597
 51
153.3038805260022
  0
ARC
  5
A5
330
1F
100
AcDbEntity
  8
A_ACHSEN
  6
Continuous
 62
     7
100
AcDbCircle
 10
80.2545947391
 20
200.5515655761
 30
0.0
 40
0.5000000000358363
100
AcDbArc
 50
116.6961194739963
 51
-116.6961194739963
  0
ARC
  5
A6
330
1F
100
AcDbEntity
  8
0
  6
Continuous
 62
     7
100
AcDbCircle
 10
87.5045947391
 20
170.5515655761
 30
0.0
 40
3.749999999947649
100
AcDbArc
 50
-57.18944474576101
 51
57.18944474576124
  0
ARC
  5
A7
330
1F
100
AcDbEntity
  8
A_ACHSEN
  6
Continuous
 62
     7
100
AcDbCircle
 10
86.5072032197
 20
199.3078444209
 30
0.0
 40
0.5000000000358363
100
AcDbArc
 50
116.6961194739963
 51
-161.6961194791397
  0
ARC
  5
A8
330
1F
100
AcDbEntity
  8
A_ACHSEN
  6
Continuous
 62
     7
100
AcDbCircle
 10
85.8026917779
 20
198.2534685372
 30
0.0
 40
0.4999999999865838
100
AcDbArc
 50
-108.3038805208582
 51
18.30388053173829
  0
ARC
  5
A9
330
1F
100
AcDbEntity
  8
A_ACHSEN
  6
Continuous
 62
     7
100
AcDbCircle
 10
84.7483158943
 20
197.5489570954
 30
0.0
 40
0.4999999999865838
100
AcDbArc
 50
71.69611947914179
 51
153.303880526003
  0
ARC
  5
AA
330
1F
100
AcDbEntity
  8
A_ACHSEN
  6
Continuous
 62
     7
100
AcDbCircle
 10
84.7483158943
 20
143.5541740568
 30
0.0
 40
0.5000000000358554
100
AcDbArc
 50
-153.303880526003
 51
-71.69611947914179
  0
ARC
  5
AB
330
1F
100
AcDbEntity
  8
A_ACHSEN
  6
Continuous
 62
     7
100
AcDbCircle
 10
85.8026917779
 20
142.849662615
 30
0.0
 40
0.5000000000179766
100
AcDbArc
 50
-18.30388053173829
 51
108.3038805208592
  0
ARC
  5
AC
330
1F
100
AcDbEntity
  8
A_ACHSEN
  6
Continuous
 62
     7
100
AcDbCircle
 10
86.5072032197
 20
141.7952867313
 30
0.0
 40
0.4999999999865748
100
AcDbArc
 50
161.6961194791397
 51
-116.6961194739963
  0
ARC
  5
AD
330
1F
100
AcDbEntity
  8
A_ACHSEN
  6
Continuous
 62
     7
100
AcDbCircle
 10
86.7545947391
 20
140.5515655761
 30
0.0
 40
0.5000000000358363
100
AcDbArc
 50
-63.3038805260037
 51
63.3038805260037
  0
ARC
  5
AE
330
1F
100
AcDbEntity
  8
A_ACHSEN
  6
Continuous
 62
     7
100
AcDbCircle
 10
86.5072032197
 20
139.3078444209
 30
0.0
 40
0.5000000000358363
100
AcDbArc
 50
116.6961194739963
 51
-161.6961194791397
  0
ARC
  5
AF
330
1F
100
AcDbEntity
  8
A_ACHSEN
  6
Continuous
 62
     7
100
AcDbCircle
 10
85.8026917779
 20
138.2534685372
 30
0.0
 40
0.4999999999865838
100
AcDbArc
 50
-108.3038805208582
 51
18.30388053173829
  0
ARC
  5
B0
330
1F
100
AcDbEntity
  8
A_ACHSEN
  6
Continuous
 62
     7
100
AcDbCircle
 10
84.7483158943
 20
137.5489570954
 30
0.0
 40
0.4999999999865838
100
AcDbArc
 50
71.69611947914179
 51
153.303880526003
  0
ARC
  5
B1
330
1F
100
AcDbEntity
  8
0
  6
Continuous
 62
     7
100
AcDbCircle
 10
87.5045947391
 20
230.5515655761
 30
0.0
 40
3.749999999947649
100
AcDbArc
 50
-57.18944474576101
 51
57.18944474576124
  0
ARC
  5
B2
330
1F
100
AcDbEntity
  8
A_ACHSEN
  6
Continuous
 62
     7
100
AcDbCircle
 10
84.7483158943
 20
263.5541740568
 30
0.0
 40
0.5000000000358427
100
AcDbArc
 50
-153.3038805260059
 51
-71.69611947914078
  0
ARC
  5
B3
330
1F
100
AcDbEntity
  8
A_ACHSEN
  6
Continuous
 62
     7
100
AcDbCircle
 10
85.8026917779
 20
262.849662615
 30
0.0
 40
0.5000000000179766
100
AcDbArc
 50
-18.30388053173829
 51
108.3038805208592
  0
ARC
  5
B4
330
1F
100
AcDbEntity
  8
A_ACHSEN
  6
Continuous
 62
     7
100
AcDbCircle
 10
86.5072032197
 20
261.7952867313
 30
0.0
 40
0.4999999999865748
100
AcDbArc
 50
161.6961194791397
 51
-116.6961194739978
  0
ARC
  5
B5
330
1F
100
AcDbEntity
  8
A_ACHSEN
  6
Continuous
 62
     7
100
AcDbCircle
 10
86.7545947391
 20
260.5515655761
 30
0.0
 40
0.5000000000358618
100
AcDbArc
 50
-63.30388052600517
 51
63.30388052600224
  0
ARC
  5
B6
330
1F
100
AcDbEntity
  8
A_ACHSEN
  6
Continuous
 62
     7
100
AcDbCircle
 10
86.5072032197
 20
259.3078444209
 30
0.0
 40
0.5000000000358618
100
AcDbArc
 50
116.6961194739949
 51
-161.6961194791397
  0
ARC
  5
B7
330
1F
100
AcDbEntity
  8
A_ACHSEN
  6
Continuous
 62
     7
100
AcDbCircle
 10
85.8026917779
 20
258.2534685372
 30
0.0
 40
0.4999999999865569
100
AcDbArc
 50
-108.3038805208592
 51
18.30388053173829
  0
ARC
  5
B8
330
1F
100
AcDbEntity
  8
A_ACHSEN
  6
Continuous
 62
     7
100
AcDbCircle
 10
84.7483158943
 20
257.5489570954
 30
0.0
 40
0.4999999999865569
100
AcDbArc
 50
71.69611947914078
 51
153.3038805260059
  0
ARC
  5
B9
330
1F
100
AcDbEntity
  8
A_ACHSEN
  6
Continuous
 62
     7
100
AcDbCircle
 10
84.7483158943
 20
203.5541740568
 30
0.0
 40
0.5000000000358554
100
AcDbArc
 50
-153.303880526003
 51
-71.69611947914179
  0
ARC
  5
BA
330
1F
100
AcDbEntity
  8
A_ACHSEN
  6
Continuous
 62
     7
100
AcDbCircle
 10
85.8026917779
 20
202.849662615
 30
0.0
 40
0.5000000000179766
100
AcDbArc
 50
-18.30388053173829
 51
108.3038805208592
  0
ARC
  5
BB
330
1F
100
AcDbEntity
  8
A_ACHSEN
  6
Continuous
 62
     7
100
AcDbCircle
 10
86.5072032197
 20
201.7952867313
 30
0.0
 40
0.4999999999865748
100
AcDbArc
 50
161.6961194791397
 51
-116.6961194739963
  0
ARC
  5
BC
330
1F
100
AcDbEntity
  8
A_ACHSEN
  6
Continuous
 62
     7
100
AcDbCircle
 10
86.7545947391
 20
200.5515655761
 30
0.0
 40
0.5000000000358363
100
AcDbArc
 50
-63.3038805260037
 51
63.3038805260037
  0
CIRCLE
  5
BD
330
1F
100
AcDbEntity
  8
A_ACHSEN
  6
Continuous
 62
     7
100
AcDbCircle
 10
83.5045947391
 20
140.5515655761
 30
0.0
 40
5.0
  0
CIRCLE
  5
BE
330
1F
100
AcDbEntity
  8
A_ACHSEN
  6
Continuous
 62
     7
100
AcDbCircle
 10
83.5045947391
 20
260.5515655761
 30
0.0
 40
5.0
  0
CIRCLE
  5
BF
330
1F
100
AcDbEntity
  8
A_ACHSEN
  6
Continuous
 62
     7
100
AcDbCircle
 10
83.5045947391
 20
200.5515655761
 30
0.0
 40
5.0
  0
CIRCLE
  5
C0
330
1F
100
AcDbEntity
  8
0
  6
Continuous
 62
     7
100
AcDbCircle
 10
87.5045947391
 20
170.5515655761
 30
0.0
 40
4.75
  0
CIRCLE
  5
C1
330
1F
100
AcDbEntity
  8
0
  6
Continuous
 62
     7
100
AcDbCircle
 10
87.5045947391
 20
230.5515655761
 30
0.0
 40
4.75
  0
SPLINE
  5
C2
330
1F
100
AcDbEntity
  8
0
  6
Continuous
 62
     7
100
AcDbSpline
210
0.0
220
0.0
230
1.0
 70
     8
 71
     3
 72
    11
 73
     7
 74
     5
 42
0.0000000001
 43
0.0000000001
 44
0.00000001
 40
0.0
 40
0.0
 40
0.0
 40
0.0
 40
0.196834980727112
 40
0.3936899552172435
 40
1.002432233655829
 40
1.611037650682296
 40
1.611037650682296
 40
1.611037650682296
 40
1.611037650682296
 10
88.7830271399
 20
175.1262907697
 30
0.0
 10
88.81673640915508
 20
175.0699987902116
 30
0.0
 10
88.88415837172708
 20
174.9574091133054
 30
0.0
 10
89.05123498143871
 20
174.6680411449337
 30
0.0
 10
89.27811783406968
 20
174.2545068063745
 30
0.0
 10
89.45043319559319
 20
173.887032532316
 30
0.0
 10
89.53658119
 20
173.7033160521
 30
0.0
 11
88.7830271399
 21
175.1262907697
 31
0.0
 11
88.8837036997685
 21
174.9571510643352
 31
0.0
 11
88.98228507468703
 21
174.7867585953095
 31
0.0
 11
89.27239206759047
 21
174.2515903094151
 31
0.0
 11
89.53658119
 21
173.7033160521
 31
0.0
  0
SPLINE
  5
C3
330
1F
100
AcDbEntity
  8
0
  6
Continuous
 62
     7
100
AcDbSpline
210
0.0
220
0.0
230
1.0
 70
     8
 71
     3
 72
    11
 73
     7
 74
     5
 42
0.0000000001
 43
0.0000000001
 44
0.00000001
 40
0.0
 40
0.0
 40
0.0
 40
0.0
 40
0.2063348343795018
 40
0.4126856383117408
 40
1.011866238327944
 40
1.611061134487509
 40
1.611061134487509
 40
1.611061134487509
 40
1.611061134487509
 10
89.53658119
 20
167.3998151001
 30
0.0
 10
89.5080306253785
 20
167.3372398350004
 30
0.0
 10
89.4509272864274
 20
167.2120844617072
 30
0.0
 10
89.30385600948084
 20
166.9085342710546
 30
0.0
 10
89.08741055779358
 20
166.4930480731972
 30
0.0
 10
88.88448908612202
 20
166.1489109812053
 30
0.0
 10
88.7830271399
 20
165.9768403825
 30
0.0
 11
89.53658119
 21
167.3998151001
 31
0.0
 11
89.45020977710281
 21
167.2124276861348
 31
0.0
 11
89.36049061995772
 21
167.0266021574132
 31
0.0
 11
89.08284503979219
 21
166.4956310440273
 31
0.0
 11
88.7830271399
 21
165.9768403825
 31
0.0
  0
SPLINE
  5
C4
330
1F
100
AcDbEntity
  8
0
  6
Continuous
 62
     7
100
AcDbSpline
210
0.0
220
0.0
230
1.0
 70
     8
 71
     3
 72
    11
 73
     7
 74
     5
 42
0.0000000001
 43
0.0000000001
 44
0.00000001
 40
0.0
 40
0.0
 40
0.0
 40
0.0
 40
0.1968349807270876
 40
0.3936899552172437
 40
1.002432233655829
 40
1.611037650682296
 40
1.611037650682296
 40
1.611037650682296
 40
1.611037650682296
 10
88.7830271399
 20
235.1262907697
 30
0.0
 10
88.81673640915508
 20
235.0699987902115
 30
0.0
 10
88.8841583717271
 20
234.9574091133054
 30
0.0
 10
89.0512349814387
 20
234.6680411449337
 30
0.0
 10
89.27811783406966
 20
234.2545068063744
 30
0.0
 10
89.45043319559318
 20
233.887032532316
 30
0.0
 10
89.53658119
 20
233.7033160521
 30
0.0
 11
88.7830271399
 21
235.1262907697
 31
0.0
 11
88.8837036997685
 21
234.9571510643352
 31
0.0
 11
88.98228507468703
 21
234.7867585953095
 31
0.0
 11
89.27239206759047
 21
234.2515903094151
 31
0.0
 11
89.53658119
 21
233.7033160521
 31
0.0
  0
SPLINE
  5
C5
330
1F
100
AcDbEntity
  8
0
  6
Continuous
 62
     7
100
AcDbSpline
210
0.0
220
0.0
230
1.0
 70
     8
 71
     3
 72
    11
 73
     7
 74
     5
 42
0.0000000001
 43
0.0000000001
 44
0.00000001
 40
0.0
 40
0.0
 40
0.0
 40
0.0
 40
0.206334834379476
 40
0.4126856383117406
 40
1.011866238327943
 40
1.611061134487509
 40
1.611061134487509
 40
1.611061134487509
 40
1.611061134487509
 10
89.53658119
 20
227.3998151001
 30
0.0
 10
89.50803062537848
 20
227.3372398350004
 30
0.0
 10
89.45092728642739
 20
227.2120844617072
 30
0.0
 10
89.30385600948087
 20
226.9085342710547
 30
0.0
 10
89.08741055779353
 20
226.4930480731971
 30
0.0
 10
88.88448908612202
 20
226.1489109812053
 30
0.0
 10
88.7830271399
 20
225.9768403825
 30
0.0
 11
89.53658119
 21
227.3998151001
 31
0.0
 11
89.45020977710281
 21
227.2124276861348
 31
0.0
 11
89.36049061995772
 21
227.0266021574132
 31
0.0
 11
89.08284503979219
 21
226.4956310440273
 31
0.0
 11
88.7830271399
 21
225.9768403825
 31
0.0
  0
DIMENSION
  5
D1
330
1F
100
AcDbEntity
  8
1
100
AcDbDimension
  2
*D1
 10
63.1786906868733
 20
270.5515655761
 30
0.0
 11
59.4286906868733
 21
198.823463772909
 31
0.0
 70
    32
  1
<>
 71
     5
 42
-1.0
 53
90.0
  3
ME10_DIM_10
100
AcDbAlignedDimension
 13
73.5045947391
 23
130.5515655761
 33
0.0
 14
73.5045947391
 24
270.5515655761
 34
0.0
 50
90.0
100
AcDbRotatedDimension
  0
DIMENSION
  5
DC
330
1F
100
AcDbEntity
  8
1
100
AcDbDimension
  2
*D2
 10
73.5045947391
 20
120.429088804946
 30
0.0
 11
82.5284082610768
 21
124.179088804946
 31
0.0
 70
    32
  1
<>
 71
     5
 42
-1.0
 53
0.00013888888889
  3
ME10_DIM_11
100
AcDbAlignedDimension
 13
93.5045947391
 23
130.5515655761
 33
0.0
 14
73.5045947391
 24
130.5515655761
 34
0.0
100
AcDbRotatedDimension
  0
ENDSEC
  0
SECTION
  2
OBJECTS
  0
DICTIONARY
  5
C
330
0
100
AcDbDictionary
281
     1
  3
ACAD_GROUP
350
D
  3
ACAD_LAYOUT
350
1A
  3
ACAD_MLINESTYLE
350
17
  3
ACAD_PLOTSETTINGS
350
19
  3
ACAD_PLOTSTYLENAME
350
E
  0
DICTIONARY
  5
D
102
{ACAD_REACTORS
330
C
102
}
330
C
100
AcDbDictionary
281
     1
  0
DICTIONARY
  5
1A
102
{ACAD_REACTORS
330
C
102
}
330
C
100
AcDbDictionary
281
     1
  3
Layout1
350
1E
  3
Layout2
350
26
  3
Model
350
22
  0
DICTIONARY
  5
17
102
{ACAD_REACTORS
330
C
102
}
330
C
100
AcDbDictionary
281
     1
  3
Standard
350
18
  0
DICTIONARY
  5
19
102
{ACAD_REACTORS
330
C
102
}
330
C
100
AcDbDictionary
281
     1
  0
ACDBDICTIONARYWDFLT
  5
E
102
{ACAD_REACTORS
330
C
102
}
330
C
100
AcDbDictionary
281
     1
  3
Normal
350
F
100
AcDbDictionaryWithDefault
340
F
  0
LAYOUT
  5
1E
102
{ACAD_REACTORS
330
1A
102
}
330
1A
100
AcDbPlotSettings
  1

  2

  4

  6

 40
0.0
 41
0.0
 42
0.0
 43
0.0
 44
0.0
 45
0.0
 46
0.0
 47
0.0
 48
0.0
 49
0.0
140
0.0
141
0.0
142
1.0
143
1.0
 70
   688
 72
     0
 73
     0
 74
     5
  7

 75
    16
 76
     0
 77
     2
 78
   300
147
1.0
148
0.0
149
0.0
100
AcDbLayout
  1
Layout1
 70
     1
 71
     1
 10
0.0
 20
0.0
 11
0.0
 21
0.0
 12
0.0
 22
0.0
 32
0.0
 14
0.0
 24
0.0
 34
0.0
 15
0.0
 25
0.0
 35
0.0
146
0.0
 13
0.0
 23
0.0
 33
0.0
 16
1.0
 26
0.0
 36
0.0
 17
0.0
 27
1.0
 37
0.0
 76
     0
330
1B
  0
LAYOUT
  5
26
102
{ACAD_REACTORS
330
1A
102
}
330
1A
100
AcDbPlotSettings
  1

  2

  4

  6

 40
0.0
 41
0.0
 42
0.0
 43
0.0
 44
0.0
 45
0.0
 46
0.0
 47
0.0
 48
0.0
 49
0.0
140
0.0
141
0.0
142
1.0
143
1.0
 70
   688
 72
     0
 73
     0
 74
     5
  7

 75
    16
 76
     0
 77
     2
 78
   300
147
1.0
148
0.0
149
0.0
100
AcDbLayout
  1
Layout2
 70
     1
 71
     2
 10
0.0
 20
0.0
 11
0.0
 21
0.0
 12
0.0
 22
0.0
 32
0.0
 14
0.0
 24
0.0
 34
0.0
 15
0.0
 25
0.0
 35
0.0
146
0.0
 13
0.0
 23
0.0
 33
0.0
 16
1.0
 26
0.0
 36
0.0
 17
0.0
 27
1.0
 37
0.0
 76
     0
330
23
  0
LAYOUT
  5
22
102
{ACAD_REACTORS
330
1A
102
}
330
1A
100
AcDbPlotSettings
  1

  2

  4

  6

 40
0.0
 41
0.0
 42
0.0
 43
0.0
 44
0.0
 45
0.0
 46
0.0
 47
0.0
 48
0.0
 49
0.0
140
0.0
141
0.0
142
1.0
143
1.0
 70
  1712
 72
     0
 73
     0
 74
     0
  7

 75
     0
 76
     0
 77
     2
 78
   300
147
1.0
148
0.0
149
0.0
100
AcDbLayout
  1
Model
 70
     1
 71
     0
 10
0.0
 20
0.0
 11
0.0
 21
0.0
 12
0.0
 22
0.0
 32
0.0
 14
57.6786906868733
 24
118.429088804946
 34
0.0
 15
95.2545947391
 25
270.5515655761
 35
0.0
146
0.0
 13
0.0
 23
0.0
 33
0.0
 16
1.0
 26
0.0
 36
0.0
 17
0.0
 27
1.0
 37
0.0
 76
     0
330
1F
  0
MLINESTYLE
  5
18
102
{ACAD_REACTORS
330
17
102
}
330
17
100
AcDbMlineStyle
  2
Standard
 70
     0
  3

 62
   256
 51
90.0
 52
90.0
 71
     2
 49
0.5
 62
   256
  6
BYLAYER
 49
-0.5
 62
   256
  6
BYLAYER
  0
ACDBPLACEHOLDER
  5
F
102
{ACAD_REACTORS
330
E
102
}
330
E
  0
ENDSEC
  0
EOF
