  0
SECTION
  2
HEADER
  9
$ACADVER
  1
AC1015
  9
$ACADMAINTVER
 70
     6
  9
$DWGCODEPAGE
  3
ANSI_1252
  9
$INSBASE
 10
0.0
 20
0.0
 30
0.0
  9
$EXTMIN
 10
19650981.4495177
 20
10654919.8788624
 30
0.0
  9
$EXTMAX
 10
19651160.44951893
 20
10655034.7963624
 30
0.0
  9
$LIMMIN
 10
0.0
 20
0.0
  9
$LIMMAX
 10
12.0
 20
9.0
  9
$ORTHOMODE
 70
     0
  9
$REGENMODE
 70
     1
  9
$FILLMODE
 70
     1
  9
$QTEXTMODE
 70
     0
  9
$MIRRTEXT
 70
     1
  9
$LTSCALE
 40
1.0
  9
$ATTMODE
 70
     1
  9
$TEXTSIZE
 40
0.2
  9
$TRACEWID
 40
0.05
  9
$TEXTSTYLE
  7
Standard
  9
$CLAYER
  8
0
  9
$CELTYPE
  6
ByLayer
  9
$CECOLOR
 62
   256
  9
$CELTSCALE
 40
1.0
  9
$DISPSILH
 70
     0
  9
$DIMSCALE
 40
1.0
  9
$DIMASZ
 40
0.18
  9
$DIMEXO
 40
0.0625
  9
$DIMDLI
 40
0.38
  9
$DIMRND
 40
0.0
  9
$DIMDLE
 40
0.0
  9
$DIMEXE
 40
0.18
  9
$DIMTP
 40
0.0
  9
$DIMTM
 40
0.0
  9
$DIMTXT
 40
0.18
  9
$DIMCEN
 40
0.09
  9
$DIMTSZ
 40
0.0
  9
$DIMTOL
 70
     0
  9
$DIMLIM
 70
     0
  9
$DIMTIH
 70
     1
  9
$DIMTOH
 70
     1
  9
$DIMSE1
 70
     0
  9
$DIMSE2
 70
     0
  9
$DIMTAD
 70
     0
  9
$DIMZIN
 70
     0
  9
$DIMBLK
  1

  9
$DIMASO
 70
     1
  9
$DIMSHO
 70
     1
  9
$DIMPOST
  1

  9
$DIMAPOST
  1

  9
$DIMALT
 70
     0
  9
$DIMALTD
 70
     2
  9
$DIMALTF
 40
25.4
  9
$DIMLFAC
 40
1.0
  9
$DIMTOFL
 70
     0
  9
$DIMTVP
 40
0.0
  9
$DIMTIX
 70
     0
  9
$DIMSOXD
 70
     0
  9
$DIMSAH
 70
     0
  9
$DIMBLK1
  1

  9
$DIMBLK2
  1

  9
$DIMSTYLE
  2
Standard
  9
$DIMCLRD
 70
     0
  9
$DIMCLRE
 70
     0
  9
$DIMCLRT
 70
     0
  9
$DIMTFAC
 40
1.0
  9
$DIMGAP
 40
0.09
  9
$DIMJUST
 70
     0
  9
$DIMSD1
 70
     0
  9
$DIMSD2
 70
     0
  9
$DIMTOLJ
 70
     1
  9
$DIMTZIN
 70
     0
  9
$DIMALTZ
 70
     0
  9
$DIMALTTZ
 70
     0
  9
$DIMUPT
 70
     0
  9
$DIMDEC
 70
     4
  9
$DIMTDEC
 70
     4
  9
$DIMALTU
 70
     2
  9
$DIMALTTD
 70
     2
  9
$DIMTXSTY
  7
Standard
  9
$DIMAUNIT
 70
     0
  9
$DIMADEC
 70
     0
  9
$DIMALTRND
 40
0.0
  9
$DIMAZIN
 70
     0
  9
$DIMDSEP
 70
    46
  9
$DIMATFIT
 70
     3
  9
$DIMFRAC
 70
     0
  9
$DIMLDRBLK
  1

  9
$DIMLUNIT
 70
     2
  9
$DIMLWD
 70
    -2
  9
$DIMLWE
 70
    -2
  9
$DIMTMOVE
 70
     0
  9
$LUNITS
 70
     2
  9
$LUPREC
 70
     4
  9
$SKETCHINC
 40
0.1
  9
$FILLETRAD
 40
0.5
  9
$AUNITS
 70
     0
  9
$AUPREC
 70
     0
  9
$MENU
  1
.
  9
$ELEVATION
 40
0.0
  9
$PELEVATION
 40
0.0
  9
$THICKNESS
 40
0.0
  9
$LIMCHECK
 70
     0
  9
$CHAMFERA
 40
0.5
  9
$CHAMFERB
 40
0.5
  9
$CHAMFERC
 40
1.0
  9
$CHAMFERD
 40
0.0
  9
$SKPOLY
 70
     0
  9
$TDCREATE
 40
2457128.446582257
  9
$TDUCREATE
 40
2457128.363248924
  9
$TDUPDATE
 40
2457128.446582442
  9
$TDUUPDATE
 40
2457128.363249109
  9
$TDINDWG
 40
0.0000000116
  9
$TDUSRTIMER
 40
0.0000000116
  9
$USRTIMER
 70
     1
  9
$ANGBASE
 50
0.0
  9
$ANGDIR
 70
     0
  9
$PDMODE
 70
     0
  9
$PDSIZE
 40
0.0
  9
$PLINEWID
 40
0.0
  9
$SPLFRAME
 70
     0
  9
$SPLINETYPE
 70
     6
  9
$SPLINESEGS
 70
     8
  9
$HANDSEED
  5
2C6
  9
$SURFTAB1
 70
     6
  9
$SURFTAB2
 70
     6
  9
$SURFTYPE
 70
     6
  9
$SURFU
 70
     6
  9
$SURFV
 70
     6
  9
$UCSBASE
  2

  9
$UCSNAME
  2

  9
$UCSORG
 10
0.0
 20
0.0
 30
0.0
  9
$UCSXDIR
 10
1.0
 20
0.0
 30
0.0
  9
$UCSYDIR
 10
0.0
 20
1.0
 30
0.0
  9
$UCSORTHOREF
  2

  9
$UCSORTHOVIEW
 70
     0
  9
$UCSORGTOP
 10
0.0
 20
0.0
 30
0.0
  9
$UCSORGBOTTOM
 10
0.0
 20
0.0
 30
0.0
  9
$UCSORGLEFT
 10
0.0
 20
0.0
 30
0.0
  9
$UCSORGRIGHT
 10
0.0
 20
0.0
 30
0.0
  9
$UCSORGFRONT
 10
0.0
 20
0.0
 30
0.0
  9
$UCSORGBACK
 10
0.0
 20
0.0
 30
0.0
  9
$PUCSBASE
  2

  9
$PUCSNAME
  2

  9
$PUCSORG
 10
0.0
 20
0.0
 30
0.0
  9
$PUCSXDIR
 10
1.0
 20
0.0
 30
0.0
  9
$PUCSYDIR
 10
0.0
 20
1.0
 30
0.0
  9
$PUCSORTHOREF
  2

  9
$PUCSORTHOVIEW
 70
     0
  9
$PUCSORGTOP
 10
0.0
 20
0.0
 30
0.0
  9
$PUCSORGBOTTOM
 10
0.0
 20
0.0
 30
0.0
  9
$PUCSORGLEFT
 10
0.0
 20
0.0
 30
0.0
  9
$PUCSORGRIGHT
 10
0.0
 20
0.0
 30
0.0
  9
$PUCSORGFRONT
 10
0.0
 20
0.0
 30
0.0
  9
$PUCSORGBACK
 10
0.0
 20
0.0
 30
0.0
  9
$USERI1
 70
     0
  9
$USERI2
 70
     0
  9
$USERI3
 70
     0
  9
$USERI4
 70
     0
  9
$USERI5
 70
     0
  9
$USERR1
 40
18.1
  9
$USERR2
 40
0.0
  9
$USERR3
 40
0.0
  9
$USERR4
 40
0.0
  9
$USERR5
 40
0.0
  9
$WORLDVIEW
 70
     1
  9
$SHADEDGE
 70
     3
  9
$SHADEDIF
 70
    70
  9
$TILEMODE
 70
     1
  9
$MAXACTVP
 70
    64
  9
$PINSBASE
 10
0.0
 20
0.0
 30
0.0
  9
$PLIMCHECK
 70
     0
  9
$PEXTMIN
 10
1.00000000000000E+20
 20
1.00000000000000E+20
 30
1.00000000000000E+20
  9
$PEXTMAX
 10
-1.00000000000000E+20
 20
-1.00000000000000E+20
 30
-1.00000000000000E+20
  9
$PLIMMIN
 10
0.0
 20
0.0
  9
$PLIMMAX
 10
12.0
 20
9.0
  9
$UNITMODE
 70
     0
  9
$VISRETAIN
 70
     1
  9
$PLINEGEN
 70
     0
  9
$PSLTSCALE
 70
     1
  9
$TREEDEPTH
 70
  3020
  9
$CMLSTYLE
  2
Standard
  9
$CMLJUST
 70
     0
  9
$CMLSCALE
 40
1.0
  9
$PROXYGRAPHICS
 70
     1
  9
$MEASUREMENT
 70
     1
  9
$CELWEIGHT
370
    -1
  9
$ENDCAPS
280
     0
  9
$JOINSTYLE
280
     0
  9
$LWDISPLAY
290
     0
  9
$INSUNITS
 70
     4
  9
$HYPERLINKBASE
  1

  9
$STYLESHEET
  1

  9
$XEDIT
290
     1
  9
$CEPSNTYPE
380
     0
  9
$PSTYLEMODE
290
     1
  9
$FINGERPRINTGUID
  2
{F8966AD1-2B8A-42E7-A0D6-5F28BF1CAE36}
  9
$VERSIONGUID
  2
{FAEB1C32-E019-11D5-929B-00C0DF256EC4}
  9
$EXTNAMES
290
     1
  9
$PSVPSCALE
 40
0.0
  9
$OLESTARTUP
290
     0
  0
ENDSEC
  0
SECTION
  2
CLASSES
  0
CLASS
  1
ACDBDICTIONARYWDFLT
  2
AcDbDictionaryWithDefault
  3
ObjectDBX Classes
 90
        0
280
     0
281
     0
  0
CLASS
  1
VISUALSTYLE
  2
AcDbVisualStyle
  3
ObjectDBX Classes
 90
     4095
280
     0
281
     0
  0
CLASS
  1
MATERIAL
  2
AcDbMaterial
  3
ObjectDBX Classes
 90
     1153
280
     0
281
     0
  0
CLASS
  1
DICTIONARYVAR
  2
AcDbDictionaryVar
  3
ObjectDBX Classes
 90
        0
280
     0
281
     0
  0
CLASS
  1
ACDBPLACEHOLDER
  2
AcDbPlaceHolder
  3
ObjectDBX Classes
 90
        0
280
     0
281
     0
  0
CLASS
  1
LAYOUT
  2
AcDbLayout
  3
ObjectDBX Classes
 90
        0
280
     0
281
     0
  0
ENDSEC
  0
SECTION
  2
TABLES
  0
TABLE
  2
VPORT
  5
8
330
0
100
AcDbSymbolTable
 70
     1
  0
VPORT
  5
29
330
8
100
AcDbSymbolTableRecord
100
AcDbViewportTableRecord
  2
*Active
 70
     0
 10
0.0
 20
0.0
 11
1.0
 21
1.0
 12
19651070.94951832
 22
10654977.3376124
 13
0.0
 23
0.0
 14
0.5
 24
0.5
 15
0.5
 25
0.5
 16
0.0
 26
0.0
 36
1.0
 17
0.0
 27
0.0
 37
0.0
 40
126.4092500004918
 41
1.60267857142857
 42
50.0
 43
0.0
 44
0.0
 50
0.0
 51
0.0
 71
     0
 72
   100
 73
     1
 74
     3
 75
     0
 76
     0
 77
     0
 78
     0
281
     0
 65
     1
110
0.0
120
0.0
130
0.0
111
1.0
121
0.0
131
0.0
112
0.0
122
1.0
132
0.0
 79
     0
146
0.0
  0
ENDTAB
  0
TABLE
  2
LTYPE
  5
5
330
0
100
AcDbSymbolTable
 70
     9
  0
LTYPE
  5
14
330
5
100
AcDbSymbolTableRecord
100
AcDbLinetypeTableRecord
  2
ByBlock
 70
     0
  3

 72
    65
 73
     0
 40
0.0
  0
LTYPE
  5
15
330
5
100
AcDbSymbolTableRecord
100
AcDbLinetypeTableRecord
  2
ByLayer
 70
     0
  3

 72
    65
 73
     0
 40
0.0
  0
LTYPE
  5
16
330
5
100
AcDbSymbolTableRecord
100
AcDbLinetypeTableRecord
  2
Continuous
 70
     0
  3
Solid line
 72
    65
 73
     0
 40
0.0
  0
LTYPE
  5
3F
330
5
100
AcDbSymbolTableRecord
100
AcDbLinetypeTableRecord
  2
DASHED
 70
     0
  3
Dashed
 72
    65
 73
     2
 40
15.0
 49
7.0
 74
     0
 49
-8.0
 74
     0
  0
LTYPE
  5
40
330
5
100
AcDbSymbolTableRecord
100
AcDbLinetypeTableRecord
  2
DOTTED
 70
     0
  3
Dotted
 72
    65
 73
     2
 40
1.0
 49
0.0
 74
     0
 49
-1.0
 74
     0
  0
LTYPE
  5
41
330
5
100
AcDbSymbolTableRecord
100
AcDbLinetypeTableRecord
  2
DOT_CENTER
 70
     0
  3
Dot_Center
 72
    65
 73
     4
 40
14.0
 49
12.0
 74
     0
 49
-1.0
 74
     0
 49
0.0
 74
     0
 49
-1.0
 74
     0
  0
LTYPE
  5
42
330
5
100
AcDbSymbolTableRecord
100
AcDbLinetypeTableRecord
  2
LONG_DASHED
 70
     0
  3
Long_Dashed
 72
    65
 73
     2
 40
15.0
 49
10.0
 74
     0
 49
-5.0
 74
     0
  0
LTYPE
  5
43
330
5
100
AcDbSymbolTableRecord
100
AcDbLinetypeTableRecord
  2
DASH_CENTER
 70
     0
  3
Dash_Center
 72
    65
 73
     4
 40
14.0
 49
11.0
 74
     0
 49
-1.0
 74
     0
 49
1.0
 74
     0
 49
-1.0
 74
     0
  0
LTYPE
  5
44
330
5
100
AcDbSymbolTableRecord
100
AcDbLinetypeTableRecord
  2
PHANTOM
 70
     0
  3
Phantom
 72
    65
 73
     6
 40
13.0
 49
10.0
 74
     0
 49
-1.0
 74
     0
 49
0.0
 74
     0
 49
-1.0
 74
     0
 49
0.0
 74
     0
 49
-1.0
 74
     0
  0
LTYPE
  5
45
330
5
100
AcDbSymbolTableRecord
100
AcDbLinetypeTableRecord
  2
CENTER_DASH_DASH
 70
     0
  3
Center_Dash_Dash
 72
    65
 73
     6
 40
14.0
 49
9.0
 74
     0
 49
-1.0
 74
     0
 49
1.0
 74
     0
 49
-1.0
 74
     0
 49
1.0
 74
     0
 49
-1.0
 74
     0
  0
LTYPE
  5
46
330
5
100
AcDbSymbolTableRecord
100
AcDbLinetypeTableRecord
  2
HIDDEN
 70
     0
  3
HIDDEN
 72
    65
 73
     2
 40
6.0
 49
3.0
 74
     0
 49
-3.0
 74
     0
  0
ENDTAB
  0
TABLE
  2
LAYER
  5
2
330
0
100
AcDbSymbolTable
 70
     6
  0
LAYER
  5
10
330
2
100
AcDbSymbolTableRecord
100
AcDbLayerTableRecord
  2
0
 70
     0
 62
     7
  6
Continuous
370
    -3
390
F
  0
LAYER
  5
47
330
2
100
AcDbSymbolTableRecord
100
AcDbLayerTableRecord
  2
1
 70
     0
 62
     7
  6
Continuous
370
    -3
390
F
  0
LAYER
  5
48
330
2
100
AcDbSymbolTableRecord
100
AcDbLayerTableRecord
  2
8011$0$8011
 70
     0
 62
     7
  6
Continuous
370
    -3
390
F
  0
LAYER
  5
49
330
2
100
AcDbSymbolTableRecord
100
AcDbLayerTableRecord
  2
A_NOTIZEN_SYMB
 70
     0
 62
     7
  6
Continuous
370
    -3
390
F
  0
LAYER
  5
4A
330
2
100
AcDbSymbolTableRecord
100
AcDbLayerTableRecord
  2
DEFAULT_1
 70
     0
 62
     7
  6
Continuous
370
    -3
390
F
  0
LAYER
  5
4B
330
2
100
AcDbSymbolTableRecord
100
AcDbLayerTableRecord
  2
DEFAULT_2
 70
     0
 62
     7
  6
Continuous
370
    -3
390
F
  0
ENDTAB
  0
TABLE
  2
STYLE
  5
3
330
0
100
AcDbSymbolTable
 70
     2
  0
STYLE
  5
11
330
3
100
AcDbSymbolTableRecord
100
AcDbTextStyleTableRecord
  2
Standard
 70
     0
 40
0.0
 41
1.0
 50
0.0
 71
     0
 42
0.2
  3
txt
  4

  0
STYLE
  5
295
330
3
100
AcDbSymbolTableRecord
100
AcDbTextStyleTableRecord
  2
CONVERTER_11
 70
     0
 40
0.0
 41
0.9
 50
0.0
 71
     0
 42
0.2
  3
txt.shx
  4

  0
ENDTAB
  0
TABLE
  2
VIEW
  5
6
330
0
100
AcDbSymbolTable
 70
     0
  0
ENDTAB
  0
TABLE
  2
UCS
  5
7
330
0
100
AcDbSymbolTable
 70
     0
  0
ENDTAB
  0
TABLE
  2
APPID
  5
9
330
0
100
AcDbSymbolTable
 70
     1
  0
APPID
  5
12
330
9
100
AcDbSymbolTableRecord
100
AcDbRegAppTableRecord
  2
ACAD
 70
     0
  0
ENDTAB
  0
TABLE
  2
DIMSTYLE
  5
A
330
0
100
AcDbSymbolTable
 70
     2
100
AcDbDimStyleTable
  0
DIMSTYLE
105
27
330
A
100
AcDbSymbolTableRecord
100
AcDbDimStyleTableRecord
  2
Standard
 70
     0
178
     0
340
11
  0
DIMSTYLE
105
299
102
{ACAD_REACTORS
330
29A
102
}
330
A
100
AcDbSymbolTableRecord
100
AcDbDimStyleTableRecord
  2
ME10_DIM_10
 70
     0
 41
3.5
 42
0.0
 44
2.0
 73
     0
 74
     0
 77
     1
 78
     8
140
3.5
147
2.0
172
     1
173
     1
174
     1
175
     1
176
     2
177
     2
271
     3
178
     2
271
     3
340
295
  0
ENDTAB
  0
TABLE
  2
BLOCK_RECORD
  5
1
330
0
100
AcDbSymbolTable
 70
     2
  0
BLOCK_RECORD
  5
1F
330
1
100
AcDbSymbolTableRecord
100
AcDbBlockTableRecord
  2
*Model_Space
340
22
  0
BLOCK_RECORD
  5
1B
330
1
100
AcDbSymbolTableRecord
100
AcDbBlockTableRecord
  2
*Paper_Space
340
1E
  0
BLOCK_RECORD
  5
23
330
1
100
AcDbSymbolTableRecord
100
AcDbBlockTableRecord
  2
*Paper_Space0
340
26
  0
BLOCK_RECORD
  5
28F
330
1
100
AcDbSymbolTableRecord
100
AcDbBlockTableRecord
  2
*D1
340
0
  0
ENDTAB
  0
ENDSEC
  0
SECTION
  2
BLOCKS
  0
BLOCK
  5
20
330
1F
100
AcDbEntity
  8
0
100
AcDbBlockBegin
  2
*Model_Space
 70
     0
 10
0.0
 20
0.0
 30
0.0
  3
*Model_Space
  1

  0
ENDBLK
  5
21
330
1F
100
AcDbEntity
  8
0
100
AcDbBlockEnd
  0
BLOCK
  5
1C
330
1B
100
AcDbEntity
 67
     1
  8
0
100
AcDbBlockBegin
  2
*Paper_Space
 70
     0
 10
0.0
 20
0.0
 30
0.0
  3
*Paper_Space
  1

  0
ENDBLK
  5
1D
330
1B
100
AcDbEntity
 67
     1
  8
0
100
AcDbBlockEnd
  0
BLOCK
  5
24
330
23
100
AcDbEntity
  8
0
100
AcDbBlockBegin
  2
*Paper_Space0
 70
     0
 10
0.0
 20
0.0
 30
0.0
  3
*Paper_Space0
  1

  0
ENDBLK
  5
25
330
23
100
AcDbEntity
  8
0
100
AcDbBlockEnd
  0
BLOCK
  5
297
330
28F
100
AcDbEntity
  8
0
100
AcDbBlockBegin
  2
*D1
 70
     1
 10
0.0
 20
0.0
 30
0.0
  3
*D1
  1

  0
LINE
  5
290
330
28F
100
AcDbEntity
  8
1
  6
Continuous
 62
     2
100
AcDbLine
 10
19650994.4491252
 20
10654960.7963624
 30
0.0
 11
19650994.4491252
 21
10654950.7963624
 31
0.0
  0
LINE
  5
291
330
28F
100
AcDbEntity
  8
1
  6
Continuous
 62
     2
100
AcDbLine
 10
19650981.4495177
 20
10654960.7963624
 30
0.0
 11
19650996.4491252
 21
10654960.7963624
 31
0.0
  0
LINE
  5
292
330
28F
100
AcDbEntity
  8
1
  6
Continuous
 62
     2
100
AcDbLine
 10
19651030.0102949
 20
10654950.7963624
 30
0.0
 11
19650992.4491252
 21
10654950.7963624
 31
0.0
  0
SOLID
  5
293
330
28F
100
AcDbEntity
  8
1
 62
     2
100
AcDbTrace
 10
19650994.90990894
 20
10654957.2963624
 30
0.0
 11
19650993.98834146
 21
10654957.2963624
 31
0.0
 12
19650994.4491252
 22
10654960.7963624
 32
0.0
 13
19650994.4491252
 23
10654960.7963624
 33
0.0
  0
SOLID
  5
294
330
28F
100
AcDbEntity
  8
1
 62
     2
100
AcDbTrace
 10
19650993.98834146
 20
10654954.2963624
 30
0.0
 11
19650994.90990894
 21
10654954.2963624
 31
0.0
 12
19650994.4491252
 22
10654950.7963624
 32
0.0
 13
19650994.4491252
 23
10654950.7963624
 33
0.0
  0
MTEXT
  5
296
330
28F
100
AcDbEntity
  8
1
 62
     2
100
AcDbMText
 10
19650992.4491252
 20
10654953.6298795
 30
0.0
 40
3.5
 41
0.0
 71
     7
 72
     1
  1
10
  7
CONVERTER_11
 11
0.0
 21
1.0
 31
0.0
 73
     1
 44
0.60024009603842
  0
ENDBLK
  5
298
330
28F
100
AcDbEntity
  8
0
100
AcDbBlockEnd
  0
ENDSEC
  0
SECTION
  2
ENTITIES
  0
LINE
  5
4C
330
1F
100
AcDbEntity
  8
8011$0$8011
  6
Continuous
 62
     2
100
AcDbLine
 10
19651004.4495177
 20
10654960.7963624
 30
0.0
 11
19650981.4495177
 21
10654960.7963624
 31
0.0
  0
LINE
  5
4D
330
1F
100
AcDbEntity
  8
A_NOTIZEN_SYMB
  6
Continuous
 62
     2
100
AcDbLine
 10
19651067.7495177
 20
10654953.9463624
 30
0.0
 11
19651067.7495177
 21
10654954.6963244
 31
0.0
  0
LINE
  5
4E
330
1F
100
AcDbEntity
  8
A_NOTIZEN_SYMB
  6
Continuous
 62
     2
100
AcDbLine
 10
19651055.4495177
 20
10654953.9463624
 30
0.0
 11
19651055.4495177
 21
10654954.6963244
 31
0.0
  0
LINE
  5
4F
330
1F
100
AcDbEntity
  8
A_NOTIZEN_SYMB
  6
Continuous
 62
     2
100
AcDbLine
 10
19651090.60310754
 20
10654950.9963624
 30
0.0
 11
19651108.4495177
 21
10654950.9963624
 31
0.0
  0
LINE
  5
50
330
1F
100
AcDbEntity
  8
A_NOTIZEN_SYMB
  6
Continuous
 62
     2
100
AcDbLine
 10
19651087.9495177
 20
10654949.06431158
 30
0.0
 11
19651087.9495177
 21
10654947.7963624
 31
0.0
  0
LINE
  5
51
330
1F
100
AcDbEntity
  8
1
  6
Continuous
 62
     7
100
AcDbLine
 10
19651067.77254799
 20
10654947.6463624
 30
0.0
 11
19651085.4935576
 21
10654947.6463624
 31
0.0
  0
LINE
  5
52
330
1F
100
AcDbEntity
  8
1
  6
Continuous
 62
     7
100
AcDbLine
 10
19651066.52648741
 20
10654947.6463624
 30
0.0
 11
19651067.77254799
 21
10654947.6463624
 31
0.0
  0
LINE
  5
53
330
1F
100
AcDbEntity
  8
1
  6
Continuous
 62
     7
100
AcDbLine
 10
19651055.47254799
 20
10654947.6463624
 30
0.0
 11
19651066.52648741
 21
10654947.6463624
 31
0.0
  0
LINE
  5
54
330
1F
100
AcDbEntity
  8
1
  6
Continuous
 62
     7
100
AcDbLine
 10
19651054.02648741
 20
10654947.6463624
 30
0.0
 11
19651055.47254799
 21
10654947.6463624
 31
0.0
  0
LINE
  5
55
330
1F
100
AcDbEntity
  8
1
  6
Continuous
 62
     7
100
AcDbLine
 10
19651050.372548
 20
10654947.6463624
 30
0.0
 11
19651054.02648741
 21
10654947.6463624
 31
0.0
  0
LINE
  5
56
330
1F
100
AcDbEntity
  8
1
  6
Continuous
 62
     7
100
AcDbLine
 10
19651049.32648741
 20
10654947.6463624
 30
0.0
 11
19651050.372548
 21
10654947.6463624
 31
0.0
  0
LINE
  5
57
330
1F
100
AcDbEntity
  8
1
  6
Continuous
 62
     7
100
AcDbLine
 10
19651045.072548
 20
10654947.6463624
 30
0.0
 11
19651049.32648741
 21
10654947.6463624
 31
0.0
  0
LINE
  5
58
330
1F
100
AcDbEntity
  8
1
  6
Continuous
 62
     7
100
AcDbLine
 10
19651044.02648741
 20
10654947.6463624
 30
0.0
 11
19651045.072548
 21
10654947.6463624
 31
0.0
  0
LINE
  5
59
330
1F
100
AcDbEntity
  8
1
  6
Continuous
 62
     7
100
AcDbLine
 10
19651037.47254799
 20
10654947.6463624
 30
0.0
 11
19651044.02648741
 21
10654947.6463624
 31
0.0
  0
LINE
  5
5A
330
1F
100
AcDbEntity
  8
A_NOTIZEN_SYMB
  6
Continuous
 62
     2
100
AcDbLine
 10
19651054.0495177
 20
10654954.2963624
 30
0.0
 11
19651054.0495177
 21
10654953.9463624
 31
0.0
  0
LINE
  5
5B
330
1F
100
AcDbEntity
  8
A_NOTIZEN_SYMB
  6
Continuous
 62
     2
100
AcDbLine
 10
19651045.2495177
 20
10654953.9463624
 30
0.0
 11
19651045.2495177
 21
10654954.2963624
 31
0.0
  0
LINE
  5
5C
330
1F
100
AcDbEntity
  8
A_NOTIZEN_SYMB
  6
Continuous
 62
     2
100
AcDbLine
 10
19651036.8495177
 20
10654953.9463624
 30
0.0
 11
19651036.8495177
 21
10654955.7963624
 31
0.0
  0
LINE
  5
5D
330
1F
100
AcDbEntity
  8
1
  6
Continuous
 62
     2
100
AcDbLine
 10
19651019.0995177
 20
10654977.7963624
 30
0.0
 11
19651029.0
 21
10654977.7963624
 31
0.0
  0
LINE
  5
5E
330
1F
100
AcDbEntity
  8
1
  6
Continuous
 62
     2
100
AcDbLine
 10
19651019.0995177
 20
10654976.2963624
 30
0.0
 11
19651029.0
 21
10654976.2963624
 31
0.0
  0
LINE
  5
5F
330
1F
100
AcDbEntity
  8
8011$0$8011
  6
Continuous
 62
     2
100
AcDbLine
 10
19651019.0995177
 20
10654975.7963624
 30
0.0
 11
19651025.0495177
 21
10654975.7963624
 31
0.0
  0
LINE
  5
60
330
1F
100
AcDbEntity
  8
8011$0$8011
  6
Continuous
 62
     2
100
AcDbLine
 10
19651012.7695177
 20
10654974.5963624
 30
0.0
 11
19651009.7995177
 21
10654974.5963624
 31
0.0
  0
LINE
  5
61
330
1F
100
AcDbEntity
  8
8011$0$8011
  6
Continuous
 62
     2
100
AcDbLine
 10
19651019.0995177
 20
10654970.5963624
 30
0.0
 11
19651025.1495177
 21
10654970.5963624
 31
0.0
  0
LINE
  5
62
330
1F
100
AcDbEntity
  8
8011$0$8011
  6
Continuous
 62
     2
100
AcDbLine
 10
19651012.7695177
 20
10654969.7963624
 30
0.0
 11
19651009.7995177
 21
10654969.7963624
 31
0.0
  0
LINE
  5
63
330
1F
100
AcDbEntity
  8
8011$0$8011
  6
Continuous
 62
     2
100
AcDbLine
 10
19651019.0995177
 20
10654963.7963624
 30
0.0
 11
19651025.1495177
 21
10654963.7963624
 31
0.0
  0
LINE
  5
64
330
1F
100
AcDbEntity
  8
A_NOTIZEN_SYMB
  6
Continuous
 62
     2
100
AcDbLine
 10
19651038.4495177
 20
10654956.2963624
 30
0.0
 11
19651037.4495177
 21
10654957.2963624
 31
0.0
  0
LINE
  5
65
330
1F
100
AcDbEntity
  8
A_NOTIZEN_SYMB
  6
Continuous
 62
     2
100
AcDbLine
 10
19651065.9495177
 20
10654974.2963624
 30
0.0
 11
19651066.4495177
 21
10654973.7963624
 31
0.0
  0
LINE
  5
66
330
1F
100
AcDbEntity
  8
A_NOTIZEN_SYMB
  6
Continuous
 62
     2
100
AcDbLine
 10
19651063.4495177
 20
10655007.4248014
 30
0.0
 11
19651063.1495177
 21
10655007.7248014
 31
0.0
  0
LINE
  5
67
330
1F
100
AcDbEntity
  8
A_NOTIZEN_SYMB
  6
Continuous
 62
     2
100
AcDbLine
 10
19651133.1495177
 20
10654947.0963624
 30
0.0
 11
19651132.6495177
 21
10654947.5963624
 31
0.0
  0
LINE
  5
68
330
1F
100
AcDbEntity
  8
A_NOTIZEN_SYMB
  6
Continuous
 62
     2
100
AcDbLine
 10
19651160.4324827
 20
10655005.9257664
 30
0.0
 11
19651158.3094487
 21
10655013.8492394
 31
0.0
  0
LINE
  5
69
330
1F
100
AcDbEntity
  8
A_NOTIZEN_SYMB
  6
Continuous
 62
     2
100
AcDbLine
 10
19651156.9064547
 20
10655009.4257694
 30
0.0
 11
19651157.6110027
 21
10655006.7963594
 31
0.0
  0
LINE
  5
6A
330
1F
100
AcDbEntity
  8
8011$0$8011
  6
Continuous
 62
     2
100
AcDbLine
 10
19651040.6495177
 20
10654964.2963624
 30
0.0
 11
19651042.4495177
 21
10654963.2963624
 31
0.0
  0
LINE
  5
6B
330
1F
100
AcDbEntity
  8
A_NOTIZEN_SYMB
  6
Continuous
 62
     2
100
AcDbLine
 10
19651140.4495177
 20
10654946.7963624
 30
0.0
 11
19651138.6495357
 21
10654947.7963524
 31
0.0
  0
LINE
  5
6C
330
1F
100
AcDbEntity
  8
8011$0$8011
  6
Continuous
 62
     2
100
AcDbLine
 10
19650989.4495177
 20
10654969.5069784
 30
0.0
 11
19650988.9571147
 21
10654969.9201544
 31
0.0
  0
LINE
  5
6D
330
1F
100
AcDbEntity
  8
A_NOTIZEN_SYMB
  6
Continuous
 62
     2
100
AcDbLine
 10
19651134.9491177
 20
10654952.5662214
 30
0.0
 11
19651140.4495177
 21
10654951.5963624
 31
0.0
  0
LINE
  5
6E
330
1F
100
AcDbEntity
  8
A_NOTIZEN_SYMB
  6
Continuous
 62
     2
100
AcDbLine
 10
19651036.9495177
 20
10654944.2963624
 30
0.0
 11
19651139.4495177
 21
10654944.2963624
 31
0.0
  0
LINE
  5
6F
330
1F
100
AcDbEntity
  8
A_NOTIZEN_SYMB
  6
Continuous
 62
     2
100
AcDbLine
 10
19651156.1110027
 20
10655006.7963594
 30
0.0
 11
19651156.1110027
 21
10655006.2963594
 31
0.0
  0
LINE
  5
70
330
1F
100
AcDbEntity
  8
A_NOTIZEN_SYMB
  6
Continuous
 62
     2
100
AcDbLine
 10
19651152.6110027
 20
10655006.2963594
 30
0.0
 11
19651152.6110027
 21
10655006.7963594
 31
0.0
  0
LINE
  5
71
330
1F
100
AcDbEntity
  8
A_NOTIZEN_SYMB
  6
Continuous
 62
     2
100
AcDbLine
 10
19651151.1110027
 20
10655006.7963594
 30
0.0
 11
19651151.1110027
 21
10655009.2963594
 31
0.0
  0
LINE
  5
72
330
1F
100
AcDbEntity
  8
A_NOTIZEN_SYMB
  6
Continuous
 62
     2
100
AcDbLine
 10
19651149.3110027
 20
10655009.2963594
 30
0.0
 11
19651149.3110027
 21
10655008.2963594
 31
0.0
  0
LINE
  5
73
330
1F
100
AcDbEntity
  8
A_NOTIZEN_SYMB
  6
Continuous
 62
     2
100
AcDbLine
 10
19651136.3495177
 20
10654990.2963594
 30
0.0
 11
19651133.1612177
 21
10655005.2963594
 31
0.0
  0
LINE
  5
74
330
1F
100
AcDbEntity
  8
A_NOTIZEN_SYMB
  6
Continuous
 62
     2
100
AcDbLine
 10
19651131.0121437
 20
10655008.1924054
 30
0.0
 11
19651129.6305467
 21
10655014.6924084
 31
0.0
  0
LINE
  5
75
330
1F
100
AcDbEntity
  8
8011$0$8011
  6
Continuous
 62
     2
100
AcDbLine
 10
19650993.8590637
 20
10654969.4963624
 30
0.0
 11
19650993.5590637
 21
10654969.7963624
 31
0.0
  0
LINE
  5
76
330
1F
100
AcDbEntity
  8
A_NOTIZEN_SYMB
  6
Continuous
 62
     2
100
AcDbLine
 10
19651135.6495177
 20
10654947.0963624
 30
0.0
 11
19651133.1495177
 21
10654947.0963624
 31
0.0
  0
LINE
  5
77
330
1F
100
AcDbEntity
  8
A_NOTIZEN_SYMB
  6
Continuous
 62
     2
100
AcDbLine
 10
19651043.5495177
 20
10654947.2963624
 30
0.0
 11
19651037.9495177
 21
10654947.2963624
 31
0.0
  0
LINE
  5
78
330
1F
100
AcDbEntity
  8
A_NOTIZEN_SYMB
  6
Continuous
 62
     2
100
AcDbLine
 10
19651048.8495177
 20
10654947.2963624
 30
0.0
 11
19651045.5495177
 21
10654947.2963624
 31
0.0
  0
LINE
  5
79
330
1F
100
AcDbEntity
  8
A_NOTIZEN_SYMB
  6
Continuous
 62
     2
100
AcDbLine
 10
19651053.5495177
 20
10654947.2963624
 30
0.0
 11
19651050.8495177
 21
10654947.2963624
 31
0.0
  0
LINE
  5
7A
330
1F
100
AcDbEntity
  8
A_NOTIZEN_SYMB
  6
Continuous
 62
     2
100
AcDbLine
 10
19651066.0495177
 20
10654947.2963624
 30
0.0
 11
19651055.9495177
 21
10654947.2963624
 31
0.0
  0
LINE
  5
7B
330
1F
100
AcDbEntity
  8
A_NOTIZEN_SYMB
  6
Continuous
 62
     2
100
AcDbLine
 10
19651087.4495177
 20
10654947.2963624
 30
0.0
 11
19651068.2495177
 21
10654947.2963624
 31
0.0
  0
LINE
  5
7C
330
1F
100
AcDbEntity
  8
A_NOTIZEN_SYMB
  6
Continuous
 62
     2
100
AcDbLine
 10
19651108.4495177
 20
10654947.2963624
 30
0.0
 11
19651089.2495177
 21
10654947.2963624
 31
0.0
  0
LINE
  5
7D
330
1F
100
AcDbEntity
  8
A_NOTIZEN_SYMB
  6
Continuous
 62
     2
100
AcDbLine
 10
19651129.4495177
 20
10654947.2963624
 30
0.0
 11
19651110.2495177
 21
10654947.2963624
 31
0.0
  0
LINE
  5
7E
330
1F
100
AcDbEntity
  8
A_NOTIZEN_SYMB
  6
Continuous
 62
     2
100
AcDbLine
 10
19651138.6495357
 20
10654947.7963524
 30
0.0
 11
19651135.6495177
 21
10654947.7963524
 31
0.0
  0
LINE
  5
7F
330
1F
100
AcDbEntity
  8
A_NOTIZEN_SYMB
  6
Continuous
 62
     2
100
AcDbLine
 10
19651110.2495177
 20
10654950.9963624
 30
0.0
 11
19651129.4495177
 21
10654950.9963624
 31
0.0
  0
LINE
  5
80
330
1F
100
AcDbEntity
  8
A_NOTIZEN_SYMB
  6
Continuous
 62
     2
100
AcDbLine
 10
19651108.4495177
 20
10654951.7963624
 30
0.0
 11
19651089.2174669
 21
10654951.7963624
 31
0.0
  0
LINE
  5
81
330
1F
100
AcDbEntity
  8
A_NOTIZEN_SYMB
  6
Continuous
 62
     2
100
AcDbLine
 10
19651129.4495177
 20
10654951.7963624
 30
0.0
 11
19651110.2495177
 21
10654951.7963624
 31
0.0
  0
LINE
  5
82
330
1F
100
AcDbEntity
  8
A_NOTIZEN_SYMB
  6
Continuous
 62
     2
100
AcDbLine
 10
19651045.7495177
 20
10654954.7963624
 30
0.0
 11
19651053.5495177
 21
10654954.7963624
 31
0.0
  0
LINE
  5
83
330
1F
100
AcDbEntity
  8
A_NOTIZEN_SYMB
  6
Continuous
 62
     2
100
AcDbLine
 10
19651110.2495177
 20
10654955.1963244
 30
0.0
 11
19651129.4495177
 21
10654955.1963244
 31
0.0
  0
LINE
  5
84
330
1F
100
AcDbEntity
  8
A_NOTIZEN_SYMB
  6
Continuous
 62
     2
100
AcDbLine
 10
19651089.2495177
 20
10654955.1963244
 30
0.0
 11
19651108.4495177
 21
10654955.1963244
 31
0.0
  0
LINE
  5
85
330
1F
100
AcDbEntity
  8
A_NOTIZEN_SYMB
  6
Continuous
 62
     2
100
AcDbLine
 10
19651068.2495177
 20
10654955.1963244
 30
0.0
 11
19651087.4495177
 21
10654955.1963244
 31
0.0
  0
LINE
  5
86
330
1F
100
AcDbEntity
  8
A_NOTIZEN_SYMB
  6
Continuous
 62
     2
100
AcDbLine
 10
19651055.9495177
 20
10654955.1963244
 30
0.0
 11
19651066.0495177
 21
10654955.1963244
 31
0.0
  0
LINE
  5
87
330
1F
100
AcDbEntity
  8
A_NOTIZEN_SYMB
  6
Continuous
 62
     2
100
AcDbLine
 10
19651041.9495177
 20
10654955.7963624
 30
0.0
 11
19651043.4495177
 21
10654955.7963624
 31
0.0
  0
LINE
  5
88
330
1F
100
AcDbEntity
  8
A_NOTIZEN_SYMB
  6
Continuous
 62
     2
100
AcDbLine
 10
19651036.8495177
 20
10654955.7963624
 30
0.0
 11
19651038.4495177
 21
10654955.7963624
 31
0.0
  0
LINE
  5
89
330
1F
100
AcDbEntity
  8
A_NOTIZEN_SYMB
  6
Continuous
 62
     2
100
AcDbLine
 10
19651066.0495177
 20
10654956.3963244
 30
0.0
 11
19651057.6495177
 21
10654956.3963244
 31
0.0
  0
LINE
  5
8A
330
1F
100
AcDbEntity
  8
A_NOTIZEN_SYMB
  6
Continuous
 62
     2
100
AcDbLine
 10
19651133.1495177
 20
10654956.3963244
 30
0.0
 11
19651068.2495177
 21
10654956.3963244
 31
0.0
  0
LINE
  5
8B
330
1F
100
AcDbEntity
  8
A_NOTIZEN_SYMB
  6
Continuous
 62
     2
100
AcDbLine
 10
19651037.4495177
 20
10654957.2963624
 30
0.0
 11
19651034.4495177
 21
10654957.2963624
 31
0.0
  0
LINE
  5
8C
330
1F
100
AcDbEntity
  8
A_NOTIZEN_SYMB
  6
Continuous
 62
     2
100
AcDbLine
 10
19651054.4495177
 20
10654957.2963624
 30
0.0
 11
19651042.9495077
 21
10654957.2963624
 31
0.0
  0
LINE
  5
8D
330
1F
100
AcDbEntity
  8
A_NOTIZEN_SYMB
  6
Continuous
 62
     2
100
AcDbLine
 10
19651057.6495177
 20
10654958.9963624
 30
0.0
 11
19651057.8995177
 21
10654958.9963624
 31
0.0
  0
LINE
  5
8E
330
1F
100
AcDbEntity
  8
A_NOTIZEN_SYMB
  6
Continuous
 62
     2
100
AcDbLine
 10
19651140.4495177
 20
10654955.5446624
 30
0.0
 11
19651136.3495177
 21
10654955.1859624
 31
0.0
  0
LINE
  5
8F
330
1F
100
AcDbEntity
  8
A_NOTIZEN_SYMB
  6
Continuous
 62
     2
100
AcDbLine
 10
19651140.4495177
 20
10654951.5963624
 30
0.0
 11
19651140.4495177
 21
10654955.5446624
 31
0.0
  0
LINE
  5
90
330
1F
100
AcDbEntity
  8
A_NOTIZEN_SYMB
  6
Continuous
 62
     2
100
AcDbLine
 10
19651140.4495177
 20
10654945.2963624
 30
0.0
 11
19651140.4495177
 21
10654946.7963624
 31
0.0
  0
LINE
  5
91
330
1F
100
AcDbEntity
  8
A_NOTIZEN_SYMB
  6
Continuous
 62
     2
100
AcDbLine
 10
19651136.3495177
 20
10654955.1859624
 30
0.0
 11
19651136.3495177
 21
10654990.2963594
 31
0.0
  0
LINE
  5
92
330
1F
100
AcDbEntity
  8
A_NOTIZEN_SYMB
  6
Continuous
 62
     2
100
AcDbLine
 10
19651135.6495177
 20
10654947.7963524
 30
0.0
 11
19651135.6495177
 21
10654947.0963624
 31
0.0
  0
LINE
  5
93
330
1F
100
AcDbEntity
  8
A_NOTIZEN_SYMB
  6
Continuous
 62
     2
100
AcDbLine
 10
19651133.6495177
 20
10654969.8963244
 30
0.0
 11
19651133.6495177
 21
10654956.8963244
 31
0.0
  0
LINE
  5
94
330
1F
100
AcDbEntity
  8
A_NOTIZEN_SYMB
  6
Continuous
 62
     2
100
AcDbLine
 10
19651133.6495177
 20
10654984.8963244
 30
0.0
 11
19651133.6495177
 21
10654971.8963244
 31
0.0
  0
LINE
  5
95
330
1F
100
AcDbEntity
  8
A_NOTIZEN_SYMB
  6
Continuous
 62
     2
100
AcDbLine
 10
19651133.6495177
 20
10654990.0125824
 30
0.0
 11
19651133.6495177
 21
10654986.8963244
 31
0.0
  0
LINE
  5
96
330
1F
100
AcDbEntity
  8
8011$0$8011
  6
Continuous
 62
     2
100
AcDbLine
 10
19650981.4495177
 20
10655026.9963624
 30
0.0
 11
19650988.9571147
 21
10655025.6725704
 31
0.0
  0
LINE
  5
97
330
1F
100
AcDbEntity
  8
8011$0$8011
  6
Continuous
 62
     2
100
AcDbLine
 10
19650989.4495177
 20
10655024.5703204
 30
0.0
 11
19650982.4495177
 21
10655025.8046084
 31
0.0
  0
LINE
  5
98
330
1F
100
AcDbEntity
  8
8011$0$8011
  6
Continuous
 62
     2
100
AcDbLine
 10
19650984.4495177
 20
10655024.7411564
 30
0.0
 11
19650989.4495177
 21
10655023.8595214
 31
0.0
  0
LINE
  5
99
330
1F
100
AcDbEntity
  8
8011$0$8011
  6
Continuous
 62
     2
100
AcDbLine
 10
19650988.9571147
 20
10655022.9309184
 30
0.0
 11
19650985.4495177
 21
10655023.5494024
 31
0.0
  0
LINE
  5
9A
330
1F
100
AcDbEntity
  8
8011$0$8011
  6
Continuous
 62
     2
100
AcDbLine
 10
19650981.4495177
 20
10655018.4963624
 30
0.0
 11
19650988.9571147
 21
10655017.1725704
 31
0.0
  0
LINE
  5
9B
330
1F
100
AcDbEntity
  8
8011$0$8011
  6
Continuous
 62
     2
100
AcDbLine
 10
19650989.4495177
 20
10655016.0703204
 30
0.0
 11
19650982.4495177
 21
10655017.3046084
 31
0.0
  0
LINE
  5
9C
330
1F
100
AcDbEntity
  8
8011$0$8011
  6
Continuous
 62
     2
100
AcDbLine
 10
19650984.4495177
 20
10655016.2411564
 30
0.0
 11
19650989.4495177
 21
10655015.3595214
 31
0.0
  0
LINE
  5
9D
330
1F
100
AcDbEntity
  8
8011$0$8011
  6
Continuous
 62
     2
100
AcDbLine
 10
19650988.9571147
 20
10655014.4309184
 30
0.0
 11
19650985.4495177
 21
10655015.0494024
 31
0.0
  0
LINE
  5
9E
330
1F
100
AcDbEntity
  8
8011$0$8011
  6
Continuous
 62
     2
100
AcDbLine
 10
19650982.4495177
 20
10655015.3407704
 30
0.0
 11
19650984.4495177
 21
10655014.9881164
 31
0.0
  0
LINE
  5
9F
330
1F
100
AcDbEntity
  8
A_NOTIZEN_SYMB
  6
Continuous
 62
     2
100
AcDbLine
 10
19651130.9101887
 20
10655002.9003064
 30
0.0
 11
19651133.6495177
 21
10654990.0125824
 31
0.0
  0
LINE
  5
A0
330
1F
100
AcDbEntity
  8
A_NOTIZEN_SYMB
  6
Continuous
 62
     2
100
AcDbLine
 10
19651128.3595467
 20
10655014.9003164
 30
0.0
 11
19651130.4425717
 21
10655005.1003064
 31
0.0
  0
LINE
  5
A1
330
1F
100
AcDbEntity
  8
8011$0$8011
  6
Continuous
 62
     2
100
AcDbLine
 10
19650989.9495177
 20
10654990.2963624
 30
0.0
 11
19650989.4495177
 21
10654990.7963624
 31
0.0
  0
LINE
  5
A2
330
1F
100
AcDbEntity
  8
A_NOTIZEN_SYMB
  6
Continuous
 62
     2
100
AcDbLine
 10
19651156.1110027
 20
10655006.2963594
 30
0.0
 11
19651157.1110027
 21
10655005.2963594
 31
0.0
  0
LINE
  5
A3
330
1F
100
AcDbEntity
  8
A_NOTIZEN_SYMB
  6
Continuous
 62
     2
100
AcDbLine
 10
19651055.5495177
 20
10654961.6963624
 30
0.0
 11
19651054.4495177
 21
10654961.6963624
 31
0.0
  0
LINE
  5
A4
330
1F
100
AcDbEntity
  8
A_NOTIZEN_SYMB
  6
Continuous
 62
     2
100
AcDbLine
 10
19651060.8495177
 20
10654962.4963624
 30
0.0
 11
19651066.0495177
 21
10654962.4963624
 31
0.0
  0
LINE
  5
A5
330
1F
100
AcDbEntity
  8
A_NOTIZEN_SYMB
  6
Continuous
 62
     2
100
AcDbLine
 10
19651065.4495177
 20
10654965.1963624
 30
0.0
 11
19651059.8495177
 21
10654965.1963624
 31
0.0
  0
LINE
  5
A6
330
1F
100
AcDbEntity
  8
A_NOTIZEN_SYMB
  6
Continuous
 62
     2
100
AcDbLine
 10
19651056.6495177
 20
10654965.6963624
 30
0.0
 11
19651055.5495177
 21
10654965.6963624
 31
0.0
  0
LINE
  5
A7
330
1F
100
AcDbEntity
  8
A_NOTIZEN_SYMB
  6
Continuous
 62
     2
100
AcDbLine
 10
19651059.3495177
 20
10654967.6963624
 30
0.0
 11
19651056.6495177
 21
10654967.6963624
 31
0.0
  0
LINE
  5
A8
330
1F
100
AcDbEntity
  8
A_NOTIZEN_SYMB
  6
Continuous
 62
     2
100
AcDbLine
 10
19651132.1495177
 20
10654970.3963244
 30
0.0
 11
19651133.1495177
 21
10654970.3963244
 31
0.0
  0
LINE
  5
A9
330
1F
100
AcDbEntity
  8
A_NOTIZEN_SYMB
  6
Continuous
 62
     2
100
AcDbLine
 10
19651068.8995177
 20
10654970.7963624
 30
0.0
 11
19651070.3995177
 21
10654970.7963624
 31
0.0
  0
LINE
  5
AA
330
1F
100
AcDbEntity
  8
A_NOTIZEN_SYMB
  6
Continuous
 62
     2
100
AcDbLine
 10
19651133.1495177
 20
10654971.3963244
 30
0.0
 11
19651132.1495177
 21
10654971.3963244
 31
0.0
  0
LINE
  5
AB
330
1F
100
AcDbEntity
  8
A_NOTIZEN_SYMB
  6
Continuous
 62
     2
100
AcDbLine
 10
19651070.3995177
 20
10654972.7963624
 30
0.0
 11
19651069.1995177
 21
10654972.7963624
 31
0.0
  0
LINE
  5
AC
330
1F
100
AcDbEntity
  8
A_NOTIZEN_SYMB
  6
Continuous
 62
     2
100
AcDbLine
 10
19651069.1995177
 20
10654974.7963624
 30
0.0
 11
19651070.3995177
 21
10654974.7963624
 31
0.0
  0
LINE
  5
AD
330
1F
100
AcDbEntity
  8
A_NOTIZEN_SYMB
  6
Continuous
 62
     2
100
AcDbLine
 10
19651132.6495177
 20
10654947.5963624
 30
0.0
 11
19651132.6495177
 21
10654953.2109324
 31
0.0
  0
LINE
  5
AE
330
1F
100
AcDbEntity
  8
A_NOTIZEN_SYMB
  6
Continuous
 62
     2
100
AcDbLine
 10
19651129.9495177
 20
10654950.4963624
 30
0.0
 11
19651129.9495177
 21
10654947.7963624
 31
0.0
  0
LINE
  5
AF
330
1F
100
AcDbEntity
  8
A_NOTIZEN_SYMB
  6
Continuous
 62
     2
100
AcDbLine
 10
19651129.9495177
 20
10654954.6963244
 30
0.0
 11
19651129.9495177
 21
10654952.2963624
 31
0.0
  0
LINE
  5
B0
330
1F
100
AcDbEntity
  8
8011$0$8011
  6
Continuous
 62
     2
100
AcDbLine
 10
19650981.4495177
 20
10655034.7963624
 30
0.0
 11
19651054.5138297
 21
10655034.7963624
 31
0.0
  0
LINE
  5
B1
330
1F
100
AcDbEntity
  8
8011$0$8011
  6
Continuous
 62
     2
100
AcDbLine
 10
19651054.5138297
 20
10655031.7963624
 30
0.0
 11
19651032.1195417
 21
10655031.7963624
 31
0.0
  0
LINE
  5
B2
330
1F
100
AcDbEntity
  8
8011$0$8011
  6
Continuous
 62
     2
100
AcDbLine
 10
19651029.8703927
 20
10655031.7963624
 30
0.0
 11
19651016.7495177
 21
10655031.7963624
 31
0.0
  0
LINE
  5
B3
330
1F
100
AcDbEntity
  8
8011$0$8011
  6
Continuous
 62
     2
100
AcDbLine
 10
19651014.9495177
 20
10655031.7963624
 30
0.0
 11
19650992.6495177
 21
10655031.7963624
 31
0.0
  0
LINE
  5
B4
330
1F
100
AcDbEntity
  8
8011$0$8011
  6
Continuous
 62
     2
100
AcDbLine
 10
19650988.9495177
 20
10655031.7963624
 30
0.0
 11
19650985.4495177
 21
10655031.7963624
 31
0.0
  0
LINE
  5
B5
330
1F
100
AcDbEntity
  8
8011$0$8011
  6
Continuous
 62
     2
100
AcDbLine
 10
19650985.4495177
 20
10655030.7963624
 30
0.0
 11
19650981.4495177
 21
10655030.7963624
 31
0.0
  0
LINE
  5
B6
330
1F
100
AcDbEntity
  8
8011$0$8011
  6
Continuous
 62
     2
100
AcDbLine
 10
19651053.6110167
 20
10655028.2963624
 30
0.0
 11
19651057.0138297
 21
10655028.2963624
 31
0.0
  0
LINE
  5
B7
330
1F
100
AcDbEntity
  8
8011$0$8011
  6
Continuous
 62
     2
100
AcDbLine
 10
19651058.4235057
 20
10655026.2963624
 30
0.0
 11
19651053.6110167
 21
10655026.2963624
 31
0.0
  0
LINE
  5
B8
330
1F
100
AcDbEntity
  8
8011$0$8011
  6
Continuous
 62
     2
100
AcDbLine
 10
19651033.5011597
 20
10655024.2963624
 30
0.0
 11
19651050.6110167
 21
10655024.2963624
 31
0.0
  0
LINE
  5
B9
330
1F
100
AcDbEntity
  8
8011$0$8011
  6
Continuous
 62
     2
100
AcDbLine
 10
19650985.4495177
 20
10655013.7963624
 30
0.0
 11
19650981.8626937
 21
10655014.4288164
 31
0.0
  0
LINE
  5
BA
330
1F
100
AcDbEntity
  8
8011$0$8011
  6
Continuous
 62
     2
100
AcDbLine
 10
19651034.6495177
 20
10654964.0963624
 30
0.0
 11
19651035.1495177
 21
10654963.5963624
 31
0.0
  0
LINE
  5
BB
330
1F
100
AcDbEntity
  8
A_NOTIZEN_SYMB
  6
Continuous
 62
     2
100
AcDbLine
 10
19651070.3995177
 20
10654976.7963624
 30
0.0
 11
19651068.8995177
 21
10654976.7963624
 31
0.0
  0
LINE
  5
BC
330
1F
100
AcDbEntity
  8
A_NOTIZEN_SYMB
  6
Continuous
 62
     2
100
AcDbLine
 10
19651056.6495177
 20
10654979.8963624
 30
0.0
 11
19651059.3495177
 21
10654979.8963624
 31
0.0
  0
LINE
  5
BD
330
1F
100
AcDbEntity
  8
A_NOTIZEN_SYMB
  6
Continuous
 62
     2
100
AcDbLine
 10
19651055.5495177
 20
10654981.8963624
 30
0.0
 11
19651056.6495177
 21
10654981.8963624
 31
0.0
  0
LINE
  5
BE
330
1F
100
AcDbEntity
  8
A_NOTIZEN_SYMB
  6
Continuous
 62
     2
100
AcDbLine
 10
19651059.8495177
 20
10654982.3963624
 30
0.0
 11
19651065.4495177
 21
10654982.3963624
 31
0.0
  0
LINE
  5
BF
330
1F
100
AcDbEntity
  8
A_NOTIZEN_SYMB
  6
Continuous
 62
     2
100
AcDbLine
 10
19651065.6474077
 20
10654985.0963624
 30
0.0
 11
19651060.8495177
 21
10654985.0963624
 31
0.0
  0
LINE
  5
C0
330
1F
100
AcDbEntity
  8
A_NOTIZEN_SYMB
  6
Continuous
 62
     2
100
AcDbLine
 10
19651132.1495177
 20
10654985.3963244
 30
0.0
 11
19651133.1495177
 21
10654985.3963244
 31
0.0
  0
LINE
  5
C1
330
1F
100
AcDbEntity
  8
A_NOTIZEN_SYMB
  6
Continuous
 62
     2
100
AcDbLine
 10
19651054.4495177
 20
10654985.8963624
 30
0.0
 11
19651055.5495177
 21
10654985.8963624
 31
0.0
  0
LINE
  5
C2
330
1F
100
AcDbEntity
  8
A_NOTIZEN_SYMB
  6
Continuous
 62
     2
100
AcDbLine
 10
19651133.1495177
 20
10654986.3963244
 30
0.0
 11
19651132.1495177
 21
10654986.3963244
 31
0.0
  0
LINE
  5
C3
330
1F
100
AcDbEntity
  8
A_NOTIZEN_SYMB
  6
Continuous
 62
     2
100
AcDbLine
 10
19651067.4780167
 20
10654987.8963624
 30
0.0
 11
19651070.1495177
 21
10654987.8963624
 31
0.0
  0
LINE
  5
C4
330
1F
100
AcDbEntity
  8
A_NOTIZEN_SYMB
  6
Continuous
 62
     2
100
AcDbLine
 10
19651057.7495177
 20
10654988.5963624
 30
0.0
 11
19651057.1495177
 21
10654988.5963624
 31
0.0
  0
LINE
  5
C5
330
1F
100
AcDbEntity
  8
A_NOTIZEN_SYMB
  6
Continuous
 62
     2
100
AcDbLine
 10
19651070.1495177
 20
10654988.8963624
 30
0.0
 11
19651066.9982287
 21
10654988.8963624
 31
0.0
  0
LINE
  5
C6
330
1F
100
AcDbEntity
  8
A_NOTIZEN_SYMB
  6
Continuous
 62
     2
100
AcDbLine
 10
19651151.6110027
 20
10655005.2963594
 30
0.0
 11
19651152.6110027
 21
10655006.2963594
 31
0.0
  0
LINE
  5
C7
330
1F
100
AcDbEntity
  8
8011$0$8011
  6
Continuous
 62
     2
100
AcDbLine
 10
19650982.4495177
 20
10655023.2963624
 30
0.0
 11
19650984.4495177
 21
10655023.2963624
 31
0.0
  0
LINE
  5
C8
330
1F
100
AcDbEntity
  8
8011$0$8011
  6
Continuous
 62
     2
100
AcDbLine
 10
19651053.1110167
 20
10655023.2963624
 30
0.0
 11
19651054.6110167
 21
10655023.2963624
 31
0.0
  0
LINE
  5
C9
330
1F
100
AcDbEntity
  8
8011$0$8011
  6
Continuous
 62
     2
100
AcDbLine
 10
19651058.1110167
 20
10655023.2963624
 30
0.0
 11
19651059.6110167
 21
10655023.2963624
 31
0.0
  0
LINE
  5
CA
330
1F
100
AcDbEntity
  8
A_NOTIZEN_SYMB
  6
Continuous
 62
     2
100
AcDbLine
 10
19651058.6110167
 20
10655023.2963624
 30
0.0
 11
19651058.1110167
 21
10655023.2963624
 31
0.0
  0
LINE
  5
CB
330
1F
100
AcDbEntity
  8
0
  6
Continuous
 62
     2
100
AcDbLine
 10
19651058.6110167
 20
10655023.2963624
 30
0.0
 11
19651058.1110167
 21
10655023.2963624
 31
0.0
  0
LINE
  5
CC
330
1F
100
AcDbEntity
  8
A_NOTIZEN_SYMB
  6
Continuous
 62
     2
100
AcDbLine
 10
19651054.6110167
 20
10655023.2963624
 30
0.0
 11
19651054.1110167
 21
10655023.2963624
 31
0.0
  0
LINE
  5
CD
330
1F
100
AcDbEntity
  8
8011$0$8011
  6
Continuous
 62
     2
100
AcDbLine
 10
19650985.4495177
 20
10655022.2963624
 30
0.0
 11
19650981.4495177
 21
10655022.2963624
 31
0.0
  0
LINE
  5
CE
330
1F
100
AcDbEntity
  8
A_NOTIZEN_SYMB
  6
Continuous
 62
     2
100
AcDbLine
 10
19651059.1110167
 20
10655021.7963624
 30
0.0
 11
19651061.9209897
 21
10655021.7963624
 31
0.0
  0
LINE
  5
CF
330
1F
100
AcDbEntity
  8
8011$0$8011
  6
Continuous
 62
     2
100
AcDbLine
 10
19651061.9495177
 20
10655021.7963624
 30
0.0
 11
19651059.1110167
 21
10655021.7963624
 31
0.0
  0
LINE
  5
D0
330
1F
100
AcDbEntity
  8
8011$0$8011
  6
Continuous
 62
     2
100
AcDbLine
 10
19651053.6110267
 20
10655021.7963624
 30
0.0
 11
19651035.1611697
 21
10655021.7963624
 31
0.0
  0
LINE
  5
D1
330
1F
100
AcDbEntity
  8
8011$0$8011
  6
Continuous
 62
     2
100
AcDbLine
 10
19650992.6495177
 20
10655020.9963624
 30
0.0
 11
19651014.9495177
 21
10655020.9963624
 31
0.0
  0
LINE
  5
D2
330
1F
100
AcDbEntity
  8
8011$0$8011
  6
Continuous
 62
     2
100
AcDbLine
 10
19651016.7495177
 20
10655020.9963624
 30
0.0
 11
19651031.9534467
 21
10655020.9963624
 31
0.0
  0
LINE
  5
D3
330
1F
100
AcDbEntity
  8
8011$0$8011
  6
Continuous
 62
     2
100
AcDbLine
 10
19651032.4210707
 20
10655019.7963624
 30
0.0
 11
19651012.6495177
 21
10655019.7963624
 31
0.0
  0
LINE
  5
D4
330
1F
100
AcDbEntity
  8
8011$0$8011
  6
Continuous
 62
     2
100
AcDbLine
 10
19651010.6495177
 20
10655019.7963624
 30
0.0
 11
19650992.6495177
 21
10655019.7963624
 31
0.0
  0
LINE
  5
D5
330
1F
100
AcDbEntity
  8
A_NOTIZEN_SYMB
  6
Continuous
 62
     2
100
AcDbLine
 10
19651109.7495177
 20
10655004.9963524
 30
0.0
 11
19651109.7495177
 21
10655014.7963624
 31
0.0
  0
LINE
  5
D6
330
1F
100
AcDbEntity
  8
A_NOTIZEN_SYMB
  6
Continuous
 62
     2
100
AcDbLine
 10
19651109.7495177
 20
10654952.2963624
 30
0.0
 11
19651109.7495177
 21
10654954.6963244
 31
0.0
  0
LINE
  5
D7
330
1F
100
AcDbEntity
  8
A_NOTIZEN_SYMB
  6
Continuous
 62
     2
100
AcDbLine
 10
19651109.7495177
 20
10654947.7963624
 30
0.0
 11
19651109.7495177
 21
10654950.4963624
 31
0.0
  0
LINE
  5
D8
330
1F
100
AcDbEntity
  8
A_NOTIZEN_SYMB
  6
Continuous
 62
     2
100
AcDbLine
 10
19651108.9495177
 20
10654950.4963624
 30
0.0
 11
19651108.9495177
 21
10654947.7963624
 31
0.0
  0
LINE
  5
D9
330
1F
100
AcDbEntity
  8
A_NOTIZEN_SYMB
  6
Continuous
 62
     2
100
AcDbLine
 10
19651108.9495177
 20
10654954.6963244
 30
0.0
 11
19651108.9495177
 21
10654952.2963624
 31
0.0
  0
LINE
  5
DA
330
1F
100
AcDbEntity
  8
A_NOTIZEN_SYMB
  6
Continuous
 62
     2
100
AcDbLine
 10
19651108.9495177
 20
10655014.7963624
 30
0.0
 11
19651108.9495177
 21
10655004.9963524
 31
0.0
  0
LINE
  5
DB
330
1F
100
AcDbEntity
  8
8011$0$8011
  6
Continuous
 62
     2
100
AcDbLine
 10
19650989.4495177
 20
10655031.2963624
 30
0.0
 11
19650988.9495177
 21
10655031.7963624
 31
0.0
  0
LINE
  5
DC
330
1F
100
AcDbEntity
  8
8011$0$8011
  6
Continuous
 62
     2
100
AcDbLine
 10
19651037.8495177
 20
10654990.2963624
 30
0.0
 11
19651038.3495177
 21
10654989.7963624
 31
0.0
  0
LINE
  5
DD
330
1F
100
AcDbEntity
  8
8011$0$8011
  6
Continuous
 62
     2
100
AcDbLine
 10
19650989.4495177
 20
10655013.8440944
 30
0.0
 11
19650988.9571147
 21
10655014.4309184
 31
0.0
  0
LINE
  5
DE
330
1F
100
AcDbEntity
  8
8011$0$8011
  6
Continuous
 62
     2
100
AcDbLine
 10
19650989.4495177
 20
10655022.3440944
 30
0.0
 11
19650988.9571147
 21
10655022.9309184
 31
0.0
  0
LINE
  5
DF
330
1F
100
AcDbEntity
  8
A_NOTIZEN_SYMB
  6
Continuous
 62
     2
100
AcDbLine
 10
19651063.7836507
 20
10655003.2963524
 30
0.0
 11
19651130.4211147
 21
10655003.2963524
 31
0.0
  0
LINE
  5
E0
330
1F
100
AcDbEntity
  8
A_NOTIZEN_SYMB
  6
Continuous
 62
     2
100
AcDbLine
 10
19651060.6004747
 20
10655003.2963524
 30
0.0
 11
19651061.5212317
 21
10655003.2963524
 31
0.0
  0
LINE
  5
E1
330
1F
100
AcDbEntity
  8
A_NOTIZEN_SYMB
  6
Continuous
 62
     2
100
AcDbLine
 10
19651056.4495177
 20
10655004.2963624
 30
0.0
 11
19651057.6478187
 21
10655004.2963624
 31
0.0
  0
LINE
  5
E2
330
1F
100
AcDbEntity
  8
A_NOTIZEN_SYMB
  6
Continuous
 62
     2
100
AcDbLine
 10
19651087.4495177
 20
10655004.4963524
 30
0.0
 11
19651063.6495177
 21
10655004.4963524
 31
0.0
  0
LINE
  5
E3
330
1F
100
AcDbEntity
  8
A_NOTIZEN_SYMB
  6
Continuous
 62
     2
100
AcDbLine
 10
19651108.4495177
 20
10655004.4963524
 30
0.0
 11
19651089.2495177
 21
10655004.4963524
 31
0.0
  0
LINE
  5
E4
330
1F
100
AcDbEntity
  8
A_NOTIZEN_SYMB
  6
Continuous
 62
     2
100
AcDbLine
 10
19651129.9534977
 20
10655004.4963524
 30
0.0
 11
19651110.2495177
 21
10655004.4963524
 31
0.0
  0
LINE
  5
E5
330
1F
100
AcDbEntity
  8
8011$0$8011
  6
Continuous
 62
     2
100
AcDbLine
 10
19651042.4495177
 20
10654968.0963624
 30
0.0
 11
19651036.9491617
 21
10654969.0662234
 31
0.0
  0
LINE
  5
E6
330
1F
100
AcDbEntity
  8
A_NOTIZEN_SYMB
  6
Continuous
 62
     2
100
AcDbLine
 10
19651157.1110027
 20
10655005.2963594
 30
0.0
 11
19651159.9495187
 21
10655005.2963594
 31
0.0
  0
LINE
  5
E7
330
1F
100
AcDbEntity
  8
A_NOTIZEN_SYMB
  6
Continuous
 62
     2
100
AcDbLine
 10
19651133.1612177
 20
10655005.2963594
 30
0.0
 11
19651151.6110027
 21
10655005.2963594
 31
0.0
  0
LINE
  5
E8
330
1F
100
AcDbEntity
  8
A_NOTIZEN_SYMB
  6
Continuous
 62
     2
100
AcDbLine
 10
19651060.4495177
 20
10655005.7963624
 30
0.0
 11
19651056.4495177
 21
10655005.7963624
 31
0.0
  0
LINE
  5
E9
330
1F
100
AcDbEntity
  8
A_NOTIZEN_SYMB
  6
Continuous
 62
     2
100
AcDbLine
 10
19651152.6110027
 20
10655006.7963594
 30
0.0
 11
19651151.1110027
 21
10655006.7963594
 31
0.0
  0
LINE
  5
EA
330
1F
100
AcDbEntity
  8
A_NOTIZEN_SYMB
  6
Continuous
 62
     2
100
AcDbLine
 10
19651157.6110027
 20
10655006.7963594
 30
0.0
 11
19651156.1110027
 21
10655006.7963594
 31
0.0
  0
LINE
  5
EB
330
1F
100
AcDbEntity
  8
A_NOTIZEN_SYMB
  6
Continuous
 62
     2
100
AcDbLine
 10
19651148.8110027
 20
10655007.7963594
 30
0.0
 11
19651131.5012177
 21
10655007.7963594
 31
0.0
  0
LINE
  5
EC
330
1F
100
AcDbEntity
  8
A_NOTIZEN_SYMB
  6
Continuous
 62
     2
100
AcDbLine
 10
19651151.6110027
 20
10655009.7963594
 30
0.0
 11
19651156.4234917
 21
10655009.7963594
 31
0.0
  0
LINE
  5
ED
330
1F
100
AcDbEntity
  8
A_NOTIZEN_SYMB
  6
Continuous
 62
     2
100
AcDbLine
 10
19651155.0058027
 20
10655011.5963594
 30
0.0
 11
19651151.6110027
 21
10655011.5963594
 31
0.0
  0
LINE
  5
EE
330
1F
100
AcDbEntity
  8
A_NOTIZEN_SYMB
  6
Continuous
 62
     2
100
AcDbLine
 10
19651130.1196207
 20
10655015.2963624
 30
0.0
 11
19651152.5138107
 21
10655015.2963624
 31
0.0
  0
LINE
  5
EF
330
1F
100
AcDbEntity
  8
A_NOTIZEN_SYMB
  6
Continuous
 62
     2
100
AcDbLine
 10
19651110.2495177
 20
10655015.2963624
 30
0.0
 11
19651127.8704727
 21
10655015.2963624
 31
0.0
  0
LINE
  5
F0
330
1F
100
AcDbEntity
  8
A_NOTIZEN_SYMB
  6
Continuous
 62
     2
100
AcDbLine
 10
19651089.2495177
 20
10655015.2963624
 30
0.0
 11
19651108.4495177
 21
10655015.2963624
 31
0.0
  0
LINE
  5
F1
330
1F
100
AcDbEntity
  8
A_NOTIZEN_SYMB
  6
Continuous
 62
     2
100
AcDbLine
 10
19651063.6495177
 20
10655015.2963624
 30
0.0
 11
19651087.4495177
 21
10655015.2963624
 31
0.0
  0
LINE
  5
F2
330
1F
100
AcDbEntity
  8
A_NOTIZEN_SYMB
  6
Continuous
 62
     2
100
AcDbLine
 10
19651055.4495177
 20
10655015.2963624
 30
0.0
 11
19651060.4495177
 21
10655015.2963624
 31
0.0
  0
LINE
  5
F3
330
1F
100
AcDbEntity
  8
A_NOTIZEN_SYMB
  6
Continuous
 62
     2
100
AcDbLine
 10
19651152.5138837
 20
10655018.2963624
 30
0.0
 11
19651055.4495177
 21
10655018.2963624
 31
0.0
  0
LINE
  5
F4
330
1F
100
AcDbEntity
  8
A_NOTIZEN_SYMB
  6
Continuous
 62
     2
100
AcDbLine
 10
19651088.7495177
 20
10655004.9963524
 30
0.0
 11
19651088.7495177
 21
10655014.7963624
 31
0.0
  0
LINE
  5
F5
330
1F
100
AcDbEntity
  8
A_NOTIZEN_SYMB
  6
Continuous
 62
     2
100
AcDbLine
 10
19651088.7495177
 20
10654952.2963624
 30
0.0
 11
19651088.7495177
 21
10654954.6963244
 31
0.0
  0
LINE
  5
F6
330
1F
100
AcDbEntity
  8
A_NOTIZEN_SYMB
  6
Continuous
 62
     2
100
AcDbLine
 10
19651088.7495177
 20
10654947.7963624
 30
0.0
 11
19651088.7495177
 21
10654949.5261918
 31
0.0
  0
LINE
  5
F7
330
1F
100
AcDbEntity
  8
A_NOTIZEN_SYMB
  6
Continuous
 62
     2
100
AcDbLine
 10
19651087.9495177
 20
10654954.6963244
 30
0.0
 11
19651087.9495177
 21
10654952.52841322
 31
0.0
  0
LINE
  5
F8
330
1F
100
AcDbEntity
  8
A_NOTIZEN_SYMB
  6
Continuous
 62
     2
100
AcDbLine
 10
19651087.9495177
 20
10655014.7963624
 30
0.0
 11
19651087.9495177
 21
10655004.9963524
 31
0.0
  0
LINE
  5
F9
330
1F
100
AcDbEntity
  8
A_NOTIZEN_SYMB
  6
Continuous
 62
     2
100
AcDbLine
 10
19651067.7495177
 20
10654984.1212224
 30
0.0
 11
19651066.9918117
 21
10654987.2797244
 31
0.0
  0
LINE
  5
FA
330
1F
100
AcDbEntity
  8
A_NOTIZEN_SYMB
  6
Continuous
 62
     2
100
AcDbLine
 10
19651066.5120237
 20
10654989.2797244
 30
0.0
 11
19651063.2974457
 21
10655002.6797144
 31
0.0
  0
LINE
  5
FB
330
1F
100
AcDbEntity
  8
A_NOTIZEN_SYMB
  6
Continuous
 62
     2
100
AcDbLine
 10
19651062.0074377
 20
10655002.9129904
 30
0.0
 11
19651066.1336127
 21
10654985.7130004
 31
0.0
  0
LINE
  5
FC
330
1F
100
AcDbEntity
  8
A_NOTIZEN_SYMB
  6
Continuous
 62
     2
100
AcDbLine
 10
19651066.4495177
 20
10654973.7963624
 30
0.0
 11
19651065.9495177
 21
10654973.2963624
 31
0.0
  0
LINE
  5
FD
330
1F
100
AcDbEntity
  8
A_NOTIZEN_SYMB
  6
Continuous
 62
     2
100
AcDbLine
 10
19651042.9495077
 20
10654957.2963624
 30
0.0
 11
19651041.9495177
 21
10654956.2963624
 31
0.0
  0
LINE
  5
FE
330
1F
100
AcDbEntity
  8
A_NOTIZEN_SYMB
  6
Continuous
 62
     2
100
AcDbLine
 10
19651070.6495177
 20
10654975.0463624
 30
0.0
 11
19651070.6495177
 21
10654976.5463624
 31
0.0
  0
LINE
  5
FF
330
1F
100
AcDbEntity
  8
A_NOTIZEN_SYMB
  6
Continuous
 62
     2
100
AcDbLine
 10
19651070.6495177
 20
10654971.0463624
 30
0.0
 11
19651070.6495177
 21
10654972.5463624
 31
0.0
  0
LINE
  5
100
330
1F
100
AcDbEntity
  8
8011$0$8011
  6
Continuous
 62
     2
100
AcDbLine
 10
19650992.6495177
 20
10654975.7963624
 30
0.0
 11
19651010.6495177
 21
10654975.7963624
 31
0.0
  0
LINE
  5
101
330
1F
100
AcDbEntity
  8
8011$0$8011
  6
Continuous
 62
     2
100
AcDbLine
 10
19651012.6495177
 20
10654975.7963624
 30
0.0
 11
19651012.7695177
 21
10654975.7963624
 31
0.0
  0
LINE
  5
102
330
1F
100
AcDbEntity
  8
8011$0$8011
  6
Continuous
 62
     2
100
AcDbLine
 10
19651027.0495177
 20
10654975.7963624
 30
0.0
 11
19651035.1495177
 21
10654975.7963624
 31
0.0
  0
LINE
  5
103
330
1F
100
AcDbEntity
  8
8011$0$8011
  6
Continuous
 62
     2
100
AcDbLine
 10
19651035.1495177
 20
10654974.5963624
 30
0.0
 11
19651026.9495177
 21
10654974.5963624
 31
0.0
  0
LINE
  5
104
330
1F
100
AcDbEntity
  8
8011$0$8011
  6
Continuous
 62
     2
100
AcDbLine
 10
19651025.1495177
 20
10654974.5963624
 30
0.0
 11
19651019.0995177
 21
10654974.5963624
 31
0.0
  0
LINE
  5
105
330
1F
100
AcDbEntity
  8
8011$0$8011
  6
Continuous
 62
     2
100
AcDbLine
 10
19651007.9995177
 20
10654974.5963624
 30
0.0
 11
19650992.6495177
 21
10654974.5963624
 31
0.0
  0
LINE
  5
106
330
1F
100
AcDbEntity
  8
A_NOTIZEN_SYMB
  6
Continuous
 62
     2
100
AcDbLine
 10
19651068.9495177
 20
10654973.0463624
 30
0.0
 11
19651068.9495177
 21
10654974.5463624
 31
0.0
  0
LINE
  5
107
330
1F
100
AcDbEntity
  8
A_NOTIZEN_SYMB
  6
Continuous
 62
     2
100
AcDbLine
 10
19651068.6495177
 20
10654977.0463624
 30
0.0
 11
19651068.6495177
 21
10654981.8963624
 31
0.0
  0
LINE
  5
108
330
1F
100
AcDbEntity
  8
A_NOTIZEN_SYMB
  6
Continuous
 62
     2
100
AcDbLine
 10
19651068.6495177
 20
10654965.6963624
 30
0.0
 11
19651068.6495177
 21
10654970.5463624
 31
0.0
  0
LINE
  5
109
330
1F
100
AcDbEntity
  8
A_NOTIZEN_SYMB
  6
Continuous
 62
     2
100
AcDbLine
 10
19651067.7495177
 20
10654956.8963244
 30
0.0
 11
19651067.7495177
 21
10654963.4715024
 31
0.0
  0
LINE
  5
10A
330
1F
100
AcDbEntity
  8
A_NOTIZEN_SYMB
  6
Continuous
 62
     2
100
AcDbLine
 10
19651066.5495177
 20
10654954.6963244
 30
0.0
 11
19651066.5495177
 21
10654953.9463624
 31
0.0
  0
LINE
  5
10B
330
1F
100
AcDbEntity
  8
A_NOTIZEN_SYMB
  6
Continuous
 62
     2
100
AcDbLine
 10
19651066.5495177
 20
10654961.9963624
 30
0.0
 11
19651066.5495177
 21
10654956.8963244
 31
0.0
  0
LINE
  5
10C
330
1F
100
AcDbEntity
  8
A_NOTIZEN_SYMB
  6
Continuous
 62
     2
100
AcDbLine
 10
19651065.9495177
 20
10654973.2963624
 30
0.0
 11
19651065.9495177
 21
10654965.6963624
 31
0.0
  0
LINE
  5
10D
330
1F
100
AcDbEntity
  8
A_NOTIZEN_SYMB
  6
Continuous
 62
     2
100
AcDbLine
 10
19651065.9495177
 20
10654981.8963624
 30
0.0
 11
19651065.9495177
 21
10654974.2963624
 31
0.0
  0
LINE
  5
10E
330
1F
100
AcDbEntity
  8
8011$0$8011
  6
Continuous
 62
     2
100
AcDbLine
 10
19650992.6495177
 20
10654970.5963624
 30
0.0
 11
19651007.9995177
 21
10654970.5963624
 31
0.0
  0
LINE
  5
10F
330
1F
100
AcDbEntity
  8
8011$0$8011
  6
Continuous
 62
     2
100
AcDbLine
 10
19651009.7995177
 20
10654970.5963624
 30
0.0
 11
19651012.7695177
 21
10654970.5963624
 31
0.0
  0
LINE
  5
110
330
1F
100
AcDbEntity
  8
8011$0$8011
  6
Continuous
 62
     2
100
AcDbLine
 10
19651026.9495177
 20
10654970.5963624
 30
0.0
 11
19651031.7550407
 21
10654970.5963624
 31
0.0
  0
LINE
  5
111
330
1F
100
AcDbEntity
  8
8011$0$8011
  6
Continuous
 62
     2
100
AcDbLine
 10
19651031.4495177
 20
10654969.7963624
 30
0.0
 11
19651026.9495177
 21
10654969.7963624
 31
0.0
  0
LINE
  5
112
330
1F
100
AcDbEntity
  8
8011$0$8011
  6
Continuous
 62
     2
100
AcDbLine
 10
19651025.1495177
 20
10654969.7963624
 30
0.0
 11
19651019.0995177
 21
10654969.7963624
 31
0.0
  0
LINE
  5
113
330
1F
100
AcDbEntity
  8
8011$0$8011
  6
Continuous
 62
     2
100
AcDbLine
 10
19651007.9995177
 20
10654969.7963624
 30
0.0
 11
19650994.1590637
 21
10654969.7963624
 31
0.0
  0
LINE
  5
114
330
1F
100
AcDbEntity
  8
8011$0$8011
  6
Continuous
 62
     2
100
AcDbLine
 10
19650993.5590637
 20
10654969.7963624
 30
0.0
 11
19650992.6495177
 21
10654969.7963624
 31
0.0
  0
LINE
  5
115
330
1F
100
AcDbEntity
  8
A_NOTIZEN_SYMB
  6
Continuous
 62
     2
100
AcDbLine
 10
19651063.1495177
 20
10655007.7248014
 30
0.0
 11
19651063.1495177
 21
10655014.7963624
 31
0.0
  0
LINE
  5
116
330
1F
100
AcDbEntity
  8
A_NOTIZEN_SYMB
  6
Continuous
 62
     2
100
AcDbLine
 10
19651063.1495177
 20
10655004.9963524
 30
0.0
 11
19651063.1495177
 21
10655007.1248014
 31
0.0
  0
LINE
  5
117
330
1F
100
AcDbEntity
  8
A_NOTIZEN_SYMB
  6
Continuous
 62
     2
100
AcDbLine
 10
19651060.4495177
 20
10655015.2963624
 30
0.0
 11
19651060.4495177
 21
10655005.7963624
 31
0.0
  0
LINE
  5
118
330
1F
100
AcDbEntity
  8
8011$0$8011
  6
Continuous
 62
     2
100
AcDbLine
 10
19650981.4495177
 20
10654964.7963624
 30
0.0
 11
19650985.4495177
 21
10654964.7963624
 31
0.0
  0
LINE
  5
119
330
1F
100
AcDbEntity
  8
A_NOTIZEN_SYMB
  6
Continuous
 62
     2
100
AcDbLine
 10
19651058.1110167
 20
10655022.7963624
 30
0.0
 11
19651059.1110167
 21
10655021.7963624
 31
0.0
  0
LINE
  5
11A
330
1F
100
AcDbEntity
  8
8011$0$8011
  6
Continuous
 62
     2
100
AcDbLine
 10
19651059.1110167
 20
10655021.7963624
 30
0.0
 11
19651058.1110167
 21
10655022.7963624
 31
0.0
  0
LINE
  5
11B
330
1F
100
AcDbEntity
  8
8011$0$8011
  6
Continuous
 62
     2
100
AcDbLine
 10
19650988.9571147
 20
10655025.6725704
 30
0.0
 11
19650989.4495177
 21
10655026.0857464
 31
0.0
  0
LINE
  5
11C
330
1F
100
AcDbEntity
  8
A_NOTIZEN_SYMB
  6
Continuous
 62
     2
100
AcDbLine
 10
19651057.1495177
 20
10654988.9654734
 30
0.0
 11
19651060.1114007
 21
10655002.9003064
 31
0.0
  0
LINE
  5
11D
330
1F
100
AcDbEntity
  8
A_NOTIZEN_SYMB
  6
Continuous
 62
     2
100
AcDbLine
 10
19651057.6478187
 20
10655004.2963624
 30
0.0
 11
19651054.4495177
 21
10654989.2492494
 31
0.0
  0
LINE
  5
11E
330
1F
100
AcDbEntity
  8
8011$0$8011
  6
Continuous
 62
     2
100
AcDbLine
 10
19650981.8626937
 20
10654972.6639084
 30
0.0
 11
19650985.4495177
 21
10654973.2963624
 31
0.0
  0
LINE
  5
11F
330
1F
100
AcDbEntity
  8
8011$0$8011
  6
Continuous
 62
     2
100
AcDbLine
 10
19650984.4495177
 20
10654972.1046084
 30
0.0
 11
19650982.4495177
 21
10654971.7519544
 31
0.0
  0
LINE
  5
120
330
1F
100
AcDbEntity
  8
8011$0$8011
  6
Continuous
 62
     2
100
AcDbLine
 10
19650985.4495177
 20
10654972.0433224
 30
0.0
 11
19650988.9571147
 21
10654972.6618064
 31
0.0
  0
LINE
  5
121
330
1F
100
AcDbEntity
  8
8011$0$8011
  6
Continuous
 62
     2
100
AcDbLine
 10
19650989.4495177
 20
10654971.7332034
 30
0.0
 11
19650984.4495177
 21
10654970.8515684
 31
0.0
  0
LINE
  5
122
330
1F
100
AcDbEntity
  8
8011$0$8011
  6
Continuous
 62
     2
100
AcDbLine
 10
19651038.3495177
 20
10654971.6876594
 30
0.0
 11
19651042.4495177
 21
10654972.0463624
 31
0.0
  0
LINE
  5
123
330
1F
100
AcDbEntity
  8
A_NOTIZEN_SYMB
  6
Continuous
 62
     2
100
AcDbLine
 10
19651059.3495177
 20
10654979.8963624
 30
0.0
 11
19651059.3495177
 21
10654981.8963624
 31
0.0
  0
LINE
  5
124
330
1F
100
AcDbEntity
  8
A_NOTIZEN_SYMB
  6
Continuous
 62
     2
100
AcDbLine
 10
19651059.3495177
 20
10654965.6963624
 30
0.0
 11
19651059.3495177
 21
10654967.6963624
 31
0.0
  0
LINE
  5
125
330
1F
100
AcDbEntity
  8
8011$0$8011
  6
Continuous
 62
     2
100
AcDbLine
 10
19651037.6495177
 20
10654964.2963624
 30
0.0
 11
19651040.6495177
 21
10654964.2963624
 31
0.0
  0
LINE
  5
126
330
1F
100
AcDbEntity
  8
8011$0$8011
  6
Continuous
 62
     2
100
AcDbLine
 10
19650985.4495177
 20
10654963.7963624
 30
0.0
 11
19650988.9495177
 21
10654963.7963624
 31
0.0
  0
LINE
  5
127
330
1F
100
AcDbEntity
  8
8011$0$8011
  6
Continuous
 62
     2
100
AcDbLine
 10
19650992.6495177
 20
10654963.7963624
 30
0.0
 11
19651007.9995177
 21
10654963.7963624
 31
0.0
  0
LINE
  5
128
330
1F
100
AcDbEntity
  8
8011$0$8011
  6
Continuous
 62
     2
100
AcDbLine
 10
19651009.7995177
 20
10654963.7963624
 30
0.0
 11
19651012.7695177
 21
10654963.7963624
 31
0.0
  0
LINE
  5
129
330
1F
100
AcDbEntity
  8
8011$0$8011
  6
Continuous
 62
     2
100
AcDbLine
 10
19651026.9495177
 20
10654963.7963624
 30
0.0
 11
19651031.4495177
 21
10654963.7963624
 31
0.0
  0
LINE
  5
12A
330
1F
100
AcDbEntity
  8
A_NOTIZEN_SYMB
  6
Continuous
 62
     2
100
AcDbLine
 10
19651058.3995177
 20
10654959.4963624
 30
0.0
 11
19651058.3995177
 21
10654962.5519224
 31
0.0
  0
LINE
  5
12B
330
1F
100
AcDbEntity
  8
8011$0$8011
  6
Continuous
 62
     2
100
AcDbLine
 10
19651035.1495177
 20
10654963.5963624
 30
0.0
 11
19651037.6495177
 21
10654963.5963624
 31
0.0
  0
LINE
  5
12C
330
1F
100
AcDbEntity
  8
A_NOTIZEN_SYMB
  6
Continuous
 62
     2
100
AcDbLine
 10
19651058.2495177
 20
10654984.9426714
 30
0.0
 11
19651058.2495177
 21
10654988.0963624
 31
0.0
  0
LINE
  5
12D
330
1F
100
AcDbEntity
  8
A_NOTIZEN_SYMB
  6
Continuous
 62
     2
100
AcDbLine
 10
19651057.1495177
 20
10654988.5963624
 30
0.0
 11
19651057.1495177
 21
10654988.9654734
 31
0.0
  0
LINE
  5
12E
330
1F
100
AcDbEntity
  8
A_NOTIZEN_SYMB
  6
Continuous
 62
     2
100
AcDbLine
 10
19651057.1495177
 20
10654956.8963244
 30
0.0
 11
19651057.1495177
 21
10654958.4963624
 31
0.0
  0
LINE
  5
12F
330
1F
100
AcDbEntity
  8
A_NOTIZEN_SYMB
  6
Continuous
 62
     2
100
AcDbLine
 10
19651056.6495177
 20
10654967.6963624
 30
0.0
 11
19651056.6495177
 21
10654965.6963624
 31
0.0
  0
LINE
  5
130
330
1F
100
AcDbEntity
  8
A_NOTIZEN_SYMB
  6
Continuous
 62
     2
100
AcDbLine
 10
19651056.6495177
 20
10654981.8963624
 30
0.0
 11
19651056.6495177
 21
10654979.8963624
 31
0.0
  0
LINE
  5
131
330
1F
100
AcDbEntity
  8
A_NOTIZEN_SYMB
  6
Continuous
 62
     2
100
AcDbLine
 10
19651056.4495177
 20
10655005.7963624
 30
0.0
 11
19651056.4495177
 21
10655004.2963624
 31
0.0
  0
LINE
  5
132
330
1F
100
AcDbEntity
  8
8011$0$8011
  6
Continuous
 62
     2
100
AcDbLine
 10
19651041.4495177
 20
10654960.7963624
 30
0.0
 11
19651004.4495177
 21
10654960.7963624
 31
0.0
  0
LINE
  5
133
330
1F
100
AcDbEntity
  8
A_NOTIZEN_SYMB
  6
Continuous
 62
     2
100
AcDbLine
 10
19651055.5495177
 20
10654965.6963624
 30
0.0
 11
19651055.5495177
 21
10654961.6963624
 31
0.0
  0
LINE
  5
134
330
1F
100
AcDbEntity
  8
A_NOTIZEN_SYMB
  6
Continuous
 62
     2
100
AcDbLine
 10
19651055.5495177
 20
10654985.8963624
 30
0.0
 11
19651055.5495177
 21
10654981.8963624
 31
0.0
  0
LINE
  5
135
330
1F
100
AcDbEntity
  8
A_NOTIZEN_SYMB
  6
Continuous
 62
     2
100
AcDbLine
 10
19651055.4495177
 20
10655018.2963624
 30
0.0
 11
19651055.4495177
 21
10655015.2963624
 31
0.0
  0
LINE
  5
136
330
1F
100
AcDbEntity
  8
A_NOTIZEN_SYMB
  6
Continuous
 62
     2
100
AcDbLine
 10
19651054.4495177
 20
10654961.6963624
 30
0.0
 11
19651054.4495177
 21
10654957.2963624
 31
0.0
  0
LINE
  5
137
330
1F
100
AcDbEntity
  8
A_NOTIZEN_SYMB
  6
Continuous
 62
     2
100
AcDbLine
 10
19651054.4495177
 20
10654989.2492494
 30
0.0
 11
19651054.4495177
 21
10654985.8963624
 31
0.0
  0
LINE
  5
138
330
1F
100
AcDbEntity
  8
8011$0$8011
  6
Continuous
 62
     2
100
AcDbLine
 10
19650981.4495177
 20
10654960.7963624
 30
0.0
 11
19650981.4495177
 21
10654964.7963624
 31
0.0
  0
LINE
  5
139
330
1F
100
AcDbEntity
  8
8011$0$8011
  6
Continuous
 62
     2
100
AcDbLine
 10
19650981.4495177
 20
10654968.5963624
 30
0.0
 11
19650981.4495177
 21
10654972.1715044
 31
0.0
  0
LINE
  5
13A
330
1F
100
AcDbEntity
  8
8011$0$8011
  6
Continuous
 62
     2
100
AcDbLine
 10
19650981.4495177
 20
10655014.9212204
 30
0.0
 11
19650981.4495177
 21
10655018.4963624
 31
0.0
  0
LINE
  5
13B
330
1F
100
AcDbEntity
  8
8011$0$8011
  6
Continuous
 62
     2
100
AcDbLine
 10
19650981.4495177
 20
10655022.2963624
 30
0.0
 11
19650981.4495177
 21
10655026.9963624
 31
0.0
  0
LINE
  5
13C
330
1F
100
AcDbEntity
  8
8011$0$8011
  6
Continuous
 62
     2
100
AcDbLine
 10
19650981.4495177
 20
10655030.7963624
 30
0.0
 11
19650981.4495177
 21
10655034.7963624
 31
0.0
  0
LINE
  5
13D
330
1F
100
AcDbEntity
  8
8011$0$8011
  6
Continuous
 62
     2
100
AcDbLine
 10
19650982.4495177
 20
10655025.8046084
 30
0.0
 11
19650982.4495177
 21
10655023.2963624
 31
0.0
  0
LINE
  5
13E
330
1F
100
AcDbEntity
  8
8011$0$8011
  6
Continuous
 62
     2
100
AcDbLine
 10
19650982.4495177
 20
10655017.3046084
 30
0.0
 11
19650982.4495177
 21
10655015.3407704
 31
0.0
  0
LINE
  5
13F
330
1F
100
AcDbEntity
  8
8011$0$8011
  6
Continuous
 62
     2
100
AcDbLine
 10
19650982.4495177
 20
10654971.7519544
 30
0.0
 11
19650982.4495177
 21
10654969.7881164
 31
0.0
  0
LINE
  5
140
330
1F
100
AcDbEntity
  8
8011$0$8011
  6
Continuous
 62
     2
100
AcDbLine
 10
19650984.4495177
 20
10654970.8515684
 30
0.0
 11
19650984.4495177
 21
10654972.1046084
 31
0.0
  0
LINE
  5
141
330
1F
100
AcDbEntity
  8
8011$0$8011
  6
Continuous
 62
     2
100
AcDbLine
 10
19650984.4495177
 20
10655014.9881164
 30
0.0
 11
19650984.4495177
 21
10655016.2411564
 31
0.0
  0
LINE
  5
142
330
1F
100
AcDbEntity
  8
8011$0$8011
  6
Continuous
 62
     2
100
AcDbLine
 10
19650984.4495177
 20
10655023.2963624
 30
0.0
 11
19650984.4495177
 21
10655024.7411564
 31
0.0
  0
LINE
  5
143
330
1F
100
AcDbEntity
  8
8011$0$8011
  6
Continuous
 62
     2
100
AcDbLine
 10
19650985.4495177
 20
10655031.7963624
 30
0.0
 11
19650985.4495177
 21
10655030.7963624
 31
0.0
  0
LINE
  5
144
330
1F
100
AcDbEntity
  8
8011$0$8011
  6
Continuous
 62
     2
100
AcDbLine
 10
19650985.4495177
 20
10655023.5494024
 30
0.0
 11
19650985.4495177
 21
10655022.2963624
 31
0.0
  0
LINE
  5
145
330
1F
100
AcDbEntity
  8
8011$0$8011
  6
Continuous
 62
     2
100
AcDbLine
 10
19650985.4495177
 20
10655015.0494024
 30
0.0
 11
19650985.4495177
 21
10655013.7963624
 31
0.0
  0
LINE
  5
146
330
1F
100
AcDbEntity
  8
8011$0$8011
  6
Continuous
 62
     2
100
AcDbLine
 10
19650985.4495177
 20
10654973.2963624
 30
0.0
 11
19650985.4495177
 21
10654972.0433224
 31
0.0
  0
LINE
  5
147
330
1F
100
AcDbEntity
  8
8011$0$8011
  6
Continuous
 62
     2
100
AcDbLine
 10
19650985.4495177
 20
10654964.7963624
 30
0.0
 11
19650985.4495177
 21
10654963.7963624
 31
0.0
  0
LINE
  5
148
330
1F
100
AcDbEntity
  8
A_NOTIZEN_SYMB
  6
Continuous
 62
     2
100
AcDbLine
 10
19651063.1495177
 20
10655007.1248014
 30
0.0
 11
19651063.4495177
 21
10655007.4248014
 31
0.0
  0
LINE
  5
149
330
1F
100
AcDbEntity
  8
8011$0$8011
  6
Continuous
 62
     2
100
AcDbLine
 10
19650988.9571147
 20
10655017.1725704
 30
0.0
 11
19650989.4495177
 21
10655017.5857464
 31
0.0
  0
LINE
  5
14A
330
1F
100
AcDbEntity
  8
8011$0$8011
  6
Continuous
 62
     2
100
AcDbLine
 10
19650982.4495177
 20
10654969.7881164
 30
0.0
 11
19650989.4495177
 21
10654971.0224044
 31
0.0
  0
LINE
  5
14B
330
1F
100
AcDbEntity
  8
8011$0$8011
  6
Continuous
 62
     2
100
AcDbLine
 10
19650988.9571147
 20
10654969.9201544
 30
0.0
 11
19650981.4495177
 21
10654968.5963624
 31
0.0
  0
LINE
  5
14C
330
1F
100
AcDbEntity
  8
A_NOTIZEN_SYMB
  6
Continuous
 62
     2
100
AcDbLine
 10
19651043.4495177
 20
10654955.7963624
 30
0.0
 11
19651043.4495177
 21
10654953.9463624
 31
0.0
  0
LINE
  5
14D
330
1F
100
AcDbEntity
  8
A_NOTIZEN_SYMB
  6
Continuous
 62
     2
100
AcDbLine
 10
19651041.9495177
 20
10654956.2963624
 30
0.0
 11
19651041.9495177
 21
10654955.7963624
 31
0.0
  0
LINE
  5
14E
330
1F
100
AcDbEntity
  8
A_NOTIZEN_SYMB
  6
Continuous
 62
     2
100
AcDbLine
 10
19651038.4495177
 20
10654955.7963624
 30
0.0
 11
19651038.4495177
 21
10654956.2963624
 31
0.0
  0
LINE
  5
14F
330
1F
100
AcDbEntity
  8
A_NOTIZEN_SYMB
  6
Continuous
 62
     2
100
AcDbLine
 10
19651034.4495177
 20
10654957.2963624
 30
0.0
 11
19651034.4495177
 21
10654946.7963624
 31
0.0
  0
LINE
  5
150
330
1F
100
AcDbEntity
  8
8011$0$8011
  6
Continuous
 62
     2
100
AcDbLine
 10
19650989.4495177
 20
10654964.2963624
 30
0.0
 11
19650989.4495177
 21
10654969.5069784
 31
0.0
  0
LINE
  5
151
330
1F
100
AcDbEntity
  8
8011$0$8011
  6
Continuous
 62
     2
100
AcDbLine
 10
19650989.4495177
 20
10654971.0224044
 30
0.0
 11
19650989.4495177
 21
10654971.7332034
 31
0.0
  0
LINE
  5
152
330
1F
100
AcDbEntity
  8
8011$0$8011
  6
Continuous
 62
     2
100
AcDbLine
 10
19650989.4495177
 20
10654973.2486304
 30
0.0
 11
19650989.4495177
 21
10654989.7963624
 31
0.0
  0
LINE
  5
153
330
1F
100
AcDbEntity
  8
8011$0$8011
  6
Continuous
 62
     2
100
AcDbLine
 10
19650989.4495177
 20
10654990.7963624
 30
0.0
 11
19650989.4495177
 21
10655013.8440944
 31
0.0
  0
LINE
  5
154
330
1F
100
AcDbEntity
  8
8011$0$8011
  6
Continuous
 62
     2
100
AcDbLine
 10
19650989.4495177
 20
10655015.3595214
 30
0.0
 11
19650989.4495177
 21
10655016.0703204
 31
0.0
  0
LINE
  5
155
330
1F
100
AcDbEntity
  8
8011$0$8011
  6
Continuous
 62
     2
100
AcDbLine
 10
19650989.4495177
 20
10655017.5857464
 30
0.0
 11
19650989.4495177
 21
10655022.3440944
 31
0.0
  0
LINE
  5
156
330
1F
100
AcDbEntity
  8
8011$0$8011
  6
Continuous
 62
     2
100
AcDbLine
 10
19650989.4495177
 20
10655023.8595214
 30
0.0
 11
19650989.4495177
 21
10655024.5703204
 31
0.0
  0
LINE
  5
157
330
1F
100
AcDbEntity
  8
8011$0$8011
  6
Continuous
 62
     2
100
AcDbLine
 10
19650989.4495177
 20
10655026.0857464
 30
0.0
 11
19650989.4495177
 21
10655031.2963624
 31
0.0
  0
LINE
  5
158
330
1F
100
AcDbEntity
  8
8011$0$8011
  6
Continuous
 62
     2
100
AcDbLine
 10
19650992.1495177
 20
10655031.2963624
 30
0.0
 11
19650992.1495177
 21
10655021.4963624
 31
0.0
  0
LINE
  5
159
330
1F
100
AcDbEntity
  8
8011$0$8011
  6
Continuous
 62
     2
100
AcDbLine
 10
19650992.1495177
 20
10655019.2963624
 30
0.0
 11
19650992.1495177
 21
10654976.2963624
 31
0.0
  0
LINE
  5
15A
330
1F
100
AcDbEntity
  8
8011$0$8011
  6
Continuous
 62
     2
100
AcDbLine
 10
19650992.1495177
 20
10654974.0963624
 30
0.0
 11
19650992.1495177
 21
10654971.0963624
 31
0.0
  0
LINE
  5
15B
330
1F
100
AcDbEntity
  8
8011$0$8011
  6
Continuous
 62
     2
100
AcDbLine
 10
19650992.1495177
 20
10654969.2963624
 30
0.0
 11
19650992.1495177
 21
10654964.2963624
 31
0.0
  0
LINE
  5
15C
330
1F
100
AcDbEntity
  8
8011$0$8011
  6
Continuous
 62
     2
100
AcDbLine
 10
19650989.4495177
 20
10654989.7963624
 30
0.0
 11
19650989.9495177
 21
10654990.2963624
 31
0.0
  0
LINE
  5
15D
330
1F
100
AcDbEntity
  8
8011$0$8011
  6
Continuous
 62
     2
100
AcDbLine
 10
19651008.4995177
 20
10654964.2963624
 30
0.0
 11
19651008.4995177
 21
10654969.2963624
 31
0.0
  0
LINE
  5
15E
330
1F
100
AcDbEntity
  8
8011$0$8011
  6
Continuous
 62
     2
100
AcDbLine
 10
19651008.4995177
 20
10654971.0963624
 30
0.0
 11
19651008.4995177
 21
10654974.0963624
 31
0.0
  0
LINE
  5
15F
330
1F
100
AcDbEntity
  8
8011$0$8011
  6
Continuous
 62
     2
100
AcDbLine
 10
19651009.2995177
 20
10654974.0963624
 30
0.0
 11
19651009.2995177
 21
10654971.0963624
 31
0.0
  0
LINE
  5
160
330
1F
100
AcDbEntity
  8
8011$0$8011
  6
Continuous
 62
     2
100
AcDbLine
 10
19651009.2995177
 20
10654969.2963624
 30
0.0
 11
19651009.2995177
 21
10654964.2963624
 31
0.0
  0
LINE
  5
161
330
1F
100
AcDbEntity
  8
8011$0$8011
  6
Continuous
 62
     2
100
AcDbLine
 10
19651011.1495177
 20
10654976.2963624
 30
0.0
 11
19651011.1495177
 21
10654978.2963624
 31
0.0
  0
LINE
  5
162
330
1F
100
AcDbEntity
  8
8011$0$8011
  6
Continuous
 62
     2
100
AcDbLine
 10
19651011.1495177
 20
10655017.2963624
 30
0.0
 11
19651011.1495177
 21
10655019.2963624
 31
0.0
  0
LINE
  5
163
330
1F
100
AcDbEntity
  8
8011$0$8011
  6
Continuous
 62
     2
100
AcDbLine
 10
19651012.1495177
 20
10655019.2963624
 30
0.0
 11
19651012.1495177
 21
10655017.2963624
 31
0.0
  0
LINE
  5
164
330
1F
100
AcDbEntity
  8
8011$0$8011
  6
Continuous
 62
     2
100
AcDbLine
 10
19651012.1495177
 20
10654978.2963624
 30
0.0
 11
19651012.1495177
 21
10654976.2963624
 31
0.0
  0
LINE
  5
165
330
1F
100
AcDbEntity
  8
8011$0$8011
  6
Continuous
 62
     2
100
AcDbLine
 10
19650988.9571147
 20
10654972.6618064
 30
0.0
 11
19650989.4495177
 21
10654973.2486304
 31
0.0
  0
LINE
  5
166
330
1F
100
AcDbEntity
  8
8011$0$8011
  6
Continuous
 62
     2
100
AcDbLine
 10
19651035.6495177
 20
10655006.5125814
 30
0.0
 11
19651032.9101447
 21
10655019.4003184
 31
0.0
  0
LINE
  5
167
330
1F
100
AcDbEntity
  8
8011$0$8011
  6
Continuous
 62
     2
100
AcDbLine
 10
19651032.4425207
 20
10655021.6003184
 30
0.0
 11
19651030.3594667
 21
10655031.4003184
 31
0.0
  0
LINE
  5
168
330
1F
100
AcDbEntity
  8
8011$0$8011
  6
Continuous
 62
     2
100
AcDbLine
 10
19651031.6304677
 20
10655031.1924064
 30
0.0
 11
19651033.0120857
 21
10655024.6924064
 31
0.0
  0
LINE
  5
169
330
1F
100
AcDbEntity
  8
8011$0$8011
  6
Continuous
 62
     2
100
AcDbLine
 10
19651035.1611697
 20
10655021.7963624
 30
0.0
 11
19651038.3495177
 21
10655006.7963624
 31
0.0
  0
LINE
  5
16A
330
1F
100
AcDbEntity
  8
8011$0$8011
  6
Continuous
 62
     2
100
AcDbLine
 10
19651015.4495177
 20
10655021.4963624
 30
0.0
 11
19651015.4495177
 21
10655031.2963624
 31
0.0
  0
LINE
  5
16B
330
1F
100
AcDbEntity
  8
8011$0$8011
  6
Continuous
 62
     2
100
AcDbLine
 10
19651016.2495177
 20
10655031.2963624
 30
0.0
 11
19651016.2495177
 21
10655021.4963624
 31
0.0
  0
LINE
  5
16C
330
1F
100
AcDbEntity
  8
8011$0$8011
  6
Continuous
 62
     2
100
AcDbLine
 10
19651025.5495177
 20
10654976.2963624
 30
0.0
 11
19651025.5495177
 21
10654978.2963624
 31
0.0
  0
LINE
  5
16D
330
1F
100
AcDbEntity
  8
8011$0$8011
  6
Continuous
 62
     2
100
AcDbLine
 10
19651025.6495177
 20
10654964.2963624
 30
0.0
 11
19651025.6495177
 21
10654969.2963624
 31
0.0
  0
LINE
  5
16E
330
1F
100
AcDbEntity
  8
8011$0$8011
  6
Continuous
 62
     2
100
AcDbLine
 10
19651025.6495177
 20
10654971.0963624
 30
0.0
 11
19651025.6495177
 21
10654974.0963624
 31
0.0
  0
LINE
  5
16F
330
1F
100
AcDbEntity
  8
8011$0$8011
  6
Continuous
 62
     2
100
AcDbLine
 10
19651026.4495177
 20
10654974.0963624
 30
0.0
 11
19651026.4495177
 21
10654971.0963624
 31
0.0
  0
LINE
  5
170
330
1F
100
AcDbEntity
  8
8011$0$8011
  6
Continuous
 62
     2
100
AcDbLine
 10
19651026.4495177
 20
10654969.2963624
 30
0.0
 11
19651026.4495177
 21
10654964.2963624
 31
0.0
  0
LINE
  5
171
330
1F
100
AcDbEntity
  8
8011$0$8011
  6
Continuous
 62
     2
100
AcDbLine
 10
19651026.5495177
 20
10654978.2963624
 30
0.0
 11
19651026.5495177
 21
10654976.2963624
 31
0.0
  0
LINE
  5
172
330
1F
100
AcDbEntity
  8
8011$0$8011
  6
Continuous
 62
     2
100
AcDbLine
 10
19650994.1590637
 20
10654969.7963624
 30
0.0
 11
19650993.8590637
 21
10654969.4963624
 31
0.0
  0
LINE
  5
173
330
1F
100
AcDbEntity
  8
8011$0$8011
  6
Continuous
 62
     2
100
AcDbLine
 10
19650988.9495177
 20
10654963.7963624
 30
0.0
 11
19650989.4495177
 21
10654964.2963624
 31
0.0
  0
LINE
  5
174
330
1F
100
AcDbEntity
  8
8011$0$8011
  6
Continuous
 62
     2
100
AcDbLine
 10
19651054.6110167
 20
10655022.7963624
 30
0.0
 11
19651053.6110267
 21
10655021.7963624
 31
0.0
  0
LINE
  5
175
330
1F
100
AcDbEntity
  8
A_NOTIZEN_SYMB
  6
Continuous
 62
     2
100
AcDbLine
 10
19651053.6110267
 20
10655021.7963624
 30
0.0
 11
19651054.6110167
 21
10655022.7963624
 31
0.0
  0
LINE
  5
176
330
1F
100
AcDbEntity
  8
8011$0$8011
  6
Continuous
 62
     2
100
AcDbLine
 10
19651059.6110167
 20
10655023.2963624
 30
0.0
 11
19651058.9064687
 21
10655025.9257724
 31
0.0
  0
LINE
  5
177
330
1F
100
AcDbEntity
  8
8011$0$8011
  6
Continuous
 62
     2
100
AcDbLine
 10
19651060.3093847
 20
10655030.3492764
 30
0.0
 11
19651062.4324807
 21
10655022.4257724
 31
0.0
  0
LINE
  5
178
330
1F
100
AcDbEntity
  8
8011$0$8011
  6
Continuous
 62
     2
100
AcDbLine
 10
19651031.9495177
 20
10654964.2963624
 30
0.0
 11
19651031.9495177
 21
10654969.2963624
 31
0.0
  0
LINE
  5
179
330
1F
100
AcDbEntity
  8
8011$0$8011
  6
Continuous
 62
     2
100
AcDbLine
 10
19651034.6495177
 20
10654969.7145954
 30
0.0
 11
19651034.6495177
 21
10654964.0963624
 31
0.0
  0
LINE
  5
17A
330
1F
100
AcDbEntity
  8
8011$0$8011
  6
Continuous
 62
     2
100
AcDbLine
 10
19651035.6495177
 20
10654973.4522424
 30
0.0
 11
19651035.6495177
 21
10654974.0963624
 31
0.0
  0
LINE
  5
17B
330
1F
100
AcDbEntity
  8
8011$0$8011
  6
Continuous
 62
     2
100
AcDbLine
 10
19651035.6495177
 20
10654976.2963624
 30
0.0
 11
19651035.6495177
 21
10655006.5125814
 31
0.0
  0
LINE
  5
17C
330
1F
100
AcDbEntity
  8
8011$0$8011
  6
Continuous
 62
     2
100
AcDbLine
 10
19651037.6495177
 20
10654963.5963624
 30
0.0
 11
19651037.6495177
 21
10654964.2963624
 31
0.0
  0
LINE
  5
17D
330
1F
100
AcDbEntity
  8
8011$0$8011
  6
Continuous
 62
     2
100
AcDbLine
 10
19651038.3495177
 20
10655006.7963624
 30
0.0
 11
19651038.3495177
 21
10654990.7963624
 31
0.0
  0
LINE
  5
17E
330
1F
100
AcDbEntity
  8
8011$0$8011
  6
Continuous
 62
     2
100
AcDbLine
 10
19651038.3495177
 20
10654989.7963624
 30
0.0
 11
19651038.3495177
 21
10654971.6876594
 31
0.0
  0
LINE
  5
17F
330
1F
100
AcDbEntity
  8
8011$0$8011
  6
Continuous
 62
     2
100
AcDbLine
 10
19651042.4495177
 20
10654972.0463624
 30
0.0
 11
19651042.4495177
 21
10654968.0963624
 31
0.0
  0
LINE
  5
180
330
1F
100
AcDbEntity
  8
8011$0$8011
  6
Continuous
 62
     2
100
AcDbLine
 10
19651042.4495177
 20
10654963.2963624
 30
0.0
 11
19651042.4495177
 21
10654961.7963624
 31
0.0
  0
LINE
  5
181
330
1F
100
AcDbEntity
  8
8011$0$8011
  6
Continuous
 62
     2
100
AcDbLine
 10
19651038.3495177
 20
10654990.7963624
 30
0.0
 11
19651037.8495177
 21
10654990.2963624
 31
0.0
  0
LINE
  5
182
330
1F
100
AcDbEntity
  8
8011$0$8011
  6
Continuous
 62
     2
100
AcDbLine
 10
19651051.1110167
 20
10655024.7963624
 30
0.0
 11
19651051.1110167
 21
10655025.7963624
 31
0.0
  0
LINE
  5
183
330
1F
100
AcDbEntity
  8
8011$0$8011
  6
Continuous
 62
     2
100
AcDbLine
 10
19651053.1110167
 20
10655025.7963624
 30
0.0
 11
19651053.1110167
 21
10655023.2963624
 31
0.0
  0
LINE
  5
184
330
1F
100
AcDbEntity
  8
8011$0$8011
  6
Continuous
 62
     2
100
AcDbLine
 10
19651054.6110167
 20
10655023.2963624
 30
0.0
 11
19651054.6110167
 21
10655022.7963624
 31
0.0
  0
LINE
  5
185
330
1F
100
AcDbEntity
  8
A_NOTIZEN_SYMB
  6
Continuous
 62
     2
100
AcDbLine
 10
19651054.6110167
 20
10655022.7963624
 30
0.0
 11
19651054.6110167
 21
10655023.2963624
 31
0.0
  0
LINE
  5
186
330
1F
100
AcDbEntity
  8
A_NOTIZEN_SYMB
  6
Continuous
 62
     2
100
AcDbLine
 10
19651058.1110167
 20
10655023.2963624
 30
0.0
 11
19651058.1110167
 21
10655022.7963624
 31
0.0
  0
LINE
  5
187
330
1F
100
AcDbEntity
  8
8011$0$8011
  6
Continuous
 62
     2
100
AcDbLine
 10
19651058.1110167
 20
10655022.7963624
 30
0.0
 11
19651058.1110167
 21
10655023.2963624
 31
0.0
  0
LINE
  5
188
330
1F
100
AcDbEntity
  8
1
  6
Continuous
 62
     2
100
AcDbLine
 10
19650995.1495177
 20
10654977.7963624
 30
0.0
 11
19651012.7695177
 21
10654977.7963624
 31
0.0
  0
LINE
  5
189
330
1F
100
AcDbEntity
  8
1
  6
Continuous
 62
     2
100
AcDbLine
 10
19651030.0
 20
10654978.7963624
 30
0.0
 11
19651030.0
 21
10655013.0
 31
0.0
  0
LINE
  5
18A
330
1F
100
AcDbEntity
  8
1
  6
Continuous
 62
     2
100
AcDbLine
 10
19651029.0
 20
10655014.0
 30
0.0
 11
19650995.1495177
 21
10655014.0
 31
0.0
  0
LINE
  5
18B
330
1F
100
AcDbEntity
  8
1
  6
Continuous
 62
     2
100
AcDbLine
 10
19650994.1495177
 20
10655013.0
 30
0.0
 11
19650994.1495177
 21
10654978.7963624
 31
0.0
  0
LINE
  5
18C
330
1F
100
AcDbEntity
  8
1
  6
Continuous
 62
     2
100
AcDbLine
 10
19650995.6495177
 20
10654976.2963624
 30
0.0
 11
19651012.7695177
 21
10654976.2963624
 31
0.0
  0
LINE
  5
18D
330
1F
100
AcDbEntity
  8
1
  6
Continuous
 62
     2
100
AcDbLine
 10
19651032.0
 20
10654979.2963624
 30
0.0
 11
19651032.0
 21
10655013.0
 31
0.0
  0
LINE
  5
18E
330
1F
100
AcDbEntity
  8
1
  6
Continuous
 62
     2
100
AcDbLine
 10
19651029.0
 20
10655016.0
 30
0.0
 11
19650995.6495177
 21
10655016.0
 31
0.0
  0
LINE
  5
18F
330
1F
100
AcDbEntity
  8
1
  6
Continuous
 62
     2
100
AcDbLine
 10
19650992.6495177
 20
10655013.0
 30
0.0
 11
19650992.6495177
 21
10654979.2963624
 31
0.0
  0
LINE
  5
190
330
1F
100
AcDbEntity
  8
1
  6
Continuous
 62
     2
100
AcDbLine
 10
19651074.0
 20
10655001.2963524
 30
0.0
 11
19651128.0
 21
10655001.2963524
 31
0.0
  0
LINE
  5
191
330
1F
100
AcDbEntity
  8
1
  6
Continuous
 62
     2
100
AcDbLine
 10
19651129.0
 20
10655000.2963524
 30
0.0
 11
19651129.0
 21
10654959.3963244
 31
0.0
  0
LINE
  5
192
330
1F
100
AcDbEntity
  8
1
  6
Continuous
 62
     2
100
AcDbLine
 10
19651128.0
 20
10654958.3963244
 30
0.0
 11
19651074.0
 21
10654958.3963244
 31
0.0
  0
LINE
  5
193
330
1F
100
AcDbEntity
  8
1
  6
Continuous
 62
     2
100
AcDbLine
 10
19651073.0
 20
10654959.3963244
 30
0.0
 11
19651073.0
 21
10655000.2963524
 31
0.0
  0
LINE
  5
194
330
1F
100
AcDbEntity
  8
1
  6
Continuous
 62
     2
100
AcDbLine
 10
19651074.0
 20
10655002.7963524
 30
0.0
 11
19651128.0
 21
10655002.7963524
 31
0.0
  0
LINE
  5
195
330
1F
100
AcDbEntity
  8
1
  6
Continuous
 62
     2
100
AcDbLine
 10
19651131.0
 20
10654999.7963524
 30
0.0
 11
19651131.0
 21
10654959.8963244
 31
0.0
  0
LINE
  5
196
330
1F
100
AcDbEntity
  8
1
  6
Continuous
 62
     2
100
AcDbLine
 10
19651128.0
 20
10654956.8963244
 30
0.0
 11
19651074.0
 21
10654956.8963244
 31
0.0
  0
LINE
  5
197
330
1F
100
AcDbEntity
  8
1
  6
Continuous
 62
     2
100
AcDbLine
 10
19651071.0
 20
10654959.8963244
 30
0.0
 11
19651071.0
 21
10654999.7963524
 31
0.0
  0
LINE
  5
198
330
1F
100
AcDbEntity
  8
0
  6
Continuous
 62
     7
100
AcDbLine
 10
19651018.4495177
 20
10654960.7963624
 30
0.0
 11
19651013.4495177
 21
10654960.7963624
 31
0.0
  0
LINE
  5
199
330
1F
100
AcDbEntity
  8
0
  6
Continuous
 62
     7
100
AcDbLine
 10
19651004.4495177
 20
10654960.7963624
 30
0.0
 11
19651004.4495177
 21
10654945.7963624
 31
0.0
  0
LINE
  5
19A
330
1F
100
AcDbEntity
  8
0
  6
Continuous
 62
     9
100
AcDbLine
 10
19651006.4495177
 20
10654960.7963624
 30
0.0
 11
19651006.4495177
 21
10654943.7963624
 31
0.0
  0
LINE
  5
19B
330
1F
100
AcDbEntity
  8
0
  6
Continuous
 62
     7
100
AcDbLine
 10
19651011.9495177
 20
10654943.7963624
 30
0.0
 11
19651011.9495177
 21
10654942.0100448
 31
0.0
  0
LINE
  5
19C
330
1F
100
AcDbEntity
  8
DEFAULT_2
  6
DASHED
 62
     2
100
AcDbLine
 10
19651011.9495177
 20
10654943.7963624
 30
0.0
 11
19651011.9495177
 21
10654959.2963624
 31
0.0
  0
LINE
  5
19D
330
1F
100
AcDbEntity
  8
DEFAULT_2
  6
HIDDEN
 62
     8
100
AcDbLine
 10
19651015.4495177
 20
10654942.0100448
 30
0.0
 11
19651015.4495177
 21
10654942.2058491
 31
0.0
  0
LINE
  5
19E
330
1F
100
AcDbEntity
  8
0
  6
Continuous
 62
     7
100
AcDbLine
 10
19651015.4495177
 20
10654942.2058491
 30
0.0
 11
19651015.4495177
 21
10654943.7963624
 31
0.0
  0
LINE
  5
19F
330
1F
100
AcDbEntity
  8
DEFAULT_2
  6
DASHED
 62
     2
100
AcDbLine
 10
19651026.0654936
 20
10654934.82128
 30
0.0
 11
19651024.6276061
 21
10654938.0523459
 31
0.0
  0
LINE
  5
1A0
330
1F
100
AcDbEntity
  8
0
  6
Continuous
 62
     9
100
AcDbLine
 10
19651025.4495177
 20
10654943.7963624
 30
0.0
 11
19651025.4495177
 21
10654960.7963624
 31
0.0
  0
LINE
  5
1A1
330
1F
100
AcDbEntity
  8
0
  6
Continuous
 62
     7
100
AcDbLine
 10
19651027.4495177
 20
10654945.7963624
 30
0.0
 11
19651027.4495177
 21
10654960.7963624
 31
0.0
  0
LINE
  5
1A2
330
1F
100
AcDbEntity
  8
0
  6
Continuous
 62
     7
100
AcDbLine
 10
19651030.9495177
 20
10654941.5263624
 30
0.0
 11
19651030.9495177
 21
10654957.8963624
 31
0.0
  0
LINE
  5
1A3
330
1F
100
AcDbEntity
  8
DEFAULT_2
  6
DASHED
 62
     2
100
AcDbLine
 10
19651030.9495749
 20
10654956.9464219
 30
0.0
 11
19651033.9495188
 21
10654953.9463624
 31
0.0
  0
LINE
  5
1A4
330
1F
100
AcDbEntity
  8
DEFAULT_2
  6
DASHED
 62
     2
100
AcDbLine
 10
19651033.9495188
 20
10654953.9463624
 30
0.0
 11
19651033.9495188
 21
10654947.6463624
 31
0.0
  0
LINE
  5
1A5
330
1F
100
AcDbEntity
  8
DEFAULT_2
  6
HIDDEN
 62
     8
100
AcDbLine
 10
19651034.4474367
 20
10654957.8963624
 30
0.0
 11
19651034.4474367
 21
10654956.4963614
 31
0.0
  0
LINE
  5
1A6
330
1F
100
AcDbEntity
  8
0
  6
Continuous
 62
     7
100
AcDbLine
 10
19651034.4495177
 20
10654953.9463624
 30
0.0
 11
19651034.4495177
 21
10654957.8963624
 31
0.0
  0
LINE
  5
1A7
330
1F
100
AcDbEntity
  8
DEFAULT_2
  6
DASHED
 62
     2
100
AcDbLine
 10
19651030.9495749
 20
10654944.6463029
 30
0.0
 11
19651033.9495188
 21
10654947.6463624
 31
0.0
  0
LINE
  5
1A8
330
1F
100
AcDbEntity
  8
0
  6
Continuous
 62
     7
100
AcDbLine
 10
19651021.2451635
 20
10654935.9345983
 30
0.0
 11
19651024.1299511
 21
10654937.9165166
 31
0.0
  0
LINE
  5
1A9
330
1F
100
AcDbEntity
  8
DEFAULT_2
  6
DASHED
 62
     2
100
AcDbLine
 10
19651015.4495177
 20
10654959.2963624
 30
0.0
 11
19651011.9495177
 21
10654959.2963624
 31
0.0
  0
LINE
  5
1AA
330
1F
100
AcDbEntity
  8
0
  6
Continuous
 62
     7
100
AcDbLine
 10
19651034.4495177
 20
10654957.8963624
 30
0.0
 11
19651030.9495177
 21
10654957.8963624
 31
0.0
  0
LINE
  5
1AB
330
1F
100
AcDbEntity
  8
0
  6
Continuous
 62
     7
100
AcDbLine
 10
19651030.3560949
 20
10654940.612746
 30
0.0
 11
19651024.8994656
 21
10654938.1844392
 31
0.0
  0
LINE
  5
1AC
330
1F
100
AcDbEntity
  8
0
  6
Continuous
 62
     7
100
AcDbLine
 10
19651026.3224858
 20
10654934.9867816
 30
0.0
 11
19651031.779115
 21
10654937.4150885
 31
0.0
  0
LINE
  5
1AD
330
1F
100
AcDbEntity
  8
DEFAULT_2
  6
DASHED
 62
     2
100
AcDbLine
 10
19651033.9495188
 20
10654953.9463624
 30
0.0
 11
19651034.4495177
 21
10654953.9463624
 31
0.0
  0
LINE
  5
1AE
330
1F
100
AcDbEntity
  8
DEFAULT_1
  6
DOT_CENTER
 62
     2
100
AcDbLine
 10
19651092.6495177
 20
10654950.7963624
 30
0.0
 11
19651030.0102949
 21
10654950.7963624
 31
0.0
  0
LINE
  5
1AF
330
1F
100
AcDbEntity
  8
DEFAULT_2
  6
DASHED
 62
     2
100
AcDbLine
 10
19651033.9495188
 20
10654947.6463624
 30
0.0
 11
19651034.4495177
 21
10654947.6463624
 31
0.0
  0
LINE
  5
1B0
330
1F
100
AcDbEntity
  8
0
  6
Continuous
 62
     9
100
AcDbLine
 10
19651018.3254331
 20
10654945.7963624
 30
0.0
 11
19651027.4495177
 21
10654945.7963624
 31
0.0
  0
LINE
  5
1B1
330
1F
100
AcDbEntity
  8
0
  6
Continuous
 62
     9
100
AcDbLine
 10
19651004.4495177
 20
10654945.7963624
 30
0.0
 11
19651013.5736023
 21
10654945.7963624
 31
0.0
  0
LINE
  5
1B2
330
1F
100
AcDbEntity
  8
0
  6
Continuous
 62
     7
100
AcDbLine
 10
19651017.6995177
 20
10654943.7963624
 30
0.0
 11
19651025.4495177
 21
10654943.7963624
 31
0.0
  0
LINE
  5
1B3
330
1F
100
AcDbEntity
  8
0
  6
Continuous
 62
     7
100
AcDbLine
 10
19651006.4495177
 20
10654943.7963624
 30
0.0
 11
19651014.1995177
 21
10654943.7963624
 31
0.0
  0
LINE
  5
1B4
330
1F
100
AcDbEntity
  8
1
  6
Continuous
 62
     7
100
AcDbLine
 10
19651086.6193907
 20
10654953.2963624
 30
0.0
 11
19651085.4935576
 21
10654953.9463624
 31
0.0
  0
LINE
  5
1B5
330
1F
100
AcDbEntity
  8
1
  6
Continuous
 62
     7
100
AcDbLine
 10
19651086.6193907
 20
10654948.2963624
 30
0.0
 11
19651090.9495177
 21
10654950.7963624
 31
0.0
  0
LINE
  5
1B6
330
1F
100
AcDbEntity
  8
1
  6
Continuous
 62
     7
100
AcDbLine
 10
19651085.4935576
 20
10654953.9463624
 30
0.0
 11
19651085.4935576
 21
10654947.6463624
 31
0.0
  0
LINE
  5
1B7
330
1F
100
AcDbEntity
  8
1
  6
Continuous
 62
     7
100
AcDbLine
 10
19651034.4495177
 20
10654953.9463624
 30
0.0
 11
19651085.4935576
 21
10654953.9463624
 31
0.0
  0
LINE
  5
1B8
330
1F
100
AcDbEntity
  8
0
  6
Continuous
 62
     7
100
AcDbLine
 10
19651034.4495177
 20
10654953.2963624
 30
0.0
 11
19651034.4495177
 21
10654953.9463624
 31
0.0
  0
LINE
  5
1B9
330
1F
100
AcDbEntity
  8
1
  6
Continuous
 62
     7
100
AcDbLine
 10
19651034.4495177
 20
10654947.6463624
 30
0.0
 11
19651037.47254799
 21
10654947.6463624
 31
0.0
  0
LINE
  5
1BA
330
1F
100
AcDbEntity
  8
0
  6
Continuous
 62
     7
100
AcDbLine
 10
19651034.4495177
 20
10654941.5263624
 30
0.0
 11
19651034.4495177
 21
10654947.6463624
 31
0.0
  0
LINE
  5
1BB
330
1F
100
AcDbEntity
  8
1
  6
Continuous
 62
     2
100
AcDbLine
 10
19651034.4495177
 20
10654948.2963624
 30
0.0
 11
19651086.6193907
 21
10654948.2963624
 31
0.0
  0
LINE
  5
1BC
330
1F
100
AcDbEntity
  8
1
  6
Continuous
 62
     7
100
AcDbLine
 10
19651085.4935576
 20
10654947.6463624
 30
0.0
 11
19651086.6193907
 21
10654948.2963624
 31
0.0
  0
LINE
  5
1BD
330
1F
100
AcDbEntity
  8
0
  6
Continuous
 62
     7
100
AcDbLine
 10
19651034.4495177
 20
10654947.6463624
 30
0.0
 11
19651034.4495177
 21
10654948.2963624
 31
0.0
  0
LINE
  5
1BE
330
1F
100
AcDbEntity
  8
1
  6
Continuous
 62
     2
100
AcDbLine
 10
19651034.4495177
 20
10654953.2963624
 30
0.0
 11
19651086.6193907
 21
10654953.2963624
 31
0.0
  0
LINE
  5
1BF
330
1F
100
AcDbEntity
  8
1
  6
Continuous
 62
     7
100
AcDbLine
 10
19651090.9495177
 20
10654950.7963624
 30
0.0
 11
19651086.6193907
 21
10654953.2963624
 31
0.0
  0
LINE
  5
1C0
330
1F
100
AcDbEntity
  8
0
  6
Continuous
 62
     7
100
AcDbLine
 10
19651034.4495177
 20
10654948.2963624
 30
0.0
 11
19651034.4495177
 21
10654953.2963624
 31
0.0
  0
LINE
  5
1C1
330
1F
100
AcDbEntity
  8
1
  6
Continuous
 62
     7
100
AcDbLine
 10
19651012.7695177
 20
10654993.0904024
 30
0.0
 11
19651012.7695177
 21
10654960.7963624
 31
0.0
  0
LINE
  5
1C2
330
1F
100
AcDbEntity
  8
0
  6
Continuous
 62
     7
100
AcDbLine
 10
19651013.4495177
 20
10654960.7963624
 30
0.0
 11
19651004.4495177
 21
10654960.7963624
 31
0.0
  0
LINE
  5
1C3
330
1F
100
AcDbEntity
  8
1
  6
Continuous
 62
     7
100
AcDbLine
 10
19651013.4495177
 20
10654994.2570856
 30
0.0
 11
19651012.7695177
 21
10654993.0904024
 31
0.0
  0
LINE
  5
1C4
330
1F
100
AcDbEntity
  8
1
  6
Continuous
 62
     7
100
AcDbLine
 10
19651018.4495177
 20
10654994.2162354
 30
0.0
 11
19651015.9495177
 21
10654998.5463624
 31
0.0
  0
LINE
  5
1C5
330
1F
100
AcDbEntity
  8
0
  6
Continuous
 62
     7
100
AcDbLine
 10
19651027.4495177
 20
10654960.7963624
 30
0.0
 11
19651019.1995177
 21
10654960.7963624
 31
0.0
  0
LINE
  5
1C6
330
1F
100
AcDbEntity
  8
1
  6
Continuous
 62
     7
100
AcDbLine
 10
19651019.0995177
 20
10654993.0904024
 30
0.0
 11
19651019.0995177
 21
10654960.7963624
 31
0.0
  0
LINE
  5
1C7
330
1F
100
AcDbEntity
  8
0
  6
Continuous
 62
     7
100
AcDbLine
 10
19651019.1995177
 20
10654960.7963624
 30
0.0
 11
19651019.0995177
 21
10654960.7963624
 31
0.0
  0
LINE
  5
1C8
330
1F
100
AcDbEntity
  8
1
  6
Continuous
 62
     7
100
AcDbLine
 10
19651019.0995177
 20
10654993.0904024
 30
0.0
 11
19651012.7695177
 21
10654993.0904024
 31
0.0
  0
LINE
  5
1C9
330
1F
100
AcDbEntity
  8
1
  6
Continuous
 62
     2
100
AcDbLine
 10
19651013.4495177
 20
10654960.7963624
 30
0.0
 11
19651013.4495177
 21
10654994.2570856
 31
0.0
  0
LINE
  5
1CA
330
1F
100
AcDbEntity
  8
1
  6
Continuous
 62
     7
100
AcDbLine
 10
19651015.9495177
 20
10654998.5463624
 30
0.0
 11
19651013.4495177
 21
10654994.2570856
 31
0.0
  0
LINE
  5
1CB
330
1F
100
AcDbEntity
  8
1
  6
Continuous
 62
     2
100
AcDbLine
 10
19651018.4495177
 20
10654960.7963624
 30
0.0
 11
19651018.4495177
 21
10654994.2162354
 31
0.0
  0
LINE
  5
1CC
330
1F
100
AcDbEntity
  8
1
  6
Continuous
 62
     7
100
AcDbLine
 10
19651019.0995177
 20
10654993.0904024
 30
0.0
 11
19651018.4495177
 21
10654994.2162354
 31
0.0
  0
LINE
  5
1CD
330
1F
100
AcDbEntity
  8
0
  6
Continuous
 62
     7
100
AcDbLine
 10
19651019.0995177
 20
10654960.7963624
 30
0.0
 11
19651018.4495177
 21
10654960.7963624
 31
0.0
  0
LINE
  5
1CE
330
1F
100
AcDbEntity
  8
1
  6
DASHED
 62
     2
100
AcDbLine
 10
19651015.4495177
 20
10654943.8095679
 30
0.0
 11
19651015.4495177
 21
10654959.2963624
 31
0.0
  0
LINE
  5
1CF
330
1F
100
AcDbEntity
  8
1
  6
Continuous
 62
     7
100
AcDbLine
 10
19651017.6995177
 20
10654943.7963624
 30
0.0
 11
19651015.9495177
 21
10654943.8120489
 31
0.0
  0
LINE
  5
1D0
330
1F
100
AcDbEntity
  8
1
  6
DOT_CENTER
 62
     2
100
AcDbLine
 10
19651003.5320177
 20
10654932.2963624
 30
0.0
 11
19651028.3670177
 21
10654932.2963624
 31
0.0
  0
LINE
  5
1D1
330
1F
100
AcDbEntity
  8
1
  6
DOT_CENTER
 62
     2
100
AcDbLine
 10
19651015.9495177
 20
10654944.7138624
 30
0.0
 11
19651015.9495177
 21
10654919.8788624
 31
0.0
  0
LINE
  5
1D2
330
1F
100
AcDbEntity
  8
1
  6
DOT_CENTER
 62
     2
100
AcDbLine
 10
19651015.9495177
 20
10654999.8120489
 30
0.0
 11
19651015.9495177
 21
10654943.8120489
 31
0.0
  0
ARC
  5
1D3
330
1F
100
AcDbEntity
  8
1
  6
Continuous
 62
     2
100
AcDbCircle
 10
19651029.0
 20
10655013.0
 30
0.0
 40
1.0
100
AcDbArc
 50
0.0
 51
90.0
  0
ARC
  5
1D4
330
1F
100
AcDbEntity
  8
1
  6
Continuous
 62
     2
100
AcDbCircle
 10
19650995.1495177
 20
10655013.0
 30
0.0
 40
1.0
100
AcDbArc
 50
90.0
 51
180.0
  0
ARC
  5
1D5
330
1F
100
AcDbEntity
  8
1
  6
Continuous
 62
     2
100
AcDbCircle
 10
19650995.1495177
 20
10654978.7963624
 30
0.0
 40
1.0
100
AcDbArc
 50
180.0
 51
270.0
  0
ARC
  5
1D6
330
1F
100
AcDbEntity
  8
1
  6
Continuous
 62
     2
100
AcDbCircle
 10
19651029.0
 20
10654978.7963624
 30
0.0
 40
1.0
100
AcDbArc
 50
270.0
 51
0.0
  0
ARC
  5
1D7
330
1F
100
AcDbEntity
  8
1
  6
Continuous
 62
     2
100
AcDbCircle
 10
19651029.0
 20
10654979.2963624
 30
0.0
 40
3.0
100
AcDbArc
 50
270.0
 51
0.0
  0
ARC
  5
1D8
330
1F
100
AcDbEntity
  8
1
  6
Continuous
 62
     2
100
AcDbCircle
 10
19651029.0
 20
10655013.0
 30
0.0
 40
3.0
100
AcDbArc
 50
0.0
 51
90.0
  0
ARC
  5
1D9
330
1F
100
AcDbEntity
  8
1
  6
Continuous
 62
     2
100
AcDbCircle
 10
19650995.6495177
 20
10655013.0
 30
0.0
 40
3.0
100
AcDbArc
 50
90.0
 51
180.0
  0
ARC
  5
1DA
330
1F
100
AcDbEntity
  8
1
  6
Continuous
 62
     2
100
AcDbCircle
 10
19650995.6495177
 20
10654979.2963624
 30
0.0
 40
3.0
100
AcDbArc
 50
180.0
 51
270.0
  0
ARC
  5
1DB
330
1F
100
AcDbEntity
  8
1
  6
Continuous
 62
     2
100
AcDbCircle
 10
19651128.0
 20
10654959.3963244
 30
0.0
 40
1.0
100
AcDbArc
 50
270.0
 51
0.0
  0
ARC
  5
1DC
330
1F
100
AcDbEntity
  8
1
  6
Continuous
 62
     2
100
AcDbCircle
 10
19651074.0
 20
10654959.3963244
 30
0.0
 40
1.0
100
AcDbArc
 50
180.0
 51
270.0
  0
ARC
  5
1DD
330
1F
100
AcDbEntity
  8
1
  6
Continuous
 62
     2
100
AcDbCircle
 10
19651074.0
 20
10655000.2963524
 30
0.0
 40
1.0
100
AcDbArc
 50
90.0
 51
180.0
  0
ARC
  5
1DE
330
1F
100
AcDbEntity
  8
1
  6
Continuous
 62
     2
100
AcDbCircle
 10
19651128.0
 20
10655000.2963524
 30
0.0
 40
1.0
100
AcDbArc
 50
0.0
 51
90.0
  0
ARC
  5
1DF
330
1F
100
AcDbEntity
  8
1
  6
Continuous
 62
     2
100
AcDbCircle
 10
19651128.0
 20
10654999.7963524
 30
0.0
 40
3.0
100
AcDbArc
 50
0.0
 51
90.0
  0
ARC
  5
1E0
330
1F
100
AcDbEntity
  8
1
  6
Continuous
 62
     2
100
AcDbCircle
 10
19651128.0
 20
10654959.8963244
 30
0.0
 40
3.0
100
AcDbArc
 50
270.0
 51
0.0
  0
ARC
  5
1E1
330
1F
100
AcDbEntity
  8
1
  6
Continuous
 62
     2
100
AcDbCircle
 10
19651074.0
 20
10654959.8963244
 30
0.0
 40
3.0
100
AcDbArc
 50
180.0
 51
270.0
  0
ARC
  5
1E2
330
1F
100
AcDbEntity
  8
1
  6
Continuous
 62
     2
100
AcDbCircle
 10
19651074.0
 20
10654999.7963524
 30
0.0
 40
3.0
100
AcDbArc
 50
90.0
 51
180.0
  0
ARC
  5
1E3
330
1F
100
AcDbEntity
  8
A_NOTIZEN_SYMB
  6
Continuous
 62
     2
100
AcDbCircle
 10
19651156.4234918
 20
10655009.2963593
 30
0.0
 40
0.5000001391067593
100
AcDbArc
 50
15.00006414338059
 51
90.00001109905521
  0
ARC
  5
1E4
330
1F
100
AcDbEntity
  8
A_NOTIZEN_SYMB
  6
Continuous
 62
     2
100
AcDbCircle
 10
19651151.611001
 20
10655009.2963611
 30
0.0
 40
0.4999982994078644
100
AcDbArc
 50
89.99980533894657
 51
180.0001948744968
  0
ARC
  5
1E5
330
1F
100
AcDbEntity
  8
A_NOTIZEN_SYMB
  6
Continuous
 62
     2
100
AcDbCircle
 10
19651133.699534
 20
10654952.5326616
 30
0.0
 40
1.250034275434733
100
AcDbArc
 50
1.53841054909759
 51
147.1390695376411
  0
ARC
  5
1E6
330
1F
100
AcDbEntity
  8
A_NOTIZEN_SYMB
  6
Continuous
 62
     2
100
AcDbCircle
 10
19651139.4495184
 20
10654945.2963617
 30
0.0
 40
0.9999992996456691
100
AcDbArc
 50
269.9999598726105
 51
0.00004012738948
  0
ARC
  5
1E7
330
1F
100
AcDbEntity
  8
A_NOTIZEN_SYMB
  6
Continuous
 62
     2
100
AcDbCircle
 10
19651036.9495158
 20
10654946.7963605
 30
0.0
 40
2.49999810010267
100
AcDbArc
 50
179.999956457511
 51
270.000043542489
  0
ARC
  5
1E8
330
1F
100
AcDbEntity
  8
A_NOTIZEN_SYMB
  6
Continuous
 62
     2
100
AcDbCircle
 10
19651059.8495173
 20
10654965.696362
 30
0.0
 40
0.4999996013940984
100
AcDbArc
 50
179.9999541096299
 51
270.0000456769267
  0
ARC
  5
1E9
330
1F
100
AcDbEntity
  8
A_NOTIZEN_SYMB
  6
Continuous
 62
     2
100
AcDbCircle
 10
19651065.4495247
 20
10654965.6963591
 30
0.0
 40
0.4999966994417934
100
AcDbArc
 50
269.9991978743644
 51
0.00037822702033
  0
ARC
  5
1EA
330
1F
100
AcDbEntity
  8
A_NOTIZEN_SYMB
  6
Continuous
 62
     2
100
AcDbCircle
 10
19651065.4495247
 20
10654981.8963657
 30
0.0
 40
0.4999930001904233
100
AcDbArc
 50
359.9996217729797
 51
90.00080212563559
  0
ARC
  5
1EB
330
1F
100
AcDbEntity
  8
A_NOTIZEN_SYMB
  6
Continuous
 62
     2
100
AcDbCircle
 10
19651059.8495173
 20
10654981.8963628
 30
0.0
 40
0.4999995995314518
100
AcDbArc
 50
89.99995432307335
 51
180.0000458903701
  0
ARC
  5
1EC
330
1F
100
AcDbEntity
  8
A_NOTIZEN_SYMB
  6
Continuous
 62
     2
100
AcDbCircle
 10
19651152.51385261
 20
10655012.29632181
 30
0.0
 40
6.000040592775905
100
AcDbArc
 50
14.99992895426307
 51
89.99970310222308
  0
ARC
  5
1ED
330
1F
100
AcDbEntity
  8
A_NOTIZEN_SYMB
  6
Continuous
 62
     2
100
AcDbCircle
 10
19651159.9495182
 20
10655005.79636
 30
0.0
 40
0.5000005997719872
100
AcDbArc
 50
270.0000572027657
 51
14.99960729066512
  0
ARC
  5
1EE
330
1F
100
AcDbEntity
  8
A_NOTIZEN_SYMB
  6
Continuous
 62
     2
100
AcDbCircle
 10
19651155.005803
 20
10655012.0963593
 30
0.0
 40
0.499999899417253
100
AcDbArc
 50
269.9999654221604
 51
355.4146648554313
  0
ARC
  5
1EF
330
1F
100
AcDbEntity
  8
A_NOTIZEN_SYMB
  6
Continuous
 62
     2
100
AcDbCircle
 10
19651152.5138087
 20
10655012.2963555
 30
0.0
 40
3.000006827376956
100
AcDbArc
 50
355.4120559208677
 51
89.9999617937172
  0
ARC
  5
1F0
330
1F
100
AcDbEntity
  8
A_NOTIZEN_SYMB
  6
Continuous
 62
     2
100
AcDbCircle
 10
19651130.1196203
 20
10655014.7963629
 30
0.0
 40
0.4999995008112589
100
AcDbArc
 50
89.99995432306433
 51
191.9998539091079
  0
ARC
  5
1F1
330
1F
100
AcDbEntity
  8
A_NOTIZEN_SYMB
  6
Continuous
 62
     2
100
AcDbCircle
 10
19651131.5012183
 20
10655008.29636
 30
0.0
 40
0.5000005218939136
100
AcDbArc
 50
191.9998411884321
 51
269.9999312713039
  0
ARC
  5
1F2
330
1F
100
AcDbEntity
  8
A_NOTIZEN_SYMB
  6
Continuous
 62
     2
100
AcDbCircle
 10
19651148.8110031
 20
10655008.296359
 30
0.0
 40
0.4999996013940969
100
AcDbArc
 50
269.9999543230735
 51
0.00004567692649
  0
ARC
  5
1F3
330
1F
100
AcDbEntity
  8
A_NOTIZEN_SYMB
  6
Continuous
 62
     2
100
AcDbCircle
 10
19651151.611001
 20
10655009.2963611
 30
0.0
 40
2.299998300150664
100
AcDbArc
 50
89.99995768249235
 51
180.0000423639084
  0
ARC
  5
1F4
330
1F
100
AcDbEntity
  8
A_NOTIZEN_SYMB
  6
Continuous
 62
     2
100
AcDbCircle
 10
19651127.870472
 20
10655014.7963618
 30
0.0
 40
0.5000006206660943
100
AcDbArc
 50
11.99983900086676
 51
89.99991974537353
  0
ARC
  5
1F5
330
1F
100
AcDbEntity
  8
A_NOTIZEN_SYMB
  6
Continuous
 62
     2
100
AcDbCircle
 10
19651110.2495173
 20
10655014.7963628
 30
0.0
 40
0.4999995995314548
100
AcDbArc
 50
89.99995389618618
 51
180.0000458903704
  0
ARC
  5
1F6
330
1F
100
AcDbEntity
  8
A_NOTIZEN_SYMB
  6
Continuous
 62
     2
100
AcDbCircle
 10
19651110.2495173
 20
10655004.996352
 30
0.0
 40
0.4999995976688081
100
AcDbArc
 50
179.9999541096296
 51
270.0000461038139
  0
ARC
  5
1F7
330
1F
100
AcDbEntity
  8
A_NOTIZEN_SYMB
  6
Continuous
 62
     2
100
AcDbCircle
 10
19651129.9534981
 20
10655004.9963519
 30
0.0
 40
0.4999994989486137
100
AcDbArc
 50
269.9999543230641
 51
11.99985390910793
  0
ARC
  5
1F8
330
1F
100
AcDbEntity
  8
A_NOTIZEN_SYMB
  6
Continuous
 62
     2
100
AcDbCircle
 10
19651130.421114
 20
10655002.7963518
 30
0.0
 40
0.5000006206660943
100
AcDbArc
 50
11.99983900086676
 51
89.99991974537353
  0
ARC
  5
1F9
330
1F
100
AcDbEntity
  8
A_NOTIZEN_SYMB
  6
Continuous
 62
     2
100
AcDbCircle
 10
19651063.7836508
 20
10655002.7963525
 30
0.0
 40
0.499999899417172
100
AcDbArc
 50
90.00001152594656
 51
193.4900366136235
  0
ARC
  5
1FA
330
1F
100
AcDbEntity
  8
A_NOTIZEN_SYMB
  6
Continuous
 62
     2
100
AcDbCircle
 10
19651066.9982284
 20
10654989.3963617
 30
0.0
 40
0.4999992721223305
100
AcDbArc
 50
193.4899580203593
 51
270.0000341509937
  0
ARC
  5
1FB
330
1F
100
AcDbEntity
  8
A_NOTIZEN_SYMB
  6
Continuous
 62
     2
100
AcDbCircle
 10
19651070.1495181
 20
10654988.3963628
 30
0.0
 40
0.500000400468866
100
AcDbArc
 50
269.9999543231465
 51
90.00004567692666
  0
ARC
  5
1FC
330
1F
100
AcDbEntity
  8
A_NOTIZEN_SYMB
  6
Continuous
 62
     2
100
AcDbCircle
 10
19651067.4780168
 20
10654987.3963625
 30
0.0
 40
0.499999899417172
100
AcDbArc
 50
90.00001152594656
 51
193.4900366136235
  0
ARC
  5
1FD
330
1F
100
AcDbEntity
  8
A_NOTIZEN_SYMB
  6
Continuous
 62
     2
100
AcDbCircle
 10
19651065.4495247
 20
10654981.8963657
 30
0.0
 40
3.199992999436173
100
AcDbArc
 50
359.9999409027261
 51
44.04867616218687
  0
ARC
  5
1FE
330
1F
100
AcDbEntity
  8
A_NOTIZEN_SYMB
  6
Continuous
 62
     2
100
AcDbCircle
 10
19651068.8995175
 20
10654977.0463622
 30
0.0
 40
0.2499997988344033
100
AcDbArc
 50
179.9999543230732
 51
270.0000461038136
  0
ARC
  5
1FF
330
1F
100
AcDbEntity
  8
A_NOTIZEN_SYMB
  6
Continuous
 62
     2
100
AcDbCircle
 10
19651070.3995179
 20
10654976.5463626
 30
0.0
 40
0.2499997988344033
100
AcDbArc
 50
359.9999543230732
 51
90.00004610381365
  0
ARC
  5
200
330
1F
100
AcDbEntity
  8
A_NOTIZEN_SYMB
  6
Continuous
 62
     2
100
AcDbCircle
 10
19651070.3995179
 20
10654975.0463622
 30
0.0
 40
0.24999980069705
100
AcDbArc
 50
269.9999538961864
 51
0.00004567692683
  0
ARC
  5
201
330
1F
100
AcDbEntity
  8
A_NOTIZEN_SYMB
  6
Continuous
 62
     2
100
AcDbCircle
 10
19651069.1995175
 20
10654974.5463626
 30
0.0
 40
0.24999980069705
100
AcDbArc
 50
89.99995389618634
 51
180.0000456769268
  0
ARC
  5
202
330
1F
100
AcDbEntity
  8
A_NOTIZEN_SYMB
  6
Continuous
 62
     2
100
AcDbCircle
 10
19651069.1995175
 20
10654973.0463622
 30
0.0
 40
0.2499997988344033
100
AcDbArc
 50
179.9999543230732
 51
270.0000461038136
  0
ARC
  5
203
330
1F
100
AcDbEntity
  8
A_NOTIZEN_SYMB
  6
Continuous
 62
     2
100
AcDbCircle
 10
19651070.3995179
 20
10654972.5463626
 30
0.0
 40
0.2499997988344033
100
AcDbArc
 50
359.9999543230732
 51
90.00004610381365
  0
ARC
  5
204
330
1F
100
AcDbEntity
  8
A_NOTIZEN_SYMB
  6
Continuous
 62
     2
100
AcDbCircle
 10
19651070.3995179
 20
10654971.0463622
 30
0.0
 40
0.24999980069705
100
AcDbArc
 50
269.9999538961864
 51
0.00004567692683
  0
ARC
  5
205
330
1F
100
AcDbEntity
  8
A_NOTIZEN_SYMB
  6
Continuous
 62
     2
100
AcDbCircle
 10
19651068.8995175
 20
10654970.5463626
 30
0.0
 40
0.24999980069705
100
AcDbArc
 50
89.99995389618634
 51
180.0000456769268
  0
ARC
  5
206
330
1F
100
AcDbEntity
  8
A_NOTIZEN_SYMB
  6
Continuous
 62
     2
100
AcDbCircle
 10
19651065.4495247
 20
10654965.6963591
 30
0.0
 40
3.199992991112055
100
AcDbArc
 50
315.9513238138424
 51
0.00005909727386
  0
ARC
  5
207
330
1F
100
AcDbEntity
  8
A_NOTIZEN_SYMB
  6
Continuous
 62
     2
100
AcDbCircle
 10
19651068.2495173
 20
10654956.896324
 30
0.0
 40
0.4999995976688081
100
AcDbArc
 50
179.9999541096296
 51
270.0000461038139
  0
ARC
  5
208
330
1F
100
AcDbEntity
  8
A_NOTIZEN_SYMB
  6
Continuous
 62
     2
100
AcDbCircle
 10
19651133.1495181
 20
10654956.896324
 30
0.0
 40
0.4999995995314518
100
AcDbArc
 50
269.9999543230733
 51
0.00004589037007
  0
ARC
  5
209
330
1F
100
AcDbEntity
  8
A_NOTIZEN_SYMB
  6
Continuous
 62
     2
100
AcDbCircle
 10
19651133.1495181
 20
10654969.8963248
 30
0.0
 40
0.4999996013940984
100
AcDbArc
 50
359.9999541096299
 51
90.00004567692666
  0
ARC
  5
20A
330
1F
100
AcDbEntity
  8
A_NOTIZEN_SYMB
  6
Continuous
 62
     2
100
AcDbCircle
 10
19651132.1495173
 20
10654970.896324
 30
0.0
 40
0.500000400468866
100
AcDbArc
 50
89.99995432314651
 51
270.0000456769267
  0
ARC
  5
20B
330
1F
100
AcDbEntity
  8
A_NOTIZEN_SYMB
  6
Continuous
 62
     2
100
AcDbCircle
 10
19651133.1495181
 20
10654971.896324
 30
0.0
 40
0.4999995995314518
100
AcDbArc
 50
269.9999543230733
 51
0.00004589037007
  0
ARC
  5
20C
330
1F
100
AcDbEntity
  8
A_NOTIZEN_SYMB
  6
Continuous
 62
     2
100
AcDbCircle
 10
19651133.1495181
 20
10654984.8963248
 30
0.0
 40
0.4999996013940984
100
AcDbArc
 50
359.9999541096299
 51
90.00004567692666
  0
ARC
  5
20D
330
1F
100
AcDbEntity
  8
A_NOTIZEN_SYMB
  6
Continuous
 62
     2
100
AcDbCircle
 10
19651132.1495173
 20
10654985.896324
 30
0.0
 40
0.500000400468866
100
AcDbArc
 50
89.99995432314651
 51
270.0000456769267
  0
ARC
  5
20E
330
1F
100
AcDbEntity
  8
A_NOTIZEN_SYMB
  6
Continuous
 62
     2
100
AcDbCircle
 10
19651133.1495181
 20
10654986.896324
 30
0.0
 40
0.4999995995314518
100
AcDbArc
 50
269.9999543230733
 51
0.00004589037007
  0
ARC
  5
20F
330
1F
100
AcDbEntity
  8
A_NOTIZEN_SYMB
  6
Continuous
 62
     2
100
AcDbCircle
 10
19651108.4495181
 20
10655014.7963628
 30
0.0
 40
0.4999996013940984
100
AcDbArc
 50
359.9999541096299
 51
90.00004567692666
  0
ARC
  5
210
330
1F
100
AcDbEntity
  8
A_NOTIZEN_SYMB
  6
Continuous
 62
     2
100
AcDbCircle
 10
19651089.2495173
 20
10655014.7963628
 30
0.0
 40
0.4999995995314548
100
AcDbArc
 50
89.99995389618618
 51
180.0000458903704
  0
ARC
  5
211
330
1F
100
AcDbEntity
  8
A_NOTIZEN_SYMB
  6
Continuous
 62
     2
100
AcDbCircle
 10
19651089.2495173
 20
10655004.996352
 30
0.0
 40
0.4999995976688081
100
AcDbArc
 50
179.9999541096296
 51
270.0000461038139
  0
ARC
  5
212
330
1F
100
AcDbEntity
  8
A_NOTIZEN_SYMB
  6
Continuous
 62
     2
100
AcDbCircle
 10
19651108.4495181
 20
10655004.996352
 30
0.0
 40
0.4999995995314518
100
AcDbArc
 50
269.9999543230733
 51
0.00004589037007
  0
ARC
  5
213
330
1F
100
AcDbEntity
  8
A_NOTIZEN_SYMB
  6
Continuous
 62
     2
100
AcDbCircle
 10
19651129.4495181
 20
10654954.6963248
 30
0.0
 40
0.4999996013940969
100
AcDbArc
 50
359.9999543230735
 51
90.0000456769265
  0
ARC
  5
214
330
1F
100
AcDbEntity
  8
A_NOTIZEN_SYMB
  6
Continuous
 62
     2
100
AcDbCircle
 10
19651110.2495173
 20
10654954.6963248
 30
0.0
 40
0.4999996013940999
100
AcDbArc
 50
89.99995389618634
 51
180.0000456769268
  0
ARC
  5
215
330
1F
100
AcDbEntity
  8
A_NOTIZEN_SYMB
  6
Continuous
 62
     2
100
AcDbCircle
 10
19651110.2495173
 20
10654952.296362
 30
0.0
 40
0.4999995976688081
100
AcDbArc
 50
179.9999541096296
 51
270.0000461038139
  0
ARC
  5
216
330
1F
100
AcDbEntity
  8
A_NOTIZEN_SYMB
  6
Continuous
 62
     2
100
AcDbCircle
 10
19651129.4495181
 20
10654952.296362
 30
0.0
 40
0.4999995995314518
100
AcDbArc
 50
269.9999543230733
 51
0.00004589037007
  0
ARC
  5
217
330
1F
100
AcDbEntity
  8
A_NOTIZEN_SYMB
  6
Continuous
 62
     2
100
AcDbCircle
 10
19651129.4495181
 20
10654950.4963628
 30
0.0
 40
0.4999996013940984
100
AcDbArc
 50
359.9999541096299
 51
90.00004567692666
  0
ARC
  5
218
330
1F
100
AcDbEntity
  8
A_NOTIZEN_SYMB
  6
Continuous
 62
     2
100
AcDbCircle
 10
19651110.2495173
 20
10654950.4963628
 30
0.0
 40
0.4999995995314548
100
AcDbArc
 50
89.99995389618618
 51
180.0000458903704
  0
ARC
  5
219
330
1F
100
AcDbEntity
  8
A_NOTIZEN_SYMB
  6
Continuous
 62
     2
100
AcDbCircle
 10
19651110.2495173
 20
10654947.796362
 30
0.0
 40
0.4999995976688081
100
AcDbArc
 50
179.9999541096296
 51
270.0000461038139
  0
ARC
  5
21A
330
1F
100
AcDbEntity
  8
A_NOTIZEN_SYMB
  6
Continuous
 62
     2
100
AcDbCircle
 10
19651129.4495181
 20
10654947.796362
 30
0.0
 40
0.4999995995314518
100
AcDbArc
 50
269.9999543230733
 51
0.00004589037007
  0
ARC
  5
21B
330
1F
100
AcDbEntity
  8
A_NOTIZEN_SYMB
  6
Continuous
 62
     2
100
AcDbCircle
 10
19651087.4495181
 20
10655014.7963628
 30
0.0
 40
0.4999996013940984
100
AcDbArc
 50
359.9999541096299
 51
90.00004567692666
  0
ARC
  5
21C
330
1F
100
AcDbEntity
  8
A_NOTIZEN_SYMB
  6
Continuous
 62
     2
100
AcDbCircle
 10
19651063.6495173
 20
10655014.7963628
 30
0.0
 40
0.4999995995314518
100
AcDbArc
 50
89.99995432307335
 51
180.0000458903701
  0
ARC
  5
21D
330
1F
100
AcDbEntity
  8
A_NOTIZEN_SYMB
  6
Continuous
 62
     2
100
AcDbCircle
 10
19651063.6495173
 20
10655004.996352
 30
0.0
 40
0.4999996013940984
100
AcDbArc
 50
179.9999541096299
 51
270.0000456769267
  0
ARC
  5
21E
330
1F
100
AcDbEntity
  8
A_NOTIZEN_SYMB
  6
Continuous
 62
     2
100
AcDbCircle
 10
19651087.4495181
 20
10655004.996352
 30
0.0
 40
0.4999995995314518
100
AcDbArc
 50
269.9999543230733
 51
0.00004589037007
  0
ARC
  5
21F
330
1F
100
AcDbEntity
  8
A_NOTIZEN_SYMB
  6
Continuous
 62
     2
100
AcDbCircle
 10
19651108.4495181
 20
10654954.6963248
 30
0.0
 40
0.4999996013940969
100
AcDbArc
 50
359.9999543230735
 51
90.0000456769265
  0
ARC
  5
220
330
1F
100
AcDbEntity
  8
A_NOTIZEN_SYMB
  6
Continuous
 62
     2
100
AcDbCircle
 10
19651089.2495173
 20
10654954.6963248
 30
0.0
 40
0.4999996013940999
100
AcDbArc
 50
89.99995389618634
 51
180.0000456769268
  0
ARC
  5
221
330
1F
100
AcDbEntity
  8
A_NOTIZEN_SYMB
  6
Continuous
 62
     2
100
AcDbCircle
 10
19651089.2495173
 20
10654952.296362
 30
0.0
 40
0.4999995976688081
100
AcDbArc
 50
179.9999541096296
 51
213.9062845273858
  0
ARC
  5
222
330
1F
100
AcDbEntity
  8
A_NOTIZEN_SYMB
  6
Continuous
 62
     2
100
AcDbCircle
 10
19651108.4495181
 20
10654952.296362
 30
0.0
 40
0.4999995995314518
100
AcDbArc
 50
269.9999543230733
 51
0.00004589037007
  0
ARC
  5
223
330
1F
100
AcDbEntity
  8
A_NOTIZEN_SYMB
  6
Continuous
 62
     2
100
AcDbCircle
 10
19651108.4495181
 20
10654950.4963628
 30
0.0
 40
0.4999996013940984
100
AcDbArc
 50
359.9999541096299
 51
90.00004567692666
  0
ARC
  5
224
330
1F
100
AcDbEntity
  8
A_NOTIZEN_SYMB
  6
Continuous
 62
     2
100
AcDbCircle
 10
19651089.2495173
 20
10654947.796362
 30
0.0
 40
0.4999995976688081
100
AcDbArc
 50
179.9999541096296
 51
270.0000461038139
  0
ARC
  5
225
330
1F
100
AcDbEntity
  8
A_NOTIZEN_SYMB
  6
Continuous
 62
     2
100
AcDbCircle
 10
19651108.4495181
 20
10654947.796362
 30
0.0
 40
0.4999995995314518
100
AcDbArc
 50
269.9999543230733
 51
0.00004589037007
  0
ARC
  5
226
330
1F
100
AcDbEntity
  8
A_NOTIZEN_SYMB
  6
Continuous
 62
     2
100
AcDbCircle
 10
19651087.4495181
 20
10654954.6963248
 30
0.0
 40
0.4999996013940969
100
AcDbArc
 50
359.9999543230735
 51
90.0000456769265
  0
ARC
  5
227
330
1F
100
AcDbEntity
  8
A_NOTIZEN_SYMB
  6
Continuous
 62
     2
100
AcDbCircle
 10
19651068.2495173
 20
10654954.6963248
 30
0.0
 40
0.4999996013940999
100
AcDbArc
 50
89.99995389618634
 51
180.0000456769268
  0
ARC
  5
228
330
1F
100
AcDbEntity
  8
A_NOTIZEN_SYMB
  6
Continuous
 62
     2
100
AcDbCircle
 10
19651068.2495173
 20
10654947.796362
 30
0.0
 40
0.499999601843295
100
AcDbArc
 50
197.4575694108313
 51
270.0000461038139
  0
ARC
  5
229
330
1F
100
AcDbEntity
  8
A_NOTIZEN_SYMB
  6
Continuous
 62
     2
100
AcDbCircle
 10
19651087.4495181
 20
10654947.796362
 30
0.0
 40
0.4999995995314518
100
AcDbArc
 50
269.9999543230733
 51
0.00004589037007
  0
ARC
  5
22A
330
1F
100
AcDbEntity
  8
A_NOTIZEN_SYMB
  6
Continuous
 62
     2
100
AcDbCircle
 10
19651061.5212324
 20
10655002.7963525
 30
0.0
 40
0.4999999920707677
100
AcDbArc
 50
13.49000912740324
 51
90.00008025473889
  0
ARC
  5
22B
330
1F
100
AcDbEntity
  8
A_NOTIZEN_SYMB
  6
Continuous
 62
     2
100
AcDbCircle
 10
19651060.6004744
 20
10655002.7963529
 30
0.0
 40
0.4999994989485459
100
AcDbArc
 50
89.99996542213268
 51
168.000260513093
  0
ARC
  5
22C
330
1F
100
AcDbEntity
  8
A_NOTIZEN_SYMB
  6
Continuous
 62
     2
100
AcDbCircle
 10
19651057.7495181
 20
10654988.0963628
 30
0.0
 40
0.4999996013940969
100
AcDbArc
 50
359.9999543230735
 51
90.0000456769265
  0
ARC
  5
22D
330
1F
100
AcDbEntity
  8
A_NOTIZEN_SYMB
  6
Continuous
 62
     2
100
AcDbCircle
 10
19651058.7495176
 20
10654984.9426716
 30
0.0
 40
0.4999998994172024
100
AcDbArc
 50
180.0000230518931
 51
304.5808218472054
  0
ARC
  5
22E
330
1F
100
AcDbEntity
  8
A_NOTIZEN_SYMB
  6
Continuous
 62
     2
100
AcDbCircle
 10
19651060.8495157
 20
10654981.8963686
 30
0.0
 40
3.199993800372511
100
AcDbArc
 50
89.99996418145811
 51
124.5808070382713
  0
ARC
  5
22F
330
1F
100
AcDbEntity
  8
A_NOTIZEN_SYMB
  6
Continuous
 62
     2
100
AcDbCircle
 10
19651065.6474075
 20
10654985.5963623
 30
0.0
 40
0.4999998994172024
100
AcDbArc
 50
270.0000230518931
 51
13.49003392489387
  0
ARC
  5
230
330
1F
100
AcDbEntity
  8
A_NOTIZEN_SYMB
  6
Continuous
 62
     2
100
AcDbCircle
 10
19651066.049518
 20
10654961.9963628
 30
0.0
 40
0.4999996982516462
100
AcDbArc
 50
359.9999541096388
 51
90.00003457786038
  0
ARC
  5
231
330
1F
100
AcDbEntity
  8
A_NOTIZEN_SYMB
  6
Continuous
 62
     2
100
AcDbCircle
 10
19651060.8495209
 20
10654965.6963706
 30
0.0
 40
3.200008163355815
100
AcDbArc
 50
238.1952312873783
 51
269.999942703931
  0
ARC
  5
232
330
1F
100
AcDbEntity
  8
A_NOTIZEN_SYMB
  6
Continuous
 62
     2
100
AcDbCircle
 10
19651058.8995183
 20
10654962.5519224
 30
0.0
 40
0.5000005693478923
100
AcDbArc
 50
58.19525338976884
 51
180.0
  0
ARC
  5
233
330
1F
100
AcDbEntity
  8
A_NOTIZEN_SYMB
  6
Continuous
 62
     2
100
AcDbCircle
 10
19651057.8995181
 20
10654959.496362
 30
0.0
 40
0.4999996013940969
100
AcDbArc
 50
269.9999543230735
 51
0.00004567692649
  0
ARC
  5
234
330
1F
100
AcDbEntity
  8
A_NOTIZEN_SYMB
  6
Continuous
 62
     2
100
AcDbCircle
 10
19651057.6495173
 20
10654958.4963628
 30
0.0
 40
0.4999995995314518
100
AcDbArc
 50
89.99995432307335
 51
180.0000458903701
  0
ARC
  5
235
330
1F
100
AcDbEntity
  8
A_NOTIZEN_SYMB
  6
Continuous
 62
     2
100
AcDbCircle
 10
19651057.6495173
 20
10654956.896324
 30
0.0
 40
0.4999996013940984
100
AcDbArc
 50
179.9999541096299
 51
270.0000456769267
  0
ARC
  5
236
330
1F
100
AcDbEntity
  8
A_NOTIZEN_SYMB
  6
Continuous
 62
     2
100
AcDbCircle
 10
19651066.049518
 20
10654956.896324
 30
0.0
 40
0.499999599531384
100
AcDbArc
 50
269.9999654221396
 51
0.00004589036118
  0
ARC
  5
237
330
1F
100
AcDbEntity
  8
A_NOTIZEN_SYMB
  6
Continuous
 62
     2
100
AcDbCircle
 10
19651066.049518
 20
10654954.6963248
 30
0.0
 40
0.4999996982516447
100
AcDbArc
 50
359.9999543230824
 51
90.00003457786023
  0
ARC
  5
238
330
1F
100
AcDbEntity
  8
A_NOTIZEN_SYMB
  6
Continuous
 62
     2
100
AcDbCircle
 10
19651055.9495173
 20
10654954.6963248
 30
0.0
 40
0.4999996013940999
100
AcDbArc
 50
89.99995389618634
 51
180.0000456769268
  0
ARC
  5
239
330
1F
100
AcDbEntity
  8
A_NOTIZEN_SYMB
  6
Continuous
 62
     2
100
AcDbCircle
 10
19651055.9495173
 20
10654947.796362
 30
0.0
 40
0.499999601843295
100
AcDbArc
 50
197.4575694108313
 51
270.0000461038139
  0
ARC
  5
23A
330
1F
100
AcDbEntity
  8
A_NOTIZEN_SYMB
  6
Continuous
 62
     2
100
AcDbCircle
 10
19651066.049518
 20
10654947.796362
 30
0.0
 40
0.499999599531384
100
AcDbArc
 50
269.9999654221396
 51
342.5424340469476
  0
ARC
  5
23B
330
1F
100
AcDbEntity
  8
A_NOTIZEN_SYMB
  6
Continuous
 62
     2
100
AcDbCircle
 10
19651053.549518
 20
10654954.2963628
 30
0.0
 40
0.4999996982516462
100
AcDbArc
 50
359.9999541096388
 51
90.00003457786038
  0
ARC
  5
23C
330
1F
100
AcDbEntity
  8
A_NOTIZEN_SYMB
  6
Continuous
 62
     2
100
AcDbCircle
 10
19651045.7495173
 20
10654954.2963628
 30
0.0
 40
0.4999995995314548
100
AcDbArc
 50
89.99995389618618
 51
180.0000458903704
  0
ARC
  5
23D
330
1F
100
AcDbEntity
  8
A_NOTIZEN_SYMB
  6
Continuous
 62
     2
100
AcDbCircle
 10
19651037.9495173
 20
10654947.796362
 30
0.0
 40
0.499999601843295
100
AcDbArc
 50
197.4575694108313
 51
270.0000461038139
  0
ARC
  5
23E
330
1F
100
AcDbEntity
  8
A_NOTIZEN_SYMB
  6
Continuous
 62
     2
100
AcDbCircle
 10
19651043.549518
 20
10654947.796362
 30
0.0
 40
0.499999599531384
100
AcDbArc
 50
269.9999654221396
 51
342.5424340469476
  0
ARC
  5
23F
330
1F
100
AcDbEntity
  8
A_NOTIZEN_SYMB
  6
Continuous
 62
     2
100
AcDbCircle
 10
19651045.5495173
 20
10654947.796362
 30
0.0
 40
0.4999995947358928
100
AcDbArc
 50
197.4575696669631
 51
270.0000456769267
  0
ARC
  5
240
330
1F
100
AcDbEntity
  8
A_NOTIZEN_SYMB
  6
Continuous
 62
     2
100
AcDbCircle
 10
19651048.8495181
 20
10654947.796362
 30
0.0
 40
0.4999995995314548
100
AcDbArc
 50
269.9999538961861
 51
342.5424305891688
  0
ARC
  5
241
330
1F
100
AcDbEntity
  8
A_NOTIZEN_SYMB
  6
Continuous
 62
     2
100
AcDbCircle
 10
19651050.8495173
 20
10654947.796362
 30
0.0
 40
0.4999995947358928
100
AcDbArc
 50
197.4575696669631
 51
270.0000456769267
  0
ARC
  5
242
330
1F
100
AcDbEntity
  8
A_NOTIZEN_SYMB
  6
Continuous
 62
     2
100
AcDbCircle
 10
19651053.549518
 20
10654947.796362
 30
0.0
 40
0.499999599531384
100
AcDbArc
 50
269.9999654221396
 51
342.5424340469476
  0
ARC
  5
243
330
1F
100
AcDbEntity
  8
8011$0$8011
  6
Continuous
 62
     2
100
AcDbCircle
 10
19650981.949518
 20
10654972.1715042
 30
0.0
 40
0.50000035501879
100
AcDbArc
 50
100.000017154044
 51
179.9999769481253
  0
ARC
  5
244
330
1F
100
AcDbEntity
  8
8011$0$8011
  6
Continuous
 62
     2
100
AcDbCircle
 10
19650981.949518
 20
10655014.9212206
 30
0.0
 40
0.5000002980232643
100
AcDbArc
 50
180.0000230518747
 51
259.9999828459559
  0
ARC
  5
245
330
1F
100
AcDbEntity
  8
8011$0$8011
  6
Continuous
 62
     2
100
AcDbCircle
 10
19651054.5138319
 20
10655028.7963646
 30
0.0
 40
5.999997277486749
100
AcDbArc
 50
14.99998253534303
 51
90.00002098860983
  0
ARC
  5
246
330
1F
100
AcDbEntity
  8
8011$0$8011
  6
Continuous
 62
     2
100
AcDbCircle
 10
19651061.9495172
 20
10655022.2963629
 30
0.0
 40
0.5000004991891491
100
AcDbArc
 50
270.0000572027772
 51
14.99998028485845
  0
ARC
  5
247
330
1F
100
AcDbEntity
  8
8011$0$8011
  6
Continuous
 62
     2
100
AcDbCircle
 10
19651058.4235058
 20
10655025.7963623
 30
0.0
 40
0.5000001359904963
100
AcDbArc
 50
15.00006446003784
 51
90.0000115259419
  0
ARC
  5
248
330
1F
100
AcDbEntity
  8
8011$0$8011
  6
Continuous
 62
     2
100
AcDbCircle
 10
19651053.6110148
 20
10655025.7963643
 30
0.0
 40
0.4999981001055574
100
AcDbArc
 50
89.99978228689295
 51
180.0002177131071
  0
ARC
  5
249
330
1F
100
AcDbEntity
  8
8011$0$8011
  6
Continuous
 62
     2
100
AcDbCircle
 10
19651035.6995178
 20
10654969.036363
 30
0.0
 40
1.250000607610473
100
AcDbArc
 50
1.36882944335375
 51
147.1401451876096
  0
ARC
  5
24A
330
1F
100
AcDbEntity
  8
8011$0$8011
  6
Continuous
 62
     2
100
AcDbCircle
 10
19651041.4495184
 20
10654961.7963617
 30
0.0
 40
0.9999992996456691
100
AcDbArc
 50
269.9999598726105
 51
0.00004012738948
  0
ARC
  5
24B
330
1F
100
AcDbEntity
  8
8011$0$8011
  6
Continuous
 62
     2
100
AcDbCircle
 10
19650992.6495173
 20
10655031.2963628
 30
0.0
 40
0.4999995995314518
100
AcDbArc
 50
89.99995432307335
 51
180.0000458903701
  0
ARC
  5
24C
330
1F
100
AcDbEntity
  8
8011$0$8011
  6
Continuous
 62
     2
100
AcDbCircle
 10
19650992.6495173
 20
10655021.496362
 30
0.0
 40
0.4999996013940969
100
AcDbArc
 50
179.9999543230735
 51
270.0000456769265
  0
ARC
  5
24D
330
1F
100
AcDbEntity
  8
8011$0$8011
  6
Continuous
 62
     2
100
AcDbCircle
 10
19651014.9495181
 20
10655021.496362
 30
0.0
 40
0.4999996013940969
100
AcDbArc
 50
269.9999543230735
 51
0.00004567692649
  0
ARC
  5
24E
330
1F
100
AcDbEntity
  8
8011$0$8011
  6
Continuous
 62
     2
100
AcDbCircle
 10
19651014.9495181
 20
10655031.2963628
 30
0.0
 40
0.4999996013940984
100
AcDbArc
 50
359.9999541096299
 51
90.00004567692666
  0
ARC
  5
24F
330
1F
100
AcDbEntity
  8
8011$0$8011
  6
Continuous
 62
     2
100
AcDbCircle
 10
19650992.6495173
 20
10655019.2963628
 30
0.0
 40
0.4999995995314518
100
AcDbArc
 50
89.99995432307335
 51
180.0000458903701
  0
ARC
  5
250
330
1F
100
AcDbEntity
  8
8011$0$8011
  6
Continuous
 62
     2
100
AcDbCircle
 10
19650992.6495173
 20
10654976.296362
 30
0.0
 40
0.4999996013940984
100
AcDbArc
 50
179.9999541096299
 51
270.0000456769267
  0
ARC
  5
251
330
1F
100
AcDbEntity
  8
8011$0$8011
  6
Continuous
 62
     2
100
AcDbCircle
 10
19651010.6495181
 20
10654976.296362
 30
0.0
 40
0.4999995995314518
100
AcDbArc
 50
269.9999543230733
 51
0.00004589037007
  0
ARC
  5
252
330
1F
100
AcDbEntity
  8
8011$0$8011
  6
Continuous
 62
     2
100
AcDbCircle
 10
19651011.6495173
 20
10654978.2963628
 30
0.0
 40
0.5000003986062223
100
AcDbArc
 50
359.9999541097031
 51
180.0000458903701
  0
ARC
  5
253
330
1F
100
AcDbEntity
  8
8011$0$8011
  6
Continuous
 62
     2
100
AcDbCircle
 10
19651012.6495173
 20
10654976.296362
 30
0.0
 40
0.4999996013940984
100
AcDbArc
 50
179.9999541096299
 51
270.0000456769267
  0
ARC
  5
254
330
1F
100
AcDbEntity
  8
8011$0$8011
  6
Continuous
 62
     2
100
AcDbCircle
 10
19651025.049518
 20
10654976.296362
 30
0.0
 40
0.499999599531384
100
AcDbArc
 50
269.9999654221396
 51
0.00004589036118
  0
ARC
  5
255
330
1F
100
AcDbEntity
  8
8011$0$8011
  6
Continuous
 62
     2
100
AcDbCircle
 10
19651026.0495173
 20
10654978.2963628
 30
0.0
 40
0.5000003986062223
100
AcDbArc
 50
359.9999541097031
 51
180.0000458903701
  0
ARC
  5
256
330
1F
100
AcDbEntity
  8
8011$0$8011
  6
Continuous
 62
     2
100
AcDbCircle
 10
19651027.0495173
 20
10654976.296362
 30
0.0
 40
0.4999996013940984
100
AcDbArc
 50
179.9999541096299
 51
270.0000456769267
  0
ARC
  5
257
330
1F
100
AcDbEntity
  8
8011$0$8011
  6
Continuous
 62
     2
100
AcDbCircle
 10
19651035.1495181
 20
10654976.296362
 30
0.0
 40
0.4999995995314518
100
AcDbArc
 50
269.9999543230733
 51
0.00004589037007
  0
ARC
  5
258
330
1F
100
AcDbEntity
  8
8011$0$8011
  6
Continuous
 62
     2
100
AcDbCircle
 10
19651032.4210713
 20
10655019.2963628
 30
0.0
 40
0.499999560167011
100
AcDbArc
 50
11.99998179293804
 51
90.00006872883357
  0
ARC
  5
259
330
1F
100
AcDbEntity
  8
8011$0$8011
  6
Continuous
 62
     2
100
AcDbCircle
 10
19651012.6495173
 20
10655019.2963628
 30
0.0
 40
0.4999995995314518
100
AcDbArc
 50
89.99995432307335
 51
180.0000458903701
  0
ARC
  5
25A
330
1F
100
AcDbEntity
  8
8011$0$8011
  6
Continuous
 62
     2
100
AcDbCircle
 10
19651011.6495181
 20
10655017.296362
 30
0.0
 40
0.5000003986062223
100
AcDbArc
 50
179.9999541097031
 51
0.00004589037007
  0
ARC
  5
25B
330
1F
100
AcDbEntity
  8
8011$0$8011
  6
Continuous
 62
     2
100
AcDbCircle
 10
19651010.6495181
 20
10655019.2963628
 30
0.0
 40
0.4999996013940984
100
AcDbArc
 50
359.9999541096299
 51
90.00004567692666
  0
ARC
  5
25C
330
1F
100
AcDbEntity
  8
8011$0$8011
  6
Continuous
 62
     2
100
AcDbCircle
 10
19651016.7495173
 20
10655021.496362
 30
0.0
 40
0.4999995976688066
100
AcDbArc
 50
179.9999543230732
 51
270.0000461038136
  0
ARC
  5
25D
330
1F
100
AcDbEntity
  8
8011$0$8011
  6
Continuous
 62
     2
100
AcDbCircle
 10
19651031.9534471
 20
10655021.4963623
 30
0.0
 40
0.499999901279966
100
AcDbArc
 50
269.999954323101
 51
12.00003325055547
  0
ARC
  5
25E
330
1F
100
AcDbEntity
  8
8011$0$8011
  6
Continuous
 62
     2
100
AcDbCircle
 10
19651029.8703933
 20
10655031.2963628
 30
0.0
 40
0.499999560167011
100
AcDbArc
 50
11.99998179293804
 51
90.00006872883357
  0
ARC
  5
25F
330
1F
100
AcDbEntity
  8
8011$0$8011
  6
Continuous
 62
     2
100
AcDbCircle
 10
19651016.7495173
 20
10655031.2963628
 30
0.0
 40
0.4999995995314548
100
AcDbArc
 50
89.99995389618618
 51
180.0000458903704
  0
ARC
  5
260
330
1F
100
AcDbEntity
  8
8011$0$8011
  6
Continuous
 62
     2
100
AcDbCircle
 10
19651032.1195413
 20
10655031.2963626
 30
0.0
 40
0.4999998006971309
100
AcDbArc
 50
89.99995389620473
 51
192.0000446133866
  0
ARC
  5
261
330
1F
100
AcDbEntity
  8
8011$0$8011
  6
Continuous
 62
     2
100
AcDbCircle
 10
19651033.5011591
 20
10655024.796362
 30
0.0
 40
0.4999995605542761
100
AcDbArc
 50
191.9999820017174
 51
270.0000687288336
  0
ARC
  5
262
330
1F
100
AcDbEntity
  8
8011$0$8011
  6
Continuous
 62
     2
100
AcDbCircle
 10
19651050.611017
 20
10655024.796362
 30
0.0
 40
0.499999599531384
100
AcDbArc
 50
269.9999654221396
 51
0.00004589036118
  0
ARC
  5
263
330
1F
100
AcDbEntity
  8
8011$0$8011
  6
Continuous
 62
     2
100
AcDbCircle
 10
19651053.6110148
 20
10655025.7963643
 30
0.0
 40
2.49999810010267
100
AcDbArc
 50
89.99995645751096
 51
180.0000435424891
  0
ARC
  5
264
330
1F
100
AcDbEntity
  8
8011$0$8011
  6
Continuous
 62
     2
100
AcDbCircle
 10
19651057.0138301
 20
10655028.796362
 30
0.0
 40
0.4999995995314518
100
AcDbArc
 50
269.9999543230733
 51
0.00004589037007
  0
ARC
  5
265
330
1F
100
AcDbEntity
  8
8011$0$8011
  6
Continuous
 62
     2
100
AcDbCircle
 10
19651054.5138319
 20
10655028.7963646
 30
0.0
 40
2.99999780207953
100
AcDbArc
 50
359.9999579871911
 51
90.00004197723504
  0
ARC
  5
266
330
1F
100
AcDbEntity
  8
8011$0$8011
  6
Continuous
 62
     2
100
AcDbCircle
 10
19650992.6495173
 20
10654974.0963628
 30
0.0
 40
0.4999996013940969
100
AcDbArc
 50
89.99995432307352
 51
180.0000456769265
  0
ARC
  5
267
330
1F
100
AcDbEntity
  8
8011$0$8011
  6
Continuous
 62
     2
100
AcDbCircle
 10
19650992.6495173
 20
10654971.096362
 30
0.0
 40
0.4999996013940984
100
AcDbArc
 50
179.9999541096299
 51
270.0000456769267
  0
ARC
  5
268
330
1F
100
AcDbEntity
  8
8011$0$8011
  6
Continuous
 62
     2
100
AcDbCircle
 10
19651007.9995181
 20
10654971.096362
 30
0.0
 40
0.4999995995314518
100
AcDbArc
 50
269.9999543230733
 51
0.00004589037007
  0
ARC
  5
269
330
1F
100
AcDbEntity
  8
8011$0$8011
  6
Continuous
 62
     2
100
AcDbCircle
 10
19651007.9995181
 20
10654974.0963628
 30
0.0
 40
0.4999996013940969
100
AcDbArc
 50
359.9999543230735
 51
90.0000456769265
  0
ARC
  5
26A
330
1F
100
AcDbEntity
  8
8011$0$8011
  6
Continuous
 62
     2
100
AcDbCircle
 10
19651009.7995173
 20
10654974.0963628
 30
0.0
 40
0.4999996013940969
100
AcDbArc
 50
89.99995432307352
 51
180.0000456769265
  0
ARC
  5
26B
330
1F
100
AcDbEntity
  8
8011$0$8011
  6
Continuous
 62
     2
100
AcDbCircle
 10
19651009.7995173
 20
10654971.096362
 30
0.0
 40
0.4999996013940984
100
AcDbArc
 50
179.9999541096299
 51
270.0000456769267
  0
ARC
  5
26C
330
1F
100
AcDbEntity
  8
8011$0$8011
  6
Continuous
 62
     2
100
AcDbCircle
 10
19651025.1495181
 20
10654971.096362
 30
0.0
 40
0.4999995995314518
100
AcDbArc
 50
269.9999543230733
 51
0.00004589037007
  0
ARC
  5
26D
330
1F
100
AcDbEntity
  8
8011$0$8011
  6
Continuous
 62
     2
100
AcDbCircle
 10
19651025.1495181
 20
10654974.0963628
 30
0.0
 40
0.4999996013940969
100
AcDbArc
 50
359.9999543230735
 51
90.0000456769265
  0
ARC
  5
26E
330
1F
100
AcDbEntity
  8
8011$0$8011
  6
Continuous
 62
     2
100
AcDbCircle
 10
19650992.6495173
 20
10654969.2963628
 30
0.0
 40
0.4999995995314518
100
AcDbArc
 50
89.99995432307335
 51
180.0000458903701
  0
ARC
  5
26F
330
1F
100
AcDbEntity
  8
8011$0$8011
  6
Continuous
 62
     2
100
AcDbCircle
 10
19650992.6495173
 20
10654964.296362
 30
0.0
 40
0.4999996013940984
100
AcDbArc
 50
179.9999541096299
 51
270.0000456769267
  0
ARC
  5
270
330
1F
100
AcDbEntity
  8
8011$0$8011
  6
Continuous
 62
     2
100
AcDbCircle
 10
19651007.9995181
 20
10654964.296362
 30
0.0
 40
0.4999995995314518
100
AcDbArc
 50
269.9999543230733
 51
0.00004589037007
  0
ARC
  5
271
330
1F
100
AcDbEntity
  8
8011$0$8011
  6
Continuous
 62
     2
100
AcDbCircle
 10
19651007.9995181
 20
10654969.2963628
 30
0.0
 40
0.4999996013940984
100
AcDbArc
 50
359.9999541096299
 51
90.00004567692666
  0
ARC
  5
272
330
1F
100
AcDbEntity
  8
8011$0$8011
  6
Continuous
 62
     2
100
AcDbCircle
 10
19651026.9495173
 20
10654974.0963628
 30
0.0
 40
0.4999996013940999
100
AcDbArc
 50
89.99995389618634
 51
180.0000456769268
  0
ARC
  5
273
330
1F
100
AcDbEntity
  8
8011$0$8011
  6
Continuous
 62
     2
100
AcDbCircle
 10
19651026.9495173
 20
10654971.096362
 30
0.0
 40
0.4999995976688081
100
AcDbArc
 50
179.9999541096296
 51
270.0000461038139
  0
ARC
  5
274
330
1F
100
AcDbEntity
  8
8011$0$8011
  6
Continuous
 62
     2
100
AcDbCircle
 10
19651031.7550411
 20
10654971.0963624
 30
0.0
 40
0.5000000000001589
100
AcDbArc
 50
269.9999543231099
 51
332.4241845322761
  0
ARC
  5
275
330
1F
100
AcDbEntity
  8
8011$0$8011
  6
Continuous
 62
     2
100
AcDbCircle
 10
19651035.6995178
 20
10654969.036363
 30
0.0
 40
3.949999295366189
100
AcDbArc
 50
97.09965439410178
 51
152.4242313957285
  0
ARC
  5
276
330
1F
100
AcDbEntity
  8
8011$0$8011
  6
Continuous
 62
     2
100
AcDbCircle
 10
19651035.149518
 20
10654973.4522424
 30
0.0
 40
0.4999996550639808
100
AcDbArc
 50
277.0996537259715
 51
0.0
  0
ARC
  5
277
330
1F
100
AcDbEntity
  8
8011$0$8011
  6
Continuous
 62
     2
100
AcDbCircle
 10
19651035.1495181
 20
10654974.0963628
 30
0.0
 40
0.4999996013940969
100
AcDbArc
 50
359.9999543230735
 51
90.0000456769265
  0
ARC
  5
278
330
1F
100
AcDbEntity
  8
8011$0$8011
  6
Continuous
 62
     2
100
AcDbCircle
 10
19651009.7995173
 20
10654969.2963628
 30
0.0
 40
0.4999995995314518
100
AcDbArc
 50
89.99995432307335
 51
180.0000458903701
  0
ARC
  5
279
330
1F
100
AcDbEntity
  8
8011$0$8011
  6
Continuous
 62
     2
100
AcDbCircle
 10
19651009.7995173
 20
10654964.296362
 30
0.0
 40
0.4999996013940984
100
AcDbArc
 50
179.9999541096299
 51
270.0000456769267
  0
ARC
  5
27A
330
1F
100
AcDbEntity
  8
8011$0$8011
  6
Continuous
 62
     2
100
AcDbCircle
 10
19651025.1495181
 20
10654964.296362
 30
0.0
 40
0.4999995995314518
100
AcDbArc
 50
269.9999543230733
 51
0.00004589037007
  0
ARC
  5
27B
330
1F
100
AcDbEntity
  8
8011$0$8011
  6
Continuous
 62
     2
100
AcDbCircle
 10
19651025.1495181
 20
10654969.2963628
 30
0.0
 40
0.4999996013940984
100
AcDbArc
 50
359.9999541096299
 51
90.00004567692666
  0
ARC
  5
27C
330
1F
100
AcDbEntity
  8
8011$0$8011
  6
Continuous
 62
     2
100
AcDbCircle
 10
19651026.9495173
 20
10654969.2963628
 30
0.0
 40
0.4999995995314548
100
AcDbArc
 50
89.99995389618618
 51
180.0000458903704
  0
ARC
  5
27D
330
1F
100
AcDbEntity
  8
8011$0$8011
  6
Continuous
 62
     2
100
AcDbCircle
 10
19651026.9495173
 20
10654964.296362
 30
0.0
 40
0.4999995976688081
100
AcDbArc
 50
179.9999541096296
 51
270.0000461038139
  0
ARC
  5
27E
330
1F
100
AcDbEntity
  8
8011$0$8011
  6
Continuous
 62
     2
100
AcDbCircle
 10
19651031.4495181
 20
10654964.296362
 30
0.0
 40
0.4999995995314518
100
AcDbArc
 50
269.9999543230733
 51
0.00004589037007
  0
ARC
  5
27F
330
1F
100
AcDbEntity
  8
8011$0$8011
  6
Continuous
 62
     2
100
AcDbCircle
 10
19651031.4495181
 20
10654969.2963628
 30
0.0
 40
0.4999996013940984
100
AcDbArc
 50
359.9999541096299
 51
90.00004567692666
  0
ARC
  5
280
330
1F
100
AcDbEntity
  8
DEFAULT_2
  6
DASHED
 62
     2
100
AcDbCircle
 10
19651010.9495177
 20
10654942.0100448
 30
0.0
 40
4.499999972644914
100
AcDbArc
 50
297.2365940125853
 51
0.0
  0
ARC
  5
281
330
1F
100
AcDbEntity
  8
DEFAULT_2
  6
DASHED
 62
     2
100
AcDbCircle
 10
19651015.9495177
 20
10654932.2963624
 30
0.0
 40
9.924999973994272
100
AcDbArc
 50
9.35995634817832
 51
33.59419414795313
  0
ARC
  5
282
330
1F
100
AcDbEntity
  8
DEFAULT_2
  6
DASHED
 62
     2
100
AcDbCircle
 10
19651015.9495177
 20
10654932.2963624
 30
0.0
 40
6.425000019201492
100
AcDbArc
 50
9.3599567141206
 51
34.49000045204924
  0
ARC
  5
283
330
1F
100
AcDbEntity
  8
0
  6
Continuous
 62
     7
100
AcDbCircle
 10
19651006.4495177
 20
10654945.7963624
 30
0.0
 40
2.0
100
AcDbArc
 50
180.0
 51
270.0
  0
ARC
  5
284
330
1F
100
AcDbEntity
  8
0
  6
Continuous
 62
     7
100
AcDbCircle
 10
19651025.4495177
 20
10654945.7963624
 30
0.0
 40
2.0
100
AcDbArc
 50
270.0
 51
0.0
  0
ARC
  5
285
330
1F
100
AcDbEntity
  8
0
  6
Continuous
 62
     7
100
AcDbCircle
 10
19651010.9495177
 20
10654942.0100448
 30
0.0
 40
1.000000047772408
100
AcDbArc
 50
297.2365930111999
 51
0.0
  0
ARC
  5
286
330
1F
100
AcDbEntity
  8
0
  6
Continuous
 62
     7
100
AcDbCircle
 10
19651029.9495177
 20
10654941.5263624
 30
0.0
 40
0.9999999730251397
100
AcDbArc
 50
293.990001100254
 51
0.0
  0
ARC
  5
287
330
1F
100
AcDbEntity
  8
0
  6
Continuous
 62
     7
100
AcDbCircle
 10
19651026.729063
 20
10654934.0731652
 30
0.0
 40
4.50000006221427
100
AcDbArc
 50
113.9900001118562
 51
189.3599556060676
  0
ARC
  5
288
330
1F
100
AcDbEntity
  8
0
  6
Continuous
 62
     7
100
AcDbCircle
 10
19651026.729063
 20
10654934.0731652
 30
0.0
 40
0.9999999730251397
100
AcDbArc
 50
113.990001100254
 51
189.3599553598592
  0
ARC
  5
289
330
1F
100
AcDbEntity
  8
0
  6
Continuous
 62
     7
100
AcDbCircle
 10
19651029.9495177
 20
10654941.5263624
 30
0.0
 40
4.499999927910831
100
AcDbArc
 50
293.9899994191765
 51
0.0
  0
ARC
  5
28A
330
1F
100
AcDbEntity
  8
0
  6
Continuous
 62
     7
100
AcDbCircle
 10
19651015.9495177
 20
10654932.2963624
 30
0.0
 40
6.424999992349558
100
AcDbArc
 50
34.49000045204924
 51
9.3599567141206
  0
ARC
  5
28B
330
1F
100
AcDbEntity
  8
0
  6
Continuous
 62
     7
100
AcDbCircle
 10
19651015.9495177
 20
10654932.2963624
 30
0.0
 40
9.924999967565826
100
AcDbArc
 50
33.59419414795313
 51
9.35995634817832
  0
ARC
  5
28C
330
1F
100
AcDbEntity
  8
DEFAULT_2
  6
HIDDEN
 62
     8
100
AcDbCircle
 10
19651015.9495177
 20
10654932.2963624
 30
0.0
 40
6.400000017911528
100
AcDbArc
 50
106.4080852951363
 51
133.5919145754025
  0
CIRCLE
  5
28D
330
1F
100
AcDbEntity
  8
0
  6
Continuous
 62
     7
100
AcDbCircle
 10
19651015.9495177
 20
10654951.2963624
 30
0.0
 40
6.0
  0
SPLINE
  5
28E
330
1F
100
AcDbEntity
  8
0
  6
Continuous
 62
     7
100
AcDbSpline
210
0.0
220
0.0
230
1.0
 70
     8
 71
     3
 72
     9
 73
     5
 74
     3
 42
0.000000001
 43
0.0000000001
 44
0.00000001
 40
0.0
 40
0.0
 40
0.0
 40
0.0
 40
0.8750356908583408
 40
1.750071348965811
 40
1.750071348965811
 40
1.750071348965811
 40
1.750071348965811
 10
19651015.9495177
 20
10654943.8120489
 30
0.0
 10
19651015.65784674
 20
10654943.80991276
 30
0.0
 10
19651015.07450483
 20
10654943.80564046
 30
0.0
 10
19651014.49118008
 20
10654943.79945509
 30
0.0
 10
19651014.1995177
 20
10654943.7963624
 30
0.0
 11
19651015.9495177
 21
10654943.8120489
 31
0.0
 11
19651015.07450911
 21
10654943.8051622
 31
0.0
 11
19651014.1995177
 21
10654943.7963624
 31
0.0
  0
DIMENSION
  5
29A
330
1F
100
AcDbEntity
  8
1
100
AcDbDimension
  2
*D1
 10
19650994.4491252
 20
10654960.7963624
 30
0.0
 11
19650990.6991252
 21
10654955.7298795
 31
0.0
 70
    32
  1
<>
 71
     5
 42
-1.0
 53
90.0
  3
ME10_DIM_10
100
AcDbAlignedDimension
 13
19651030.0102949
 23
10654950.7963624
 33
0.0
 14
19650981.4495177
 24
10654960.7963624
 34
0.0
 50
90.0
100
AcDbRotatedDimension
  0
ENDSEC
  0
SECTION
  2
OBJECTS
  0
DICTIONARY
  5
C
330
0
100
AcDbDictionary
281
     1
  3
ACAD_GROUP
350
D
  3
ACAD_LAYOUT
350
1A
  3
ACAD_MATERIAL
350
3B
  3
ACAD_MLEADERSTYLE
350
29D
  3
ACAD_MLINESTYLE
350
17
  3
ACAD_PLOTSETTINGS
350
19
  3
ACAD_PLOTSTYLENAME
350
E
  3
ACAD_VISUALSTYLE
350
2A
  3
AcDbVariableDictionary
350
29B
  0
DICTIONARY
  5
D
102
{ACAD_REACTORS
330
C
102
}
330
C
100
AcDbDictionary
281
     1
  0
DICTIONARY
  5
1A
102
{ACAD_REACTORS
330
C
102
}
330
C
100
AcDbDictionary
281
     1
  3
Layout1
350
1E
  3
Layout2
350
26
  3
Model
350
22
  0
DICTIONARY
  5
3B
102
{ACAD_REACTORS
330
C
102
}
330
C
100
AcDbDictionary
281
     1
  3
ByBlock
350
3D
  3
ByLayer
350
3C
  3
Global
350
3E
  0
DICTIONARY
  5
29D
102
{ACAD_REACTORS
330
C
102
}
330
C
100
AcDbDictionary
281
     1
  0
DICTIONARY
  5
17
102
{ACAD_REACTORS
330
C
102
}
330
C
100
AcDbDictionary
281
     1
  3
Standard
350
18
  0
DICTIONARY
  5
19
102
{ACAD_REACTORS
330
C
102
}
330
C
100
AcDbDictionary
281
     1
  0
ACDBDICTIONARYWDFLT
  5
E
102
{ACAD_REACTORS
330
C
102
}
330
C
100
AcDbDictionary
281
     1
  3
Normal
350
F
100
AcDbDictionaryWithDefault
340
F
  0
DICTIONARY
  5
2A
102
{ACAD_REACTORS
330
C
102
}
330
C
100
AcDbDictionary
281
     1
  3
2dWireframe
350
2F
  3
3D Hidden
350
31
  3
3dWireframe
350
30
  3
Basic
350
32
  3
Brighten
350
36
  3
ColorChange
350
3A
  3
Conceptual
350
34
  3
Dim
350
35
  3
Facepattern
350
39
  3
Flat
350
2B
  3
FlatWithEdges
350
2C
  3
Gouraud
350
2D
  3
GouraudWithEdges
350
2E
  3
Linepattern
350
38
  3
Realistic
350
33
  3
Thicken
350
37
  0
DICTIONARY
  5
29B
102
{ACAD_REACTORS
330
C
102
}
330
C
100
AcDbDictionary
281
     1
  3
DIMASSOC
350
29E
  3
HIDETEXT
350
29F
  0
LAYOUT
  5
1E
102
{ACAD_REACTORS
330
1A
102
}
330
1A
100
AcDbPlotSettings
  1

  2
none_device
  4

  6

 40
0.0
 41
0.0
 42
0.0
 43
0.0
 44
0.0
 45
0.0
 46
0.0
 47
0.0
 48
0.0
 49
0.0
140
0.0
141
0.0
142
1.0
143
1.0
 70
   688
 72
     0
 73
     0
 74
     5
  7

 75
    16
147
1.0
148
0.0
149
0.0
100
AcDbLayout
  1
Layout1
 70
     1
 71
     1
 10
0.0
 20
0.0
 11
12.0
 21
9.0
 12
0.0
 22
0.0
 32
0.0
 14
1.00000000000000E+20
 24
1.00000000000000E+20
 34
1.00000000000000E+20
 15
-1.00000000000000E+20
 25
-1.00000000000000E+20
 35
-1.00000000000000E+20
146
0.0
 13
0.0
 23
0.0
 33
0.0
 16
1.0
 26
0.0
 36
0.0
 17
0.0
 27
1.0
 37
0.0
 76
     0
330
1B
  0
LAYOUT
  5
26
102
{ACAD_REACTORS
330
1A
102
}
330
1A
100
AcDbPlotSettings
  1

  2
none_device
  4

  6

 40
0.0
 41
0.0
 42
0.0
 43
0.0
 44
0.0
 45
0.0
 46
0.0
 47
0.0
 48
0.0
 49
0.0
140
0.0
141
0.0
142
1.0
143
1.0
 70
   688
 72
     0
 73
     0
 74
     5
  7

 75
    16
147
1.0
148
0.0
149
0.0
100
AcDbLayout
  1
Layout2
 70
     1
 71
     2
 10
0.0
 20
0.0
 11
0.0
 21
0.0
 12
0.0
 22
0.0
 32
0.0
 14
0.0
 24
0.0
 34
0.0
 15
0.0
 25
0.0
 35
0.0
146
0.0
 13
0.0
 23
0.0
 33
0.0
 16
1.0
 26
0.0
 36
0.0
 17
0.0
 27
1.0
 37
0.0
 76
     0
330
23
  0
LAYOUT
  5
22
102
{ACAD_REACTORS
330
1A
102
}
330
1A
100
AcDbPlotSettings
  1

  2
none_device
  4

  6

 40
0.0
 41
0.0
 42
0.0
 43
0.0
 44
0.0
 45
0.0
 46
0.0
 47
0.0
 48
0.0
 49
0.0
140
0.0
141
0.0
142
1.0
143
1.0
 70
  1712
 72
     0
 73
     0
 74
     0
  7

 75
     0
147
1.0
148
0.0
149
0.0
100
AcDbLayout
  1
Model
 70
     1
 71
     0
 10
0.0
 20
0.0
 11
12.0
 21
9.0
 12
0.0
 22
0.0
 32
0.0
 14
19650981.4495177
 24
10654919.8788624
 34
0.0
 15
19651160.44951893
 25
10655034.7963624
 35
0.0
146
0.0
 13
0.0
 23
0.0
 33
0.0
 16
1.0
 26
0.0
 36
0.0
 17
0.0
 27
1.0
 37
0.0
 76
     0
330
1F
331
29
  0
MATERIAL
  5
3D
102
{ACAD_REACTORS
330
3B
102
}
102
{ACAD_XDICTIONARY
360
2C2
102
}
330
3B
100
AcDbMaterial
  1
ByBlock
  0
MATERIAL
  5
3C
102
{ACAD_REACTORS
330
3B
102
}
102
{ACAD_XDICTIONARY
360
2C0
102
}
330
3B
100
AcDbMaterial
  1
ByLayer
  0
MATERIAL
  5
3E
102
{ACAD_REACTORS
330
3B
102
}
102
{ACAD_XDICTIONARY
360
2C4
102
}
330
3B
100
AcDbMaterial
  1
Global
  0
MLINESTYLE
  5
18
102
{ACAD_REACTORS
330
17
102
}
330
17
100
AcDbMlineStyle
  2
Standard
 70
     0
  3

 62
   256
 51
90.0
 52
90.0
 71
     2
 49
0.5
 62
   256
  6
BYLAYER
 49
-0.5
 62
   256
  6
BYLAYER
  0
ACDBPLACEHOLDER
  5
F
102
{ACAD_REACTORS
330
E
102
}
330
E
  0
VISUALSTYLE
  5
2F
102
{ACAD_REACTORS
330
2A
102
}
102
{ACAD_XDICTIONARY
360
2A8
102
}
330
2A
100
AcDbVisualStyle
  2
2dWireframe
 70
     4
 71
     0
 72
     2
 73
     0
 90
        0
 40
-0.6
 41
-30.0
 62
     5
 63
     7
 74
     1
 91
        4
 64
     7
 65
   257
 75
     1
175
     1
 42
1.0
 92
        0
 66
   257
 43
1.0
 76
     1
 77
     6
 78
     2
 67
     7
 79
     5
170
     0
171
     0
290
     0
174
     0
 93
        1
 44
0.0
173
     0
291
     0
 45
0.0
1001
ACAD
1000
AcDbSavedByObjectVersion
1070
     0
  0
VISUALSTYLE
  5
31
102
{ACAD_REACTORS
330
2A
102
}
102
{ACAD_XDICTIONARY
360
2AC
102
}
330
2A
100
AcDbVisualStyle
  2
3D Hidden
 70
     6
 71
     1
 72
     2
 73
     2
 90
        0
 40
-0.6
 41
-30.0
 62
     5
 63
     7
 74
     2
 91
        2
 64
     7
 65
   257
 75
     2
175
     1
 42
40.0
 92
        0
 66
   257
 43
1.0
 76
     1
 77
     6
 78
     2
 67
     7
 79
     3
170
     0
171
     0
290
     0
174
     0
 93
        1
 44
0.0
173
     0
291
     0
 45
0.0
1001
ACAD
1000
AcDbSavedByObjectVersion
1070
     0
  0
VISUALSTYLE
  5
30
102
{ACAD_REACTORS
330
2A
102
}
102
{ACAD_XDICTIONARY
360
2AA
102
}
330
2A
100
AcDbVisualStyle
  2
3dWireframe
 70
     5
 71
     0
 72
     2
 73
     0
 90
        0
 40
-0.6
 41
-30.0
 62
     5
 63
     7
 74
     1
 91
        4
 64
     7
 65
   257
 75
     1
175
     1
 42
1.0
 92
        0
 66
   257
 43
1.0
 76
     1
 77
     6
 78
     2
 67
     7
 79
     5
170
     0
171
     0
290
     0
174
     0
 93
        1
 44
0.0
173
     0
291
     0
 45
0.0
1001
ACAD
1000
AcDbSavedByObjectVersion
1070
     0
  0
VISUALSTYLE
  5
32
102
{ACAD_REACTORS
330
2A
102
}
102
{ACAD_XDICTIONARY
360
2AE
102
}
330
2A
100
AcDbVisualStyle
  2
Basic
 70
     7
 71
     1
 72
     0
 73
     1
 90
        0
 40
-0.6
 41
-30.0
 62
     5
 63
     7
 74
     0
 91
        4
 64
     7
 65
   257
 75
     1
175
     1
 42
1.0
 92
        8
 66
     7
 43
1.0
 76
     1
 77
     6
 78
     2
 67
     7
 79
     5
170
     0
171
     0
290
     0
174
     0
 93
        1
 44
0.0
173
     0
291
     1
 45
0.0
1001
ACAD
1000
AcDbSavedByObjectVersion
1070
     0
  0
VISUALSTYLE
  5
36
102
{ACAD_REACTORS
330
2A
102
}
102
{ACAD_XDICTIONARY
360
2B6
102
}
330
2A
100
AcDbVisualStyle
  2
Brighten
 70
    12
 71
     2
 72
     2
 73
     0
 90
        0
 40
-0.6
 41
-30.0
 62
     5
 63
     7
 74
     1
 91
        4
 64
     7
 65
   257
 75
     1
175
     1
 42
1.0
 92
        8
 66
     7
 43
1.0
 76
     1
 77
     6
 78
     2
 67
     7
 79
     5
170
     0
171
     0
290
     0
174
     0
 93
        1
 44
50.0
173
     0
291
     1
 45
0.0
1001
ACAD
1000
AcDbSavedByObjectVersion
1070
     0
  0
VISUALSTYLE
  5
3A
102
{ACAD_REACTORS
330
2A
102
}
102
{ACAD_XDICTIONARY
360
2BE
102
}
330
2A
100
AcDbVisualStyle
  2
ColorChange
 70
    16
 71
     2
 72
     2
 73
     3
 90
        0
 40
-0.6
 41
-30.0
 62
     5
 63
     8
 74
     1
 91
        4
 64
     7
 65
   257
 75
     1
175
     1
 42
1.0
 92
        8
 66
     8
 43
1.0
 76
     1
 77
     6
 78
     2
 67
     7
 79
     5
170
     0
171
     0
290
     0
174
     0
 93
        1
 44
0.0
173
     0
291
     1
 45
0.0
1001
ACAD
1000
AcDbSavedByObjectVersion
1070
     0
  0
VISUALSTYLE
  5
34
102
{ACAD_REACTORS
330
2A
102
}
102
{ACAD_XDICTIONARY
360
2B2
102
}
330
2A
100
AcDbVisualStyle
  2
Conceptual
 70
     9
 71
     3
 72
     2
 73
     0
 90
        0
 40
-0.6
 41
-30.0
 62
     5
 63
     7
 74
     2
 91
        2
 64
     7
 65
   257
 75
     1
175
     1
 42
40.0
 92
        8
 66
     7
 43
1.0
 76
     1
 77
     6
 78
     2
 67
     7
 79
     3
170
     0
171
     0
290
     0
174
     0
 93
        1
 44
0.0
173
     0
291
     0
 45
0.0
1001
ACAD
1000
AcDbSavedByObjectVersion
1070
     0
  0
VISUALSTYLE
  5
35
102
{ACAD_REACTORS
330
2A
102
}
102
{ACAD_XDICTIONARY
360
2B4
102
}
330
2A
100
AcDbVisualStyle
  2
Dim
 70
    11
 71
     2
 72
     2
 73
     0
 90
        0
 40
-0.6
 41
-30.0
 62
     5
 63
     7
 74
     1
 91
        4
 64
     7
 65
   257
 75
     1
175
     1
 42
1.0
 92
        8
 66
     7
 43
1.0
 76
     1
 77
     6
 78
     2
 67
     7
 79
     5
170
     0
171
     0
290
     0
174
     0
 93
        1
 44
-50.0
173
     0
291
     1
 45
0.0
1001
ACAD
1000
AcDbSavedByObjectVersion
1070
     0
  0
VISUALSTYLE
  5
39
102
{ACAD_REACTORS
330
2A
102
}
102
{ACAD_XDICTIONARY
360
2BC
102
}
330
2A
100
AcDbVisualStyle
  2
Facepattern
 70
    15
 71
     2
 72
     2
 73
     0
 90
        0
 40
-0.6
 41
-30.0
 62
     5
 63
     7
 74
     1
 91
        4
 64
     7
 65
   257
 75
     1
175
     1
 42
1.0
 92
        8
 66
     7
 43
1.0
 76
     1
 77
     6
 78
     2
 67
     7
 79
     5
170
     0
171
     0
290
     0
174
     0
 93
        1
 44
0.0
173
     0
291
     1
 45
0.0
1001
ACAD
1000
AcDbSavedByObjectVersion
1070
     0
  0
VISUALSTYLE
  5
2B
102
{ACAD_REACTORS
330
2A
102
}
102
{ACAD_XDICTIONARY
360
2A0
102
}
330
2A
100
AcDbVisualStyle
  2
Flat
 70
     0
 71
     2
 72
     1
 73
     1
 90
        2
 40
-0.6
 41
30.0
 62
     5
 63
     7
 74
     0
 91
        4
 64
     7
 65
   257
 75
     1
175
     1
 42
1.0
 92
        8
 66
     7
 43
1.0
 76
     1
 77
     6
 78
     2
 67
     7
 79
     5
170
     0
171
     0
290
     0
174
     0
 93
       13
 44
0.0
173
     0
291
     1
 45
0.0
1001
ACAD
1000
AcDbSavedByObjectVersion
1070
     0
  0
VISUALSTYLE
  5
2C
102
{ACAD_REACTORS
330
2A
102
}
102
{ACAD_XDICTIONARY
360
2A2
102
}
330
2A
100
AcDbVisualStyle
  2
FlatWithEdges
 70
     1
 71
     2
 72
     1
 73
     1
 90
        2
 40
-0.6
 41
30.0
 62
     5
 63
     7
 74
     1
 91
        4
 64
     7
 65
   257
 75
     1
175
     1
 42
1.0
 92
        0
 66
   257
 43
1.0
 76
     1
 77
     6
 78
     2
 67
     7
 79
     5
170
     0
171
     0
290
     0
174
     0
 93
       13
 44
0.0
173
     0
291
     1
 45
0.0
1001
ACAD
1000
AcDbSavedByObjectVersion
1070
     0
  0
VISUALSTYLE
  5
2D
102
{ACAD_REACTORS
330
2A
102
}
102
{ACAD_XDICTIONARY
360
2A4
102
}
330
2A
100
AcDbVisualStyle
  2
Gouraud
 70
     2
 71
     2
 72
     2
 73
     1
 90
        2
 40
-0.6
 41
30.0
 62
     5
 63
     7
 74
     0
 91
        4
 64
     7
 65
   257
 75
     1
175
     1
 42
1.0
 92
        0
 66
     7
 43
1.0
 76
     1
 77
     6
 78
     2
 67
     7
 79
     5
170
     0
171
     0
290
     0
174
     0
 93
       13
 44
0.0
173
     0
291
     1
 45
0.0
1001
ACAD
1000
AcDbSavedByObjectVersion
1070
     0
  0
VISUALSTYLE
  5
2E
102
{ACAD_REACTORS
330
2A
102
}
102
{ACAD_XDICTIONARY
360
2A6
102
}
330
2A
100
AcDbVisualStyle
  2
GouraudWithEdges
 70
     3
 71
     2
 72
     2
 73
     1
 90
        2
 40
-0.6
 41
30.0
 62
     5
 63
     7
 74
     1
 91
        4
 64
     7
 65
   257
 75
     1
175
     1
 42
1.0
 92
        0
 66
   257
 43
1.0
 76
     1
 77
     6
 78
     2
 67
     7
 79
     5
170
     0
171
     0
290
     0
174
     0
 93
       13
 44
0.0
173
     0
291
     1
 45
0.0
1001
ACAD
1000
AcDbSavedByObjectVersion
1070
     0
  0
VISUALSTYLE
  5
38
102
{ACAD_REACTORS
330
2A
102
}
102
{ACAD_XDICTIONARY
360
2BA
102
}
330
2A
100
AcDbVisualStyle
  2
Linepattern
 70
    14
 71
     2
 72
     2
 73
     0
 90
        0
 40
-0.6
 41
-30.0
 62
     5
 63
     7
 74
     1
 91
        4
 64
     7
 65
   257
 75
     7
175
     7
 42
1.0
 92
        8
 66
     7
 43
1.0
 76
     1
 77
     6
 78
     2
 67
     7
 79
     5
170
     0
171
     0
290
     0
174
     0
 93
        1
 44
0.0
173
     0
291
     1
 45
0.0
1001
ACAD
1000
AcDbSavedByObjectVersion
1070
     0
  0
VISUALSTYLE
  5
33
102
{ACAD_REACTORS
330
2A
102
}
102
{ACAD_XDICTIONARY
360
2B0
102
}
330
2A
100
AcDbVisualStyle
  2
Realistic
 70
     8
 71
     2
 72
     2
 73
     0
 90
        0
 40
-0.6
 41
-30.0
 62
     5
 63
     7
 74
     1
 91
        0
 64
     7
 65
   257
 75
     1
175
     1
 42
1.0
 92
        8
 66
     8
 43
1.0
 76
     1
 77
     6
 78
     2
 67
     7
 79
     5
170
     0
171
     0
290
     0
174
     0
 93
       13
 44
0.0
173
     0
291
     0
 45
0.0
1001
ACAD
1000
AcDbSavedByObjectVersion
1070
     0
  0
VISUALSTYLE
  5
37
102
{ACAD_REACTORS
330
2A
102
}
102
{ACAD_XDICTIONARY
360
2B8
102
}
330
2A
100
AcDbVisualStyle
  2
Thicken
 70
    13
 71
     2
 72
     2
 73
     0
 90
        0
 40
-0.6
 41
-30.0
 62
     5
 63
     7
 74
     1
 91
        4
 64
     7
 65
   257
 75
     1
175
     1
 42
1.0
 92
       12
 66
     7
 43
1.0
 76
     1
 77
     6
 78
     2
 67
     7
 79
     5
170
     0
171
     0
290
     0
174
     0
 93
        1
 44
0.0
173
     0
291
     1
 45
0.0
1001
ACAD
1000
AcDbSavedByObjectVersion
1070
     0
  0
DICTIONARYVAR
  5
29E
102
{ACAD_REACTORS
330
29B
102
}
330
29B
100
DictionaryVariables
280
     0
  1
2
  0
DICTIONARYVAR
  5
29F
102
{ACAD_REACTORS
330
29B
102
}
330
29B
100
DictionaryVariables
280
     0
  1
1
  0
DICTIONARY
  5
2C2
330
3D
100
AcDbDictionary
280
     1
281
     1
  3
ACAD_XREC_ROUNDTRIP
360
2C3
  0
DICTIONARY
  5
2C0
330
3C
100
AcDbDictionary
280
     1
281
     1
  3
ACAD_XREC_ROUNDTRIP
360
2C1
  0
DICTIONARY
  5
2C4
330
3E
100
AcDbDictionary
280
     1
281
     1
  3
ACAD_XREC_ROUNDTRIP
360
2C5
  0
DICTIONARY
  5
2A8
330
2F
100
AcDbDictionary
280
     1
281
     1
  3
ACAD_XREC_ROUNDTRIP
360
2A9
  0
DICTIONARY
  5
2AC
330
31
100
AcDbDictionary
280
     1
281
     1
  3
ACAD_XREC_ROUNDTRIP
360
2AD
  0
DICTIONARY
  5
2AA
330
30
100
AcDbDictionary
280
     1
281
     1
  3
ACAD_XREC_ROUNDTRIP
360
2AB
  0
DICTIONARY
  5
2AE
330
32
100
AcDbDictionary
280
     1
281
     1
  3
ACAD_XREC_ROUNDTRIP
360
2AF
  0
DICTIONARY
  5
2B6
330
36
100
AcDbDictionary
280
     1
281
     1
  3
ACAD_XREC_ROUNDTRIP
360
2B7
  0
DICTIONARY
  5
2BE
330
3A
100
AcDbDictionary
280
     1
281
     1
  3
ACAD_XREC_ROUNDTRIP
360
2BF
  0
DICTIONARY
  5
2B2
330
34
100
AcDbDictionary
280
     1
281
     1
  3
ACAD_XREC_ROUNDTRIP
360
2B3
  0
DICTIONARY
  5
2B4
330
35
100
AcDbDictionary
280
     1
281
     1
  3
ACAD_XREC_ROUNDTRIP
360
2B5
  0
DICTIONARY
  5
2BC
330
39
100
AcDbDictionary
280
     1
281
     1
  3
ACAD_XREC_ROUNDTRIP
360
2BD
  0
DICTIONARY
  5
2A0
330
2B
100
AcDbDictionary
280
     1
281
     1
  3
ACAD_XREC_ROUNDTRIP
360
2A1
  0
DICTIONARY
  5
2A2
330
2C
100
AcDbDictionary
280
     1
281
     1
  3
ACAD_XREC_ROUNDTRIP
360
2A3
  0
DICTIONARY
  5
2A4
330
2D
100
AcDbDictionary
280
     1
281
     1
  3
ACAD_XREC_ROUNDTRIP
360
2A5
  0
DICTIONARY
  5
2A6
330
2E
100
AcDbDictionary
280
     1
281
     1
  3
ACAD_XREC_ROUNDTRIP
360
2A7
  0
DICTIONARY
  5
2BA
330
38
100
AcDbDictionary
280
     1
281
     1
  3
ACAD_XREC_ROUNDTRIP
360
2BB
  0
DICTIONARY
  5
2B0
330
33
100
AcDbDictionary
280
     1
281
     1
  3
ACAD_XREC_ROUNDTRIP
360
2B1
  0
DICTIONARY
  5
2B8
330
37
100
AcDbDictionary
280
     1
281
     1
  3
ACAD_XREC_ROUNDTRIP
360
2B9
  0
XRECORD
  5
2C3
102
{ACAD_REACTORS
330
2C2
102
}
330
2C2
100
AcDbXrecord
280
     1
102
MATERIAL
148
0.0
149
0.0
149
0.0
 93
        0
 94
      127
282
     0
 72
     1
 77
     1
171
     1
175
     1
179
     1
273
     0
  0
XRECORD
  5
2C1
102
{ACAD_REACTORS
330
2C0
102
}
330
2C0
100
AcDbXrecord
280
     1
102
MATERIAL
148
0.0
149
0.0
149
0.0
 93
        0
 94
      127
282
     0
 72
     1
 77
     1
171
     1
175
     1
179
     1
273
     0
  0
XRECORD
  5
2C5
102
{ACAD_REACTORS
330
2C4
102
}
330
2C4
100
AcDbXrecord
280
     1
102
MATERIAL
148
0.0
149
0.0
149
0.0
 93
        0
 94
      127
282
     0
 72
     1
 77
     1
171
     1
175
     1
179
     1
273
     0
  0
XRECORD
  5
2A9
102
{ACAD_REACTORS
330
2A8
102
}
330
2A8
100
AcDbXrecord
280
     1
102
RTVSPropertyOp0
 70
     1
102
RTVSPropertyOp1
 70
     1
102
RTVSPropertyOp2
 70
     1
102
RTVSPropertyOp3
 70
     1
102
RTVSPropertyOp4
 70
     1
102
RTVSPropertyOp5
 70
     1
102
RTVSPropertyOp6
 70
     1
102
RTVSPropertyOp7
 70
     1
102
RTVSPropertyOp8
 70
     1
102
RTVSPropertyOp9
 70
     1
102
RTVSPropertyOp10
 70
     1
102
RTVSPropertyOp11
 70
     1
102
RTVSPropertyOp12
 70
     1
102
RTVSPropertyOp13
 70
     1
102
RTVSPropertyOp14
 70
     1
102
RTVSPropertyOp15
 70
     1
102
RTVSPropertyOp16
 70
     1
102
RTVSPropertyOp17
 70
     1
102
RTVSPropertyOp18
 70
     1
102
RTVSPropertyOp19
 70
     1
102
RTVSPropertyOp20
 70
     1
102
RTVSPropertyOp21
 70
     1
102
RTVSPropertyOp22
 70
     1
102
RTVSPropertyOp23
 70
     1
102
RTVSPropertyOp24
 70
     1
102
RTVSPropertyOp25
 70
     1
102
RTVSPropertyOp26
 70
     1
102
RTVSPropertyOp27
 70
     1
102
RTVSPropertyOp28
 70
     1
102
RTVSPropertyOp29
 70
     1
102
RTVSPropertyOp30
 70
     1
102
RTVSPropertyOp31
 70
     1
102
RTVSPropertyOp32
 70
     1
  0
XRECORD
  5
2AD
102
{ACAD_REACTORS
330
2AC
102
}
330
2AC
100
AcDbXrecord
280
     1
102
RTVSPropertyOp0
 70
     1
102
RTVSPropertyOp1
 70
     1
102
RTVSPropertyOp2
 70
     1
102
RTVSPropertyOp3
 70
     1
102
RTVSPropertyOp4
 70
     1
102
RTVSPropertyOp5
 70
     1
102
RTVSPropertyOp6
 70
     1
102
RTVSPropertyOp7
 70
     1
102
RTVSPropertyOp8
 70
     1
102
RTVSPropertyOp9
 70
     1
102
RTVSPropertyOp10
 70
     1
102
RTVSPropertyOp11
 70
     1
102
RTVSPropertyOp12
 70
     1
102
RTVSPropertyOp13
 70
     1
102
RTVSPropertyOp14
 70
     1
102
RTVSPropertyOp15
 70
     1
102
RTVSPropertyOp16
 70
     1
102
RTVSPropertyOp17
 70
     1
102
RTVSPropertyOp18
 70
     1
102
RTVSPropertyOp19
 70
     1
102
RTVSPropertyOp20
 70
     1
102
RTVSPropertyOp21
 70
     1
102
RTVSPropertyOp22
 70
     1
102
RTVSPropertyOp23
 70
     1
102
RTVSPropertyOp24
 70
     1
102
RTVSPropertyOp25
 70
     1
102
RTVSPropertyOp26
 70
     1
102
RTVSPropertyOp27
 70
     1
102
RTVSPropertyOp28
 70
     1
102
RTVSPropertyOp29
 70
     1
102
RTVSPropertyOp30
 70
     1
102
RTVSPropertyOp31
 70
     1
102
RTVSPropertyOp32
 70
     1
  0
XRECORD
  5
2AB
102
{ACAD_REACTORS
330
2AA
102
}
330
2AA
100
AcDbXrecord
280
     1
102
RTVSPropertyOp0
 70
     1
102
RTVSPropertyOp1
 70
     1
102
RTVSPropertyOp2
 70
     1
102
RTVSPropertyOp3
 70
     1
102
RTVSPropertyOp4
 70
     1
102
RTVSPropertyOp5
 70
     1
102
RTVSPropertyOp6
 70
     1
102
RTVSPropertyOp7
 70
     1
102
RTVSPropertyOp8
 70
     1
102
RTVSPropertyOp9
 70
     1
102
RTVSPropertyOp10
 70
     1
102
RTVSPropertyOp11
 70
     1
102
RTVSPropertyOp12
 70
     1
102
RTVSPropertyOp13
 70
     1
102
RTVSPropertyOp14
 70
     1
102
RTVSPropertyOp15
 70
     1
102
RTVSPropertyOp16
 70
     1
102
RTVSPropertyOp17
 70
     1
102
RTVSPropertyOp18
 70
     1
102
RTVSPropertyOp19
 70
     1
102
RTVSPropertyOp20
 70
     1
102
RTVSPropertyOp21
 70
     1
102
RTVSPropertyOp22
 70
     1
102
RTVSPropertyOp23
 70
     1
102
RTVSPropertyOp24
 70
     1
102
RTVSPropertyOp25
 70
     1
102
RTVSPropertyOp26
 70
     1
102
RTVSPropertyOp27
 70
     1
102
RTVSPropertyOp28
 70
     1
102
RTVSPropertyOp29
 70
     1
102
RTVSPropertyOp30
 70
     1
102
RTVSPropertyOp31
 70
     1
102
RTVSPropertyOp32
 70
     1
  0
XRECORD
  5
2AF
102
{ACAD_REACTORS
330
2AE
102
}
330
2AE
100
AcDbXrecord
280
     1
102
RTVSPropertyOp0
 70
     1
102
RTVSPropertyOp1
 70
     1
102
RTVSPropertyOp2
 70
     1
102
RTVSPropertyOp3
 70
     1
102
RTVSPropertyOp4
 70
     1
102
RTVSPropertyOp5
 70
     1
102
RTVSPropertyOp6
 70
     1
102
RTVSPropertyOp7
 70
     1
102
RTVSPropertyOp8
 70
     1
102
RTVSPropertyOp9
 70
     1
102
RTVSPropertyOp10
 70
     1
102
RTVSPropertyOp11
 70
     1
102
RTVSPropertyOp12
 70
     1
102
RTVSPropertyOp13
 70
     1
102
RTVSPropertyOp14
 70
     1
102
RTVSPropertyOp15
 70
     1
102
RTVSPropertyOp16
 70
     1
102
RTVSPropertyOp17
 70
     1
102
RTVSPropertyOp18
 70
     1
102
RTVSPropertyOp19
 70
     1
102
RTVSPropertyOp20
 70
     1
102
RTVSPropertyOp21
 70
     1
102
RTVSPropertyOp22
 70
     1
102
RTVSPropertyOp23
 70
     1
102
RTVSPropertyOp24
 70
     1
102
RTVSPropertyOp25
 70
     1
102
RTVSPropertyOp26
 70
     1
102
RTVSPropertyOp27
 70
     1
102
RTVSPropertyOp28
 70
     1
102
RTVSPropertyOp29
 70
     1
102
RTVSPropertyOp30
 70
     1
102
RTVSPropertyOp31
 70
     1
102
RTVSPropertyOp32
 70
     1
  0
XRECORD
  5
2B7
102
{ACAD_REACTORS
330
2B6
102
}
330
2B6
100
AcDbXrecord
280
     1
102
RTVSPropertyOp0
 70
     1
102
RTVSPropertyOp1
 70
     1
102
RTVSPropertyOp2
 70
     1
102
RTVSPropertyOp3
 70
     1
102
RTVSPropertyOp4
 70
     1
102
RTVSPropertyOp5
 70
     1
102
RTVSPropertyOp6
 70
     1
102
RTVSPropertyOp7
 70
     1
102
RTVSPropertyOp8
 70
     1
102
RTVSPropertyOp9
 70
     1
102
RTVSPropertyOp10
 70
     1
102
RTVSPropertyOp11
 70
     1
102
RTVSPropertyOp12
 70
     1
102
RTVSPropertyOp13
 70
     1
102
RTVSPropertyOp14
 70
     1
102
RTVSPropertyOp15
 70
     1
102
RTVSPropertyOp16
 70
     1
102
RTVSPropertyOp17
 70
     1
102
RTVSPropertyOp18
 70
     1
102
RTVSPropertyOp19
 70
     1
102
RTVSPropertyOp20
 70
     1
102
RTVSPropertyOp21
 70
     1
102
RTVSPropertyOp22
 70
     1
102
RTVSPropertyOp23
 70
     1
102
RTVSPropertyOp24
 70
     1
102
RTVSPropertyOp25
 70
     1
102
RTVSPropertyOp26
 70
     1
102
RTVSPropertyOp27
 70
     1
102
RTVSPropertyOp28
 70
     1
102
RTVSPropertyOp29
 70
     1
102
RTVSPropertyOp30
 70
     1
102
RTVSPropertyOp31
 70
     1
102
RTVSPropertyOp32
 70
     1
  0
XRECORD
  5
2BF
102
{ACAD_REACTORS
330
2BE
102
}
330
2BE
100
AcDbXrecord
280
     1
102
RTVSPropertyOp0
 70
     1
102
RTVSPropertyOp1
 70
     1
102
RTVSPropertyOp2
 70
     1
102
RTVSPropertyOp3
 70
     1
102
RTVSPropertyOp4
 70
     1
102
RTVSPropertyOp5
 70
     1
102
RTVSPropertyOp6
 70
     1
102
RTVSPropertyOp7
 70
     1
102
RTVSPropertyOp8
 70
     1
102
RTVSPropertyOp9
 70
     1
102
RTVSPropertyOp10
 70
     1
102
RTVSPropertyOp11
 70
     1
102
RTVSPropertyOp12
 70
     1
102
RTVSPropertyOp13
 70
     1
102
RTVSPropertyOp14
 70
     1
102
RTVSPropertyOp15
 70
     1
102
RTVSPropertyOp16
 70
     1
102
RTVSPropertyOp17
 70
     1
102
RTVSPropertyOp18
 70
     1
102
RTVSPropertyOp19
 70
     1
102
RTVSPropertyOp20
 70
     1
102
RTVSPropertyOp21
 70
     1
102
RTVSPropertyOp22
 70
     1
102
RTVSPropertyOp23
 70
     1
102
RTVSPropertyOp24
 70
     1
102
RTVSPropertyOp25
 70
     1
102
RTVSPropertyOp26
 70
     1
102
RTVSPropertyOp27
 70
     1
102
RTVSPropertyOp28
 70
     1
102
RTVSPropertyOp29
 70
     1
102
RTVSPropertyOp30
 70
     1
102
RTVSPropertyOp31
 70
     1
102
RTVSPropertyOp32
 70
     1
  0
XRECORD
  5
2B3
102
{ACAD_REACTORS
330
2B2
102
}
330
2B2
100
AcDbXrecord
280
     1
102
RTVSPropertyOp0
 70
     1
102
RTVSPropertyOp1
 70
     1
102
RTVSPropertyOp2
 70
     1
102
RTVSPropertyOp3
 70
     1
102
RTVSPropertyOp4
 70
     1
102
RTVSPropertyOp5
 70
     1
102
RTVSPropertyOp6
 70
     1
102
RTVSPropertyOp7
 70
     1
102
RTVSPropertyOp8
 70
     1
102
RTVSPropertyOp9
 70
     1
102
RTVSPropertyOp10
 70
     1
102
RTVSPropertyOp11
 70
     1
102
RTVSPropertyOp12
 70
     1
102
RTVSPropertyOp13
 70
     1
102
RTVSPropertyOp14
 70
     1
102
RTVSPropertyOp15
 70
     1
102
RTVSPropertyOp16
 70
     1
102
RTVSPropertyOp17
 70
     1
102
RTVSPropertyOp18
 70
     1
102
RTVSPropertyOp19
 70
     1
102
RTVSPropertyOp20
 70
     1
102
RTVSPropertyOp21
 70
     1
102
RTVSPropertyOp22
 70
     1
102
RTVSPropertyOp23
 70
     1
102
RTVSPropertyOp24
 70
     1
102
RTVSPropertyOp25
 70
     1
102
RTVSPropertyOp26
 70
     1
102
RTVSPropertyOp27
 70
     1
102
RTVSPropertyOp28
 70
     1
102
RTVSPropertyOp29
 70
     1
102
RTVSPropertyOp30
 70
     1
102
RTVSPropertyOp31
 70
     1
102
RTVSPropertyOp32
 70
     1
  0
XRECORD
  5
2B5
102
{ACAD_REACTORS
330
2B4
102
}
330
2B4
100
AcDbXrecord
280
     1
102
RTVSPropertyOp0
 70
     1
102
RTVSPropertyOp1
 70
     1
102
RTVSPropertyOp2
 70
     1
102
RTVSPropertyOp3
 70
     1
102
RTVSPropertyOp4
 70
     1
102
RTVSPropertyOp5
 70
     1
102
RTVSPropertyOp6
 70
     1
102
RTVSPropertyOp7
 70
     1
102
RTVSPropertyOp8
 70
     1
102
RTVSPropertyOp9
 70
     1
102
RTVSPropertyOp10
 70
     1
102
RTVSPropertyOp11
 70
     1
102
RTVSPropertyOp12
 70
     1
102
RTVSPropertyOp13
 70
     1
102
RTVSPropertyOp14
 70
     1
102
RTVSPropertyOp15
 70
     1
102
RTVSPropertyOp16
 70
     1
102
RTVSPropertyOp17
 70
     1
102
RTVSPropertyOp18
 70
     1
102
RTVSPropertyOp19
 70
     1
102
RTVSPropertyOp20
 70
     1
102
RTVSPropertyOp21
 70
     1
102
RTVSPropertyOp22
 70
     1
102
RTVSPropertyOp23
 70
     1
102
RTVSPropertyOp24
 70
     1
102
RTVSPropertyOp25
 70
     1
102
RTVSPropertyOp26
 70
     1
102
RTVSPropertyOp27
 70
     1
102
RTVSPropertyOp28
 70
     1
102
RTVSPropertyOp29
 70
     1
102
RTVSPropertyOp30
 70
     1
102
RTVSPropertyOp31
 70
     1
102
RTVSPropertyOp32
 70
     1
  0
XRECORD
  5
2BD
102
{ACAD_REACTORS
330
2BC
102
}
330
2BC
100
AcDbXrecord
280
     1
102
RTVSPropertyOp0
 70
     1
102
RTVSPropertyOp1
 70
     1
102
RTVSPropertyOp2
 70
     1
102
RTVSPropertyOp3
 70
     1
102
RTVSPropertyOp4
 70
     1
102
RTVSPropertyOp5
 70
     1
102
RTVSPropertyOp6
 70
     1
102
RTVSPropertyOp7
 70
     1
102
RTVSPropertyOp8
 70
     1
102
RTVSPropertyOp9
 70
     1
102
RTVSPropertyOp10
 70
     1
102
RTVSPropertyOp11
 70
     1
102
RTVSPropertyOp12
 70
     1
102
RTVSPropertyOp13
 70
     1
102
RTVSPropertyOp14
 70
     1
102
RTVSPropertyOp15
 70
     1
102
RTVSPropertyOp16
 70
     1
102
RTVSPropertyOp17
 70
     1
102
RTVSPropertyOp18
 70
     1
102
RTVSPropertyOp19
 70
     1
102
RTVSPropertyOp20
 70
     1
102
RTVSPropertyOp21
 70
     1
102
RTVSPropertyOp22
 70
     1
102
RTVSPropertyOp23
 70
     1
102
RTVSPropertyOp24
 70
     1
102
RTVSPropertyOp25
 70
     1
102
RTVSPropertyOp26
 70
     1
102
RTVSPropertyOp27
 70
     1
102
RTVSPropertyOp28
 70
     1
102
RTVSPropertyOp29
 70
     1
102
RTVSPropertyOp30
 70
     1
102
RTVSPropertyOp31
 70
     1
102
RTVSPropertyOp32
 70
     1
  0
XRECORD
  5
2A1
102
{ACAD_REACTORS
330
2A0
102
}
330
2A0
100
AcDbXrecord
280
     1
102
RTVSPropertyOp0
 70
     1
102
RTVSPropertyOp1
 70
     1
102
RTVSPropertyOp2
 70
     1
102
RTVSPropertyOp3
 70
     1
102
RTVSPropertyOp4
 70
     1
102
RTVSPropertyOp5
 70
     1
102
RTVSPropertyOp6
 70
     1
102
RTVSPropertyOp7
 70
     1
102
RTVSPropertyOp8
 70
     1
102
RTVSPropertyOp9
 70
     1
102
RTVSPropertyOp10
 70
     1
102
RTVSPropertyOp11
 70
     1
102
RTVSPropertyOp12
 70
     1
102
RTVSPropertyOp13
 70
     1
102
RTVSPropertyOp14
 70
     1
102
RTVSPropertyOp15
 70
     1
102
RTVSPropertyOp16
 70
     1
102
RTVSPropertyOp17
 70
     1
102
RTVSPropertyOp18
 70
     1
102
RTVSPropertyOp19
 70
     1
102
RTVSPropertyOp20
 70
     1
102
RTVSPropertyOp21
 70
     1
102
RTVSPropertyOp22
 70
     1
102
RTVSPropertyOp23
 70
     1
102
RTVSPropertyOp24
 70
     1
102
RTVSPropertyOp25
 70
     1
102
RTVSPropertyOp26
 70
     1
102
RTVSPropertyOp27
 70
     1
102
RTVSPropertyOp28
 70
     1
102
RTVSPropertyOp29
 70
     1
102
RTVSPropertyOp30
 70
     1
102
RTVSPropertyOp31
 70
     1
102
RTVSPropertyOp32
 70
     1
  0
XRECORD
  5
2A3
102
{ACAD_REACTORS
330
2A2
102
}
330
2A2
100
AcDbXrecord
280
     1
102
RTVSPropertyOp0
 70
     1
102
RTVSPropertyOp1
 70
     1
102
RTVSPropertyOp2
 70
     1
102
RTVSPropertyOp3
 70
     1
102
RTVSPropertyOp4
 70
     1
102
RTVSPropertyOp5
 70
     1
102
RTVSPropertyOp6
 70
     1
102
RTVSPropertyOp7
 70
     1
102
RTVSPropertyOp8
 70
     1
102
RTVSPropertyOp9
 70
     1
102
RTVSPropertyOp10
 70
     1
102
RTVSPropertyOp11
 70
     1
102
RTVSPropertyOp12
 70
     1
102
RTVSPropertyOp13
 70
     1
102
RTVSPropertyOp14
 70
     1
102
RTVSPropertyOp15
 70
     1
102
RTVSPropertyOp16
 70
     1
102
RTVSPropertyOp17
 70
     1
102
RTVSPropertyOp18
 70
     1
102
RTVSPropertyOp19
 70
     1
102
RTVSPropertyOp20
 70
     1
102
RTVSPropertyOp21
 70
     1
102
RTVSPropertyOp22
 70
     1
102
RTVSPropertyOp23
 70
     1
102
RTVSPropertyOp24
 70
     1
102
RTVSPropertyOp25
 70
     1
102
RTVSPropertyOp26
 70
     1
102
RTVSPropertyOp27
 70
     1
102
RTVSPropertyOp28
 70
     1
102
RTVSPropertyOp29
 70
     1
102
RTVSPropertyOp30
 70
     1
102
RTVSPropertyOp31
 70
     1
102
RTVSPropertyOp32
 70
     1
  0
XRECORD
  5
2A5
102
{ACAD_REACTORS
330
2A4
102
}
330
2A4
100
AcDbXrecord
280
     1
102
RTVSPropertyOp0
 70
     1
102
RTVSPropertyOp1
 70
     1
102
RTVSPropertyOp2
 70
     1
102
RTVSPropertyOp3
 70
     1
102
RTVSPropertyOp4
 70
     1
102
RTVSPropertyOp5
 70
     1
102
RTVSPropertyOp6
 70
     1
102
RTVSPropertyOp7
 70
     1
102
RTVSPropertyOp8
 70
     1
102
RTVSPropertyOp9
 70
     1
102
RTVSPropertyOp10
 70
     1
102
RTVSPropertyOp11
 70
     1
102
RTVSPropertyOp12
 70
     1
102
RTVSPropertyOp13
 70
     1
102
RTVSPropertyOp14
 70
     1
102
RTVSPropertyOp15
 70
     1
102
RTVSPropertyOp16
 70
     1
102
RTVSPropertyOp17
 70
     1
102
RTVSPropertyOp18
 70
     1
102
RTVSPropertyOp19
 70
     1
102
RTVSPropertyOp20
 70
     1
102
RTVSPropertyOp21
 70
     1
102
RTVSPropertyOp22
 70
     1
102
RTVSPropertyOp23
 70
     1
102
RTVSPropertyOp24
 70
     1
102
RTVSPropertyOp25
 70
     1
102
RTVSPropertyOp26
 70
     1
102
RTVSPropertyOp27
 70
     1
102
RTVSPropertyOp28
 70
     1
102
RTVSPropertyOp29
 70
     1
102
RTVSPropertyOp30
 70
     1
102
RTVSPropertyOp31
 70
     1
102
RTVSPropertyOp32
 70
     1
  0
XRECORD
  5
2A7
102
{ACAD_REACTORS
330
2A6
102
}
330
2A6
100
AcDbXrecord
280
     1
102
RTVSPropertyOp0
 70
     1
102
RTVSPropertyOp1
 70
     1
102
RTVSPropertyOp2
 70
     1
102
RTVSPropertyOp3
 70
     1
102
RTVSPropertyOp4
 70
     1
102
RTVSPropertyOp5
 70
     1
102
RTVSPropertyOp6
 70
     1
102
RTVSPropertyOp7
 70
     1
102
RTVSPropertyOp8
 70
     1
102
RTVSPropertyOp9
 70
     1
102
RTVSPropertyOp10
 70
     1
102
RTVSPropertyOp11
 70
     1
102
RTVSPropertyOp12
 70
     1
102
RTVSPropertyOp13
 70
     1
102
RTVSPropertyOp14
 70
     1
102
RTVSPropertyOp15
 70
     1
102
RTVSPropertyOp16
 70
     1
102
RTVSPropertyOp17
 70
     1
102
RTVSPropertyOp18
 70
     1
102
RTVSPropertyOp19
 70
     1
102
RTVSPropertyOp20
 70
     1
102
RTVSPropertyOp21
 70
     1
102
RTVSPropertyOp22
 70
     1
102
RTVSPropertyOp23
 70
     1
102
RTVSPropertyOp24
 70
     1
102
RTVSPropertyOp25
 70
     1
102
RTVSPropertyOp26
 70
     1
102
RTVSPropertyOp27
 70
     1
102
RTVSPropertyOp28
 70
     1
102
RTVSPropertyOp29
 70
     1
102
RTVSPropertyOp30
 70
     1
102
RTVSPropertyOp31
 70
     1
102
RTVSPropertyOp32
 70
     1
  0
XRECORD
  5
2BB
102
{ACAD_REACTORS
330
2BA
102
}
330
2BA
100
AcDbXrecord
280
     1
102
RTVSPropertyOp0
 70
     1
102
RTVSPropertyOp1
 70
     1
102
RTVSPropertyOp2
 70
     1
102
RTVSPropertyOp3
 70
     1
102
RTVSPropertyOp4
 70
     1
102
RTVSPropertyOp5
 70
     1
102
RTVSPropertyOp6
 70
     1
102
RTVSPropertyOp7
 70
     1
102
RTVSPropertyOp8
 70
     1
102
RTVSPropertyOp9
 70
     1
102
RTVSPropertyOp10
 70
     1
102
RTVSPropertyOp11
 70
     1
102
RTVSPropertyOp12
 70
     1
102
RTVSPropertyOp13
 70
     1
102
RTVSPropertyOp14
 70
     1
102
RTVSPropertyOp15
 70
     1
102
RTVSPropertyOp16
 70
     1
102
RTVSPropertyOp17
 70
     1
102
RTVSPropertyOp18
 70
     1
102
RTVSPropertyOp19
 70
     1
102
RTVSPropertyOp20
 70
     1
102
RTVSPropertyOp21
 70
     1
102
RTVSPropertyOp22
 70
     1
102
RTVSPropertyOp23
 70
     1
102
RTVSPropertyOp24
 70
     1
102
RTVSPropertyOp25
 70
     1
102
RTVSPropertyOp26
 70
     1
102
RTVSPropertyOp27
 70
     1
102
RTVSPropertyOp28
 70
     1
102
RTVSPropertyOp29
 70
     1
102
RTVSPropertyOp30
 70
     1
102
RTVSPropertyOp31
 70
     1
102
RTVSPropertyOp32
 70
     1
  0
XRECORD
  5
2B1
102
{ACAD_REACTORS
330
2B0
102
}
330
2B0
100
AcDbXrecord
280
     1
102
RTVSPropertyOp0
 70
     1
102
RTVSPropertyOp1
 70
     1
102
RTVSPropertyOp2
 70
     1
102
RTVSPropertyOp3
 70
     1
102
RTVSPropertyOp4
 70
     1
102
RTVSPropertyOp5
 70
     1
102
RTVSPropertyOp6
 70
     1
102
RTVSPropertyOp7
 70
     1
102
RTVSPropertyOp8
 70
     1
102
RTVSPropertyOp9
 70
     1
102
RTVSPropertyOp10
 70
     1
102
RTVSPropertyOp11
 70
     1
102
RTVSPropertyOp12
 70
     1
102
RTVSPropertyOp13
 70
     1
102
RTVSPropertyOp14
 70
     1
102
RTVSPropertyOp15
 70
     1
102
RTVSPropertyOp16
 70
     1
102
RTVSPropertyOp17
 70
     1
102
RTVSPropertyOp18
 70
     1
102
RTVSPropertyOp19
 70
     1
102
RTVSPropertyOp20
 70
     1
102
RTVSPropertyOp21
 70
     1
102
RTVSPropertyOp22
 70
     1
102
RTVSPropertyOp23
 70
     1
102
RTVSPropertyOp24
 70
     1
102
RTVSPropertyOp25
 70
     1
102
RTVSPropertyOp26
 70
     1
102
RTVSPropertyOp27
 70
     1
102
RTVSPropertyOp28
 70
     1
102
RTVSPropertyOp29
 70
     1
102
RTVSPropertyOp30
 70
     1
102
RTVSPropertyOp31
 70
     1
102
RTVSPropertyOp32
 70
     1
  0
XRECORD
  5
2B9
102
{ACAD_REACTORS
330
2B8
102
}
330
2B8
100
AcDbXrecord
280
     1
102
RTVSPropertyOp0
 70
     1
102
RTVSPropertyOp1
 70
     1
102
RTVSPropertyOp2
 70
     1
102
RTVSPropertyOp3
 70
     1
102
RTVSPropertyOp4
 70
     1
102
RTVSPropertyOp5
 70
     1
102
RTVSPropertyOp6
 70
     1
102
RTVSPropertyOp7
 70
     1
102
RTVSPropertyOp8
 70
     1
102
RTVSPropertyOp9
 70
     1
102
RTVSPropertyOp10
 70
     1
102
RTVSPropertyOp11
 70
     1
102
RTVSPropertyOp12
 70
     1
102
RTVSPropertyOp13
 70
     1
102
RTVSPropertyOp14
 70
     1
102
RTVSPropertyOp15
 70
     1
102
RTVSPropertyOp16
 70
     1
102
RTVSPropertyOp17
 70
     1
102
RTVSPropertyOp18
 70
     1
102
RTVSPropertyOp19
 70
     1
102
RTVSPropertyOp20
 70
     1
102
RTVSPropertyOp21
 70
     1
102
RTVSPropertyOp22
 70
     1
102
RTVSPropertyOp23
 70
     1
102
RTVSPropertyOp24
 70
     1
102
RTVSPropertyOp25
 70
     1
102
RTVSPropertyOp26
 70
     1
102
RTVSPropertyOp27
 70
     1
102
RTVSPropertyOp28
 70
     1
102
RTVSPropertyOp29
 70
     1
102
RTVSPropertyOp30
 70
     1
102
RTVSPropertyOp31
 70
     1
102
RTVSPropertyOp32
 70
     1
  0
ENDSEC
  0
EOF
