999
DXF file: d:\tmp\workingDir\0000102131\5_400720_0_00000_mkt_q_02_01.dxf
999
Pro/ENGINEER 2016380 by Parametric Technology Corporation
  0
SECTION
  2
HEADER
  9
$ACADVER
  1
AC1014
  9
$DWGCODEPAGE
  3
ANSI_1252
  9
$EXTMAX
 10
160.02
 20
140.0
 30
0.0
  9
$EXTMIN
 10
0.0
 20
0.0
 30
0.0
  9
$LIMMIN
 10
0.0
 20
0.0
  9
$LIMMAX
 10
160.02
 20
140.0
  9
$VIEWCTR
 10
80.01
 20
70.0
  9
$VIEWSIZE
 40
140.0
  9
$CLAYER
  8
0
  9
$LTSCALE
 40
9.1259259259
  9
$CELTYPE
  6
BYLAYER
  9
$DIMSCALE
 40
1.0
  9
$DIMASZ
 40
3.5
  9
$DIMEXO
 40
0.0
  9
$DIMDLI
 40
6.3051851852
  9
$DIMEXE
 40
2.0
  9
$DIMCEN
 40
1.4933333333
  9
$DIMLFAC
 40
1.0
  9
$DIMBLK
  1
_ARROW_FILLED
  9
$DIMALT
 70
0
  9
$DIMALTF
 40
25.4
  9
$DIMTXT
 40
3.5
  9
$DIMTOL
 70
1
  9
$DIMLIM
 70
0
  9
$DIMTFAC
 40
1.0
  9
$DIMTP
 40
0.01
  9
$DIMTM
 40
0.01
  9
$DIMGAP
 40
0.625
  9
$AUNITS
 70
0
  9
$PDMODE
 70
0
  9
$PDSIZE
 40
0.04
  9
$HANDSEED
  5
5C6
  9
$TILEMODE
 70
1
  9
$MEASUREMENT
 70
1
  0
ENDSEC
  0
SECTION
  2
CLASSES
  0
ENDSEC
  0
SECTION
  2
TABLES
  0
TABLE
  2
VPORT
  5
8
100
AcDbSymbolTable
 70
2
  0
VPORT
  5
1F4
100
AcDbSymbolTableRecord
100
AcDbViewportTableRecord
  2
*ACTIVE
 70
0
 10
0.0
 20
0.0
 11
1.0
 21
1.0
 12
80.01
 22
70.0
 13
0.0
 23
0.0
 14
1.0
 24
1.0
 15
0.0
 25
0.0
 16
0.0
 26
0.0
 36
1.0
 17
0.0
 27
0.0
 37
0.0
 40
140.0
 41
1.143
 42
50.0
 43
0.0
 44
0.0
 50
0.0
 51
0.0
 71
0
 72
100
 73
1
 74
1
 75
0
 76
0
 77
0
 78
0
  0
ENDTAB
  0
TABLE
  2
LTYPE
  5
5
100
AcDbSymbolTable
 70
6
  0
LTYPE
  5
14
100
AcDbSymbolTableRecord
100
AcDbLinetypeTableRecord
  2
BYBLOCK
 70
0
  3

 72
65
 73
0
 40
0.0
  0
LTYPE
  5
15
100
AcDbSymbolTableRecord
100
AcDbLinetypeTableRecord
  2
BYLAYER
 70
0
  3

 72
65
 73
0
 40
0.0
  0
LTYPE
  5
16
100
AcDbSymbolTableRecord
100
AcDbLinetypeTableRecord
  2
CONTINUOUS
 70
64
  3
Solid line
 72
65
 73
0
 40
0.0
  0
LTYPE
  5
1F5
100
AcDbSymbolTableRecord
100
AcDbLinetypeTableRecord
  2
CENTER
 70
64
  3
____ _ ____ _ ____ _ ____ _ ____ _ ____ _ ____
 72
65
 73
4
 40
0.6
 49
0.375
 74
0
 49
-0.075
 74
0
 49
0.075
 74
0
 49
-0.075
 74
0
  0
LTYPE
  5
1F6
100
AcDbSymbolTableRecord
100
AcDbLinetypeTableRecord
  2
HIDDEN
 70
64
  3
- - - - - - - - - - - - - - - - - - - -
 72
65
 73
2
 40
0.2
 49
0.1
 74
0
 49
-0.1
 74
0
  0
LTYPE
  5
1F7
100
AcDbSymbolTableRecord
100
AcDbLinetypeTableRecord
  2
PHANTOM
 70
64
  3
_____ _ _ _____ _ _ _____ _ _ _____
 72
65
 73
6
 40
0.8
 49
0.45
 74
0
 49
-0.05
 74
0
 49
0.1
 74
0
 49
-0.05
 74
0
 49
0.1
 74
0
 49
-0.05
 74
0
  0
LTYPE
  5
1F8
100
AcDbSymbolTableRecord
100
AcDbLinetypeTableRecord
  2
DOT
 70
64
  3
. . . . . . . . . . . . . . . . . . . .
 72
65
 73
2
 40
0.2
 49
0.1
 74
0
 49
-0.1
 74
0
  0
LTYPE
  5
1F9
100
AcDbSymbolTableRecord
100
AcDbLinetypeTableRecord
  2
DASHED
 70
64
  3
- - - - - - - - - - - - - - - - - - - -
 72
65
 73
2
 40
0.2
 49
0.1
 74
0
 49
-0.1
 74
0
  0
ENDTAB
  0
TABLE
  2
LAYER
  5
2
100
AcDbSymbolTable
 70
36
  0
LAYER
  5
10
100
AcDbSymbolTableRecord
100
AcDbLayerTableRecord
  2
0
 70
0
 62
7
  6
CONTINUOUS
  0
LAYER
  5
1FA
100
AcDbSymbolTableRecord
100
AcDbLayerTableRecord
  2
DEFAULT_1
 70
0
 62
7
  6
CENTER
  0
LAYER
  5
1FB
100
AcDbSymbolTableRecord
100
AcDbLayerTableRecord
  2
DEFAULT_2
 70
0
 62
8
  6
HIDDEN
  0
LAYER
  5
1FC
100
AcDbSymbolTableRecord
100
AcDbLayerTableRecord
  2
DEFAULT_3
 70
0
 62
7
  6
PHANTOM
  0
LAYER
  5
1FD
100
AcDbSymbolTableRecord
100
AcDbLayerTableRecord
  2
A_ACHSEN
 70
0
 62
7
  6
CONTINUOUS
  0
LAYER
  5
1FE
100
AcDbSymbolTableRecord
100
AcDbLayerTableRecord
  2
A_BASISEBENEN
 70
0
 62
7
  6
CONTINUOUS
  0
LAYER
  5
1FF
100
AcDbSymbolTableRecord
100
AcDbLayerTableRecord
  2
A_BEMASSUNGEN
 70
0
 62
7
  6
CONTINUOUS
  0
LAYER
  5
200
100
AcDbSymbolTableRecord
100
AcDbLayerTableRecord
  2
A_BOHRUNGEN
 70
0
 62
7
  6
CONTINUOUS
  0
LAYER
  5
201
100
AcDbSymbolTableRecord
100
AcDbLayerTableRecord
  2
A_EBENEN
 70
0
 62
7
  6
CONTINUOUS
  0
LAYER
  5
202
100
AcDbSymbolTableRecord
100
AcDbLayerTableRecord
  2
A_FASEN
 70
0
 62
7
  6
CONTINUOUS
  0
LAYER
  5
203
100
AcDbSymbolTableRecord
100
AcDbLayerTableRecord
  2
A_FLAECHEN
 70
0
 62
7
  6
CONTINUOUS
  0
LAYER
  5
204
100
AcDbSymbolTableRecord
100
AcDbLayerTableRecord
  2
A_FL_VERBAENDE
 70
0
 62
7
  6
CONTINUOUS
  0
LAYER
  5
205
100
AcDbSymbolTableRecord
100
AcDbLayerTableRecord
  2
A_KURVEN
 70
0
 62
7
  6
CONTINUOUS
  0
LAYER
  5
206
100
AcDbSymbolTableRecord
100
AcDbLayerTableRecord
  2
A_NOTIZEN_SYMB
 70
0
 62
7
  6
CONTINUOUS
  0
LAYER
  5
207
100
AcDbSymbolTableRecord
100
AcDbLayerTableRecord
  2
A_PUNKTE
 70
0
 62
7
  6
CONTINUOUS
  0
LAYER
  5
208
100
AcDbSymbolTableRecord
100
AcDbLayerTableRecord
  2
A_RUNDUNGEN
 70
0
 62
7
  6
CONTINUOUS
  0
LAYER
  5
209
100
AcDbSymbolTableRecord
100
AcDbLayerTableRecord
  2
BASISEBENEN
 70
0
 62
7
  6
CONTINUOUS
  0
LAYER
  5
20A
100
AcDbSymbolTableRecord
100
AcDbLayerTableRecord
  2
GRAVUR
 70
0
 62
7
  6
CONTINUOUS
  0
LAYER
  5
20B
100
AcDbSymbolTableRecord
100
AcDbLayerTableRecord
  2
SCHRIFTZUG_DREHMOMENT
 70
0
 62
7
  6
CONTINUOUS
  0
LAYER
  5
20C
100
AcDbSymbolTableRecord
100
AcDbLayerTableRecord
  2
XSEC_DATUMS
 70
0
 62
7
  6
CONTINUOUS
  0
ENDTAB
  0
TABLE
  2
STYLE
  5
3
100
AcDbSymbolTable
 70
1
  0
STYLE
  5
11
100
AcDbSymbolTableRecord
100
AcDbTextStyleTableRecord
  2
STANDARD
 70
0
 40
0.0
 41
1.0
 50
0.0
 71
0
 42
0.2
  3
txt
  4

  0
STYLE
  5
20D
100
AcDbSymbolTableRecord
100
AcDbTextStyleTableRecord
  2
TEXTSTYLE_1
 70
0
 40
0.0
 41
0.8
 50
0.0
 71
0
 42
0.2
  3
gdt
  4

  0
STYLE
  5
20E
100
AcDbSymbolTableRecord
100
AcDbTextStyleTableRecord
  2
TEXTSTYLE_2
 70
0
 40
0.0
 41
1.0
 50
0.0
 71
0
 42
0.2
  3
txt
  4

  0
ENDTAB
  0
TABLE
  2
VIEW
  5
6
100
AcDbSymbolTable
 70
0
  0
ENDTAB
  0
TABLE
  2
UCS
  5
7
100
AcDbSymbolTable
 70
0
  0
ENDTAB
  0
TABLE
  2
APPID
  5
9
100
AcDbSymbolTable
 70
1
  0
APPID
  5
20F
100
AcDbSymbolTableRecord
100
AcDbRegAppTableRecord
  2
ACAD
 70
0
  0
ENDTAB
  0
TABLE
  2
BLOCK_RECORD
  5
1
100
AcDbSymbolTable
 70
0
  0
BLOCK_RECORD
  5
1F
100
AcDbSymbolTableRecord
100
AcDbBlockTableRecord
  2
*MODEL_SPACE
  0
BLOCK_RECORD
  5
1B
100
AcDbSymbolTableRecord
100
AcDbBlockTableRecord
  2
*PAPER_SPACE
  0
BLOCK_RECORD
  5
210
100
AcDbSymbolTableRecord
100
AcDbBlockTableRecord
  2
_ARROW_FILLED
  0
BLOCK_RECORD
  5
211
100
AcDbSymbolTableRecord
100
AcDbBlockTableRecord
  2
*D0
  0
BLOCK_RECORD
  5
212
100
AcDbSymbolTableRecord
100
AcDbBlockTableRecord
  2
*D1
  0
BLOCK_RECORD
  5
213
100
AcDbSymbolTableRecord
100
AcDbBlockTableRecord
  2
*D2
  0
BLOCK_RECORD
  5
214
100
AcDbSymbolTableRecord
100
AcDbBlockTableRecord
  2
*D3
  0
BLOCK_RECORD
  5
215
100
AcDbSymbolTableRecord
100
AcDbBlockTableRecord
  2
*D4
  0
ENDTAB
  0
TABLE
  2
DIMSTYLE
  5
A
100
AcDbSymbolTable
 70
1
  0
DIMSTYLE
105
216
100
AcDbSymbolTableRecord
100
AcDbDimStyleTableRecord
  2
STANDARD
 70
0
  3

  4

  5
_ARROW_FILLED
  6
_ARROW_FILLED
  7
_ARROW_FILLED
 40
1.0
 41
3.5
 42
0.0
 43
0.38
 44
2.0
 45
0.0
 46
0.0
 47
0.01
 48
0.01
140
3.5
141
0.09
142
0.0
143
25.4
144
1.0
145
0.0
146
1.0
147
0.625
 71
1.0
 72
0.0
 73
0
 74
0
 75
0
 76
0
 77
1
 78
8
170
0
171
1
172
0
173
0
174
0
175
0
176
0
177
0
178
5
270
2
271
2
272
2
273
2
274
2
275
0
280
0
281
0
282
0
283
1
284
8
285
0
286
0
287
3
288
0
340
11
  0
DIMSTYLE
105
217
100
AcDbSymbolTableRecord
100
AcDbDimStyleTableRecord
  2
DIMSTYLE_1
 70
0
  3

  4

  5
_ARROW_FILLED
  6
_ARROW_FILLED
  7
_ARROW_FILLED
 40
1.0
 41
3.5
 42
0.0
 43
0.38
 44
2.0
 45
0.0
 46
0.0
 47
0.1
 48
0.1
140
3.5
141
0.09
142
0.0
143
25.4
144
1.0
145
0.0
146
1.0
147
0.875
 71
0.0
 72
0.0
 73
0
 74
0
 75
0
 76
0
 77
1
 78
8
170
0
171
1
172
0
173
0
174
0
175
0
176
0
177
0
178
5
270
2
271
0
272
-1
273
2
274
2
275
0
280
0
281
0
282
0
283
1
284
8
285
0
286
0
287
3
288
0
340
20E
  0
DIMSTYLE
105
218
100
AcDbSymbolTableRecord
100
AcDbDimStyleTableRecord
  2
DIMSTYLE_2
 70
0
  3

  4

  5
_ARROW_FILLED
  6
_ARROW_FILLED
  7
_ARROW_FILLED
 40
1.0
 41
3.5
 42
0.0
 43
0.38
 44
2.0
 45
0.0
 46
0.0
 47
0.2
 48
0.2
140
3.5
141
0.09
142
0.0
143
25.4
144
1.0
145
0.0
146
1.0
147
0.875
 71
0.0
 72
0.0
 73
0
 74
0
 75
0
 76
0
 77
1
 78
8
170
0
171
1
172
0
173
0
174
0
175
0
176
0
177
0
178
5
270
2
271
4
272
-1
273
2
274
2
275
0
280
0
281
0
282
0
283
1
284
8
285
0
286
0
287
3
288
0
340
20E
  0
DIMSTYLE
105
219
100
AcDbSymbolTableRecord
100
AcDbDimStyleTableRecord
  2
DIMSTYLE_3
 70
0
  3

  4

  5
_ARROW_FILLED
  6
_ARROW_FILLED
  7
_ARROW_FILLED
 40
1.0
 41
3.5
 42
0.0
 43
0.38
 44
2.0
 45
0.0
 46
0.0
 47
0.3
 48
0.3
140
3.5
141
0.09
142
0.0
143
25.4
144
1.0
145
0.0
146
1.0
147
0.875
 71
0.0
 72
0.0
 73
0
 74
0
 75
0
 76
0
 77
1
 78
8
170
0
171
1
172
0
173
0
174
0
175
0
176
0
177
0
178
5
270
2
271
4
272
-1
273
2
274
2
275
0
280
0
281
0
282
0
283
1
284
8
285
0
286
0
287
3
288
0
340
20E
  0
DIMSTYLE
105
21A
100
AcDbSymbolTableRecord
100
AcDbDimStyleTableRecord
  2
DIMSTYLE_4
 70
0
  3

  4

  5
_ARROW_FILLED
  6
_ARROW_FILLED
  7
_ARROW_FILLED
 40
1.0
 41
3.5
 42
0.0
 43
0.38
 44
2.0
 45
0.0
 46
0.0
 47
0.2
 48
0.2
140
3.5
141
0.09
142
0.0
143
25.4
144
1.0
145
0.0
146
1.0
147
0.875
 71
0.0
 72
0.0
 73
0
 74
0
 75
0
 76
0
 77
1
 78
8
170
0
171
1
172
0
173
0
174
0
175
0
176
0
177
0
178
5
270
2
271
0
272
-1
273
2
274
2
275
0
280
0
281
0
282
0
283
1
284
8
285
0
286
0
287
3
288
0
340
20E
  0
DIMSTYLE
105
21B
100
AcDbSymbolTableRecord
100
AcDbDimStyleTableRecord
  2
DIMSTYLE_5
 70
0
  3

  4

  5
_ARROW_FILLED
  6
_ARROW_FILLED
  7
_ARROW_FILLED
 40
1.0
 41
3.5
 42
0.0
 43
0.38
 44
2.0
 45
0.0
 46
0.0
 47
0.1
 48
0.1
140
3.5
141
0.09
142
0.0
143
25.4
144
1.0
145
0.0
146
1.0
147
0.875
 71
0.0
 72
0.0
 73
0
 74
0
 75
0
 76
0
 77
1
 78
8
170
0
171
1
172
0
173
0
174
0
175
0
176
0
177
0
178
5
270
2
271
2
272
-1
273
2
274
2
275
0
280
0
281
0
282
0
283
1
284
8
285
0
286
0
287
3
288
0
340
20E
  0
ENDTAB
  0
ENDSEC
  0
SECTION
  2
BLOCKS
  0
BLOCK
  5
20
100
AcDbEntity
  8
0
100
AcDbBlockBegin
  2
*MODEL_SPACE
 70
0
 10
0.0
 20
0.0
 30
0.0
  3
*MODEL_SPACE
  1

  0
ENDBLK
  5
21
100
AcDbEntity
  8
0
100
AcDbBlockEnd
  0
BLOCK
  5
1C
100
AcDbEntity
  8
0
100
AcDbBlockBegin
  2
*PAPER_SPACE
 70
0
 10
0.0
 20
0.0
 30
0.0
  3
*PAPER_SPACE
  1

  0
ENDBLK
  5
1D
100
AcDbEntity
  8
0
100
AcDbBlockEnd
  0
BLOCK
  5
21C
100
AcDbEntity
  8
0
100
AcDbBlockBegin
  2
_ARROW_FILLED
 70
64
 10
0.0
 20
0.0
  3
_ARROW_FILLED
  1

  0
SOLID
  5
21D
100
AcDbEntity
  8
0
  6
BYBLOCK
 62
0
100
AcDbTrace
 10
0.0
 20
0.0
 11
-1.0
 21
0.1428571429
 12
-1.0
 22
-0.1428571429
 13
-1.0
 23
-0.1428571429
  0
ENDBLK
  5
21E
100
AcDbEntity
  8
0
  6
BYBLOCK
 62
0
100
AcDbBlockEnd
  0
BLOCK
  5
21F
100
AcDbEntity
  8
A_BEMASSUNGEN
100
AcDbBlockBegin
 62
2
  6
CONTINUOUS
  2
*D0
 70
65
 10
0.0
 20
0.0
  3
*D0
  1

  0
MTEXT
  5
220
100
AcDbEntity
  8
A_BEMASSUNGEN
100
AcDbMText
 62
5
  6
CONTINUOUS
  7
TEXTSTYLE_2
 71
2
 72
1
 10
2.0768959439
 20
32.2584072759
 30
0.0
 11
0.0
 21
1.0
 31
0.0
  1
4
 40
3.5
 41
4.125
  0
LINE
  5
221
100
AcDbEntity
  8
A_BEMASSUNGEN
100
AcDbLine
 62
2
  6
CONTINUOUS
 10
15.1911637905
 20
30.2584072759
 11
4.4518959439
 21
30.2584072759
  0
LINE
  5
222
100
AcDbEntity
  8
A_BEMASSUNGEN
100
AcDbLine
 62
2
  6
CONTINUOUS
 10
28.1911637905
 20
34.2584072759
 11
4.4518959439
 21
34.2584072759
  0
LINE
  5
223
100
AcDbEntity
  8
A_BEMASSUNGEN
100
AcDbLine
 62
2
  6
CONTINUOUS
 10
6.4518959439
 20
30.2584072759
 11
6.4518959439
 21
22.7584072759
  0
LINE
  5
224
100
AcDbEntity
  8
A_BEMASSUNGEN
100
AcDbLine
 62
2
  6
CONTINUOUS
 10
6.4518959439
 20
22.7584072759
 11
6.4518959439
 21
32.2584072759
  0
LINE
  5
225
100
AcDbEntity
  8
A_BEMASSUNGEN
100
AcDbLine
 62
2
  6
CONTINUOUS
 10
6.4518959439
 20
34.2584072759
 11
6.4518959439
 21
41.7584072759
  0
LINE
  5
226
100
AcDbEntity
  8
A_BEMASSUNGEN
100
AcDbLine
 62
2
  6
CONTINUOUS
 10
6.4518959439
 20
41.7584072759
 11
6.4518959439
 21
32.2584072759
  0
INSERT
  5
227
100
AcDbEntity
  8
A_BEMASSUNGEN
100
AcDbBlockReference
 62
2
  6
CONTINUOUS
  2
_ARROW_FILLED
 10
6.4518959439
 20
30.2584072759
 41
3.5
 42
3.5
 43
3.5
 50
90.0
  0
INSERT
  5
228
100
AcDbEntity
  8
A_BEMASSUNGEN
100
AcDbBlockReference
 62
2
  6
CONTINUOUS
  2
_ARROW_FILLED
 10
6.4518959439
 20
34.2584072759
 41
3.5
 42
3.5
 43
3.5
 50
270.0
  0
ENDBLK
  5
229
100
AcDbEntity
  8
0
  6
BYBLOCK
 62
0
100
AcDbBlockEnd
  0
BLOCK
  5
22A
100
AcDbEntity
  8
A_BEMASSUNGEN
100
AcDbBlockBegin
 62
2
  6
CONTINUOUS
  2
*D1
 70
65
 10
0.0
 20
0.0
  3
*D1
  1

  0
MTEXT
  5
22B
100
AcDbEntity
  8
A_BEMASSUNGEN
100
AcDbMText
 62
5
  6
CONTINUOUS
  7
TEXTSTYLE_2
 71
1
 72
1
 10
152.3277608345
 20
45.7146181941
 30
0.0
 11
0.0
 21
1.0
 31
0.0
  1
8/10
 40
3.5
 41
15.25
  0
LINE
  5
22C
100
AcDbEntity
  8
A_BEMASSUNGEN
100
AcDbLine
 62
2
  6
CONTINUOUS
 10
148.1910165302
 20
41.6501588689
 11
158.7027608345
 21
41.6501588689
  0
LINE
  5
22D
100
AcDbEntity
  8
A_BEMASSUNGEN
100
AcDbLine
 62
2
  6
CONTINUOUS
 10
148.1910165302
 20
33.6501588689
 11
158.7027608345
 21
33.6501588689
  0
LINE
  5
22E
100
AcDbEntity
  8
A_BEMASSUNGEN
100
AcDbLine
 62
2
  6
CONTINUOUS
 10
156.7027608345
 20
41.6501588689
 11
156.7027608345
 21
55.8812848608
  0
LINE
  5
22F
100
AcDbEntity
  8
A_BEMASSUNGEN
100
AcDbLine
 62
2
  6
CONTINUOUS
 10
156.7027608345
 20
55.8812848608
 11
156.7027608345
 21
37.6501588689
  0
LINE
  5
230
100
AcDbEntity
  8
A_BEMASSUNGEN
100
AcDbLine
 62
2
  6
CONTINUOUS
 10
156.7027608345
 20
33.6501588689
 11
156.7027608345
 21
26.1501588689
  0
LINE
  5
231
100
AcDbEntity
  8
A_BEMASSUNGEN
100
AcDbLine
 62
2
  6
CONTINUOUS
 10
156.7027608345
 20
26.1501588689
 11
156.7027608345
 21
37.6501588689
  0
INSERT
  5
232
100
AcDbEntity
  8
A_BEMASSUNGEN
100
AcDbBlockReference
 62
2
  6
CONTINUOUS
  2
_ARROW_FILLED
 10
156.7027608345
 20
41.6501588689
 41
3.5
 42
3.5
 43
3.5
 50
270.0
  0
INSERT
  5
233
100
AcDbEntity
  8
A_BEMASSUNGEN
100
AcDbBlockReference
 62
2
  6
CONTINUOUS
  2
_ARROW_FILLED
 10
156.7027608345
 20
33.6501588689
 41
3.5
 42
3.5
 43
3.5
 50
90.0
  0
ENDBLK
  5
234
100
AcDbEntity
  8
0
  6
BYBLOCK
 62
0
100
AcDbBlockEnd
  0
BLOCK
  5
235
100
AcDbEntity
  8
A_BEMASSUNGEN
100
AcDbBlockBegin
 62
2
  6
CONTINUOUS
  2
*D2
 70
65
 10
0.0
 20
0.0
  3
*D2
  1

  0
MTEXT
  5
236
100
AcDbEntity
  8
A_BEMASSUNGEN
100
AcDbMText
 62
5
  6
CONTINUOUS
  7
TEXTSTYLE_2
 71
2
 72
1
 10
44.1614298539
 20
75.6456982805
 30
0.0
 11
1.0
 21
0.0
 31
0.0
  1
50
 40
3.5
 41
7.875
  0
LINE
  5
237
100
AcDbEntity
  8
A_BEMASSUNGEN
100
AcDbLine
 62
2
  6
CONTINUOUS
 10
28.1911637905
 20
42.7584072759
 11
28.1911637905
 21
73.2706982805
  0
LINE
  5
238
100
AcDbEntity
  8
A_BEMASSUNGEN
100
AcDbLine
 62
2
  6
CONTINUOUS
 10
78.1911637905
 20
71.2706982805
 11
53.1911637905
 21
71.2706982805
  0
LINE
  5
239
100
AcDbEntity
  8
A_BEMASSUNGEN
100
AcDbLine
 62
2
  6
CONTINUOUS
 10
28.1911637905
 20
71.2706982805
 11
53.1911637905
 21
71.2706982805
  0
INSERT
  5
23A
100
AcDbEntity
  8
A_BEMASSUNGEN
100
AcDbBlockReference
 62
2
  6
CONTINUOUS
  2
_ARROW_FILLED
 10
78.1911637905
 20
71.2706982805
 41
3.5
 42
3.5
 43
3.5
  0
INSERT
  5
23B
100
AcDbEntity
  8
A_BEMASSUNGEN
100
AcDbBlockReference
 62
2
  6
CONTINUOUS
  2
_ARROW_FILLED
 10
28.1911637905
 20
71.2706982805
 41
3.5
 42
3.5
 43
3.5
 50
180.0
  0
ENDBLK
  5
23C
100
AcDbEntity
  8
0
  6
BYBLOCK
 62
0
100
AcDbBlockEnd
  0
BLOCK
  5
23D
100
AcDbEntity
  8
A_BEMASSUNGEN
100
AcDbBlockBegin
 62
2
  6
CONTINUOUS
  2
*D3
 70
65
 10
0.0
 20
0.0
  3
*D3
  1

  0
MTEXT
  5
23E
100
AcDbEntity
  8
A_BEMASSUNGEN
100
AcDbMText
 62
5
  6
CONTINUOUS
  7
TEXTSTYLE_2
 71
2
 72
1
 10
2.0768959439
 20
48.2584072759
 30
0.0
 11
0.0
 21
1.0
 31
0.0
  1
28
 40
3.5
 41
8.25
  0
LINE
  5
23F
100
AcDbEntity
  8
A_BEMASSUNGEN
100
AcDbLine
 62
2
  6
CONTINUOUS
 10
28.1911637905
 20
34.2584072759
 11
4.4518959439
 21
34.2584072759
  0
LINE
  5
240
100
AcDbEntity
  8
A_BEMASSUNGEN
100
AcDbLine
 62
2
  6
CONTINUOUS
 10
57.1911637905
 20
62.2584072759
 11
4.4518959439
 21
62.2584072759
  0
LINE
  5
241
100
AcDbEntity
  8
A_BEMASSUNGEN
100
AcDbLine
 62
2
  6
CONTINUOUS
 10
6.4518959439
 20
34.2584072759
 11
6.4518959439
 21
48.2584072759
  0
LINE
  5
242
100
AcDbEntity
  8
A_BEMASSUNGEN
100
AcDbLine
 62
2
  6
CONTINUOUS
 10
6.4518959439
 20
62.2584072759
 11
6.4518959439
 21
48.2584072759
  0
INSERT
  5
243
100
AcDbEntity
  8
A_BEMASSUNGEN
100
AcDbBlockReference
 62
2
  6
CONTINUOUS
  2
_ARROW_FILLED
 10
6.4518959439
 20
34.2584072759
 41
3.5
 42
3.5
 43
3.5
 50
270.0
  0
INSERT
  5
244
100
AcDbEntity
  8
A_BEMASSUNGEN
100
AcDbBlockReference
 62
2
  6
CONTINUOUS
  2
_ARROW_FILLED
 10
6.4518959439
 20
62.2584072759
 41
3.5
 42
3.5
 43
3.5
 50
90.0
  0
ENDBLK
  5
245
100
AcDbEntity
  8
0
  6
BYBLOCK
 62
0
100
AcDbBlockEnd
  0
BLOCK
  5
246
100
AcDbEntity
  8
A_BEMASSUNGEN
100
AcDbBlockBegin
 62
2
  6
CONTINUOUS
  2
*D4
 70
65
 10
0.0
 20
0.0
  3
*D4
  1

  0
MTEXT
  5
247
100
AcDbEntity
  8
A_BEMASSUNGEN
100
AcDbMText
 62
5
  6
CONTINUOUS
  7
TEXTSTYLE_2
 71
3
 72
1
 10
63.4525836153
 20
22.0182010645
 30
0.0
 11
1.0
 21
0.0
 31
0.0
  1
3.5
 40
3.5
 41
10.5
  0
LINE
  5
248
100
AcDbEntity
  8
A_BEMASSUNGEN
100
AcDbLine
 62
2
  6
CONTINUOUS
 10
65.1911637905
 20
30.2584072759
 11
65.1911637905
 21
15.6432010645
  0
LINE
  5
249
100
AcDbEntity
  8
A_BEMASSUNGEN
100
AcDbLine
 62
2
  6
CONTINUOUS
 10
68.6910165302
 20
34.1501588689
 11
68.6910165302
 21
15.6432010645
  0
LINE
  5
24A
100
AcDbEntity
  8
A_BEMASSUNGEN
100
AcDbLine
 62
2
  6
CONTINUOUS
 10
65.1911637905
 20
17.6432010645
 11
56.4525836153
 21
17.6432010645
  0
LINE
  5
24B
100
AcDbEntity
  8
A_BEMASSUNGEN
100
AcDbLine
 62
2
  6
CONTINUOUS
 10
56.4525836153
 20
17.6432010645
 11
66.9410901604
 21
17.6432010645
  0
LINE
  5
24C
100
AcDbEntity
  8
A_BEMASSUNGEN
100
AcDbLine
 62
2
  6
CONTINUOUS
 10
68.6910165302
 20
17.6432010645
 11
76.1910165302
 21
17.6432010645
  0
LINE
  5
24D
100
AcDbEntity
  8
A_BEMASSUNGEN
100
AcDbLine
 62
2
  6
CONTINUOUS
 10
76.1910165302
 20
17.6432010645
 11
66.9410901604
 21
17.6432010645
  0
INSERT
  5
24E
100
AcDbEntity
  8
A_BEMASSUNGEN
100
AcDbBlockReference
 62
2
  6
CONTINUOUS
  2
_ARROW_FILLED
 10
65.1911637905
 20
17.6432010645
 41
3.5
 42
3.5
 43
3.5
  0
INSERT
  5
24F
100
AcDbEntity
  8
A_BEMASSUNGEN
100
AcDbBlockReference
 62
2
  6
CONTINUOUS
  2
_ARROW_FILLED
 10
68.6910165302
 20
17.6432010645
 41
3.5
 42
3.5
 43
3.5
 50
180.0
  0
ENDBLK
  5
250
100
AcDbEntity
  8
0
  6
BYBLOCK
 62
0
100
AcDbBlockEnd
  0
ENDSEC
  0
SECTION
  2
ENTITIES
  0
DIMENSION
  5
251
100
AcDbEntity
  8
A_BEMASSUNGEN
100
AcDbDimension
 62
2
  6
CONTINUOUS
  2
*D0
 10
6.4518959439
 20
34.2584072759
 11
6.4518959439
 21
31.7584071292
 70
160
  3
DIMSTYLE_1
100
AcDbAlignedDimension
 13
15.1911637905
 23
30.2584072759
 14
28.1911637905
 24
34.2584072759
 50
90.0
100
AcDbRotatedDimension
  0
DIMENSION
  5
252
100
AcDbEntity
  8
A_BEMASSUNGEN
100
AcDbDimension
 62
2
  6
CONTINUOUS
  2
*D1
 10
156.7027608345
 20
33.6501588689
 11
156.7027608345
 21
50.7979515275
 70
160
  1
<>/10
  3
DIMSTYLE_2
100
AcDbAlignedDimension
 13
148.1910165302
 23
41.6501588689
 14
148.1910165302
 24
33.6501588689
 50
270.0
100
AcDbRotatedDimension
  0
DIMENSION
  5
253
100
AcDbEntity
  8
A_BEMASSUNGEN
100
AcDbDimension
 62
2
  6
CONTINUOUS
  2
*D2
 10
28.1911637905
 20
71.2706982805
 11
43.6614315683
 21
71.2706982805
 70
160
  3
DIMSTYLE_3
100
AcDbAlignedDimension
 13
78.1911637905
 23
48.7584072759
 14
28.1911637905
 24
42.7584072759
 50
180.0
100
AcDbRotatedDimension
  0
DIMENSION
  5
254
100
AcDbEntity
  8
A_BEMASSUNGEN
100
AcDbDimension
 62
2
  6
CONTINUOUS
  2
*D3
 10
6.4518959439
 20
62.2584072759
 11
6.4518959439
 21
47.7584072196
 70
160
  3
DIMSTYLE_4
100
AcDbAlignedDimension
 13
28.1911637905
 23
34.2584072759
 14
57.1911637905
 24
62.2584072759
 50
90.0
100
AcDbRotatedDimension
  0
DIMENSION
  5
255
100
AcDbEntity
  8
A_BEMASSUNGEN
100
AcDbDimension
 62
2
  6
CONTINUOUS
  2
*D4
 10
68.6910165302
 20
17.6432010645
 11
59.452583912
 21
17.6432010645
 70
160
  3
DIMSTYLE_5
100
AcDbAlignedDimension
 13
65.1911637905
 23
30.2584072759
 14
68.6910165302
 24
34.1501588689
100
AcDbRotatedDimension
  0
LINE
  5
256
100
AcDbEntity
  8
0
100
AcDbLine
 62
7
  6
CONTINUOUS
 10
15.1911637905
 20
42.7584072759
 11
15.1911637905
 21
30.2584072759
  0
LINE
  5
257
100
AcDbEntity
  8
A_RUNDUNGEN
100
AcDbLine
 62
8
  6
HIDDEN
 10
29.3360711027
 20
34.9633067977
 11
29.5752189023
 21
34.7220628805
  0
LINE
  5
258
100
AcDbEntity
  8
DEFAULT_2
100
AcDbLine
 62
8
  6
HIDDEN
 10
28.1911637905
 20
42.7584072759
 11
28.1911637905
 21
34.2584072759
  0
LINE
  5
259
100
AcDbEntity
  8
A_RUNDUNGEN
100
AcDbLine
 62
7
  6
CONTINUOUS
 10
29.3314938904
 20
43.6001676961
 11
29.607750366
 21
43.3140957411
  0
LINE
  5
25A
100
AcDbEntity
  8
DEFAULT_2
100
AcDbLine
 62
8
  6
HIDDEN
 10
29.1911637905
 20
50.7584072759
 11
29.1911637905
 21
45.7584072759
  0
LINE
  5
25B
100
AcDbEntity
  8
DEFAULT_2
100
AcDbLine
 62
8
  6
HIDDEN
 10
29.1911637905
 20
41.2584072759
 11
29.1911637905
 21
36.2584072759
  0
LINE
  5
25C
100
AcDbEntity
  8
A_RUNDUNGEN
100
AcDbLine
 62
8
  6
HIDDEN
 10
29.1911637905
 20
42.7584072759
 11
29.1911637905
 21
35.3153141599
  0
LINE
  5
25D
100
AcDbEntity
  8
A_RUNDUNGEN
100
AcDbLine
 62
7
  6
CONTINUOUS
 10
29.1911637905
 20
42.7584072759
 11
29.1911637905
 21
61.2015003919
  0
LINE
  5
25E
100
AcDbEntity
  8
DEFAULT_2
100
AcDbLine
 62
8
  6
HIDDEN
 10
29.3911637905
 20
36.2584072759
 11
29.3911637905
 21
41.2584072759
  0
LINE
  5
25F
100
AcDbEntity
  8
A_RUNDUNGEN
100
AcDbLine
 62
8
  6
HIDDEN
 10
30.0911637905
 20
60.5110184398
 11
30.0911637905
 21
35.9557961121
  0
LINE
  5
260
100
AcDbEntity
  8
A_RUNDUNGEN
100
AcDbLine
 62
7
  6
CONTINUOUS
 10
50.8880047202
 20
29.3297710551
 11
50.0348225985
 21
29.6027893341
  0
LINE
  5
261
100
AcDbEntity
  8
A_RUNDUNGEN
100
AcDbLine
 62
8
  6
HIDDEN
 10
29.3376103999
 20
50.9369606665
 11
29.5447171811
 21
50.7298538853
  0
LINE
  5
262
100
AcDbEntity
  8
A_RUNDUNGEN
100
AcDbLine
 62
8
  6
HIDDEN
 10
40.1911637803
 20
38.8188011972
 11
40.2017183583
 21
38.7165604533
  0
LINE
  5
263
100
AcDbEntity
  8
A_RUNDUNGEN
100
AcDbLine
 62
8
  6
HIDDEN
 10
40.1911637905
 20
38.8189882791
 11
40.2000557159
 21
38.7250154201
  0
LINE
  5
264
100
AcDbEntity
  8
A_ACHSEN
100
AcDbLine
 62
7
  6
CENTER
 10
37.8911637905
 20
40.93248135
 11
37.8911637905
 21
38.8584072762
  0
LINE
  5
265
100
AcDbEntity
  8
A_ACHSEN
100
AcDbLine
 62
7
  6
CENTER
 10
37.8911637905
 20
36.7843332018
 11
37.8911637905
 21
38.5800964116
  0
LINE
  5
266
100
AcDbEntity
  8
A_ACHSEN
100
AcDbLine
 62
7
  6
CONTINUOUS
 10
37.8911637905
 20
38.5800964116
 11
37.8911637905
 21
38.8584072762
  0
LINE
  5
267
100
AcDbEntity
  8
A_ACHSEN
100
AcDbLine
 62
8
  6
HIDDEN
 10
53.1911637905
 20
106.7584072759
 11
54.4411637905
 21
108.0084072759
  0
LWPOLYLINE
  5
268
100
AcDbEntity
  8
A_RUNDUNGEN
100
AcDbPolyline
 62
7
  6
CONTINUOUS
 90
3
 70
0
 10
64.8089167596
 20
29.2584072817
 10
64.8523275283
 20
29.2620343578
 10
64.9013356918
 20
29.27556676
  0
LINE
  5
269
100
AcDbEntity
  8
A_RUNDUNGEN
100
AcDbLine
 62
7
  6
CONTINUOUS
 10
76.0610165302
 20
27.0501588689
 11
59.0610165302
 21
27.0501588689
  0
LINE
  5
26A
100
AcDbEntity
  8
A_ACHSEN
100
AcDbLine
 62
8
  6
HIDDEN
 10
66.5610165302
 20
29.0501588689
 11
60.0610165302
 21
29.0501588689
  0
LINE
  5
26B
100
AcDbEntity
  8
A_RUNDUNGEN
100
AcDbLine
 62
7
  6
CONTINUOUS
 10
78.0610165302
 20
29.0501588689
 11
57.0610165302
 21
29.0501588689
  0
LINE
  5
26C
100
AcDbEntity
  8
DEFAULT_2
100
AcDbLine
 62
8
  6
HIDDEN
 10
60.0610165302
 20
29.0501588689
 11
66.5610165302
 21
29.0501588689
  0
LINE
  5
26D
100
AcDbEntity
  8
A_RUNDUNGEN
100
AcDbLine
 62
7
  6
CONTINUOUS
 10
64.8089309991
 20
29.2584072759
 11
51.3451683109
 21
29.2584072759
  0
LINE
  5
26E
100
AcDbEntity
  8
A_RUNDUNGEN
100
AcDbLine
 62
8
  6
HIDDEN
 10
64.8110165302
 20
30.2584072759
 11
50.1110165302
 21
30.2584072759
  0
LINE
  5
26F
100
AcDbEntity
  8
0
100
AcDbLine
 62
7
  6
CONTINUOUS
 10
15.1911637905
 20
30.2584072759
 11
65.1911637905
 21
30.2584072759
  0
LINE
  5
270
100
AcDbEntity
  8
A_FASEN
100
AcDbLine
 62
8
  6
HIDDEN
 10
44.0911637786
 20
45.4334072879
 11
43.5911637807
 21
45.9334072858
  0
LINE
  5
271
100
AcDbEntity
  8
A_RUNDUNGEN
100
AcDbLine
 62
8
  6
HIDDEN
 10
55.718691096
 20
34.4504384061
 11
55.3636174466
 21
34.8086242569
  0
LINE
  5
272
100
AcDbEntity
  8
A_RUNDUNGEN
100
AcDbLine
 62
8
  6
HIDDEN
 10
40.1911637905
 20
42.7584072759
 11
40.1911637905
 21
38.8191607697
  0
LINE
  5
273
100
AcDbEntity
  8
A_RUNDUNGEN
100
AcDbLine
 62
7
  6
CONTINUOUS
 10
40.1911637905
 20
42.7584072759
 11
40.1911637905
 21
44.4008574417
  0
LINE
  5
274
100
AcDbEntity
  8
A_RUNDUNGEN
100
AcDbLine
 62
7
  6
CONTINUOUS
 10
40.1911637905
 20
52.1160912259
 11
40.1911637905
 21
57.6976537821
  0
LINE
  5
275
100
AcDbEntity
  8
A_FASEN
100
AcDbLine
 62
8
  6
HIDDEN
 10
43.5911637905
 20
50.5834072759
 11
43.5911637905
 21
45.9334072759
  0
LINE
  5
276
100
AcDbEntity
  8
DEFAULT_2
100
AcDbLine
 62
8
  6
HIDDEN
 10
43.7661637905
 20
50.7584072759
 11
43.7661637905
 21
45.7584072759
  0
LINE
  5
277
100
AcDbEntity
  8
A_ACHSEN
100
AcDbLine
 62
7
  6
CENTER
 10
43.8911637905
 20
34.8964967008
 11
43.8911637905
 21
43.8203178511
  0
LINE
  5
278
100
AcDbEntity
  8
A_FASEN
100
AcDbLine
 62
8
  6
HIDDEN
 10
44.0911637905
 20
51.0834072759
 11
44.0911637905
 21
45.4334072759
  0
LINE
  5
279
100
AcDbEntity
  8
A_RUNDUNGEN
100
AcDbLine
 62
8
  6
HIDDEN
 10
44.0911637905
 20
54.5110184398
 11
44.0911637905
 21
42.0057961121
  0
LINE
  5
27A
100
AcDbEntity
  8
A_RUNDUNGEN
100
AcDbLine
 62
8
  6
HIDDEN
 10
44.0911637905
 20
35.3851027774
 11
44.0911637905
 21
34.4794538846
  0
LINE
  5
27B
100
AcDbEntity
  8
A_RUNDUNGEN
100
AcDbLine
 62
8
  6
HIDDEN
 10
40.1911637905
 20
57.6978262729
 11
40.2000557163
 21
57.7917991338
  0
LINE
  5
27C
100
AcDbEntity
  8
A_RUNDUNGEN
100
AcDbLine
 62
7
  6
CONTINUOUS
 10
40.1911637803
 20
57.6980133544
 11
40.2017183581
 21
57.8002540973
  0
LINE
  5
27D
100
AcDbEntity
  8
A_ACHSEN
100
AcDbLine
 62
8
  6
HIDDEN
 10
53.1911637905
 20
101.7584072759
 11
54.4411637905
 21
103.0084072759
  0
LWPOLYLINE
  5
27E
100
AcDbEntity
  8
A_RUNDUNGEN
100
AcDbPolyline
 62
8
  6
HIDDEN
 90
8
 70
0
 10
64.8510952747
 20
29.2618279052
 10
64.8956286967
 20
29.2734282294
 10
64.9402312246
 20
29.2947017088
 10
64.9818111244
 20
29.3261866541
 10
65.0170044622
 20
29.3671074579
 10
65.0433431904
 20
29.4164648282
 10
65.0584174356
 20
29.47285551
 10
65.0610165301
 20
29.5088224163
  0
LINE
  5
27F
100
AcDbEntity
  8
DEFAULT_2
100
AcDbLine
 62
8
  6
HIDDEN
 10
78.0610165302
 20
31.0501588689
 11
71.0610165302
 21
31.0501588689
  0
LINE
  5
280
100
AcDbEntity
  8
A_RUNDUNGEN
100
AcDbLine
 62
7
  6
CONTINUOUS
 10
78.0610165302
 20
31.0501588689
 11
69.0610165302
 21
31.0501588689
  0
LINE
  5
281
100
AcDbEntity
  8
A_ACHSEN
100
AcDbLine
 62
8
  6
HIDDEN
 10
66.5610165302
 20
31.0501588689
 11
60.0610165302
 21
31.0501588689
  0
LINE
  5
282
100
AcDbEntity
  8
A_RUNDUNGEN
100
AcDbLine
 62
8
  6
HIDDEN
 10
64.8110165302
 20
32.2584072759
 11
52.106690846
 21
32.2584072759
  0
LINE
  5
283
100
AcDbEntity
  8
DEFAULT_2
100
AcDbLine
 62
8
  6
HIDDEN
 10
78.0610165302
 20
33.6501588689
 11
71.0610165302
 21
33.6501588689
  0
LINE
  5
284
100
AcDbEntity
  8
A_FASEN
100
AcDbLine
 62
7
  6
CONTINUOUS
 10
69.1910165302
 20
33.6501588689
 11
148.1910165302
 21
33.6501588689
  0
LINE
  5
285
100
AcDbEntity
  8
DEFAULT_2
100
AcDbLine
 62
8
  6
HIDDEN
 10
65.2508871504
 20
34.0501588689
 11
66.5610165302
 21
34.0501588689
  0
LINE
  5
286
100
AcDbEntity
  8
DEFAULT_2
100
AcDbLine
 62
8
  6
HIDDEN
 10
65.1911637905
 20
34.2584072759
 11
28.1911637905
 21
34.2584072759
  0
LINE
  5
287
100
AcDbEntity
  8
A_RUNDUNGEN
100
AcDbLine
 62
8
  6
HIDDEN
 10
50.93083679
 20
34.2584072759
 11
57.1911637905
 21
34.2584072759
  0
LINE
  5
288
100
AcDbEntity
  8
A_RUNDUNGEN
100
AcDbLine
 62
8
  6
HIDDEN
 10
59.8610165302
 20
34.2584072759
 11
65.0610165302
 21
34.2584072759
  0
LINE
  5
289
100
AcDbEntity
  8
DEFAULT_2
100
AcDbLine
 62
8
  6
HIDDEN
 10
63.6911637905
 20
34.4084072759
 11
65.1911637905
 21
34.4084072759
  0
LINE
  5
28A
100
AcDbEntity
  8
A_ACHSEN
100
AcDbLine
 62
7
  6
CENTER
 10
59.3961365603
 20
34.5501589108
 11
66.7258961661
 21
34.5501589108
  0
LINE
  5
28B
100
AcDbEntity
  8
DEFAULT_2
100
AcDbLine
 62
8
  6
HIDDEN
 10
61.1069097807
 20
35.0501588689
 11
60.0610165302
 21
35.0501588689
  0
LINE
  5
28C
100
AcDbEntity
  8
DEFAULT_2
100
AcDbLine
 62
8
  6
HIDDEN
 10
64.6541079679
 20
35.2744237867
 11
61.4679250925
 21
35.2744237867
  0
LINE
  5
28D
100
AcDbEntity
  8
0
100
AcDbLine
 62
7
  6
CONTINUOUS
 10
68.3110165302
 20
35.4001588689
 11
68.6910165302
 21
35.4001588689
  0
LINE
  5
28E
100
AcDbEntity
  8
DEFAULT_2
100
AcDbLine
 62
8
  6
HIDDEN
 10
68.6910165302
 20
35.4001588689
 11
69.1110165302
 21
35.4001588689
  0
LINE
  5
28F
100
AcDbEntity
  8
DEFAULT_2
100
AcDbLine
 62
8
  6
HIDDEN
 10
62.9876362461
 20
36.0501588689
 11
66.5610165302
 21
36.0501588689
  0
LINE
  5
290
100
AcDbEntity
  8
DEFAULT_2
100
AcDbLine
 62
8
  6
HIDDEN
 10
29.1911637905
 20
36.2584072759
 11
29.3911637905
 21
36.2584072759
  0
LINE
  5
291
100
AcDbEntity
  8
A_RUNDUNGEN
100
AcDbLine
 62
8
  6
HIDDEN
 10
44.0911637905
 20
35.3851027774
 11
30.5885458086
 21
35.455802966
  0
LINE
  5
292
100
AcDbEntity
  8
A_RUNDUNGEN
100
AcDbLine
 62
8
  6
HIDDEN
 10
63.6911637905
 20
34.3084072759
 11
29.8558024384
 21
34.6036840011
  0
LINE
  5
293
100
AcDbEntity
  8
A_RUNDUNGEN
100
AcDbLine
 62
8
  6
HIDDEN
 10
63.6911637905
 20
36.1584072759
 11
58.7368006889
 21
36.2448860055
  0
LINE
  5
294
100
AcDbEntity
  8
A_FASEN
100
AcDbLine
 62
7
  6
CONTINUOUS
 10
68.6910165302
 20
34.1501588689
 11
69.1910165302
 21
33.6501588689
  0
LINE
  5
295
100
AcDbEntity
  8
A_RUNDUNGEN
100
AcDbLine
 62
7
  6
CONTINUOUS
 10
49.8610165302
 20
29.8408953709
 11
49.8610165302
 21
30.0084072759
  0
LINE
  5
296
100
AcDbEntity
  8
A_RUNDUNGEN
100
AcDbLine
 62
8
  6
HIDDEN
 10
40.8309933183
 20
38.2605759053
 11
43.8108199897
 21
52.9138424731
  0
LINE
  5
297
100
AcDbEntity
  8
A_RUNDUNGEN
100
AcDbLine
 62
8
  6
HIDDEN
 10
43.2301970968
 20
49.6908105658
 11
40.9702255757
 21
40.0426001909
  0
LINE
  5
298
100
AcDbEntity
  8
A_RUNDUNGEN
100
AcDbLine
 62
8
  6
HIDDEN
 10
39.9422748324
 20
55.2904202693
 11
35.0308437537
 21
39.7631554657
  0
LINE
  5
299
100
AcDbEntity
  8
A_ACHSEN
100
AcDbLine
 62
8
  6
HIDDEN
 10
53.1911637905
 20
90.7584072759
 11
54.4411637905
 21
92.0084072759
  0
LINE
  5
29A
100
AcDbEntity
  8
DEFAULT_2
100
AcDbLine
 62
8
  6
HIDDEN
 10
65.7110807082
 20
34.1005298271
 11
65.5269694035
 21
34.0501588689
  0
LINE
  5
29B
100
AcDbEntity
  8
A_RUNDUNGEN
100
AcDbLine
 62
8
  6
HIDDEN
 10
57.9824375873
 20
38.149527427
 11
55.7868006889
 21
38.1112024424
  0
LINE
  5
29C
100
AcDbEntity
  8
DEFAULT_2
100
AcDbLine
 62
8
  6
HIDDEN
 10
29.1911637905
 20
38.0784072759
 11
29.3911637905
 21
38.0784072759
  0
LINE
  5
29D
100
AcDbEntity
  8
DEFAULT_2
100
AcDbLine
 62
8
  6
HIDDEN
 10
59.8558922685
 20
38.1682679946
 11
59.6058922685
 21
38.1682679946
  0
LINE
  5
29E
100
AcDbEntity
  8
DEFAULT_2
100
AcDbLine
 62
8
  6
HIDDEN
 10
57.116140792
 20
38.1682679946
 11
56.866140792
 21
38.1682679946
  0
LINE
  5
29F
100
AcDbEntity
  8
DEFAULT_2
100
AcDbLine
 62
8
  6
HIDDEN
 10
57.1911637905
 20
38.2584072759
 11
53.1911637905
 21
38.2584072759
  0
LINE
  5
2A0
100
AcDbEntity
  8
DEFAULT_2
100
AcDbLine
 62
8
  6
HIDDEN
 10
29.1911637905
 20
38.6184072759
 11
29.3911637905
 21
38.6184072759
  0
LINE
  5
2A1
100
AcDbEntity
  8
A_ACHSEN
100
AcDbLine
 62
7
  6
CENTER
 10
35.8170897164
 20
38.8584072759
 11
39.9652378646
 21
38.8584072759
  0
LINE
  5
2A2
100
AcDbEntity
  8
DEFAULT_2
100
AcDbLine
 62
8
  6
HIDDEN
 10
29.1911637905
 20
38.8984072759
 11
29.3911637905
 21
38.8984072759
  0
LINE
  5
2A3
100
AcDbEntity
  8
A_ACHSEN
100
AcDbLine
 62
8
  6
HIDDEN
 10
53.1911637905
 20
38.9584072759
 11
57.1911637905
 21
38.9584072759
  0
LINE
  5
2A4
100
AcDbEntity
  8
DEFAULT_2
100
AcDbLine
 62
8
  6
HIDDEN
 10
66.5610165302
 20
39.0501588689
 11
64.7380675134
 21
39.0501588689
  0
LINE
  5
2A5
100
AcDbEntity
  8
DEFAULT_2
100
AcDbLine
 62
8
  6
HIDDEN
 10
61.3839655471
 20
39.0501588689
 11
60.0610165302
 21
39.0501588689
  0
LINE
  5
2A6
100
AcDbEntity
  8
DEFAULT_2
100
AcDbLine
 62
8
  6
HIDDEN
 10
53.1911637905
 20
39.1251576952
 11
57.1911637905
 21
39.1251576952
  0
LINE
  5
2A7
100
AcDbEntity
  8
A_ACHSEN
100
AcDbLine
 62
7
  6
CENTER
 10
39.4292532154
 20
39.3584072759
 11
48.3530743657
 21
39.3584072759
  0
LINE
  5
2A8
100
AcDbEntity
  8
DEFAULT_2
100
AcDbLine
 62
8
  6
HIDDEN
 10
29.1911637905
 20
39.4384072759
 11
29.3911637905
 21
39.4384072759
  0
LINE
  5
2A9
100
AcDbEntity
  8
A_ACHSEN
100
AcDbLine
 62
7
  6
CENTER
 10
59.1364034852
 20
39.550158865
 11
66.9856292893
 21
39.550158865
  0
LINE
  5
2AA
100
AcDbEntity
  8
A_RUNDUNGEN
100
AcDbLine
 62
8
  6
HIDDEN
 10
59.699815159
 20
40.3084072759
 11
57.2825124221
 21
40.3084072759
  0
LINE
  5
2AB
100
AcDbEntity
  8
DEFAULT_2
100
AcDbLine
 62
8
  6
HIDDEN
 10
29.1911637905
 20
41.2584072759
 11
29.3911637905
 21
41.2584072759
  0
LINE
  5
2AC
100
AcDbEntity
  8
DEFAULT_2
100
AcDbLine
 62
8
  6
HIDDEN
 10
56.0911637905
 20
41.5584072759
 11
44.367907818
 21
41.5584072759
  0
LINE
  5
2AD
100
AcDbEntity
  8
0
100
AcDbLine
 62
7
  6
CONTINUOUS
 10
68.6911637905
 20
41.6501588689
 11
74.6911637905
 21
41.6501588689
  0
LINE
  5
2AE
100
AcDbEntity
  8
A_FASEN
100
AcDbLine
 62
8
  6
HIDDEN
 10
69.1910165302
 20
41.6501588689
 11
74.6911637905
 21
41.6501588689
  0
LINE
  5
2AF
100
AcDbEntity
  8
A_FASEN
100
AcDbLine
 62
7
  6
CONTINUOUS
 10
74.6911637905
 20
41.6501588689
 11
148.1910165302
 21
41.6501588689
  0
LINE
  5
2B0
100
AcDbEntity
  8
A_RUNDUNGEN
100
AcDbLine
 62
8
  6
HIDDEN
 10
63.1937817724
 20
41.408385288
 11
44.5885458086
 21
41.505802966
  0
LINE
  5
2B1
100
AcDbEntity
  8
DEFAULT_2
100
AcDbLine
 62
8
  6
HIDDEN
 10
44.5885458086
 20
41.505802966
 11
56.0911637905
 21
41.4455748486
  0
LINE
  5
2B2
100
AcDbEntity
  8
A_RUNDUNGEN
100
AcDbLine
 62
7
  6
CONTINUOUS
 10
29.8394556107
 20
43.2357684267
 11
39.4673384131
 21
42.8995553507
  0
LINE
  5
2B3
100
AcDbEntity
  8
A_RUNDUNGEN
100
AcDbLine
 62
8
  6
HIDDEN
 10
63.6911637881
 20
44.9084072784
 11
62.3376103999
 21
46.2619606665
  0
LINE
  5
2B4
100
AcDbEntity
  8
A_FASEN
100
AcDbLine
 62
8
  6
HIDDEN
 10
65.1911637905
 20
44.3084072759
 11
64.1911637905
 21
45.3084072759
  0
LINE
  5
2B5
100
AcDbEntity
  8
DEFAULT_2
100
AcDbLine
 62
8
  6
HIDDEN
 10
57.5350070468
 20
36.9697321413
 11
57.116140792
 21
38.1682679946
  0
LINE
  5
2B6
100
AcDbEntity
  8
A_RUNDUNGEN
100
AcDbLine
 62
8
  6
HIDDEN
 10
52.8565766058
 20
32.5127703775
 11
52.8261064004
 21
34.2584072759
  0
LINE
  5
2B7
100
AcDbEntity
  8
DEFAULT_2
100
AcDbLine
 62
8
  6
HIDDEN
 10
50.6911637905
 20
34.2584072759
 11
50.6911637905
 21
30.2584072759
  0
LINE
  5
2B8
100
AcDbEntity
  8
DEFAULT_2
100
AcDbLine
 62
8
  6
HIDDEN
 10
53.1911637905
 20
42.7584072759
 11
53.1911637905
 21
34.2584072759
  0
LINE
  5
2B9
100
AcDbEntity
  8
A_RUNDUNGEN
100
AcDbLine
 62
8
  6
HIDDEN
 10
53.1911637905
 20
34.2584072759
 11
53.1911637905
 21
39.1251576952
  0
LINE
  5
2BA
100
AcDbEntity
  8
A_ACHSEN
100
AcDbLine
 62
8
  6
HIDDEN
 10
53.1911637905
 20
38.9584072759
 11
53.1911637905
 21
42.5584072759
  0
LINE
  5
2BB
100
AcDbEntity
  8
0
100
AcDbLine
 62
7
  6
CONTINUOUS
 10
53.1911637905
 20
42.7584072759
 11
53.1911637905
 21
119.7584072759
  0
LINE
  5
2BC
100
AcDbEntity
  8
A_ACHSEN
100
AcDbLine
 62
8
  6
HIDDEN
 10
53.1911637905
 20
53.9584072759
 11
53.1911637905
 21
57.5584072759
  0
LINE
  5
2BD
100
AcDbEntity
  8
A_ACHSEN
100
AcDbLine
 62
8
  6
HIDDEN
 10
53.1911637905
 20
69.7585435612
 11
53.1911637905
 21
116.7582709906
  0
LINE
  5
2BE
100
AcDbEntity
  8
A_RUNDUNGEN
100
AcDbLine
 62
8
  6
HIDDEN
 10
55.2911637905
 20
61.5321866139
 11
55.2911637905
 21
34.984627938
  0
LINE
  5
2BF
100
AcDbEntity
  8
A_RUNDUNGEN
100
AcDbLine
 62
8
  6
HIDDEN
 10
50.93083679
 20
34.2584072759
 11
50.8653041383
 21
30.5040441743
  0
LINE
  5
2C0
100
AcDbEntity
  8
A_RUNDUNGEN
100
AcDbLine
 62
8
  6
HIDDEN
 10
51.8567289222
 20
32.0127703775
 11
51.8129389435
 21
29.5040441743
  0
LINE
  5
2C1
100
AcDbEntity
  8
A_RUNDUNGEN
100
AcDbLine
 62
8
  6
HIDDEN
 10
46.8439068515
 20
38.8280221182
 11
48.3497587371
 21
47.2113519322
  0
LINE
  5
2C2
100
AcDbEntity
  8
A_RUNDUNGEN
100
AcDbLine
 62
7
  6
CONTINUOUS
 10
29.3360711027
 20
61.5535077541
 11
29.5752189023
 21
61.7947516713
  0
LINE
  5
2C3
100
AcDbEntity
  8
A_ACHSEN
100
AcDbLine
 62
8
  6
HIDDEN
 10
53.1911637905
 20
85.7584072759
 11
54.4411637905
 21
87.0084072759
  0
LINE
  5
2C4
100
AcDbEntity
  8
A_ACHSEN
100
AcDbLine
 62
8
  6
HIDDEN
 10
53.1911637905
 20
82.7584072759
 11
54.4411637905
 21
84.0084072759
  0
LINE
  5
2C5
100
AcDbEntity
  8
A_RUNDUNGEN
100
AcDbLine
 62
8
  6
HIDDEN
 10
63.6911637905
 20
45.3584072759
 11
58.7368006889
 21
45.2719285463
  0
LINE
  5
2C6
100
AcDbEntity
  8
0
100
AcDbLine
 62
7
  6
CONTINUOUS
 10
78.0610165302
 20
42.5501588689
 11
77.1523208781
 21
42.5501588689
  0
LINE
  5
2C7
100
AcDbEntity
  8
A_ACHSEN
100
AcDbLine
 62
8
  6
HIDDEN
 10
53.1911637905
 20
42.5584072759
 11
57.1911637905
 21
42.5584072759
  0
LINE
  5
2C8
100
AcDbEntity
  8
0
100
AcDbLine
 62
7
  6
CONTINUOUS
 10
69.1523181292
 20
42.6501588689
 11
74.2300094518
 21
42.6501588689
  0
LINE
  5
2C9
100
AcDbEntity
  8
0
100
AcDbLine
 62
7
  6
CONTINUOUS
 10
57.1911637905
 20
42.7584072759
 11
15.1911637905
 21
42.7584072759
  0
LINE
  5
2CA
100
AcDbEntity
  8
DEFAULT_2
100
AcDbLine
 62
8
  6
HIDDEN
 10
68.3110165302
 20
42.8501588689
 11
69.2337379928
 21
42.8501588689
  0
LINE
  5
2CB
100
AcDbEntity
  8
0
100
AcDbLine
 62
7
  6
CONTINUOUS
 10
69.2337379928
 20
42.8501588689
 11
74.4007411591
 21
42.8501588689
  0
LINE
  5
2CC
100
AcDbEntity
  8
DEFAULT_2
100
AcDbLine
 62
8
  6
HIDDEN
 10
74.4007411591
 20
42.8501588689
 11
75.7155540344
 21
42.8501588689
  0
LINE
  5
2CD
100
AcDbEntity
  8
0
100
AcDbLine
 62
7
  6
CONTINUOUS
 10
75.7155540344
 20
42.8501588689
 11
76.5610165302
 21
42.8501588689
  0
LINE
  5
2CE
100
AcDbEntity
  8
DEFAULT_2
100
AcDbLine
 62
8
  6
HIDDEN
 10
57.1911637905
 20
43.2584072759
 11
53.1911637905
 21
43.2584072759
  0
LINE
  5
2CF
100
AcDbEntity
  8
A_RUNDUNGEN
100
AcDbLine
 62
8
  6
HIDDEN
 10
75.4953860144
 20
43.6501588689
 11
75.0836679884
 21
43.6501588689
  0
LINE
  5
2D0
100
AcDbEntity
  8
A_RUNDUNGEN
100
AcDbLine
 62
7
  6
CONTINUOUS
 10
75.0836679884
 20
43.6501588689
 11
69.0574356913
 21
43.6501588689
  0
LINE
  5
2D1
100
AcDbEntity
  8
DEFAULT_2
100
AcDbLine
 62
8
  6
HIDDEN
 10
69.1110165302
 20
43.6501588689
 11
76.5610165302
 21
43.6501588689
  0
LINE
  5
2D2
100
AcDbEntity
  8
DEFAULT_2
100
AcDbLine
 62
8
  6
HIDDEN
 10
66.5610165302
 20
44.0501588689
 11
60.0610165302
 21
44.0501588689
  0
LINE
  5
2D3
100
AcDbEntity
  8
A_FASEN
100
AcDbLine
 62
8
  6
HIDDEN
 10
63.6911637905
 20
45.3084072759
 11
64.1911637905
 21
45.3084072759
  0
LINE
  5
2D4
100
AcDbEntity
  8
DEFAULT_2
100
AcDbLine
 62
8
  6
HIDDEN
 10
43.7661637905
 20
45.7584072759
 11
29.1911637905
 21
45.7584072759
  0
LINE
  5
2D5
100
AcDbEntity
  8
A_RUNDUNGEN
100
AcDbLine
 62
8
  6
HIDDEN
 10
43.5911637905
 20
45.9334072759
 11
29.8982705717
 21
45.9334072759
  0
LINE
  5
2D6
100
AcDbEntity
  8
DEFAULT_2
100
AcDbLine
 62
8
  6
HIDDEN
 10
62.3411637905
 20
46.2584072759
 11
57.2911637905
 21
46.2584072759
  0
LINE
  5
2D7
100
AcDbEntity
  8
A_RUNDUNGEN
100
AcDbLine
 62
8
  6
HIDDEN
 10
61.9840570093
 20
46.4084072759
 11
57.7911637905
 21
46.4084072759
  0
LINE
  5
2D8
100
AcDbEntity
  8
A_ACHSEN
100
AcDbLine
 62
8
  6
HIDDEN
 10
73.5610165302
 20
46.8501588689
 11
68.5610165302
 21
46.8501588689
  0
LINE
  5
2D9
100
AcDbEntity
  8
DEFAULT_2
100
AcDbLine
 62
8
  6
HIDDEN
 10
74.0610165302
 20
46.8501588689
 11
68.0610165302
 21
46.8501588689
  0
LINE
  5
2DA
100
AcDbEntity
  8
A_RUNDUNGEN
100
AcDbLine
 62
7
  6
CONTINUOUS
 10
68.0610165302
 20
46.8501588689
 11
73.6385012497
 21
46.8501588689
  0
LINE
  5
2DB
100
AcDbEntity
  8
A_ACHSEN
100
AcDbLine
 62
8
  6
HIDDEN
 10
69.0610165302
 20
47.0501588689
 11
73.0610165302
 21
47.0501588689
  0
LINE
  5
2DC
100
AcDbEntity
  8
A_RUNDUNGEN
100
AcDbLine
 62
8
  6
HIDDEN
 10
57.9824375873
 20
43.3672871248
 11
55.7868006889
 21
43.4056121094
  0
LINE
  5
2DD
100
AcDbEntity
  8
A_RUNDUNGEN
100
AcDbLine
 62
8
  6
HIDDEN
 10
46.2147118059
 20
54.465380313
 11
53.6579465565
 21
52.770672189
  0
LINE
  5
2DE
100
AcDbEntity
  8
A_RUNDUNGEN
100
AcDbLine
 62
8
  6
HIDDEN
 10
52.0882171949
 20
49.5762476443
 11
58.385634779
 21
47.8672673491
  0
LINE
  5
2DF
100
AcDbEntity
  8
A_RUNDUNGEN
100
AcDbLine
 62
8
  6
HIDDEN
 10
60.1858060198
 20
51.5234161703
 11
50.64350432
 21
54.1129864755
  0
LINE
  5
2E0
100
AcDbEntity
  8
A_ACHSEN
100
AcDbLine
 62
8
  6
HIDDEN
 10
68.0610165302
 20
48.0501588689
 11
69.0610165302
 21
47.0501588689
  0
LINE
  5
2E1
100
AcDbEntity
  8
0
100
AcDbLine
 62
7
  6
CONTINUOUS
 10
65.1911637905
 20
45.7501588689
 11
68.6911637905
 21
41.6501588689
  0
LINE
  5
2E2
100
AcDbEntity
  8
0
100
AcDbLine
 62
7
  6
CONTINUOUS
 10
66.1911637905
 20
46.1189396657
 11
69.1523181292
 21
42.6501588689
  0
LINE
  5
2E3
100
AcDbEntity
  8
A_RUNDUNGEN
100
AcDbLine
 62
7
  6
CONTINUOUS
 10
68.811690078
 20
43.778085938
 11
68.241864486
 21
44.5918812214
  0
LINE
  5
2E4
100
AcDbEntity
  8
A_RUNDUNGEN
100
AcDbLine
 62
7
  6
CONTINUOUS
 10
69.2337379928
 20
42.8643717665
 11
68.0968354899
 21
44.4986691144
  0
LINE
  5
2E5
100
AcDbEntity
  8
A_RUNDUNGEN
100
AcDbLine
 62
8
  6
HIDDEN
 10
65.8237894068
 20
40.7193830702
 11
61.5516550511
 21
50.8140573685
  0
LINE
  5
2E6
100
AcDbEntity
  8
A_RUNDUNGEN
100
AcDbLine
 62
8
  6
HIDDEN
 10
57.378168847
 20
49.1872703861
 11
60.1628748163
 21
38.7750618163
  0
LINE
  5
2E7
100
AcDbEntity
  8
DEFAULT_2
100
AcDbLine
 62
8
  6
HIDDEN
 10
59.8253767948
 20
36.3002063495
 11
59.8610165302
 21
34.2584072759
  0
LINE
  5
2E8
100
AcDbEntity
  8
A_RUNDUNGEN
100
AcDbLine
 62
8
  6
HIDDEN
 10
60.2953769065
 20
34.3380418591
 11
60.1997390065
 21
39.8171334791
  0
LINE
  5
2E9
100
AcDbEntity
  8
A_RUNDUNGEN
100
AcDbLine
 62
8
  6
HIDDEN
 10
55.5411637905
 20
59.1084072759
 11
55.5411637905
 21
52.4084072759
  0
LINE
  5
2EA
100
AcDbEntity
  8
A_RUNDUNGEN
100
AcDbLine
 62
8
  6
HIDDEN
 10
55.5411637905
 20
44.1084072759
 11
55.5411637905
 21
37.4084072759
  0
LINE
  5
2EB
100
AcDbEntity
  8
DEFAULT_2
100
AcDbLine
 62
8
  6
HIDDEN
 10
56.0911637905
 20
41.4455748486
 11
56.0911637905
 21
41.5584072759
  0
LINE
  5
2EC
100
AcDbEntity
  8
DEFAULT_2
100
AcDbLine
 62
8
  6
HIDDEN
 10
56.0911637905
 20
54.9584072759
 11
56.0911637905
 21
55.0712397032
  0
LINE
  5
2ED
100
AcDbEntity
  8
A_ACHSEN
100
AcDbLine
 62
8
  6
HIDDEN
 10
57.1911637905
 20
103.9082941591
 11
57.1911637905
 21
70.6085203927
  0
LINE
  5
2EE
100
AcDbEntity
  8
0
100
AcDbLine
 62
7
  6
CONTINUOUS
 10
57.1911637905
 20
120.2584072759
 11
57.1911637905
 21
42.7584072759
  0
LINE
  5
2EF
100
AcDbEntity
  8
DEFAULT_2
100
AcDbLine
 62
8
  6
HIDDEN
 10
57.1911637905
 20
42.7586159135
 11
57.1911637905
 21
34.2584072759
  0
LINE
  5
2F0
100
AcDbEntity
  8
A_RUNDUNGEN
100
AcDbLine
 62
8
  6
HIDDEN
 10
57.1911637905
 20
34.2584072759
 11
57.1911637905
 21
39.1251576952
  0
LINE
  5
2F1
100
AcDbEntity
  8
A_ACHSEN
100
AcDbLine
 62
8
  6
HIDDEN
 10
57.1911637905
 20
38.9584072759
 11
57.1911637905
 21
42.5584072759
  0
LINE
  5
2F2
100
AcDbEntity
  8
A_ACHSEN
100
AcDbLine
 62
8
  6
HIDDEN
 10
57.1911637905
 20
53.9584072759
 11
57.1911637905
 21
57.5584072759
  0
LINE
  5
2F3
100
AcDbEntity
  8
A_RUNDUNGEN
100
AcDbLine
 62
8
  6
HIDDEN
 10
57.2911637905
 20
50.6252643619
 11
57.2911637905
 21
45.89155019
  0
LINE
  5
2F4
100
AcDbEntity
  8
DEFAULT_2
100
AcDbLine
 62
8
  6
HIDDEN
 10
57.2911637905
 20
50.2584072759
 11
57.2911637905
 21
46.2584072759
  0
LINE
  5
2F5
100
AcDbEntity
  8
A_RUNDUNGEN
100
AcDbLine
 62
8
  6
HIDDEN
 10
57.6911637905
 20
62.1560460692
 11
57.6911637905
 21
54.4802361102
  0
LINE
  5
2F6
100
AcDbEntity
  8
A_RUNDUNGEN
100
AcDbLine
 62
8
  6
HIDDEN
 10
58.4911637905
 20
60.0219666225
 11
58.4911637905
 21
51.4948479293
  0
LINE
  5
2F7
100
AcDbEntity
  8
A_RUNDUNGEN
100
AcDbLine
 62
8
  6
HIDDEN
 10
58.4911637905
 20
45.0219666225
 11
58.4911637905
 21
36.4948479293
  0
LINE
  5
2F8
100
AcDbEntity
  8
DEFAULT_2
100
AcDbLine
 62
8
  6
HIDDEN
 10
60.0610165302
 20
55.0501588689
 11
60.0610165302
 21
29.0501588689
  0
LINE
  5
2F9
100
AcDbEntity
  8
A_ACHSEN
100
AcDbLine
 62
8
  6
HIDDEN
 10
60.0610165302
 20
31.0501588689
 11
60.0610165302
 21
29.0505294984
  0
LINE
  5
2FA
100
AcDbEntity
  8
A_RUNDUNGEN
100
AcDbLine
 62
7
  6
CONTINUOUS
 10
60.0610165302
 20
29.2584072759
 11
60.0610165302
 21
29.0501588689
  0
LINE
  5
2FB
100
AcDbEntity
  8
A_ACHSEN
100
AcDbLine
 62
8
  6
HIDDEN
 10
60.0610165302
 20
31.0962773641
 11
60.0610165302
 21
34.4940475631
  0
LINE
  5
2FC
100
AcDbEntity
  8
A_RUNDUNGEN
100
AcDbLine
 62
8
  6
HIDDEN
 10
60.0610165302
 20
29.2584072759
 11
60.0610165302
 21
55.0501588689
  0
LINE
  5
2FD
100
AcDbEntity
  8
A_RUNDUNGEN
100
AcDbLine
 62
8
  6
HIDDEN
 10
56.6875002553
 20
34.3695273216
 11
56.7825885745
 21
39.8171334791
  0
LINE
  5
2FE
100
AcDbEntity
  8
DEFAULT_2
100
AcDbLine
 62
8
  6
HIDDEN
 10
56.8610165302
 20
34.2584072759
 11
56.8966562656
 21
36.3002063495
  0
LINE
  5
2FF
100
AcDbEntity
  8
A_RUNDUNGEN
100
AcDbLine
 62
7
  6
CONTINUOUS
 10
29.3314938904
 20
52.9166468558
 11
29.607750366
 21
53.2027188107
  0
LINE
  5
300
100
AcDbEntity
  8
A_ACHSEN
100
AcDbLine
 62
8
  6
HIDDEN
 10
53.1911637905
 20
74.7584072759
 11
54.4411637905
 21
76.0084072759
  0
LINE
  5
301
100
AcDbEntity
  8
DEFAULT_2
100
AcDbLine
 62
8
  6
HIDDEN
 10
55.0508249514
 20
88.3384330443
 11
55.1024593349
 21
88.3568680212
  0
LINE
  5
302
100
AcDbEntity
  8
A_RUNDUNGEN
100
AcDbLine
 62
8
  6
HIDDEN
 10
56.8347416619
 20
45.3934528409
 11
55.7475859191
 21
45.298339038
  0
LINE
  5
303
100
AcDbEntity
  8
DEFAULT_2
100
AcDbLine
 62
8
  6
HIDDEN
 10
73.3610165302
 20
47.3501588689
 11
68.7610165302
 21
47.3501588689
  0
LINE
  5
304
100
AcDbEntity
  8
0
100
AcDbLine
 62
7
  6
CONTINUOUS
 10
77.1911637905
 20
47.7501588689
 11
66.1911637905
 21
47.7501588689
  0
LINE
  5
305
100
AcDbEntity
  8
A_ACHSEN
100
AcDbLine
 62
8
  6
HIDDEN
 10
74.0610165302
 20
48.0501588689
 11
68.0610165302
 21
48.0501588689
  0
LINE
  5
306
100
AcDbEntity
  8
0
100
AcDbLine
 62
7
  6
CONTINUOUS
 10
78.1911637905
 20
48.7501588689
 11
65.1911637905
 21
48.7501588689
  0
LINE
  5
307
100
AcDbEntity
  8
0
100
AcDbLine
 62
7
  6
CONTINUOUS
 10
65.1911637905
 20
48.7584072759
 11
78.1911637905
 21
48.7584072759
  0
LINE
  5
308
100
AcDbEntity
  8
A_RUNDUNGEN
100
AcDbLine
 62
8
  6
HIDDEN
 10
61.9840570093
 20
50.1084072759
 11
57.7911637905
 21
50.1084072759
  0
LINE
  5
309
100
AcDbEntity
  8
DEFAULT_2
100
AcDbLine
 62
8
  6
HIDDEN
 10
62.3411637905
 20
50.2584072759
 11
57.2911637905
 21
50.2584072759
  0
LINE
  5
30A
100
AcDbEntity
  8
A_RUNDUNGEN
100
AcDbLine
 62
8
  6
HIDDEN
 10
43.5911637905
 20
50.5834072759
 11
29.8982705717
 21
50.5834072759
  0
LINE
  5
30B
100
AcDbEntity
  8
DEFAULT_2
100
AcDbLine
 62
8
  6
HIDDEN
 10
43.7661637905
 20
50.7584072759
 11
29.1911637905
 21
50.7584072759
  0
LINE
  5
30C
100
AcDbEntity
  8
0
100
AcDbLine
 62
7
  6
CONTINUOUS
 10
53.1911637905
 20
50.7584072759
 11
57.1911637905
 21
50.7584072759
  0
LINE
  5
30D
100
AcDbEntity
  8
A_FASEN
100
AcDbLine
 62
8
  6
HIDDEN
 10
63.6911637905
 20
51.3084072759
 11
64.1911637905
 21
51.3084072759
  0
LINE
  5
30E
100
AcDbEntity
  8
A_RUNDUNGEN
100
AcDbLine
 62
8
  6
HIDDEN
 10
63.6911637905
 20
51.1584072759
 11
58.7368006889
 21
51.2448860055
  0
LINE
  5
30F
100
AcDbEntity
  8
A_RUNDUNGEN
100
AcDbLine
 62
8
  6
HIDDEN
 10
56.8347416619
 20
51.1233617109
 11
55.7475859191
 21
51.2184755139
  0
LINE
  5
310
100
AcDbEntity
  8
A_RUNDUNGEN
100
AcDbLine
 62
8
  6
HIDDEN
 10
54.5624389746
 20
56.6671037856
 11
45.8194885549
 21
58.657736837
  0
LINE
  5
311
100
AcDbEntity
  8
A_FLAECHEN
100
AcDbLine
 62
8
  6
HIDDEN
 10
71.0610165302
 20
51.117146167
 11
69.5610165302
 21
51.9831715708
  0
LINE
  5
312
100
AcDbEntity
  8
DEFAULT_2
100
AcDbLine
 62
8
  6
HIDDEN
 10
69.5610165302
 20
54.9015724003
 11
69.3289657227
 21
55.0501588689
  0
LINE
  5
313
100
AcDbEntity
  8
A_RUNDUNGEN
100
AcDbLine
 62
7
  6
CONTINUOUS
 10
74.129601524
 20
46.4237353052
 11
75.6264595833
 21
44.2860004515
  0
LINE
  5
314
100
AcDbEntity
  8
A_RUNDUNGEN
100
AcDbLine
 62
8
  6
HIDDEN
 10
75.6264595833
 20
44.2860004515
 11
75.7411316277
 21
44.1222317998
  0
LINE
  5
315
100
AcDbEntity
  8
A_RUNDUNGEN
100
AcDbLine
 62
7
  6
CONTINUOUS
 10
74.4594064515
 20
46.4212233571
 11
75.8018511343
 21
44.4914591255
  0
LINE
  5
316
100
AcDbEntity
  8
A_RUNDUNGEN
100
AcDbLine
 62
8
  6
HIDDEN
 10
75.8018511343
 20
44.4914591255
 11
76.3922120147
 21
43.64281536
  0
LINE
  5
317
100
AcDbEntity
  8
A_RUNDUNGEN
100
AcDbLine
 62
7
  6
CONTINUOUS
 10
76.3922120147
 20
43.64281536
 11
77.1523208781
 21
42.5501588689
  0
LINE
  5
318
100
AcDbEntity
  8
DEFAULT_2
100
AcDbLine
 62
8
  6
HIDDEN
 10
62.0911637905
 20
60.2584072759
 11
62.0911637905
 21
56.5584072759
  0
LINE
  5
319
100
AcDbEntity
  8
A_ACHSEN
100
AcDbLine
 62
8
  6
HIDDEN
 10
62.0911637905
 20
61.0580718542
 11
62.0911637905
 21
55.7587426976
  0
LINE
  5
31A
100
AcDbEntity
  8
DEFAULT_2
100
AcDbLine
 62
8
  6
HIDDEN
 10
62.0911637905
 20
56.4084072759
 11
62.0911637905
 21
56.5584072759
  0
LINE
  5
31B
100
AcDbEntity
  8
DEFAULT_2
100
AcDbLine
 62
8
  6
HIDDEN
 10
62.0911637905
 20
60.2584072759
 11
62.0911637905
 21
60.4084072759
  0
LINE
  5
31C
100
AcDbEntity
  8
DEFAULT_2
100
AcDbLine
 62
8
  6
HIDDEN
 10
62.3411637905
 20
50.2584072759
 11
62.3411637905
 21
46.2584072759
  0
LINE
  5
31D
100
AcDbEntity
  8
A_ACHSEN
100
AcDbLine
 62
7
  6
CENTER
 10
63.0610163632
 20
30.8852791079
 11
63.0610163872
 21
43.474771767
  0
LINE
  5
31E
100
AcDbEntity
  8
A_RUNDUNGEN
100
AcDbLine
 62
8
  6
HIDDEN
 10
63.6911637905
 20
62.2084072759
 11
63.6911637905
 21
49.9354844289
  0
LINE
  5
31F
100
AcDbEntity
  8
DEFAULT_2
100
AcDbLine
 62
8
  6
HIDDEN
 10
63.6911637905
 20
62.2084072759
 11
63.6911637905
 21
34.4084072759
  0
LINE
  5
320
100
AcDbEntity
  8
A_FASEN
100
AcDbLine
 62
8
  6
HIDDEN
 10
63.6911637905
 20
51.6084072759
 11
63.6911637905
 21
44.9084072759
  0
LINE
  5
321
100
AcDbEntity
  8
A_RUNDUNGEN
100
AcDbLine
 62
8
  6
HIDDEN
 10
63.6911637905
 20
46.5813301229
 11
63.6911637905
 21
34.3084072759
  0
LINE
  5
322
100
AcDbEntity
  8
DEFAULT_2
100
AcDbLine
 62
8
  6
HIDDEN
 10
63.6911637905
 20
34.3084072759
 11
63.6911637905
 21
34.4084072759
  0
LINE
  5
323
100
AcDbEntity
  8
A_FASEN
100
AcDbLine
 62
8
  6
HIDDEN
 10
64.1911637905
 20
51.3084072759
 11
64.1911637905
 21
45.3084072759
  0
LINE
  5
324
100
AcDbEntity
  8
A_RUNDUNGEN
100
AcDbLine
 62
7
  6
CONTINUOUS
 10
65.0610165302
 20
29.508822651
 11
65.0610165302
 21
30.2584072759
  0
LINE
  5
325
100
AcDbEntity
  8
A_RUNDUNGEN
100
AcDbLine
 62
8
  6
HIDDEN
 10
65.0610165302
 20
30.2584072759
 11
65.0610165302
 21
34.2584072759
  0
LINE
  5
326
100
AcDbEntity
  8
A_FASEN
100
AcDbLine
 62
8
  6
HIDDEN
 10
65.1911637905
 20
52.3084072759
 11
65.1911637905
 21
44.3084072759
  0
LINE
  5
327
100
AcDbEntity
  8
0
100
AcDbLine
 62
7
  6
CONTINUOUS
 10
65.1911637905
 20
30.2584072759
 11
65.1911637905
 21
48.7584072759
  0
LINE
  5
328
100
AcDbEntity
  8
DEFAULT_2
100
AcDbLine
 62
8
  6
HIDDEN
 10
65.1911637905
 20
48.7584072759
 11
65.1911637905
 21
62.2084072759
  0
LINE
  5
329
100
AcDbEntity
  8
0
100
AcDbLine
 62
7
  6
CONTINUOUS
 10
66.1911637905
 20
47.7501588689
 11
66.1911637905
 21
46.1189396657
  0
LINE
  5
32A
100
AcDbEntity
  8
A_RUNDUNGEN
100
AcDbLine
 62
8
  6
HIDDEN
 10
66.0610010385
 20
34.540569947
 11
66.0905240959
 21
43.7770966139
  0
LWPOLYLINE
  5
32B
100
AcDbEntity
  8
A_RUNDUNGEN
100
AcDbPolyline
 62
8
  6
HIDDEN
 90
3
 70
0
 10
65.0610117812
 20
32.5081003717
 10
65.0610010933
 20
32.5058388014
 10
65.0603951748
 20
32.4906726409
  0
LINE
  5
32C
100
AcDbEntity
  8
A_RUNDUNGEN
100
AcDbLine
 62
8
  6
HIDDEN
 10
65.0605198933
 20
32.4926569793
 11
65.0610165302
 21
32.5084072759
  0
LINE
  5
32D
100
AcDbEntity
  8
A_ACHSEN
100
AcDbLine
 62
8
  6
HIDDEN
 10
53.1911637905
 20
69.7584072759
 11
54.4411637905
 21
71.0084072759
  0
LINE
  5
32E
100
AcDbEntity
  8
A_RUNDUNGEN
100
AcDbLine
 62
8
  6
HIDDEN
 10
29.3376103999
 20
45.5798538853
 11
29.5447171811
 21
45.7869606665
  0
LINE
  5
32F
100
AcDbEntity
  8
A_RUNDUNGEN
100
AcDbLine
 62
7
  6
CONTINUOUS
 10
29.8394556107
 20
53.2810461251
 11
39.4673384131
 21
53.6172592012
  0
LINE
  5
330
100
AcDbEntity
  8
A_RUNDUNGEN
100
AcDbLine
 62
8
  6
HIDDEN
 10
57.9824375873
 20
53.149527427
 11
55.7868006889
 21
53.1112024424
  0
LINE
  5
331
100
AcDbEntity
  8
A_RUNDUNGEN
100
AcDbLine
 62
8
  6
HIDDEN
 10
63.1937817724
 20
55.1084292638
 11
44.5885458086
 21
55.0110115859
  0
LINE
  5
332
100
AcDbEntity
  8
DEFAULT_2
100
AcDbLine
 62
8
  6
HIDDEN
 10
44.5885458086
 20
55.0110115859
 11
56.0911637905
 21
55.0712397032
  0
LINE
  5
333
100
AcDbEntity
  8
DEFAULT_2
100
AcDbLine
 62
8
  6
HIDDEN
 10
57.1911637905
 20
53.2584072759
 11
53.1911637905
 21
53.2584072759
  0
LINE
  5
334
100
AcDbEntity
  8
A_ACHSEN
100
AcDbLine
 62
8
  6
HIDDEN
 10
53.1911637905
 20
53.9584072759
 11
57.1911637905
 21
53.9584072759
  0
LINE
  5
335
100
AcDbEntity
  8
0
100
AcDbLine
 62
7
  6
CONTINUOUS
 10
53.1911637905
 20
54.2584072759
 11
57.1911637905
 21
54.2584072759
  0
LINE
  5
336
100
AcDbEntity
  8
A_ACHSEN
100
AcDbLine
 62
8
  6
HIDDEN
 10
74.0610165302
 20
54.5501588689
 11
68.0610165302
 21
54.5501588689
  0
LINE
  5
337
100
AcDbEntity
  8
DEFAULT_2
100
AcDbLine
 62
8
  6
HIDDEN
 10
44.367907818
 20
54.9584072759
 11
56.0911637905
 21
54.9584072759
  0
LINE
  5
338
100
AcDbEntity
  8
A_ACHSEN
100
AcDbLine
 62
8
  6
HIDDEN
 10
73.5610165302
 20
55.0501588689
 11
68.5610165302
 21
55.0501588689
  0
LINE
  5
339
100
AcDbEntity
  8
A_RUNDUNGEN
100
AcDbLine
 62
8
  6
HIDDEN
 10
74.0610165302
 20
55.0501588689
 11
60.0610165302
 21
55.0501588689
  0
LINE
  5
33A
100
AcDbEntity
  8
A_ACHSEN
100
AcDbLine
 62
8
  6
HIDDEN
 10
66.5610165302
 20
55.0501588689
 11
60.0610165302
 21
55.0501588689
  0
LINE
  5
33B
100
AcDbEntity
  8
DEFAULT_2
100
AcDbLine
 62
8
  6
HIDDEN
 10
60.0610165302
 20
55.0501588689
 11
74.5610165302
 21
55.0501588689
  0
LINE
  5
33C
100
AcDbEntity
  8
DEFAULT_2
100
AcDbLine
 62
8
  6
HIDDEN
 10
66.5610165302
 20
55.1501588689
 11
74.5610165302
 21
55.1501588689
  0
LINE
  5
33D
100
AcDbEntity
  8
A_ACHSEN
100
AcDbLine
 62
8
  6
HIDDEN
 10
63.1911637905
 20
55.7584072759
 11
62.0911637905
 21
55.7584072759
  0
LINE
  5
33E
100
AcDbEntity
  8
DEFAULT_2
100
AcDbLine
 62
8
  6
HIDDEN
 10
65.1911637905
 20
56.4084072759
 11
62.0911637905
 21
56.4084072759
  0
LINE
  5
33F
100
AcDbEntity
  8
DEFAULT_2
100
AcDbLine
 62
8
  6
HIDDEN
 10
65.1911637905
 20
56.5584072759
 11
62.0911637905
 21
56.5584072759
  0
LINE
  5
340
100
AcDbEntity
  8
A_ACHSEN
100
AcDbLine
 62
8
  6
HIDDEN
 10
53.1911637905
 20
57.5584072759
 11
57.1911637905
 21
57.5584072759
  0
LINE
  5
341
100
AcDbEntity
  8
A_RUNDUNGEN
100
AcDbLine
 62
8
  6
HIDDEN
 10
57.9824375873
 20
58.3672871248
 11
55.7868006889
 21
58.4056121094
  0
LINE
  5
342
100
AcDbEntity
  8
A_ACHSEN
100
AcDbLine
 62
8
  6
HIDDEN
 10
73.5610165302
 20
55.0501588689
 11
74.0610165302
 21
54.5501588689
  0
LINE
  5
343
100
AcDbEntity
  8
A_ACHSEN
100
AcDbLine
 62
8
  6
HIDDEN
 10
53.1911637905
 20
79.7584072759
 11
54.4411637905
 21
78.5084072759
  0
LINE
  5
344
100
AcDbEntity
  8
A_ACHSEN
100
AcDbLine
 62
8
  6
HIDDEN
 10
66.5610165302
 20
29.0526573064
 11
66.5610165302
 21
31.0501588689
  0
LINE
  5
345
100
AcDbEntity
  8
DEFAULT_2
100
AcDbLine
 62
8
  6
HIDDEN
 10
66.5610165302
 20
29.0501588689
 11
66.5610165302
 21
55.1501588689
  0
LINE
  5
346
100
AcDbEntity
  8
A_ACHSEN
100
AcDbLine
 62
8
  6
HIDDEN
 10
68.0610165302
 20
54.5501588689
 11
68.0610165302
 21
48.0501588689
  0
LINE
  5
347
100
AcDbEntity
  8
DEFAULT_2
100
AcDbLine
 62
8
  6
HIDDEN
 10
68.0610165302
 20
55.0501588689
 11
68.0610165302
 21
46.8501588689
  0
LINE
  5
348
100
AcDbEntity
  8
A_RUNDUNGEN
100
AcDbLine
 62
7
  6
CONTINUOUS
 10
68.0610165302
 20
41.5501588689
 11
68.0610165302
 21
32.0501588689
  0
LINE
  5
349
100
AcDbEntity
  8
A_RUNDUNGEN
100
AcDbLine
 62
7
  6
CONTINUOUS
 10
68.0610165302
 20
44.612882012
 11
68.0610165302
 21
46.8501588689
  0
LINE
  5
34A
100
AcDbEntity
  8
DEFAULT_2
100
AcDbLine
 62
8
  6
HIDDEN
 10
68.3110165302
 20
42.8501588689
 11
68.3110165302
 21
42.0954742309
  0
LINE
  5
34B
100
AcDbEntity
  8
0
100
AcDbLine
 62
7
  6
CONTINUOUS
 10
68.3110165302
 20
42.0954742309
 11
68.3110165302
 21
35.4001588689
  0
LINE
  5
34C
100
AcDbEntity
  8
A_ACHSEN
100
AcDbLine
 62
8
  6
HIDDEN
 10
68.5610165302
 20
55.0501588689
 11
68.5610165302
 21
46.8501588689
  0
LINE
  5
34D
100
AcDbEntity
  8
A_FASEN
100
AcDbLine
 62
7
  6
CONTINUOUS
 10
68.6910165302
 20
34.1501588689
 11
68.6910165302
 21
41.1501588689
  0
LINE
  5
34E
100
AcDbEntity
  8
DEFAULT_2
100
AcDbLine
 62
8
  6
HIDDEN
 10
68.7610165302
 20
55.0501588689
 11
68.7610165302
 21
47.3501588689
  0
LINE
  5
34F
100
AcDbEntity
  8
DEFAULT_2
100
AcDbLine
 62
8
  6
HIDDEN
 10
69.1110165302
 20
35.4001588689
 11
69.1110165302
 21
41.5701588689
  0
LINE
  5
350
100
AcDbEntity
  8
0
100
AcDbLine
 62
7
  6
CONTINUOUS
 10
69.1110165302
 20
41.5701588689
 11
69.1110165302
 21
41.6501588689
  0
LINE
  5
351
100
AcDbEntity
  8
DEFAULT_2
100
AcDbLine
 62
8
  6
HIDDEN
 10
69.1110165302
 20
41.6501588689
 11
69.1110165302
 21
43.0407838689
  0
LINE
  5
352
100
AcDbEntity
  8
0
100
AcDbLine
 62
7
  6
CONTINUOUS
 10
69.1110165302
 20
43.0407838689
 11
69.1110165302
 21
43.6501588689
  0
LINE
  5
353
100
AcDbEntity
  8
DEFAULT_2
100
AcDbLine
 62
8
  6
HIDDEN
 10
69.5610165302
 20
51.9835063372
 11
69.5610165302
 21
55.0501588689
  0
LINE
  5
354
100
AcDbEntity
  8
DEFAULT_2
100
AcDbLine
 62
8
  6
HIDDEN
 10
71.0610165302
 20
55.0501588689
 11
71.0610165302
 21
52.117146167
  0
LINE
  5
355
100
AcDbEntity
  8
0
100
AcDbLine
 62
7
  6
CONTINUOUS
 10
71.0610165302
 20
33.6501588689
 11
71.0610165302
 21
31.0501588689
  0
LINE
  5
356
100
AcDbEntity
  8
A_ACHSEN
100
AcDbLine
 62
7
  6
CENTER
 10
71.0610165302
 20
44.0501588689
 11
71.0610165302
 21
58.0501588689
  0
LINE
  5
357
100
AcDbEntity
  8
A_RUNDUNGEN
100
AcDbLine
 62
8
  6
HIDDEN
 10
65.0610165302
 20
32.5084072759
 11
65.0572345362
 21
32.4650864549
  0
LWPOLYLINE
  5
358
100
AcDbEntity
  8
A_RUNDUNGEN
100
AcDbPolyline
 62
8
  6
HIDDEN
 90
3
 70
0
 10
65.0572402663
 20
32.4650852698
 10
65.0596932655
 20
32.4826000367
 10
65.0610306738
 20
32.5084401792
  0
LINE
  5
359
100
AcDbEntity
  8
A_RUNDUNGEN
100
AcDbLine
 62
8
  6
HIDDEN
 10
61.9015772342
 20
41.7322735714
 11
60.1657354934
 21
35.3358743075
  0
LINE
  5
35A
100
AcDbEntity
  8
A_RUNDUNGEN
100
AcDbLine
 62
8
  6
HIDDEN
 10
55.718691096
 20
62.0663761457
 11
55.3636174466
 21
61.708190295
  0
LINE
  5
35B
100
AcDbEntity
  8
A_FASEN
100
AcDbLine
 62
8
  6
HIDDEN
 10
44.0911637786
 20
51.083407264
 11
43.5911637807
 21
50.5834072661
  0
LINE
  5
35C
100
AcDbEntity
  8
A_RUNDUNGEN
100
AcDbLine
 62
8
  6
HIDDEN
 10
63.6911637905
 20
60.3584072759
 11
58.7368006889
 21
60.2719285463
  0
LINE
  5
35D
100
AcDbEntity
  8
A_RUNDUNGEN
100
AcDbLine
 62
8
  6
HIDDEN
 10
63.6911637905
 20
62.2084072759
 11
53.1911637905
 21
62.1167751641
  0
LINE
  5
35E
100
AcDbEntity
  8
A_RUNDUNGEN
100
AcDbLine
 62
7
  6
CONTINUOUS
 10
29.8558024384
 20
61.9131305507
 11
53.1911637905
 21
62.1167751641
  0
LINE
  5
35F
100
AcDbEntity
  8
A_RUNDUNGEN
100
AcDbLine
 62
8
  6
HIDDEN
 10
63.1937817724
 20
61.1817337623
 11
30.5885458086
 21
61.0110115859
  0
LINE
  5
360
100
AcDbEntity
  8
DEFAULT_2
100
AcDbLine
 62
8
  6
HIDDEN
 10
57.1911637905
 20
58.2584072759
 11
53.1911637905
 21
58.2584072759
  0
LINE
  5
361
100
AcDbEntity
  8
DEFAULT_2
100
AcDbLine
 62
8
  6
HIDDEN
 10
65.1911637905
 20
60.2584072759
 11
62.0911637905
 21
60.2584072759
  0
LINE
  5
362
100
AcDbEntity
  8
DEFAULT_2
100
AcDbLine
 62
8
  6
HIDDEN
 10
65.1911637905
 20
60.4084072759
 11
62.0911637905
 21
60.4084072759
  0
LINE
  5
363
100
AcDbEntity
  8
A_ACHSEN
100
AcDbLine
 62
8
  6
HIDDEN
 10
63.1911637905
 20
61.0584072759
 11
62.0911637905
 21
61.0584072759
  0
LINE
  5
364
100
AcDbEntity
  8
DEFAULT_2
100
AcDbLine
 62
8
  6
HIDDEN
 10
63.6911637905
 20
62.2084072759
 11
65.1911637905
 21
62.2084072759
  0
LINE
  5
365
100
AcDbEntity
  8
DEFAULT_2
100
AcDbLine
 62
8
  6
HIDDEN
 10
78.1911637905
 20
62.2584072759
 11
57.1911637905
 21
62.2584072759
  0
LINE
  5
366
100
AcDbEntity
  8
DEFAULT_2
100
AcDbLine
 62
8
  6
HIDDEN
 10
53.1911637905
 20
62.7584072759
 11
57.1911637905
 21
62.7584072759
  0
LINE
  5
367
100
AcDbEntity
  8
A_ACHSEN
100
AcDbLine
 62
8
  6
HIDDEN
 10
53.1911637905
 20
84.7584072759
 11
54.4411637905
 21
83.5084072759
  0
LINE
  5
368
100
AcDbEntity
  8
DEFAULT_2
100
AcDbLine
 62
8
  6
HIDDEN
 10
72.5610165302
 20
55.0501588689
 11
72.5610165302
 21
51.9835063372
  0
LINE
  5
369
100
AcDbEntity
  8
DEFAULT_2
100
AcDbLine
 62
8
  6
HIDDEN
 10
73.3610165302
 20
55.0501588689
 11
73.3610165302
 21
47.3501588689
  0
LINE
  5
36A
100
AcDbEntity
  8
A_ACHSEN
100
AcDbLine
 62
8
  6
HIDDEN
 10
73.5610165302
 20
55.0501588689
 11
73.5610165302
 21
46.8501588689
  0
LINE
  5
36B
100
AcDbEntity
  8
A_ACHSEN
100
AcDbLine
 62
8
  6
HIDDEN
 10
74.0610165302
 20
54.5501588689
 11
74.0610165302
 21
48.0501588689
  0
LINE
  5
36C
100
AcDbEntity
  8
DEFAULT_2
100
AcDbLine
 62
8
  6
HIDDEN
 10
74.0610165302
 20
55.0501588689
 11
74.0610165302
 21
46.8501588689
  0
LINE
  5
36D
100
AcDbEntity
  8
DEFAULT_2
100
AcDbLine
 62
8
  6
HIDDEN
 10
74.5610165302
 20
55.0501588689
 11
74.5610165302
 21
55.1501588689
  0
LINE
  5
36E
100
AcDbEntity
  8
0
100
AcDbLine
 62
7
  6
CONTINUOUS
 10
76.5610165302
 20
42.8501588689
 11
76.5610165302
 21
43.4001588689
  0
LINE
  5
36F
100
AcDbEntity
  8
DEFAULT_2
100
AcDbLine
 62
8
  6
HIDDEN
 10
76.5610165302
 20
43.4001588689
 11
76.5610165302
 21
43.6501588689
  0
LINE
  5
370
100
AcDbEntity
  8
0
100
AcDbLine
 62
7
  6
CONTINUOUS
 10
77.1911637905
 20
46.1189396657
 11
77.1911637905
 21
47.7501588689
  0
LINE
  5
371
100
AcDbEntity
  8
DEFAULT_2
100
AcDbLine
 62
8
  6
HIDDEN
 10
59.6058922685
 20
38.1682679946
 11
59.1870260136
 21
36.9697321413
  0
LINE
  5
372
100
AcDbEntity
  8
A_ACHSEN
100
AcDbLine
 62
8
  6
HIDDEN
 10
53.1911637905
 20
92.7584072759
 11
54.4411637905
 21
91.5084072759
  0
LINE
  5
373
100
AcDbEntity
  8
A_ACHSEN
100
AcDbLine
 62
8
  6
HIDDEN
 10
53.1911637905
 20
95.7584072759
 11
54.4411637905
 21
94.5084072759
  0
LINE
  5
374
100
AcDbEntity
  8
0
100
AcDbLine
 62
7
  6
CONTINUOUS
 10
78.0610165302
 20
33.6501588689
 11
78.0610165302
 21
31.0501588689
  0
LINE
  5
375
100
AcDbEntity
  8
A_RUNDUNGEN
100
AcDbLine
 62
7
  6
CONTINUOUS
 10
78.0610165302
 20
29.0501588689
 11
78.0610165302
 21
31.0501588689
  0
LINE
  5
376
100
AcDbEntity
  8
A_RUNDUNGEN
100
AcDbLine
 62
7
  6
CONTINUOUS
 10
78.0610165302
 20
42.5501588689
 11
78.0610165302
 21
45.5977006497
  0
LINE
  5
377
100
AcDbEntity
  8
A_RUNDUNGEN
100
AcDbLine
 62
8
  6
HIDDEN
 10
78.0610165302
 20
45.5977006497
 11
78.0610165302
 21
51.0501588689
  0
LINE
  5
378
100
AcDbEntity
  8
0
100
AcDbLine
 62
7
  6
CONTINUOUS
 10
78.1911637905
 20
45.7501588689
 11
78.1911637905
 21
48.7501588689
  0
LINE
  5
379
100
AcDbEntity
  8
0
100
AcDbLine
 62
7
  6
CONTINUOUS
 10
78.1911637905
 20
48.7584072759
 11
78.1911637905
 21
120.2584072759
  0
LINE
  5
37A
100
AcDbEntity
  8
DEFAULT_2
100
AcDbLine
 62
8
  6
HIDDEN
 10
57.1911637905
 20
71.0084072759
 11
54.4411637905
 21
71.0084072759
  0
LINE
  5
37B
100
AcDbEntity
  8
DEFAULT_2
100
AcDbLine
 62
8
  6
HIDDEN
 10
57.1911637905
 20
71.9603102371
 11
54.5703079471
 21
71.9603102371
  0
LINE
  5
37C
100
AcDbEntity
  8
DEFAULT_2
100
AcDbLine
 62
8
  6
HIDDEN
 10
57.1911637905
 20
72.2786349355
 11
55.3636446915
 21
72.2786349355
  0
LINE
  5
37D
100
AcDbEntity
  8
A_ACHSEN
100
AcDbLine
 62
8
  6
HIDDEN
 10
53.1911637905
 20
100.7584072759
 11
54.4411637905
 21
99.5084072759
  0
LINE
  5
37E
100
AcDbEntity
  8
A_RUNDUNGEN
100
AcDbLine
 62
8
  6
HIDDEN
 10
63.6911637881
 20
51.6084072735
 11
62.3376103999
 21
50.2548538853
  0
LINE
  5
37F
100
AcDbEntity
  8
A_FASEN
100
AcDbLine
 62
8
  6
HIDDEN
 10
65.1911637905
 20
52.3084072759
 11
64.1911637905
 21
51.3084072759
  0
LINE
  5
380
100
AcDbEntity
  8
A_ACHSEN
100
AcDbLine
 62
8
  6
HIDDEN
 10
68.5610165302
 20
55.0501588689
 11
68.0610165302
 21
54.5501588689
  0
LINE
  5
381
100
AcDbEntity
  8
A_ACHSEN
100
AcDbLine
 62
7
  6
CENTER
 10
50.1911637905
 20
74.7584072759
 11
63.8333644538
 21
74.7584072759
  0
LINE
  5
382
100
AcDbEntity
  8
DEFAULT_2
100
AcDbLine
 62
8
  6
HIDDEN
 10
57.1911637905
 20
76.0084072759
 11
54.4411637905
 21
76.0084072759
  0
LINE
  5
383
100
AcDbEntity
  8
DEFAULT_2
100
AcDbLine
 62
8
  6
HIDDEN
 10
57.1911637905
 20
76.9603102371
 11
54.5703079471
 21
76.9603102371
  0
LINE
  5
384
100
AcDbEntity
  8
DEFAULT_2
100
AcDbLine
 62
8
  6
HIDDEN
 10
57.1911637905
 20
77.2381796163
 11
55.3636446915
 21
77.2381796163
  0
LINE
  5
385
100
AcDbEntity
  8
DEFAULT_2
100
AcDbLine
 62
8
  6
HIDDEN
 10
57.1911637905
 20
77.2786349355
 11
55.3636446915
 21
77.2786349355
  0
LINE
  5
386
100
AcDbEntity
  8
DEFAULT_2
100
AcDbLine
 62
8
  6
HIDDEN
 10
57.1911637905
 20
77.5565043148
 11
54.5703079471
 21
77.5565043148
  0
LINE
  5
387
100
AcDbEntity
  8
DEFAULT_2
100
AcDbLine
 62
8
  6
HIDDEN
 10
57.1911637905
 20
78.5084072759
 11
54.4411637905
 21
78.5084072759
  0
LINE
  5
388
100
AcDbEntity
  8
A_ACHSEN
100
AcDbLine
 62
7
  6
CENTER
 10
50.1911637905
 20
79.7584072759
 11
62.9504815709
 21
79.7584072759
  0
LINE
  5
389
100
AcDbEntity
  8
DEFAULT_2
100
AcDbLine
 62
8
  6
HIDDEN
 10
72.5610165302
 20
54.9015724003
 11
72.7930673378
 21
55.0501588689
  0
LINE
  5
38A
100
AcDbEntity
  8
DEFAULT_2
100
AcDbLine
 62
8
  6
HIDDEN
 10
57.1911637905
 20
82.2381796163
 11
55.3636446915
 21
82.2381796163
  0
LINE
  5
38B
100
AcDbEntity
  8
DEFAULT_2
100
AcDbLine
 62
8
  6
HIDDEN
 10
57.1911637905
 20
82.5565043148
 11
54.5703079471
 21
82.5565043148
  0
LINE
  5
38C
100
AcDbEntity
  8
DEFAULT_2
100
AcDbLine
 62
8
  6
HIDDEN
 10
57.1911637905
 20
83.5084072759
 11
54.4411637905
 21
83.5084072759
  0
LINE
  5
38D
100
AcDbEntity
  8
DEFAULT_2
100
AcDbLine
 62
8
  6
HIDDEN
 10
57.1911637905
 20
84.0084072759
 11
54.4411637905
 21
84.0084072759
  0
LINE
  5
38E
100
AcDbEntity
  8
DEFAULT_2
100
AcDbLine
 62
8
  6
HIDDEN
 10
57.1911637905
 20
84.9603102371
 11
54.5703079471
 21
84.9603102371
  0
LINE
  5
38F
100
AcDbEntity
  8
DEFAULT_2
100
AcDbLine
 62
8
  6
HIDDEN
 10
55.1024593349
 20
90.1599465306
 11
55.0506599971
 21
90.1783368972
  0
LINE
  5
390
100
AcDbEntity
  8
A_ACHSEN
100
AcDbLine
 62
8
  6
HIDDEN
 10
53.1911637905
 20
111.7584072759
 11
54.4411637905
 21
110.5084072759
  0
LINE
  5
391
100
AcDbEntity
  8
A_ACHSEN
100
AcDbLine
 62
8
  6
HIDDEN
 10
53.1911637905
 20
116.7584072759
 11
54.4411637905
 21
115.5084072759
  0
LINE
  5
392
100
AcDbEntity
  8
0
100
AcDbLine
 62
7
  6
CONTINUOUS
 10
74.2300094518
 20
42.6501588689
 11
77.1911637905
 21
46.1189396657
  0
LINE
  5
393
100
AcDbEntity
  8
0
100
AcDbLine
 62
7
  6
CONTINUOUS
 10
74.6911637905
 20
41.6501588689
 11
78.1911637905
 21
45.7501588689
  0
LINE
  5
394
100
AcDbEntity
  8
A_ACHSEN
100
AcDbLine
 62
8
  6
HIDDEN
 10
74.0610165302
 20
48.0501588689
 11
73.0610165302
 21
47.0501588689
  0
LINE
  5
395
100
AcDbEntity
  8
A_FASEN
100
AcDbLine
 62
7
  6
CONTINUOUS
 10
68.6910165302
 20
41.1501588689
 11
69.1910165302
 21
41.6501588689
  0
LINE
  5
396
100
AcDbEntity
  8
A_FLAECHEN
100
AcDbLine
 62
8
  6
HIDDEN
 10
71.0610165302
 20
51.117146167
 11
72.5610165302
 21
51.9831715708
  0
LINE
  5
397
100
AcDbEntity
  8
DEFAULT_2
100
AcDbLine
 62
8
  6
HIDDEN
 10
57.1911637905
 20
85.2786349355
 11
55.3636446915
 21
85.2786349355
  0
LINE
  5
398
100
AcDbEntity
  8
DEFAULT_2
100
AcDbLine
 62
8
  6
HIDDEN
 10
57.1911637905
 20
87.0084072759
 11
54.4411637905
 21
87.0084072759
  0
LINE
  5
399
100
AcDbEntity
  8
A_ACHSEN
100
AcDbLine
 62
7
  6
CENTER
 10
50.1911637905
 20
87.7584072759
 11
64.0856167061
 21
87.7584072759
  0
LINE
  5
39A
100
AcDbEntity
  8
DEFAULT_2
100
AcDbLine
 62
8
  6
HIDDEN
 10
57.1911637905
 20
87.9603102371
 11
54.5703079471
 21
87.9603102371
  0
LINE
  5
39B
100
AcDbEntity
  8
DEFAULT_2
100
AcDbLine
 62
8
  6
HIDDEN
 10
57.1911637905
 20
88.2786349355
 11
55.3636446915
 21
88.2786349355
  0
LINE
  5
39C
100
AcDbEntity
  8
DEFAULT_2
100
AcDbLine
 62
8
  6
HIDDEN
 10
57.1911637905
 20
90.2381796163
 11
55.3636446915
 21
90.2381796163
  0
LINE
  5
39D
100
AcDbEntity
  8
DEFAULT_2
100
AcDbLine
 62
8
  6
HIDDEN
 10
57.1911637905
 20
90.5565043148
 11
54.5703079471
 21
90.5565043148
  0
LINE
  5
39E
100
AcDbEntity
  8
DEFAULT_2
100
AcDbLine
 62
8
  6
HIDDEN
 10
57.1911637905
 20
91.5084072759
 11
54.4411637905
 21
91.5084072759
  0
LINE
  5
39F
100
AcDbEntity
  8
DEFAULT_2
100
AcDbLine
 62
8
  6
HIDDEN
 10
57.1911637905
 20
92.0084072759
 11
54.4411637905
 21
92.0084072759
  0
LINE
  5
3A0
100
AcDbEntity
  8
DEFAULT_2
100
AcDbLine
 62
8
  6
HIDDEN
 10
57.1911637905
 20
92.9603102371
 11
54.5703079471
 21
92.9603102371
  0
LINE
  5
3A1
100
AcDbEntity
  8
DEFAULT_2
100
AcDbLine
 62
8
  6
HIDDEN
 10
57.1911637905
 20
93.2381796163
 11
55.3636446915
 21
93.2381796163
  0
LINE
  5
3A2
100
AcDbEntity
  8
DEFAULT_2
100
AcDbLine
 62
8
  6
HIDDEN
 10
57.1911637905
 20
93.2786349355
 11
55.3636446915
 21
93.2786349355
  0
LINE
  5
3A3
100
AcDbEntity
  8
DEFAULT_2
100
AcDbLine
 62
8
  6
HIDDEN
 10
57.1911637905
 20
93.5565043148
 11
54.5703079471
 21
93.5565043148
  0
LINE
  5
3A4
100
AcDbEntity
  8
DEFAULT_2
100
AcDbLine
 62
8
  6
HIDDEN
 10
57.1911637905
 20
94.5084072759
 11
54.4411637905
 21
94.5084072759
  0
LINE
  5
3A5
100
AcDbEntity
  8
A_ACHSEN
100
AcDbLine
 62
7
  6
CENTER
 10
50.1911637905
 20
95.7584072759
 11
64.3378689583
 21
95.7584072759
  0
LINE
  5
3A6
100
AcDbEntity
  8
DEFAULT_2
100
AcDbLine
 62
8
  6
HIDDEN
 10
62.9876362461
 20
36.0501588689
 11
60.0610165302
 21
34.4940475631
  0
LINE
  5
3A7
100
AcDbEntity
  8
A_ACHSEN
100
AcDbLine
 62
8
  6
HIDDEN
 10
65.7113426975
 20
34.1006691261
 11
60.0610165302
 21
31.096337411
  0
LINE
  5
3A8
100
AcDbEntity
  8
DEFAULT_2
100
AcDbLine
 62
8
  6
HIDDEN
 10
57.1911637905
 20
98.2381796163
 11
55.3636446915
 21
98.2381796163
  0
LINE
  5
3A9
100
AcDbEntity
  8
DEFAULT_2
100
AcDbLine
 62
8
  6
HIDDEN
 10
57.1911637905
 20
98.5565043148
 11
54.5703079471
 21
98.5565043148
  0
LINE
  5
3AA
100
AcDbEntity
  8
DEFAULT_2
100
AcDbLine
 62
8
  6
HIDDEN
 10
57.1911637905
 20
99.5084072759
 11
54.4411637905
 21
99.5084072759
  0
LINE
  5
3AB
100
AcDbEntity
  8
A_FASEN
100
AcDbLine
 62
7
  6
CONTINUOUS
 10
148.1910165302
 20
41.6501588689
 11
148.6910165302
 21
41.1501588689
  0
LWPOLYLINE
  5
3AC
100
AcDbEntity
  8
A_RUNDUNGEN
100
AcDbPolyline
 62
7
  6
CONTINUOUS
 90
6
 70
0
 10
64.9013356918
 20
29.27556676
 10
64.9499844249
 20
29.3009100471
 10
64.9942800925
 20
29.3387151304
 10
65.0302547374
 20
29.3886375327
 10
65.0538129804
 20
29.4492223317
 10
65.0610165301
 20
29.5088223898
  0
LINE
  5
3AD
100
AcDbEntity
  8
DEFAULT_2
100
AcDbLine
 62
8
  6
HIDDEN
 10
57.1911637905
 20
103.0084072759
 11
54.4411637905
 21
103.0084072759
  0
LINE
  5
3AE
100
AcDbEntity
  8
DEFAULT_2
100
AcDbLine
 62
8
  6
HIDDEN
 10
57.1911637905
 20
103.9603102371
 11
54.5703079471
 21
103.9603102371
  0
LINE
  5
3AF
100
AcDbEntity
  8
DEFAULT_2
100
AcDbLine
 62
8
  6
HIDDEN
 10
57.1911637905
 20
104.2786349355
 11
55.3636446915
 21
104.2786349355
  0
LINE
  5
3B0
100
AcDbEntity
  8
A_ACHSEN
100
AcDbLine
 62
7
  6
CENTER
 10
50.1911637905
 20
106.7584072759
 11
65.4730040935
 21
106.7584072759
  0
LINE
  5
3B1
100
AcDbEntity
  8
DEFAULT_2
100
AcDbLine
 62
8
  6
HIDDEN
 10
57.1911637905
 20
108.0084072759
 11
54.4411637905
 21
108.0084072759
  0
LINE
  5
3B2
100
AcDbEntity
  8
DEFAULT_2
100
AcDbLine
 62
8
  6
HIDDEN
 10
57.1911637905
 20
108.9603102371
 11
54.5703079471
 21
108.9603102371
  0
LINE
  5
3B3
100
AcDbEntity
  8
DEFAULT_2
100
AcDbLine
 62
8
  6
HIDDEN
 10
57.1911637905
 20
109.2381796163
 11
55.3636446915
 21
109.2381796163
  0
LINE
  5
3B4
100
AcDbEntity
  8
DEFAULT_2
100
AcDbLine
 62
8
  6
HIDDEN
 10
57.1911637905
 20
109.2786349355
 11
55.3636446915
 21
109.2786349355
  0
LINE
  5
3B5
100
AcDbEntity
  8
DEFAULT_2
100
AcDbLine
 62
8
  6
HIDDEN
 10
57.1911637905
 20
109.5565043148
 11
54.5703079471
 21
109.5565043148
  0
LINE
  5
3B6
100
AcDbEntity
  8
DEFAULT_2
100
AcDbLine
 62
8
  6
HIDDEN
 10
57.1911637905
 20
110.5084072759
 11
54.4411637905
 21
110.5084072759
  0
LINE
  5
3B7
100
AcDbEntity
  8
A_ACHSEN
100
AcDbLine
 62
7
  6
CENTER
 10
50.1911637905
 20
111.7584072759
 11
64.968499589
 21
111.7584072759
  0
LINE
  5
3B8
100
AcDbEntity
  8
DEFAULT_2
100
AcDbLine
 62
8
  6
HIDDEN
 10
57.1911637905
 20
114.2381796163
 11
55.3636446915
 21
114.2381796163
  0
LINE
  5
3B9
100
AcDbEntity
  8
DEFAULT_2
100
AcDbLine
 62
8
  6
HIDDEN
 10
57.1911637905
 20
114.5565043148
 11
54.5703079471
 21
114.5565043148
  0
LINE
  5
3BA
100
AcDbEntity
  8
DEFAULT_2
100
AcDbLine
 62
8
  6
HIDDEN
 10
57.1911637905
 20
115.5084072759
 11
54.4411637905
 21
115.5084072759
  0
LINE
  5
3BB
100
AcDbEntity
  8
0
100
AcDbLine
 62
7
  6
CONTINUOUS
 10
53.1911637905
 20
119.7584072759
 11
57.1911637905
 21
119.7584072759
  0
LINE
  5
3BC
100
AcDbEntity
  8
0
100
AcDbLine
 62
7
  6
CONTINUOUS
 10
78.1911637905
 20
120.2584072759
 11
57.1911637905
 21
120.2584072759
  0
LINE
  5
3BD
100
AcDbEntity
  8
A_FASEN
100
AcDbLine
 62
7
  6
CONTINUOUS
 10
148.6910165302
 20
41.1501588689
 11
148.6910165302
 21
34.1501588689
  0
LINE
  5
3BE
100
AcDbEntity
  8
A_FASEN
100
AcDbLine
 62
7
  6
CONTINUOUS
 10
148.1910165302
 20
33.6501588689
 11
148.6910165302
 21
34.1501588689
  0
ARC
  5
3BF
100
AcDbEntity
  8
A_RUNDUNGEN
100
AcDbCircle
 62
8
  6
HIDDEN
 10
29.6911637905
 20
35.3153141599
 40
0.5
100
AcDbArc
 50
180.0
 51
224.75
  0
ARC
  5
3C0
100
AcDbEntity
  8
A_RUNDUNGEN
100
AcDbCircle
 62
8
  6
HIDDEN
 10
30.5911637905
 20
35.9557961121
 40
0.5
100
AcDbArc
 50
180.0
 51
269.7
  0
ARC
  5
3C1
100
AcDbEntity
  8
A_RUNDUNGEN
100
AcDbCircle
 62
8
  6
HIDDEN
 10
29.8592930526
 20
35.0036687703
 40
0.4
100
AcDbArc
 50
224.75
 51
269.5
  0
ARC
  5
3C2
100
AcDbEntity
  8
A_RUNDUNGEN
100
AcDbCircle
 62
7
  6
CONTINUOUS
 10
29.6911637905
 20
43.9474968813
 40
0.5
100
AcDbArc
 50
180.0
 51
224.0
  0
ARC
  5
3C3
100
AcDbEntity
  8
A_RUNDUNGEN
100
AcDbCircle
 62
7
  6
CONTINUOUS
 10
29.8534154094
 20
43.6355247575
 40
0.4
100
AcDbArc
 50
224.0
 51
268.0
  0
ARC
  5
3C4
100
AcDbEntity
  8
A_ACHSEN
100
AcDbCircle
 62
8
  6
HIDDEN
 10
37.8911637905
 20
38.8584072759
 40
3.0
100
AcDbArc
 50
162.4473096234
 51
348.5053096234
  0
CIRCLE
  5
3C5
100
AcDbEntity
  8
A_ACHSEN
100
AcDbCircle
 62
8
  6
HIDDEN
 10
37.8911637905
 20
38.8584072759
 40
2.5
  0
CIRCLE
  5
3C6
100
AcDbEntity
  8
A_FASEN
100
AcDbCircle
 62
8
  6
HIDDEN
 10
37.8911637905
 20
38.8584072759
 40
2.2
  0
CIRCLE
  5
3C7
100
AcDbEntity
  8
A_ACHSEN
100
AcDbCircle
 62
8
  6
HIDDEN
 10
37.8911637905
 20
38.8584072759
 40
2.2
  0
CIRCLE
  5
3C8
100
AcDbEntity
  8
A_FASEN
100
AcDbCircle
 62
8
  6
HIDDEN
 10
37.8911637905
 20
38.8584072759
 40
1.85
  0
ARC
  5
3C9
100
AcDbEntity
  8
A_RUNDUNGEN
100
AcDbCircle
 62
8
  6
HIDDEN
 10
39.4411637905
 20
42.1500122304
 40
0.75
100
AcDbArc
 50
0.0
 51
55.7127536013
  0
ARC
  5
3CA
100
AcDbEntity
  8
A_RUNDUNGEN
100
AcDbCircle
 62
7
  6
CONTINUOUS
 10
39.4411637905
 20
42.1500122304
 40
0.75
100
AcDbArc
 50
55.7127536013
 51
88.0
  0
ARC
  5
3CB
100
AcDbEntity
  8
A_RUNDUNGEN
100
AcDbCircle
 62
8
  6
HIDDEN
 10
29.6911637905
 20
45.2263004947
 40
0.5
100
AcDbArc
 50
135.000001341
 51
179.9999994984
  0
ARC
  5
3CC
100
AcDbEntity
  8
A_RUNDUNGEN
100
AcDbCircle
 62
8
  6
HIDDEN
 10
29.6911637905
 20
51.2905140571
 40
0.5
100
AcDbArc
 50
180.0000005016
 51
224.999998659
  0
ARC
  5
3CD
100
AcDbEntity
  8
A_RUNDUNGEN
100
AcDbCircle
 62
8
  6
HIDDEN
 10
29.8982705717
 20
45.4334072759
 40
0.5
100
AcDbArc
 50
90.0
 51
135.0000070685
  0
ARC
  5
3CE
100
AcDbEntity
  8
A_RUNDUNGEN
100
AcDbCircle
 62
8
  6
HIDDEN
 10
29.8982705717
 20
51.0834072759
 40
0.5
100
AcDbArc
 50
224.9999929315
 51
270.0
  0
ARC
  5
3CF
100
AcDbEntity
  8
DEFAULT_2
100
AcDbCircle
 62
8
  6
HIDDEN
 10
29.5304793571
 20
54.3072151901
 40
34.7174394322
100
AcDbArc
 50
42.5595742316
 51
43.407435914
  0
ARC
  5
3D0
100
AcDbEntity
  8
A_RUNDUNGEN
100
AcDbCircle
 62
7
  6
CONTINUOUS
 10
29.6911637905
 20
52.5693176705
 40
0.5
100
AcDbArc
 50
136.0
 51
180.0
  0
ARC
  5
3D1
100
AcDbEntity
  8
A_RUNDUNGEN
100
AcDbCircle
 62
7
  6
CONTINUOUS
 10
29.8534154094
 20
52.8812897943
 40
0.4
100
AcDbArc
 50
92.0
 51
136.0
  0
ARC
  5
3D2
100
AcDbEntity
  8
DEFAULT_2
100
AcDbCircle
 62
8
  6
HIDDEN
 10
29.530479357
 20
59.30721519
 40
34.7174394323
100
AcDbArc
 50
42.5595742316
 51
43.407435914
  0
ARC
  5
3D3
100
AcDbEntity
  8
DEFAULT_2
100
AcDbCircle
 62
8
  6
HIDDEN
 10
31.1313357736
 20
53.0443329773
 40
33.5223238477
100
AcDbArc
 50
44.3502925173
 51
45.2002805398
  0
ARC
  5
3D4
100
AcDbEntity
  8
DEFAULT_2
100
AcDbCircle
 62
8
  6
HIDDEN
 10
31.1313357735
 20
58.0443329772
 40
33.5223238478
100
AcDbArc
 50
44.3502925173
 51
45.2002805398
  0
ARC
  5
3D5
100
AcDbEntity
  8
DEFAULT_2
100
AcDbCircle
 62
8
  6
HIDDEN
 10
40.2343404942
 20
48.4944234966
 40
44.2389405456
100
AcDbArc
 50
70.5964099167
 51
70.8423127505
  0
ARC
  5
3D6
100
AcDbEntity
  8
DEFAULT_2
100
AcDbCircle
 62
8
  6
HIDDEN
 10
38.4945108738
 20
50.1425669648
 40
36.214523055
100
AcDbArc
 50
63.0075926358
 51
63.3251246567
  0
ARC
  5
3D7
100
AcDbEntity
  8
DEFAULT_2
100
AcDbCircle
 62
8
  6
HIDDEN
 10
38.4945108738
 20
45.1425669648
 40
36.214523055
100
AcDbArc
 50
63.0075926357
 51
63.3251246567
  0
ARC
  5
3D8
100
AcDbEntity
  8
DEFAULT_2
100
AcDbCircle
 62
8
  6
HIDDEN
 10
40.4954325973
 20
49.0911587104
 40
31.7879220135
100
AcDbArc
 50
62.6441847329
 51
63.3527560999
  0
ARC
  5
3D9
100
AcDbEntity
  8
DEFAULT_2
100
AcDbCircle
 62
8
  6
HIDDEN
 10
38.4945108738
 20
58.1425669649
 40
36.2145230549
100
AcDbArc
 50
63.0075926357
 51
63.3251246567
  0
ARC
  5
3DA
100
AcDbEntity
  8
DEFAULT_2
100
AcDbCircle
 62
8
  6
HIDDEN
 10
40.495432597
 20
54.0911587098
 40
31.7879220141
100
AcDbArc
 50
62.6441847329
 51
63.3527560999
  0
ARC
  5
3DB
100
AcDbEntity
  8
A_RUNDUNGEN
100
AcDbCircle
 62
7
  6
CONTINUOUS
 10
39.4411637905
 20
54.3668023214
 40
0.75
100
AcDbArc
 50
272.0000000197
 51
360.0
  0
ARC
  5
3DC
100
AcDbEntity
  8
DEFAULT_2
100
AcDbCircle
 62
8
  6
HIDDEN
 10
41.1665721365
 20
35.168819634
 40
41.4067256454
100
AcDbArc
 50
70.3325130977
 51
70.8463939651
  0
ARC
  5
3DD
100
AcDbEntity
  8
DEFAULT_2
100
AcDbCircle
 62
8
  6
HIDDEN
 10
41.1665721367
 20
40.1688196344
 40
41.406725645
100
AcDbArc
 50
70.3325130977
 51
70.8463939651
  0
ARC
  5
3DE
100
AcDbEntity
  8
DEFAULT_2
100
AcDbCircle
 62
8
  6
HIDDEN
 10
42.0571883335
 20
42.6963763209
 40
38.7268775909
100
AcDbArc
 50
70.314733032
 51
70.8641740308
  0
ARC
  5
3DF
100
AcDbEntity
  8
DEFAULT_2
100
AcDbCircle
 62
8
  6
HIDDEN
 10
42.0571883336
 20
37.6963763212
 40
38.7268775906
100
AcDbArc
 50
70.314733032
 51
70.8641740308
  0
ARC
  5
3E0
100
AcDbEntity
  8
A_ACHSEN
100
AcDbCircle
 62
8
  6
HIDDEN
 10
43.8911637905
 20
39.3584072759
 40
3.0
100
AcDbArc
 50
166.8168639699
 51
349.8168639699
  0
CIRCLE
  5
3E1
100
AcDbEntity
  8
DEFAULT_2
100
AcDbCircle
 62
8
  6
HIDDEN
 10
43.8911637905
 20
39.3584072759
 40
2.5
  0
CIRCLE
  5
3E2
100
AcDbEntity
  8
DEFAULT_2
100
AcDbCircle
 62
8
  6
HIDDEN
 10
43.8911637905
 20
39.3584072759
 40
2.2
  0
ARC
  5
3E3
100
AcDbEntity
  8
DEFAULT_2
100
AcDbCircle
 62
8
  6
HIDDEN
 10
44.5911637905
 20
42.0057961121
 40
0.5
100
AcDbArc
 50
243.4798867806
 51
269.7
  0
ARC
  5
3E4
100
AcDbEntity
  8
A_RUNDUNGEN
100
AcDbCircle
 62
8
  6
HIDDEN
 10
44.5911637905
 20
42.0057961121
 40
0.5
100
AcDbArc
 50
180.0
 51
269.7
  0
ARC
  5
3E5
100
AcDbEntity
  8
A_RUNDUNGEN
100
AcDbCircle
 62
7
  6
CONTINUOUS
 10
51.3451683109
 20
30.7584072759
 40
1.5
100
AcDbArc
 50
252.2553283749
 51
270.0
  0
ARC
  5
3E6
100
AcDbEntity
  8
A_RUNDUNGEN
100
AcDbCircle
 62
8
  6
HIDDEN
 10
50.6153422145
 20
30.5084072759
 40
0.25
100
AcDbArc
 50
270.0
 51
359.0
  0
ARC
  5
3E7
100
AcDbEntity
  8
A_RUNDUNGEN
100
AcDbCircle
 62
8
  6
HIDDEN
 10
52.106690846
 20
32.0084072759
 40
0.25
100
AcDbArc
 50
90.0
 51
179.0
  0
ARC
  5
3E8
100
AcDbEntity
  8
A_RUNDUNGEN
100
AcDbCircle
 62
8
  6
HIDDEN
 10
52.606614682
 20
32.5084072759
 40
0.25
100
AcDbArc
 50
270.0
 51
1.0
  0
ARC
  5
3E9
100
AcDbEntity
  8
A_RUNDUNGEN
100
AcDbCircle
 62
8
  6
HIDDEN
 10
51.5629770197
 20
29.5084072759
 40
0.25
100
AcDbArc
 50
270.0
 51
359.0
  0
ARC
  5
3EA
100
AcDbEntity
  8
A_RUNDUNGEN
100
AcDbCircle
 62
7
  6
CONTINUOUS
 10
50.1110165302
 20
30.0084072759
 40
0.25
100
AcDbArc
 50
90.0
 51
180.0
  0
ARC
  5
3EB
100
AcDbEntity
  8
A_RUNDUNGEN
100
AcDbCircle
 62
7
  6
CONTINUOUS
 10
50.1110165302
 20
29.8408953709
 40
0.25
100
AcDbArc
 50
180.0
 51
252.2553283749
  0
ARC
  5
3EC
100
AcDbEntity
  8
DEFAULT_2
100
AcDbCircle
 62
8
  6
HIDDEN
 10
41.1665721366
 20
48.1688196342
 40
41.4067256452
100
AcDbArc
 50
70.3325130977
 51
70.8463939651
  0
ARC
  5
3ED
100
AcDbEntity
  8
DEFAULT_2
100
AcDbCircle
 62
8
  6
HIDDEN
 10
41.1665721375
 20
51.1688196367
 40
41.4067256425
100
AcDbArc
 50
70.3325130977
 51
70.8463939651
  0
ARC
  5
3EE
100
AcDbEntity
  8
DEFAULT_2
100
AcDbCircle
 62
8
  6
HIDDEN
 10
42.0571883336
 20
50.6963763209
 40
38.7268775908
100
AcDbArc
 50
70.314733032
 51
70.8641740308
  0
ARC
  5
3EF
100
AcDbEntity
  8
DEFAULT_2
100
AcDbCircle
 62
8
  6
HIDDEN
 10
41.4287169099
 20
50.9019588378
 40
29.7507656766
100
AcDbArc
 50
62.6380707728
 51
63.0086404594
  0
ARC
  5
3F0
100
AcDbEntity
  8
A_RUNDUNGEN
100
AcDbCircle
 62
8
  6
HIDDEN
 10
45.7707063415
 20
52.515288226
 40
2.0
100
AcDbArc
 50
77.1733096234
 51
168.5053096234
  0
ARC
  5
3F1
100
AcDbEntity
  8
DEFAULT_2
100
AcDbCircle
 62
8
  6
HIDDEN
 10
41.1665721367
 20
56.1688196345
 40
41.4067256449
100
AcDbArc
 50
70.3325130977
 51
70.8463939651
  0
ARC
  5
3F2
100
AcDbEntity
  8
DEFAULT_2
100
AcDbCircle
 62
8
  6
HIDDEN
 10
42.5246211705
 20
55.0000311754
 40
37.3419618288
100
AcDbArc
 50
70.4003529349
 51
70.5947259028
  0
ARC
  5
3F3
100
AcDbEntity
  8
DEFAULT_2
100
AcDbCircle
 62
8
  6
HIDDEN
 10
41.4287169102
 20
55.9019588385
 40
29.7507656757
100
AcDbArc
 50
62.6380707727
 51
63.0086404594
  0
ARC
  5
3F4
100
AcDbEntity
  8
DEFAULT_2
100
AcDbCircle
 62
8
  6
HIDDEN
 10
42.0571883334
 20
58.6963763204
 40
38.7268775914
100
AcDbArc
 50
70.3147330321
 51
70.8641740308
  0
ARC
  5
3F5
100
AcDbEntity
  8
A_RUNDUNGEN
100
AcDbCircle
 62
8
  6
HIDDEN
 10
44.7094748938
 20
53.7825066196
 40
5.0
100
AcDbArc
 50
77.1733096234
 51
162.4473096234
  0
ARC
  5
3F6
100
AcDbEntity
  8
DEFAULT_2
100
AcDbCircle
 62
8
  6
HIDDEN
 10
44.5911637905
 20
54.5110184398
 40
0.5
100
AcDbArc
 50
90.3
 51
116.5201132194
  0
ARC
  5
3F7
100
AcDbEntity
  8
A_RUNDUNGEN
100
AcDbCircle
 62
8
  6
HIDDEN
 10
44.5911637905
 20
54.5110184398
 40
0.5
100
AcDbArc
 50
90.3
 51
180.0
  0
ARC
  5
3F8
100
AcDbEntity
  8
A_RUNDUNGEN
100
AcDbCircle
 62
8
  6
HIDDEN
 10
52.3424116524
 20
46.9166433508
 40
10.0
100
AcDbArc
 50
22.9384096234
 51
77.1733096234
  0
ARC
  5
3F9
100
AcDbEntity
  8
A_RUNDUNGEN
100
AcDbCircle
 62
8
  6
HIDDEN
 10
49.0720735266
 20
48.3224247358
 40
6.0
100
AcDbArc
 50
74.8168639699
 51
166.8168639699
  0
ARC
  5
3FA
100
AcDbEntity
  8
A_RUNDUNGEN
100
AcDbCircle
 62
8
  6
HIDDEN
 10
52.5479328954
 20
47.8954419716
 40
5.0
100
AcDbArc
 50
14.9731096234
 51
77.1733096234
  0
ARC
  5
3FB
100
AcDbEntity
  8
A_RUNDUNGEN
100
AcDbCircle
 62
8
  6
HIDDEN
 10
51.3025017981
 20
46.6809667744
 40
3.0
100
AcDbArc
 50
74.8168639699
 51
169.8168639699
  0
ARC
  5
3FC
100
AcDbEntity
  8
DEFAULT_2
100
AcDbCircle
 62
8
  6
HIDDEN
 10
29.5304793572
 20
70.3072151902
 40
34.717439432
100
AcDbArc
 50
42.5595742316
 51
43.407435914
  0
ARC
  5
3FD
100
AcDbEntity
  8
DEFAULT_2
100
AcDbCircle
 62
8
  6
HIDDEN
 10
29.5304793573
 20
67.3072151903
 40
34.7174394319
100
AcDbArc
 50
42.5595742316
 51
43.407435914
  0
ARC
  5
3FE
100
AcDbEntity
  8
DEFAULT_2
100
AcDbCircle
 62
8
  6
HIDDEN
 10
31.1313357738
 20
74.0443329775
 40
33.5223238474
100
AcDbArc
 50
44.3502925173
 51
45.2002805398
  0
ARC
  5
3FF
100
AcDbEntity
  8
DEFAULT_2
100
AcDbCircle
 62
8
  6
HIDDEN
 10
31.1313357738
 20
69.0443329775
 40
33.5223238474
100
AcDbArc
 50
44.3502925173
 51
45.2002805398
  0
ARC
  5
400
100
AcDbEntity
  8
DEFAULT_2
100
AcDbCircle
 62
8
  6
HIDDEN
 10
31.131335774
 20
66.0443329776
 40
33.5223238472
100
AcDbArc
 50
44.3502925173
 51
45.2002805399
  0
ARC
  5
401
100
AcDbEntity
  8
A_RUNDUNGEN
100
AcDbCircle
 62
8
  6
HIDDEN
 10
30.5911637905
 20
60.5110184398
 40
0.5
100
AcDbArc
 50
90.3
 51
180.0
  0
ARC
  5
402
100
AcDbEntity
  8
A_RUNDUNGEN
100
AcDbCircle
 62
7
  6
CONTINUOUS
 10
29.6911637905
 20
61.2015003919
 40
0.5
100
AcDbArc
 50
135.25
 51
180.0
  0
ARC
  5
403
100
AcDbEntity
  8
A_RUNDUNGEN
100
AcDbCircle
 62
7
  6
CONTINUOUS
 10
29.8592930526
 20
61.5131457815
 40
0.4
100
AcDbArc
 50
90.5
 51
135.25
  0
ARC
  5
404
100
AcDbEntity
  8
DEFAULT_2
100
AcDbCircle
 62
8
  6
HIDDEN
 10
29.5304793568
 20
86.3072151898
 40
34.7174394326
100
AcDbArc
 50
42.5595742316
 51
43.407435914
  0
ARC
  5
405
100
AcDbEntity
  8
DEFAULT_2
100
AcDbCircle
 62
8
  6
HIDDEN
 10
29.5304793572
 20
75.3072151901
 40
34.7174394321
100
AcDbArc
 50
42.5595742316
 51
43.407435914
  0
ARC
  5
406
100
AcDbEntity
  8
DEFAULT_2
100
AcDbCircle
 62
8
  6
HIDDEN
 10
31.1313357739
 20
90.0443329776
 40
33.5223238473
100
AcDbArc
 50
44.3502925173
 51
45.2002805398
  0
ARC
  5
407
100
AcDbEntity
  8
DEFAULT_2
100
AcDbCircle
 62
8
  6
HIDDEN
 10
31.1313357742
 20
85.0443329778
 40
33.5223238469
100
AcDbArc
 50
44.3502925173
 51
45.2002805398
  0
ARC
  5
408
100
AcDbEntity
  8
DEFAULT_2
100
AcDbCircle
 62
8
  6
HIDDEN
 10
41.1665721374
 20
67.1688196364
 40
41.4067256428
100
AcDbArc
 50
70.3325130977
 51
70.8463939651
  0
ARC
  5
409
100
AcDbEntity
  8
DEFAULT_2
100
AcDbCircle
 62
8
  6
HIDDEN
 10
41.1665721375
 20
72.1688196366
 40
41.4067256426
100
AcDbArc
 50
70.3325130977
 51
70.8463939651
  0
ARC
  5
40A
100
AcDbEntity
  8
DEFAULT_2
100
AcDbCircle
 62
8
  6
HIDDEN
 10
42.057188334
 20
74.6963763221
 40
38.7268775895
100
AcDbArc
 50
70.314733032
 51
70.8641740308
  0
ARC
  5
40B
100
AcDbEntity
  8
DEFAULT_2
100
AcDbCircle
 62
8
  6
HIDDEN
 10
42.0571883341
 20
69.6963763224
 40
38.7268775892
100
AcDbArc
 50
70.314733032
 51
70.8641740308
  0
ARC
  5
40C
100
AcDbEntity
  8
DEFAULT_2
100
AcDbCircle
 62
8
  6
HIDDEN
 10
38.4945108745
 20
66.1425669661
 40
36.2145230535
100
AcDbArc
 50
63.0075926357
 51
63.3251246567
  0
ARC
  5
40D
100
AcDbEntity
  8
DEFAULT_2
100
AcDbCircle
 62
8
  6
HIDDEN
 10
38.4945108757
 20
61.1425669685
 40
36.2145230509
100
AcDbArc
 50
63.0075926357
 51
63.3251246567
  0
ARC
  5
40E
100
AcDbEntity
  8
DEFAULT_2
100
AcDbCircle
 62
8
  6
HIDDEN
 10
40.4954325971
 20
65.09115871
 40
31.7879220139
100
AcDbArc
 50
62.6441847329
 51
63.3527560999
  0
ARC
  5
40F
100
AcDbEntity
  8
DEFAULT_2
100
AcDbCircle
 62
8
  6
HIDDEN
 10
40.4954325973
 20
62.0911587104
 40
31.7879220135
100
AcDbArc
 50
62.6441847329
 51
63.3527560999
  0
ARC
  5
410
100
AcDbEntity
  8
DEFAULT_2
100
AcDbCircle
 62
8
  6
HIDDEN
 10
40.4954325974
 20
70.0911587106
 40
31.7879220132
100
AcDbArc
 50
62.6441847329
 51
63.3527560999
  0
ARC
  5
411
100
AcDbEntity
  8
DEFAULT_2
100
AcDbCircle
 62
8
  6
HIDDEN
 10
41.4287169093
 20
66.9019588368
 40
29.7507656777
100
AcDbArc
 50
62.6380707728
 51
63.0086404594
  0
ARC
  5
412
100
AcDbEntity
  8
DEFAULT_2
100
AcDbCircle
 62
8
  6
HIDDEN
 10
41.4287169096
 20
71.9019588372
 40
29.7507656772
100
AcDbArc
 50
62.6380707728
 51
63.0086404594
  0
ARC
  5
413
100
AcDbEntity
  8
DEFAULT_2
100
AcDbCircle
 62
8
  6
HIDDEN
 10
41.4287169102
 20
63.9019588384
 40
29.7507656759
100
AcDbArc
 50
62.6380707727
 51
63.0086404594
  0
ARC
  5
414
100
AcDbEntity
  8
DEFAULT_2
100
AcDbCircle
 62
8
  6
HIDDEN
 10
38.4945108747
 20
82.1425669666
 40
36.214523053
100
AcDbArc
 50
63.0075926357
 51
63.3251246567
  0
ARC
  5
415
100
AcDbEntity
  8
DEFAULT_2
100
AcDbCircle
 62
8
  6
HIDDEN
 10
38.4945108759
 20
77.1425669689
 40
36.2145230504
100
AcDbArc
 50
63.0075926357
 51
63.3251246567
  0
ARC
  5
416
100
AcDbEntity
  8
DEFAULT_2
100
AcDbCircle
 62
8
  6
HIDDEN
 10
40.4954325969
 20
86.0911587096
 40
31.7879220143
100
AcDbArc
 50
62.6441847329
 51
63.3527560999
  0
ARC
  5
417
100
AcDbEntity
  8
DEFAULT_2
100
AcDbCircle
 62
8
  6
HIDDEN
 10
40.4954325976
 20
81.091158711
 40
31.7879220128
100
AcDbArc
 50
62.6441847329
 51
63.3527560999
  0
ARC
  5
418
100
AcDbEntity
  8
DEFAULT_2
100
AcDbCircle
 62
8
  6
HIDDEN
 10
41.4287169101
 20
82.9019588382
 40
29.7507656761
100
AcDbArc
 50
62.6380707728
 51
63.0086404594
  0
ARC
  5
419
100
AcDbEntity
  8
DEFAULT_2
100
AcDbCircle
 62
8
  6
HIDDEN
 10
41.4287169112
 20
87.9019588405
 40
29.7507656736
100
AcDbArc
 50
62.6380707727
 51
63.0086404594
  0
ARC
  5
41A
100
AcDbEntity
  8
A_RUNDUNGEN
100
AcDbCircle
 62
7
  6
CONTINUOUS
 10
59.0610165302
 20
29.0501588689
 40
2.0
100
AcDbArc
 50
180.0
 51
270.0
  0
ARC
  5
41B
100
AcDbEntity
  8
A_RUNDUNGEN
100
AcDbCircle
 62
8
  6
HIDDEN
 10
58.7411637905
 20
36.4948479293
 40
0.25
100
AcDbArc
 50
180.0
 51
269.0
  0
ARC
  5
41C
100
AcDbEntity
  8
A_RUNDUNGEN
100
AcDbCircle
 62
8
  6
HIDDEN
 10
55.5411637905
 20
34.984627938
 40
0.25
100
AcDbArc
 50
180.0
 51
224.7499999931
  0
ARC
  5
41D
100
AcDbEntity
  8
A_RUNDUNGEN
100
AcDbCircle
 62
8
  6
HIDDEN
 10
55.8962374399
 20
34.6264420872
 40
0.25
100
AcDbArc
 50
224.75
 51
269.5
  0
ARC
  5
41E
100
AcDbEntity
  8
A_RUNDUNGEN
100
AcDbCircle
 62
8
  6
HIDDEN
 10
57.2825124221
 20
39.8084072759
 40
0.5
100
AcDbArc
 50
90.0
 51
179.0
  0
ARC
  5
41F
100
AcDbEntity
  8
A_RUNDUNGEN
100
AcDbCircle
 62
8
  6
HIDDEN
 10
55.5411637905
 20
36.975394574
 40
0.25
100
AcDbArc
 50
120.0
 51
180.0
  0
ARC
  5
420
100
AcDbEntity
  8
A_RUNDUNGEN
100
AcDbCircle
 62
8
  6
HIDDEN
 10
55.7911637905
 20
37.8612405186
 40
0.25
100
AcDbArc
 50
91.0
 51
180.0
  0
ARC
  5
421
100
AcDbEntity
  8
A_RUNDUNGEN
100
AcDbCircle
 62
8
  6
HIDDEN
 10
55.2911637905
 20
37.4084072759
 40
0.25
100
AcDbArc
 50
300.0
 51
360.0
  0
ARC
  5
422
100
AcDbEntity
  8
A_RUNDUNGEN
100
AcDbCircle
 62
8
  6
HIDDEN
 10
57.0761091178
 20
43.0417992327
 40
5.0
100
AcDbArc
 50
344.8168639699
 51
74.8168639699
  0
ARC
  5
423
100
AcDbEntity
  8
A_RUNDUNGEN
100
AcDbCircle
 62
8
  6
HIDDEN
 10
55.7911637905
 20
43.6555740332
 40
0.25
100
AcDbArc
 50
180.0
 51
269.0
  0
ARC
  5
424
100
AcDbEntity
  8
A_RUNDUNGEN
100
AcDbCircle
 62
8
  6
HIDDEN
 10
55.2911637905
 20
44.1084072759
 40
0.25
100
AcDbArc
 50
0.0
 51
60.0
  0
ARC
  5
425
100
AcDbEntity
  8
DEFAULT_2
100
AcDbCircle
 62
8
  6
HIDDEN
 10
58.3610165302
 20
37.2584072759
 40
1.75
100
AcDbArc
 50
148.6730870469
 51
213.1986417149
  0
ARC
  5
426
100
AcDbEntity
  8
DEFAULT_2
100
AcDbCircle
 62
8
  6
HIDDEN
 10
58.3610165302
 20
37.2584072759
 40
1.75
100
AcDbArc
 50
326.8013582851
 51
31.3269129531
  0
ARC
  5
427
100
AcDbEntity
  8
DEFAULT_2
100
AcDbCircle
 62
8
  6
HIDDEN
 10
58.3610165302
 20
37.2584072759
 40
0.875
100
AcDbArc
 50
199.2635824038
 51
340.7364175962
  0
ARC
  5
428
100
AcDbEntity
  8
A_RUNDUNGEN
100
AcDbCircle
 62
8
  6
HIDDEN
 10
59.699815159
 20
39.8084072759
 40
0.5
100
AcDbArc
 50
1.0
 51
90.0
  0
ARC
  5
429
100
AcDbEntity
  8
A_RUNDUNGEN
100
AcDbCircle
 62
8
  6
HIDDEN
 10
57.9911637905
 20
37.6496035794
 40
0.5
100
AcDbArc
 50
0.0
 51
91.0
  0
ARC
  5
42A
100
AcDbEntity
  8
A_RUNDUNGEN
100
AcDbCircle
 62
8
  6
HIDDEN
 10
58.0905649618
 20
43.802667184
 40
8.0
100
AcDbArc
 50
359.8168639699
 51
74.8168639699
  0
ARC
  5
42B
100
AcDbEntity
  8
A_RUNDUNGEN
100
AcDbCircle
 62
8
  6
HIDDEN
 10
57.9911637905
 20
43.8672109724
 40
0.5
100
AcDbArc
 50
269.0
 51
360.0
  0
ARC
  5
42C
100
AcDbEntity
  8
A_ACHSEN
100
AcDbCircle
 62
8
  6
HIDDEN
 10
63.0610163632
 20
34.5501589108
 40
3.0
100
AcDbArc
 50
164.8168639699
 51
359.8168639699
  0
CIRCLE
  5
42D
100
AcDbEntity
  8
DEFAULT_2
100
AcDbCircle
 62
8
  6
HIDDEN
 10
63.0610163632
 20
34.5501589108
 40
2.5
  0
CIRCLE
  5
42E
100
AcDbEntity
  8
DEFAULT_2
100
AcDbCircle
 62
8
  6
HIDDEN
 10
63.0610163632
 20
34.5501589108
 40
2.2
  0
CIRCLE
  5
42F
100
AcDbEntity
  8
DEFAULT_2
100
AcDbCircle
 62
8
  6
HIDDEN
 10
63.0610165302
 20
34.5501588689
 40
1.75
  0
ARC
  5
430
100
AcDbEntity
  8
DEFAULT_2
100
AcDbCircle
 62
8
  6
HIDDEN
 10
65.2511005671
 20
35.4860766854
 40
1.4359178324
100
AcDbArc
 50
267.6499329002
 51
269.9914842771
  0
ARC
  5
431
100
AcDbEntity
  8
A_RUNDUNGEN
100
AcDbCircle
 62
8
  6
HIDDEN
 10
64.8110165302
 20
32.5084072759
 40
0.25
100
AcDbArc
 50
270.0
 51
360.0
  0
ARC
  5
432
100
AcDbEntity
  8
A_RUNDUNGEN
100
AcDbCircle
 62
7
  6
CONTINUOUS
 10
64.8110165302
 20
30.0084072759
 40
0.25
100
AcDbArc
 50
0.0
 51
90.0
  0
ARC
  5
433
100
AcDbEntity
  8
A_ACHSEN
100
AcDbCircle
 62
8
  6
HIDDEN
 10
63.0610163872
 20
39.550158865
 40
3.0
100
AcDbArc
 50
194.9731096234
 51
22.9384096234
  0
CIRCLE
  5
434
100
AcDbEntity
  8
DEFAULT_2
100
AcDbCircle
 62
8
  6
HIDDEN
 10
63.0610163872
 20
39.550158865
 40
2.5
  0
CIRCLE
  5
435
100
AcDbEntity
  8
A_FASEN
100
AcDbCircle
 62
8
  6
HIDDEN
 10
63.0610163872
 20
39.550158865
 40
2.2
  0
CIRCLE
  5
436
100
AcDbEntity
  8
DEFAULT_2
100
AcDbCircle
 62
8
  6
HIDDEN
 10
63.0610163872
 20
39.550158865
 40
2.2
  0
CIRCLE
  5
437
100
AcDbEntity
  8
DEFAULT_2
100
AcDbCircle
 62
8
  6
HIDDEN
 10
63.0610165302
 20
39.5501588689
 40
1.75
  0
ARC
  5
438
100
AcDbEntity
  8
A_RUNDUNGEN
100
AcDbCircle
 62
8
  6
HIDDEN
 10
63.1911637905
 20
40.9083921419
 40
0.5
100
AcDbArc
 50
0.0
 51
89.6999999949
  0
ARC
  5
439
100
AcDbEntity
  8
A_RUNDUNGEN
100
AcDbCircle
 62
8
  6
HIDDEN
 10
55.7911637905
 20
44.8002416889
 40
0.5
100
AcDbArc
 50
95.0000001291
 51
180.0
  0
ARC
  5
43A
100
AcDbEntity
  8
A_RUNDUNGEN
100
AcDbCircle
 62
8
  6
HIDDEN
 10
55.5411637905
 20
44.5414199778
 40
0.25
100
AcDbArc
 50
180.0
 51
240.0
  0
ARC
  5
43B
100
AcDbEntity
  8
A_RUNDUNGEN
100
AcDbCircle
 62
8
  6
HIDDEN
 10
56.7911637905
 20
45.89155019
 40
0.5
100
AcDbArc
 50
275.0
 51
360.0
  0
ARC
  5
43C
100
AcDbEntity
  8
A_RUNDUNGEN
100
AcDbCircle
 62
8
  6
HIDDEN
 10
55.7911637905
 20
51.7165728629
 40
0.5
100
AcDbArc
 50
180.0
 51
265.0
  0
ARC
  5
43D
100
AcDbEntity
  8
A_RUNDUNGEN
100
AcDbCircle
 62
8
  6
HIDDEN
 10
55.5411637905
 20
51.975394574
 40
0.25
100
AcDbArc
 50
120.0
 51
180.0
  0
ARC
  5
43E
100
AcDbEntity
  8
A_RUNDUNGEN
100
AcDbCircle
 62
8
  6
HIDDEN
 10
56.7911637905
 20
50.6252643619
 40
0.5
100
AcDbArc
 50
0.0
 51
85.0
  0
ARC
  5
43F
100
AcDbEntity
  8
A_RUNDUNGEN
100
AcDbCircle
 62
8
  6
HIDDEN
 10
57.7911637905
 20
45.9084072759
 40
0.5
100
AcDbArc
 50
90.0
 51
179.9999994494
  0
ARC
  5
440
100
AcDbEntity
  8
A_RUNDUNGEN
100
AcDbCircle
 62
8
  6
HIDDEN
 10
58.7411637905
 20
45.0219666225
 40
0.25
100
AcDbArc
 50
91.0
 51
180.0
  0
ARC
  5
441
100
AcDbEntity
  8
A_RUNDUNGEN
100
AcDbCircle
 62
8
  6
HIDDEN
 10
57.7911637905
 20
50.6084072759
 40
0.5
100
AcDbArc
 50
180.0000005506
 51
270.0
  0
ARC
  5
442
100
AcDbEntity
  8
A_RUNDUNGEN
100
AcDbCircle
 62
8
  6
HIDDEN
 10
58.7411637905
 20
51.4948479293
 40
0.25
100
AcDbArc
 50
180.0
 51
269.0
  0
ARC
  5
443
100
AcDbEntity
  8
A_RUNDUNGEN
100
AcDbCircle
 62
8
  6
HIDDEN
 10
55.7911637905
 20
52.8612405186
 40
0.25
100
AcDbArc
 50
91.0
 51
180.0
  0
ARC
  5
444
100
AcDbEntity
  8
A_RUNDUNGEN
100
AcDbCircle
 62
8
  6
HIDDEN
 10
55.2911637905
 20
52.4084072759
 40
0.25
100
AcDbArc
 50
300.0
 51
360.0
  0
ARC
  5
445
100
AcDbEntity
  8
A_RUNDUNGEN
100
AcDbCircle
 62
8
  6
HIDDEN
 10
55.5411637905
 20
59.5414199778
 40
0.25
100
AcDbArc
 50
180.0
 51
240.0
  0
ARC
  5
446
100
AcDbEntity
  8
A_RUNDUNGEN
100
AcDbCircle
 62
8
  6
HIDDEN
 10
55.7911637905
 20
58.6555740332
 40
0.25
100
AcDbArc
 50
180.0
 51
269.0
  0
ARC
  5
447
100
AcDbEntity
  8
A_RUNDUNGEN
100
AcDbCircle
 62
8
  6
HIDDEN
 10
55.2911637905
 20
59.1084072759
 40
0.25
100
AcDbArc
 50
0.0
 51
60.0
  0
ARC
  5
448
100
AcDbEntity
  8
A_RUNDUNGEN
100
AcDbCircle
 62
8
  6
HIDDEN
 10
57.1911637905
 20
55.5770061963
 40
0.5
100
AcDbArc
 50
270.3
 51
360.0
  0
ARC
  5
449
100
AcDbEntity
  8
A_RUNDUNGEN
100
AcDbCircle
 62
8
  6
HIDDEN
 10
57.9911637905
 20
52.6496035794
 40
0.5
100
AcDbArc
 50
0.0
 51
91.0
  0
ARC
  5
44A
100
AcDbEntity
  8
A_RUNDUNGEN
100
AcDbCircle
 62
8
  6
HIDDEN
 10
57.9911637905
 20
58.8672109724
 40
0.5
100
AcDbArc
 50
269.0
 51
360.0
  0
ARC
  5
44B
100
AcDbEntity
  8
A_RUNDUNGEN
100
AcDbCircle
 62
8
  6
HIDDEN
 10
61.9840570093
 20
45.9084072759
 40
0.5
100
AcDbArc
 50
45.0000075022
 51
90.0
  0
ARC
  5
44C
100
AcDbEntity
  8
A_RUNDUNGEN
100
AcDbCircle
 62
8
  6
HIDDEN
 10
61.9840570093
 20
50.6084072759
 40
0.5
100
AcDbArc
 50
270.0
 51
314.9999924978
  0
ARC
  5
44D
100
AcDbEntity
  8
A_RUNDUNGEN
100
AcDbCircle
 62
8
  6
HIDDEN
 10
63.1911637905
 20
55.2584072759
 40
0.5
100
AcDbArc
 50
0.0
 51
90.0
  0
ARC
  5
44E
100
AcDbEntity
  8
A_RUNDUNGEN
100
AcDbCircle
 62
8
  6
HIDDEN
 10
63.1911637905
 20
55.60842241
 40
0.5
100
AcDbArc
 50
270.3
 51
360.0
  0
ARC
  5
44F
100
AcDbEntity
  8
A_RUNDUNGEN
100
AcDbCircle
 62
7
  6
CONTINUOUS
 10
76.0610165302
 20
29.0501588689
 40
2.0
100
AcDbArc
 50
270.0
 51
360.0
  0
ARC
  5
450
100
AcDbEntity
  8
A_RUNDUNGEN
100
AcDbCircle
 62
8
  6
HIDDEN
 10
69.0610165302
 20
41.5501588689
 40
1.0
100
AcDbArc
 50
89.1227142444
 51
143.0909724454
  0
ARC
  5
451
100
AcDbEntity
  8
A_RUNDUNGEN
100
AcDbCircle
 62
7
  6
CONTINUOUS
 10
69.0610165302
 20
41.5501588689
 40
1.0
100
AcDbArc
 50
143.0909724454
 51
180.0
  0
ARC
  5
452
100
AcDbEntity
  8
A_RUNDUNGEN
100
AcDbCircle
 62
7
  6
CONTINUOUS
 10
69.0610165302
 20
32.0501588689
 40
1.0
100
AcDbArc
 50
180.0
 51
270.0
  0
ARC
  5
453
100
AcDbEntity
  8
A_RUNDUNGEN
100
AcDbCircle
 62
8
  6
HIDDEN
 10
75.4953860144
 20
43.9501588689
 40
0.3
100
AcDbArc
 50
270.0
 51
35.0
  0
ARC
  5
454
100
AcDbEntity
  8
A_RUNDUNGEN
100
AcDbCircle
 62
7
  6
CONTINUOUS
 10
69.0574356913
 20
43.9501588689
 40
0.3
100
AcDbArc
 50
215.0
 51
270.0
  0
ARC
  5
455
100
AcDbEntity
  8
A_RUNDUNGEN
100
AcDbCircle
 62
8
  6
HIDDEN
 10
69.0695569524
 20
42.7501588689
 40
0.2
100
AcDbArc
 50
271.9607074675
 51
329.2479247021
  0
ARC
  5
456
100
AcDbEntity
  8
A_RUNDUNGEN
100
AcDbCircle
 62
7
  6
CONTINUOUS
 10
69.0695569524
 20
42.7501588689
 40
0.2
100
AcDbArc
 50
329.2479247021
 51
34.824489157
  0
ARC
  5
457
100
AcDbEntity
  8
A_RUNDUNGEN
100
AcDbCircle
 62
8
  6
HIDDEN
 10
74.0610165302
 20
51.0501588689
 40
4.0
100
AcDbArc
 50
0.0
 51
90.0
  0
ARC
  5
458
100
AcDbEntity
  8
A_RUNDUNGEN
100
AcDbCircle
 62
7
  6
CONTINUOUS
 10
69.0610165302
 20
45.1654576578
 40
1.0
100
AcDbArc
 50
180.0
 51
215.0
  0
ARC
  5
459
100
AcDbEntity
  8
A_RUNDUNGEN
100
AcDbCircle
 62
7
  6
CONTINUOUS
 10
73.3104494797
 20
45.8501588689
 40
1.0
100
AcDbArc
 50
35.0
 51
90.0
  0
ARC
  5
45A
100
AcDbEntity
  8
A_RUNDUNGEN
100
AcDbCircle
 62
7
  6
CONTINUOUS
 10
73.6385012497
 20
45.8501588689
 40
1.0
100
AcDbArc
 50
34.824489157
 51
90.0
  0
ARC
  5
45B
100
AcDbEntity
  8
A_RUNDUNGEN
100
AcDbCircle
 62
7
  6
CONTINUOUS
 10
68.5610165302
 20
46.3501588689
 40
0.5
100
AcDbArc
 50
90.0
 51
180.0
  0
ARC
  5
45C
100
AcDbEntity
  8
A_RUNDUNGEN
100
AcDbCircle
 62
7
  6
CONTINUOUS
 10
68.2610165302
 20
44.612882012
 40
0.2
100
AcDbArc
 50
180.0
 51
214.824489157
  0
ARC
  5
45D
100
AcDbEntity
  8
A_RUNDUNGEN
100
AcDbCircle
 62
8
  6
HIDDEN
 10
55.5411637905
 20
61.5321866139
 40
0.25
100
AcDbArc
 50
135.25
 51
180.0
  0
ARC
  5
45E
100
AcDbEntity
  8
A_RUNDUNGEN
100
AcDbCircle
 62
8
  6
HIDDEN
 10
55.8962374399
 20
61.8903724646
 40
0.25
100
AcDbArc
 50
90.5
 51
135.2500000171
  0
ARC
  5
45F
100
AcDbEntity
  8
A_RUNDUNGEN
100
AcDbCircle
 62
8
  6
HIDDEN
 10
58.7411637905
 20
60.0219666225
 40
0.25
100
AcDbArc
 50
91.0
 51
180.0
  0
ARC
  5
460
100
AcDbEntity
  8
DEFAULT_2
100
AcDbCircle
 62
8
  6
HIDDEN
 10
55.6925418288
 20
77.7765286835
 40
1.3335848221
100
AcDbArc
 50
219.2636346833
 51
225.1602144862
  0
ARC
  5
461
100
AcDbEntity
  8
DEFAULT_2
100
AcDbCircle
 62
8
  6
HIDDEN
 10
55.6904055111
 20
76.7422199671
 40
1.3307070227
100
AcDbArc
 50
134.8332823226
 51
140.76105334
  0
ARC
  5
462
100
AcDbEntity
  8
DEFAULT_2
100
AcDbCircle
 62
8
  6
HIDDEN
 10
55.711726976
 20
76.016536337
 40
1.3244916295
100
AcDbArc
 50
114.9653179619
 51
117.3871801674
  0
ARC
  5
463
100
AcDbEntity
  8
DEFAULT_2
100
AcDbCircle
 62
8
  6
HIDDEN
 10
55.7117269759
 20
78.5002782148
 40
1.3244916294
100
AcDbArc
 50
242.6128198326
 51
245.0346820382
  0
ARC
  5
464
100
AcDbEntity
  8
DEFAULT_2
100
AcDbCircle
 62
8
  6
HIDDEN
 10
55.6825210471
 20
77.7683772008
 40
1.3206673232
100
AcDbArc
 50
217.2693426698
 51
219.264972109
  0
ARC
  5
465
100
AcDbEntity
  8
DEFAULT_2
100
AcDbCircle
 62
8
  6
HIDDEN
 10
55.6822349382
 20
76.748673285
 40
1.3202967204
100
AcDbArc
 50
140.7536692779
 51
142.6865302043
  0
ARC
  5
466
100
AcDbEntity
  8
DEFAULT_2
100
AcDbCircle
 62
8
  6
HIDDEN
 10
55.6680163241
 20
76.7595408419
 40
1.3024005705
100
AcDbArc
 50
142.6876005771
 51
143.8680304465
  0
ARC
  5
467
100
AcDbEntity
  8
DEFAULT_2
100
AcDbCircle
 62
8
  6
HIDDEN
 10
55.692687706
 20
76.0552697414
 40
1.2813417687
100
AcDbArc
 50
114.9245390311
 51
117.4279648143
  0
ARC
  5
468
100
AcDbEntity
  8
DEFAULT_2
100
AcDbCircle
 62
8
  6
HIDDEN
 10
55.692687706
 20
78.4615448104
 40
1.2813417687
100
AcDbArc
 50
242.5720351857
 51
245.0754609689
  0
ARC
  5
469
100
AcDbEntity
  8
DEFAULT_2
100
AcDbCircle
 62
8
  6
HIDDEN
 10
55.4660741559
 20
77.9160884199
 40
0.6903138205
100
AcDbArc
 50
250.4501893424
 51
253.0931918745
  0
ARC
  5
46A
100
AcDbEntity
  8
DEFAULT_2
100
AcDbCircle
 62
8
  6
HIDDEN
 10
55.4660720286
 20
76.6007326649
 40
0.6903069513
100
AcDbArc
 50
106.9067968821
 51
109.549618253
  0
ARC
  5
46B
100
AcDbEntity
  8
DEFAULT_2
100
AcDbCircle
 62
8
  6
HIDDEN
 10
55.457961342
 20
76.6253609874
 40
0.6643846437
100
AcDbArc
 50
106.8552728461
 51
109.6009818722
  0
ARC
  5
46C
100
AcDbEntity
  8
DEFAULT_2
100
AcDbCircle
 62
8
  6
HIDDEN
 10
55.457961342
 20
77.8914535644
 40
0.6643846437
100
AcDbArc
 50
250.3990181277
 51
253.1447271539
  0
ARC
  5
46D
100
AcDbEntity
  8
DEFAULT_2
100
AcDbCircle
 62
8
  6
HIDDEN
 10
55.4319092508
 20
76.7106951793
 40
0.5751624796
100
AcDbArc
 50
105.7297232229
 51
106.8363273944
  0
ARC
  5
46E
100
AcDbEntity
  8
DEFAULT_2
100
AcDbCircle
 62
8
  6
HIDDEN
 10
55.43190925
 20
77.8061193696
 40
0.5751624766
100
AcDbArc
 50
253.1636726038
 51
254.2702769129
  0
ARC
  5
46F
100
AcDbEntity
  8
DEFAULT_2
100
AcDbCircle
 62
8
  6
HIDDEN
 10
54.8959884018
 20
87.8220726779
 40
0.4359060371
100
AcDbArc
 50
122.6405372164
 51
130.0028012487
  0
ARC
  5
470
100
AcDbEntity
  8
DEFAULT_2
100
AcDbCircle
 62
8
  6
HIDDEN
 10
54.8941130884
 20
87.8247202606
 40
0.4326651292
100
AcDbArc
 50
109.1479105588
 51
122.6205239138
  0
ARC
  5
471
100
AcDbEntity
  8
DEFAULT_2
100
AcDbCircle
 62
8
  6
HIDDEN
 10
55.3637428539
 20
77.4123610476
 40
0.1741799954
100
AcDbArc
 50
269.9676604368
 51
272.153955435
  0
ARC
  5
472
100
AcDbEntity
  8
A_RUNDUNGEN
100
AcDbCircle
 62
8
  6
HIDDEN
 10
63.1911637905
 20
61.5584072759
 40
0.5
100
AcDbArc
 50
270.0
 51
360.0
  0
ARC
  5
473
100
AcDbEntity
  8
A_RUNDUNGEN
100
AcDbCircle
 62
8
  6
HIDDEN
 10
63.1911637905
 20
61.6817269084
 40
0.5
100
AcDbArc
 50
270.3
 51
360.0
  0
ARC
  5
474
100
AcDbEntity
  8
DEFAULT_2
100
AcDbCircle
 62
8
  6
HIDDEN
 10
29.5304793569
 20
100.2095993619
 40
34.7174394324
100
AcDbArc
 50
316.592564086
 51
317.4404257684
  0
ARC
  5
475
100
AcDbEntity
  8
DEFAULT_2
100
AcDbCircle
 62
8
  6
HIDDEN
 10
29.5304793569
 20
95.2095993619
 40
34.7174394325
100
AcDbArc
 50
316.592564086
 51
317.4404257684
  0
ARC
  5
476
100
AcDbEntity
  8
DEFAULT_2
100
AcDbCircle
 62
8
  6
HIDDEN
 10
29.5304793572
 20
91.3072151902
 40
34.7174394319
100
AcDbArc
 50
42.5595742316
 51
43.407435914
  0
ARC
  5
477
100
AcDbEntity
  8
DEFAULT_2
100
AcDbCircle
 62
8
  6
HIDDEN
 10
31.1313357737
 20
101.4724815744
 40
33.5223238475
100
AcDbArc
 50
314.7997194602
 51
315.6497074827
  0
ARC
  5
478
100
AcDbEntity
  8
DEFAULT_2
100
AcDbCircle
 62
8
  6
HIDDEN
 10
31.1313357737
 20
96.4724815745
 40
33.5223238477
100
AcDbArc
 50
314.7997194602
 51
315.6497074827
  0
ARC
  5
479
100
AcDbEntity
  8
DEFAULT_2
100
AcDbCircle
 62
8
  6
HIDDEN
 10
29.5304793569
 20
108.2095993619
 40
34.7174394324
100
AcDbArc
 50
316.592564086
 51
317.4404257684
  0
ARC
  5
47A
100
AcDbEntity
  8
DEFAULT_2
100
AcDbCircle
 62
8
  6
HIDDEN
 10
29.5304793569
 20
116.2095993619
 40
34.7174394325
100
AcDbArc
 50
316.592564086
 51
317.4404257684
  0
ARC
  5
47B
100
AcDbEntity
  8
DEFAULT_2
100
AcDbCircle
 62
8
  6
HIDDEN
 10
29.530479357
 20
111.2095993618
 40
34.7174394322
100
AcDbArc
 50
316.592564086
 51
317.4404257684
  0
ARC
  5
47C
100
AcDbEntity
  8
DEFAULT_2
100
AcDbCircle
 62
8
  6
HIDDEN
 10
31.1313357736
 20
109.4724815746
 40
33.5223238478
100
AcDbArc
 50
314.7997194602
 51
315.6497074827
  0
ARC
  5
47D
100
AcDbEntity
  8
DEFAULT_2
100
AcDbCircle
 62
8
  6
HIDDEN
 10
31.1313357738
 20
112.4724815743
 40
33.5223238474
100
AcDbArc
 50
314.7997194602
 51
315.6497074827
  0
ARC
  5
47E
100
AcDbEntity
  8
DEFAULT_2
100
AcDbCircle
 62
8
  6
HIDDEN
 10
31.1313357742
 20
117.472481574
 40
33.5223238469
100
AcDbArc
 50
314.7997194601
 51
315.6497074827
  0
ARC
  5
47F
100
AcDbEntity
  8
DEFAULT_2
100
AcDbCircle
 62
8
  6
HIDDEN
 10
38.4945108757
 20
104.3742475833
 40
36.2145230508
100
AcDbArc
 50
296.6748753433
 51
296.9924073643
  0
ARC
  5
480
100
AcDbEntity
  8
DEFAULT_2
100
AcDbCircle
 62
8
  6
HIDDEN
 10
39.51858209
 20
102.3427063885
 40
33.9394688835
100
AcDbArc
 50
296.6697036229
 51
297.3333555443
  0
ARC
  5
481
100
AcDbEntity
  8
DEFAULT_2
100
AcDbCircle
 62
8
  6
HIDDEN
 10
41.4287169095
 20
103.6148557148
 40
29.7507656774
100
AcDbArc
 50
296.9913595406
 51
297.3619292272
  0
ARC
  5
482
100
AcDbEntity
  8
DEFAULT_2
100
AcDbCircle
 62
8
  6
HIDDEN
 10
41.4287169103
 20
98.6148557132
 40
29.7507656757
100
AcDbArc
 50
296.9913595406
 51
297.3619292273
  0
ARC
  5
483
100
AcDbEntity
  8
DEFAULT_2
100
AcDbCircle
 62
8
  6
HIDDEN
 10
41.1665721369
 20
119.3479949169
 40
41.4067256444
100
AcDbArc
 50
289.1536060349
 51
289.6674869023
  0
ARC
  5
484
100
AcDbEntity
  8
DEFAULT_2
100
AcDbCircle
 62
8
  6
HIDDEN
 10
41.1665721369
 20
114.3479949166
 40
41.4067256441
100
AcDbArc
 50
289.1536060349
 51
289.6674869023
  0
ARC
  5
485
100
AcDbEntity
  8
DEFAULT_2
100
AcDbCircle
 62
8
  6
HIDDEN
 10
42.0571883336
 20
116.8204382308
 40
38.7268775907
100
AcDbArc
 50
289.1358259692
 51
289.685266968
  0
ARC
  5
486
100
AcDbEntity
  8
DEFAULT_2
100
AcDbCircle
 62
8
  6
HIDDEN
 10
42.0571883336
 20
111.8204382308
 40
38.7268775907
100
AcDbArc
 50
289.1358259692
 51
289.685266968
  0
ARC
  5
487
100
AcDbEntity
  8
DEFAULT_2
100
AcDbCircle
 62
8
  6
HIDDEN
 10
38.4945108742
 20
117.3742475862
 40
36.2145230541
100
AcDbArc
 50
296.6748753433
 51
296.9924073643
  0
ARC
  5
488
100
AcDbEntity
  8
DEFAULT_2
100
AcDbCircle
 62
8
  6
HIDDEN
 10
38.4945108752
 20
109.3742475843
 40
36.2145230519
100
AcDbArc
 50
296.6748753433
 51
296.9924073643
  0
ARC
  5
489
100
AcDbEntity
  8
DEFAULT_2
100
AcDbCircle
 62
8
  6
HIDDEN
 10
38.4945108757
 20
120.3742475834
 40
36.2145230509
100
AcDbArc
 50
296.6748753433
 51
296.9924073643
  0
ARC
  5
48A
100
AcDbEntity
  8
DEFAULT_2
100
AcDbCircle
 62
8
  6
HIDDEN
 10
39.5185820901
 20
118.3427063882
 40
33.9394688832
100
AcDbArc
 50
296.6697036229
 51
297.3333555443
  0
ARC
  5
48B
100
AcDbEntity
  8
DEFAULT_2
100
AcDbCircle
 62
8
  6
HIDDEN
 10
39.5185820903
 20
107.3427063877
 40
33.9394688827
100
AcDbArc
 50
296.6697036229
 51
297.3333555443
  0
ARC
  5
48C
100
AcDbEntity
  8
DEFAULT_2
100
AcDbCircle
 62
8
  6
HIDDEN
 10
39.5185820908
 20
115.3427063868
 40
33.9394688817
100
AcDbArc
 50
296.6697036229
 51
297.3333555443
  0
ARC
  5
48D
100
AcDbEntity
  8
DEFAULT_2
100
AcDbCircle
 62
8
  6
HIDDEN
 10
41.4287169091
 20
111.6148557154
 40
29.7507656781
100
AcDbArc
 50
296.9913595406
 51
297.3619292272
  0
ARC
  5
48E
100
AcDbEntity
  8
DEFAULT_2
100
AcDbCircle
 62
8
  6
HIDDEN
 10
41.4287169091
 20
114.6148557154
 40
29.7507656781
100
AcDbArc
 50
296.9913595406
 51
297.3619292272
  0
ARC
  5
48F
100
AcDbEntity
  8
DEFAULT_2
100
AcDbCircle
 62
8
  6
HIDDEN
 10
41.4287169099
 20
119.6148557139
 40
29.7507656764
100
AcDbArc
 50
296.9913595406
 51
297.3619292272
  0
ARC
  5
490
100
AcDbEntity
  8
DEFAULT_2
100
AcDbCircle
 62
8
  6
HIDDEN
 10
29.5304793571
 20
132.2095993618
 40
34.7174394322
100
AcDbArc
 50
316.592564086
 51
317.4404257684
  0
ARC
  5
491
100
AcDbEntity
  8
DEFAULT_2
100
AcDbCircle
 62
8
  6
HIDDEN
 10
29.5304793572
 20
127.2095993616
 40
34.717439432
100
AcDbArc
 50
316.592564086
 51
317.4404257684
  0
ARC
  5
492
100
AcDbEntity
  8
DEFAULT_2
100
AcDbCircle
 62
8
  6
HIDDEN
 10
31.1313357736
 20
128.4724815746
 40
33.5223238478
100
AcDbArc
 50
314.7997194602
 51
315.6497074827
  0
ARC
  5
493
100
AcDbEntity
  8
DEFAULT_2
100
AcDbCircle
 62
8
  6
HIDDEN
 10
31.1313357739
 20
133.4724815742
 40
33.5223238473
100
AcDbArc
 50
314.7997194602
 51
315.6497074827
  0
ARC
  5
494
100
AcDbEntity
  8
DEFAULT_2
100
AcDbCircle
 62
8
  6
HIDDEN
 10
40.232241806
 20
130.0284034324
 40
44.2453086758
100
AcDbArc
 50
289.1576994014
 51
289.4032309801
  0
ARC
  5
495
100
AcDbEntity
  8
DEFAULT_2
100
AcDbCircle
 62
8
  6
HIDDEN
 10
41.1665721355
 20
127.3479949206
 40
41.4067256483
100
AcDbArc
 50
289.1536060349
 51
289.6674869023
  0
ARC
  5
496
100
AcDbEntity
  8
DEFAULT_2
100
AcDbCircle
 62
8
  6
HIDDEN
 10
41.1665721369
 20
130.3479949169
 40
41.4067256444
100
AcDbArc
 50
289.1536060349
 51
289.6674869023
  0
ARC
  5
497
100
AcDbEntity
  8
DEFAULT_2
100
AcDbCircle
 62
8
  6
HIDDEN
 10
41.1665721371
 20
135.3479949163
 40
41.4067256437
100
AcDbArc
 50
289.1536060349
 51
289.6674869023
  0
ARC
  5
498
100
AcDbEntity
  8
DEFAULT_2
100
AcDbCircle
 62
8
  6
HIDDEN
 10
42.0571883329
 20
124.8204382328
 40
38.7268775929
100
AcDbArc
 50
289.1358259692
 51
289.6852669679
  0
ARC
  5
499
100
AcDbEntity
  8
DEFAULT_2
100
AcDbCircle
 62
8
  6
HIDDEN
 10
42.0571883333
 20
127.8204382317
 40
38.7268775916
100
AcDbArc
 50
289.1358259692
 51
289.685266968
  0
ARC
  5
49A
100
AcDbEntity
  8
DEFAULT_2
100
AcDbCircle
 62
8
  6
HIDDEN
 10
42.0571883334
 20
132.8204382313
 40
38.7268775912
100
AcDbArc
 50
289.1358259692
 51
289.685266968
  0
ARC
  5
49B
100
AcDbEntity
  8
DEFAULT_2
100
AcDbCircle
 62
8
  6
HIDDEN
 10
42.5229599676
 20
123.5214647232
 40
37.3469291799
100
AcDbArc
 50
289.4048937866
 51
289.5996400429
  0
ARC
  5
49C
100
AcDbEntity
  8
DEFAULT_2
100
AcDbCircle
 62
8
  6
HIDDEN
 10
38.4945108757
 20
136.3742475834
 40
36.2145230509
100
AcDbArc
 50
296.6748753433
 51
296.9924073643
  0
ARC
  5
49D
100
AcDbEntity
  8
DEFAULT_2
100
AcDbCircle
 62
8
  6
HIDDEN
 10
38.4945108767
 20
125.3742475814
 40
36.2145230487
100
AcDbArc
 50
296.6748753433
 51
296.9924073643
  0
ARC
  5
49E
100
AcDbEntity
  8
DEFAULT_2
100
AcDbCircle
 62
8
  6
HIDDEN
 10
39.5185820895
 20
123.3427063894
 40
33.9394688846
100
AcDbArc
 50
296.6697036229
 51
297.3333555443
  0
ARC
  5
49F
100
AcDbEntity
  8
DEFAULT_2
100
AcDbCircle
 62
8
  6
HIDDEN
 10
39.5185820897
 20
134.342706389
 40
33.9394688841
100
AcDbArc
 50
296.6697036229
 51
297.3333555443
  0
ARC
  5
4A0
100
AcDbEntity
  8
DEFAULT_2
100
AcDbCircle
 62
8
  6
HIDDEN
 10
41.4287169103
 20
130.6148557132
 40
29.7507656756
100
AcDbArc
 50
296.9913595406
 51
297.3619292272
  0
ARC
  5
4A1
100
AcDbEntity
  8
DEFAULT_2
100
AcDbCircle
 62
8
  6
HIDDEN
 10
41.4287169112
 20
135.6148557114
 40
29.7507656736
100
AcDbArc
 50
296.9913595406
 51
297.3619292273
  0
ARC
  5
4A2
100
AcDbEntity
  8
DEFAULT_2
100
AcDbCircle
 62
8
  6
HIDDEN
 10
41.1665721369
 20
146.3479949167
 40
41.4067256442
100
AcDbArc
 50
289.1536060349
 51
289.6674869023
  0
ARC
  5
4A3
100
AcDbEntity
  8
DEFAULT_2
100
AcDbCircle
 62
8
  6
HIDDEN
 10
41.1665721372
 20
151.3479949161
 40
41.4067256435
100
AcDbArc
 50
289.1536060349
 51
289.6674869023
  0
ARC
  5
4A4
100
AcDbEntity
  8
DEFAULT_2
100
AcDbCircle
 62
8
  6
HIDDEN
 10
42.0571883333
 20
143.8204382317
 40
38.7268775916
100
AcDbArc
 50
289.1358259692
 51
289.685266968
  0
ARC
  5
4A5
100
AcDbEntity
  8
DEFAULT_2
100
AcDbCircle
 62
8
  6
HIDDEN
 10
42.0571883339
 20
148.8204382299
 40
38.7268775897
100
AcDbArc
 50
289.1358259692
 51
289.685266968
  0
ARC
  5
4A6
100
AcDbEntity
  8
DEFAULT_2
100
AcDbCircle
 62
8
  6
HIDDEN
 10
38.4945108772
 20
141.3742475803
 40
36.2145230475
100
AcDbArc
 50
296.6748753433
 51
296.9924073643
  0
ARC
  5
4A7
100
AcDbEntity
  8
DEFAULT_2
100
AcDbCircle
 62
8
  6
HIDDEN
 10
39.5185820902
 20
139.3427063881
 40
33.9394688831
100
AcDbArc
 50
296.6697036229
 51
297.3333555443
  0
ARC
  5
4A8
100
AcDbEntity
  8
DEFAULT_2
100
AcDbCircle
 62
8
  6
HIDDEN
 10
54.8967734423
 20
90.695808433
 40
0.4372276094
100
AcDbArc
 50
230.0199555706
 51
237.347565185
  0
ARC
  5
4A9
100
AcDbEntity
  8
DEFAULT_2
100
AcDbCircle
 62
8
  6
HIDDEN
 10
54.8937040986
 20
90.6912516072
 40
0.4317349288
100
AcDbArc
 50
237.3642422123
 51
250.8666816739
  0
ARC
  5
4AA
100
AcDbEntity
  8
DEFAULT_2
100
AcDbCircle
 62
8
  6
HIDDEN
 10
55.6925418288
 20
93.7765286835
 40
1.3335848221
100
AcDbArc
 50
219.2636346833
 51
225.1602144862
  0
ARC
  5
4AB
100
AcDbEntity
  8
DEFAULT_2
100
AcDbCircle
 62
8
  6
HIDDEN
 10
55.6904055111
 20
92.7422199671
 40
1.3307070227
100
AcDbArc
 50
134.8332823226
 51
140.76105334
  0
ARC
  5
4AC
100
AcDbEntity
  8
DEFAULT_2
100
AcDbCircle
 62
8
  6
HIDDEN
 10
55.711726976
 20
92.016536337
 40
1.3244916295
100
AcDbArc
 50
114.9653179619
 51
117.3871801674
  0
ARC
  5
4AD
100
AcDbEntity
  8
DEFAULT_2
100
AcDbCircle
 62
8
  6
HIDDEN
 10
55.7117269759
 20
94.5002782147
 40
1.3244916294
100
AcDbArc
 50
242.6128198325
 51
245.0346820382
  0
ARC
  5
4AE
100
AcDbEntity
  8
DEFAULT_2
100
AcDbCircle
 62
8
  6
HIDDEN
 10
55.6825210471
 20
93.7683772007
 40
1.3206673231
100
AcDbArc
 50
217.2693426697
 51
219.2649721091
  0
ARC
  5
4AF
100
AcDbEntity
  8
DEFAULT_2
100
AcDbCircle
 62
8
  6
HIDDEN
 10
55.6822349382
 20
92.748673285
 40
1.3202967205
100
AcDbArc
 50
140.753669278
 51
142.6865302043
  0
ARC
  5
4B0
100
AcDbEntity
  8
DEFAULT_2
100
AcDbCircle
 62
8
  6
HIDDEN
 10
55.6680163243
 20
92.7595408417
 40
1.3024005708
100
AcDbArc
 50
142.6876005772
 51
143.8680304464
  0
ARC
  5
4B1
100
AcDbEntity
  8
DEFAULT_2
100
AcDbCircle
 62
8
  6
HIDDEN
 10
55.6926877059
 20
92.0552697415
 40
1.2813417686
100
AcDbArc
 50
114.9245390311
 51
117.4279648144
  0
ARC
  5
4B2
100
AcDbEntity
  8
DEFAULT_2
100
AcDbCircle
 62
8
  6
HIDDEN
 10
55.692687706
 20
94.4615448104
 40
1.2813417686
100
AcDbArc
 50
242.5720351856
 51
245.0754609689
  0
ARC
  5
4B3
100
AcDbEntity
  8
DEFAULT_2
100
AcDbCircle
 62
8
  6
HIDDEN
 10
55.4660741559
 20
93.9160884198
 40
0.6903138204
100
AcDbArc
 50
250.4501893422
 51
253.0931918747
  0
ARC
  5
4B4
100
AcDbEntity
  8
DEFAULT_2
100
AcDbCircle
 62
8
  6
HIDDEN
 10
55.4660720286
 20
92.6007326648
 40
0.6903069513
100
AcDbArc
 50
106.9067968822
 51
109.5496182529
  0
ARC
  5
4B5
100
AcDbEntity
  8
DEFAULT_2
100
AcDbCircle
 62
8
  6
HIDDEN
 10
55.457961342
 20
92.6253609874
 40
0.6643846437
100
AcDbArc
 50
106.8552728461
 51
109.6009818723
  0
ARC
  5
4B6
100
AcDbEntity
  8
DEFAULT_2
100
AcDbCircle
 62
8
  6
HIDDEN
 10
55.457961342
 20
93.8914535644
 40
0.6643846437
100
AcDbArc
 50
250.3990181277
 51
253.144727154
  0
ARC
  5
4B7
100
AcDbEntity
  8
DEFAULT_2
100
AcDbCircle
 62
8
  6
HIDDEN
 10
55.4319092495
 20
93.806119368
 40
0.5751624748
100
AcDbArc
 50
253.1636726024
 51
254.2702769653
  0
ARC
  5
4B8
100
AcDbEntity
  8
DEFAULT_2
100
AcDbCircle
 62
8
  6
HIDDEN
 10
55.4319092481
 20
92.7106951886
 40
0.5751624699
100
AcDbArc
 50
105.7297227928
 51
106.8363274006
  0
ARC
  5
4B9
100
AcDbEntity
  8
DEFAULT_2
100
AcDbCircle
 62
8
  6
HIDDEN
 10
55.3637428539
 20
93.4123610476
 40
0.1741799954
100
AcDbArc
 50
269.9676604367
 51
272.1539554352
  0
ARC
  5
4BA
100
AcDbEntity
  8
DEFAULT_2
100
AcDbCircle
 62
8
  6
HIDDEN
 10
55.6925418288
 20
109.7765286835
 40
1.3335848221
100
AcDbArc
 50
219.2636346833
 51
225.1602144862
  0
ARC
  5
4BB
100
AcDbEntity
  8
DEFAULT_2
100
AcDbCircle
 62
8
  6
HIDDEN
 10
55.6904055111
 20
108.7422199671
 40
1.3307070227
100
AcDbArc
 50
134.8332823226
 51
140.7610533401
  0
ARC
  5
4BC
100
AcDbEntity
  8
DEFAULT_2
100
AcDbCircle
 62
8
  6
HIDDEN
 10
55.7117269759
 20
110.5002782148
 40
1.3244916294
100
AcDbArc
 50
242.6128198326
 51
245.0346820382
  0
ARC
  5
4BD
100
AcDbEntity
  8
DEFAULT_2
100
AcDbCircle
 62
8
  6
HIDDEN
 10
55.7117269759
 20
108.0165363372
 40
1.3244916293
100
AcDbArc
 50
114.9653179617
 51
117.3871801675
  0
ARC
  5
4BE
100
AcDbEntity
  8
DEFAULT_2
100
AcDbCircle
 62
8
  6
HIDDEN
 10
55.6825210471
 20
109.7683772007
 40
1.3206673231
100
AcDbArc
 50
217.2693426697
 51
219.2649721091
  0
ARC
  5
4BF
100
AcDbEntity
  8
DEFAULT_2
100
AcDbCircle
 62
8
  6
HIDDEN
 10
55.6822349382
 20
108.748673285
 40
1.3202967204
100
AcDbArc
 50
140.7536692779
 51
142.6865302044
  0
ARC
  5
4C0
100
AcDbEntity
  8
DEFAULT_2
100
AcDbCircle
 62
8
  6
HIDDEN
 10
55.668016324
 20
108.7595408419
 40
1.3024005705
100
AcDbArc
 50
142.687600577
 51
143.8680304465
  0
ARC
  5
4C1
100
AcDbEntity
  8
DEFAULT_2
100
AcDbCircle
 62
8
  6
HIDDEN
 10
55.692687706
 20
110.4615448104
 40
1.2813417687
100
AcDbArc
 50
242.5720351856
 51
245.0754609689
  0
ARC
  5
4C2
100
AcDbEntity
  8
DEFAULT_2
100
AcDbCircle
 62
8
  6
HIDDEN
 10
55.6926877059
 20
108.0552697415
 40
1.2813417685
100
AcDbArc
 50
114.924539031
 51
117.4279648145
  0
ARC
  5
4C3
100
AcDbEntity
  8
DEFAULT_2
100
AcDbCircle
 62
8
  6
HIDDEN
 10
55.4660741559
 20
109.9160884199
 40
0.6903138205
100
AcDbArc
 50
250.4501893424
 51
253.0931918745
  0
ARC
  5
4C4
100
AcDbEntity
  8
DEFAULT_2
100
AcDbCircle
 62
8
  6
HIDDEN
 10
55.4660720286
 20
108.6007326649
 40
0.6903069512
100
AcDbArc
 50
106.906796882
 51
109.5496182531
  0
ARC
  5
4C5
100
AcDbEntity
  8
DEFAULT_2
100
AcDbCircle
 62
8
  6
HIDDEN
 10
55.457961342
 20
109.8914535644
 40
0.6643846436
100
AcDbArc
 50
250.3990181276
 51
253.144727154
  0
ARC
  5
4C6
100
AcDbEntity
  8
DEFAULT_2
100
AcDbCircle
 62
8
  6
HIDDEN
 10
55.457961342
 20
108.6253609875
 40
0.6643846436
100
AcDbArc
 50
106.8552728459
 51
109.6009818723
  0
ARC
  5
4C7
100
AcDbEntity
  8
DEFAULT_2
100
AcDbCircle
 62
8
  6
HIDDEN
 10
55.4319092503
 20
109.8061193706
 40
0.5751624776
100
AcDbArc
 50
253.1636726043
 51
254.2702768691
  0
ARC
  5
4C8
100
AcDbEntity
  8
DEFAULT_2
100
AcDbCircle
 62
8
  6
HIDDEN
 10
55.4319092488
 20
108.710695186
 40
0.5751624726
100
AcDbArc
 50
105.7297229371
 51
106.8363273989
  0
ARC
  5
4C9
100
AcDbEntity
  8
DEFAULT_2
100
AcDbCircle
 62
8
  6
HIDDEN
 10
55.3637428539
 20
109.4123610476
 40
0.1741799954
100
AcDbArc
 50
269.9676604367
 51
272.1539554352
  0
ARC
  5
4CA
100
AcDbEntity
  8
A_RUNDUNGEN
100
AcDbCircle
 62
8
  6
HIDDEN
 10
123.9569726834
 20
48.73266676
 40
66.6658166104
100
AcDbArc
 50
180.0275693117
 51
180.1829780698
  0
SPLINE
  5
4CB
100
AcDbEntity
  8
DEFAULT_2
100
AcDbSpline
 62
8
  6
HIDDEN
 70
0
 71
3
 72
11
 73
7
 74
0
 42
0.0000001
 43
0.0000001
 44
0.0000000001
 40
0.0
 40
0.0
 40
0.0
 40
0.0
 40
0.319070777
 40
0.5955005063
 40
0.822272746
 40
1.0
 40
1.0
 40
1.0
 40
1.0
 10
66.5610165302
 20
34.9655157263
 30
0.0
 10
66.4728721654
 20
34.8708476197
 30
0.0
 10
66.312663098
 20
34.6902336468
 30
0.0
 10
66.0946497527
 20
34.4379056314
 30
0.0
 10
65.9052268067
 20
34.2373242626
 30
0.0
 10
65.7749742281
 20
34.1344704239
 30
0.0
 10
65.7113396734
 20
34.1006791463
 30
0.0
  0
SPLINE
  5
4CC
100
AcDbEntity
  8
DEFAULT_2
100
AcDbSpline
 62
8
  6
HIDDEN
 70
0
 71
3
 72
15
 73
11
 74
0
 42
0.0000001
 43
0.0000001
 44
0.0000000001
 40
0.0
 40
0.0
 40
0.0
 40
0.0
 40
0.1445732394
 40
0.2885555385
 40
0.430437509
 40
0.5671584802
 40
0.694564099
 40
0.8091624626
 40
0.9099753501
 40
1.0
 40
1.0
 40
1.0
 40
1.0
 10
61.1069097807
 20
35.0501588689
 30
0.0
 10
61.3141028299
 20
35.0501588689
 30
0.0
 10
61.7278500031
 20
35.0376645261
 30
0.0
 10
62.3416414929
 20
34.967251294
 30
0.0
 10
62.9337806232
 20
34.8339822402
 30
0.0
 10
63.4847730007
 20
34.6440277692
 30
0.0
 10
63.9832376557
 20
34.4289945823
 30
0.0
 10
64.4331633904
 20
34.2315915075
 30
0.0
 10
64.848075458
 20
34.0888817035
 30
0.0
 10
65.1218696241
 20
34.0501588689
 30
0.0
 10
65.2508871504
 20
34.0501588689
 30
0.0
  0
SPLINE
  5
4CD
100
AcDbEntity
  8
DEFAULT_2
100
AcDbSpline
 62
8
  6
HIDDEN
 70
0
 71
3
 72
16
 73
12
 74
0
 42
0.0000001
 43
0.0000001
 44
0.0000000001
 40
0.0
 40
0.0
 40
0.0
 40
0.0
 40
0.0779780704
 40
0.1152465926
 40
0.1551012447
 40
0.2005712454
 40
0.2535921943
 40
0.382042585
 40
0.5317418638
 40
0.6897403124
 40
1.0
 40
1.0
 40
1.0
 40
1.0
 10
54.5703032289
 20
76.9602961267
 30
0.0
 10
54.5471349673
 20
76.960292185
 30
0.0
 10
54.5114212917
 20
76.9666286397
 30
0.0
 10
54.4743222924
 20
76.995360404
 30
0.0
 10
54.4543098622
 20
77.0265472205
 30
0.0
 10
54.4426966988
 20
77.0664347119
 30
0.0
 10
54.438737579
 20
77.1341561164
 30
0.0
 10
54.4579602668
 20
77.2319486316
 30
0.0
 10
54.5063729468
 20
77.3525737082
 30
0.0
 10
54.5977740122
 20
77.5122801682
 30
0.0
 10
54.6868148751
 20
77.6209220183
 30
0.0
 10
54.7521954872
 20
77.6859058954
 30
0.0
  0
SPLINE
  5
4CE
100
AcDbEntity
  8
DEFAULT_2
100
AcDbSpline
 62
8
  6
HIDDEN
 70
0
 71
3
 72
16
 73
12
 74
0
 42
0.0000001
 43
0.0000001
 44
0.0000000001
 40
0.0
 40
0.0
 40
0.0
 40
0.0
 40
0.0779780704
 40
0.1152465926
 40
0.1551012447
 40
0.2005712454
 40
0.2535921943
 40
0.382042585
 40
0.5317418638
 40
0.6897403124
 40
1.0
 40
1.0
 40
1.0
 40
1.0
 10
54.5703032289
 20
84.9602961267
 30
0.0
 10
54.5471349673
 20
84.960292185
 30
0.0
 10
54.5114212917
 20
84.9666286397
 30
0.0
 10
54.4743222924
 20
84.995360404
 30
0.0
 10
54.4543098622
 20
85.0265472205
 30
0.0
 10
54.4426966988
 20
85.0664347119
 30
0.0
 10
54.438737579
 20
85.1341561164
 30
0.0
 10
54.4579602668
 20
85.2319486316
 30
0.0
 10
54.5063729468
 20
85.3525737082
 30
0.0
 10
54.5977740122
 20
85.5122801682
 30
0.0
 10
54.6868148751
 20
85.6209220183
 30
0.0
 10
54.7521954872
 20
85.6859058954
 30
0.0
  0
SPLINE
  5
4CF
100
AcDbEntity
  8
DEFAULT_2
100
AcDbSpline
 62
8
  6
HIDDEN
 70
0
 71
3
 72
16
 73
12
 74
0
 42
0.0000001
 43
0.0000001
 44
0.0000000001
 40
0.0
 40
0.0
 40
0.0
 40
0.0
 40
0.0779780704
 40
0.1152465926
 40
0.1551012447
 40
0.2005712454
 40
0.2535921943
 40
0.382042585
 40
0.5317418638
 40
0.6897403124
 40
1.0
 40
1.0
 40
1.0
 40
1.0
 10
54.5703032289
 20
92.9602961267
 30
0.0
 10
54.5471349673
 20
92.960292185
 30
0.0
 10
54.5114212917
 20
92.9666286397
 30
0.0
 10
54.4743222924
 20
92.995360404
 30
0.0
 10
54.4543098622
 20
93.0265472205
 30
0.0
 10
54.4426966988
 20
93.0664347119
 30
0.0
 10
54.438737579
 20
93.1341561164
 30
0.0
 10
54.4579602668
 20
93.2319486316
 30
0.0
 10
54.5063729468
 20
93.3525737082
 30
0.0
 10
54.5977740122
 20
93.5122801682
 30
0.0
 10
54.6868148751
 20
93.6209220183
 30
0.0
 10
54.7521954872
 20
93.6859058954
 30
0.0
  0
SPLINE
  5
4D0
100
AcDbEntity
  8
DEFAULT_2
100
AcDbSpline
 62
8
  6
HIDDEN
 70
0
 71
3
 72
18
 73
14
 74
0
 42
0.0000001
 43
0.0000001
 44
0.0000000001
 40
0.0
 40
0.0
 40
0.0
 40
0.0
 40
0.0390110999
 40
0.0723469459
 40
0.1020765718
 40
0.1323862157
 40
0.1681112738
 40
0.2121024505
 40
0.3268392353
 40
0.4714377711
 40
0.6362809121
 40
0.8141582753
 40
1.0
 40
1.0
 40
1.0
 40
1.0
 10
55.3636445552
 20
77.2381810663
 30
0.0
 10
55.372929939
 20
77.2381794405
 30
0.0
 10
55.3902210547
 20
77.239418146
 30
0.0
 10
55.4136900137
 20
77.2469300686
 30
0.0
 10
55.4315418376
 20
77.2613241065
 30
0.0
 10
55.4410972096
 20
77.2828633806
 30
0.0
 10
55.4417682425
 20
77.3094776886
 30
0.0
 10
55.4316069577
 20
77.3548998122
 30
0.0
 10
55.3990591205
 20
77.4201553945
 30
0.0
 10
55.3430919291
 20
77.5041483314
 30
0.0
 10
55.2717791187
 20
77.5957741257
 30
0.0
 10
55.190287797
 20
77.6916281807
 30
0.0
 10
55.1323625974
 20
77.7559839447
 30
0.0
 10
55.1024593349
 20
77.7885788801
 30
0.0
  0
SPLINE
  5
4D1
100
AcDbEntity
  8
DEFAULT_2
100
AcDbSpline
 62
8
  6
HIDDEN
 70
0
 71
3
 72
16
 73
12
 74
0
 42
0.0000001
 43
0.0000001
 44
0.0000000001
 40
0.0
 40
0.0
 40
0.0
 40
0.0
 40
0.0779780704
 40
0.1152465926
 40
0.1551012447
 40
0.2005712454
 40
0.2535921943
 40
0.382042585
 40
0.5317418638
 40
0.6897403124
 40
1.0
 40
1.0
 40
1.0
 40
1.0
 10
54.5703032289
 20
71.9602961267
 30
0.0
 10
54.5471349673
 20
71.960292185
 30
0.0
 10
54.5114212917
 20
71.9666286397
 30
0.0
 10
54.4743222924
 20
71.995360404
 30
0.0
 10
54.4543098622
 20
72.0265472205
 30
0.0
 10
54.4426966988
 20
72.0664347119
 30
0.0
 10
54.438737579
 20
72.1341561164
 30
0.0
 10
54.4579602668
 20
72.2319486316
 30
0.0
 10
54.5063729468
 20
72.3525737082
 30
0.0
 10
54.5977740122
 20
72.5122801682
 30
0.0
 10
54.6868148751
 20
72.6209220183
 30
0.0
 10
54.7521954872
 20
72.6859058954
 30
0.0
  0
SPLINE
  5
4D2
100
AcDbEntity
  8
DEFAULT_2
100
AcDbSpline
 62
8
  6
HIDDEN
 70
0
 71
3
 72
18
 73
14
 74
0
 42
0.0000001
 43
0.0000001
 44
0.0000000001
 40
0.0
 40
0.0
 40
0.0
 40
0.0
 40
0.0390110999
 40
0.0723469459
 40
0.1020765718
 40
0.1323862157
 40
0.1681112738
 40
0.2121024505
 40
0.3268392353
 40
0.4714377711
 40
0.6362809121
 40
0.8141582753
 40
1.0
 40
1.0
 40
1.0
 40
1.0
 10
55.3636445552
 20
109.2381810663
 30
0.0
 10
55.372929939
 20
109.2381794405
 30
0.0
 10
55.3902210547
 20
109.239418146
 30
0.0
 10
55.4136900137
 20
109.2469300686
 30
0.0
 10
55.4315418376
 20
109.2613241065
 30
0.0
 10
55.4410972096
 20
109.2828633806
 30
0.0
 10
55.4417682425
 20
109.3094776886
 30
0.0
 10
55.4316069577
 20
109.3548998122
 30
0.0
 10
55.3990591205
 20
109.4201553945
 30
0.0
 10
55.3430919291
 20
109.5041483314
 30
0.0
 10
55.2717791187
 20
109.5957741257
 30
0.0
 10
55.190287797
 20
109.6916281807
 30
0.0
 10
55.1323625974
 20
109.7559839447
 30
0.0
 10
55.1024593349
 20
109.7885788801
 30
0.0
  0
SPLINE
  5
4D3
100
AcDbEntity
  8
DEFAULT_2
100
AcDbSpline
 62
8
  6
HIDDEN
 70
0
 71
3
 72
16
 73
12
 74
0
 42
0.0000001
 43
0.0000001
 44
0.0000000001
 40
0.0
 40
0.0
 40
0.0
 40
0.0
 40
0.0779780704
 40
0.1152465926
 40
0.1551012447
 40
0.2005712454
 40
0.2535921943
 40
0.382042585
 40
0.5317418638
 40
0.6897403124
 40
1.0
 40
1.0
 40
1.0
 40
1.0
 10
54.5703032289
 20
103.9602961267
 30
0.0
 10
54.5471349673
 20
103.960292185
 30
0.0
 10
54.5114212917
 20
103.9666286397
 30
0.0
 10
54.4743222924
 20
103.995360404
 30
0.0
 10
54.4543098622
 20
104.0265472205
 30
0.0
 10
54.4426966988
 20
104.0664347119
 30
0.0
 10
54.438737579
 20
104.1341561164
 30
0.0
 10
54.4579602668
 20
104.2319486316
 30
0.0
 10
54.5063729468
 20
104.3525737082
 30
0.0
 10
54.5977740122
 20
104.5122801682
 30
0.0
 10
54.6868148751
 20
104.6209220183
 30
0.0
 10
54.7521954872
 20
104.6859058954
 30
0.0
  0
SPLINE
  5
4D4
100
AcDbEntity
  8
DEFAULT_2
100
AcDbSpline
 62
8
  6
HIDDEN
 70
0
 71
3
 72
18
 73
14
 74
0
 42
0.0000001
 43
0.0000001
 44
0.0000000001
 40
0.0
 40
0.0
 40
0.0
 40
0.0
 40
0.0390110999
 40
0.0723469459
 40
0.1020765718
 40
0.1323862157
 40
0.1681112738
 40
0.2121024505
 40
0.3268392353
 40
0.4714377711
 40
0.6362809121
 40
0.8141582753
 40
1.0
 40
1.0
 40
1.0
 40
1.0
 10
55.3636445552
 20
93.2381810663
 30
0.0
 10
55.372929939
 20
93.2381794405
 30
0.0
 10
55.3902210547
 20
93.239418146
 30
0.0
 10
55.4136900137
 20
93.2469300686
 30
0.0
 10
55.4315418376
 20
93.2613241065
 30
0.0
 10
55.4410972096
 20
93.2828633806
 30
0.0
 10
55.4417682425
 20
93.3094776886
 30
0.0
 10
55.4316069577
 20
93.3548998122
 30
0.0
 10
55.3990591205
 20
93.4201553945
 30
0.0
 10
55.3430919291
 20
93.5041483314
 30
0.0
 10
55.2717791187
 20
93.5957741257
 30
0.0
 10
55.190287797
 20
93.6916281807
 30
0.0
 10
55.1323625974
 20
93.7559839447
 30
0.0
 10
55.1024593349
 20
93.7885788801
 30
0.0
  0
SPLINE
  5
4D5
100
AcDbEntity
  8
DEFAULT_2
100
AcDbSpline
 62
8
  6
HIDDEN
 70
0
 71
3
 72
16
 73
12
 74
0
 42
0.0000001
 43
0.0000001
 44
0.0000000001
 40
0.0
 40
0.0
 40
0.0
 40
0.0
 40
0.0779780704
 40
0.1152465926
 40
0.1551012447
 40
0.2005712454
 40
0.2535921943
 40
0.382042585
 40
0.5317418638
 40
0.6897403124
 40
1.0
 40
1.0
 40
1.0
 40
1.0
 10
54.5703032289
 20
87.9602961267
 30
0.0
 10
54.5471349673
 20
87.960292185
 30
0.0
 10
54.5114212917
 20
87.9666286397
 30
0.0
 10
54.4743222924
 20
87.995360404
 30
0.0
 10
54.4543098622
 20
88.0265472205
 30
0.0
 10
54.4426966988
 20
88.0664347119
 30
0.0
 10
54.438737579
 20
88.1341561164
 30
0.0
 10
54.4579602668
 20
88.2319486316
 30
0.0
 10
54.5063729468
 20
88.3525737082
 30
0.0
 10
54.5977740122
 20
88.5122801682
 30
0.0
 10
54.6868148751
 20
88.6209220183
 30
0.0
 10
54.7521954872
 20
88.6859058954
 30
0.0
  0
SPLINE
  5
4D6
100
AcDbEntity
  8
DEFAULT_2
100
AcDbSpline
 62
8
  6
HIDDEN
 70
0
 71
3
 72
16
 73
12
 74
0
 42
0.0000001
 43
0.0000001
 44
0.0000000001
 40
0.0
 40
0.0
 40
0.0
 40
0.0
 40
0.0779780704
 40
0.1152465926
 40
0.1551012447
 40
0.2005712454
 40
0.2535921943
 40
0.382042585
 40
0.5317418638
 40
0.6897403124
 40
1.0
 40
1.0
 40
1.0
 40
1.0
 10
54.5703032289
 20
108.9602961267
 30
0.0
 10
54.5471349673
 20
108.960292185
 30
0.0
 10
54.5114212917
 20
108.9666286397
 30
0.0
 10
54.4743222924
 20
108.995360404
 30
0.0
 10
54.4543098622
 20
109.0265472205
 30
0.0
 10
54.4426966988
 20
109.0664347119
 30
0.0
 10
54.438737579
 20
109.1341561164
 30
0.0
 10
54.4579602668
 20
109.2319486316
 30
0.0
 10
54.5063729468
 20
109.3525737082
 30
0.0
 10
54.5977740122
 20
109.5122801682
 30
0.0
 10
54.6868148751
 20
109.6209220183
 30
0.0
 10
54.7521954872
 20
109.6859058954
 30
0.0
  0
SPLINE
  5
4D7
100
AcDbEntity
  8
DEFAULT_2
100
AcDbSpline
 62
8
  6
HIDDEN
 70
0
 71
3
 72
18
 73
14
 74
0
 42
0.0000001
 43
0.0000001
 44
0.0000000001
 40
0.0
 40
0.0
 40
0.0
 40
0.0
 40
0.1858417135
 40
0.3637190646
 40
0.5285621923
 40
0.6731606883
 40
0.7878976104
 40
0.8318887962
 40
0.8676138227
 40
0.8979234533
 40
0.9276530399
 40
0.9609888786
 40
1.0
 40
1.0
 40
1.0
 40
1.0
 10
55.1024593349
 20
76.7282356718
 30
0.0
 10
55.1323625966
 20
76.7608306063
 30
0.0
 10
55.1902877952
 20
76.8251863677
 30
0.0
 10
55.2717791111
 20
76.9210404231
 30
0.0
 10
55.3430919167
 20
77.0126662032
 30
0.0
 10
55.3990591359
 20
77.0966591594
 30
0.0
 10
55.4316069451
 20
77.1619147725
 30
0.0
 10
55.4417682735
 20
77.2073369277
 30
0.0
 10
55.4410971661
 20
77.2339512195
 30
0.0
 10
55.4315418453
 20
77.2554904897
 30
0.0
 10
55.4136900163
 20
77.2698845159
 30
0.0
 10
55.390221046
 20
77.2773963803
 30
0.0
 10
55.3729299304
 20
77.2786350937
 30
0.0
 10
55.3636445411
 20
77.2786334719
 30
0.0
  0
SPLINE
  5
4D8
100
AcDbEntity
  8
DEFAULT_2
100
AcDbSpline
 62
8
  6
HIDDEN
 70
0
 71
3
 72
16
 73
12
 74
0
 42
0.0000001
 43
0.0000001
 44
0.0000000001
 40
0.0
 40
0.0
 40
0.0
 40
0.0
 40
0.3103759307
 40
0.4684424554
 40
0.6181728499
 40
0.7466140796
 40
0.7996073274
 40
0.8450208
 40
0.8848349279
 40
0.922074652
 40
1.0
 40
1.0
 40
1.0
 40
1.0
 10
54.7521954872
 20
81.8309086565
 30
0.0
 10
54.6867898255
 20
81.8959174311
 30
0.0
 10
54.5977120954
 20
82.0046031354
 30
0.0
 10
54.506305688
 20
82.1643860131
 30
0.0
 10
54.4579135395
 20
82.2850425616
 30
0.0
 10
54.4386958003
 20
82.3828497177
 30
0.0
 10
54.4427390488
 20
82.4505317892
 30
0.0
 10
54.4543302567
 20
82.49039476
 30
0.0
 10
54.4744048137
 20
82.5214918557
 30
0.0
 10
54.5114426907
 20
82.5502352753
 30
0.0
 10
54.547152059
 20
82.5565109584
 30
0.0
 10
54.5703048523
 20
82.5565131442
 30
0.0
  0
SPLINE
  5
4D9
100
AcDbEntity
  8
DEFAULT_2
100
AcDbSpline
 62
8
  6
HIDDEN
 70
0
 71
3
 72
18
 73
14
 74
0
 42
0.0000001
 43
0.0000001
 44
0.0000000001
 40
0.0
 40
0.0
 40
0.0
 40
0.0
 40
0.1858417135
 40
0.3637190646
 40
0.5285621923
 40
0.6731606883
 40
0.7878976104
 40
0.8318887962
 40
0.8676138227
 40
0.8979234533
 40
0.9276530399
 40
0.9609888786
 40
1.0
 40
1.0
 40
1.0
 40
1.0
 10
55.1024593349
 20
84.7282356718
 30
0.0
 10
55.1323625966
 20
84.7608306063
 30
0.0
 10
55.1902877952
 20
84.8251863677
 30
0.0
 10
55.2717791111
 20
84.9210404231
 30
0.0
 10
55.3430919167
 20
85.0126662032
 30
0.0
 10
55.3990591359
 20
85.0966591594
 30
0.0
 10
55.4316069451
 20
85.1619147725
 30
0.0
 10
55.4417682735
 20
85.2073369277
 30
0.0
 10
55.4410971661
 20
85.2339512195
 30
0.0
 10
55.4315418453
 20
85.2554904897
 30
0.0
 10
55.4136900163
 20
85.2698845159
 30
0.0
 10
55.390221046
 20
85.2773963803
 30
0.0
 10
55.3729299304
 20
85.2786350937
 30
0.0
 10
55.3636445411
 20
85.2786334719
 30
0.0
  0
SPLINE
  5
4DA
100
AcDbEntity
  8
DEFAULT_2
100
AcDbSpline
 62
8
  6
HIDDEN
 70
0
 71
3
 72
16
 73
12
 74
0
 42
0.0000001
 43
0.0000001
 44
0.0000000001
 40
0.0
 40
0.0
 40
0.0
 40
0.0
 40
0.3103759307
 40
0.4684424554
 40
0.6181728499
 40
0.7466140796
 40
0.7996073274
 40
0.8450208
 40
0.8848349279
 40
0.922074652
 40
1.0
 40
1.0
 40
1.0
 40
1.0
 10
54.7521954872
 20
89.8309086565
 30
0.0
 10
54.6867898255
 20
89.8959174311
 30
0.0
 10
54.5977120954
 20
90.0046031354
 30
0.0
 10
54.506305688
 20
90.1643860131
 30
0.0
 10
54.4579135395
 20
90.2850425616
 30
0.0
 10
54.4386958003
 20
90.3828497177
 30
0.0
 10
54.4427390488
 20
90.4505317892
 30
0.0
 10
54.4543302567
 20
90.49039476
 30
0.0
 10
54.4744048137
 20
90.5214918557
 30
0.0
 10
54.5114426907
 20
90.5502352753
 30
0.0
 10
54.547152059
 20
90.5565109584
 30
0.0
 10
54.5703048523
 20
90.5565131442
 30
0.0
  0
SPLINE
  5
4DB
100
AcDbEntity
  8
DEFAULT_2
100
AcDbSpline
 62
8
  6
HIDDEN
 70
0
 71
3
 72
16
 73
12
 74
0
 42
0.0000001
 43
0.0000001
 44
0.0000000001
 40
0.0
 40
0.0
 40
0.0
 40
0.0
 40
0.3103759307
 40
0.4684424554
 40
0.6181728499
 40
0.7466140796
 40
0.7996073274
 40
0.8450208
 40
0.8848349279
 40
0.922074652
 40
1.0
 40
1.0
 40
1.0
 40
1.0
 10
54.7521954872
 20
108.8309086565
 30
0.0
 10
54.6867898255
 20
108.8959174311
 30
0.0
 10
54.5977120954
 20
109.0046031354
 30
0.0
 10
54.506305688
 20
109.1643860131
 30
0.0
 10
54.4579135395
 20
109.2850425616
 30
0.0
 10
54.4386958003
 20
109.3828497177
 30
0.0
 10
54.4427390488
 20
109.4505317892
 30
0.0
 10
54.4543302567
 20
109.49039476
 30
0.0
 10
54.4744048137
 20
109.5214918557
 30
0.0
 10
54.5114426907
 20
109.5502352753
 30
0.0
 10
54.547152059
 20
109.5565109584
 30
0.0
 10
54.5703048523
 20
109.5565131442
 30
0.0
  0
SPLINE
  5
4DC
100
AcDbEntity
  8
DEFAULT_2
100
AcDbSpline
 62
8
  6
HIDDEN
 70
0
 71
3
 72
18
 73
14
 74
0
 42
0.0000001
 43
0.0000001
 44
0.0000000001
 40
0.0
 40
0.0
 40
0.0
 40
0.0
 40
0.1858417135
 40
0.3637190646
 40
0.5285621923
 40
0.6731606883
 40
0.7878976104
 40
0.8318887962
 40
0.8676138227
 40
0.8979234533
 40
0.9276530399
 40
0.9609888786
 40
1.0
 40
1.0
 40
1.0
 40
1.0
 10
55.1024593349
 20
92.7282356718
 30
0.0
 10
55.1323625966
 20
92.7608306063
 30
0.0
 10
55.1902877952
 20
92.8251863677
 30
0.0
 10
55.2717791111
 20
92.9210404231
 30
0.0
 10
55.3430919167
 20
93.0126662032
 30
0.0
 10
55.3990591359
 20
93.0966591594
 30
0.0
 10
55.4316069451
 20
93.1619147725
 30
0.0
 10
55.4417682735
 20
93.2073369277
 30
0.0
 10
55.4410971661
 20
93.2339512195
 30
0.0
 10
55.4315418453
 20
93.2554904897
 30
0.0
 10
55.4136900163
 20
93.2698845159
 30
0.0
 10
55.390221046
 20
93.2773963803
 30
0.0
 10
55.3729299304
 20
93.2786350937
 30
0.0
 10
55.3636445411
 20
93.2786334719
 30
0.0
  0
SPLINE
  5
4DD
100
AcDbEntity
  8
DEFAULT_2
100
AcDbSpline
 62
8
  6
HIDDEN
 70
0
 71
3
 72
18
 73
14
 74
0
 42
0.0000001
 43
0.0000001
 44
0.0000000001
 40
0.0
 40
0.0
 40
0.0
 40
0.0
 40
0.1858417135
 40
0.3637190646
 40
0.5285621923
 40
0.6731606883
 40
0.7878976104
 40
0.8318887962
 40
0.8676138227
 40
0.8979234533
 40
0.9276530399
 40
0.9609888786
 40
1.0
 40
1.0
 40
1.0
 40
1.0
 10
55.1024593349
 20
103.7282356718
 30
0.0
 10
55.1323625966
 20
103.7608306063
 30
0.0
 10
55.1902877952
 20
103.8251863677
 30
0.0
 10
55.2717791111
 20
103.9210404231
 30
0.0
 10
55.3430919167
 20
104.0126662032
 30
0.0
 10
55.3990591359
 20
104.0966591594
 30
0.0
 10
55.4316069451
 20
104.1619147725
 30
0.0
 10
55.4417682735
 20
104.2073369277
 30
0.0
 10
55.4410971661
 20
104.2339512195
 30
0.0
 10
55.4315418453
 20
104.2554904897
 30
0.0
 10
55.4136900163
 20
104.2698845159
 30
0.0
 10
55.390221046
 20
104.2773963803
 30
0.0
 10
55.3729299304
 20
104.2786350937
 30
0.0
 10
55.3636445411
 20
104.2786334719
 30
0.0
  0
SPLINE
  5
4DE
100
AcDbEntity
  8
DEFAULT_2
100
AcDbSpline
 62
8
  6
HIDDEN
 70
0
 71
3
 72
16
 73
12
 74
0
 42
0.0000001
 43
0.0000001
 44
0.0000000001
 40
0.0
 40
0.0
 40
0.0
 40
0.0
 40
0.3103759307
 40
0.4684424554
 40
0.6181728499
 40
0.7466140796
 40
0.7996073274
 40
0.8450208
 40
0.8848349279
 40
0.922074652
 40
1.0
 40
1.0
 40
1.0
 40
1.0
 10
54.7521954872
 20
97.8309086565
 30
0.0
 10
54.6867898255
 20
97.8959174311
 30
0.0
 10
54.5977120954
 20
98.0046031354
 30
0.0
 10
54.506305688
 20
98.1643860131
 30
0.0
 10
54.4579135395
 20
98.2850425616
 30
0.0
 10
54.4386958003
 20
98.3828497177
 30
0.0
 10
54.4427390488
 20
98.4505317892
 30
0.0
 10
54.4543302567
 20
98.49039476
 30
0.0
 10
54.4744048137
 20
98.5214918557
 30
0.0
 10
54.5114426907
 20
98.5502352753
 30
0.0
 10
54.547152059
 20
98.5565109584
 30
0.0
 10
54.5703048523
 20
98.5565131442
 30
0.0
  0
SPLINE
  5
4DF
100
AcDbEntity
  8
DEFAULT_2
100
AcDbSpline
 62
8
  6
HIDDEN
 70
0
 71
3
 72
16
 73
12
 74
0
 42
0.0000001
 43
0.0000001
 44
0.0000000001
 40
0.0
 40
0.0
 40
0.0
 40
0.0
 40
0.3103759307
 40
0.4684424554
 40
0.6181728499
 40
0.7466140796
 40
0.7996073274
 40
0.8450208
 40
0.8848349279
 40
0.922074652
 40
1.0
 40
1.0
 40
1.0
 40
1.0
 10
54.7521954872
 20
92.8309086565
 30
0.0
 10
54.6867898255
 20
92.8959174311
 30
0.0
 10
54.5977120954
 20
93.0046031354
 30
0.0
 10
54.506305688
 20
93.1643860131
 30
0.0
 10
54.4579135395
 20
93.2850425616
 30
0.0
 10
54.4386958003
 20
93.3828497177
 30
0.0
 10
54.4427390488
 20
93.4505317892
 30
0.0
 10
54.4543302567
 20
93.49039476
 30
0.0
 10
54.4744048137
 20
93.5214918557
 30
0.0
 10
54.5114426907
 20
93.5502352753
 30
0.0
 10
54.547152059
 20
93.5565109584
 30
0.0
 10
54.5703048523
 20
93.5565131442
 30
0.0
  0
SPLINE
  5
4E0
100
AcDbEntity
  8
DEFAULT_2
100
AcDbSpline
 62
8
  6
HIDDEN
 70
0
 71
3
 72
18
 73
14
 74
0
 42
0.0000001
 43
0.0000001
 44
0.0000000001
 40
0.0
 40
0.0
 40
0.0
 40
0.0
 40
0.1858417135
 40
0.3637190646
 40
0.5285621923
 40
0.6731606883
 40
0.7878976104
 40
0.8318887962
 40
0.8676138227
 40
0.8979234533
 40
0.9276530399
 40
0.9609888786
 40
1.0
 40
1.0
 40
1.0
 40
1.0
 10
55.1024593349
 20
87.7282356718
 30
0.0
 10
55.1323625966
 20
87.7608306063
 30
0.0
 10
55.1902877952
 20
87.8251863677
 30
0.0
 10
55.2717791111
 20
87.9210404231
 30
0.0
 10
55.3430919167
 20
88.0126662032
 30
0.0
 10
55.3990591359
 20
88.0966591594
 30
0.0
 10
55.4316069451
 20
88.1619147725
 30
0.0
 10
55.4417682735
 20
88.2073369277
 30
0.0
 10
55.4410971661
 20
88.2339512195
 30
0.0
 10
55.4315418453
 20
88.2554904897
 30
0.0
 10
55.4136900163
 20
88.2698845159
 30
0.0
 10
55.390221046
 20
88.2773963803
 30
0.0
 10
55.3729299304
 20
88.2786350937
 30
0.0
 10
55.3636445411
 20
88.2786334719
 30
0.0
  0
SPLINE
  5
4E1
100
AcDbEntity
  8
DEFAULT_2
100
AcDbSpline
 62
8
  6
HIDDEN
 70
0
 71
3
 72
14
 73
10
 74
0
 42
0.0000001
 43
0.0000001
 44
0.0000000001
 40
0.0
 40
0.0
 40
0.0
 40
0.0
 40
0.2781993076
 40
0.4210322981
 40
0.5585828566
 40
0.6833200798
 40
0.7951899177
 40
0.8993653844
 40
1.0
 40
1.0
 40
1.0
 40
1.0
 10
55.1024593349
 20
89.0389280378
 30
0.0
 10
55.1910528411
 20
89.1296359697
 30
0.0
 10
55.3123536114
 20
89.2821351559
 30
0.0
 10
55.4181039822
 20
89.5153686546
 30
0.0
 10
55.4515105585
 20
89.6998274113
 30
0.0
 10
55.4230477291
 20
89.8720445528
 30
0.0
 10
55.3414670088
 20
90.0080758843
 30
0.0
 10
55.2305009567
 20
90.1033216783
 30
0.0
 10
55.1456421179
 20
90.1444891089
 30
0.0
 10
55.1024593349
 20
90.1599465306
 30
0.0
  0
SPLINE
  5
4E2
100
AcDbEntity
  8
DEFAULT_2
100
AcDbSpline
 62
8
  6
HIDDEN
 70
0
 71
3
 72
11
 73
7
 74
0
 42
0.0000001
 43
0.0000001
 44
0.0000000001
 40
0.0
 40
0.0
 40
0.0
 40
0.0
 40
0.2141402801
 40
0.4473128898
 40
0.7102553878
 40
1.0
 40
1.0
 40
1.0
 40
1.0
 10
54.7521954872
 20
90.2833663762
 30
0.0
 10
54.7115045937
 20
90.2975059694
 30
0.0
 10
54.6304127899
 20
90.3400811535
 30
0.0
 10
54.5290296833
 20
90.4440375517
 30
0.0
 10
54.458076739
 20
90.588107431
 30
0.0
 10
54.4411637905
 20
90.700120748
 30
0.0
 10
54.4411637905
 20
90.7584072759
 30
0.0
  0
SPLINE
  5
4E3
100
AcDbEntity
  8
DEFAULT_2
100
AcDbSpline
 62
8
  6
HIDDEN
 70
0
 71
3
 72
18
 73
14
 74
0
 42
0.0000001
 43
0.0000001
 44
0.0000000001
 40
0.0
 40
0.0
 40
0.0
 40
0.0
 40
0.1858417135
 40
0.3637190646
 40
0.5285621923
 40
0.6731606883
 40
0.7878976104
 40
0.8318887962
 40
0.8676138227
 40
0.8979234533
 40
0.9276530399
 40
0.9609888786
 40
1.0
 40
1.0
 40
1.0
 40
1.0
 10
55.1024593349
 20
108.7282356718
 30
0.0
 10
55.1323625966
 20
108.7608306063
 30
0.0
 10
55.1902877952
 20
108.8251863677
 30
0.0
 10
55.2717791111
 20
108.9210404231
 30
0.0
 10
55.3430919167
 20
109.0126662032
 30
0.0
 10
55.3990591359
 20
109.0966591594
 30
0.0
 10
55.4316069451
 20
109.1619147725
 30
0.0
 10
55.4417682735
 20
109.2073369277
 30
0.0
 10
55.4410971661
 20
109.2339512195
 30
0.0
 10
55.4315418453
 20
109.2554904897
 30
0.0
 10
55.4136900163
 20
109.2698845159
 30
0.0
 10
55.390221046
 20
109.2773963803
 30
0.0
 10
55.3729299304
 20
109.2786350937
 30
0.0
 10
55.3636445411
 20
109.2786334719
 30
0.0
  0
SPLINE
  5
4E4
100
AcDbEntity
  8
DEFAULT_2
100
AcDbSpline
 62
8
  6
HIDDEN
 70
0
 71
3
 72
16
 73
12
 74
0
 42
0.0000001
 43
0.0000001
 44
0.0000000001
 40
0.0
 40
0.0
 40
0.0
 40
0.0
 40
0.3103759307
 40
0.4684424554
 40
0.6181728499
 40
0.7466140796
 40
0.7996073274
 40
0.8450208
 40
0.8848349279
 40
0.922074652
 40
1.0
 40
1.0
 40
1.0
 40
1.0
 10
54.7521954872
 20
113.8309086565
 30
0.0
 10
54.6867898255
 20
113.8959174311
 30
0.0
 10
54.5977120954
 20
114.0046031354
 30
0.0
 10
54.506305688
 20
114.1643860131
 30
0.0
 10
54.4579135395
 20
114.2850425616
 30
0.0
 10
54.4386958003
 20
114.3828497177
 30
0.0
 10
54.4427390488
 20
114.4505317892
 30
0.0
 10
54.4543302567
 20
114.49039476
 30
0.0
 10
54.4744048137
 20
114.5214918557
 30
0.0
 10
54.5114426907
 20
114.5502352753
 30
0.0
 10
54.547152059
 20
114.5565109584
 30
0.0
 10
54.5703048523
 20
114.5565131442
 30
0.0
  0
SPLINE
  5
4E5
100
AcDbEntity
  8
DEFAULT_2
100
AcDbSpline
 62
8
  6
HIDDEN
 70
0
 71
3
 72
16
 73
12
 74
0
 42
0.0000001
 43
0.0000001
 44
0.0000000001
 40
0.0
 40
0.0
 40
0.0
 40
0.0
 40
0.3103759307
 40
0.4684424554
 40
0.6181728499
 40
0.7466140796
 40
0.7996073274
 40
0.8450208
 40
0.8848349279
 40
0.922074652
 40
1.0
 40
1.0
 40
1.0
 40
1.0
 10
54.7521954872
 20
76.8309086565
 30
0.0
 10
54.6867898255
 20
76.8959174311
 30
0.0
 10
54.5977120954
 20
77.0046031354
 30
0.0
 10
54.506305688
 20
77.1643860131
 30
0.0
 10
54.4579135395
 20
77.2850425616
 30
0.0
 10
54.4386958003
 20
77.3828497177
 30
0.0
 10
54.4427390488
 20
77.4505317892
 30
0.0
 10
54.4543302567
 20
77.49039476
 30
0.0
 10
54.4744048137
 20
77.5214918557
 30
0.0
 10
54.5114426907
 20
77.5502352753
 30
0.0
 10
54.547152059
 20
77.5565109584
 30
0.0
 10
54.5703048523
 20
77.5565131442
 30
0.0
  0
SPLINE
  5
4E6
100
AcDbEntity
  8
DEFAULT_2
100
AcDbSpline
 62
8
  6
HIDDEN
 70
0
 71
3
 72
18
 73
14
 74
0
 42
0.0000001
 43
0.0000001
 44
0.0000000001
 40
0.0
 40
0.0
 40
0.0
 40
0.0
 40
0.1858417135
 40
0.3637190646
 40
0.5285621923
 40
0.6731606883
 40
0.7878976104
 40
0.8318887962
 40
0.8676138227
 40
0.8979234533
 40
0.9276530399
 40
0.9609888786
 40
1.0
 40
1.0
 40
1.0
 40
1.0
 10
55.1024593349
 20
71.7282356718
 30
0.0
 10
55.1323625966
 20
71.7608306063
 30
0.0
 10
55.1902877952
 20
71.8251863677
 30
0.0
 10
55.2717791111
 20
71.9210404231
 30
0.0
 10
55.3430919167
 20
72.0126662032
 30
0.0
 10
55.3990591359
 20
72.0966591594
 30
0.0
 10
55.4316069451
 20
72.1619147725
 30
0.0
 10
55.4417682735
 20
72.2073369277
 30
0.0
 10
55.4410971661
 20
72.2339512195
 30
0.0
 10
55.4315418453
 20
72.2554904897
 30
0.0
 10
55.4136900163
 20
72.2698845159
 30
0.0
 10
55.390221046
 20
72.2773963803
 30
0.0
 10
55.3729299304
 20
72.2786350937
 30
0.0
 10
55.3636445411
 20
72.2786334719
 30
0.0
  0
SPLINE
  5
4E7
100
AcDbEntity
  8
DEFAULT_2
100
AcDbSpline
 62
8
  6
HIDDEN
 70
0
 71
3
 72
13
 73
9
 74
0
 42
0.0000001
 43
0.0000001
 44
0.0000000001
 40
0.0
 40
0.0
 40
0.0
 40
0.0
 40
0.250768581
 40
0.375490064
 40
0.5000012175
 40
0.6245129445
 40
0.7492343186
 40
1.0
 40
1.0
 40
1.0
 40
1.0
 10
72.5610165302
 20
52.117146167
 30
0.0
 10
72.4397191626
 20
52.0767137111
 30
0.0
 10
72.2543294244
 20
52.0257326804
 30
0.0
 10
72.0016595433
 20
51.9894894113
 30
0.0
 10
71.811014389
 20
51.9805844006
 30
0.0
 10
71.6203699891
 20
51.98949557
 30
0.0
 10
71.3677000127
 20
52.025729058
 30
0.0
 10
71.1823124953
 20
52.0767141786
 30
0.0
 10
71.0610165302
 20
52.117146167
 30
0.0
  0
SPLINE
  5
4E8
100
AcDbEntity
  8
DEFAULT_2
100
AcDbSpline
 62
8
  6
HIDDEN
 70
0
 71
3
 72
13
 73
9
 74
0
 42
0.0000001
 43
0.0000001
 44
0.0000000001
 40
0.0
 40
0.0
 40
0.0
 40
0.0
 40
0.250768581
 40
0.375490064
 40
0.5000012175
 40
0.6245129445
 40
0.7492343186
 40
1.0
 40
1.0
 40
1.0
 40
1.0
 10
71.0610165302
 20
52.117146167
 30
0.0
 10
70.9397191626
 20
52.0767137111
 30
0.0
 10
70.7543294244
 20
52.0257326804
 30
0.0
 10
70.5016595433
 20
51.9894894113
 30
0.0
 10
70.311014389
 20
51.9805844006
 30
0.0
 10
70.1203699891
 20
51.98949557
 30
0.0
 10
69.8677000127
 20
52.025729058
 30
0.0
 10
69.6823124953
 20
52.0767141786
 30
0.0
 10
69.5610165302
 20
52.117146167
 30
0.0
  0
SPLINE
  5
4E9
100
AcDbEntity
  8
DEFAULT_2
100
AcDbSpline
 62
8
  6
HIDDEN
 70
0
 71
3
 72
11
 73
7
 74
0
 42
0.0000001
 43
0.0000001
 44
0.0000000001
 40
0.0
 40
0.0
 40
0.0
 40
0.0
 40
0.25111694
 40
0.5
 40
0.74888306
 40
1.0
 40
1.0
 40
1.0
 40
1.0
 10
72.5610165302
 20
55.0501588689
 30
0.0
 10
72.4419525386
 20
55.0015511978
 30
0.0
 10
72.1950562223
 20
54.9269717801
 30
0.0
 10
71.8110165302
 20
54.8888972333
 30
0.0
 10
71.4269768381
 20
54.9269717801
 30
0.0
 10
71.1800805219
 20
55.0015511978
 30
0.0
 10
71.0610165302
 20
55.0501588689
 30
0.0
  0
SPLINE
  5
4EA
100
AcDbEntity
  8
DEFAULT_2
100
AcDbSpline
 62
8
  6
HIDDEN
 70
0
 71
3
 72
11
 73
7
 74
0
 42
0.0000001
 43
0.0000001
 44
0.0000000001
 40
0.0
 40
0.0
 40
0.0
 40
0.0
 40
0.25111694
 40
0.5
 40
0.74888306
 40
1.0
 40
1.0
 40
1.0
 40
1.0
 10
71.0610165302
 20
55.0501588689
 30
0.0
 10
70.9419525386
 20
55.0015511978
 30
0.0
 10
70.6950562223
 20
54.9269717801
 30
0.0
 10
70.3110165302
 20
54.8888972333
 30
0.0
 10
69.9269768381
 20
54.9269717801
 30
0.0
 10
69.6800805219
 20
55.0015511978
 30
0.0
 10
69.5610165302
 20
55.0501588689
 30
0.0
  0
SPLINE
  5
4EB
100
AcDbEntity
  8
DEFAULT_2
100
AcDbSpline
 62
8
  6
HIDDEN
 70
0
 71
3
 72
9
 73
5
 74
0
 42
0.0000001
 43
0.0000001
 44
0.0000000001
 40
0.0
 40
0.0
 40
0.0
 40
0.0
 40
0.4578714035
 40
1.0
 40
1.0
 40
1.0
 40
1.0
 10
54.5703048523
 20
82.5565131442
 30
0.0
 10
54.5994327906
 20
82.556515894
 30
0.0
 10
54.6628312385
 20
82.5434268351
 30
0.0
 10
54.7213794434
 20
82.518203304
 30
0.0
 10
54.7521954872
 20
82.5027179396
 30
0.0
  0
SPLINE
  5
4EC
100
AcDbEntity
  8
DEFAULT_2
100
AcDbSpline
 62
8
  6
HIDDEN
 70
0
 71
3
 72
10
 73
6
 74
0
 42
0.0000001
 43
0.0000001
 44
0.0000000001
 40
0.0
 40
0.0
 40
0.0
 40
0.0
 40
0.1995879107
 40
0.4371451702
 40
1.0
 40
1.0
 40
1.0
 40
1.0
 10
55.3636445411
 20
77.2786334719
 30
0.0
 10
55.3452233867
 20
77.2786302544
 30
0.0
 10
55.3049293474
 20
77.2730296756
 30
0.0
 10
55.216165115
 20
77.2473654189
 30
0.0
 10
55.1485939626
 20
77.216458054
 30
0.0
 10
55.1024593349
 20
77.1925767352
 30
0.0
  0
SPLINE
  5
4ED
100
AcDbEntity
  8
DEFAULT_2
100
AcDbSpline
 62
8
  6
HIDDEN
 70
0
 71
3
 72
9
 73
5
 74
0
 42
0.0000001
 43
0.0000001
 44
0.0000000001
 40
0.0
 40
0.0
 40
0.0
 40
0.0
 40
0.2380184769
 40
1.0
 40
1.0
 40
1.0
 40
1.0
 10
54.5703048523
 20
82.5565131442
 30
0.0
 10
54.5747909917
 20
82.5565135677
 30
0.0
 10
54.5936389802
 20
82.5558821545
 30
0.0
 10
54.6123646965
 20
82.5529611174
 30
0.0
 10
54.6263939419
 20
82.5498887654
 30
0.0
  0
SPLINE
  5
4EE
100
AcDbEntity
  8
DEFAULT_2
100
AcDbSpline
 62
8
  6
HIDDEN
 70
0
 71
3
 72
9
 73
5
 74
0
 42
0.0000001
 43
0.0000001
 44
0.0000000001
 40
0.0
 40
0.0
 40
0.0
 40
0.0
 40
0.2394501414
 40
1.0
 40
1.0
 40
1.0
 40
1.0
 10
55.3636445411
 20
77.2786334719
 30
0.0
 10
55.3614957527
 20
77.2786330966
 30
0.0
 10
55.3525220374
 20
77.2784751145
 30
0.0
 10
55.3435633607
 20
77.2777391556
 30
0.0
 10
55.3367854377
 20
77.2769384322
 30
0.0
  0
SPLINE
  5
4EF
100
AcDbEntity
  8
DEFAULT_2
100
AcDbSpline
 62
8
  6
HIDDEN
 70
0
 71
3
 72
9
 73
5
 74
0
 42
0.0000001
 43
0.0000001
 44
0.0000000001
 40
0.0
 40
0.0
 40
0.0
 40
0.0
 40
0.2334721046
 40
1.0
 40
1.0
 40
1.0
 40
1.0
 10
55.3367854377
 20
77.2769384322
 30
0.0
 10
55.3319831638
 20
77.2763711061
 30
0.0
 10
55.3114766558
 20
77.2734120642
 30
0.0
 10
55.2912652173
 20
77.2686203523
 30
0.0
 10
55.2759828217
 20
77.2643185448
 30
0.0
  0
SPLINE
  5
4F0
100
AcDbEntity
  8
DEFAULT_2
100
AcDbSpline
 62
8
  6
HIDDEN
 70
0
 71
3
 72
9
 73
5
 74
0
 42
0.0000001
 43
0.0000001
 44
0.0000000001
 40
0.0
 40
0.0
 40
0.0
 40
0.0
 40
0.2391413748
 40
1.0
 40
1.0
 40
1.0
 40
1.0
 10
55.2350817446
 20
77.2512456731
 30
0.0
 10
55.2283852821
 20
77.248871026
 30
0.0
 10
55.2005233858
 20
77.2385464301
 30
0.0
 10
55.1732030058
 20
77.2267907112
 30
0.0
 10
55.1526992124
 20
77.2172719595
 30
0.0
  0
SPLINE
  5
4F1
100
AcDbEntity
  8
DEFAULT_2
100
AcDbSpline
 62
8
  6
HIDDEN
 70
0
 71
3
 72
9
 73
5
 74
0
 42
0.0000001
 43
0.0000001
 44
0.0000000001
 40
0.0
 40
0.0
 40
0.0
 40
0.0
 40
0.2380184769
 40
1.0
 40
1.0
 40
1.0
 40
1.0
 10
54.5703048523
 20
76.9603014077
 30
0.0
 10
54.5747909917
 20
76.9603009842
 30
0.0
 10
54.5936389802
 20
76.9609323973
 30
0.0
 10
54.6123646965
 20
76.9638534344
 30
0.0
 10
54.6263939419
 20
76.9669257864
 30
0.0
  0
SPLINE
  5
4F2
100
AcDbEntity
  8
DEFAULT_2
100
AcDbSpline
 62
8
  6
HIDDEN
 70
0
 71
3
 72
9
 73
5
 74
0
 42
0.0000001
 43
0.0000001
 44
0.0000000001
 40
0.0
 40
0.0
 40
0.0
 40
0.0
 40
0.2394496305
 40
1.0
 40
1.0
 40
1.0
 40
1.0
 10
55.3636445411
 20
82.2381810799
 30
0.0
 10
55.3614956369
 20
82.2381814553
 30
0.0
 10
55.3525214188
 20
82.2383394547
 30
0.0
 10
55.3435622421
 20
82.2390754917
 30
0.0
 10
55.336783939
 20
82.2398762967
 30
0.0
  0
SPLINE
  5
4F3
100
AcDbEntity
  8
DEFAULT_2
100
AcDbSpline
 62
8
  6
HIDDEN
 70
0
 71
3
 72
9
 73
5
 74
0
 42
0.0000001
 43
0.0000001
 44
0.0000000001
 40
0.0
 40
0.0
 40
0.0
 40
0.0
 40
0.2334726134
 40
1.0
 40
1.0
 40
1.0
 40
1.0
 10
55.336783939
 20
82.2398762967
 30
0.0
 10
55.3319817741
 20
82.2404436359
 30
0.0
 10
55.3114757766
 20
82.2434026931
 30
0.0
 10
55.2912648364
 20
82.2481943067
 30
0.0
 10
55.2759828215
 20
82.252496007
 30
0.0
  0
SPLINE
  5
4F4
100
AcDbEntity
  8
DEFAULT_2
100
AcDbSpline
 62
8
  6
HIDDEN
 70
0
 71
3
 72
9
 73
5
 74
0
 42
0.0000001
 43
0.0000001
 44
0.0000000001
 40
0.0
 40
0.0
 40
0.0
 40
0.0
 40
0.2423763431
 40
1.0
 40
1.0
 40
1.0
 40
1.0
 10
55.2759828215
 20
82.252496007
 30
0.0
 10
55.2726428787
 20
82.2534361601
 30
0.0
 10
55.2588997797
 20
82.2574457606
 30
0.0
 10
55.2453014552
 20
82.2619448068
 30
0.0
 10
55.2350793825
 20
82.2655697163
 30
0.0
  0
SPLINE
  5
4F5
100
AcDbEntity
  8
DEFAULT_2
100
AcDbSpline
 62
8
  6
HIDDEN
 70
0
 71
3
 72
9
 73
5
 74
0
 42
0.0000001
 43
0.0000001
 44
0.0000000001
 40
0.0
 40
0.0
 40
0.0
 40
0.0
 40
0.4578714035
 40
1.0
 40
1.0
 40
1.0
 40
1.0
 10
54.5703048523
 20
90.5565131442
 30
0.0
 10
54.5994327906
 20
90.556515894
 30
0.0
 10
54.6628312385
 20
90.5434268351
 30
0.0
 10
54.7213794434
 20
90.518203304
 30
0.0
 10
54.7521954872
 20
90.5027179396
 30
0.0
  0
SPLINE
  5
4F6
100
AcDbEntity
  8
DEFAULT_2
100
AcDbSpline
 62
8
  6
HIDDEN
 70
0
 71
3
 72
10
 73
6
 74
0
 42
0.0000001
 43
0.0000001
 44
0.0000000001
 40
0.0
 40
0.0
 40
0.0
 40
0.0
 40
0.1995879107
 40
0.4371451702
 40
1.0
 40
1.0
 40
1.0
 40
1.0
 10
55.3636445411
 20
85.2786334719
 30
0.0
 10
55.3452233867
 20
85.2786302544
 30
0.0
 10
55.3049293474
 20
85.2730296756
 30
0.0
 10
55.216165115
 20
85.2473654189
 30
0.0
 10
55.1485939626
 20
85.216458054
 30
0.0
 10
55.1024593349
 20
85.1925767352
 30
0.0
  0
SPLINE
  5
4F7
100
AcDbEntity
  8
DEFAULT_2
100
AcDbSpline
 62
8
  6
HIDDEN
 70
0
 71
3
 72
9
 73
5
 74
0
 42
0.0000001
 43
0.0000001
 44
0.0000000001
 40
0.0
 40
0.0
 40
0.0
 40
0.0
 40
0.2334726135
 40
1.0
 40
1.0
 40
1.0
 40
1.0
 10
55.336783939
 20
90.2398762967
 30
0.0
 10
55.3319817741
 20
90.2404436359
 30
0.0
 10
55.3114757767
 20
90.2434026931
 30
0.0
 10
55.2912648366
 20
90.2481943066
 30
0.0
 10
55.2759828218
 20
90.252496007
 30
0.0
  0
SPLINE
  5
4F8
100
AcDbEntity
  8
DEFAULT_2
100
AcDbSpline
 62
8
  6
HIDDEN
 70
0
 71
3
 72
9
 73
5
 74
0
 42
0.0000001
 43
0.0000001
 44
0.0000000001
 40
0.0
 40
0.0
 40
0.0
 40
0.0
 40
0.2380184769
 40
1.0
 40
1.0
 40
1.0
 40
1.0
 10
54.5703048523
 20
90.5565131442
 30
0.0
 10
54.5747909917
 20
90.5565135677
 30
0.0
 10
54.5936389802
 20
90.5558821545
 30
0.0
 10
54.6123646965
 20
90.5529611174
 30
0.0
 10
54.6263939419
 20
90.5498887654
 30
0.0
  0
SPLINE
  5
4F9
100
AcDbEntity
  8
DEFAULT_2
100
AcDbSpline
 62
8
  6
HIDDEN
 70
0
 71
3
 72
9
 73
5
 74
0
 42
0.0000001
 43
0.0000001
 44
0.0000000001
 40
0.0
 40
0.0
 40
0.0
 40
0.0
 40
0.2394496305
 40
1.0
 40
1.0
 40
1.0
 40
1.0
 10
55.3636445411
 20
85.2786334719
 30
0.0
 10
55.3614956369
 20
85.2786330966
 30
0.0
 10
55.3525214188
 20
85.2784750972
 30
0.0
 10
55.3435622421
 20
85.2777390601
 30
0.0
 10
55.336783939
 20
85.2769382552
 30
0.0
  0
SPLINE
  5
4FA
100
AcDbEntity
  8
DEFAULT_2
100
AcDbSpline
 62
8
  6
HIDDEN
 70
0
 71
3
 72
9
 73
5
 74
0
 42
0.0000001
 43
0.0000001
 44
0.0000000001
 40
0.0
 40
0.0
 40
0.0
 40
0.0
 40
0.233472613
 40
1.0
 40
1.0
 40
1.0
 40
1.0
 10
55.336783939
 20
85.2769382552
 30
0.0
 10
55.331981774
 20
85.2763709159
 30
0.0
 10
55.3114757758
 20
85.2734118586
 30
0.0
 10
55.291264835
 20
85.2686202448
 30
0.0
 10
55.2759828196
 20
85.2643185443
 30
0.0
  0
SPLINE
  5
4FB
100
AcDbEntity
  8
DEFAULT_2
100
AcDbSpline
 62
8
  6
HIDDEN
 70
0
 71
3
 72
9
 73
5
 74
0
 42
0.0000001
 43
0.0000001
 44
0.0000000001
 40
0.0
 40
0.0
 40
0.0
 40
0.0
 40
0.2423763435
 40
1.0
 40
1.0
 40
1.0
 40
1.0
 10
55.2759828196
 20
85.2643185443
 30
0.0
 10
55.272642877
 20
85.2633783912
 30
0.0
 10
55.2588997786
 20
85.2593687909
 30
0.0
 10
55.2453014547
 20
85.2548697449
 30
0.0
 10
55.2350793825
 20
85.2512448355
 30
0.0
  0
SPLINE
  5
4FC
100
AcDbEntity
  8
DEFAULT_2
100
AcDbSpline
 62
8
  6
HIDDEN
 70
0
 71
3
 72
9
 73
5
 74
0
 42
0.0000001
 43
0.0000001
 44
0.0000000001
 40
0.0
 40
0.0
 40
0.0
 40
0.0
 40
0.2380184769
 40
1.0
 40
1.0
 40
1.0
 40
1.0
 10
54.5703048523
 20
84.9603014077
 30
0.0
 10
54.5747909917
 20
84.9603009842
 30
0.0
 10
54.5936389802
 20
84.9609323973
 30
0.0
 10
54.6123646965
 20
84.9638534344
 30
0.0
 10
54.6263939419
 20
84.9669257864
 30
0.0
  0
SPLINE
  5
4FD
100
AcDbEntity
  8
DEFAULT_2
100
AcDbSpline
 62
8
  6
HIDDEN
 70
0
 71
3
 72
9
 73
5
 74
0
 42
0.0000001
 43
0.0000001
 44
0.0000000001
 40
0.0
 40
0.0
 40
0.0
 40
0.0
 40
0.2394496305
 40
1.0
 40
1.0
 40
1.0
 40
1.0
 10
55.3636445411
 20
90.2381810799
 30
0.0
 10
55.3614956369
 20
90.2381814553
 30
0.0
 10
55.3525214188
 20
90.2383394547
 30
0.0
 10
55.3435622421
 20
90.2390754917
 30
0.0
 10
55.336783939
 20
90.2398762967
 30
0.0
  0
SPLINE
  5
4FE
100
AcDbEntity
  8
DEFAULT_2
100
AcDbSpline
 62
8
  6
HIDDEN
 70
0
 71
3
 72
9
 73
5
 74
0
 42
0.0000001
 43
0.0000001
 44
0.0000000001
 40
0.0
 40
0.0
 40
0.0
 40
0.0
 40
0.242376343
 40
1.0
 40
1.0
 40
1.0
 40
1.0
 10
55.275982822
 20
90.2524960069
 30
0.0
 10
55.2726428791
 20
90.25343616
 30
0.0
 10
55.25889978
 20
90.2574457605
 30
0.0
 10
55.2453014553
 20
90.2619448067
 30
0.0
 10
55.2350793825
 20
90.2655697163
 30
0.0
  0
SPLINE
  5
4FF
100
AcDbEntity
  8
DEFAULT_2
100
AcDbSpline
 62
8
  6
HIDDEN
 70
0
 71
3
 72
9
 73
5
 74
0
 42
0.0000001
 43
0.0000001
 44
0.0000000001
 40
0.0
 40
0.0
 40
0.0
 40
0.0
 40
0.4578714035
 40
1.0
 40
1.0
 40
1.0
 40
1.0
 10
54.5703048523
 20
98.5565131442
 30
0.0
 10
54.5994327906
 20
98.556515894
 30
0.0
 10
54.6628312385
 20
98.5434268351
 30
0.0
 10
54.7213794434
 20
98.518203304
 30
0.0
 10
54.7521954872
 20
98.5027179396
 30
0.0
  0
SPLINE
  5
500
100
AcDbEntity
  8
DEFAULT_2
100
AcDbSpline
 62
8
  6
HIDDEN
 70
0
 71
3
 72
10
 73
6
 74
0
 42
0.0000001
 43
0.0000001
 44
0.0000000001
 40
0.0
 40
0.0
 40
0.0
 40
0.0
 40
0.1995879107
 40
0.4371451702
 40
1.0
 40
1.0
 40
1.0
 40
1.0
 10
55.3636445411
 20
93.2786334719
 30
0.0
 10
55.3452233867
 20
93.2786302544
 30
0.0
 10
55.3049293474
 20
93.2730296756
 30
0.0
 10
55.216165115
 20
93.2473654189
 30
0.0
 10
55.1485939626
 20
93.216458054
 30
0.0
 10
55.1024593349
 20
93.1925767352
 30
0.0
  0
SPLINE
  5
501
100
AcDbEntity
  8
DEFAULT_2
100
AcDbSpline
 62
8
  6
HIDDEN
 70
0
 71
3
 72
9
 73
5
 74
0
 42
0.0000001
 43
0.0000001
 44
0.0000000001
 40
0.0
 40
0.0
 40
0.0
 40
0.0
 40
0.242376343
 40
1.0
 40
1.0
 40
1.0
 40
1.0
 10
55.2759828218
 20
98.252496007
 30
0.0
 10
55.2726428789
 20
98.25343616
 30
0.0
 10
55.2588997799
 20
98.2574457605
 30
0.0
 10
55.2453014552
 20
98.2619448067
 30
0.0
 10
55.2350793825
 20
98.2655697163
 30
0.0
  0
SPLINE
  5
502
100
AcDbEntity
  8
DEFAULT_2
100
AcDbSpline
 62
8
  6
HIDDEN
 70
0
 71
3
 72
9
 73
5
 74
0
 42
0.0000001
 43
0.0000001
 44
0.0000000001
 40
0.0
 40
0.0
 40
0.0
 40
0.0
 40
0.2380184769
 40
1.0
 40
1.0
 40
1.0
 40
1.0
 10
54.5703048523
 20
98.5565131442
 30
0.0
 10
54.5747909917
 20
98.5565135677
 30
0.0
 10
54.5936389802
 20
98.5558821545
 30
0.0
 10
54.6123646965
 20
98.5529611174
 30
0.0
 10
54.6263939419
 20
98.5498887654
 30
0.0
  0
SPLINE
  5
503
100
AcDbEntity
  8
DEFAULT_2
100
AcDbSpline
 62
8
  6
HIDDEN
 70
0
 71
3
 72
9
 73
5
 74
0
 42
0.0000001
 43
0.0000001
 44
0.0000000001
 40
0.0
 40
0.0
 40
0.0
 40
0.0
 40
0.2394501414
 40
1.0
 40
1.0
 40
1.0
 40
1.0
 10
55.3636445411
 20
93.2786334719
 30
0.0
 10
55.3614957527
 20
93.2786330966
 30
0.0
 10
55.3525220374
 20
93.2784751145
 30
0.0
 10
55.3435633607
 20
93.2777391556
 30
0.0
 10
55.3367854377
 20
93.2769384322
 30
0.0
  0
SPLINE
  5
504
100
AcDbEntity
  8
DEFAULT_2
100
AcDbSpline
 62
8
  6
HIDDEN
 70
0
 71
3
 72
9
 73
5
 74
0
 42
0.0000001
 43
0.0000001
 44
0.0000000001
 40
0.0
 40
0.0
 40
0.0
 40
0.0
 40
0.2334721042
 40
1.0
 40
1.0
 40
1.0
 40
1.0
 10
55.3367854377
 20
93.2769384322
 30
0.0
 10
55.3319831636
 20
93.2763711061
 30
0.0
 10
55.3114766551
 20
93.2734120641
 30
0.0
 10
55.2912652159
 20
93.268620352
 30
0.0
 10
55.2759828198
 20
93.2643185443
 30
0.0
  0
SPLINE
  5
505
100
AcDbEntity
  8
DEFAULT_2
100
AcDbSpline
 62
8
  6
HIDDEN
 70
0
 71
3
 72
9
 73
5
 74
0
 42
0.0000001
 43
0.0000001
 44
0.0000000001
 40
0.0
 40
0.0
 40
0.0
 40
0.0
 40
0.2391413748
 40
1.0
 40
1.0
 40
1.0
 40
1.0
 10
55.2350817446
 20
93.2512456731
 30
0.0
 10
55.2283852821
 20
93.248871026
 30
0.0
 10
55.2005233858
 20
93.2385464301
 30
0.0
 10
55.1732030058
 20
93.2267907112
 30
0.0
 10
55.1526992124
 20
93.2172719595
 30
0.0
  0
SPLINE
  5
506
100
AcDbEntity
  8
DEFAULT_2
100
AcDbSpline
 62
8
  6
HIDDEN
 70
0
 71
3
 72
9
 73
5
 74
0
 42
0.0000001
 43
0.0000001
 44
0.0000000001
 40
0.0
 40
0.0
 40
0.0
 40
0.0
 40
0.2380184769
 40
1.0
 40
1.0
 40
1.0
 40
1.0
 10
54.5703048523
 20
92.9603014077
 30
0.0
 10
54.5747909917
 20
92.9603009842
 30
0.0
 10
54.5936389802
 20
92.9609323973
 30
0.0
 10
54.6123646965
 20
92.9638534344
 30
0.0
 10
54.6263939419
 20
92.9669257864
 30
0.0
  0
SPLINE
  5
507
100
AcDbEntity
  8
DEFAULT_2
100
AcDbSpline
 62
8
  6
HIDDEN
 70
0
 71
3
 72
9
 73
5
 74
0
 42
0.0000001
 43
0.0000001
 44
0.0000000001
 40
0.0
 40
0.0
 40
0.0
 40
0.0
 40
0.2394496305
 40
1.0
 40
1.0
 40
1.0
 40
1.0
 10
55.3636445411
 20
98.2381810799
 30
0.0
 10
55.3614956369
 20
98.2381814553
 30
0.0
 10
55.3525214188
 20
98.2383394547
 30
0.0
 10
55.3435622421
 20
98.2390754917
 30
0.0
 10
55.336783939
 20
98.2398762967
 30
0.0
  0
SPLINE
  5
508
100
AcDbEntity
  8
DEFAULT_2
100
AcDbSpline
 62
8
  6
HIDDEN
 70
0
 71
3
 72
9
 73
5
 74
0
 42
0.0000001
 43
0.0000001
 44
0.0000000001
 40
0.0
 40
0.0
 40
0.0
 40
0.0
 40
0.2334726135
 40
1.0
 40
1.0
 40
1.0
 40
1.0
 10
55.336783939
 20
98.2398762967
 30
0.0
 10
55.3319817741
 20
98.2404436359
 30
0.0
 10
55.3114757766
 20
98.2434026931
 30
0.0
 10
55.2912648365
 20
98.2481943067
 30
0.0
 10
55.2759828216
 20
98.252496007
 30
0.0
  0
SPLINE
  5
509
100
AcDbEntity
  8
DEFAULT_2
100
AcDbSpline
 62
8
  6
HIDDEN
 70
0
 71
3
 72
9
 73
5
 74
0
 42
0.0000001
 43
0.0000001
 44
0.0000000001
 40
0.0
 40
0.0
 40
0.0
 40
0.0
 40
0.4578714035
 40
1.0
 40
1.0
 40
1.0
 40
1.0
 10
54.5703048523
 20
114.5565131442
 30
0.0
 10
54.5994327906
 20
114.556515894
 30
0.0
 10
54.6628312385
 20
114.5434268351
 30
0.0
 10
54.7213794434
 20
114.518203304
 30
0.0
 10
54.7521954872
 20
114.5027179396
 30
0.0
  0
SPLINE
  5
50A
100
AcDbEntity
  8
DEFAULT_2
100
AcDbSpline
 62
8
  6
HIDDEN
 70
0
 71
3
 72
10
 73
6
 74
0
 42
0.0000001
 43
0.0000001
 44
0.0000000001
 40
0.0
 40
0.0
 40
0.0
 40
0.0
 40
0.1995879107
 40
0.4371451702
 40
1.0
 40
1.0
 40
1.0
 40
1.0
 10
55.3636445411
 20
109.2786334719
 30
0.0
 10
55.3452233867
 20
109.2786302544
 30
0.0
 10
55.3049293474
 20
109.2730296756
 30
0.0
 10
55.216165115
 20
109.2473654189
 30
0.0
 10
55.1485939626
 20
109.216458054
 30
0.0
 10
55.1024593349
 20
109.1925767352
 30
0.0
  0
SPLINE
  5
50B
100
AcDbEntity
  8
DEFAULT_2
100
AcDbSpline
 62
8
  6
HIDDEN
 70
0
 71
3
 72
9
 73
5
 74
0
 42
0.0000001
 43
0.0000001
 44
0.0000000001
 40
0.0
 40
0.0
 40
0.0
 40
0.0
 40
0.2423763429
 40
1.0
 40
1.0
 40
1.0
 40
1.0
 10
55.2759828225
 20
114.2524960067
 30
0.0
 10
55.2726428797
 20
114.2534361598
 30
0.0
 10
55.2588997803
 20
114.2574457604
 30
0.0
 10
55.2453014554
 20
114.2619448067
 30
0.0
 10
55.2350793825
 20
114.2655697163
 30
0.0
  0
SPLINE
  5
50C
100
AcDbEntity
  8
DEFAULT_2
100
AcDbSpline
 62
8
  6
HIDDEN
 70
0
 71
3
 72
9
 73
5
 74
0
 42
0.0000001
 43
0.0000001
 44
0.0000000001
 40
0.0
 40
0.0
 40
0.0
 40
0.0
 40
0.4578714035
 40
1.0
 40
1.0
 40
1.0
 40
1.0
 10
54.5703048523
 20
77.5565131442
 30
0.0
 10
54.5994327906
 20
77.556515894
 30
0.0
 10
54.6628312385
 20
77.5434268351
 30
0.0
 10
54.7213794434
 20
77.518203304
 30
0.0
 10
54.7521954872
 20
77.5027179396
 30
0.0
  0
SPLINE
  5
50D
100
AcDbEntity
  8
DEFAULT_2
100
AcDbSpline
 62
8
  6
HIDDEN
 70
0
 71
3
 72
10
 73
6
 74
0
 42
0.0000001
 43
0.0000001
 44
0.0000000001
 40
0.0
 40
0.0
 40
0.0
 40
0.0
 40
0.1995879107
 40
0.4371451702
 40
1.0
 40
1.0
 40
1.0
 40
1.0
 10
55.3636445411
 20
72.2786334719
 30
0.0
 10
55.3452233867
 20
72.2786302544
 30
0.0
 10
55.3049293474
 20
72.2730296756
 30
0.0
 10
55.216165115
 20
72.2473654189
 30
0.0
 10
55.1485939626
 20
72.216458054
 30
0.0
 10
55.1024593349
 20
72.1925767352
 30
0.0
  0
SPLINE
  5
50E
100
AcDbEntity
  8
DEFAULT_2
100
AcDbSpline
 62
8
  6
HIDDEN
 70
0
 71
3
 72
9
 73
5
 74
0
 42
0.0000001
 43
0.0000001
 44
0.0000000001
 40
0.0
 40
0.0
 40
0.0
 40
0.0
 40
0.2380184769
 40
1.0
 40
1.0
 40
1.0
 40
1.0
 10
54.5703048523
 20
77.5565131442
 30
0.0
 10
54.5747909917
 20
77.5565135677
 30
0.0
 10
54.5936389802
 20
77.5558821545
 30
0.0
 10
54.6123646965
 20
77.5529611174
 30
0.0
 10
54.6263939419
 20
77.5498887654
 30
0.0
  0
SPLINE
  5
50F
100
AcDbEntity
  8
DEFAULT_2
100
AcDbSpline
 62
8
  6
HIDDEN
 70
0
 71
3
 72
9
 73
5
 74
0
 42
0.0000001
 43
0.0000001
 44
0.0000000001
 40
0.0
 40
0.0
 40
0.0
 40
0.0
 40
0.2394496305
 40
1.0
 40
1.0
 40
1.0
 40
1.0
 10
55.3636445411
 20
72.2786334719
 30
0.0
 10
55.3614956369
 20
72.2786330966
 30
0.0
 10
55.3525214188
 20
72.2784750972
 30
0.0
 10
55.3435622421
 20
72.2777390601
 30
0.0
 10
55.336783939
 20
72.2769382552
 30
0.0
  0
SPLINE
  5
510
100
AcDbEntity
  8
DEFAULT_2
100
AcDbSpline
 62
8
  6
HIDDEN
 70
0
 71
3
 72
9
 73
5
 74
0
 42
0.0000001
 43
0.0000001
 44
0.0000000001
 40
0.0
 40
0.0
 40
0.0
 40
0.0
 40
0.2334726133
 40
1.0
 40
1.0
 40
1.0
 40
1.0
 10
55.336783939
 20
72.2769382552
 30
0.0
 10
55.3319817741
 20
72.2763709159
 30
0.0
 10
55.3114757763
 20
72.2734118586
 30
0.0
 10
55.2912648358
 20
72.268620245
 30
0.0
 10
55.2759828206
 20
72.2643185446
 30
0.0
  0
SPLINE
  5
511
100
AcDbEntity
  8
DEFAULT_2
100
AcDbSpline
 62
8
  6
HIDDEN
 70
0
 71
3
 72
9
 73
5
 74
0
 42
0.0000001
 43
0.0000001
 44
0.0000000001
 40
0.0
 40
0.0
 40
0.0
 40
0.0
 40
0.2423763433
 40
1.0
 40
1.0
 40
1.0
 40
1.0
 10
55.2759828206
 20
72.2643185446
 30
0.0
 10
55.2726428779
 20
72.2633783915
 30
0.0
 10
55.2588997792
 20
72.2593687911
 30
0.0
 10
55.2453014549
 20
72.254869745
 30
0.0
 10
55.2350793825
 20
72.2512448355
 30
0.0
  0
SPLINE
  5
512
100
AcDbEntity
  8
DEFAULT_2
100
AcDbSpline
 62
8
  6
HIDDEN
 70
0
 71
3
 72
9
 73
5
 74
0
 42
0.0000001
 43
0.0000001
 44
0.0000000001
 40
0.0
 40
0.0
 40
0.0
 40
0.0
 40
0.2380184769
 40
1.0
 40
1.0
 40
1.0
 40
1.0
 10
54.5703048523
 20
71.9603014077
 30
0.0
 10
54.5747909917
 20
71.9603009842
 30
0.0
 10
54.5936389802
 20
71.9609323973
 30
0.0
 10
54.6123646965
 20
71.9638534344
 30
0.0
 10
54.6263939419
 20
71.9669257864
 30
0.0
  0
SPLINE
  5
513
100
AcDbEntity
  8
DEFAULT_2
100
AcDbSpline
 62
8
  6
HIDDEN
 70
0
 71
3
 72
9
 73
5
 74
0
 42
0.0000001
 43
0.0000001
 44
0.0000000001
 40
0.0
 40
0.0
 40
0.0
 40
0.0
 40
0.2394501414
 40
1.0
 40
1.0
 40
1.0
 40
1.0
 10
55.3636445411
 20
77.2381810799
 30
0.0
 10
55.3614957527
 20
77.2381814552
 30
0.0
 10
55.3525220374
 20
77.2383394374
 30
0.0
 10
55.3435633607
 20
77.2390753962
 30
0.0
 10
55.3367854377
 20
77.2398761196
 30
0.0
  0
SPLINE
  5
514
100
AcDbEntity
  8
DEFAULT_2
100
AcDbSpline
 62
8
  6
HIDDEN
 70
0
 71
3
 72
9
 73
5
 74
0
 42
0.0000001
 43
0.0000001
 44
0.0000000001
 40
0.0
 40
0.0
 40
0.0
 40
0.0
 40
0.2334721045
 40
1.0
 40
1.0
 40
1.0
 40
1.0
 10
55.3367854377
 20
77.2398761196
 30
0.0
 10
55.3319831637
 20
77.2404434458
 30
0.0
 10
55.3114766556
 20
77.2434024877
 30
0.0
 10
55.2912652169
 20
77.2481941996
 30
0.0
 10
55.2759828211
 20
77.2524960071
 30
0.0
  0
SPLINE
  5
515
100
AcDbEntity
  8
DEFAULT_2
100
AcDbSpline
 62
8
  6
HIDDEN
 70
0
 71
3
 72
9
 73
5
 74
0
 42
0.0000001
 43
0.0000001
 44
0.0000000001
 40
0.0
 40
0.0
 40
0.0
 40
0.0
 40
0.2391413748
 40
1.0
 40
1.0
 40
1.0
 40
1.0
 10
55.2350817446
 20
77.2655688787
 30
0.0
 10
55.2283852821
 20
77.2679435259
 30
0.0
 10
55.2005233858
 20
77.2782681217
 30
0.0
 10
55.1732030058
 20
77.2900238406
 30
0.0
 10
55.1526992124
 20
77.2995425923
 30
0.0
  0
SPLINE
  5
516
100
AcDbEntity
  8
DEFAULT_2
100
AcDbSpline
 62
8
  6
HIDDEN
 70
0
 71
3
 72
9
 73
5
 74
0
 42
0.0000001
 43
0.0000001
 44
0.0000000001
 40
0.0
 40
0.0
 40
0.0
 40
0.0
 40
0.4578714035
 40
1.0
 40
1.0
 40
1.0
 40
1.0
 10
54.5703048523
 20
93.5565131442
 30
0.0
 10
54.5994327906
 20
93.556515894
 30
0.0
 10
54.6628312385
 20
93.5434268351
 30
0.0
 10
54.7213794434
 20
93.518203304
 30
0.0
 10
54.7521954872
 20
93.5027179396
 30
0.0
  0
SPLINE
  5
517
100
AcDbEntity
  8
DEFAULT_2
100
AcDbSpline
 62
8
  6
HIDDEN
 70
0
 71
3
 72
10
 73
6
 74
0
 42
0.0000001
 43
0.0000001
 44
0.0000000001
 40
0.0
 40
0.0
 40
0.0
 40
0.0
 40
0.1995879107
 40
0.4371451702
 40
1.0
 40
1.0
 40
1.0
 40
1.0
 10
55.3636445411
 20
88.2786334719
 30
0.0
 10
55.3452233867
 20
88.2786302544
 30
0.0
 10
55.3049293474
 20
88.2730296756
 30
0.0
 10
55.216165115
 20
88.2473654189
 30
0.0
 10
55.1485939626
 20
88.216458054
 30
0.0
 10
55.1024593349
 20
88.1925767352
 30
0.0
  0
SPLINE
  5
518
100
AcDbEntity
  8
DEFAULT_2
100
AcDbSpline
 62
8
  6
HIDDEN
 70
0
 71
3
 72
9
 73
5
 74
0
 42
0.0000001
 43
0.0000001
 44
0.0000000001
 40
0.0
 40
0.0
 40
0.0
 40
0.0
 40
0.242376343
 40
1.0
 40
1.0
 40
1.0
 40
1.0
 10
55.2759828218
 20
88.2643185449
 30
0.0
 10
55.272642879
 20
88.2633783918
 30
0.0
 10
55.2588997799
 20
88.2593687913
 30
0.0
 10
55.2453014552
 20
88.2548697451
 30
0.0
 10
55.2350793825
 20
88.2512448355
 30
0.0
  0
SPLINE
  5
519
100
AcDbEntity
  8
DEFAULT_2
100
AcDbSpline
 62
8
  6
HIDDEN
 70
0
 71
3
 72
9
 73
5
 74
0
 42
0.0000001
 43
0.0000001
 44
0.0000000001
 40
0.0
 40
0.0
 40
0.0
 40
0.0
 40
0.4578714035
 40
1.0
 40
1.0
 40
1.0
 40
1.0
 10
54.5703048523
 20
109.5565131442
 30
0.0
 10
54.5994327906
 20
109.556515894
 30
0.0
 10
54.6628312385
 20
109.5434268351
 30
0.0
 10
54.7213794434
 20
109.518203304
 30
0.0
 10
54.7521954872
 20
109.5027179396
 30
0.0
  0
SPLINE
  5
51A
100
AcDbEntity
  8
DEFAULT_2
100
AcDbSpline
 62
8
  6
HIDDEN
 70
0
 71
3
 72
10
 73
6
 74
0
 42
0.0000001
 43
0.0000001
 44
0.0000000001
 40
0.0
 40
0.0
 40
0.0
 40
0.0
 40
0.1995879107
 40
0.4371451702
 40
1.0
 40
1.0
 40
1.0
 40
1.0
 10
55.3636445411
 20
104.2786334719
 30
0.0
 10
55.3452233867
 20
104.2786302544
 30
0.0
 10
55.3049293474
 20
104.2730296756
 30
0.0
 10
55.216165115
 20
104.2473654189
 30
0.0
 10
55.1485939626
 20
104.216458054
 30
0.0
 10
55.1024593349
 20
104.1925767352
 30
0.0
  0
SPLINE
  5
51B
100
AcDbEntity
  8
DEFAULT_2
100
AcDbSpline
 62
8
  6
HIDDEN
 70
0
 71
3
 72
9
 73
5
 74
0
 42
0.0000001
 43
0.0000001
 44
0.0000000001
 40
0.0
 40
0.0
 40
0.0
 40
0.0
 40
0.2380184769
 40
1.0
 40
1.0
 40
1.0
 40
1.0
 10
54.5703048523
 20
109.5565131442
 30
0.0
 10
54.5747909917
 20
109.5565135677
 30
0.0
 10
54.5936389802
 20
109.5558821545
 30
0.0
 10
54.6123646965
 20
109.5529611174
 30
0.0
 10
54.6263939419
 20
109.5498887654
 30
0.0
  0
SPLINE
  5
51C
100
AcDbEntity
  8
DEFAULT_2
100
AcDbSpline
 62
8
  6
HIDDEN
 70
0
 71
3
 72
9
 73
5
 74
0
 42
0.0000001
 43
0.0000001
 44
0.0000000001
 40
0.0
 40
0.0
 40
0.0
 40
0.0
 40
0.2394496305
 40
1.0
 40
1.0
 40
1.0
 40
1.0
 10
55.3636445411
 20
104.2786334719
 30
0.0
 10
55.3614956369
 20
104.2786330966
 30
0.0
 10
55.3525214188
 20
104.2784750972
 30
0.0
 10
55.3435622421
 20
104.2777390601
 30
0.0
 10
55.336783939
 20
104.2769382552
 30
0.0
  0
SPLINE
  5
51D
100
AcDbEntity
  8
DEFAULT_2
100
AcDbSpline
 62
8
  6
HIDDEN
 70
0
 71
3
 72
9
 73
5
 74
0
 42
0.0000001
 43
0.0000001
 44
0.0000000001
 40
0.0
 40
0.0
 40
0.0
 40
0.0
 40
0.2334726134
 40
1.0
 40
1.0
 40
1.0
 40
1.0
 10
55.336783939
 20
104.2769382552
 30
0.0
 10
55.3319817741
 20
104.2763709159
 30
0.0
 10
55.3114757766
 20
104.2734118587
 30
0.0
 10
55.2912648364
 20
104.2686202451
 30
0.0
 10
55.2759828214
 20
104.2643185448
 30
0.0
  0
SPLINE
  5
51E
100
AcDbEntity
  8
DEFAULT_2
100
AcDbSpline
 62
8
  6
HIDDEN
 70
0
 71
3
 72
9
 73
5
 74
0
 42
0.0000001
 43
0.0000001
 44
0.0000000001
 40
0.0
 40
0.0
 40
0.0
 40
0.0
 40
0.2423763431
 40
1.0
 40
1.0
 40
1.0
 40
1.0
 10
55.2759828214
 20
104.2643185448
 30
0.0
 10
55.2726428786
 20
104.2633783917
 30
0.0
 10
55.2588997797
 20
104.2593687912
 30
0.0
 10
55.2453014551
 20
104.2548697451
 30
0.0
 10
55.2350793825
 20
104.2512448355
 30
0.0
  0
SPLINE
  5
51F
100
AcDbEntity
  8
DEFAULT_2
100
AcDbSpline
 62
8
  6
HIDDEN
 70
0
 71
3
 72
9
 73
5
 74
0
 42
0.0000001
 43
0.0000001
 44
0.0000000001
 40
0.0
 40
0.0
 40
0.0
 40
0.0
 40
0.2380184769
 40
1.0
 40
1.0
 40
1.0
 40
1.0
 10
54.5703048523
 20
103.9603014077
 30
0.0
 10
54.5747909917
 20
103.9603009842
 30
0.0
 10
54.5936389802
 20
103.9609323973
 30
0.0
 10
54.6123646965
 20
103.9638534344
 30
0.0
 10
54.6263939419
 20
103.9669257864
 30
0.0
  0
SPLINE
  5
520
100
AcDbEntity
  8
DEFAULT_2
100
AcDbSpline
 62
8
  6
HIDDEN
 70
0
 71
3
 72
9
 73
5
 74
0
 42
0.0000001
 43
0.0000001
 44
0.0000000001
 40
0.0
 40
0.0
 40
0.0
 40
0.0
 40
0.2394501414
 40
1.0
 40
1.0
 40
1.0
 40
1.0
 10
55.3636445411
 20
109.2381810799
 30
0.0
 10
55.3614957527
 20
109.2381814552
 30
0.0
 10
55.3525220374
 20
109.2383394374
 30
0.0
 10
55.3435633607
 20
109.2390753962
 30
0.0
 10
55.3367854377
 20
109.2398761196
 30
0.0
  0
SPLINE
  5
521
100
AcDbEntity
  8
DEFAULT_2
100
AcDbSpline
 62
8
  6
HIDDEN
 70
0
 71
3
 72
9
 73
5
 74
0
 42
0.0000001
 43
0.0000001
 44
0.0000000001
 40
0.0
 40
0.0
 40
0.0
 40
0.0
 40
0.2334721044
 40
1.0
 40
1.0
 40
1.0
 40
1.0
 10
55.3367854377
 20
109.2398761196
 30
0.0
 10
55.3319831637
 20
109.2404434458
 30
0.0
 10
55.3114766554
 20
109.2434024877
 30
0.0
 10
55.2912652165
 20
109.2481941997
 30
0.0
 10
55.2759828207
 20
109.2524960073
 30
0.0
  0
SPLINE
  5
522
100
AcDbEntity
  8
DEFAULT_2
100
AcDbSpline
 62
8
  6
HIDDEN
 70
0
 71
3
 72
9
 73
5
 74
0
 42
0.0000001
 43
0.0000001
 44
0.0000000001
 40
0.0
 40
0.0
 40
0.0
 40
0.0
 40
0.2391413748
 40
1.0
 40
1.0
 40
1.0
 40
1.0
 10
55.2350817446
 20
109.2655688787
 30
0.0
 10
55.2283852821
 20
109.2679435259
 30
0.0
 10
55.2005233858
 20
109.2782681217
 30
0.0
 10
55.1732030058
 20
109.2900238406
 30
0.0
 10
55.1526992124
 20
109.2995425923
 30
0.0
  0
SPLINE
  5
523
100
AcDbEntity
  8
DEFAULT_2
100
AcDbSpline
 62
8
  6
HIDDEN
 70
0
 71
3
 72
9
 73
5
 74
0
 42
0.0000001
 43
0.0000001
 44
0.0000000001
 40
0.0
 40
0.0
 40
0.0
 40
0.0
 40
0.2380184769
 40
1.0
 40
1.0
 40
1.0
 40
1.0
 10
54.5703048523
 20
93.5565131442
 30
0.0
 10
54.5747909917
 20
93.5565135677
 30
0.0
 10
54.5936389802
 20
93.5558821545
 30
0.0
 10
54.6123646965
 20
93.5529611174
 30
0.0
 10
54.6263939419
 20
93.5498887654
 30
0.0
  0
SPLINE
  5
524
100
AcDbEntity
  8
DEFAULT_2
100
AcDbSpline
 62
8
  6
HIDDEN
 70
0
 71
3
 72
9
 73
5
 74
0
 42
0.0000001
 43
0.0000001
 44
0.0000000001
 40
0.0
 40
0.0
 40
0.0
 40
0.0
 40
0.2394496305
 40
1.0
 40
1.0
 40
1.0
 40
1.0
 10
55.3636445411
 20
88.2786334719
 30
0.0
 10
55.3614956369
 20
88.2786330966
 30
0.0
 10
55.3525214188
 20
88.2784750972
 30
0.0
 10
55.3435622421
 20
88.2777390601
 30
0.0
 10
55.336783939
 20
88.2769382552
 30
0.0
  0
SPLINE
  5
525
100
AcDbEntity
  8
DEFAULT_2
100
AcDbSpline
 62
8
  6
HIDDEN
 70
0
 71
3
 72
9
 73
5
 74
0
 42
0.0000001
 43
0.0000001
 44
0.0000000001
 40
0.0
 40
0.0
 40
0.0
 40
0.0
 40
0.2334726133
 40
1.0
 40
1.0
 40
1.0
 40
1.0
 10
55.336783939
 20
88.2769382552
 30
0.0
 10
55.3319817741
 20
88.2763709159
 30
0.0
 10
55.3114757764
 20
88.2734118587
 30
0.0
 10
55.291264836
 20
88.268620245
 30
0.0
 10
55.2759828209
 20
88.2643185446
 30
0.0
  0
SPLINE
  5
526
100
AcDbEntity
  8
DEFAULT_2
100
AcDbSpline
 62
8
  6
HIDDEN
 70
0
 71
3
 72
9
 73
5
 74
0
 42
0.0000001
 43
0.0000001
 44
0.0000000001
 40
0.0
 40
0.0
 40
0.0
 40
0.0
 40
0.2380184769
 40
1.0
 40
1.0
 40
1.0
 40
1.0
 10
54.5703048523
 20
87.9603014077
 30
0.0
 10
54.5747909917
 20
87.9603009842
 30
0.0
 10
54.5936389802
 20
87.9609323973
 30
0.0
 10
54.6123646965
 20
87.9638534344
 30
0.0
 10
54.6263939419
 20
87.9669257864
 30
0.0
  0
SPLINE
  5
527
100
AcDbEntity
  8
DEFAULT_2
100
AcDbSpline
 62
8
  6
HIDDEN
 70
0
 71
3
 72
9
 73
5
 74
0
 42
0.0000001
 43
0.0000001
 44
0.0000000001
 40
0.0
 40
0.0
 40
0.0
 40
0.0
 40
0.2394501414
 40
1.0
 40
1.0
 40
1.0
 40
1.0
 10
55.3636445411
 20
93.2381810799
 30
0.0
 10
55.3614957527
 20
93.2381814552
 30
0.0
 10
55.3525220374
 20
93.2383394374
 30
0.0
 10
55.3435633607
 20
93.2390753962
 30
0.0
 10
55.3367854377
 20
93.2398761196
 30
0.0
  0
SPLINE
  5
528
100
AcDbEntity
  8
DEFAULT_2
100
AcDbSpline
 62
8
  6
HIDDEN
 70
0
 71
3
 72
9
 73
5
 74
0
 42
0.0000001
 43
0.0000001
 44
0.0000000001
 40
0.0
 40
0.0
 40
0.0
 40
0.0
 40
0.2334721045
 40
1.0
 40
1.0
 40
1.0
 40
1.0
 10
55.3367854377
 20
93.2398761196
 30
0.0
 10
55.3319831637
 20
93.2404434458
 30
0.0
 10
55.3114766557
 20
93.2434024877
 30
0.0
 10
55.2912652171
 20
93.2481941995
 30
0.0
 10
55.2759828214
 20
93.2524960071
 30
0.0
  0
SPLINE
  5
529
100
AcDbEntity
  8
DEFAULT_2
100
AcDbSpline
 62
8
  6
HIDDEN
 70
0
 71
3
 72
9
 73
5
 74
0
 42
0.0000001
 43
0.0000001
 44
0.0000000001
 40
0.0
 40
0.0
 40
0.0
 40
0.0
 40
0.2391413748
 40
1.0
 40
1.0
 40
1.0
 40
1.0
 10
55.2350817446
 20
93.2655688787
 30
0.0
 10
55.2283852821
 20
93.2679435259
 30
0.0
 10
55.2005233858
 20
93.2782681217
 30
0.0
 10
55.1732030058
 20
93.2900238406
 30
0.0
 10
55.1526992124
 20
93.2995425923
 30
0.0
  0
SPLINE
  5
52A
100
AcDbEntity
  8
DEFAULT_2
100
AcDbSpline
 62
8
  6
HIDDEN
 70
0
 71
3
 72
9
 73
5
 74
0
 42
0.0000001
 43
0.0000001
 44
0.0000000001
 40
0.0
 40
0.0
 40
0.0
 40
0.0
 40
0.2380184769
 40
1.0
 40
1.0
 40
1.0
 40
1.0
 10
54.5703048523
 20
114.5565131442
 30
0.0
 10
54.5747909917
 20
114.5565135677
 30
0.0
 10
54.5936389802
 20
114.5558821545
 30
0.0
 10
54.6123646965
 20
114.5529611174
 30
0.0
 10
54.6263939419
 20
114.5498887654
 30
0.0
  0
SPLINE
  5
52B
100
AcDbEntity
  8
DEFAULT_2
100
AcDbSpline
 62
8
  6
HIDDEN
 70
0
 71
3
 72
9
 73
5
 74
0
 42
0.0000001
 43
0.0000001
 44
0.0000000001
 40
0.0
 40
0.0
 40
0.0
 40
0.0
 40
0.2394501414
 40
1.0
 40
1.0
 40
1.0
 40
1.0
 10
55.3636445411
 20
109.2786334719
 30
0.0
 10
55.3614957527
 20
109.2786330966
 30
0.0
 10
55.3525220374
 20
109.2784751145
 30
0.0
 10
55.3435633607
 20
109.2777391556
 30
0.0
 10
55.3367854377
 20
109.2769384322
 30
0.0
  0
SPLINE
  5
52C
100
AcDbEntity
  8
DEFAULT_2
100
AcDbSpline
 62
8
  6
HIDDEN
 70
0
 71
3
 72
9
 73
5
 74
0
 42
0.0000001
 43
0.0000001
 44
0.0000000001
 40
0.0
 40
0.0
 40
0.0
 40
0.0
 40
0.2334721043
 40
1.0
 40
1.0
 40
1.0
 40
1.0
 10
55.3367854377
 20
109.2769384322
 30
0.0
 10
55.3319831637
 20
109.2763711061
 30
0.0
 10
55.3114766554
 20
109.2734120641
 30
0.0
 10
55.2912652164
 20
109.2686203521
 30
0.0
 10
55.2759828205
 20
109.2643185445
 30
0.0
  0
SPLINE
  5
52D
100
AcDbEntity
  8
DEFAULT_2
100
AcDbSpline
 62
8
  6
HIDDEN
 70
0
 71
3
 72
9
 73
5
 74
0
 42
0.0000001
 43
0.0000001
 44
0.0000000001
 40
0.0
 40
0.0
 40
0.0
 40
0.0
 40
0.2391413748
 40
1.0
 40
1.0
 40
1.0
 40
1.0
 10
55.2350817446
 20
109.2512456731
 30
0.0
 10
55.2283852821
 20
109.248871026
 30
0.0
 10
55.2005233858
 20
109.2385464301
 30
0.0
 10
55.1732030058
 20
109.2267907112
 30
0.0
 10
55.1526992124
 20
109.2172719595
 30
0.0
  0
SPLINE
  5
52E
100
AcDbEntity
  8
DEFAULT_2
100
AcDbSpline
 62
8
  6
HIDDEN
 70
0
 71
3
 72
9
 73
5
 74
0
 42
0.0000001
 43
0.0000001
 44
0.0000000001
 40
0.0
 40
0.0
 40
0.0
 40
0.0
 40
0.2380184769
 40
1.0
 40
1.0
 40
1.0
 40
1.0
 10
54.5703048523
 20
108.9603014077
 30
0.0
 10
54.5747909917
 20
108.9603009842
 30
0.0
 10
54.5936389802
 20
108.9609323973
 30
0.0
 10
54.6123646965
 20
108.9638534344
 30
0.0
 10
54.6263939419
 20
108.9669257864
 30
0.0
  0
SPLINE
  5
52F
100
AcDbEntity
  8
DEFAULT_2
100
AcDbSpline
 62
8
  6
HIDDEN
 70
0
 71
3
 72
9
 73
5
 74
0
 42
0.0000001
 43
0.0000001
 44
0.0000000001
 40
0.0
 40
0.0
 40
0.0
 40
0.0
 40
0.2394496305
 40
1.0
 40
1.0
 40
1.0
 40
1.0
 10
55.3636445411
 20
114.2381810799
 30
0.0
 10
55.3614956369
 20
114.2381814553
 30
0.0
 10
55.3525214188
 20
114.2383394547
 30
0.0
 10
55.3435622421
 20
114.2390754917
 30
0.0
 10
55.336783939
 20
114.2398762967
 30
0.0
  0
SPLINE
  5
530
100
AcDbEntity
  8
DEFAULT_2
100
AcDbSpline
 62
8
  6
HIDDEN
 70
0
 71
3
 72
9
 73
5
 74
0
 42
0.0000001
 43
0.0000001
 44
0.0000000001
 40
0.0
 40
0.0
 40
0.0
 40
0.0
 40
0.2334726134
 40
1.0
 40
1.0
 40
1.0
 40
1.0
 10
55.336783939
 20
114.2398762967
 30
0.0
 10
55.3319817741
 20
114.2404436359
 30
0.0
 10
55.3114757766
 20
114.2434026931
 30
0.0
 10
55.2912648364
 20
114.2481943067
 30
0.0
 10
55.2759828214
 20
114.2524960071
 30
0.0
  0
SPLINE
  5
531
100
AcDbEntity
  8
DEFAULT_2
100
AcDbSpline
 62
8
  6
HIDDEN
 70
0
 71
3
 72
9
 73
5
 74
0
 42
0.0000001
 43
0.0000001
 44
0.0000000001
 40
0.0
 40
0.0
 40
0.0
 40
0.0
 40
0.5419939463
 40
1.0
 40
1.0
 40
1.0
 40
1.0
 10
54.7521954872
 20
77.0140966123
 30
0.0
 10
54.7213866419
 20
76.9986148652
 30
0.0
 10
54.6628389356
 20
76.9733852016
 30
0.0
 10
54.5994401634
 20
76.9603010839
 30
0.0
 10
54.5703032289
 20
76.9602961267
 30
0.0
  0
SPLINE
  5
532
100
AcDbEntity
  8
DEFAULT_2
100
AcDbSpline
 62
8
  6
HIDDEN
 70
0
 71
3
 72
9
 73
5
 74
0
 42
0.0000001
 43
0.0000001
 44
0.0000000001
 40
0.0
 40
0.0
 40
0.0
 40
0.0
 40
0.2574619986
 40
1.0
 40
1.0
 40
1.0
 40
1.0
 10
55.235079402
 20
77.2512448426
 30
0.0
 10
55.2385531252
 20
77.2524766799
 30
0.0
 10
55.2520798799
 20
77.2571623533
 30
0.0
 10
55.2657507208
 20
77.2614383308
 30
0.0
 10
55.2759828054
 20
77.2643185364
 30
0.0
  0
SPLINE
  5
533
100
AcDbEntity
  8
DEFAULT_2
100
AcDbSpline
 62
8
  6
HIDDEN
 70
0
 71
3
 72
10
 73
6
 74
0
 42
0.0000001
 43
0.0000001
 44
0.0000000001
 40
0.0
 40
0.0
 40
0.0
 40
0.0
 40
0.562854841
 40
0.8004120591
 40
1.0
 40
1.0
 40
1.0
 40
1.0
 10
55.1024593349
 20
82.3242378166
 30
0.0
 10
55.1485939659
 20
82.3003564961
 30
0.0
 10
55.216165117
 20
82.2694491204
 30
0.0
 10
55.3049293604
 20
82.2437848884
 30
0.0
 10
55.345223397
 20
82.2381842917
 30
0.0
 10
55.3636445552
 20
82.2381810663
 30
0.0
  0
SPLINE
  5
534
100
AcDbEntity
  8
DEFAULT_2
100
AcDbSpline
 62
8
  6
HIDDEN
 70
0
 71
3
 72
9
 73
5
 74
0
 42
0.0000001
 43
0.0000001
 44
0.0000000001
 40
0.0
 40
0.0
 40
0.0
 40
0.0
 40
0.2623824621
 40
1.0
 40
1.0
 40
1.0
 40
1.0
 10
54.6263841648
 20
76.9669238948
 30
0.0
 10
54.6215544417
 20
76.9658669491
 30
0.0
 10
54.6030692516
 20
76.9622346385
 30
0.0
 10
54.584202015
 20
76.9602984914
 30
0.0
 10
54.5703032289
 20
76.9602961267
 30
0.0
  0
SPLINE
  5
535
100
AcDbEntity
  8
DEFAULT_2
100
AcDbSpline
 62
8
  6
HIDDEN
 70
0
 71
3
 72
9
 73
5
 74
0
 42
0.0000001
 43
0.0000001
 44
0.0000000001
 40
0.0
 40
0.0
 40
0.0
 40
0.0
 40
0.2605380041
 40
1.0
 40
1.0
 40
1.0
 40
1.0
 10
55.1526993476
 20
77.2172720229
 30
0.0
 10
55.1597200505
 20
77.2205313372
 30
0.0
 10
55.1867891559
 20
77.2327727684
 30
0.0
 10
55.2143739214
 20
77.2439023511
 30
0.0
 10
55.235079402
 20
77.2512448426
 30
0.0
  0
SPLINE
  5
536
100
AcDbEntity
  8
DEFAULT_2
100
AcDbSpline
 62
8
  6
HIDDEN
 70
0
 71
3
 72
9
 73
5
 74
0
 42
0.0000001
 43
0.0000001
 44
0.0000000001
 40
0.0
 40
0.0
 40
0.0
 40
0.0
 40
0.2605343447
 40
1.0
 40
1.0
 40
1.0
 40
1.0
 10
55.3367839553
 20
77.2769382555
 30
0.0
 10
55.3391058691
 20
77.2772125729
 30
0.0
 10
55.3480300631
 20
77.2781545081
 30
0.0
 10
55.3570085145
 20
77.2786323236
 30
0.0
 10
55.3636445552
 20
77.2786334855
 30
0.0
  0
SPLINE
  5
537
100
AcDbEntity
  8
DEFAULT_2
100
AcDbSpline
 62
8
  6
HIDDEN
 70
0
 71
3
 72
9
 73
5
 74
0
 42
0.0000001
 43
0.0000001
 44
0.0000000001
 40
0.0
 40
0.0
 40
0.0
 40
0.0
 40
0.2574619985
 40
1.0
 40
1.0
 40
1.0
 40
1.0
 10
55.235079402
 20
82.2655697092
 30
0.0
 10
55.2385531251
 20
82.2643378719
 30
0.0
 10
55.2520798798
 20
82.2596521986
 30
0.0
 10
55.2657507206
 20
82.2553762211
 30
0.0
 10
55.2759828052
 20
82.2524960155
 30
0.0
  0
SPLINE
  5
538
100
AcDbEntity
  8
DEFAULT_2
100
AcDbSpline
 62
8
  6
HIDDEN
 70
0
 71
3
 72
9
 73
5
 74
0
 42
0.0000001
 43
0.0000001
 44
0.0000000001
 40
0.0
 40
0.0
 40
0.0
 40
0.0
 40
0.2663218644
 40
1.0
 40
1.0
 40
1.0
 40
1.0
 10
55.2759828052
 20
82.2524960155
 30
0.0
 10
55.281291982
 20
82.2510015477
 30
0.0
 10
55.3013069961
 20
82.2456949727
 30
0.0
 10
55.3216944814
 20
82.2416590091
 30
0.0
 10
55.3367839553
 20
82.2398762963
 30
0.0
  0
SPLINE
  5
539
100
AcDbEntity
  8
DEFAULT_2
100
AcDbSpline
 62
8
  6
HIDDEN
 70
0
 71
3
 72
9
 73
5
 74
0
 42
0.0000001
 43
0.0000001
 44
0.0000000001
 40
0.0
 40
0.0
 40
0.0
 40
0.0
 40
0.2605343447
 40
1.0
 40
1.0
 40
1.0
 40
1.0
 10
55.3367839553
 20
82.2398762963
 30
0.0
 10
55.3391058691
 20
82.2396019789
 30
0.0
 10
55.3480300631
 20
82.2386600437
 30
0.0
 10
55.3570085145
 20
82.2381822282
 30
0.0
 10
55.3636445552
 20
82.2381810663
 30
0.0
  0
SPLINE
  5
53A
100
AcDbEntity
  8
DEFAULT_2
100
AcDbSpline
 62
8
  6
HIDDEN
 70
0
 71
3
 72
9
 73
5
 74
0
 42
0.0000001
 43
0.0000001
 44
0.0000000001
 40
0.0
 40
0.0
 40
0.0
 40
0.0
 40
0.2623824621
 40
1.0
 40
1.0
 40
1.0
 40
1.0
 10
54.6263841648
 20
82.549890657
 30
0.0
 10
54.6215544417
 20
82.5509476028
 30
0.0
 10
54.6030692516
 20
82.5545799133
 30
0.0
 10
54.584202015
 20
82.5565160605
 30
0.0
 10
54.5703032289
 20
82.5565184251
 30
0.0
  0
SPLINE
  5
53B
100
AcDbEntity
  8
DEFAULT_2
100
AcDbSpline
 62
8
  6
HIDDEN
 70
0
 71
3
 72
9
 73
5
 74
0
 42
0.0000001
 43
0.0000001
 44
0.0000000001
 40
0.0
 40
0.0
 40
0.0
 40
0.0
 40
0.5419939463
 40
1.0
 40
1.0
 40
1.0
 40
1.0
 10
54.7521954872
 20
85.0140966123
 30
0.0
 10
54.7213866419
 20
84.9986148652
 30
0.0
 10
54.6628389356
 20
84.9733852016
 30
0.0
 10
54.5994401634
 20
84.9603010839
 30
0.0
 10
54.5703032289
 20
84.9602961267
 30
0.0
  0
SPLINE
  5
53C
100
AcDbEntity
  8
DEFAULT_2
100
AcDbSpline
 62
8
  6
HIDDEN
 70
0
 71
3
 72
9
 73
5
 74
0
 42
0.0000001
 43
0.0000001
 44
0.0000000001
 40
0.0
 40
0.0
 40
0.0
 40
0.0
 40
0.2663218646
 40
1.0
 40
1.0
 40
1.0
 40
1.0
 10
55.2759828041
 20
85.2643185361
 30
0.0
 10
55.2812919811
 20
85.2658130039
 30
0.0
 10
55.3013069955
 20
85.271119579
 30
0.0
 10
55.3216944812
 20
85.2751555427
 30
0.0
 10
55.3367839553
 20
85.2769382555
 30
0.0
  0
SPLINE
  5
53D
100
AcDbEntity
  8
DEFAULT_2
100
AcDbSpline
 62
8
  6
HIDDEN
 70
0
 71
3
 72
10
 73
6
 74
0
 42
0.0000001
 43
0.0000001
 44
0.0000000001
 40
0.0
 40
0.0
 40
0.0
 40
0.0
 40
0.562854841
 40
0.8004120591
 40
1.0
 40
1.0
 40
1.0
 40
1.0
 10
55.1024593349
 20
90.3242378166
 30
0.0
 10
55.1485939659
 20
90.3003564961
 30
0.0
 10
55.216165117
 20
90.2694491204
 30
0.0
 10
55.3049293604
 20
90.2437848884
 30
0.0
 10
55.345223397
 20
90.2381842917
 30
0.0
 10
55.3636445552
 20
90.2381810663
 30
0.0
  0
SPLINE
  5
53E
100
AcDbEntity
  8
DEFAULT_2
100
AcDbSpline
 62
8
  6
HIDDEN
 70
0
 71
3
 72
9
 73
5
 74
0
 42
0.0000001
 43
0.0000001
 44
0.0000000001
 40
0.0
 40
0.0
 40
0.0
 40
0.0
 40
0.2574619988
 40
1.0
 40
1.0
 40
1.0
 40
1.0
 10
55.235079402
 20
114.2655697092
 30
0.0
 10
55.2385531252
 20
114.2643378719
 30
0.0
 10
55.2520798802
 20
114.2596521984
 30
0.0
 10
55.2657507214
 20
114.2553762209
 30
0.0
 10
55.2759828062
 20
114.2524960152
 30
0.0
  0
SPLINE
  5
53F
100
AcDbEntity
  8
DEFAULT_2
100
AcDbSpline
 62
8
  6
HIDDEN
 70
0
 71
3
 72
9
 73
5
 74
0
 42
0.0000001
 43
0.0000001
 44
0.0000000001
 40
0.0
 40
0.0
 40
0.0
 40
0.0
 40
0.2623824621
 40
1.0
 40
1.0
 40
1.0
 40
1.0
 10
54.6263841648
 20
84.9669238948
 30
0.0
 10
54.6215544417
 20
84.9658669491
 30
0.0
 10
54.6030692516
 20
84.9622346385
 30
0.0
 10
54.584202015
 20
84.9602984914
 30
0.0
 10
54.5703032289
 20
84.9602961267
 30
0.0
  0
SPLINE
  5
540
100
AcDbEntity
  8
DEFAULT_2
100
AcDbSpline
 62
8
  6
HIDDEN
 70
0
 71
3
 72
9
 73
5
 74
0
 42
0.0000001
 43
0.0000001
 44
0.0000000001
 40
0.0
 40
0.0
 40
0.0
 40
0.0
 40
0.2574619986
 40
1.0
 40
1.0
 40
1.0
 40
1.0
 10
55.235079402
 20
85.2512448426
 30
0.0
 10
55.2385531252
 20
85.2524766799
 30
0.0
 10
55.2520798798
 20
85.2571623533
 30
0.0
 10
55.2657507207
 20
85.2614383307
 30
0.0
 10
55.2759828053
 20
85.2643185364
 30
0.0
  0
SPLINE
  5
541
100
AcDbEntity
  8
DEFAULT_2
100
AcDbSpline
 62
8
  6
HIDDEN
 70
0
 71
3
 72
9
 73
5
 74
0
 42
0.0000001
 43
0.0000001
 44
0.0000000001
 40
0.0
 40
0.0
 40
0.0
 40
0.0
 40
0.2605343447
 40
1.0
 40
1.0
 40
1.0
 40
1.0
 10
55.3367839553
 20
85.2769382555
 30
0.0
 10
55.3391058691
 20
85.2772125729
 30
0.0
 10
55.3480300631
 20
85.2781545081
 30
0.0
 10
55.3570085145
 20
85.2786323236
 30
0.0
 10
55.3636445552
 20
85.2786334855
 30
0.0
  0
SPLINE
  5
542
100
AcDbEntity
  8
DEFAULT_2
100
AcDbSpline
 62
8
  6
HIDDEN
 70
0
 71
3
 72
9
 73
5
 74
0
 42
0.0000001
 43
0.0000001
 44
0.0000000001
 40
0.0
 40
0.0
 40
0.0
 40
0.0
 40
0.2574619988
 40
1.0
 40
1.0
 40
1.0
 40
1.0
 10
55.235079402
 20
90.2655697092
 30
0.0
 10
55.2385531252
 20
90.2643378719
 30
0.0
 10
55.2520798802
 20
90.2596521984
 30
0.0
 10
55.2657507214
 20
90.2553762209
 30
0.0
 10
55.2759828062
 20
90.2524960152
 30
0.0
  0
SPLINE
  5
543
100
AcDbEntity
  8
DEFAULT_2
100
AcDbSpline
 62
8
  6
HIDDEN
 70
0
 71
3
 72
9
 73
5
 74
0
 42
0.0000001
 43
0.0000001
 44
0.0000000001
 40
0.0
 40
0.0
 40
0.0
 40
0.0
 40
0.2663218642
 40
1.0
 40
1.0
 40
1.0
 40
1.0
 10
55.2759828062
 20
90.2524960152
 30
0.0
 10
55.281291983
 20
90.2510015474
 30
0.0
 10
55.3013069967
 20
90.2456949726
 30
0.0
 10
55.3216944817
 20
90.241659009
 30
0.0
 10
55.3367839553
 20
90.2398762963
 30
0.0
  0
SPLINE
  5
544
100
AcDbEntity
  8
DEFAULT_2
100
AcDbSpline
 62
8
  6
HIDDEN
 70
0
 71
3
 72
9
 73
5
 74
0
 42
0.0000001
 43
0.0000001
 44
0.0000000001
 40
0.0
 40
0.0
 40
0.0
 40
0.0
 40
0.2605343447
 40
1.0
 40
1.0
 40
1.0
 40
1.0
 10
55.3367839553
 20
90.2398762963
 30
0.0
 10
55.3391058691
 20
90.2396019789
 30
0.0
 10
55.3480300631
 20
90.2386600437
 30
0.0
 10
55.3570085145
 20
90.2381822282
 30
0.0
 10
55.3636445552
 20
90.2381810663
 30
0.0
  0
SPLINE
  5
545
100
AcDbEntity
  8
DEFAULT_2
100
AcDbSpline
 62
8
  6
HIDDEN
 70
0
 71
3
 72
9
 73
5
 74
0
 42
0.0000001
 43
0.0000001
 44
0.0000000001
 40
0.0
 40
0.0
 40
0.0
 40
0.0
 40
0.2623824621
 40
1.0
 40
1.0
 40
1.0
 40
1.0
 10
54.6263841648
 20
90.549890657
 30
0.0
 10
54.6215544417
 20
90.5509476028
 30
0.0
 10
54.6030692516
 20
90.5545799133
 30
0.0
 10
54.584202015
 20
90.5565160605
 30
0.0
 10
54.5703032289
 20
90.5565184251
 30
0.0
  0
SPLINE
  5
546
100
AcDbEntity
  8
DEFAULT_2
100
AcDbSpline
 62
8
  6
HIDDEN
 70
0
 71
3
 72
9
 73
5
 74
0
 42
0.0000001
 43
0.0000001
 44
0.0000000001
 40
0.0
 40
0.0
 40
0.0
 40
0.0
 40
0.2574619986
 40
1.0
 40
1.0
 40
1.0
 40
1.0
 10
55.235079402
 20
88.2512448426
 30
0.0
 10
55.2385531252
 20
88.2524766799
 30
0.0
 10
55.25207988
 20
88.2571623533
 30
0.0
 10
55.265750721
 20
88.2614383308
 30
0.0
 10
55.2759828056
 20
88.2643185365
 30
0.0
  0
SPLINE
  5
547
100
AcDbEntity
  8
DEFAULT_2
100
AcDbSpline
 62
8
  6
HIDDEN
 70
0
 71
3
 72
9
 73
5
 74
0
 42
0.0000001
 43
0.0000001
 44
0.0000000001
 40
0.0
 40
0.0
 40
0.0
 40
0.0
 40
0.5419939463
 40
1.0
 40
1.0
 40
1.0
 40
1.0
 10
54.7521954872
 20
93.0140966123
 30
0.0
 10
54.7213866419
 20
92.9986148652
 30
0.0
 10
54.6628389356
 20
92.9733852016
 30
0.0
 10
54.5994401634
 20
92.9603010839
 30
0.0
 10
54.5703032289
 20
92.9602961267
 30
0.0
  0
SPLINE
  5
548
100
AcDbEntity
  8
DEFAULT_2
100
AcDbSpline
 62
8
  6
HIDDEN
 70
0
 71
3
 72
9
 73
5
 74
0
 42
0.0000001
 43
0.0000001
 44
0.0000000001
 40
0.0
 40
0.0
 40
0.0
 40
0.0
 40
0.2574619989
 40
1.0
 40
1.0
 40
1.0
 40
1.0
 10
55.235079402
 20
93.2512448426
 30
0.0
 10
55.2385531253
 20
93.25247668
 30
0.0
 10
55.2520798805
 20
93.2571623535
 30
0.0
 10
55.2657507219
 20
93.2614383311
 30
0.0
 10
55.2759828069
 20
93.2643185368
 30
0.0
  0
SPLINE
  5
549
100
AcDbEntity
  8
DEFAULT_2
100
AcDbSpline
 62
8
  6
HIDDEN
 70
0
 71
3
 72
10
 73
6
 74
0
 42
0.0000001
 43
0.0000001
 44
0.0000000001
 40
0.0
 40
0.0
 40
0.0
 40
0.0
 40
0.562854841
 40
0.8004120591
 40
1.0
 40
1.0
 40
1.0
 40
1.0
 10
55.1024593349
 20
98.3242378166
 30
0.0
 10
55.1485939659
 20
98.3003564961
 30
0.0
 10
55.216165117
 20
98.2694491204
 30
0.0
 10
55.3049293604
 20
98.2437848884
 30
0.0
 10
55.345223397
 20
98.2381842917
 30
0.0
 10
55.3636445552
 20
98.2381810663
 30
0.0
  0
SPLINE
  5
54A
100
AcDbEntity
  8
DEFAULT_2
100
AcDbSpline
 62
8
  6
HIDDEN
 70
0
 71
3
 72
9
 73
5
 74
0
 42
0.0000001
 43
0.0000001
 44
0.0000000001
 40
0.0
 40
0.0
 40
0.0
 40
0.0
 40
0.2605343447
 40
1.0
 40
1.0
 40
1.0
 40
1.0
 10
55.3367839553
 20
109.2398762963
 30
0.0
 10
55.3391058691
 20
109.2396019789
 30
0.0
 10
55.3480300631
 20
109.2386600437
 30
0.0
 10
55.3570085145
 20
109.2381822282
 30
0.0
 10
55.3636445552
 20
109.2381810663
 30
0.0
  0
SPLINE
  5
54B
100
AcDbEntity
  8
DEFAULT_2
100
AcDbSpline
 62
8
  6
HIDDEN
 70
0
 71
3
 72
9
 73
5
 74
0
 42
0.0000001
 43
0.0000001
 44
0.0000000001
 40
0.0
 40
0.0
 40
0.0
 40
0.0
 40
0.2574619986
 40
1.0
 40
1.0
 40
1.0
 40
1.0
 10
55.235079402
 20
104.2512448426
 30
0.0
 10
55.2385531252
 20
104.2524766799
 30
0.0
 10
55.25207988
 20
104.2571623533
 30
0.0
 10
55.2657507209
 20
104.2614383308
 30
0.0
 10
55.2759828056
 20
104.2643185365
 30
0.0
  0
SPLINE
  5
54C
100
AcDbEntity
  8
DEFAULT_2
100
AcDbSpline
 62
8
  6
HIDDEN
 70
0
 71
3
 72
9
 73
5
 74
0
 42
0.0000001
 43
0.0000001
 44
0.0000000001
 40
0.0
 40
0.0
 40
0.0
 40
0.0
 40
0.2623824621
 40
1.0
 40
1.0
 40
1.0
 40
1.0
 10
54.6263841648
 20
103.9669238948
 30
0.0
 10
54.6215544417
 20
103.9658669491
 30
0.0
 10
54.6030692516
 20
103.9622346385
 30
0.0
 10
54.584202015
 20
103.9602984914
 30
0.0
 10
54.5703032289
 20
103.9602961267
 30
0.0
  0
SPLINE
  5
54D
100
AcDbEntity
  8
DEFAULT_2
100
AcDbSpline
 62
8
  6
HIDDEN
 70
0
 71
3
 72
9
 73
5
 74
0
 42
0.0000001
 43
0.0000001
 44
0.0000000001
 40
0.0
 40
0.0
 40
0.0
 40
0.0
 40
0.2623824621
 40
1.0
 40
1.0
 40
1.0
 40
1.0
 10
54.6263841648
 20
109.549890657
 30
0.0
 10
54.6215544417
 20
109.5509476028
 30
0.0
 10
54.6030692516
 20
109.5545799133
 30
0.0
 10
54.584202015
 20
109.5565160605
 30
0.0
 10
54.5703032289
 20
109.5565184251
 30
0.0
  0
SPLINE
  5
54E
100
AcDbEntity
  8
DEFAULT_2
100
AcDbSpline
 62
8
  6
HIDDEN
 70
0
 71
3
 72
9
 73
5
 74
0
 42
0.0000001
 43
0.0000001
 44
0.0000000001
 40
0.0
 40
0.0
 40
0.0
 40
0.0
 40
0.2623824621
 40
1.0
 40
1.0
 40
1.0
 40
1.0
 10
54.6263841648
 20
92.9669238948
 30
0.0
 10
54.6215544417
 20
92.9658669491
 30
0.0
 10
54.6030692516
 20
92.9622346385
 30
0.0
 10
54.584202015
 20
92.9602984914
 30
0.0
 10
54.5703032289
 20
92.9602961267
 30
0.0
  0
SPLINE
  5
54F
100
AcDbEntity
  8
DEFAULT_2
100
AcDbSpline
 62
8
  6
HIDDEN
 70
0
 71
3
 72
9
 73
5
 74
0
 42
0.0000001
 43
0.0000001
 44
0.0000000001
 40
0.0
 40
0.0
 40
0.0
 40
0.0
 40
0.2605376411
 40
1.0
 40
1.0
 40
1.0
 40
1.0
 10
55.1526993476
 20
109.299542529
 30
0.0
 10
55.1597198439
 20
109.2962833105
 30
0.0
 10
55.1867881871
 20
109.2840422144
 30
0.0
 10
55.2143721599
 20
109.2729129023
 30
0.0
 10
55.2350770462
 20
109.2655705446
 30
0.0
  0
SPLINE
  5
550
100
AcDbEntity
  8
DEFAULT_2
100
AcDbSpline
 62
8
  6
HIDDEN
 70
0
 71
3
 72
9
 73
5
 74
0
 42
0.0000001
 43
0.0000001
 44
0.0000000001
 40
0.0
 40
0.0
 40
0.0
 40
0.0
 40
0.27871401
 40
1.0
 40
1.0
 40
1.0
 40
1.0
 10
55.2653199318
 20
109.255610629
 30
0.0
 10
55.2742148057
 20
109.2529203837
 30
0.0
 10
55.3063109448
 20
109.2440546343
 30
0.0
 10
55.3395956421
 20
109.2381852771
 30
0.0
 10
55.3636445552
 20
109.2381810663
 30
0.0
  0
SPLINE
  5
551
100
AcDbEntity
  8
DEFAULT_2
100
AcDbSpline
 62
8
  6
HIDDEN
 70
0
 71
3
 72
9
 73
5
 74
0
 42
0.0000001
 43
0.0000001
 44
0.0000000001
 40
0.0
 40
0.0
 40
0.0
 40
0.0
 40
0.2663218644
 40
1.0
 40
1.0
 40
1.0
 40
1.0
 10
55.2759828054
 20
104.2643185364
 30
0.0
 10
55.2812919823
 20
104.2658130042
 30
0.0
 10
55.3013069963
 20
104.2711195792
 30
0.0
 10
55.3216944815
 20
104.2751555428
 30
0.0
 10
55.3367839553
 20
104.2769382555
 30
0.0
  0
SPLINE
  5
552
100
AcDbEntity
  8
DEFAULT_2
100
AcDbSpline
 62
8
  6
HIDDEN
 70
0
 71
3
 72
9
 73
5
 74
0
 42
0.0000001
 43
0.0000001
 44
0.0000000001
 40
0.0
 40
0.0
 40
0.0
 40
0.0
 40
0.2605343447
 40
1.0
 40
1.0
 40
1.0
 40
1.0
 10
55.3367839553
 20
104.2769382555
 30
0.0
 10
55.3391058691
 20
104.2772125729
 30
0.0
 10
55.3480300631
 20
104.2781545081
 30
0.0
 10
55.3570085145
 20
104.2786323236
 30
0.0
 10
55.3636445552
 20
104.2786334855
 30
0.0
  0
SPLINE
  5
553
100
AcDbEntity
  8
DEFAULT_2
100
AcDbSpline
 62
8
  6
HIDDEN
 70
0
 71
3
 72
9
 73
5
 74
0
 42
0.0000001
 43
0.0000001
 44
0.0000000001
 40
0.0
 40
0.0
 40
0.0
 40
0.0
 40
0.2605380041
 40
1.0
 40
1.0
 40
1.0
 40
1.0
 10
55.1526993476
 20
93.2172720229
 30
0.0
 10
55.1597200505
 20
93.2205313372
 30
0.0
 10
55.1867891559
 20
93.2327727684
 30
0.0
 10
55.2143739214
 20
93.2439023511
 30
0.0
 10
55.235079402
 20
93.2512448426
 30
0.0
  0
SPLINE
  5
554
100
AcDbEntity
  8
DEFAULT_2
100
AcDbSpline
 62
8
  6
HIDDEN
 70
0
 71
3
 72
9
 73
5
 74
0
 42
0.0000001
 43
0.0000001
 44
0.0000000001
 40
0.0
 40
0.0
 40
0.0
 40
0.0
 40
0.2605343447
 40
1.0
 40
1.0
 40
1.0
 40
1.0
 10
55.3367839553
 20
93.2769382555
 30
0.0
 10
55.3391058691
 20
93.2772125729
 30
0.0
 10
55.3480300631
 20
93.2781545081
 30
0.0
 10
55.3570085145
 20
93.2786323236
 30
0.0
 10
55.3636445552
 20
93.2786334855
 30
0.0
  0
SPLINE
  5
555
100
AcDbEntity
  8
DEFAULT_2
100
AcDbSpline
 62
8
  6
HIDDEN
 70
0
 71
3
 72
9
 73
5
 74
0
 42
0.0000001
 43
0.0000001
 44
0.0000000001
 40
0.0
 40
0.0
 40
0.0
 40
0.0
 40
0.5419939463
 40
1.0
 40
1.0
 40
1.0
 40
1.0
 10
54.7521954872
 20
104.0140966123
 30
0.0
 10
54.7213866419
 20
103.9986148652
 30
0.0
 10
54.6628389356
 20
103.9733852016
 30
0.0
 10
54.5994401634
 20
103.9603010839
 30
0.0
 10
54.5703032289
 20
103.9602961267
 30
0.0
  0
SPLINE
  5
556
100
AcDbEntity
  8
DEFAULT_2
100
AcDbSpline
 62
8
  6
HIDDEN
 70
0
 71
3
 72
9
 73
5
 74
0
 42
0.0000001
 43
0.0000001
 44
0.0000000001
 40
0.0
 40
0.0
 40
0.0
 40
0.0
 40
0.2574619987
 40
1.0
 40
1.0
 40
1.0
 40
1.0
 10
55.235079402
 20
98.2655697092
 30
0.0
 10
55.2385531252
 20
98.2643378719
 30
0.0
 10
55.25207988
 20
98.2596521985
 30
0.0
 10
55.265750721
 20
98.255376221
 30
0.0
 10
55.2759828058
 20
98.2524960153
 30
0.0
  0
SPLINE
  5
557
100
AcDbEntity
  8
DEFAULT_2
100
AcDbSpline
 62
8
  6
HIDDEN
 70
0
 71
3
 72
9
 73
5
 74
0
 42
0.0000001
 43
0.0000001
 44
0.0000000001
 40
0.0
 40
0.0
 40
0.0
 40
0.0
 40
0.2663218643
 40
1.0
 40
1.0
 40
1.0
 40
1.0
 10
55.2759828058
 20
98.2524960153
 30
0.0
 10
55.2812919826
 20
98.2510015475
 30
0.0
 10
55.3013069965
 20
98.2456949726
 30
0.0
 10
55.3216944816
 20
98.241659009
 30
0.0
 10
55.3367839553
 20
98.2398762963
 30
0.0
  0
SPLINE
  5
558
100
AcDbEntity
  8
DEFAULT_2
100
AcDbSpline
 62
8
  6
HIDDEN
 70
0
 71
3
 72
9
 73
5
 74
0
 42
0.0000001
 43
0.0000001
 44
0.0000000001
 40
0.0
 40
0.0
 40
0.0
 40
0.0
 40
0.2605343447
 40
1.0
 40
1.0
 40
1.0
 40
1.0
 10
55.3367839553
 20
98.2398762963
 30
0.0
 10
55.3391058691
 20
98.2396019789
 30
0.0
 10
55.3480300631
 20
98.2386600437
 30
0.0
 10
55.3570085145
 20
98.2381822282
 30
0.0
 10
55.3636445552
 20
98.2381810663
 30
0.0
  0
SPLINE
  5
559
100
AcDbEntity
  8
DEFAULT_2
100
AcDbSpline
 62
8
  6
HIDDEN
 70
0
 71
3
 72
9
 73
5
 74
0
 42
0.0000001
 43
0.0000001
 44
0.0000000001
 40
0.0
 40
0.0
 40
0.0
 40
0.0
 40
0.2623824621
 40
1.0
 40
1.0
 40
1.0
 40
1.0
 10
54.6263841648
 20
98.549890657
 30
0.0
 10
54.6215544417
 20
98.5509476028
 30
0.0
 10
54.6030692516
 20
98.5545799133
 30
0.0
 10
54.584202015
 20
98.5565160605
 30
0.0
 10
54.5703032289
 20
98.5565184251
 30
0.0
  0
SPLINE
  5
55A
100
AcDbEntity
  8
DEFAULT_2
100
AcDbSpline
 62
8
  6
HIDDEN
 70
0
 71
3
 72
9
 73
5
 74
0
 42
0.0000001
 43
0.0000001
 44
0.0000000001
 40
0.0
 40
0.0
 40
0.0
 40
0.0
 40
0.2605343447
 40
1.0
 40
1.0
 40
1.0
 40
1.0
 10
55.3367839553
 20
93.2398762963
 30
0.0
 10
55.3391058691
 20
93.2396019789
 30
0.0
 10
55.3480300631
 20
93.2386600437
 30
0.0
 10
55.3570085145
 20
93.2381822282
 30
0.0
 10
55.3636445552
 20
93.2381810663
 30
0.0
  0
SPLINE
  5
55B
100
AcDbEntity
  8
DEFAULT_2
100
AcDbSpline
 62
8
  6
HIDDEN
 70
0
 71
3
 72
9
 73
5
 74
0
 42
0.0000001
 43
0.0000001
 44
0.0000000001
 40
0.0
 40
0.0
 40
0.0
 40
0.0
 40
0.2663218646
 40
1.0
 40
1.0
 40
1.0
 40
1.0
 10
55.2759828044
 20
88.2643185361
 30
0.0
 10
55.2812919813
 20
88.265813004
 30
0.0
 10
55.3013069957
 20
88.2711195791
 30
0.0
 10
55.3216944812
 20
88.2751555427
 30
0.0
 10
55.3367839553
 20
88.2769382555
 30
0.0
  0
SPLINE
  5
55C
100
AcDbEntity
  8
DEFAULT_2
100
AcDbSpline
 62
8
  6
HIDDEN
 70
0
 71
3
 72
9
 73
5
 74
0
 42
0.0000001
 43
0.0000001
 44
0.0000000001
 40
0.0
 40
0.0
 40
0.0
 40
0.0
 40
0.2623824621
 40
1.0
 40
1.0
 40
1.0
 40
1.0
 10
54.6263841648
 20
87.9669238948
 30
0.0
 10
54.6215544417
 20
87.9658669491
 30
0.0
 10
54.6030692516
 20
87.9622346385
 30
0.0
 10
54.584202015
 20
87.9602984914
 30
0.0
 10
54.5703032289
 20
87.9602961267
 30
0.0
  0
SPLINE
  5
55D
100
AcDbEntity
  8
DEFAULT_2
100
AcDbSpline
 62
8
  6
HIDDEN
 70
0
 71
3
 72
9
 73
5
 74
0
 42
0.0000001
 43
0.0000001
 44
0.0000000001
 40
0.0
 40
0.0
 40
0.0
 40
0.0
 40
0.5419939463
 40
1.0
 40
1.0
 40
1.0
 40
1.0
 10
54.7521954872
 20
109.0140966123
 30
0.0
 10
54.7213866419
 20
108.9986148652
 30
0.0
 10
54.6628389356
 20
108.9733852016
 30
0.0
 10
54.5994401634
 20
108.9603010839
 30
0.0
 10
54.5703032289
 20
108.9602961267
 30
0.0
  0
SPLINE
  5
55E
100
AcDbEntity
  8
DEFAULT_2
100
AcDbSpline
 62
8
  6
HIDDEN
 70
0
 71
3
 72
9
 73
5
 74
0
 42
0.0000001
 43
0.0000001
 44
0.0000000001
 40
0.0
 40
0.0
 40
0.0
 40
0.0
 40
0.2574619987
 40
1.0
 40
1.0
 40
1.0
 40
1.0
 10
55.235079402
 20
109.2512448426
 30
0.0
 10
55.2385531252
 20
109.2524766799
 30
0.0
 10
55.2520798801
 20
109.2571623534
 30
0.0
 10
55.2657507212
 20
109.2614383309
 30
0.0
 10
55.275982806
 20
109.2643185366
 30
0.0
  0
SPLINE
  5
55F
100
AcDbEntity
  8
DEFAULT_2
100
AcDbSpline
 62
8
  6
HIDDEN
 70
0
 71
3
 72
10
 73
6
 74
0
 42
0.0000001
 43
0.0000001
 44
0.0000000001
 40
0.0
 40
0.0
 40
0.0
 40
0.0
 40
0.562854841
 40
0.8004120591
 40
1.0
 40
1.0
 40
1.0
 40
1.0
 10
55.1024593349
 20
114.3242378166
 30
0.0
 10
55.1485939659
 20
114.3003564961
 30
0.0
 10
55.216165117
 20
114.2694491204
 30
0.0
 10
55.3049293604
 20
114.2437848884
 30
0.0
 10
55.345223397
 20
114.2381842917
 30
0.0
 10
55.3636445552
 20
114.2381810663
 30
0.0
  0
SPLINE
  5
560
100
AcDbEntity
  8
DEFAULT_2
100
AcDbSpline
 62
8
  6
HIDDEN
 70
0
 71
3
 72
9
 73
5
 74
0
 42
0.0000001
 43
0.0000001
 44
0.0000000001
 40
0.0
 40
0.0
 40
0.0
 40
0.0
 40
0.2623824621
 40
1.0
 40
1.0
 40
1.0
 40
1.0
 10
54.6263841648
 20
93.549890657
 30
0.0
 10
54.6215544417
 20
93.5509476028
 30
0.0
 10
54.6030692516
 20
93.5545799133
 30
0.0
 10
54.584202015
 20
93.5565160605
 30
0.0
 10
54.5703032289
 20
93.5565184251
 30
0.0
  0
SPLINE
  5
561
100
AcDbEntity
  8
DEFAULT_2
100
AcDbSpline
 62
8
  6
HIDDEN
 70
0
 71
3
 72
9
 73
5
 74
0
 42
0.0000001
 43
0.0000001
 44
0.0000000001
 40
0.0
 40
0.0
 40
0.0
 40
0.0
 40
0.2605376411
 40
1.0
 40
1.0
 40
1.0
 40
1.0
 10
55.1526993476
 20
93.299542529
 30
0.0
 10
55.1597198439
 20
93.2962833105
 30
0.0
 10
55.1867881871
 20
93.2840422144
 30
0.0
 10
55.2143721599
 20
93.2729129023
 30
0.0
 10
55.2350770462
 20
93.2655705446
 30
0.0
  0
SPLINE
  5
562
100
AcDbEntity
  8
DEFAULT_2
100
AcDbSpline
 62
8
  6
HIDDEN
 70
0
 71
3
 72
9
 73
5
 74
0
 42
0.0000001
 43
0.0000001
 44
0.0000000001
 40
0.0
 40
0.0
 40
0.0
 40
0.0
 40
0.27871401
 40
1.0
 40
1.0
 40
1.0
 40
1.0
 10
55.2653199318
 20
93.255610629
 30
0.0
 10
55.2742148057
 20
93.2529203837
 30
0.0
 10
55.3063109448
 20
93.2440546343
 30
0.0
 10
55.3395956421
 20
93.2381852771
 30
0.0
 10
55.3636445552
 20
93.2381810663
 30
0.0
  0
SPLINE
  5
563
100
AcDbEntity
  8
DEFAULT_2
100
AcDbSpline
 62
8
  6
HIDDEN
 70
0
 71
3
 72
9
 73
5
 74
0
 42
0.0000001
 43
0.0000001
 44
0.0000000001
 40
0.0
 40
0.0
 40
0.0
 40
0.0
 40
0.2605343447
 40
1.0
 40
1.0
 40
1.0
 40
1.0
 10
55.3367839553
 20
88.2769382555
 30
0.0
 10
55.3391058691
 20
88.2772125729
 30
0.0
 10
55.3480300631
 20
88.2781545081
 30
0.0
 10
55.3570085145
 20
88.2786323236
 30
0.0
 10
55.3636445552
 20
88.2786334855
 30
0.0
  0
SPLINE
  5
564
100
AcDbEntity
  8
DEFAULT_2
100
AcDbSpline
 62
8
  6
HIDDEN
 70
0
 71
3
 72
9
 73
5
 74
0
 42
0.0000001
 43
0.0000001
 44
0.0000000001
 40
0.0
 40
0.0
 40
0.0
 40
0.0
 40
0.5419939463
 40
1.0
 40
1.0
 40
1.0
 40
1.0
 10
54.7521954872
 20
88.0140966123
 30
0.0
 10
54.7213866419
 20
87.9986148652
 30
0.0
 10
54.6628389356
 20
87.9733852016
 30
0.0
 10
54.5994401634
 20
87.9603010839
 30
0.0
 10
54.5703032289
 20
87.9602961267
 30
0.0
  0
SPLINE
  5
565
100
AcDbEntity
  8
DEFAULT_2
100
AcDbSpline
 62
8
  6
HIDDEN
 70
0
 71
3
 72
9
 73
5
 74
0
 42
0.0000001
 43
0.0000001
 44
0.0000000001
 40
0.0
 40
0.0
 40
0.0
 40
0.0
 40
0.2623824621
 40
1.0
 40
1.0
 40
1.0
 40
1.0
 10
54.6263841648
 20
108.9669238948
 30
0.0
 10
54.6215544417
 20
108.9658669491
 30
0.0
 10
54.6030692516
 20
108.9622346385
 30
0.0
 10
54.584202015
 20
108.9602984914
 30
0.0
 10
54.5703032289
 20
108.9602961267
 30
0.0
  0
SPLINE
  5
566
100
AcDbEntity
  8
DEFAULT_2
100
AcDbSpline
 62
8
  6
HIDDEN
 70
0
 71
3
 72
9
 73
5
 74
0
 42
0.0000001
 43
0.0000001
 44
0.0000000001
 40
0.0
 40
0.0
 40
0.0
 40
0.0
 40
0.2605380041
 40
1.0
 40
1.0
 40
1.0
 40
1.0
 10
55.1526993476
 20
109.2172720229
 30
0.0
 10
55.1597200505
 20
109.2205313372
 30
0.0
 10
55.1867891559
 20
109.2327727684
 30
0.0
 10
55.2143739214
 20
109.2439023511
 30
0.0
 10
55.235079402
 20
109.2512448426
 30
0.0
  0
SPLINE
  5
567
100
AcDbEntity
  8
DEFAULT_2
100
AcDbSpline
 62
8
  6
HIDDEN
 70
0
 71
3
 72
9
 73
5
 74
0
 42
0.0000001
 43
0.0000001
 44
0.0000000001
 40
0.0
 40
0.0
 40
0.0
 40
0.0
 40
0.2605343447
 40
1.0
 40
1.0
 40
1.0
 40
1.0
 10
55.3367839553
 20
109.2769382555
 30
0.0
 10
55.3391058691
 20
109.2772125729
 30
0.0
 10
55.3480300631
 20
109.2781545081
 30
0.0
 10
55.3570085145
 20
109.2786323236
 30
0.0
 10
55.3636445552
 20
109.2786334855
 30
0.0
  0
SPLINE
  5
568
100
AcDbEntity
  8
DEFAULT_2
100
AcDbSpline
 62
8
  6
HIDDEN
 70
0
 71
3
 72
9
 73
5
 74
0
 42
0.0000001
 43
0.0000001
 44
0.0000000001
 40
0.0
 40
0.0
 40
0.0
 40
0.0
 40
0.2605343447
 40
1.0
 40
1.0
 40
1.0
 40
1.0
 10
55.3367839553
 20
77.2398762963
 30
0.0
 10
55.3391058691
 20
77.2396019789
 30
0.0
 10
55.3480300631
 20
77.2386600437
 30
0.0
 10
55.3570085145
 20
77.2381822282
 30
0.0
 10
55.3636445552
 20
77.2381810663
 30
0.0
  0
SPLINE
  5
569
100
AcDbEntity
  8
DEFAULT_2
100
AcDbSpline
 62
8
  6
HIDDEN
 70
0
 71
3
 72
9
 73
5
 74
0
 42
0.0000001
 43
0.0000001
 44
0.0000000001
 40
0.0
 40
0.0
 40
0.0
 40
0.0
 40
0.2663218643
 40
1.0
 40
1.0
 40
1.0
 40
1.0
 10
55.2759828058
 20
114.2524960153
 30
0.0
 10
55.2812919826
 20
114.2510015475
 30
0.0
 10
55.3013069965
 20
114.2456949726
 30
0.0
 10
55.3216944816
 20
114.241659009
 30
0.0
 10
55.3367839553
 20
114.2398762963
 30
0.0
  0
SPLINE
  5
56A
100
AcDbEntity
  8
DEFAULT_2
100
AcDbSpline
 62
8
  6
HIDDEN
 70
0
 71
3
 72
9
 73
5
 74
0
 42
0.0000001
 43
0.0000001
 44
0.0000000001
 40
0.0
 40
0.0
 40
0.0
 40
0.0
 40
0.2605343447
 40
1.0
 40
1.0
 40
1.0
 40
1.0
 10
55.3367839553
 20
114.2398762963
 30
0.0
 10
55.3391058691
 20
114.2396019789
 30
0.0
 10
55.3480300631
 20
114.2386600437
 30
0.0
 10
55.3570085145
 20
114.2381822282
 30
0.0
 10
55.3636445552
 20
114.2381810663
 30
0.0
  0
SPLINE
  5
56B
100
AcDbEntity
  8
DEFAULT_2
100
AcDbSpline
 62
8
  6
HIDDEN
 70
0
 71
3
 72
9
 73
5
 74
0
 42
0.0000001
 43
0.0000001
 44
0.0000000001
 40
0.0
 40
0.0
 40
0.0
 40
0.0
 40
0.2663218644
 40
1.0
 40
1.0
 40
1.0
 40
1.0
 10
55.2759828052
 20
72.2643185363
 30
0.0
 10
55.281291982
 20
72.2658130042
 30
0.0
 10
55.3013069961
 20
72.2711195791
 30
0.0
 10
55.3216944814
 20
72.2751555428
 30
0.0
 10
55.3367839553
 20
72.2769382555
 30
0.0
  0
SPLINE
  5
56C
100
AcDbEntity
  8
DEFAULT_2
100
AcDbSpline
 62
8
  6
HIDDEN
 70
0
 71
3
 72
9
 73
5
 74
0
 42
0.0000001
 43
0.0000001
 44
0.0000000001
 40
0.0
 40
0.0
 40
0.0
 40
0.0
 40
0.2623824621
 40
1.0
 40
1.0
 40
1.0
 40
1.0
 10
54.6263841648
 20
71.9669238948
 30
0.0
 10
54.6215544417
 20
71.9658669491
 30
0.0
 10
54.6030692516
 20
71.9622346385
 30
0.0
 10
54.584202015
 20
71.9602984914
 30
0.0
 10
54.5703032289
 20
71.9602961267
 30
0.0
  0
SPLINE
  5
56D
100
AcDbEntity
  8
DEFAULT_2
100
AcDbSpline
 62
8
  6
HIDDEN
 70
0
 71
3
 72
9
 73
5
 74
0
 42
0.0000001
 43
0.0000001
 44
0.0000000001
 40
0.0
 40
0.0
 40
0.0
 40
0.0
 40
0.2623824621
 40
1.0
 40
1.0
 40
1.0
 40
1.0
 10
54.6263841648
 20
114.549890657
 30
0.0
 10
54.6215544417
 20
114.5509476028
 30
0.0
 10
54.6030692516
 20
114.5545799133
 30
0.0
 10
54.584202015
 20
114.5565160605
 30
0.0
 10
54.5703032289
 20
114.5565184251
 30
0.0
  0
SPLINE
  5
56E
100
AcDbEntity
  8
DEFAULT_2
100
AcDbSpline
 62
8
  6
HIDDEN
 70
0
 71
3
 72
9
 73
5
 74
0
 42
0.0000001
 43
0.0000001
 44
0.0000000001
 40
0.0
 40
0.0
 40
0.0
 40
0.0
 40
0.2623824621
 40
1.0
 40
1.0
 40
1.0
 40
1.0
 10
54.6263841648
 20
77.549890657
 30
0.0
 10
54.6215544417
 20
77.5509476028
 30
0.0
 10
54.6030692516
 20
77.5545799133
 30
0.0
 10
54.584202015
 20
77.5565160605
 30
0.0
 10
54.5703032289
 20
77.5565184251
 30
0.0
  0
SPLINE
  5
56F
100
AcDbEntity
  8
DEFAULT_2
100
AcDbSpline
 62
8
  6
HIDDEN
 70
0
 71
3
 72
9
 73
5
 74
0
 42
0.0000001
 43
0.0000001
 44
0.0000000001
 40
0.0
 40
0.0
 40
0.0
 40
0.0
 40
0.5419939463
 40
1.0
 40
1.0
 40
1.0
 40
1.0
 10
54.7521954872
 20
72.0140966123
 30
0.0
 10
54.7213866419
 20
71.9986148652
 30
0.0
 10
54.6628389356
 20
71.9733852016
 30
0.0
 10
54.5994401634
 20
71.9603010839
 30
0.0
 10
54.5703032289
 20
71.9602961267
 30
0.0
  0
SPLINE
  5
570
100
AcDbEntity
  8
DEFAULT_2
100
AcDbSpline
 62
8
  6
HIDDEN
 70
0
 71
3
 72
9
 73
5
 74
0
 42
0.0000001
 43
0.0000001
 44
0.0000000001
 40
0.0
 40
0.0
 40
0.0
 40
0.0
 40
0.2605376411
 40
1.0
 40
1.0
 40
1.0
 40
1.0
 10
55.1526993476
 20
77.299542529
 30
0.0
 10
55.1597198439
 20
77.2962833105
 30
0.0
 10
55.1867881871
 20
77.2840422144
 30
0.0
 10
55.2143721599
 20
77.2729129023
 30
0.0
 10
55.2350770462
 20
77.2655705446
 30
0.0
  0
SPLINE
  5
571
100
AcDbEntity
  8
DEFAULT_2
100
AcDbSpline
 62
8
  6
HIDDEN
 70
0
 71
3
 72
9
 73
5
 74
0
 42
0.0000001
 43
0.0000001
 44
0.0000000001
 40
0.0
 40
0.0
 40
0.0
 40
0.0
 40
0.27871401
 40
1.0
 40
1.0
 40
1.0
 40
1.0
 10
55.2653199318
 20
77.255610629
 30
0.0
 10
55.2742148057
 20
77.2529203837
 30
0.0
 10
55.3063109448
 20
77.2440546343
 30
0.0
 10
55.3395956421
 20
77.2381852771
 30
0.0
 10
55.3636445552
 20
77.2381810663
 30
0.0
  0
SPLINE
  5
572
100
AcDbEntity
  8
DEFAULT_2
100
AcDbSpline
 62
8
  6
HIDDEN
 70
0
 71
3
 72
9
 73
5
 74
0
 42
0.0000001
 43
0.0000001
 44
0.0000000001
 40
0.0
 40
0.0
 40
0.0
 40
0.0
 40
0.2574619986
 40
1.0
 40
1.0
 40
1.0
 40
1.0
 10
55.235079402
 20
72.2512448426
 30
0.0
 10
55.2385531252
 20
72.2524766799
 30
0.0
 10
55.2520798799
 20
72.2571623533
 30
0.0
 10
55.2657507209
 20
72.2614383308
 30
0.0
 10
55.2759828055
 20
72.2643185364
 30
0.0
  0
SPLINE
  5
573
100
AcDbEntity
  8
DEFAULT_2
100
AcDbSpline
 62
8
  6
HIDDEN
 70
0
 71
3
 72
9
 73
5
 74
0
 42
0.0000001
 43
0.0000001
 44
0.0000000001
 40
0.0
 40
0.0
 40
0.0
 40
0.0
 40
0.2605343447
 40
1.0
 40
1.0
 40
1.0
 40
1.0
 10
55.3367839553
 20
72.2769382555
 30
0.0
 10
55.3391058691
 20
72.2772125729
 30
0.0
 10
55.3480300631
 20
72.2781545081
 30
0.0
 10
55.3570085145
 20
72.2786323236
 30
0.0
 10
55.3636445552
 20
72.2786334855
 30
0.0
  0
SPLINE
  5
574
100
AcDbEntity
  8
DEFAULT_2
100
AcDbSpline
 62
8
  6
HIDDEN
 70
0
 71
3
 72
11
 73
7
 74
0
 42
0.0000001
 43
0.0000001
 44
0.0000000001
 40
0.0
 40
0.0
 40
0.0
 40
0.0
 40
0.2141402801
 40
0.4473128898
 40
0.7102553878
 40
1.0
 40
1.0
 40
1.0
 40
1.0
 10
54.7521954872
 20
80.2334481757
 30
0.0
 10
54.7115045937
 20
80.2193085824
 30
0.0
 10
54.6304127899
 20
80.1767333984
 30
0.0
 10
54.5290296833
 20
80.0727770001
 30
0.0
 10
54.458076739
 20
79.9287071209
 30
0.0
 10
54.4411637905
 20
79.8166938038
 30
0.0
 10
54.4411637905
 20
79.7584072759
 30
0.0
  0
SPLINE
  5
575
100
AcDbEntity
  8
DEFAULT_2
100
AcDbSpline
 62
8
  6
HIDDEN
 70
0
 71
3
 72
14
 73
10
 74
0
 42
0.0000001
 43
0.0000001
 44
0.0000000001
 40
0.0
 40
0.0
 40
0.0
 40
0.0
 40
0.2781993076
 40
0.4210322981
 40
0.5585828566
 40
0.6833200798
 40
0.7951899177
 40
0.8993653844
 40
1.0
 40
1.0
 40
1.0
 40
1.0
 10
55.1024593349
 20
81.4778865141
 30
0.0
 10
55.1910528411
 20
81.3871785822
 30
0.0
 10
55.3123536114
 20
81.2346793959
 30
0.0
 10
55.4181039822
 20
81.0014458972
 30
0.0
 10
55.4515105585
 20
80.8169871405
 30
0.0
 10
55.4230477291
 20
80.644769999
 30
0.0
 10
55.3414670088
 20
80.5087386675
 30
0.0
 10
55.2305009567
 20
80.4134928736
 30
0.0
 10
55.1456421179
 20
80.372325443
 30
0.0
 10
55.1024593349
 20
80.3568680212
 30
0.0
  0
SPLINE
  5
576
100
AcDbEntity
  8
DEFAULT_2
100
AcDbSpline
 62
8
  6
HIDDEN
 70
0
 71
3
 72
13
 73
9
 74
0
 42
0.0000001
 43
0.0000001
 44
0.0000000001
 40
0.0
 40
0.0
 40
0.0
 40
0.0
 40
0.0226217548
 40
0.0880995638
 40
0.1897352848
 40
0.3198552848
 40
0.6378260232
 40
1.0
 40
1.0
 40
1.0
 40
1.0
 10
54.4411806995
 20
78.5083858698
 30
0.0
 10
54.4433549085
 20
78.5056468121
 30
0.0
 10
54.4525586357
 20
78.495590779
 30
0.0
 10
54.4715589253
 20
78.4732535073
 30
0.0
 10
54.5019836068
 20
78.4388130481
 30
0.0
 10
54.5582340595
 20
78.3751152745
 30
0.0
 10
54.6421735384
 20
78.2821346288
 30
0.0
 10
54.713739546
 20
78.2050996631
 30
0.0
 10
54.7521954872
 20
78.1644077361
 30
0.0
  0
SPLINE
  5
577
100
AcDbEntity
  8
DEFAULT_2
100
AcDbSpline
 62
8
  6
HIDDEN
 70
0
 71
3
 72
18
 73
14
 74
0
 42
0.0000001
 43
0.0000001
 44
0.0000000001
 40
0.0
 40
0.0
 40
0.0
 40
0.0
 40
0.1858417135
 40
0.3637190646
 40
0.5285621923
 40
0.6731606883
 40
0.7878976104
 40
0.8318887962
 40
0.8676138227
 40
0.8979234533
 40
0.9276530399
 40
0.9609888786
 40
1.0
 40
1.0
 40
1.0
 40
1.0
 10
55.1024593349
 20
82.7885788801
 30
0.0
 10
55.1323625966
 20
82.7559839455
 30
0.0
 10
55.1902877952
 20
82.6916281841
 30
0.0
 10
55.2717791111
 20
82.5957741287
 30
0.0
 10
55.3430919167
 20
82.5041483487
 30
0.0
 10
55.3990591359
 20
82.4201553924
 30
0.0
 10
55.4316069451
 20
82.3548997794
 30
0.0
 10
55.4417682735
 20
82.3094776241
 30
0.0
 10
55.4410971661
 20
82.2828633323
 30
0.0
 10
55.4315418453
 20
82.2613240621
 30
0.0
 10
55.4136900163
 20
82.2469300359
 30
0.0
 10
55.390221046
 20
82.2394181715
 30
0.0
 10
55.3729299304
 20
82.2381794581
 30
0.0
 10
55.3636445411
 20
82.2381810799
 30
0.0
  0
SPLINE
  5
578
100
AcDbEntity
  8
DEFAULT_2
100
AcDbSpline
 62
8
  6
HIDDEN
 70
0
 71
3
 72
13
 73
9
 74
0
 42
0.0000001
 43
0.0000001
 44
0.0000000001
 40
0.0
 40
0.0
 40
0.0
 40
0.0
 40
0.0226217548
 40
0.0880995638
 40
0.1897352848
 40
0.3198552848
 40
0.6378260232
 40
1.0
 40
1.0
 40
1.0
 40
1.0
 10
54.4411806995
 20
110.5083858698
 30
0.0
 10
54.4433549085
 20
110.5056468121
 30
0.0
 10
54.4525586357
 20
110.495590779
 30
0.0
 10
54.4715589253
 20
110.4732535073
 30
0.0
 10
54.5019836068
 20
110.4388130481
 30
0.0
 10
54.5582340595
 20
110.3751152745
 30
0.0
 10
54.6421735384
 20
110.2821346288
 30
0.0
 10
54.713739546
 20
110.2050996631
 30
0.0
 10
54.7521954872
 20
110.1644077361
 30
0.0
  0
SPLINE
  5
579
100
AcDbEntity
  8
DEFAULT_2
100
AcDbSpline
 62
8
  6
HIDDEN
 70
0
 71
3
 72
11
 73
7
 74
0
 42
0.0000001
 43
0.0000001
 44
0.0000000001
 40
0.0
 40
0.0
 40
0.0
 40
0.0
 40
0.2141402801
 40
0.4473128898
 40
0.7102553878
 40
1.0
 40
1.0
 40
1.0
 40
1.0
 10
54.7521954872
 20
88.2334481757
 30
0.0
 10
54.7115045937
 20
88.2193085824
 30
0.0
 10
54.6304127899
 20
88.1767333984
 30
0.0
 10
54.5290296833
 20
88.0727770001
 30
0.0
 10
54.458076739
 20
87.9287071209
 30
0.0
 10
54.4411637905
 20
87.8166938038
 30
0.0
 10
54.4411637905
 20
87.7584072759
 30
0.0
  0
SPLINE
  5
57A
100
AcDbEntity
  8
DEFAULT_2
100
AcDbSpline
 62
8
  6
HIDDEN
 70
0
 71
3
 72
16
 73
12
 74
0
 42
0.0000001
 43
0.0000001
 44
0.0000000001
 40
0.0
 40
0.0
 40
0.0
 40
0.0
 40
0.0779780704
 40
0.1152465926
 40
0.1551012447
 40
0.2005712454
 40
0.2535921943
 40
0.382042585
 40
0.5317418638
 40
0.6897403124
 40
1.0
 40
1.0
 40
1.0
 40
1.0
 10
54.5703032289
 20
90.5565184251
 30
0.0
 10
54.5471349673
 20
90.5565223669
 30
0.0
 10
54.5114212917
 20
90.5501859121
 30
0.0
 10
54.4743222924
 20
90.5214541479
 30
0.0
 10
54.4543098622
 20
90.4902673313
 30
0.0
 10
54.4426966988
 20
90.45037984
 30
0.0
 10
54.438737579
 20
90.3826584355
 30
0.0
 10
54.4579602668
 20
90.2848659203
 30
0.0
 10
54.5063729468
 20
90.1642408437
 30
0.0
 10
54.5977740122
 20
90.0045343837
 30
0.0
 10
54.6868148751
 20
89.8958925335
 30
0.0
 10
54.7521954872
 20
89.8309086565
 30
0.0
  0
SPLINE
  5
57B
100
AcDbEntity
  8
DEFAULT_2
100
AcDbSpline
 62
8
  6
HIDDEN
 70
0
 71
3
 72
11
 73
7
 74
0
 42
0.0000001
 43
0.0000001
 44
0.0000000001
 40
0.0
 40
0.0
 40
0.0
 40
0.0
 40
0.2951018371
 40
0.5489885902
 40
0.7748757601
 40
1.0
 40
1.0
 40
1.0
 40
1.0
 10
55.3636445552
 20
109.2786334855
 30
0.0
 10
55.3725381796
 20
109.2786350428
 30
0.0
 10
55.3891431055
 20
109.2774915447
 30
0.0
 10
55.4117840428
 20
109.2706737475
 30
0.0
 10
55.4293714213
 20
109.2578125349
 30
0.0
 10
55.4361051995
 20
109.2454383472
 30
0.0
 10
55.4381430766
 20
109.238966957
 30
0.0
  0
SPLINE
  5
57C
100
AcDbEntity
  8
DEFAULT_2
100
AcDbSpline
 62
8
  6
HIDDEN
 70
0
 71
3
 72
9
 73
5
 74
0
 42
0.0000001
 43
0.0000001
 44
0.0000000001
 40
0.0
 40
0.0
 40
0.0
 40
0.0
 40
0.2163842038
 40
1.0
 40
1.0
 40
1.0
 40
1.0
 10
55.4381430766
 20
109.238966957
 30
0.0
 10
55.4392600278
 20
109.2354200174
 30
0.0
 10
55.442758951
 20
109.2184923397
 30
0.0
 10
55.4403413778
 20
109.2008805868
 30
0.0
 10
55.4371288532
 20
109.187802621
 30
0.0
  0
SPLINE
  5
57D
100
AcDbEntity
  8
DEFAULT_2
100
AcDbSpline
 62
8
  6
HIDDEN
 70
0
 71
3
 72
14
 73
10
 74
0
 42
0.0000001
 43
0.0000001
 44
0.0000000001
 40
0.0
 40
0.0
 40
0.0
 40
0.0
 40
0.2781993076
 40
0.4210322981
 40
0.5585828566
 40
0.6833200798
 40
0.7951899177
 40
0.8993653844
 40
1.0
 40
1.0
 40
1.0
 40
1.0
 10
55.1024593349
 20
89.4778865141
 30
0.0
 10
55.1910528411
 20
89.3871785822
 30
0.0
 10
55.3123536114
 20
89.2346793959
 30
0.0
 10
55.4181039822
 20
89.0014458972
 30
0.0
 10
55.4515105585
 20
88.8169871405
 30
0.0
 10
55.4230477291
 20
88.644769999
 30
0.0
 10
55.3414670088
 20
88.5087386675
 30
0.0
 10
55.2305009567
 20
88.4134928736
 30
0.0
 10
55.1456421179
 20
88.372325443
 30
0.0
 10
55.1024593349
 20
88.3568680212
 30
0.0
  0
SPLINE
  5
57E
100
AcDbEntity
  8
DEFAULT_2
100
AcDbSpline
 62
8
  6
HIDDEN
 70
0
 71
3
 72
13
 73
9
 74
0
 42
0.0000001
 43
0.0000001
 44
0.0000000001
 40
0.0
 40
0.0
 40
0.0
 40
0.0
 40
0.0226217548
 40
0.0880995638
 40
0.1897352848
 40
0.3198552848
 40
0.6378260232
 40
1.0
 40
1.0
 40
1.0
 40
1.0
 10
54.4411806995
 20
91.5083858698
 30
0.0
 10
54.4433549085
 20
91.5056468121
 30
0.0
 10
54.4525586357
 20
91.495590779
 30
0.0
 10
54.4715589253
 20
91.4732535073
 30
0.0
 10
54.5019836068
 20
91.4388130481
 30
0.0
 10
54.5582340595
 20
91.3751152745
 30
0.0
 10
54.6421735384
 20
91.2821346288
 30
0.0
 10
54.713739546
 20
91.2050996631
 30
0.0
 10
54.7521954872
 20
91.1644077361
 30
0.0
  0
SPLINE
  5
57F
100
AcDbEntity
  8
DEFAULT_2
100
AcDbSpline
 62
8
  6
HIDDEN
 70
0
 71
3
 72
16
 73
12
 74
0
 42
0.0000001
 43
0.0000001
 44
0.0000000001
 40
0.0
 40
0.0
 40
0.0
 40
0.0
 40
0.0779780704
 40
0.1152465926
 40
0.1551012447
 40
0.2005712454
 40
0.2535921943
 40
0.382042585
 40
0.5317418638
 40
0.6897403124
 40
1.0
 40
1.0
 40
1.0
 40
1.0
 10
54.5703032289
 20
114.5565184251
 30
0.0
 10
54.5471349673
 20
114.5565223669
 30
0.0
 10
54.5114212917
 20
114.5501859121
 30
0.0
 10
54.4743222924
 20
114.5214541479
 30
0.0
 10
54.4543098622
 20
114.4902673313
 30
0.0
 10
54.4426966988
 20
114.45037984
 30
0.0
 10
54.438737579
 20
114.3826584355
 30
0.0
 10
54.4579602668
 20
114.2848659203
 30
0.0
 10
54.5063729468
 20
114.1642408437
 30
0.0
 10
54.5977740122
 20
114.0045343837
 30
0.0
 10
54.6868148751
 20
113.8958925335
 30
0.0
 10
54.7521954872
 20
113.8309086565
 30
0.0
  0
SPLINE
  5
580
100
AcDbEntity
  8
DEFAULT_2
100
AcDbSpline
 62
8
  6
HIDDEN
 70
0
 71
3
 72
13
 73
9
 74
0
 42
0.0000001
 43
0.0000001
 44
0.0000000001
 40
0.0
 40
0.0
 40
0.0
 40
0.0
 40
0.0226217548
 40
0.0880995638
 40
0.1897352848
 40
0.3198552848
 40
0.6378260232
 40
1.0
 40
1.0
 40
1.0
 40
1.0
 10
54.4411806995
 20
99.5083858698
 30
0.0
 10
54.4433549085
 20
99.5056468121
 30
0.0
 10
54.4525586357
 20
99.495590779
 30
0.0
 10
54.4715589253
 20
99.4732535073
 30
0.0
 10
54.5019836068
 20
99.4388130481
 30
0.0
 10
54.5582340595
 20
99.3751152745
 30
0.0
 10
54.6421735384
 20
99.2821346288
 30
0.0
 10
54.713739546
 20
99.2050996631
 30
0.0
 10
54.7521954872
 20
99.1644077361
 30
0.0
  0
SPLINE
  5
581
100
AcDbEntity
  8
DEFAULT_2
100
AcDbSpline
 62
8
  6
HIDDEN
 70
0
 71
3
 72
14
 73
10
 74
0
 42
0.0000001
 43
0.0000001
 44
0.0000000001
 40
0.0
 40
0.0
 40
0.0
 40
0.0
 40
0.362108422
 40
0.5289066071
 40
0.6801747859
 40
0.8102916526
 40
0.9119577957
 40
0.9773425579
 40
1.0
 40
1.0
 40
1.0
 40
1.0
 10
54.7521954872
 20
84.3524068157
 30
0.0
 10
54.7137464372
 20
84.3117221806
 30
0.0
 10
54.6579722193
 20
84.2516929426
 30
0.0
 10
54.5875644351
 20
84.1741711894
 30
0.0
 10
54.5406567536
 20
84.1217378355
 30
0.0
 10
54.5034326099
 20
84.0798286986
 30
0.0
 10
54.4680060161
 20
84.0390814265
 30
0.0
 10
54.4585655139
 20
84.028796648
 30
0.0
 10
54.4390030567
 20
84.0056852983
 30
0.0
 10
54.4411806996
 20
84.008428682
 30
0.0
  0
SPLINE
  5
582
100
AcDbEntity
  8
DEFAULT_2
100
AcDbSpline
 62
8
  6
HIDDEN
 70
0
 71
3
 72
16
 73
12
 74
0
 42
0.0000001
 43
0.0000001
 44
0.0000000001
 40
0.0
 40
0.0
 40
0.0
 40
0.0
 40
0.3103759307
 40
0.4684424554
 40
0.6181728499
 40
0.7466140796
 40
0.7996073274
 40
0.8450208
 40
0.8848349279
 40
0.922074652
 40
1.0
 40
1.0
 40
1.0
 40
1.0
 10
54.7521954872
 20
85.6859058954
 30
0.0
 10
54.6867898255
 20
85.6208971207
 30
0.0
 10
54.5977120954
 20
85.5122114165
 30
0.0
 10
54.506305688
 20
85.3524285387
 30
0.0
 10
54.4579135395
 20
85.2317719902
 30
0.0
 10
54.4386958003
 20
85.1339648342
 30
0.0
 10
54.4427390488
 20
85.0662827626
 30
0.0
 10
54.4543302567
 20
85.0264197918
 30
0.0
 10
54.4744048137
 20
84.9953226961
 30
0.0
 10
54.5114426907
 20
84.9665792765
 30
0.0
 10
54.547152059
 20
84.9603035934
 30
0.0
 10
54.5703048523
 20
84.9603014077
 30
0.0
  0
SPLINE
  5
583
100
AcDbEntity
  8
DEFAULT_2
100
AcDbSpline
 62
8
  6
HIDDEN
 70
0
 71
3
 72
14
 73
10
 74
0
 42
0.0000001
 43
0.0000001
 44
0.0000000001
 40
0.0
 40
0.0
 40
0.0
 40
0.0
 40
0.1006346061
 40
0.2048100611
 40
0.3166798937
 40
0.4414172138
 40
0.5789676637
 40
0.7218006621
 40
1.0
 40
1.0
 40
1.0
 40
1.0
 10
55.1024593349
 20
87.1599465306
 30
0.0
 10
55.1456421137
 20
87.1444891104
 30
0.0
 10
55.2305009441
 20
87.1033216868
 30
0.0
 10
55.3414669902
 20
87.0080759018
 30
0.0
 10
55.4230477128
 20
86.8720445325
 30
0.0
 10
55.4515105589
 20
86.699827401
 30
0.0
 10
55.4181040001
 20
86.5153686445
 30
0.0
 10
55.3123536229
 20
86.2821351823
 30
0.0
 10
55.1910528505
 20
86.1296359793
 30
0.0
 10
55.1024593349
 20
86.0389280378
 30
0.0
  0
SPLINE
  5
584
100
AcDbEntity
  8
DEFAULT_2
100
AcDbSpline
 62
8
  6
HIDDEN
 70
0
 71
3
 72
11
 73
7
 74
0
 42
0.0000001
 43
0.0000001
 44
0.0000000001
 40
0.0
 40
0.0
 40
0.0
 40
0.0
 40
0.2897751004
 40
0.5526938178
 40
0.7858599241
 40
1.0
 40
1.0
 40
1.0
 40
1.0
 10
54.4411637905
 20
87.7584072759
 30
0.0
 10
54.4411637905
 20
87.7001145657
 30
0.0
 10
54.4580755873
 20
87.5880987266
 30
0.0
 10
54.5290355164
 20
87.4440324456
 30
0.0
 10
54.6304137452
 20
87.3400804562
 30
0.0
 10
54.7115045981
 20
87.2975059678
 30
0.0
 10
54.7521954872
 20
87.2833663762
 30
0.0
  0
SPLINE
  5
585
100
AcDbEntity
  8
DEFAULT_2
100
AcDbSpline
 62
8
  6
HIDDEN
 70
0
 71
3
 72
9
 73
5
 74
0
 42
0.0000001
 43
0.0000001
 44
0.0000000001
 40
0.0
 40
0.0
 40
0.0
 40
0.0
 40
0.2434450919
 40
1.0
 40
1.0
 40
1.0
 40
1.0
 10
54.6157770767
 20
88.1559823759
 30
0.0
 10
54.6098650564
 20
88.1510240238
 30
0.0
 10
54.5861173893
 20
88.1300232727
 30
0.0
 10
54.5646346005
 20
88.1064718795
 30
0.0
 10
54.5498852025
 20
88.0875654027
 30
0.0
  0
SPLINE
  5
586
100
AcDbEntity
  8
DEFAULT_2
100
AcDbSpline
 62
8
  6
HIDDEN
 70
0
 71
3
 72
9
 73
5
 74
0
 42
0.0000001
 43
0.0000001
 44
0.0000000001
 40
0.0
 40
0.0
 40
0.0
 40
0.0
 40
0.2528176328
 40
1.0
 40
1.0
 40
1.0
 40
1.0
 10
55.2350817446
 20
88.4238625743
 30
0.0
 10
55.2247230758
 20
88.4167927172
 30
0.0
 10
55.1827872936
 20
88.3902501971
 30
0.0
 10
55.1373559318
 20
88.3693593749
 30
0.0
 10
55.1024593349
 20
88.3568680212
 30
0.0
  0
SPLINE
  5
587
100
AcDbEntity
  8
DEFAULT_2
100
AcDbSpline
 62
8
  6
HIDDEN
 70
0
 71
3
 72
18
 73
14
 74
0
 42
0.0000001
 43
0.0000001
 44
0.0000000001
 40
0.0
 40
0.0
 40
0.0
 40
0.0
 40
0.1858417135
 40
0.3637190646
 40
0.5285621923
 40
0.6731606883
 40
0.7878976104
 40
0.8318887962
 40
0.8676138227
 40
0.8979234533
 40
0.9276530399
 40
0.9609888786
 40
1.0
 40
1.0
 40
1.0
 40
1.0
 10
55.1024593349
 20
90.7885788801
 30
0.0
 10
55.1323625966
 20
90.7559839455
 30
0.0
 10
55.1902877952
 20
90.6916281841
 30
0.0
 10
55.2717791111
 20
90.5957741287
 30
0.0
 10
55.3430919167
 20
90.5041483487
 30
0.0
 10
55.3990591359
 20
90.4201553924
 30
0.0
 10
55.4316069451
 20
90.3548997794
 30
0.0
 10
55.4417682735
 20
90.3094776241
 30
0.0
 10
55.4410971661
 20
90.2828633323
 30
0.0
 10
55.4315418453
 20
90.2613240621
 30
0.0
 10
55.4136900163
 20
90.2469300359
 30
0.0
 10
55.390221046
 20
90.2394181715
 30
0.0
 10
55.3729299304
 20
90.2381794581
 30
0.0
 10
55.3636445411
 20
90.2381810799
 30
0.0
  0
SPLINE
  5
588
100
AcDbEntity
  8
DEFAULT_2
100
AcDbSpline
 62
8
  6
HIDDEN
 70
0
 71
3
 72
15
 73
11
 74
0
 42
0.0000001
 43
0.0000001
 44
0.0000000001
 40
0.0
 40
0.0
 40
0.0
 40
0.0
 40
0.0900417976
 40
0.1736913212
 40
0.2627643291
 40
0.3700910761
 40
0.5017242436
 40
0.6551816619
 40
0.8236570515
 40
1.0
 40
1.0
 40
1.0
 40
1.0
 10
54.5703032289
 20
93.5565184251
 30
0.0
 10
54.553925412
 20
93.5565212116
 30
0.0
 10
54.5219464024
 20
93.5527398262
 30
0.0
 10
54.4787822362
 20
93.5287096487
 30
0.0
 10
54.4500282332
 20
93.4845388678
 30
0.0
 10
54.4387394283
 20
93.4249355489
 30
0.0
 10
54.4437296433
 20
93.3532320791
 30
0.0
 10
54.4637783595
 20
93.2728945163
 30
0.0
 10
54.4968275635
 20
93.188304427
 30
0.0
 10
54.5255438808
 20
93.1324259336
 30
0.0
 10
54.541401128
 20
93.1045445969
 30
0.0
  0
SPLINE
  5
589
100
AcDbEntity
  8
DEFAULT_2
100
AcDbSpline
 62
8
  6
HIDDEN
 70
0
 71
3
 72
13
 73
9
 74
0
 42
0.0000001
 43
0.0000001
 44
0.0000000001
 40
0.0
 40
0.0
 40
0.0
 40
0.0
 40
0.0226217548
 40
0.0880995638
 40
0.1897352848
 40
0.3198552848
 40
0.6378260232
 40
1.0
 40
1.0
 40
1.0
 40
1.0
 10
54.4411806995
 20
83.5083858698
 30
0.0
 10
54.4433549085
 20
83.5056468121
 30
0.0
 10
54.4525586357
 20
83.495590779
 30
0.0
 10
54.4715589253
 20
83.4732535073
 30
0.0
 10
54.5019836068
 20
83.4388130481
 30
0.0
 10
54.5582340595
 20
83.3751152745
 30
0.0
 10
54.6421735384
 20
83.2821346288
 30
0.0
 10
54.713739546
 20
83.2050996631
 30
0.0
 10
54.7521954872
 20
83.1644077361
 30
0.0
  0
SPLINE
  5
58A
100
AcDbEntity
  8
DEFAULT_2
100
AcDbSpline
 62
8
  6
HIDDEN
 70
0
 71
3
 72
16
 73
12
 74
0
 42
0.0000001
 43
0.0000001
 44
0.0000000001
 40
0.0
 40
0.0
 40
0.0
 40
0.0
 40
0.3103759307
 40
0.4684424554
 40
0.6181728499
 40
0.7466140796
 40
0.7996073274
 40
0.8450208
 40
0.8848349279
 40
0.922074652
 40
1.0
 40
1.0
 40
1.0
 40
1.0
 10
54.7521954872
 20
93.6859058954
 30
0.0
 10
54.6867898255
 20
93.6208971207
 30
0.0
 10
54.5977120954
 20
93.5122114165
 30
0.0
 10
54.506305688
 20
93.3524285387
 30
0.0
 10
54.4579135395
 20
93.2317719902
 30
0.0
 10
54.4386958003
 20
93.1339648342
 30
0.0
 10
54.4427390488
 20
93.0662827626
 30
0.0
 10
54.4543302567
 20
93.0264197918
 30
0.0
 10
54.4744048137
 20
92.9953226961
 30
0.0
 10
54.5114426907
 20
92.9665792765
 30
0.0
 10
54.547152059
 20
92.9603035934
 30
0.0
 10
54.5703048523
 20
92.9603014077
 30
0.0
  0
SPLINE
  5
58B
100
AcDbEntity
  8
DEFAULT_2
100
AcDbSpline
 62
8
  6
HIDDEN
 70
0
 71
3
 72
13
 73
9
 74
0
 42
0.0000001
 43
0.0000001
 44
0.0000000001
 40
0.0
 40
0.0
 40
0.0
 40
0.0
 40
0.3207762553
 40
0.6134375706
 40
0.7412933628
 40
0.8505443127
 40
0.9367652969
 40
1.0
 40
1.0
 40
1.0
 40
1.0
 10
55.1024593349
 20
109.7885788801
 30
0.0
 10
55.1475280123
 20
109.7394534501
 30
0.0
 10
55.2323583301
 20
109.6442795466
 30
0.0
 10
55.3291688973
 20
109.524163914
 30
0.0
 10
55.3906984582
 20
109.4327742374
 30
0.0
 10
55.4228217142
 20
109.3735116315
 30
0.0
 10
55.4411247017
 20
109.3227869246
 30
0.0
 10
55.442090418
 20
109.2903821183
 30
0.0
 10
55.4381428547
 20
109.2778469178
 30
0.0
  0
SPLINE
  5
58C
100
AcDbEntity
  8
DEFAULT_2
100
AcDbSpline
 62
8
  6
HIDDEN
 70
0
 71
3
 72
11
 73
7
 74
0
 42
0.0000001
 43
0.0000001
 44
0.0000000001
 40
0.0
 40
0.0
 40
0.0
 40
0.0
 40
0.2290766917
 40
0.4570381
 40
0.709468038
 40
1.0
 40
1.0
 40
1.0
 40
1.0
 10
55.4381428547
 20
109.2778469178
 30
0.0
 10
55.4362204136
 20
109.2717423458
 30
0.0
 10
55.4300645835
 20
109.2600900086
 30
0.0
 10
55.4141563414
 20
109.2475007972
 30
0.0
 10
55.3935765429
 20
109.2402778444
 30
0.0
 10
55.37840062
 20
109.2386123895
 30
0.0
 10
55.3702893672
 20
109.2383041202
 30
0.0
  0
SPLINE
  5
58D
100
AcDbEntity
  8
DEFAULT_2
100
AcDbSpline
 62
8
  6
HIDDEN
 70
0
 71
3
 72
14
 73
10
 74
0
 42
0.0000001
 43
0.0000001
 44
0.0000000001
 40
0.0
 40
0.0
 40
0.0
 40
0.0
 40
0.2781993076
 40
0.4210322981
 40
0.5585828566
 40
0.6833200798
 40
0.7951899177
 40
0.8993653844
 40
1.0
 40
1.0
 40
1.0
 40
1.0
 10
55.1024593349
 20
108.4778865141
 30
0.0
 10
55.1910528411
 20
108.3871785822
 30
0.0
 10
55.3123536114
 20
108.2346793959
 30
0.0
 10
55.4181039822
 20
108.0014458972
 30
0.0
 10
55.4515105585
 20
107.8169871405
 30
0.0
 10
55.4230477291
 20
107.644769999
 30
0.0
 10
55.3414670088
 20
107.5087386675
 30
0.0
 10
55.2305009567
 20
107.4134928736
 30
0.0
 10
55.1456421179
 20
107.372325443
 30
0.0
 10
55.1024593349
 20
107.3568680212
 30
0.0
  0
SPLINE
  5
58E
100
AcDbEntity
  8
DEFAULT_2
100
AcDbSpline
 62
8
  6
HIDDEN
 70
0
 71
3
 72
11
 73
7
 74
0
 42
0.0000001
 43
0.0000001
 44
0.0000000001
 40
0.0
 40
0.0
 40
0.0
 40
0.0
 40
0.2141402801
 40
0.4473128898
 40
0.7102553878
 40
1.0
 40
1.0
 40
1.0
 40
1.0
 10
54.7521954872
 20
107.2334481757
 30
0.0
 10
54.7115045937
 20
107.2193085824
 30
0.0
 10
54.6304127899
 20
107.1767333984
 30
0.0
 10
54.5290296833
 20
107.0727770001
 30
0.0
 10
54.458076739
 20
106.9287071209
 30
0.0
 10
54.4411637905
 20
106.8166938038
 30
0.0
 10
54.4411637905
 20
106.7584072759
 30
0.0
  0
SPLINE
  5
58F
100
AcDbEntity
  8
DEFAULT_2
100
AcDbSpline
 62
8
  6
HIDDEN
 70
0
 71
3
 72
14
 73
10
 74
0
 42
0.0000001
 43
0.0000001
 44
0.0000000001
 40
0.0
 40
0.0
 40
0.0
 40
0.0
 40
0.362108422
 40
0.5289066071
 40
0.6801747859
 40
0.8102916526
 40
0.9119577957
 40
0.9773425579
 40
1.0
 40
1.0
 40
1.0
 40
1.0
 10
54.7521954872
 20
92.3524068157
 30
0.0
 10
54.7137464372
 20
92.3117221806
 30
0.0
 10
54.6579722193
 20
92.2516929426
 30
0.0
 10
54.5875644351
 20
92.1741711894
 30
0.0
 10
54.5406567536
 20
92.1217378355
 30
0.0
 10
54.5034326099
 20
92.0798286986
 30
0.0
 10
54.4680060161
 20
92.0390814265
 30
0.0
 10
54.4585655139
 20
92.028796648
 30
0.0
 10
54.4390030567
 20
92.0056852983
 30
0.0
 10
54.4411806995
 20
92.008428682
 30
0.0
  0
SPLINE
  5
590
100
AcDbEntity
  8
DEFAULT_2
100
AcDbSpline
 62
8
  6
HIDDEN
 70
0
 71
3
 72
11
 73
7
 74
0
 42
0.0000001
 43
0.0000001
 44
0.0000000001
 40
0.0
 40
0.0
 40
0.0
 40
0.0
 40
0.2897751004
 40
0.5526938178
 40
0.7858599241
 40
1.0
 40
1.0
 40
1.0
 40
1.0
 10
54.4411637905
 20
106.7584072759
 30
0.0
 10
54.4411637905
 20
106.7001145657
 30
0.0
 10
54.4580755873
 20
106.5880987266
 30
0.0
 10
54.5290355164
 20
106.4440324456
 30
0.0
 10
54.6304137452
 20
106.3400804562
 30
0.0
 10
54.7115045981
 20
106.2975059678
 30
0.0
 10
54.7521954872
 20
106.2833663762
 30
0.0
  0
SPLINE
  5
591
100
AcDbEntity
  8
DEFAULT_2
100
AcDbSpline
 62
8
  6
HIDDEN
 70
0
 71
3
 72
14
 73
10
 74
0
 42
0.0000001
 43
0.0000001
 44
0.0000000001
 40
0.0
 40
0.0
 40
0.0
 40
0.0
 40
0.1006346061
 40
0.2048100611
 40
0.3166798937
 40
0.4414172138
 40
0.5789676637
 40
0.7218006621
 40
1.0
 40
1.0
 40
1.0
 40
1.0
 10
55.1024593349
 20
106.1599465306
 30
0.0
 10
55.1456421137
 20
106.1444891104
 30
0.0
 10
55.2305009441
 20
106.1033216868
 30
0.0
 10
55.3414669902
 20
106.0080759018
 30
0.0
 10
55.4230477128
 20
105.8720445325
 30
0.0
 10
55.4515105589
 20
105.699827401
 30
0.0
 10
55.4181040001
 20
105.5153686445
 30
0.0
 10
55.3123536229
 20
105.2821351823
 30
0.0
 10
55.1910528505
 20
105.1296359793
 30
0.0
 10
55.1024593349
 20
105.0389280378
 30
0.0
  0
SPLINE
  5
592
100
AcDbEntity
  8
DEFAULT_2
100
AcDbSpline
 62
8
  6
HIDDEN
 70
0
 71
3
 72
16
 73
12
 74
0
 42
0.0000001
 43
0.0000001
 44
0.0000000001
 40
0.0
 40
0.0
 40
0.0
 40
0.0
 40
0.3103759307
 40
0.4684424554
 40
0.6181728499
 40
0.7466140796
 40
0.7996073274
 40
0.8450208
 40
0.8848349279
 40
0.922074652
 40
1.0
 40
1.0
 40
1.0
 40
1.0
 10
54.7521954872
 20
104.6859058954
 30
0.0
 10
54.6867898255
 20
104.6208971207
 30
0.0
 10
54.5977120954
 20
104.5122114165
 30
0.0
 10
54.506305688
 20
104.3524285387
 30
0.0
 10
54.4579135395
 20
104.2317719902
 30
0.0
 10
54.4386958003
 20
104.1339648342
 30
0.0
 10
54.4427390488
 20
104.0662827626
 30
0.0
 10
54.4543302567
 20
104.0264197918
 30
0.0
 10
54.4744048137
 20
103.9953226961
 30
0.0
 10
54.5114426907
 20
103.9665792765
 30
0.0
 10
54.547152059
 20
103.9603035934
 30
0.0
 10
54.5703048523
 20
103.9603014077
 30
0.0
  0
SPLINE
  5
593
100
AcDbEntity
  8
DEFAULT_2
100
AcDbSpline
 62
8
  6
HIDDEN
 70
0
 71
3
 72
14
 73
10
 74
0
 42
0.0000001
 43
0.0000001
 44
0.0000000001
 40
0.0
 40
0.0
 40
0.0
 40
0.0
 40
0.362108422
 40
0.5289066071
 40
0.6801747859
 40
0.8102916526
 40
0.9119577957
 40
0.9773425579
 40
1.0
 40
1.0
 40
1.0
 40
1.0
 10
54.7521954872
 20
103.3524068157
 30
0.0
 10
54.7137464372
 20
103.3117221806
 30
0.0
 10
54.6579722193
 20
103.2516929426
 30
0.0
 10
54.5875644351
 20
103.1741711894
 30
0.0
 10
54.5406567536
 20
103.1217378355
 30
0.0
 10
54.5034326099
 20
103.0798286986
 30
0.0
 10
54.4680060161
 20
103.0390814265
 30
0.0
 10
54.4585655139
 20
103.028796648
 30
0.0
 10
54.4390030567
 20
103.0056852983
 30
0.0
 10
54.4411806995
 20
103.008428682
 30
0.0
  0
SPLINE
  5
594
100
AcDbEntity
  8
DEFAULT_2
100
AcDbSpline
 62
8
  6
HIDDEN
 70
0
 71
3
 72
14
 73
10
 74
0
 42
0.0000001
 43
0.0000001
 44
0.0000000001
 40
0.0
 40
0.0
 40
0.0
 40
0.0
 40
0.1006346061
 40
0.2048100611
 40
0.3166798937
 40
0.4414172138
 40
0.5789676637
 40
0.7218006621
 40
1.0
 40
1.0
 40
1.0
 40
1.0
 10
55.1024593349
 20
95.1599465306
 30
0.0
 10
55.1456421137
 20
95.1444891104
 30
0.0
 10
55.2305009441
 20
95.1033216868
 30
0.0
 10
55.3414669902
 20
95.0080759018
 30
0.0
 10
55.4230477128
 20
94.8720445325
 30
0.0
 10
55.4515105589
 20
94.699827401
 30
0.0
 10
55.4181040001
 20
94.5153686445
 30
0.0
 10
55.3123536229
 20
94.2821351823
 30
0.0
 10
55.1910528505
 20
94.1296359793
 30
0.0
 10
55.1024593349
 20
94.0389280378
 30
0.0
  0
SPLINE
  5
595
100
AcDbEntity
  8
DEFAULT_2
100
AcDbSpline
 62
8
  6
HIDDEN
 70
0
 71
3
 72
11
 73
7
 74
0
 42
0.0000001
 43
0.0000001
 44
0.0000000001
 40
0.0
 40
0.0
 40
0.0
 40
0.0
 40
0.2897751004
 40
0.5526938178
 40
0.7858599241
 40
1.0
 40
1.0
 40
1.0
 40
1.0
 10
54.4411637905
 20
95.7584072759
 30
0.0
 10
54.4411637905
 20
95.7001145657
 30
0.0
 10
54.4580755873
 20
95.5880987266
 30
0.0
 10
54.5290355164
 20
95.4440324456
 30
0.0
 10
54.6304137452
 20
95.3400804562
 30
0.0
 10
54.7115045981
 20
95.2975059678
 30
0.0
 10
54.7521954872
 20
95.2833663762
 30
0.0
  0
SPLINE
  5
596
100
AcDbEntity
  8
DEFAULT_2
100
AcDbSpline
 62
8
  6
HIDDEN
 70
0
 71
3
 72
11
 73
7
 74
0
 42
0.0000001
 43
0.0000001
 44
0.0000000001
 40
0.0
 40
0.0
 40
0.0
 40
0.0
 40
0.2141402801
 40
0.4473128898
 40
0.7102553878
 40
1.0
 40
1.0
 40
1.0
 40
1.0
 10
54.7521954872
 20
96.2334481757
 30
0.0
 10
54.7115045937
 20
96.2193085824
 30
0.0
 10
54.6304127899
 20
96.1767333984
 30
0.0
 10
54.5290296833
 20
96.0727770001
 30
0.0
 10
54.458076739
 20
95.9287071209
 30
0.0
 10
54.4411637905
 20
95.8166938038
 30
0.0
 10
54.4411637905
 20
95.7584072759
 30
0.0
  0
SPLINE
  5
597
100
AcDbEntity
  8
DEFAULT_2
100
AcDbSpline
 62
8
  6
HIDDEN
 70
0
 71
3
 72
14
 73
10
 74
0
 42
0.0000001
 43
0.0000001
 44
0.0000000001
 40
0.0
 40
0.0
 40
0.0
 40
0.0
 40
0.2781993076
 40
0.4210322981
 40
0.5585828566
 40
0.6833200798
 40
0.7951899177
 40
0.8993653844
 40
1.0
 40
1.0
 40
1.0
 40
1.0
 10
55.1024593349
 20
97.4778865141
 30
0.0
 10
55.1910528411
 20
97.3871785822
 30
0.0
 10
55.3123536114
 20
97.2346793959
 30
0.0
 10
55.4181039822
 20
97.0014458972
 30
0.0
 10
55.4515105585
 20
96.8169871405
 30
0.0
 10
55.4230477291
 20
96.644769999
 30
0.0
 10
55.3414670088
 20
96.5087386675
 30
0.0
 10
55.2305009567
 20
96.4134928736
 30
0.0
 10
55.1456421179
 20
96.372325443
 30
0.0
 10
55.1024593349
 20
96.3568680212
 30
0.0
  0
SPLINE
  5
598
100
AcDbEntity
  8
DEFAULT_2
100
AcDbSpline
 62
8
  6
HIDDEN
 70
0
 71
3
 72
18
 73
14
 74
0
 42
0.0000001
 43
0.0000001
 44
0.0000000001
 40
0.0
 40
0.0
 40
0.0
 40
0.0
 40
0.1858417135
 40
0.3637190646
 40
0.5285621923
 40
0.6731606883
 40
0.7878976104
 40
0.8318887962
 40
0.8676138227
 40
0.8979234533
 40
0.9276530399
 40
0.9609888786
 40
1.0
 40
1.0
 40
1.0
 40
1.0
 10
55.1024593349
 20
98.7885788801
 30
0.0
 10
55.1323625966
 20
98.7559839455
 30
0.0
 10
55.1902877952
 20
98.6916281841
 30
0.0
 10
55.2717791111
 20
98.5957741287
 30
0.0
 10
55.3430919167
 20
98.5041483487
 30
0.0
 10
55.3990591359
 20
98.4201553924
 30
0.0
 10
55.4316069451
 20
98.3548997794
 30
0.0
 10
55.4417682735
 20
98.3094776241
 30
0.0
 10
55.4410971661
 20
98.2828633323
 30
0.0
 10
55.4315418453
 20
98.2613240621
 30
0.0
 10
55.4136900163
 20
98.2469300359
 30
0.0
 10
55.390221046
 20
98.2394181715
 30
0.0
 10
55.3729299304
 20
98.2381794581
 30
0.0
 10
55.3636445411
 20
98.2381810799
 30
0.0
  0
SPLINE
  5
599
100
AcDbEntity
  8
DEFAULT_2
100
AcDbSpline
 62
8
  6
HIDDEN
 70
0
 71
3
 72
11
 73
7
 74
0
 42
0.0000001
 43
0.0000001
 44
0.0000000001
 40
0.0
 40
0.0
 40
0.0
 40
0.0
 40
0.2951018371
 40
0.5489885902
 40
0.7748757601
 40
1.0
 40
1.0
 40
1.0
 40
1.0
 10
55.3636445552
 20
77.2786334855
 30
0.0
 10
55.3725381796
 20
77.2786350428
 30
0.0
 10
55.3891431055
 20
77.2774915447
 30
0.0
 10
55.4117840428
 20
77.2706737475
 30
0.0
 10
55.4293714213
 20
77.2578125349
 30
0.0
 10
55.4361051995
 20
77.2454383472
 30
0.0
 10
55.4381430766
 20
77.238966957
 30
0.0
  0
SPLINE
  5
59A
100
AcDbEntity
  8
DEFAULT_2
100
AcDbSpline
 62
8
  6
HIDDEN
 70
0
 71
3
 72
9
 73
5
 74
0
 42
0.0000001
 43
0.0000001
 44
0.0000000001
 40
0.0
 40
0.0
 40
0.0
 40
0.0
 40
0.2163842038
 40
1.0
 40
1.0
 40
1.0
 40
1.0
 10
55.4381430766
 20
77.238966957
 30
0.0
 10
55.4392600278
 20
77.2354200174
 30
0.0
 10
55.442758951
 20
77.2184923397
 30
0.0
 10
55.4403413778
 20
77.2008805868
 30
0.0
 10
55.4371288532
 20
77.187802621
 30
0.0
  0
SPLINE
  5
59B
100
AcDbEntity
  8
DEFAULT_2
100
AcDbSpline
 62
8
  6
HIDDEN
 70
0
 71
3
 72
15
 73
11
 74
0
 42
0.0000001
 43
0.0000001
 44
0.0000000001
 40
0.0
 40
0.0
 40
0.0
 40
0.0
 40
0.0900417976
 40
0.1736913212
 40
0.2627643291
 40
0.3700910761
 40
0.5017242436
 40
0.6551816619
 40
0.8236570515
 40
1.0
 40
1.0
 40
1.0
 40
1.0
 10
54.5703032289
 20
109.5565184251
 30
0.0
 10
54.553925412
 20
109.5565212116
 30
0.0
 10
54.5219464024
 20
109.5527398262
 30
0.0
 10
54.4787822362
 20
109.5287096487
 30
0.0
 10
54.4500282332
 20
109.4845388678
 30
0.0
 10
54.4387394283
 20
109.4249355489
 30
0.0
 10
54.4437296433
 20
109.3532320791
 30
0.0
 10
54.4637783595
 20
109.2728945163
 30
0.0
 10
54.4968275635
 20
109.188304427
 30
0.0
 10
54.5255438808
 20
109.1324259336
 30
0.0
 10
54.541401128
 20
109.1045445969
 30
0.0
  0
SPLINE
  5
59C
100
AcDbEntity
  8
DEFAULT_2
100
AcDbSpline
 62
8
  6
HIDDEN
 70
0
 71
3
 72
16
 73
12
 74
0
 42
0.0000001
 43
0.0000001
 44
0.0000000001
 40
0.0
 40
0.0
 40
0.0
 40
0.0
 40
0.3103759307
 40
0.4684424554
 40
0.6181728499
 40
0.7466140796
 40
0.7996073274
 40
0.8450208
 40
0.8848349279
 40
0.922074652
 40
1.0
 40
1.0
 40
1.0
 40
1.0
 10
54.7521954872
 20
109.6859058954
 30
0.0
 10
54.6867898255
 20
109.6208971207
 30
0.0
 10
54.5977120954
 20
109.5122114165
 30
0.0
 10
54.506305688
 20
109.3524285387
 30
0.0
 10
54.4579135395
 20
109.2317719902
 30
0.0
 10
54.4386958003
 20
109.1339648342
 30
0.0
 10
54.4427390488
 20
109.0662827626
 30
0.0
 10
54.4543302567
 20
109.0264197918
 30
0.0
 10
54.4744048137
 20
108.9953226961
 30
0.0
 10
54.5114426907
 20
108.9665792765
 30
0.0
 10
54.547152059
 20
108.9603035934
 30
0.0
 10
54.5703048523
 20
108.9603014077
 30
0.0
  0
SPLINE
  5
59D
100
AcDbEntity
  8
DEFAULT_2
100
AcDbSpline
 62
8
  6
HIDDEN
 70
0
 71
3
 72
13
 73
9
 74
0
 42
0.0000001
 43
0.0000001
 44
0.0000000001
 40
0.0
 40
0.0
 40
0.0
 40
0.0
 40
0.3207762553
 40
0.6134375706
 40
0.7412933628
 40
0.8505443127
 40
0.9367652969
 40
1.0
 40
1.0
 40
1.0
 40
1.0
 10
55.1024593349
 20
93.7885788801
 30
0.0
 10
55.1475280123
 20
93.7394534501
 30
0.0
 10
55.2323583301
 20
93.6442795466
 30
0.0
 10
55.3291688973
 20
93.524163914
 30
0.0
 10
55.3906984582
 20
93.4327742374
 30
0.0
 10
55.4228217142
 20
93.3735116315
 30
0.0
 10
55.4411247017
 20
93.3227869246
 30
0.0
 10
55.442090418
 20
93.2903821183
 30
0.0
 10
55.4381428547
 20
93.2778469178
 30
0.0
  0
SPLINE
  5
59E
100
AcDbEntity
  8
DEFAULT_2
100
AcDbSpline
 62
8
  6
HIDDEN
 70
0
 71
3
 72
11
 73
7
 74
0
 42
0.0000001
 43
0.0000001
 44
0.0000000001
 40
0.0
 40
0.0
 40
0.0
 40
0.0
 40
0.2290766917
 40
0.4570381
 40
0.709468038
 40
1.0
 40
1.0
 40
1.0
 40
1.0
 10
55.4381428547
 20
93.2778469178
 30
0.0
 10
55.4362204136
 20
93.2717423458
 30
0.0
 10
55.4300645835
 20
93.2600900086
 30
0.0
 10
55.4141563414
 20
93.2475007972
 30
0.0
 10
55.3935765429
 20
93.2402778444
 30
0.0
 10
55.37840062
 20
93.2386123895
 30
0.0
 10
55.3702893672
 20
93.2383041202
 30
0.0
  0
SPLINE
  5
59F
100
AcDbEntity
  8
DEFAULT_2
100
AcDbSpline
 62
8
  6
HIDDEN
 70
0
 71
3
 72
14
 73
10
 74
0
 42
0.0000001
 43
0.0000001
 44
0.0000000001
 40
0.0
 40
0.0
 40
0.0
 40
0.0
 40
0.2781993076
 40
0.4210322981
 40
0.5585828566
 40
0.6833200798
 40
0.7951899177
 40
0.8993653844
 40
1.0
 40
1.0
 40
1.0
 40
1.0
 10
55.1024593349
 20
92.4778865141
 30
0.0
 10
55.1910528411
 20
92.3871785822
 30
0.0
 10
55.3123536114
 20
92.2346793959
 30
0.0
 10
55.4181039822
 20
92.0014458972
 30
0.0
 10
55.4515105585
 20
91.8169871405
 30
0.0
 10
55.4230477291
 20
91.644769999
 30
0.0
 10
55.3414670088
 20
91.5087386675
 30
0.0
 10
55.2305009567
 20
91.4134928736
 30
0.0
 10
55.1456421179
 20
91.372325443
 30
0.0
 10
55.1024593349
 20
91.3568680212
 30
0.0
  0
SPLINE
  5
5A0
100
AcDbEntity
  8
DEFAULT_2
100
AcDbSpline
 62
8
  6
HIDDEN
 70
0
 71
3
 72
11
 73
7
 74
0
 42
0.0000001
 43
0.0000001
 44
0.0000000001
 40
0.0
 40
0.0
 40
0.0
 40
0.0
 40
0.2141402801
 40
0.4473128898
 40
0.7102553878
 40
1.0
 40
1.0
 40
1.0
 40
1.0
 10
54.7521954872
 20
91.2334481757
 30
0.0
 10
54.7115045937
 20
91.2193085824
 30
0.0
 10
54.6304127899
 20
91.1767333984
 30
0.0
 10
54.5290296833
 20
91.0727770001
 30
0.0
 10
54.458076739
 20
90.9287071209
 30
0.0
 10
54.4411637905
 20
90.8166938038
 30
0.0
 10
54.4411637905
 20
90.7584072759
 30
0.0
  0
SPLINE
  5
5A1
100
AcDbEntity
  8
DEFAULT_2
100
AcDbSpline
 62
8
  6
HIDDEN
 70
0
 71
3
 72
9
 73
5
 74
0
 42
0.0000001
 43
0.0000001
 44
0.0000000001
 40
0.0
 40
0.0
 40
0.0
 40
0.0
 40
0.2572970419
 40
1.0
 40
1.0
 40
1.0
 40
1.0
 10
54.5501859863
 20
90.4288642297
 30
0.0
 10
54.5551878713
 20
90.4224663558
 30
0.0
 10
54.5752683775
 20
90.3981084347
 30
0.0
 10
54.5978814325
 20
90.3758350471
 30
0.0
 10
54.6158456244
 20
90.3607747877
 30
0.0
  0
SPLINE
  5
5A2
100
AcDbEntity
  8
DEFAULT_2
100
AcDbSpline
 62
8
  6
HIDDEN
 70
0
 71
3
 72
9
 73
5
 74
0
 42
0.0000001
 43
0.0000001
 44
0.0000000001
 40
0.0
 40
0.0
 40
0.0
 40
0.0
 40
0.2480615433
 40
1.0
 40
1.0
 40
1.0
 40
1.0
 10
55.1024593349
 20
90.1599465306
 30
0.0
 10
55.1140432037
 20
90.155800046
 30
0.0
 10
55.1602449632
 20
90.1377505655
 30
0.0
 10
55.2042721525
 20
90.1139792466
 30
0.0
 10
55.2350770462
 20
90.0929551847
 30
0.0
  0
SPLINE
  5
5A3
100
AcDbEntity
  8
DEFAULT_2
100
AcDbSpline
 62
8
  6
HIDDEN
 70
0
 71
3
 72
16
 73
12
 74
0
 42
0.0000001
 43
0.0000001
 44
0.0000000001
 40
0.0
 40
0.0
 40
0.0
 40
0.0
 40
0.3103759307
 40
0.4684424554
 40
0.6181728499
 40
0.7466140796
 40
0.7996073274
 40
0.8450208
 40
0.8848349279
 40
0.922074652
 40
1.0
 40
1.0
 40
1.0
 40
1.0
 10
54.7521954872
 20
88.6859058954
 30
0.0
 10
54.6867898255
 20
88.6208971207
 30
0.0
 10
54.5977120954
 20
88.5122114165
 30
0.0
 10
54.506305688
 20
88.3524285387
 30
0.0
 10
54.4579135395
 20
88.2317719902
 30
0.0
 10
54.4386958003
 20
88.1339648342
 30
0.0
 10
54.4427390488
 20
88.0662827626
 30
0.0
 10
54.4543302567
 20
88.0264197918
 30
0.0
 10
54.4744048137
 20
87.9953226961
 30
0.0
 10
54.5114426907
 20
87.9665792765
 30
0.0
 10
54.547152059
 20
87.9603035934
 30
0.0
 10
54.5703048523
 20
87.9603014077
 30
0.0
  0
SPLINE
  5
5A4
100
AcDbEntity
  8
DEFAULT_2
100
AcDbSpline
 62
8
  6
HIDDEN
 70
0
 71
3
 72
14
 73
10
 74
0
 42
0.0000001
 43
0.0000001
 44
0.0000000001
 40
0.0
 40
0.0
 40
0.0
 40
0.0
 40
0.362108422
 40
0.5289066071
 40
0.6801747859
 40
0.8102916526
 40
0.9119577957
 40
0.9773425579
 40
1.0
 40
1.0
 40
1.0
 40
1.0
 10
54.7521954872
 20
87.3524068157
 30
0.0
 10
54.7137464372
 20
87.3117221806
 30
0.0
 10
54.6579722193
 20
87.2516929426
 30
0.0
 10
54.5875644351
 20
87.1741711894
 30
0.0
 10
54.5406567536
 20
87.1217378355
 30
0.0
 10
54.5034326099
 20
87.0798286986
 30
0.0
 10
54.4680060161
 20
87.0390814265
 30
0.0
 10
54.4585655139
 20
87.028796648
 30
0.0
 10
54.4390030567
 20
87.0056852983
 30
0.0
 10
54.4411806995
 20
87.008428682
 30
0.0
  0
SPLINE
  5
5A5
100
AcDbEntity
  8
DEFAULT_2
100
AcDbSpline
 62
8
  6
HIDDEN
 70
0
 71
3
 72
14
 73
10
 74
0
 42
0.0000001
 43
0.0000001
 44
0.0000000001
 40
0.0
 40
0.0
 40
0.0
 40
0.0
 40
0.362108422
 40
0.5289066071
 40
0.6801747859
 40
0.8102916526
 40
0.9119577957
 40
0.9773425579
 40
1.0
 40
1.0
 40
1.0
 40
1.0
 10
54.7521954872
 20
76.3524068157
 30
0.0
 10
54.7137464372
 20
76.3117221806
 30
0.0
 10
54.6579722193
 20
76.2516929426
 30
0.0
 10
54.5875644351
 20
76.1741711894
 30
0.0
 10
54.5406567536
 20
76.1217378355
 30
0.0
 10
54.5034326099
 20
76.0798286986
 30
0.0
 10
54.4680060161
 20
76.0390814265
 30
0.0
 10
54.4585655139
 20
76.028796648
 30
0.0
 10
54.4390030567
 20
76.0056852983
 30
0.0
 10
54.4411806995
 20
76.008428682
 30
0.0
  0
SPLINE
  5
5A6
100
AcDbEntity
  8
DEFAULT_2
100
AcDbSpline
 62
8
  6
HIDDEN
 70
0
 71
3
 72
14
 73
10
 74
0
 42
0.0000001
 43
0.0000001
 44
0.0000000001
 40
0.0
 40
0.0
 40
0.0
 40
0.0
 40
0.362108422
 40
0.5289066071
 40
0.6801747859
 40
0.8102916526
 40
0.9119577957
 40
0.9773425579
 40
1.0
 40
1.0
 40
1.0
 40
1.0
 10
54.7521954872
 20
108.3524068157
 30
0.0
 10
54.7137464372
 20
108.3117221806
 30
0.0
 10
54.6579722193
 20
108.2516929426
 30
0.0
 10
54.5875644351
 20
108.1741711894
 30
0.0
 10
54.5406567536
 20
108.1217378355
 30
0.0
 10
54.5034326099
 20
108.0798286986
 30
0.0
 10
54.4680060161
 20
108.0390814265
 30
0.0
 10
54.4585655139
 20
108.028796648
 30
0.0
 10
54.4390030567
 20
108.0056852983
 30
0.0
 10
54.4411806995
 20
108.008428682
 30
0.0
  0
SPLINE
  5
5A7
100
AcDbEntity
  8
DEFAULT_2
100
AcDbSpline
 62
8
  6
HIDDEN
 70
0
 71
3
 72
11
 73
7
 74
0
 42
0.0000001
 43
0.0000001
 44
0.0000000001
 40
0.0
 40
0.0
 40
0.0
 40
0.0
 40
0.2951018371
 40
0.5489885902
 40
0.7748757601
 40
1.0
 40
1.0
 40
1.0
 40
1.0
 10
55.3636445552
 20
93.2786334855
 30
0.0
 10
55.3725381796
 20
93.2786350428
 30
0.0
 10
55.3891431055
 20
93.2774915447
 30
0.0
 10
55.4117840428
 20
93.2706737475
 30
0.0
 10
55.4293714213
 20
93.2578125349
 30
0.0
 10
55.4361051995
 20
93.2454383472
 30
0.0
 10
55.4381430766
 20
93.238966957
 30
0.0
  0
SPLINE
  5
5A8
100
AcDbEntity
  8
DEFAULT_2
100
AcDbSpline
 62
8
  6
HIDDEN
 70
0
 71
3
 72
9
 73
5
 74
0
 42
0.0000001
 43
0.0000001
 44
0.0000000001
 40
0.0
 40
0.0
 40
0.0
 40
0.0
 40
0.2163842038
 40
1.0
 40
1.0
 40
1.0
 40
1.0
 10
55.4381430766
 20
93.238966957
 30
0.0
 10
55.4392600278
 20
93.2354200174
 30
0.0
 10
55.442758951
 20
93.2184923397
 30
0.0
 10
55.4403413778
 20
93.2008805868
 30
0.0
 10
55.4371288532
 20
93.187802621
 30
0.0
  0
SPLINE
  5
5A9
100
AcDbEntity
  8
DEFAULT_2
100
AcDbSpline
 62
8
  6
HIDDEN
 70
0
 71
3
 72
16
 73
12
 74
0
 42
0.0000001
 43
0.0000001
 44
0.0000000001
 40
0.0
 40
0.0
 40
0.0
 40
0.0
 40
0.3103759307
 40
0.4684424554
 40
0.6181728499
 40
0.7466140796
 40
0.7996073274
 40
0.8450208
 40
0.8848349279
 40
0.922074652
 40
1.0
 40
1.0
 40
1.0
 40
1.0
 10
54.7521954872
 20
77.6859058954
 30
0.0
 10
54.6867898255
 20
77.6208971207
 30
0.0
 10
54.5977120954
 20
77.5122114165
 30
0.0
 10
54.506305688
 20
77.3524285387
 30
0.0
 10
54.4579135395
 20
77.2317719902
 30
0.0
 10
54.4386958003
 20
77.1339648342
 30
0.0
 10
54.4427390488
 20
77.0662827626
 30
0.0
 10
54.4543302567
 20
77.0264197918
 30
0.0
 10
54.4744048137
 20
76.9953226961
 30
0.0
 10
54.5114426907
 20
76.9665792765
 30
0.0
 10
54.547152059
 20
76.9603035934
 30
0.0
 10
54.5703048523
 20
76.9603014077
 30
0.0
  0
SPLINE
  5
5AA
100
AcDbEntity
  8
DEFAULT_2
100
AcDbSpline
 62
8
  6
HIDDEN
 70
0
 71
3
 72
14
 73
10
 74
0
 42
0.0000001
 43
0.0000001
 44
0.0000000001
 40
0.0
 40
0.0
 40
0.0
 40
0.0
 40
0.1006346061
 40
0.2048100611
 40
0.3166798937
 40
0.4414172138
 40
0.5789676637
 40
0.7218006621
 40
1.0
 40
1.0
 40
1.0
 40
1.0
 10
55.1024593349
 20
111.1599465306
 30
0.0
 10
55.1456421137
 20
111.1444891104
 30
0.0
 10
55.2305009441
 20
111.1033216868
 30
0.0
 10
55.3414669902
 20
111.0080759018
 30
0.0
 10
55.4230477128
 20
110.8720445325
 30
0.0
 10
55.4515105589
 20
110.699827401
 30
0.0
 10
55.4181040001
 20
110.5153686445
 30
0.0
 10
55.3123536229
 20
110.2821351823
 30
0.0
 10
55.1910528505
 20
110.1296359793
 30
0.0
 10
55.1024593349
 20
110.0389280378
 30
0.0
  0
SPLINE
  5
5AB
100
AcDbEntity
  8
DEFAULT_2
100
AcDbSpline
 62
8
  6
HIDDEN
 70
0
 71
3
 72
11
 73
7
 74
0
 42
0.0000001
 43
0.0000001
 44
0.0000000001
 40
0.0
 40
0.0
 40
0.0
 40
0.0
 40
0.2897751004
 40
0.5526938178
 40
0.7858599241
 40
1.0
 40
1.0
 40
1.0
 40
1.0
 10
54.4411637905
 20
111.7584072759
 30
0.0
 10
54.4411637905
 20
111.7001145657
 30
0.0
 10
54.4580755873
 20
111.5880987266
 30
0.0
 10
54.5290355164
 20
111.4440324456
 30
0.0
 10
54.6304137452
 20
111.3400804562
 30
0.0
 10
54.7115045981
 20
111.2975059678
 30
0.0
 10
54.7521954872
 20
111.2833663762
 30
0.0
  0
SPLINE
  5
5AC
100
AcDbEntity
  8
DEFAULT_2
100
AcDbSpline
 62
8
  6
HIDDEN
 70
0
 71
3
 72
13
 73
9
 74
0
 42
0.0000001
 43
0.0000001
 44
0.0000000001
 40
0.0
 40
0.0
 40
0.0
 40
0.0
 40
0.0226217548
 40
0.0880995638
 40
0.1897352848
 40
0.3198552848
 40
0.6378260232
 40
1.0
 40
1.0
 40
1.0
 40
1.0
 10
54.4411806995
 20
115.5083858698
 30
0.0
 10
54.4433549085
 20
115.5056468121
 30
0.0
 10
54.4525586357
 20
115.495590779
 30
0.0
 10
54.4715589253
 20
115.4732535073
 30
0.0
 10
54.5019836068
 20
115.4388130481
 30
0.0
 10
54.5582340595
 20
115.3751152745
 30
0.0
 10
54.6421735384
 20
115.2821346288
 30
0.0
 10
54.713739546
 20
115.2050996631
 30
0.0
 10
54.7521954872
 20
115.1644077361
 30
0.0
  0
SPLINE
  5
5AD
100
AcDbEntity
  8
DEFAULT_2
100
AcDbSpline
 62
8
  6
HIDDEN
 70
0
 71
3
 72
16
 73
12
 74
0
 42
0.0000001
 43
0.0000001
 44
0.0000000001
 40
0.0
 40
0.0
 40
0.0
 40
0.0
 40
0.0779780704
 40
0.1152465926
 40
0.1551012447
 40
0.2005712454
 40
0.2535921943
 40
0.382042585
 40
0.5317418638
 40
0.6897403124
 40
1.0
 40
1.0
 40
1.0
 40
1.0
 10
54.5703032289
 20
82.5565184251
 30
0.0
 10
54.5471349673
 20
82.5565223669
 30
0.0
 10
54.5114212917
 20
82.5501859121
 30
0.0
 10
54.4743222924
 20
82.5214541479
 30
0.0
 10
54.4543098622
 20
82.4902673313
 30
0.0
 10
54.4426966988
 20
82.45037984
 30
0.0
 10
54.438737579
 20
82.3826584355
 30
0.0
 10
54.4579602668
 20
82.2848659203
 30
0.0
 10
54.5063729468
 20
82.1642408437
 30
0.0
 10
54.5977740122
 20
82.0045343837
 30
0.0
 10
54.6868148751
 20
81.8958925335
 30
0.0
 10
54.7521954872
 20
81.8309086565
 30
0.0
  0
SPLINE
  5
5AE
100
AcDbEntity
  8
DEFAULT_2
100
AcDbSpline
 62
8
  6
HIDDEN
 70
0
 71
3
 72
11
 73
7
 74
0
 42
0.0000001
 43
0.0000001
 44
0.0000000001
 40
0.0
 40
0.0
 40
0.0
 40
0.0
 40
0.2141402801
 40
0.4473128898
 40
0.7102553878
 40
1.0
 40
1.0
 40
1.0
 40
1.0
 10
54.7521954872
 20
112.2334481757
 30
0.0
 10
54.7115045937
 20
112.2193085824
 30
0.0
 10
54.6304127899
 20
112.1767333984
 30
0.0
 10
54.5290296833
 20
112.0727770001
 30
0.0
 10
54.458076739
 20
111.9287071209
 30
0.0
 10
54.4411637905
 20
111.8166938038
 30
0.0
 10
54.4411637905
 20
111.7584072759
 30
0.0
  0
SPLINE
  5
5AF
100
AcDbEntity
  8
DEFAULT_2
100
AcDbSpline
 62
8
  6
HIDDEN
 70
0
 71
3
 72
14
 73
10
 74
0
 42
0.0000001
 43
0.0000001
 44
0.0000000001
 40
0.0
 40
0.0
 40
0.0
 40
0.0
 40
0.1006346061
 40
0.2048100611
 40
0.3166798937
 40
0.4414172138
 40
0.5789676637
 40
0.7218006621
 40
1.0
 40
1.0
 40
1.0
 40
1.0
 10
55.1024593349
 20
79.1599465306
 30
0.0
 10
55.1456421137
 20
79.1444891104
 30
0.0
 10
55.2305009441
 20
79.1033216868
 30
0.0
 10
55.3414669902
 20
79.0080759018
 30
0.0
 10
55.4230477128
 20
78.8720445325
 30
0.0
 10
55.4515105589
 20
78.699827401
 30
0.0
 10
55.4181040001
 20
78.5153686445
 30
0.0
 10
55.3123536229
 20
78.2821351823
 30
0.0
 10
55.1910528505
 20
78.1296359793
 30
0.0
 10
55.1024593349
 20
78.0389280378
 30
0.0
  0
SPLINE
  5
5B0
100
AcDbEntity
  8
DEFAULT_2
100
AcDbSpline
 62
8
  6
HIDDEN
 70
0
 71
3
 72
14
 73
10
 74
0
 42
0.0000001
 43
0.0000001
 44
0.0000000001
 40
0.0
 40
0.0
 40
0.0
 40
0.0
 40
0.2781993076
 40
0.4210322981
 40
0.5585828566
 40
0.6833200798
 40
0.7951899177
 40
0.8993653844
 40
1.0
 40
1.0
 40
1.0
 40
1.0
 10
55.1024593349
 20
113.4778865141
 30
0.0
 10
55.1910528411
 20
113.3871785822
 30
0.0
 10
55.3123536114
 20
113.2346793959
 30
0.0
 10
55.4181039822
 20
113.0014458972
 30
0.0
 10
55.4515105585
 20
112.8169871405
 30
0.0
 10
55.4230477291
 20
112.644769999
 30
0.0
 10
55.3414670088
 20
112.5087386675
 30
0.0
 10
55.2305009567
 20
112.4134928736
 30
0.0
 10
55.1456421179
 20
112.372325443
 30
0.0
 10
55.1024593349
 20
112.3568680212
 30
0.0
  0
SPLINE
  5
5B1
100
AcDbEntity
  8
DEFAULT_2
100
AcDbSpline
 62
8
  6
HIDDEN
 70
0
 71
3
 72
18
 73
14
 74
0
 42
0.0000001
 43
0.0000001
 44
0.0000000001
 40
0.0
 40
0.0
 40
0.0
 40
0.0
 40
0.1858417135
 40
0.3637190646
 40
0.5285621923
 40
0.6731606883
 40
0.7878976104
 40
0.8318887962
 40
0.8676138227
 40
0.8979234533
 40
0.9276530399
 40
0.9609888786
 40
1.0
 40
1.0
 40
1.0
 40
1.0
 10
55.1024593349
 20
114.7885788801
 30
0.0
 10
55.1323625966
 20
114.7559839455
 30
0.0
 10
55.1902877952
 20
114.6916281841
 30
0.0
 10
55.2717791111
 20
114.5957741287
 30
0.0
 10
55.3430919167
 20
114.5041483487
 30
0.0
 10
55.3990591359
 20
114.4201553924
 30
0.0
 10
55.4316069451
 20
114.3548997794
 30
0.0
 10
55.4417682735
 20
114.3094776241
 30
0.0
 10
55.4410971661
 20
114.2828633323
 30
0.0
 10
55.4315418453
 20
114.2613240621
 30
0.0
 10
55.4136900163
 20
114.2469300359
 30
0.0
 10
55.390221046
 20
114.2394181715
 30
0.0
 10
55.3729299304
 20
114.2381794581
 30
0.0
 10
55.3636445411
 20
114.2381810799
 30
0.0
  0
SPLINE
  5
5B2
100
AcDbEntity
  8
DEFAULT_2
100
AcDbSpline
 62
8
  6
HIDDEN
 70
0
 71
3
 72
13
 73
9
 74
0
 42
0.0000001
 43
0.0000001
 44
0.0000000001
 40
0.0
 40
0.0
 40
0.0
 40
0.0
 40
0.3207762553
 40
0.6134375706
 40
0.7412933628
 40
0.8505443127
 40
0.9367652969
 40
1.0
 40
1.0
 40
1.0
 40
1.0
 10
55.1024593349
 20
77.7885788801
 30
0.0
 10
55.1475280123
 20
77.7394534501
 30
0.0
 10
55.2323583301
 20
77.6442795466
 30
0.0
 10
55.3291688973
 20
77.524163914
 30
0.0
 10
55.3906984582
 20
77.4327742374
 30
0.0
 10
55.4228217142
 20
77.3735116315
 30
0.0
 10
55.4411247017
 20
77.3227869246
 30
0.0
 10
55.442090418
 20
77.2903821183
 30
0.0
 10
55.4381428547
 20
77.2778469178
 30
0.0
  0
SPLINE
  5
5B3
100
AcDbEntity
  8
DEFAULT_2
100
AcDbSpline
 62
8
  6
HIDDEN
 70
0
 71
3
 72
11
 73
7
 74
0
 42
0.0000001
 43
0.0000001
 44
0.0000000001
 40
0.0
 40
0.0
 40
0.0
 40
0.0
 40
0.2290766917
 40
0.4570381
 40
0.709468038
 40
1.0
 40
1.0
 40
1.0
 40
1.0
 10
55.4381428547
 20
77.2778469178
 30
0.0
 10
55.4362204136
 20
77.2717423458
 30
0.0
 10
55.4300645835
 20
77.2600900086
 30
0.0
 10
55.4141563414
 20
77.2475007972
 30
0.0
 10
55.3935765429
 20
77.2402778444
 30
0.0
 10
55.37840062
 20
77.2386123895
 30
0.0
 10
55.3702893672
 20
77.2383041202
 30
0.0
  0
SPLINE
  5
5B4
100
AcDbEntity
  8
DEFAULT_2
100
AcDbSpline
 62
8
  6
HIDDEN
 70
0
 71
3
 72
14
 73
10
 74
0
 42
0.0000001
 43
0.0000001
 44
0.0000000001
 40
0.0
 40
0.0
 40
0.0
 40
0.0
 40
0.2781993076
 40
0.4210322981
 40
0.5585828566
 40
0.6833200798
 40
0.7951899177
 40
0.8993653844
 40
1.0
 40
1.0
 40
1.0
 40
1.0
 10
55.1024593349
 20
76.4778865141
 30
0.0
 10
55.1910528411
 20
76.3871785822
 30
0.0
 10
55.3123536114
 20
76.2346793959
 30
0.0
 10
55.4181039822
 20
76.0014458972
 30
0.0
 10
55.4515105585
 20
75.8169871405
 30
0.0
 10
55.4230477291
 20
75.644769999
 30
0.0
 10
55.3414670088
 20
75.5087386675
 30
0.0
 10
55.2305009567
 20
75.4134928736
 30
0.0
 10
55.1456421179
 20
75.372325443
 30
0.0
 10
55.1024593349
 20
75.3568680212
 30
0.0
  0
SPLINE
  5
5B5
100
AcDbEntity
  8
DEFAULT_2
100
AcDbSpline
 62
8
  6
HIDDEN
 70
0
 71
3
 72
11
 73
7
 74
0
 42
0.0000001
 43
0.0000001
 44
0.0000000001
 40
0.0
 40
0.0
 40
0.0
 40
0.0
 40
0.2141402801
 40
0.4473128898
 40
0.7102553878
 40
1.0
 40
1.0
 40
1.0
 40
1.0
 10
54.7521954872
 20
75.2334481757
 30
0.0
 10
54.7115045937
 20
75.2193085824
 30
0.0
 10
54.6304127899
 20
75.1767333984
 30
0.0
 10
54.5290296833
 20
75.0727770001
 30
0.0
 10
54.458076739
 20
74.9287071209
 30
0.0
 10
54.4411637905
 20
74.8166938038
 30
0.0
 10
54.4411637905
 20
74.7584072759
 30
0.0
  0
SPLINE
  5
5B6
100
AcDbEntity
  8
DEFAULT_2
100
AcDbSpline
 62
8
  6
HIDDEN
 70
0
 71
3
 72
15
 73
11
 74
0
 42
0.0000001
 43
0.0000001
 44
0.0000000001
 40
0.0
 40
0.0
 40
0.0
 40
0.0
 40
0.0900417976
 40
0.1736913212
 40
0.2627643291
 40
0.3700910761
 40
0.5017242436
 40
0.6551816619
 40
0.8236570515
 40
1.0
 40
1.0
 40
1.0
 40
1.0
 10
54.5703032289
 20
77.5565184251
 30
0.0
 10
54.553925412
 20
77.5565212116
 30
0.0
 10
54.5219464024
 20
77.5527398262
 30
0.0
 10
54.4787822362
 20
77.5287096487
 30
0.0
 10
54.4500282332
 20
77.4845388678
 30
0.0
 10
54.4387394283
 20
77.4249355489
 30
0.0
 10
54.4437296433
 20
77.3532320791
 30
0.0
 10
54.4637783595
 20
77.2728945163
 30
0.0
 10
54.4968275635
 20
77.188304427
 30
0.0
 10
54.5255438808
 20
77.1324259336
 30
0.0
 10
54.541401128
 20
77.1045445969
 30
0.0
  0
SPLINE
  5
5B7
100
AcDbEntity
  8
DEFAULT_2
100
AcDbSpline
 62
8
  6
HIDDEN
 70
0
 71
3
 72
16
 73
12
 74
0
 42
0.0000001
 43
0.0000001
 44
0.0000000001
 40
0.0
 40
0.0
 40
0.0
 40
0.0
 40
0.0779780704
 40
0.1152465926
 40
0.1551012447
 40
0.2005712454
 40
0.2535921943
 40
0.382042585
 40
0.5317418638
 40
0.6897403124
 40
1.0
 40
1.0
 40
1.0
 40
1.0
 10
54.5703032289
 20
98.5565184251
 30
0.0
 10
54.5471349673
 20
98.5565223669
 30
0.0
 10
54.5114212917
 20
98.5501859121
 30
0.0
 10
54.4743222924
 20
98.5214541479
 30
0.0
 10
54.4543098622
 20
98.4902673313
 30
0.0
 10
54.4426966988
 20
98.45037984
 30
0.0
 10
54.438737579
 20
98.3826584355
 30
0.0
 10
54.4579602668
 20
98.2848659203
 30
0.0
 10
54.5063729468
 20
98.1642408437
 30
0.0
 10
54.5977740122
 20
98.0045343837
 30
0.0
 10
54.6868148751
 20
97.8958925335
 30
0.0
 10
54.7521954872
 20
97.8309086565
 30
0.0
  0
SPLINE
  5
5B8
100
AcDbEntity
  8
DEFAULT_2
100
AcDbSpline
 62
8
  6
HIDDEN
 70
0
 71
3
 72
13
 73
9
 74
0
 42
0.0000001
 43
0.0000001
 44
0.0000000001
 40
0.0
 40
0.0
 40
0.0
 40
0.0
 40
0.0226217548
 40
0.0880995638
 40
0.1897352848
 40
0.3198552848
 40
0.6378260232
 40
1.0
 40
1.0
 40
1.0
 40
1.0
 10
54.4411806995
 20
94.5083858698
 30
0.0
 10
54.4433549085
 20
94.5056468121
 30
0.0
 10
54.4525586357
 20
94.495590779
 30
0.0
 10
54.4715589253
 20
94.4732535073
 30
0.0
 10
54.5019836068
 20
94.4388130481
 30
0.0
 10
54.5582340595
 20
94.3751152745
 30
0.0
 10
54.6421735384
 20
94.2821346288
 30
0.0
 10
54.713739546
 20
94.2050996631
 30
0.0
 10
54.7521954872
 20
94.1644077361
 30
0.0
  0
SPLINE
  5
5B9
100
AcDbEntity
  8
DEFAULT_2
100
AcDbSpline
 62
8
  6
HIDDEN
 70
0
 71
3
 72
11
 73
7
 74
0
 42
0.0000001
 43
0.0000001
 44
0.0000000001
 40
0.0
 40
0.0
 40
0.0
 40
0.0
 40
0.2897751004
 40
0.5526938178
 40
0.7858599241
 40
1.0
 40
1.0
 40
1.0
 40
1.0
 10
54.4411637905
 20
74.7584072759
 30
0.0
 10
54.4411637905
 20
74.7001145657
 30
0.0
 10
54.4580755873
 20
74.5880987266
 30
0.0
 10
54.5290355164
 20
74.4440324456
 30
0.0
 10
54.6304137452
 20
74.3400804562
 30
0.0
 10
54.7115045981
 20
74.2975059678
 30
0.0
 10
54.7521954872
 20
74.2833663762
 30
0.0
  0
SPLINE
  5
5BA
100
AcDbEntity
  8
DEFAULT_2
100
AcDbSpline
 62
8
  6
HIDDEN
 70
0
 71
3
 72
14
 73
10
 74
0
 42
0.0000001
 43
0.0000001
 44
0.0000000001
 40
0.0
 40
0.0
 40
0.0
 40
0.0
 40
0.1006346061
 40
0.2048100611
 40
0.3166798937
 40
0.4414172138
 40
0.5789676637
 40
0.7218006621
 40
1.0
 40
1.0
 40
1.0
 40
1.0
 10
55.1024593349
 20
74.1599465306
 30
0.0
 10
55.1456421137
 20
74.1444891104
 30
0.0
 10
55.2305009441
 20
74.1033216868
 30
0.0
 10
55.3414669902
 20
74.0080759018
 30
0.0
 10
55.4230477128
 20
73.8720445325
 30
0.0
 10
55.4515105589
 20
73.699827401
 30
0.0
 10
55.4181040001
 20
73.5153686445
 30
0.0
 10
55.3123536229
 20
73.2821351823
 30
0.0
 10
55.1910528505
 20
73.1296359793
 30
0.0
 10
55.1024593349
 20
73.0389280378
 30
0.0
  0
SPLINE
  5
5BB
100
AcDbEntity
  8
DEFAULT_2
100
AcDbSpline
 62
8
  6
HIDDEN
 70
0
 71
3
 72
16
 73
12
 74
0
 42
0.0000001
 43
0.0000001
 44
0.0000000001
 40
0.0
 40
0.0
 40
0.0
 40
0.0
 40
0.3103759307
 40
0.4684424554
 40
0.6181728499
 40
0.7466140796
 40
0.7996073274
 40
0.8450208
 40
0.8848349279
 40
0.922074652
 40
1.0
 40
1.0
 40
1.0
 40
1.0
 10
54.7521954872
 20
72.6859058954
 30
0.0
 10
54.6867898255
 20
72.6208971207
 30
0.0
 10
54.5977120954
 20
72.5122114165
 30
0.0
 10
54.506305688
 20
72.3524285387
 30
0.0
 10
54.4579135395
 20
72.2317719902
 30
0.0
 10
54.4386958003
 20
72.1339648342
 30
0.0
 10
54.4427390488
 20
72.0662827626
 30
0.0
 10
54.4543302567
 20
72.0264197918
 30
0.0
 10
54.4744048137
 20
71.9953226961
 30
0.0
 10
54.5114426907
 20
71.9665792765
 30
0.0
 10
54.547152059
 20
71.9603035934
 30
0.0
 10
54.5703048523
 20
71.9603014077
 30
0.0
  0
SPLINE
  5
5BC
100
AcDbEntity
  8
DEFAULT_2
100
AcDbSpline
 62
8
  6
HIDDEN
 70
0
 71
3
 72
11
 73
7
 74
0
 42
0.0000001
 43
0.0000001
 44
0.0000000001
 40
0.0
 40
0.0
 40
0.0
 40
0.0
 40
0.2897751004
 40
0.5526938178
 40
0.7858599241
 40
1.0
 40
1.0
 40
1.0
 40
1.0
 10
54.4411637905
 20
79.7584072759
 30
0.0
 10
54.4411637905
 20
79.7001145657
 30
0.0
 10
54.4580755873
 20
79.5880987266
 30
0.0
 10
54.5290355164
 20
79.4440324456
 30
0.0
 10
54.6304137452
 20
79.3400804562
 30
0.0
 10
54.7115045981
 20
79.2975059678
 30
0.0
 10
54.7521954872
 20
79.2833663762
 30
0.0
  0
SPLINE
  5
5BD
100
AcDbEntity
  8
DEFAULT_2
100
AcDbSpline
 62
8
  6
HIDDEN
 70
0
 71
3
 72
14
 73
10
 74
0
 42
0.0000001
 43
0.0000001
 44
0.0000000001
 40
0.0
 40
0.0
 40
0.0
 40
0.0
 40
0.362108422
 40
0.5289066071
 40
0.6801747859
 40
0.8102916526
 40
0.9119577957
 40
0.9773425579
 40
1.0
 40
1.0
 40
1.0
 40
1.0
 10
54.7521954872
 20
71.3524068157
 30
0.0
 10
54.7137464372
 20
71.3117221806
 30
0.0
 10
54.6579722193
 20
71.2516929426
 30
0.0
 10
54.5875644351
 20
71.1741711894
 30
0.0
 10
54.5406567536
 20
71.1217378355
 30
0.0
 10
54.5034326099
 20
71.0798286986
 30
0.0
 10
54.4680060161
 20
71.0390814265
 30
0.0
 10
54.4585655139
 20
71.028796648
 30
0.0
 10
54.4390030567
 20
71.0056852983
 30
0.0
 10
54.4411806995
 20
71.008428682
 30
0.0
  0
SPLINE
  5
5BE
100
AcDbEntity
  8
DEFAULT_2
100
AcDbSpline
 62
8
  6
HIDDEN
 70
0
 71
3
 72
10
 73
6
 74
0
 42
0.0000001
 43
0.0000001
 44
0.0000000001
 40
0.0
 40
0.0
 40
0.0
 40
0.0
 40
0.2297905542
 40
0.5967207407
 40
1.0
 40
1.0
 40
1.0
 40
1.0
 10
65.1922208873
 20
34.0513665388
 30
0.0
 10
65.1288229738
 20
34.0539591853
 30
0.0
 10
64.9645126618
 20
34.0714193592
 30
0.0
 10
64.6957862271
 20
34.138877047
 30
0.0
 10
64.4962209302
 20
34.2130184092
 30
0.0
 10
64.3928384545
 20
34.2543959754
 30
0.0
  0
SPLINE
  5
5BF
100
AcDbEntity
  8
A_RUNDUNGEN
100
AcDbSpline
 62
8
  6
HIDDEN
 70
0
 71
3
 72
17
 73
13
 74
0
 42
0.0000001
 43
0.0000001
 44
0.0000000001
 40
0.0
 40
0.0
 40
0.0
 40
0.0
 40
0.0578237577
 40
0.1186694694
 40
0.2439338522
 40
0.3715710663
 40
0.4999962726
 40
0.6284258027
 40
0.7560655464
 40
0.8813306142
 40
0.942176234
 40
1.0
 40
1.0
 40
1.0
 40
1.0
 10
63.6911637905
 20
46.5813301652
 30
0.0
 10
63.6911637905
 20
46.6461827465
 30
0.0
 10
63.6836890839
 20
46.779237404
 30
0.0
 10
63.6558390274
 20
47.0513816533
 30
0.0
 10
63.6150868086
 20
47.4009151279
 30
0.0
 10
63.5779678213
 20
47.8271091764
 30
0.0
 10
63.5642410168
 20
48.2583995654
 30
0.0
 10
63.5779665232
 20
48.6896928696
 30
0.0
 10
63.615086226
 20
49.1158953565
 30
0.0
 10
63.655839665
 20
49.4654322351
 30
0.0
 10
63.6836883111
 20
49.7375772821
 30
0.0
 10
63.6911637905
 20
49.8706318016
 30
0.0
 10
63.6911637905
 20
49.9354843922
 30
0.0
  0
SPLINE
  5
5C0
100
AcDbEntity
  8
A_RUNDUNGEN
100
AcDbSpline
 62
8
  6
HIDDEN
 70
0
 71
3
 72
9
 73
5
 74
0
 42
0.0000001
 43
0.0000001
 44
0.0000000001
 40
0.0
 40
0.0
 40
0.0
 40
0.0
 40
0.4999994613
 40
1.0
 40
1.0
 40
1.0
 40
1.0
 10
57.2911637905
 20
47.8162257324
 30
0.0
 10
57.2911637901
 20
47.9636196532
 30
0.0
 10
57.2927319238
 20
48.2584071171
 30
0.0
 10
57.2911638088
 20
48.5531945811
 30
0.0
 10
57.2911637905
 20
48.7005888194
 30
0.0
  0
SPLINE
  5
5C1
100
AcDbEntity
  8
A_RUNDUNGEN
100
AcDbSpline
 62
8
  6
HIDDEN
 70
0
 71
3
 72
10
 73
6
 74
0
 42
0.0000001
 43
0.0000001
 44
0.0000000001
 40
0.0
 40
0.0
 40
0.0
 40
0.0
 40
0.1059553304
 40
0.3549570686
 40
1.0
 40
1.0
 40
1.0
 40
1.0
 10
44.0911637905
 20
35.3851095598
 30
0.0
 10
44.1085045224
 20
35.4029004681
 30
0.0
 10
44.1668619167
 20
35.4622389127
 30
0.0
 10
44.3329952661
 20
35.6276997237
 30
0.0
 10
44.4813221385
 20
35.7758264309
 30
0.0
 10
44.5885458086
 20
35.8824916136
 30
0.0
  0
ENDSEC
  0
SECTION
  2
OBJECTS
  0
DICTIONARY
  5
5C2
100
AcDbDictionary
  3
ACAD_GROUP
350
5C3
  3
ACAD_MLINESTYLE
350
5C4
  0
DICTIONARY
  5
5C3
102
{ACAD_REACTORS
330
5C2
102
}
100
AcDbDictionary
  0
DICTIONARY
  5
5C4
102
{ACAD_REACTORS
330
5C2
102
}
100
AcDbDictionary
  3
STANDARD
350
5C5
  0
MLINESTYLE
  5
5C5
102
{ACAD_REACTORS
330
5C4
102
}
100
AcDbMlineStyle
  2
STANDARD
 70
0
  3

 62
256
 51
90.0
 52
90.0
 71
2
 49
0.5
 62
256
  6
BYLAYER
 49
-0.5
 62
256
  6
BYLAYER
  0
ENDSEC
  0
EOF
