999
DXF file: d:\tmp\workingDir\0000092249\teg_310_2d_q02_01.dxf
999
Pro/ENGINEER 2016380 by Parametric Technology Corporation
  0
SECTION
  2
HEADER
  9
$ACADVER
  1
AC1014
  9
$DWGCODEPAGE
  3
ANSI_1252
  9
$EXTMAX
 10
154.94
 20
90.0
 30
0.0
  9
$EXTMIN
 10
0.0
 20
0.0
 30
0.0
  9
$LIMMIN
 10
0.0
 20
0.0
  9
$LIMMAX
 10
154.94
 20
90.0
  9
$VIEWCTR
 10
77.47
 20
45.0
  9
$VIEWSIZE
 40
90.0
  9
$CLAYER
  8
0
  9
$LTSCALE
 40
8.5217
  9
$CELTYPE
  6
BYLAYER
  9
$DIMSCALE
 40
1.0
  9
$DIMASZ
 40
3.5
  9
$DIMEXO
 40
0.0
  9
$DIMDLI
 40
5.88772
  9
$DIMEXE
 40
2.0
  9
$DIMCEN
 40
1.39446
  9
$DIMLFAC
 40
1.0
  9
$DIMBLK
  1
_ARROW_FILLED
  9
$DIMALT
 70
0
  9
$DIMALTF
 40
25.4
  9
$DIMTXT
 40
3.5
  9
$DIMTOL
 70
1
  9
$DIMLIM
 70
0
  9
$DIMTFAC
 40
1.0
  9
$DIMTP
 40
0.01
  9
$DIMTM
 40
0.01
  9
$DIMGAP
 40
0.625
  9
$AUNITS
 70
0
  9
$PDMODE
 70
0
  9
$PDSIZE
 40
0.04
  9
$HANDSEED
  5
3A2
  9
$TILEMODE
 70
1
  9
$MEASUREMENT
 70
1
  0
ENDSEC
  0
SECTION
  2
CLASSES
  0
ENDSEC
  0
SECTION
  2
TABLES
  0
TABLE
  2
VPORT
  5
8
100
AcDbSymbolTable
 70
2
  0
VPORT
  5
1F4
100
AcDbSymbolTableRecord
100
AcDbViewportTableRecord
  2
*ACTIVE
 70
0
 10
0.0
 20
0.0
 11
1.0
 21
1.0
 12
77.47
 22
45.0
 13
0.0
 23
0.0
 14
1.0
 24
1.0
 15
0.0
 25
0.0
 16
0.0
 26
0.0
 36
1.0
 17
0.0
 27
0.0
 37
0.0
 40
90.0
 41
1.7215555556
 42
50.0
 43
0.0
 44
0.0
 50
0.0
 51
0.0
 71
0
 72
100
 73
1
 74
1
 75
0
 76
0
 77
0
 78
0
  0
ENDTAB
  0
TABLE
  2
LTYPE
  5
5
100
AcDbSymbolTable
 70
6
  0
LTYPE
  5
14
100
AcDbSymbolTableRecord
100
AcDbLinetypeTableRecord
  2
BYBLOCK
 70
0
  3

 72
65
 73
0
 40
0.0
  0
LTYPE
  5
15
100
AcDbSymbolTableRecord
100
AcDbLinetypeTableRecord
  2
BYLAYER
 70
0
  3

 72
65
 73
0
 40
0.0
  0
LTYPE
  5
16
100
AcDbSymbolTableRecord
100
AcDbLinetypeTableRecord
  2
CONTINUOUS
 70
64
  3
Solid line
 72
65
 73
0
 40
0.0
  0
LTYPE
  5
1F5
100
AcDbSymbolTableRecord
100
AcDbLinetypeTableRecord
  2
CENTER
 70
64
  3
____ _ ____ _ ____ _ ____ _ ____ _ ____ _ ____
 72
65
 73
4
 40
0.6
 49
0.375
 74
0
 49
-0.075
 74
0
 49
0.075
 74
0
 49
-0.075
 74
0
  0
LTYPE
  5
1F6
100
AcDbSymbolTableRecord
100
AcDbLinetypeTableRecord
  2
HIDDEN
 70
64
  3
- - - - - - - - - - - - - - - - - - - -
 72
65
 73
2
 40
0.2
 49
0.1
 74
0
 49
-0.1
 74
0
  0
LTYPE
  5
1F7
100
AcDbSymbolTableRecord
100
AcDbLinetypeTableRecord
  2
PHANTOM
 70
64
  3
_____ _ _ _____ _ _ _____ _ _ _____
 72
65
 73
6
 40
0.8
 49
0.45
 74
0
 49
-0.05
 74
0
 49
0.1
 74
0
 49
-0.05
 74
0
 49
0.1
 74
0
 49
-0.05
 74
0
  0
LTYPE
  5
1F8
100
AcDbSymbolTableRecord
100
AcDbLinetypeTableRecord
  2
DOT
 70
64
  3
. . . . . . . . . . . . . . . . . . . .
 72
65
 73
2
 40
0.2
 49
0.1
 74
0
 49
-0.1
 74
0
  0
LTYPE
  5
1F9
100
AcDbSymbolTableRecord
100
AcDbLinetypeTableRecord
  2
DASHED
 70
64
  3
- - - - - - - - - - - - - - - - - - - -
 72
65
 73
2
 40
0.2
 49
0.1
 74
0
 49
-0.1
 74
0
  0
ENDTAB
  0
TABLE
  2
LAYER
  5
2
100
AcDbSymbolTable
 70
36
  0
LAYER
  5
10
100
AcDbSymbolTableRecord
100
AcDbLayerTableRecord
  2
0
 70
0
 62
7
  6
CONTINUOUS
  0
LAYER
  5
1FA
100
AcDbSymbolTableRecord
100
AcDbLayerTableRecord
  2
DEFAULT_1
 70
0
 62
7
  6
CENTER
  0
LAYER
  5
1FB
100
AcDbSymbolTableRecord
100
AcDbLayerTableRecord
  2
DEFAULT_2
 70
0
 62
8
  6
HIDDEN
  0
LAYER
  5
1FC
100
AcDbSymbolTableRecord
100
AcDbLayerTableRecord
  2
DEFAULT_3
 70
0
 62
7
  6
PHANTOM
  0
LAYER
  5
1FD
100
AcDbSymbolTableRecord
100
AcDbLayerTableRecord
  2
A_ACHSEN
 70
0
 62
7
  6
CONTINUOUS
  0
LAYER
  5
1FE
100
AcDbSymbolTableRecord
100
AcDbLayerTableRecord
  2
A_BASISEBENEN
 70
0
 62
7
  6
CONTINUOUS
  0
LAYER
  5
1FF
100
AcDbSymbolTableRecord
100
AcDbLayerTableRecord
  2
A_BEMASSUNGEN
 70
0
 62
7
  6
CONTINUOUS
  0
LAYER
  5
200
100
AcDbSymbolTableRecord
100
AcDbLayerTableRecord
  2
A_BOHRUNGEN
 70
0
 62
7
  6
CONTINUOUS
  0
LAYER
  5
201
100
AcDbSymbolTableRecord
100
AcDbLayerTableRecord
  2
A_EBENEN
 70
0
 62
7
  6
CONTINUOUS
  0
LAYER
  5
202
100
AcDbSymbolTableRecord
100
AcDbLayerTableRecord
  2
A_FASEN
 70
0
 62
7
  6
CONTINUOUS
  0
LAYER
  5
203
100
AcDbSymbolTableRecord
100
AcDbLayerTableRecord
  2
A_FLAECHEN
 70
0
 62
7
  6
CONTINUOUS
  0
LAYER
  5
204
100
AcDbSymbolTableRecord
100
AcDbLayerTableRecord
  2
A_FL_VERBAENDE
 70
0
 62
7
  6
CONTINUOUS
  0
LAYER
  5
205
100
AcDbSymbolTableRecord
100
AcDbLayerTableRecord
  2
A_KURVEN
 70
0
 62
7
  6
CONTINUOUS
  0
LAYER
  5
206
100
AcDbSymbolTableRecord
100
AcDbLayerTableRecord
  2
A_NOTIZEN_SYMB
 70
0
 62
7
  6
CONTINUOUS
  0
LAYER
  5
207
100
AcDbSymbolTableRecord
100
AcDbLayerTableRecord
  2
A_PUNKTE
 70
0
 62
7
  6
CONTINUOUS
  0
LAYER
  5
208
100
AcDbSymbolTableRecord
100
AcDbLayerTableRecord
  2
A_RUNDUNGEN
 70
0
 62
7
  6
CONTINUOUS
  0
LAYER
  5
209
100
AcDbSymbolTableRecord
100
AcDbLayerTableRecord
  2
BASISEBENEN
 70
0
 62
7
  6
CONTINUOUS
  0
LAYER
  5
20A
100
AcDbSymbolTableRecord
100
AcDbLayerTableRecord
  2
GRAVUR
 70
0
 62
7
  6
CONTINUOUS
  0
LAYER
  5
20B
100
AcDbSymbolTableRecord
100
AcDbLayerTableRecord
  2
SCHRIFTZUG_DREHMOMENT
 70
0
 62
7
  6
CONTINUOUS
  0
LAYER
  5
20C
100
AcDbSymbolTableRecord
100
AcDbLayerTableRecord
  2
XSEC_DATUMS
 70
0
 62
7
  6
CONTINUOUS
  0
ENDTAB
  0
TABLE
  2
STYLE
  5
3
100
AcDbSymbolTable
 70
1
  0
STYLE
  5
11
100
AcDbSymbolTableRecord
100
AcDbTextStyleTableRecord
  2
STANDARD
 70
0
 40
0.0
 41
1.0
 50
0.0
 71
0
 42
0.2
  3
txt
  4

  0
STYLE
  5
20D
100
AcDbSymbolTableRecord
100
AcDbTextStyleTableRecord
  2
TEXTSTYLE_1
 70
0
 40
0.0
 41
0.8
 50
0.0
 71
0
 42
0.2
  3
gdt
  4

  0
STYLE
  5
20E
100
AcDbSymbolTableRecord
100
AcDbTextStyleTableRecord
  2
TEXTSTYLE_2
 70
0
 40
0.0
 41
1.0
 50
0.0
 71
0
 42
0.2
  3
txt
  4

  0
ENDTAB
  0
TABLE
  2
VIEW
  5
6
100
AcDbSymbolTable
 70
0
  0
ENDTAB
  0
TABLE
  2
UCS
  5
7
100
AcDbSymbolTable
 70
0
  0
ENDTAB
  0
TABLE
  2
APPID
  5
9
100
AcDbSymbolTable
 70
1
  0
APPID
  5
20F
100
AcDbSymbolTableRecord
100
AcDbRegAppTableRecord
  2
ACAD
 70
0
  0
ENDTAB
  0
TABLE
  2
BLOCK_RECORD
  5
1
100
AcDbSymbolTable
 70
0
  0
BLOCK_RECORD
  5
1F
100
AcDbSymbolTableRecord
100
AcDbBlockTableRecord
  2
*MODEL_SPACE
  0
BLOCK_RECORD
  5
1B
100
AcDbSymbolTableRecord
100
AcDbBlockTableRecord
  2
*PAPER_SPACE
  0
BLOCK_RECORD
  5
210
100
AcDbSymbolTableRecord
100
AcDbBlockTableRecord
  2
_ARROW_FILLED
  0
BLOCK_RECORD
  5
211
100
AcDbSymbolTableRecord
100
AcDbBlockTableRecord
  2
*D0
  0
BLOCK_RECORD
  5
212
100
AcDbSymbolTableRecord
100
AcDbBlockTableRecord
  2
*D1
  0
BLOCK_RECORD
  5
213
100
AcDbSymbolTableRecord
100
AcDbBlockTableRecord
  2
*D2
  0
BLOCK_RECORD
  5
214
100
AcDbSymbolTableRecord
100
AcDbBlockTableRecord
  2
*D3
  0
BLOCK_RECORD
  5
215
100
AcDbSymbolTableRecord
100
AcDbBlockTableRecord
  2
*D4
  0
BLOCK_RECORD
  5
216
100
AcDbSymbolTableRecord
100
AcDbBlockTableRecord
  2
*D5
  0
ENDTAB
  0
TABLE
  2
DIMSTYLE
  5
A
100
AcDbSymbolTable
 70
1
  0
DIMSTYLE
105
217
100
AcDbSymbolTableRecord
100
AcDbDimStyleTableRecord
  2
STANDARD
 70
0
  3

  4

  5
_ARROW_FILLED
  6
_ARROW_FILLED
  7
_ARROW_FILLED
 40
1.0
 41
3.5
 42
0.0
 43
0.38
 44
2.0
 45
0.0
 46
0.0
 47
0.01
 48
0.01
140
3.5
141
0.09
142
0.0
143
25.4
144
1.0
145
0.0
146
1.0
147
0.625
 71
1.0
 72
0.0
 73
0
 74
0
 75
0
 76
0
 77
1
 78
8
170
0
171
1
172
0
173
0
174
0
175
0
176
0
177
0
178
5
270
2
271
2
272
2
273
2
274
2
275
0
280
0
281
0
282
0
283
1
284
8
285
0
286
0
287
3
288
0
340
11
  0
DIMSTYLE
105
218
100
AcDbSymbolTableRecord
100
AcDbDimStyleTableRecord
  2
DIMSTYLE_1
 70
0
  3

  4

  5
_ARROW_FILLED
  6
_ARROW_FILLED
  7
_ARROW_FILLED
 40
1.0
 41
3.5
 42
0.0
 43
0.38
 44
2.0
 45
0.0
 46
0.0
 47
0.2
 48
0.2
140
3.5
141
0.09
142
0.0
143
25.4
144
1.0
145
0.0
146
1.0
147
0.875
 71
0.0
 72
0.0
 73
0
 74
0
 75
0
 76
0
 77
1
 78
8
170
0
171
1
172
0
173
0
174
0
175
0
176
0
177
0
178
5
270
2
271
4
272
-1
273
2
274
2
275
0
280
0
281
0
282
0
283
1
284
8
285
0
286
0
287
3
288
0
340
20E
  0
DIMSTYLE
105
219
100
AcDbSymbolTableRecord
100
AcDbDimStyleTableRecord
  2
DIMSTYLE_2
 70
0
  3

  4

  5
_ARROW_FILLED
  6
_ARROW_FILLED
  7
_ARROW_FILLED
 40
1.0
 41
3.5
 42
0.0
 43
0.38
 44
2.0
 45
0.0
 46
0.0
 47
0.1
 48
0.1
140
3.5
141
0.09
142
0.0
143
25.4
144
1.0
145
0.0
146
1.0
147
0.875
 71
0.0
 72
0.0
 73
0
 74
0
 75
0
 76
0
 77
1
 78
8
170
0
171
1
172
0
173
0
174
0
175
0
176
0
177
0
178
5
270
2
271
1
272
-1
273
2
274
2
275
0
280
0
281
0
282
0
283
1
284
8
285
0
286
0
287
3
288
0
340
20E
  0
DIMSTYLE
105
21A
100
AcDbSymbolTableRecord
100
AcDbDimStyleTableRecord
  2
DIMSTYLE_3
 70
0
  3

  4

  5
_ARROW_FILLED
  6
_ARROW_FILLED
  7
_ARROW_FILLED
 40
1.0
 41
3.5
 42
0.0
 43
0.38
 44
2.0
 45
0.0
 46
0.0
 47
0.1
 48
0.1
140
3.5
141
0.09
142
0.0
143
25.4
144
1.0
145
0.0
146
1.0
147
0.875
 71
0.0
 72
0.0
 73
0
 74
0
 75
0
 76
0
 77
1
 78
8
170
0
171
1
172
0
173
0
174
0
175
0
176
0
177
0
178
5
270
2
271
4
272
-1
273
2
274
2
275
0
280
0
281
0
282
0
283
1
284
8
285
0
286
0
287
3
288
0
340
20E
  0
DIMSTYLE
105
21B
100
AcDbSymbolTableRecord
100
AcDbDimStyleTableRecord
  2
DIMSTYLE_4
 70
0
  3

  4

  5
_ARROW_FILLED
  6
_ARROW_FILLED
  7
_ARROW_FILLED
 40
1.0
 41
3.5
 42
0.0
 43
0.38
 44
2.0
 45
0.0
 46
0.0
 47
0.3
 48
0.3
140
3.5
141
0.09
142
0.0
143
25.4
144
1.0
145
0.0
146
1.0
147
0.875
 71
0.0
 72
0.0
 73
0
 74
0
 75
0
 76
0
 77
1
 78
8
170
0
171
1
172
0
173
0
174
0
175
0
176
0
177
0
178
5
270
2
271
4
272
-1
273
2
274
2
275
0
280
0
281
0
282
0
283
1
284
8
285
0
286
0
287
3
288
0
340
20E
  0
ENDTAB
  0
ENDSEC
  0
SECTION
  2
BLOCKS
  0
BLOCK
  5
20
100
AcDbEntity
  8
0
100
AcDbBlockBegin
  2
*MODEL_SPACE
 70
0
 10
0.0
 20
0.0
 30
0.0
  3
*MODEL_SPACE
  1

  0
ENDBLK
  5
21
100
AcDbEntity
  8
0
100
AcDbBlockEnd
  0
BLOCK
  5
1C
100
AcDbEntity
  8
0
100
AcDbBlockBegin
  2
*PAPER_SPACE
 70
0
 10
0.0
 20
0.0
 30
0.0
  3
*PAPER_SPACE
  1

  0
ENDBLK
  5
1D
100
AcDbEntity
  8
0
100
AcDbBlockEnd
  0
BLOCK
  5
21C
100
AcDbEntity
  8
0
100
AcDbBlockBegin
  2
_ARROW_FILLED
 70
64
 10
0.0
 20
0.0
  3
_ARROW_FILLED
  1

  0
SOLID
  5
21D
100
AcDbEntity
  8
0
  6
BYBLOCK
 62
0
100
AcDbTrace
 10
0.0
 20
0.0
 11
-1.0
 21
0.1428571429
 12
-1.0
 22
-0.1428571429
 13
-1.0
 23
-0.1428571429
  0
ENDBLK
  5
21E
100
AcDbEntity
  8
0
  6
BYBLOCK
 62
0
100
AcDbBlockEnd
  0
BLOCK
  5
21F
100
AcDbEntity
  8
A_BEMASSUNGEN
100
AcDbBlockBegin
 62
2
  6
CONTINUOUS
  2
*D0
 70
65
 10
0.0
 20
0.0
  3
*D0
  1

  0
MTEXT
  5
220
100
AcDbEntity
  8
A_BEMASSUNGEN
100
AcDbMText
 62
5
  6
CONTINUOUS
  7
TEXTSTYLE_2
 71
1
 72
1
 10
145.0944701756
 20
39.8547601457
 30
0.0
 11
0.0
 21
1.0
 31
0.0
  1
8/10
 40
3.5
 41
15.25
  0
LINE
  5
221
100
AcDbEntity
  8
A_BEMASSUNGEN
100
AcDbLine
 62
2
  6
CONTINUOUS
 10
140.1251408781
 20
36.7021650141
 11
151.4694701756
 21
36.7021650141
  0
LINE
  5
222
100
AcDbEntity
  8
A_BEMASSUNGEN
100
AcDbLine
 62
2
  6
CONTINUOUS
 10
140.1251408781
 20
28.7021650141
 11
151.4694701756
 21
28.7021650141
  0
LINE
  5
223
100
AcDbEntity
  8
A_BEMASSUNGEN
100
AcDbLine
 62
2
  6
CONTINUOUS
 10
149.4694701756
 20
36.7021650141
 11
149.4694701756
 21
50.0214268124
  0
LINE
  5
224
100
AcDbEntity
  8
A_BEMASSUNGEN
100
AcDbLine
 62
2
  6
CONTINUOUS
 10
149.4694701756
 20
50.0214268124
 11
149.4694701756
 21
32.7021650141
  0
LINE
  5
225
100
AcDbEntity
  8
A_BEMASSUNGEN
100
AcDbLine
 62
2
  6
CONTINUOUS
 10
149.4694701756
 20
28.7021650141
 11
149.4694701756
 21
21.2021650141
  0
LINE
  5
226
100
AcDbEntity
  8
A_BEMASSUNGEN
100
AcDbLine
 62
2
  6
CONTINUOUS
 10
149.4694701756
 20
21.2021650141
 11
149.4694701756
 21
32.7021650141
  0
INSERT
  5
227
100
AcDbEntity
  8
A_BEMASSUNGEN
100
AcDbBlockReference
 62
2
  6
CONTINUOUS
  2
_ARROW_FILLED
 10
149.4694701756
 20
36.7021650141
 41
3.5
 42
3.5
 43
3.5
 50
270.0
  0
INSERT
  5
228
100
AcDbEntity
  8
A_BEMASSUNGEN
100
AcDbBlockReference
 62
2
  6
CONTINUOUS
  2
_ARROW_FILLED
 10
149.4694701756
 20
28.7021650141
 41
3.5
 42
3.5
 43
3.5
 50
90.0
  0
ENDBLK
  5
229
100
AcDbEntity
  8
0
  6
BYBLOCK
 62
0
100
AcDbBlockEnd
  0
BLOCK
  5
22A
100
AcDbEntity
  8
A_BEMASSUNGEN
100
AcDbBlockBegin
 62
2
  6
CONTINUOUS
  2
*D1
 70
65
 10
0.0
 20
0.0
  3
*D1
  1

  0
MTEXT
  5
22B
100
AcDbEntity
  8
A_BEMASSUNGEN
100
AcDbMText
 62
5
  6
CONTINUOUS
  7
TEXTSTYLE_2
 71
1
 72
1
 10
63.663478094
 20
18.9910967126
 30
0.0
 11
1.0
 21
0.0
 31
0.0
  1
3.5
 40
3.5
 41
10.5
  0
LINE
  5
22C
100
AcDbEntity
  8
A_BEMASSUNGEN
100
AcDbLine
 62
2
  6
CONTINUOUS
 10
60.6251408781
 20
29.2021650141
 11
60.6251408781
 21
12.6160967126
  0
LINE
  5
22D
100
AcDbEntity
  8
A_BEMASSUNGEN
100
AcDbLine
 62
2
  6
CONTINUOUS
 10
57.1052882849
 20
25.2604132975
 11
57.1052882849
 21
12.6160967126
  0
LINE
  5
22E
100
AcDbEntity
  8
A_BEMASSUNGEN
100
AcDbLine
 62
2
  6
CONTINUOUS
 10
60.6251408781
 20
14.6160967126
 11
70.663478094
 21
14.6160967126
  0
LINE
  5
22F
100
AcDbEntity
  8
A_BEMASSUNGEN
100
AcDbLine
 62
2
  6
CONTINUOUS
 10
70.663478094
 20
14.6160967126
 11
58.8652145815
 21
14.6160967126
  0
LINE
  5
230
100
AcDbEntity
  8
A_BEMASSUNGEN
100
AcDbLine
 62
2
  6
CONTINUOUS
 10
57.1052882849
 20
14.6160967126
 11
49.6052882849
 21
14.6160967126
  0
LINE
  5
231
100
AcDbEntity
  8
A_BEMASSUNGEN
100
AcDbLine
 62
2
  6
CONTINUOUS
 10
49.6052882849
 20
14.6160967126
 11
58.8652145815
 21
14.6160967126
  0
INSERT
  5
232
100
AcDbEntity
  8
A_BEMASSUNGEN
100
AcDbBlockReference
 62
2
  6
CONTINUOUS
  2
_ARROW_FILLED
 10
60.6251408781
 20
14.6160967126
 41
3.5
 42
3.5
 43
3.5
 50
180.0
  0
INSERT
  5
233
100
AcDbEntity
  8
A_BEMASSUNGEN
100
AcDbBlockReference
 62
2
  6
CONTINUOUS
  2
_ARROW_FILLED
 10
57.1052882849
 20
14.6160967126
 41
3.5
 42
3.5
 43
3.5
  0
ENDBLK
  5
234
100
AcDbEntity
  8
0
  6
BYBLOCK
 62
0
100
AcDbBlockEnd
  0
BLOCK
  5
235
100
AcDbEntity
  8
A_BEMASSUNGEN
100
AcDbBlockBegin
 62
2
  6
CONTINUOUS
  2
*D2
 70
65
 10
0.0
 20
0.0
  3
*D2
  1

  0
MTEXT
  5
236
100
AcDbEntity
  8
A_BEMASSUNGEN
100
AcDbMText
 62
5
  6
CONTINUOUS
  7
TEXTSTYLE_2
 71
2
 72
1
 10
4.5290003935
 20
27.7040427553
 30
0.0
 11
0.0
 21
1.0
 31
0.0
  1
4
 40
3.5
 41
4.125
  0
LINE
  5
237
100
AcDbEntity
  8
A_BEMASSUNGEN
100
AcDbLine
 62
2
  6
CONTINUOUS
 10
17.1052882849
 20
25.2604132975
 11
6.9040003935
 21
25.2604132975
  0
LINE
  5
238
100
AcDbEntity
  8
A_BEMASSUNGEN
100
AcDbLine
 62
2
  6
CONTINUOUS
 10
20.1052882849
 20
29.2604132975
 11
6.9040003935
 21
29.2604132975
  0
LINE
  5
239
100
AcDbEntity
  8
A_BEMASSUNGEN
100
AcDbLine
 62
2
  6
CONTINUOUS
 10
8.9040003935
 20
25.2604132975
 11
8.9040003935
 21
17.7604132975
  0
LINE
  5
23A
100
AcDbEntity
  8
A_BEMASSUNGEN
100
AcDbLine
 62
2
  6
CONTINUOUS
 10
8.9040003935
 20
17.7604132975
 11
8.9040003935
 21
27.2604132975
  0
LINE
  5
23B
100
AcDbEntity
  8
A_BEMASSUNGEN
100
AcDbLine
 62
2
  6
CONTINUOUS
 10
8.9040003935
 20
29.2604132975
 11
8.9040003935
 21
36.7604132975
  0
LINE
  5
23C
100
AcDbEntity
  8
A_BEMASSUNGEN
100
AcDbLine
 62
2
  6
CONTINUOUS
 10
8.9040003935
 20
36.7604132975
 11
8.9040003935
 21
27.2604132975
  0
INSERT
  5
23D
100
AcDbEntity
  8
A_BEMASSUNGEN
100
AcDbBlockReference
 62
2
  6
CONTINUOUS
  2
_ARROW_FILLED
 10
8.9040003935
 20
25.2604132975
 41
3.5
 42
3.5
 43
3.5
 50
90.0
  0
INSERT
  5
23E
100
AcDbEntity
  8
A_BEMASSUNGEN
100
AcDbBlockReference
 62
2
  6
CONTINUOUS
  2
_ARROW_FILLED
 10
8.9040003935
 20
29.2604132975
 41
3.5
 42
3.5
 43
3.5
 50
270.0
  0
ENDBLK
  5
23F
100
AcDbEntity
  8
0
  6
BYBLOCK
 62
0
100
AcDbBlockEnd
  0
BLOCK
  5
240
100
AcDbEntity
  8
A_BEMASSUNGEN
100
AcDbBlockBegin
 62
2
  6
CONTINUOUS
  2
*D3
 70
65
 10
0.0
 20
0.0
  3
*D3
  1

  0
MTEXT
  5
241
100
AcDbEntity
  8
A_BEMASSUNGEN
100
AcDbMText
 62
5
  6
CONTINUOUS
  7
TEXTSTYLE_2
 71
2
 72
1
 10
4.5290003935
 20
43.2604132975
 30
0.0
 11
0.0
 21
1.0
 31
0.0
  1
28
 40
3.5
 41
8.25
  0
LINE
  5
242
100
AcDbEntity
  8
A_BEMASSUNGEN
100
AcDbLine
 62
2
  6
CONTINUOUS
 10
20.1052882849
 20
29.2604132975
 11
6.9040003935
 21
29.2604132975
  0
LINE
  5
243
100
AcDbEntity
  8
A_BEMASSUNGEN
100
AcDbLine
 62
2
  6
CONTINUOUS
 10
20.1052882849
 20
57.2604132975
 11
6.9040003935
 21
57.2604132975
  0
LINE
  5
244
100
AcDbEntity
  8
A_BEMASSUNGEN
100
AcDbLine
 62
2
  6
CONTINUOUS
 10
8.9040003935
 20
29.2604132975
 11
8.9040003935
 21
43.2604132975
  0
LINE
  5
245
100
AcDbEntity
  8
A_BEMASSUNGEN
100
AcDbLine
 62
2
  6
CONTINUOUS
 10
8.9040003935
 20
57.2604132975
 11
8.9040003935
 21
43.2604132975
  0
INSERT
  5
246
100
AcDbEntity
  8
A_BEMASSUNGEN
100
AcDbBlockReference
 62
2
  6
CONTINUOUS
  2
_ARROW_FILLED
 10
8.9040003935
 20
29.2604132975
 41
3.5
 42
3.5
 43
3.5
 50
270.0
  0
INSERT
  5
247
100
AcDbEntity
  8
A_BEMASSUNGEN
100
AcDbBlockReference
 62
2
  6
CONTINUOUS
  2
_ARROW_FILLED
 10
8.9040003935
 20
57.2604132975
 41
3.5
 42
3.5
 43
3.5
 50
90.0
  0
ENDBLK
  5
248
100
AcDbEntity
  8
0
  6
BYBLOCK
 62
0
100
AcDbBlockEnd
  0
BLOCK
  5
249
100
AcDbEntity
  8
A_BEMASSUNGEN
100
AcDbBlockBegin
 62
2
  6
CONTINUOUS
  2
*D4
 70
65
 10
0.0
 20
0.0
  3
*D4
  1

  0
MTEXT
  5
24A
100
AcDbEntity
  8
A_BEMASSUNGEN
100
AcDbMText
 62
5
  6
CONTINUOUS
  7
TEXTSTYLE_2
 71
2
 72
1
 10
63.6052882849
 20
87.1644830556
 30
0.0
 11
1.0
 21
0.0
 31
0.0
  1
11-15
 40
3.5
 41
16.5
  0
LINE
  5
24B
100
AcDbEntity
  8
A_BEMASSUNGEN
100
AcDbLine
 62
2
  6
CONTINUOUS
 10
70.1052882849
 20
75.2604132975
 11
70.1052882849
 21
83.6644830556
  0
LINE
  5
24C
100
AcDbEntity
  8
A_BEMASSUNGEN
100
AcDbLine
 62
2
  6
CONTINUOUS
 10
70.1052882849
 20
83.6644830556
 11
70.1052882849
 21
84.7894830556
  0
LINE
  5
24D
100
AcDbEntity
  8
A_BEMASSUNGEN
100
AcDbLine
 62
2
  6
CONTINUOUS
 10
57.1052882849
 20
43.7604132975
 11
57.1052882849
 21
83.6644830556
  0
LINE
  5
24E
100
AcDbEntity
  8
A_BEMASSUNGEN
100
AcDbLine
 62
2
  6
CONTINUOUS
 10
57.1052882849
 20
83.6644830556
 11
57.1052882849
 21
84.7894830556
  0
LINE
  5
24F
100
AcDbEntity
  8
A_BEMASSUNGEN
100
AcDbLine
 62
2
  6
CONTINUOUS
 10
70.1052882849
 20
82.7894830556
 11
63.6052882849
 21
82.7894830556
  0
LINE
  5
250
100
AcDbEntity
  8
A_BEMASSUNGEN
100
AcDbLine
 62
2
  6
CONTINUOUS
 10
57.1052882849
 20
82.7894830556
 11
63.6052882849
 21
82.7894830556
  0
INSERT
  5
251
100
AcDbEntity
  8
A_BEMASSUNGEN
100
AcDbBlockReference
 62
2
  6
CONTINUOUS
  2
_ARROW_FILLED
 10
70.1052882849
 20
82.7894830556
 41
3.5
 42
3.5
 43
3.5
  0
INSERT
  5
252
100
AcDbEntity
  8
A_BEMASSUNGEN
100
AcDbBlockReference
 62
2
  6
CONTINUOUS
  2
_ARROW_FILLED
 10
57.1052882849
 20
82.7894830556
 41
3.5
 42
3.5
 43
3.5
 50
180.0
  0
ENDBLK
  5
253
100
AcDbEntity
  8
0
  6
BYBLOCK
 62
0
100
AcDbBlockEnd
  0
BLOCK
  5
254
100
AcDbEntity
  8
A_BEMASSUNGEN
100
AcDbBlockBegin
 62
2
  6
CONTINUOUS
  2
*D5
 70
65
 10
0.0
 20
0.0
  3
*D5
  1

  0
MTEXT
  5
255
100
AcDbEntity
  8
A_BEMASSUNGEN
100
AcDbMText
 62
5
  6
CONTINUOUS
  7
TEXTSTYLE_2
 71
2
 72
1
 10
38.6052882849
 20
10.8170909402
 30
0.0
 11
1.0
 21
0.0
 31
0.0
  1
37
 40
3.5
 41
7.875
  0
LINE
  5
256
100
AcDbEntity
  8
A_BEMASSUNGEN
100
AcDbLine
 62
2
  6
CONTINUOUS
 10
57.1052882849
 20
25.2604132975
 11
57.1052882849
 21
4.4420909402
  0
LINE
  5
257
100
AcDbEntity
  8
A_BEMASSUNGEN
100
AcDbLine
 62
2
  6
CONTINUOUS
 10
20.1052882849
 20
29.2604132975
 11
20.1052882849
 21
4.4420909402
  0
LINE
  5
258
100
AcDbEntity
  8
A_BEMASSUNGEN
100
AcDbLine
 62
2
  6
CONTINUOUS
 10
57.1052882849
 20
6.4420909402
 11
38.6052882849
 21
6.4420909402
  0
LINE
  5
259
100
AcDbEntity
  8
A_BEMASSUNGEN
100
AcDbLine
 62
2
  6
CONTINUOUS
 10
20.1052882849
 20
6.4420909402
 11
38.6052882849
 21
6.4420909402
  0
INSERT
  5
25A
100
AcDbEntity
  8
A_BEMASSUNGEN
100
AcDbBlockReference
 62
2
  6
CONTINUOUS
  2
_ARROW_FILLED
 10
57.1052882849
 20
6.4420909402
 41
3.5
 42
3.5
 43
3.5
  0
INSERT
  5
25B
100
AcDbEntity
  8
A_BEMASSUNGEN
100
AcDbBlockReference
 62
2
  6
CONTINUOUS
  2
_ARROW_FILLED
 10
20.1052882849
 20
6.4420909402
 41
3.5
 42
3.5
 43
3.5
 50
180.0
  0
ENDBLK
  5
25C
100
AcDbEntity
  8
0
  6
BYBLOCK
 62
0
100
AcDbBlockEnd
  0
ENDSEC
  0
SECTION
  2
ENTITIES
  0
DIMENSION
  5
25D
100
AcDbEntity
  8
A_BEMASSUNGEN
100
AcDbDimension
 62
2
  6
CONTINUOUS
  2
*D0
 10
149.4694701756
 20
28.7021650141
 11
149.4694701756
 21
44.938093479
 70
160
  1
<>/10
  3
DIMSTYLE_1
100
AcDbAlignedDimension
 13
140.1251408781
 23
36.7021650141
 14
140.1251408781
 24
28.7021650141
 50
270.0
100
AcDbRotatedDimension
  0
DIMENSION
  5
25E
100
AcDbEntity
  8
A_BEMASSUNGEN
100
AcDbDimension
 62
2
  6
CONTINUOUS
  2
*D1
 10
57.1052882849
 20
14.6160967126
 11
66.6634787653
 21
14.6160967126
 70
160
  3
DIMSTYLE_2
100
AcDbAlignedDimension
 13
60.6251408781
 23
29.2021650141
 14
57.1052882849
 24
25.2604132975
 50
180.0
100
AcDbRotatedDimension
  0
DIMENSION
  5
25F
100
AcDbEntity
  8
A_BEMASSUNGEN
100
AcDbDimension
 62
2
  6
CONTINUOUS
  2
*D2
 10
8.9040003935
 20
29.2604132975
 11
8.9040003935
 21
27.204042733
 70
160
  3
DIMSTYLE_3
100
AcDbAlignedDimension
 13
17.1052882849
 23
25.2604132975
 14
20.1052882849
 24
29.2604132975
 50
90.0
100
AcDbRotatedDimension
  0
DIMENSION
  5
260
100
AcDbEntity
  8
A_BEMASSUNGEN
100
AcDbDimension
 62
2
  6
CONTINUOUS
  2
*D3
 10
8.9040003935
 20
57.2604132975
 11
8.9040003935
 21
42.7604132761
 70
160
  3
DIMSTYLE_1
100
AcDbAlignedDimension
 13
20.1052882849
 23
29.2604132975
 14
20.1052882849
 24
57.2604132975
 50
90.0
100
AcDbRotatedDimension
  0
DIMENSION
  5
261
100
AcDbEntity
  8
A_BEMASSUNGEN
100
AcDbDimension
 62
2
  6
CONTINUOUS
  2
*D4
 10
57.1052882849
 20
82.7894830556
 11
63.1052893253
 21
82.7894830556
 70
160
  1
11-15
  3
DIMSTYLE_1
100
AcDbAlignedDimension
 13
70.1052882849
 23
75.2604132975
 14
57.1052882849
 24
43.7604132975
 50
180.0
100
AcDbRotatedDimension
  0
DIMENSION
  5
262
100
AcDbEntity
  8
A_BEMASSUNGEN
100
AcDbDimension
 62
2
  6
CONTINUOUS
  2
*D5
 10
20.1052882849
 20
6.4420909402
 11
38.1052879137
 21
6.4420909402
 70
160
  3
DIMSTYLE_4
100
AcDbAlignedDimension
 13
57.1052882849
 23
25.2604132975
 14
20.1052882849
 24
29.2604132975
 50
180.0
100
AcDbRotatedDimension
  0
LINE
  5
263
100
AcDbEntity
  8
0
100
AcDbLine
 62
7
  6
CONTINUOUS
 10
17.1052882849
 20
75.2604132975
 11
17.1052882849
 21
25.2604132975
  0
LINE
  5
264
100
AcDbEntity
  8
DEFAULT_2
100
AcDbLine
 62
8
  6
HIDDEN
 10
20.1052882849
 20
57.2604132975
 11
20.1052882849
 21
29.2604132975
  0
LINE
  5
265
100
AcDbEntity
  8
DEFAULT_2
100
AcDbLine
 62
8
  6
HIDDEN
 10
21.1052882849
 20
45.8104132975
 11
21.1052882849
 21
40.8104132975
  0
LINE
  5
266
100
AcDbEntity
  8
A_RUNDUNGEN
100
AcDbLine
 62
8
  6
HIDDEN
 10
21.1052882849
 20
56.2535064135
 11
21.1052882849
 21
30.3673201816
  0
LINE
  5
267
100
AcDbEntity
  8
A_RUNDUNGEN
100
AcDbLine
 62
8
  6
HIDDEN
 10
22.0052882849
 20
55.5630244614
 11
22.0052882849
 21
31.0078021337
  0
LINE
  5
268
100
AcDbEntity
  8
A_RUNDUNGEN
100
AcDbLine
 62
8
  6
HIDDEN
 10
21.2501955971
 20
30.0153128193
 11
21.4893433967
 21
29.7740689022
  0
LINE
  5
269
100
AcDbEntity
  8
A_ACHSEN
100
AcDbLine
 62
7
  6
CENTER
 10
29.6552882849
 20
33.7785837846
 11
29.6552882849
 21
30.9103132975
  0
LINE
  5
26A
100
AcDbEntity
  8
A_ACHSEN
100
AcDbLine
 62
7
  6
CONTINUOUS
 10
29.6552882849
 20
33.7785837846
 11
29.6552882849
 21
34.2977632975
  0
LINE
  5
26B
100
AcDbEntity
  8
A_ACHSEN
100
AcDbLine
 62
7
  6
CENTER
 10
29.6552882849
 20
34.3021248181
 11
29.6552882849
 21
36.9105132975
  0
LINE
  5
26C
100
AcDbEntity
  8
A_RUNDUNGEN
100
AcDbLine
 62
8
  6
HIDDEN
 10
32.1052882747
 20
33.8708072188
 11
32.1158428527
 21
33.7685664749
  0
LINE
  5
26D
100
AcDbEntity
  8
A_RUNDUNGEN
100
AcDbLine
 62
8
  6
HIDDEN
 10
32.1052882849
 20
33.8709943007
 11
32.1141802103
 21
33.7770214417
  0
LINE
  5
26E
100
AcDbEntity
  8
A_RUNDUNGEN
100
AcDbLine
 62
8
  6
HIDDEN
 10
32.1052882849
 20
52.7498191583
 11
32.1052882849
 21
47.167963132
  0
LINE
  5
26F
100
AcDbEntity
  8
A_RUNDUNGEN
100
AcDbLine
 62
8
  6
HIDDEN
 10
32.1052882849
 20
39.4527293474
 11
32.1052882849
 21
33.8711667913
  0
LINE
  5
270
100
AcDbEntity
  8
A_RUNDUNGEN
100
AcDbLine
 62
8
  6
HIDDEN
 10
32.1052882849
 20
52.7498322945
 11
32.1141802107
 21
52.8438051554
  0
LINE
  5
271
100
AcDbEntity
  8
A_RUNDUNGEN
100
AcDbLine
 62
8
  6
HIDDEN
 10
32.1052882747
 20
52.750019376
 11
32.1158428525
 21
52.8522601189
  0
LINE
  5
272
100
AcDbEntity
  8
A_RUNDUNGEN
100
AcDbLine
 62
8
  6
HIDDEN
 10
31.7063992436
 20
50.3424263013
 11
26.7949682435
 21
34.8151614729
  0
LINE
  5
273
100
AcDbEntity
  8
A_RUNDUNGEN
100
AcDbLine
 62
8
  6
HIDDEN
 10
21.2501955971
 20
56.6055137757
 11
21.4893433967
 21
56.8467576929
  0
LINE
  5
274
100
AcDbEntity
  8
A_RUNDUNGEN
100
AcDbLine
 62
8
  6
HIDDEN
 10
21.2456183847
 20
38.6521737177
 11
21.5218748604
 21
38.3661017628
  0
LINE
  5
275
100
AcDbEntity
  8
A_FASEN
100
AcDbLine
 62
8
  6
HIDDEN
 10
35.5052882849
 20
45.6354132975
 11
35.5052882849
 21
40.9854132975
  0
LINE
  5
276
100
AcDbEntity
  8
A_ACHSEN
100
AcDbLine
 62
7
  6
CENTER
 10
35.6552882849
 20
33.6804059993
 11
35.6552882849
 21
30.2051848981
  0
LINE
  5
277
100
AcDbEntity
  8
A_ACHSEN
100
AcDbLine
 62
7
  6
CENTER
 10
35.6552882849
 20
33.9457375887
 11
35.6552882849
 21
38.615641697
  0
LINE
  5
278
100
AcDbEntity
  8
DEFAULT_2
100
AcDbLine
 62
8
  6
HIDDEN
 10
35.6802882849
 20
45.8104132975
 11
35.6802882849
 21
40.8104132975
  0
LINE
  5
279
100
AcDbEntity
  8
A_RUNDUNGEN
100
AcDbLine
 62
8
  6
HIDDEN
 10
36.0052882849
 20
49.5630244614
 11
36.0052882849
 21
37.0578021337
  0
LINE
  5
27A
100
AcDbEntity
  8
A_FASEN
100
AcDbLine
 62
8
  6
HIDDEN
 10
36.0052882849
 20
46.1354132975
 11
36.0052882849
 21
40.4854132975
  0
LINE
  5
27B
100
AcDbEntity
  8
A_RUNDUNGEN
100
AcDbLine
 62
8
  6
HIDDEN
 10
36.0052882849
 20
30.4371087991
 11
36.0052882849
 21
29.5314599062
  0
LINE
  5
27C
100
AcDbEntity
  8
A_ACHSEN
100
AcDbLine
 62
8
  6
HIDDEN
 10
37.1052882849
 20
52.2604132975
 11
37.1052882849
 21
49.2604132975
  0
LINE
  5
27D
100
AcDbEntity
  8
A_ACHSEN
100
AcDbLine
 62
8
  6
HIDDEN
 10
37.1052882849
 20
37.2604132975
 11
37.1052882849
 21
34.2604132975
  0
LINE
  5
27E
100
AcDbEntity
  8
A_RUNDUNGEN
100
AcDbLine
 62
8
  6
HIDDEN
 10
32.5951178157
 20
33.3125819418
 11
35.5749444129
 21
47.9658485247
  0
LINE
  5
27F
100
AcDbEntity
  8
A_RUNDUNGEN
100
AcDbLine
 62
8
  6
HIDDEN
 10
34.9943215454
 20
44.7428165845
 11
32.734350067
 21
35.0946061996
  0
LINE
  5
280
100
AcDbEntity
  8
A_RUNDUNGEN
100
AcDbLine
 62
8
  6
HIDDEN
 10
21.5218748604
 20
48.2547248323
 11
21.2456183847
 21
47.9686528774
  0
LINE
  5
281
100
AcDbEntity
  8
A_RUNDUNGEN
100
AcDbLine
 62
8
  6
HIDDEN
 10
21.2517348943
 20
45.9889666881
 11
21.4588416755
 21
45.7818599069
  0
LINE
  5
282
100
AcDbEntity
  8
A_RUNDUNGEN
100
AcDbLine
 62
7
  6
CONTINUOUS
 10
41.9052882849
 20
24.8429013925
 11
41.9052882849
 21
25.0104132975
  0
LINE
  5
283
100
AcDbEntity
  8
DEFAULT_2
100
AcDbLine
 62
8
  6
HIDDEN
 10
42.6052882849
 20
29.2604132975
 11
42.6052882849
 21
25.2604132975
  0
LINE
  5
284
100
AcDbEntity
  8
A_RUNDUNGEN
100
AcDbLine
 62
8
  6
HIDDEN
 10
38.6080313483
 20
33.8800281529
 11
40.1138831967
 21
42.2633579736
  0
LINE
  5
285
100
AcDbEntity
  8
A_FASEN
100
AcDbLine
 62
8
  6
HIDDEN
 10
36.0052882729
 20
40.4854133095
 11
35.5052882751
 21
40.9854133074
  0
LINE
  5
286
100
AcDbEntity
  8
A_RUNDUNGEN
100
AcDbLine
 62
8
  6
HIDDEN
 10
47.277741941
 20
29.8606302785
 11
47.6328155903
 21
29.5024444277
  0
LINE
  5
287
100
AcDbEntity
  8
DEFAULT_2
100
AcDbLine
 62
8
  6
HIDDEN
 10
47.1052882849
 20
57.2604132975
 11
47.1052882849
 21
29.2604132975
  0
LINE
  5
288
100
AcDbEntity
  8
A_ACHSEN
100
AcDbLine
 62
8
  6
HIDDEN
 10
47.1052882849
 20
34.2604132975
 11
47.1052882849
 21
37.2604132975
  0
LINE
  5
289
100
AcDbEntity
  8
A_ACHSEN
100
AcDbLine
 62
8
  6
HIDDEN
 10
47.1052882849
 20
49.2604132975
 11
47.1052882849
 21
52.2604132975
  0
LINE
  5
28A
100
AcDbEntity
  8
A_RUNDUNGEN
100
AcDbLine
 62
8
  6
HIDDEN
 10
47.2052882849
 20
56.5841926355
 11
47.2052882849
 21
30.0366339596
  0
LINE
  5
28B
100
AcDbEntity
  8
A_RUNDUNGEN
100
AcDbLine
 62
8
  6
HIDDEN
 10
47.4552882849
 20
54.1604132975
 11
47.4552882849
 21
47.4604132975
  0
LINE
  5
28C
100
AcDbEntity
  8
A_RUNDUNGEN
100
AcDbLine
 62
8
  6
HIDDEN
 10
47.4552882849
 20
39.1604132975
 11
47.4552882849
 21
32.4604132975
  0
LINE
  5
28D
100
AcDbEntity
  8
DEFAULT_2
100
AcDbLine
 62
8
  6
HIDDEN
 10
48.0052882849
 20
36.4975808703
 11
48.0052882849
 21
36.6104132975
  0
LINE
  5
28E
100
AcDbEntity
  8
DEFAULT_2
100
AcDbLine
 62
8
  6
HIDDEN
 10
48.0052882849
 20
50.0104132975
 11
48.0052882849
 21
50.1232457248
  0
LINE
  5
28F
100
AcDbEntity
  8
A_RUNDUNGEN
100
AcDbLine
 62
8
  6
HIDDEN
 10
21.2517348943
 20
40.6318599069
 11
21.4588416755
 21
40.8389666881
  0
LINE
  5
290
100
AcDbEntity
  8
A_RUNDUNGEN
100
AcDbLine
 62
7
  6
CONTINUOUS
 10
42.9322764749
 20
24.3317770767
 11
42.0790943531
 21
24.6047953557
  0
LINE
  5
291
100
AcDbEntity
  8
A_RUNDUNGEN
100
AcDbLine
 62
8
  6
HIDDEN
 10
52.2095014009
 20
29.3900478807
 11
52.1138635009
 21
34.8691395008
  0
LINE
  5
292
100
AcDbEntity
  8
A_RUNDUNGEN
100
AcDbLine
 62
8
  6
HIDDEN
 10
49.2052882849
 20
45.6772703835
 11
49.2052882849
 21
40.9435562116
  0
LINE
  5
293
100
AcDbEntity
  8
DEFAULT_2
100
AcDbLine
 62
8
  6
HIDDEN
 10
49.2052882849
 20
45.3104132975
 11
49.2052882849
 21
41.3104132975
  0
LINE
  5
294
100
AcDbEntity
  8
A_RUNDUNGEN
100
AcDbLine
 62
8
  6
HIDDEN
 10
49.6052882849
 20
57.2080520908
 11
49.6052882849
 21
49.532253041
  0
LINE
  5
295
100
AcDbEntity
  8
A_RUNDUNGEN
100
AcDbLine
 62
8
  6
HIDDEN
 10
50.4052882849
 20
55.0739726441
 11
50.4052882849
 21
46.5468539509
  0
LINE
  5
296
100
AcDbEntity
  8
A_RUNDUNGEN
100
AcDbLine
 62
8
  6
HIDDEN
 10
50.4052882849
 20
40.0739726441
 11
50.4052882849
 21
31.5468539509
  0
LINE
  5
297
100
AcDbEntity
  8
A_RUNDUNGEN
100
AcDbLine
 62
7
  6
CONTINUOUS
 10
51.8251408781
 20
24.2604132975
 11
51.8251408781
 21
24.1021650141
  0
LINE
  5
298
100
AcDbEntity
  8
A_RUNDUNGEN
100
AcDbLine
 62
8
  6
HIDDEN
 10
48.6016247497
 20
29.4215333433
 11
48.6967130689
 21
34.8691395008
  0
LINE
  5
299
100
AcDbEntity
  8
A_RUNDUNGEN
100
AcDbLine
 62
8
  6
HIDDEN
 10
47.6328155903
 20
57.1183821674
 11
47.277741941
 21
56.7601963166
  0
LINE
  5
29A
100
AcDbEntity
  8
A_FASEN
100
AcDbLine
 62
8
  6
HIDDEN
 10
36.0052882729
 20
46.1354132856
 11
35.5052882751
 21
45.6354132877
  0
LINE
  5
29B
100
AcDbEntity
  8
A_RUNDUNGEN
100
AcDbLine
 62
7
  6
CONTINUOUS
 10
67.8251408781
 20
22.1021650141
 11
50.8251408781
 21
22.1021650141
  0
LINE
  5
29C
100
AcDbEntity
  8
0
100
AcDbLine
 62
7
  6
CONTINUOUS
 10
60.6251408781
 20
29.2021650141
 11
61.1251408781
 21
28.7021650141
  0
LINE
  5
29D
100
AcDbEntity
  8
A_RUNDUNGEN
100
AcDbLine
 62
8
  6
HIDDEN
 10
49.142293289
 20
44.2392765064
 11
51.9269993111
 21
33.8270679507
  0
LINE
  5
29E
100
AcDbEntity
  8
A_ACHSEN
100
AcDbLine
 62
8
  6
HIDDEN
 10
54.0052882849
 20
56.1100778758
 11
54.0052882849
 21
53.4604132975
  0
LINE
  5
29F
100
AcDbEntity
  8
DEFAULT_2
100
AcDbLine
 62
8
  6
HIDDEN
 10
54.0052882849
 20
55.3104132975
 11
54.0052882849
 21
51.6104132975
  0
LINE
  5
2A0
100
AcDbEntity
  8
DEFAULT_2
100
AcDbLine
 62
8
  6
HIDDEN
 10
54.0052882849
 20
51.4604132975
 11
54.0052882849
 21
51.6104132975
  0
LINE
  5
2A1
100
AcDbEntity
  8
DEFAULT_2
100
AcDbLine
 62
8
  6
HIDDEN
 10
54.0052882849
 20
55.3104132975
 11
54.0052882849
 21
55.4604132975
  0
LINE
  5
2A2
100
AcDbEntity
  8
DEFAULT_2
100
AcDbLine
 62
8
  6
HIDDEN
 10
54.2552882849
 20
45.3104132975
 11
54.2552882849
 21
41.3104132975
  0
LINE
  5
2A3
100
AcDbEntity
  8
A_ACHSEN
100
AcDbLine
 62
7
  6
CONTINUOUS
 10
54.8251405045
 20
29.9895135245
 11
54.8251405045
 21
29.2148135245
  0
LINE
  5
2A4
100
AcDbEntity
  8
A_ACHSEN
100
AcDbLine
 62
7
  6
CENTER
 10
54.8251405045
 20
27.6654135245
 11
54.8251405045
 21
24.4021635245
  0
LINE
  5
2A5
100
AcDbEntity
  8
A_ACHSEN
100
AcDbLine
 62
7
  6
CENTER
 10
54.8251408781
 20
30.1688293674
 11
54.8251408781
 21
39.0355006608
  0
LINE
  5
2A6
100
AcDbEntity
  8
A_RUNDUNGEN
100
AcDbLine
 62
8
  6
HIDDEN
 10
55.6052882849
 20
57.2604132975
 11
55.6052882849
 21
44.9874904506
  0
LINE
  5
2A7
100
AcDbEntity
  8
DEFAULT_2
100
AcDbLine
 62
8
  6
HIDDEN
 10
55.6052882849
 20
57.2604132975
 11
55.6052882849
 21
29.4604132975
  0
LINE
  5
2A8
100
AcDbEntity
  8
A_RUNDUNGEN
100
AcDbLine
 62
8
  6
HIDDEN
 10
55.6052882849
 20
41.6333361445
 11
55.6052882849
 21
39.5604132975
  0
LINE
  5
2A9
100
AcDbEntity
  8
A_RUNDUNGEN
100
AcDbLine
 62
8
  6
HIDDEN
 10
55.6052882849
 20
35.9603981635
 11
55.6052882849
 21
29.3604132975
  0
LINE
  5
2AA
100
AcDbEntity
  8
DEFAULT_2
100
AcDbLine
 62
8
  6
HIDDEN
 10
55.6052882849
 20
29.3604132975
 11
55.6052882849
 21
29.4604132975
  0
LWPOLYLINE
  5
2AB
100
AcDbEntity
  8
A_RUNDUNGEN
100
AcDbPolyline
 62
7
  6
CONTINUOUS
 90
3
 70
0
 10
56.8531885143
 20
24.2604133033
 10
56.8965992829
 20
24.2640403794
 10
56.9456074465
 20
24.2775727816
  0
LINE
  5
2AC
100
AcDbEntity
  8
A_RUNDUNGEN
100
AcDbLine
 62
7
  6
CONTINUOUS
 10
69.8251408781
 20
24.1021650141
 11
48.8251408781
 21
24.1021650141
  0
LINE
  5
2AD
100
AcDbEntity
  8
A_RUNDUNGEN
100
AcDbLine
 62
7
  6
CONTINUOUS
 10
56.8532027538
 20
24.2604132975
 11
43.3894400656
 21
24.2604132975
  0
LINE
  5
2AE
100
AcDbEntity
  8
0
100
AcDbLine
 62
7
  6
CONTINUOUS
 10
17.1052882849
 20
25.2604132975
 11
57.1052882849
 21
25.2604132975
  0
LINE
  5
2AF
100
AcDbEntity
  8
DEFAULT_2
100
AcDbLine
 62
8
  6
HIDDEN
 10
69.8251408781
 20
25.8021650141
 11
62.8251408781
 21
25.8021650141
  0
LINE
  5
2B0
100
AcDbEntity
  8
A_RUNDUNGEN
100
AcDbLine
 62
7
  6
CONTINUOUS
 10
69.8251408781
 20
25.8021650141
 11
60.8251408781
 21
25.8021650141
  0
LINE
  5
2B1
100
AcDbEntity
  8
A_FASEN
100
AcDbLine
 62
8
  6
HIDDEN
 10
57.1052882849
 20
47.3604132975
 11
57.1052882849
 21
39.3604132975
  0
LINE
  5
2B2
100
AcDbEntity
  8
0
100
AcDbLine
 62
7
  6
CONTINUOUS
 10
57.1052882849
 20
43.7604132975
 11
57.1052882849
 21
25.2604132975
  0
LINE
  5
2B3
100
AcDbEntity
  8
A_RUNDUNGEN
100
AcDbLine
 62
7
  6
CONTINUOUS
 10
57.1052882849
 20
24.5108286726
 11
57.1052882849
 21
25.2604132975
  0
LINE
  5
2B4
100
AcDbEntity
  8
DEFAULT_2
100
AcDbLine
 62
8
  6
HIDDEN
 10
57.1052882849
 20
43.7604132975
 11
57.1052882849
 21
57.2604132975
  0
LINE
  5
2B5
100
AcDbEntity
  8
0
100
AcDbLine
 62
7
  6
CONTINUOUS
 10
58.1052882849
 20
42.7604132975
 11
58.1052882849
 21
41.1361484136
  0
LINE
  5
2B6
100
AcDbEntity
  8
A_ACHSEN
100
AcDbLine
 62
8
  6
HIDDEN
 10
59.8251408781
 20
49.6021650141
 11
59.8251408781
 21
43.1021650141
  0
LINE
  5
2B7
100
AcDbEntity
  8
A_RUNDUNGEN
100
AcDbLine
 62
7
  6
CONTINUOUS
 10
59.8251408781
 20
36.6021650141
 11
59.8251408781
 21
26.8021650141
  0
LINE
  5
2B8
100
AcDbEntity
  8
A_RUNDUNGEN
100
AcDbLine
 62
7
  6
CONTINUOUS
 10
59.8251408781
 20
39.6648881572
 11
59.8251408781
 21
41.9021650141
  0
LINE
  5
2B9
100
AcDbEntity
  8
DEFAULT_2
100
AcDbLine
 62
8
  6
HIDDEN
 10
60.0751408781
 20
37.9021650141
 11
60.0751408781
 21
37.2531920832
  0
LINE
  5
2BA
100
AcDbEntity
  8
0
100
AcDbLine
 62
7
  6
CONTINUOUS
 10
60.0751408781
 20
37.2531920832
 11
60.0751408781
 21
30.4521650141
  0
LINE
  5
2BB
100
AcDbEntity
  8
A_ACHSEN
100
AcDbLine
 62
8
  6
HIDDEN
 10
60.3251408781
 20
50.1021650141
 11
60.3251408781
 21
41.9021650141
  0
LINE
  5
2BC
100
AcDbEntity
  8
DEFAULT_2
100
AcDbLine
 62
8
  6
HIDDEN
 10
60.5251408781
 20
50.1021650141
 11
60.5251408781
 21
42.4021650141
  0
LINE
  5
2BD
100
AcDbEntity
  8
0
100
AcDbLine
 62
7
  6
CONTINUOUS
 10
60.6251408781
 20
36.2021650141
 11
60.6251408781
 21
29.2021650141
  0
LINE
  5
2BE
100
AcDbEntity
  8
DEFAULT_2
100
AcDbLine
 62
8
  6
HIDDEN
 10
60.8751408781
 20
30.4521650141
 11
60.8751408781
 21
36.4521650141
  0
LINE
  5
2BF
100
AcDbEntity
  8
0
100
AcDbLine
 62
7
  6
CONTINUOUS
 10
60.8751408781
 20
36.4521650141
 11
60.8751408781
 21
36.7604132975
  0
LINE
  5
2C0
100
AcDbEntity
  8
DEFAULT_2
100
AcDbLine
 62
8
  6
HIDDEN
 10
60.8751408781
 20
36.7604132975
 11
60.8751408781
 21
37.9021650141
  0
LINE
  5
2C1
100
AcDbEntity
  8
0
100
AcDbLine
 62
7
  6
CONTINUOUS
 10
60.8751408781
 20
38.0927900141
 11
60.8751408781
 21
38.7021650141
  0
LINE
  5
2C2
100
AcDbEntity
  8
DEFAULT_2
100
AcDbLine
 62
8
  6
HIDDEN
 10
61.3251408781
 20
47.0355124824
 11
61.3251408781
 21
50.1021650141
  0
LINE
  5
2C3
100
AcDbEntity
  8
A_RUNDUNGEN
100
AcDbLine
 62
8
  6
HIDDEN
 10
57.825125179
 20
29.5925743404
 11
57.8546489148
 21
38.8291010052
  0
LINE
  5
2C4
100
AcDbEntity
  8
A_RUNDUNGEN
100
AcDbLine
 62
8
  6
HIDDEN
 10
53.6657017181
 20
36.7842796728
 11
51.9298600056
 21
30.3878804012
  0
LINE
  5
2C5
100
AcDbEntity
  8
0
100
AcDbLine
 62
7
  6
CONTINUOUS
 10
69.8251408781
 20
28.4021650141
 11
62.8251408781
 21
28.4021650141
  0
LINE
  5
2C6
100
AcDbEntity
  8
0
100
AcDbLine
 62
7
  6
CONTINUOUS
 10
140.1251408781
 20
28.7021650141
 11
61.1251408781
 21
28.7021650141
  0
LINE
  5
2C7
100
AcDbEntity
  8
DEFAULT_2
100
AcDbLine
 62
8
  6
HIDDEN
 10
57.1052882849
 20
29.2604132975
 11
20.1052882849
 21
29.2604132975
  0
LINE
  5
2C8
100
AcDbEntity
  8
DEFAULT_2
100
AcDbLine
 62
8
  6
HIDDEN
 10
55.6052882849
 20
29.4604132975
 11
57.1052882849
 21
29.4604132975
  0
LINE
  5
2C9
100
AcDbEntity
  8
A_ACHSEN
100
AcDbLine
 62
7
  6
CONTINUOUS
 10
55.2124905045
 20
29.6021635245
 11
54.4377905045
 21
29.6021635245
  0
LINE
  5
2CA
100
AcDbEntity
  8
A_ACHSEN
100
AcDbLine
 62
7
  6
CENTER
 10
52.8883905045
 20
29.6021635245
 11
49.6251405045
 21
29.6021635245
  0
LINE
  5
2CB
100
AcDbEntity
  8
A_ACHSEN
100
AcDbLine
 62
7
  6
CENTER
 10
56.7618905045
 20
29.6021635245
 11
60.0251405045
 21
29.6021635245
  0
LINE
  5
2CC
100
AcDbEntity
  8
0
100
AcDbLine
 62
7
  6
CONTINUOUS
 10
60.0751408781
 20
30.4521650141
 11
60.6251408781
 21
30.4521650141
  0
LINE
  5
2CD
100
AcDbEntity
  8
DEFAULT_2
100
AcDbLine
 62
8
  6
HIDDEN
 10
60.6251408781
 20
30.4521650141
 11
60.8751408781
 21
30.4521650141
  0
LINE
  5
2CE
100
AcDbEntity
  8
A_RUNDUNGEN
100
AcDbLine
 62
8
  6
HIDDEN
 10
36.0052882849
 20
30.4371087991
 11
22.502670303
 21
30.5078089876
  0
LINE
  5
2CF
100
AcDbEntity
  8
A_RUNDUNGEN
100
AcDbLine
 62
8
  6
HIDDEN
 10
55.6052882849
 20
29.3604132975
 11
21.7699269327
 21
29.6556900227
  0
LINE
  5
2D0
100
AcDbEntity
  8
A_RUNDUNGEN
100
AcDbLine
 62
8
  6
HIDDEN
 10
55.6052882849
 20
31.2104132975
 11
50.6509251833
 21
31.2968920272
  0
LINE
  5
2D1
100
AcDbEntity
  8
A_ACHSEN
100
AcDbLine
 62
8
  6
HIDDEN
 10
59.8251408781
 20
43.1021650141
 11
60.8251408781
 21
42.1021650141
  0
LINE
  5
2D2
100
AcDbEntity
  8
0
100
AcDbLine
 62
7
  6
CONTINUOUS
 10
57.1052882849
 20
40.7604132975
 11
60.6052882849
 21
36.7604132975
  0
LINE
  5
2D3
100
AcDbEntity
  8
0
100
AcDbLine
 62
7
  6
CONTINUOUS
 10
58.1052882849
 20
41.1361484136
 11
61.0590565115
 21
37.7604132975
  0
LINE
  5
2D4
100
AcDbEntity
  8
A_RUNDUNGEN
100
AcDbLine
 62
7
  6
CONTINUOUS
 10
60.5758144258
 20
38.8300920832
 11
60.0059888338
 21
39.6438873666
  0
LINE
  5
2D5
100
AcDbEntity
  8
A_RUNDUNGEN
100
AcDbLine
 62
7
  6
CONTINUOUS
 10
60.9978623406
 20
37.9163779117
 11
59.8609598377
 21
39.5506752596
  0
LINE
  5
2D6
100
AcDbEntity
  8
DEFAULT_2
100
AcDbLine
 62
8
  6
HIDDEN
 10
62.8251408781
 20
50.1021650141
 11
62.8251408781
 21
47.1691523122
  0
LINE
  5
2D7
100
AcDbEntity
  8
0
100
AcDbLine
 62
7
  6
CONTINUOUS
 10
62.8251408781
 20
28.4021650141
 11
62.8251408781
 21
25.8021650141
  0
LINE
  5
2D8
100
AcDbEntity
  8
A_ACHSEN
100
AcDbLine
 62
7
  6
CENTER
 10
62.8251408781
 20
39.1021650141
 11
62.8251408781
 21
53.1021650141
  0
LINE
  5
2D9
100
AcDbEntity
  8
DEFAULT_2
100
AcDbLine
 62
8
  6
HIDDEN
 10
64.3251408781
 20
50.1021650141
 11
64.3251408781
 21
47.0355124824
  0
LINE
  5
2DA
100
AcDbEntity
  8
DEFAULT_2
100
AcDbLine
 62
8
  6
HIDDEN
 10
65.1251408781
 20
50.1021650141
 11
65.1251408781
 21
42.4021650141
  0
LINE
  5
2DB
100
AcDbEntity
  8
A_ACHSEN
100
AcDbLine
 62
8
  6
HIDDEN
 10
65.3251408781
 20
50.1021650141
 11
65.3251408781
 21
41.9021650141
  0
LINE
  5
2DC
100
AcDbEntity
  8
A_ACHSEN
100
AcDbLine
 62
8
  6
HIDDEN
 10
65.8251408781
 20
49.6021650141
 11
65.8251408781
 21
43.1021650141
  0
LINE
  5
2DD
100
AcDbEntity
  8
A_ACHSEN
100
AcDbLine
 62
8
  6
HIDDEN
 10
60.3251408781
 20
50.1021650141
 11
59.8251408781
 21
49.6021650141
  0
LINE
  5
2DE
100
AcDbEntity
  8
A_RUNDUNGEN
100
AcDbLine
 62
8
  6
HIDDEN
 10
49.8965620817
 20
33.2015334486
 11
47.7009251833
 21
33.163208464
  0
LINE
  5
2DF
100
AcDbEntity
  8
A_ACHSEN
100
AcDbLine
 62
7
  6
CONTINUOUS
 10
30.0426382849
 20
33.9104132975
 11
29.2679382849
 21
33.9104132975
  0
LINE
  5
2E0
100
AcDbEntity
  8
A_ACHSEN
100
AcDbLine
 62
7
  6
CENTER
 10
29.2197029309
 20
33.9104132975
 11
26.6551882849
 21
33.9104132975
  0
LINE
  5
2E1
100
AcDbEntity
  8
A_ACHSEN
100
AcDbLine
 62
7
  6
CENTER
 10
30.0798060574
 20
33.9104132975
 11
32.6553882849
 21
33.9104132975
  0
LINE
  5
2E2
100
AcDbEntity
  8
A_ACHSEN
100
AcDbLine
 62
8
  6
HIDDEN
 10
47.1052882849
 20
34.2604132975
 11
37.1052882849
 21
34.2604132975
  0
LINE
  5
2E3
100
AcDbEntity
  8
A_ACHSEN
100
AcDbLine
 62
7
  6
CONTINUOUS
 10
35.4742556575
 20
34.4104132975
 11
35.2679382849
 21
34.4104132975
  0
LINE
  5
2E4
100
AcDbEntity
  8
A_ACHSEN
100
AcDbLine
 62
7
  6
CENTER
 10
34.8993705472
 20
34.4104132975
 11
31.4500598854
 21
34.4104132975
  0
LINE
  5
2E5
100
AcDbEntity
  8
A_ACHSEN
100
AcDbLine
 62
7
  6
CENTER
 10
35.4742556575
 20
34.4104132975
 11
39.8605166844
 21
34.4104132975
  0
LINE
  5
2E6
100
AcDbEntity
  8
A_ACHSEN
100
AcDbLine
 62
7
  6
CENTER
 10
50.3918052314
 20
34.6021650141
 11
59.2584765248
 21
34.6021650141
  0
LINE
  5
2E7
100
AcDbEntity
  8
A_RUNDUNGEN
100
AcDbLine
 62
8
  6
HIDDEN
 10
51.6139396533
 20
35.3604132975
 11
49.1966369165
 21
35.3604132975
  0
LINE
  5
2E8
100
AcDbEntity
  8
A_RUNDUNGEN
100
AcDbLine
 62
8
  6
HIDDEN
 10
43.8523424397
 20
44.6282530639
 11
50.1497598983
 21
42.9192723062
  0
LINE
  5
2E9
100
AcDbEntity
  8
A_RUNDUNGEN
100
AcDbLine
 62
7
  6
CONTINUOUS
 10
65.8937258718
 20
41.4757414504
 11
67.4534077266
 21
39.2482849184
  0
LINE
  5
2EA
100
AcDbEntity
  8
A_RUNDUNGEN
100
AcDbLine
 62
7
  6
CONTINUOUS
 10
66.2235307993
 20
41.4732295023
 11
67.630513637
 21
39.4506916732
  0
LINE
  5
2EB
100
AcDbEntity
  8
A_RUNDUNGEN
100
AcDbLine
 62
7
  6
CONTINUOUS
 10
68.2190338204
 20
38.6046939095
 11
68.9164452259
 21
37.6021650141
  0
LINE
  5
2EC
100
AcDbEntity
  8
0
100
AcDbLine
 62
7
  6
CONTINUOUS
 10
68.3251408781
 20
37.9021650141
 11
68.3251408781
 21
38.4521650141
  0
LINE
  5
2ED
100
AcDbEntity
  8
0
100
AcDbLine
 62
7
  6
CONTINUOUS
 10
69.1052882849
 20
41.1361484136
 11
69.1052882849
 21
42.7604132975
  0
LINE
  5
2EE
100
AcDbEntity
  8
0
100
AcDbLine
 62
7
  6
CONTINUOUS
 10
69.8251408781
 20
28.4021650141
 11
69.8251408781
 21
25.8021650141
  0
LINE
  5
2EF
100
AcDbEntity
  8
A_RUNDUNGEN
100
AcDbLine
 62
7
  6
CONTINUOUS
 10
69.8251408781
 20
24.1021650141
 11
69.8251408781
 21
25.8021650141
  0
LINE
  5
2F0
100
AcDbEntity
  8
A_RUNDUNGEN
100
AcDbLine
 62
7
  6
CONTINUOUS
 10
69.8251408781
 20
37.6021650141
 11
69.8251408781
 21
40.4402448326
  0
LINE
  5
2F1
100
AcDbEntity
  8
0
100
AcDbLine
 62
7
  6
CONTINUOUS
 10
70.1052882849
 20
40.7604132975
 11
70.1052882849
 21
75.2604132975
  0
LINE
  5
2F2
100
AcDbEntity
  8
DEFAULT_2
100
AcDbLine
 62
8
  6
HIDDEN
 10
64.3251408781
 20
49.9535785455
 11
64.5571916857
 21
50.1021650141
  0
LINE
  5
2F3
100
AcDbEntity
  8
DEFAULT_2
100
AcDbLine
 62
8
  6
HIDDEN
 10
48.0052882849
 20
36.6104132975
 11
36.2820323124
 21
36.6104132975
  0
LINE
  5
2F4
100
AcDbEntity
  8
0
100
AcDbLine
 62
7
  6
CONTINUOUS
 10
140.1251408781
 20
36.7021650141
 11
61.1251408781
 21
36.7021650141
  0
LINE
  5
2F5
100
AcDbEntity
  8
0
100
AcDbLine
 62
7
  6
CONTINUOUS
 10
60.6052882849
 20
36.7604132975
 11
66.6052882849
 21
36.7604132975
  0
LINE
  5
2F6
100
AcDbEntity
  8
A_ACHSEN
100
AcDbLine
 62
8
  6
HIDDEN
 10
47.1052882849
 20
37.2604132975
 11
37.1052882849
 21
37.2604132975
  0
LINE
  5
2F7
100
AcDbEntity
  8
0
100
AcDbLine
 62
7
  6
CONTINUOUS
 10
69.8251408781
 20
37.6021650141
 11
68.9164452259
 21
37.6021650141
  0
LINE
  5
2F8
100
AcDbEntity
  8
0
100
AcDbLine
 62
7
  6
CONTINUOUS
 10
61.0590565115
 20
37.7604132975
 11
66.1515200583
 21
37.7604132975
  0
LINE
  5
2F9
100
AcDbEntity
  8
0
100
AcDbLine
 62
7
  6
CONTINUOUS
 10
60.9978623406
 20
37.9021650141
 11
66.2755528103
 21
37.9021650141
  0
LINE
  5
2FA
100
AcDbEntity
  8
0
100
AcDbLine
 62
7
  6
CONTINUOUS
 10
67.6043210369
 20
37.9021650141
 11
68.3251408781
 21
37.9021650141
  0
LINE
  5
2FB
100
AcDbEntity
  8
A_RUNDUNGEN
100
AcDbLine
 62
7
  6
CONTINUOUS
 10
66.9755528103
 20
38.7021650141
 11
60.8215600391
 21
38.7021650141
  0
LINE
  5
2FC
100
AcDbEntity
  8
A_RUNDUNGEN
100
AcDbLine
 62
8
  6
HIDDEN
 10
55.1079062668
 20
36.4603913096
 11
36.502670303
 21
36.5578089876
  0
LINE
  5
2FD
100
AcDbEntity
  8
DEFAULT_2
100
AcDbLine
 62
8
  6
HIDDEN
 10
36.502670303
 20
36.5578089876
 11
48.0052882849
 21
36.4975808703
  0
LINE
  5
2FE
100
AcDbEntity
  8
A_RUNDUNGEN
100
AcDbLine
 62
8
  6
HIDDEN
 10
49.8965620817
 20
38.4192931464
 11
47.7009251833
 21
38.4576181311
  0
LINE
  5
2FF
100
AcDbEntity
  8
A_RUNDUNGEN
100
AcDbLine
 62
8
  6
HIDDEN
 10
21.7535801051
 20
38.2877744483
 11
31.3814629074
 21
37.9515613723
  0
LINE
  5
300
100
AcDbEntity
  8
A_RUNDUNGEN
100
AcDbLine
 62
8
  6
HIDDEN
 10
51.9499314076
 20
46.5754209952
 11
42.407629898
 21
49.1649920012
  0
LINE
  5
301
100
AcDbEntity
  8
A_FLAECHEN
100
AcDbLine
 62
8
  6
HIDDEN
 10
62.8251408781
 20
46.1691523122
 11
61.3251408781
 21
47.035177716
  0
LINE
  5
302
100
AcDbEntity
  8
DEFAULT_2
100
AcDbLine
 62
8
  6
HIDDEN
 10
61.3251408781
 20
49.9535785455
 11
61.0930900705
 21
50.1021650141
  0
LINE
  5
303
100
AcDbEntity
  8
A_ACHSEN
100
AcDbLine
 62
8
  6
HIDDEN
 10
65.3251408781
 20
50.1021650141
 11
65.8251408781
 21
49.6021650141
  0
LINE
  5
304
100
AcDbEntity
  8
A_ACHSEN
100
AcDbLine
 62
8
  6
HIDDEN
 10
65.8251408781
 20
43.1021650141
 11
64.8251408781
 21
42.1021650141
  0
LINE
  5
305
100
AcDbEntity
  8
0
100
AcDbLine
 62
7
  6
CONTINUOUS
 10
60.6251408781
 20
36.2021650141
 11
61.1251408781
 21
36.7021650141
  0
LINE
  5
306
100
AcDbEntity
  8
A_FLAECHEN
100
AcDbLine
 62
8
  6
HIDDEN
 10
62.8251408781
 20
46.1691523122
 11
64.3251408781
 21
47.035177716
  0
LINE
  5
307
100
AcDbEntity
  8
A_RUNDUNGEN
100
AcDbLine
 62
8
  6
HIDDEN
 10
48.7488661563
 20
40.4454588626
 11
47.6617104135
 21
40.3503450596
  0
LINE
  5
308
100
AcDbEntity
  8
A_RUNDUNGEN
100
AcDbLine
 62
8
  6
HIDDEN
 10
55.6052882849
 20
40.4104132975
 11
50.6509251833
 21
40.3239345679
  0
LINE
  5
309
100
AcDbEntity
  8
DEFAULT_2
100
AcDbLine
 62
8
  6
HIDDEN
 10
35.6802882849
 20
40.8104132975
 11
21.1052882849
 21
40.8104132975
  0
LINE
  5
30A
100
AcDbEntity
  8
A_RUNDUNGEN
100
AcDbLine
 62
8
  6
HIDDEN
 10
35.5052882849
 20
40.9854132975
 11
21.8123950661
 21
40.9854132975
  0
LINE
  5
30B
100
AcDbEntity
  8
DEFAULT_2
100
AcDbLine
 62
8
  6
HIDDEN
 10
54.2552882849
 20
41.3104132975
 11
49.2052882849
 21
41.3104132975
  0
LINE
  5
30C
100
AcDbEntity
  8
A_RUNDUNGEN
100
AcDbLine
 62
8
  6
HIDDEN
 10
53.8981815037
 20
41.4604132975
 11
49.7052882849
 21
41.4604132975
  0
LINE
  5
30D
100
AcDbEntity
  8
A_ACHSEN
100
AcDbLine
 62
8
  6
HIDDEN
 10
65.3251408781
 20
41.9021650141
 11
60.3251408781
 21
41.9021650141
  0
LINE
  5
30E
100
AcDbEntity
  8
A_RUNDUNGEN
100
AcDbLine
 62
7
  6
CONTINUOUS
 10
59.8251408781
 20
41.9021650141
 11
65.4026255976
 21
41.9021650141
  0
LINE
  5
30F
100
AcDbEntity
  8
A_ACHSEN
100
AcDbLine
 62
8
  6
HIDDEN
 10
60.8251408781
 20
42.1021650141
 11
64.8251408781
 21
42.1021650141
  0
LINE
  5
310
100
AcDbEntity
  8
DEFAULT_2
100
AcDbLine
 62
8
  6
HIDDEN
 10
65.1251408781
 20
42.4021650141
 11
60.5251408781
 21
42.4021650141
  0
LINE
  5
311
100
AcDbEntity
  8
0
100
AcDbLine
 62
7
  6
CONTINUOUS
 10
69.1052882849
 20
42.7604132975
 11
58.1052882849
 21
42.7604132975
  0
LINE
  5
312
100
AcDbEntity
  8
A_ACHSEN
100
AcDbLine
 62
8
  6
HIDDEN
 10
65.8251408781
 20
43.1021650141
 11
59.8251408781
 21
43.1021650141
  0
LINE
  5
313
100
AcDbEntity
  8
0
100
AcDbLine
 62
7
  6
CONTINUOUS
 10
70.1052882849
 20
43.7604132975
 11
57.1052882849
 21
43.7604132975
  0
LINE
  5
314
100
AcDbEntity
  8
A_RUNDUNGEN
100
AcDbLine
 62
8
  6
HIDDEN
 10
48.7488661563
 20
46.1753677325
 11
47.6617104135
 21
46.2704815355
  0
LINE
  5
315
100
AcDbEntity
  8
A_RUNDUNGEN
100
AcDbLine
 62
8
  6
HIDDEN
 10
37.9788362213
 20
49.5173863767
 11
45.4220709804
 21
47.8226782905
  0
LINE
  5
316
100
AcDbEntity
  8
A_RUNDUNGEN
100
AcDbLine
 62
8
  6
HIDDEN
 10
46.3265633788
 20
51.7191098916
 11
37.5836129489
 21
53.7097428988
  0
LINE
  5
317
100
AcDbEntity
  8
0
100
AcDbLine
 62
7
  6
CONTINUOUS
 10
66.1515200583
 20
37.7604132975
 11
69.1052882849
 21
41.1361484136
  0
LINE
  5
318
100
AcDbEntity
  8
0
100
AcDbLine
 62
7
  6
CONTINUOUS
 10
66.6052882849
 20
36.7604132975
 11
70.1052882849
 21
40.7604132975
  0
LINE
  5
319
100
AcDbEntity
  8
A_RUNDUNGEN
100
AcDbLine
 62
8
  6
HIDDEN
 10
49.8965620817
 20
48.2015334486
 11
47.7009251833
 21
48.163208464
  0
LINE
  5
31A
100
AcDbEntity
  8
A_RUNDUNGEN
100
AcDbLine
 62
8
  6
HIDDEN
 10
53.8981815037
 20
45.1604132975
 11
49.7052882849
 21
45.1604132975
  0
LINE
  5
31B
100
AcDbEntity
  8
DEFAULT_2
100
AcDbLine
 62
8
  6
HIDDEN
 10
54.2552882849
 20
45.3104132975
 11
49.2052882849
 21
45.3104132975
  0
LINE
  5
31C
100
AcDbEntity
  8
A_RUNDUNGEN
100
AcDbLine
 62
8
  6
HIDDEN
 10
35.5052882849
 20
45.6354132975
 11
21.8123950661
 21
45.6354132975
  0
LINE
  5
31D
100
AcDbEntity
  8
DEFAULT_2
100
AcDbLine
 62
8
  6
HIDDEN
 10
35.6802882849
 20
45.8104132975
 11
21.1052882849
 21
45.8104132975
  0
LINE
  5
31E
100
AcDbEntity
  8
A_ACHSEN
100
AcDbLine
 62
8
  6
HIDDEN
 10
47.1052882849
 20
49.2604132975
 11
37.1052882849
 21
49.2604132975
  0
LINE
  5
31F
100
AcDbEntity
  8
A_RUNDUNGEN
100
AcDbLine
 62
8
  6
HIDDEN
 10
55.6052882849
 20
46.2104132975
 11
50.6509251833
 21
46.2968920272
  0
LINE
  5
320
100
AcDbEntity
  8
A_RUNDUNGEN
100
AcDbLine
 62
8
  6
HIDDEN
 10
21.7535801051
 20
48.3330521468
 11
31.3814629074
 21
48.6692652228
  0
LINE
  5
321
100
AcDbEntity
  8
DEFAULT_2
100
AcDbLine
 62
8
  6
HIDDEN
 10
36.502670303
 20
50.0630176075
 11
48.0052882849
 21
50.1232457248
  0
LINE
  5
322
100
AcDbEntity
  8
A_RUNDUNGEN
100
AcDbLine
 62
8
  6
HIDDEN
 10
36.502670303
 20
50.0630176075
 11
55.1079062668
 21
50.1604352855
  0
LINE
  5
323
100
AcDbEntity
  8
A_ACHSEN
100
AcDbLine
 62
8
  6
HIDDEN
 10
65.8251408781
 20
49.6021650141
 11
59.8251408781
 21
49.6021650141
  0
LINE
  5
324
100
AcDbEntity
  8
DEFAULT_2
100
AcDbLine
 62
8
  6
HIDDEN
 10
36.2820323124
 20
50.0104132975
 11
48.0052882849
 21
50.0104132975
  0
LINE
  5
325
100
AcDbEntity
  8
A_ACHSEN
100
AcDbLine
 62
8
  6
HIDDEN
 10
65.3251408781
 20
50.1021650141
 11
60.3251408781
 21
50.1021650141
  0
LINE
  5
326
100
AcDbEntity
  8
A_RUNDUNGEN
100
AcDbLine
 62
8
  6
HIDDEN
 10
65.8251408781
 20
50.1021650141
 11
51.8251408781
 21
50.1021650141
  0
LINE
  5
327
100
AcDbEntity
  8
DEFAULT_2
100
AcDbLine
 62
8
  6
HIDDEN
 10
58.3251408781
 20
50.1021650141
 11
66.3251408781
 21
50.1021650141
  0
LINE
  5
328
100
AcDbEntity
  8
DEFAULT_2
100
AcDbLine
 62
8
  6
HIDDEN
 10
57.1052882849
 20
51.4604132975
 11
54.0052882849
 21
51.4604132975
  0
LINE
  5
329
100
AcDbEntity
  8
DEFAULT_2
100
AcDbLine
 62
8
  6
HIDDEN
 10
57.1052882849
 20
51.6104132975
 11
54.0052882849
 21
51.6104132975
  0
LINE
  5
32A
100
AcDbEntity
  8
A_ACHSEN
100
AcDbLine
 62
8
  6
HIDDEN
 10
47.1052882849
 20
52.2604132975
 11
37.1052882849
 21
52.2604132975
  0
LINE
  5
32B
100
AcDbEntity
  8
A_RUNDUNGEN
100
AcDbLine
 62
8
  6
HIDDEN
 10
49.8965620817
 20
53.4192931464
 11
47.7009251833
 21
53.4576181311
  0
LINE
  5
32C
100
AcDbEntity
  8
A_RUNDUNGEN
100
AcDbLine
 62
8
  6
HIDDEN
 10
55.6052882849
 20
55.4104132975
 11
50.6509251833
 21
55.3239345679
  0
LINE
  5
32D
100
AcDbEntity
  8
A_RUNDUNGEN
100
AcDbLine
 62
8
  6
HIDDEN
 10
55.6052882849
 20
57.2604132975
 11
21.7699269327
 21
56.9651365724
  0
LINE
  5
32E
100
AcDbEntity
  8
A_RUNDUNGEN
100
AcDbLine
 62
8
  6
HIDDEN
 10
55.1079062668
 20
56.2337397839
 11
22.502670303
 21
56.0630176075
  0
LINE
  5
32F
100
AcDbEntity
  8
DEFAULT_2
100
AcDbLine
 62
8
  6
HIDDEN
 10
57.1052882849
 20
55.3104132975
 11
54.0052882849
 21
55.3104132975
  0
LINE
  5
330
100
AcDbEntity
  8
DEFAULT_2
100
AcDbLine
 62
8
  6
HIDDEN
 10
57.1052882849
 20
55.4604132975
 11
54.0052882849
 21
55.4604132975
  0
LINE
  5
331
100
AcDbEntity
  8
A_ACHSEN
100
AcDbLine
 62
8
  6
HIDDEN
 10
55.1052882849
 20
56.1104132975
 11
54.0052882849
 21
56.1104132975
  0
LINE
  5
332
100
AcDbEntity
  8
DEFAULT_2
100
AcDbLine
 62
8
  6
HIDDEN
 10
70.1052882849
 20
57.2604132975
 11
20.1052882849
 21
57.2604132975
  0
LWPOLYLINE
  5
333
100
AcDbEntity
  8
A_RUNDUNGEN
100
AcDbPolyline
 62
7
  6
CONTINUOUS
 90
6
 70
0
 10
56.9456074465
 20
24.2775727816
 10
56.9942561795
 20
24.3029160688
 10
57.0385518471
 20
24.340721152
 10
57.074526492
 20
24.3906435543
 10
57.098084735
 20
24.4512283533
 10
57.1052882848
 20
24.5108284114
  0
LINE
  5
334
100
AcDbEntity
  8
0
100
AcDbLine
 62
7
  6
CONTINUOUS
 10
70.1052882849
 20
75.2604132975
 11
17.1052882849
 21
75.2604132975
  0
LINE
  5
335
100
AcDbEntity
  8
0
100
AcDbLine
 62
7
  6
CONTINUOUS
 10
140.6251408781
 20
36.2021650141
 11
140.1251408781
 21
36.7021650141
  0
LINE
  5
336
100
AcDbEntity
  8
0
100
AcDbLine
 62
7
  6
CONTINUOUS
 10
140.6251408781
 20
29.2021650141
 11
140.1251408781
 21
28.7021650141
  0
LINE
  5
337
100
AcDbEntity
  8
0
100
AcDbLine
 62
7
  6
CONTINUOUS
 10
140.6251408781
 20
36.2021650141
 11
140.6251408781
 21
29.2021650141
  0
ARC
  5
338
100
AcDbEntity
  8
A_RUNDUNGEN
100
AcDbCircle
 62
7
  6
CONTINUOUS
 10
43.3894400656
 20
25.7604132975
 40
1.5
100
AcDbArc
 50
252.2553283749
 51
270.0
  0
ARC
  5
339
100
AcDbEntity
  8
A_RUNDUNGEN
100
AcDbCircle
 62
8
  6
HIDDEN
 10
21.6052882849
 20
30.3673201816
 40
0.5
100
AcDbArc
 50
180.0
 51
224.75
  0
ARC
  5
33A
100
AcDbEntity
  8
A_RUNDUNGEN
100
AcDbCircle
 62
8
  6
HIDDEN
 10
22.5052882849
 20
31.0078021337
 40
0.5
100
AcDbArc
 50
180.0
 51
269.7
  0
ARC
  5
33B
100
AcDbEntity
  8
A_RUNDUNGEN
100
AcDbCircle
 62
8
  6
HIDDEN
 10
21.7734175469
 20
30.0556747919
 40
0.4
100
AcDbArc
 50
224.75
 51
269.5
  0
ARC
  5
33C
100
AcDbEntity
  8
A_RUNDUNGEN
100
AcDbCircle
 62
7
  6
CONTINUOUS
 10
42.1552882849
 20
25.0104132975
 40
0.25
100
AcDbArc
 50
90.0
 51
180.0
  0
ARC
  5
33D
100
AcDbEntity
  8
A_RUNDUNGEN
100
AcDbCircle
 62
7
  6
CONTINUOUS
 10
42.1552882849
 20
24.8429013925
 40
0.25
100
AcDbArc
 50
180.0
 51
252.2553283749
  0
ARC
  5
33E
100
AcDbEntity
  8
A_RUNDUNGEN
100
AcDbCircle
 62
8
  6
HIDDEN
 10
21.6052882849
 20
38.9995029029
 40
0.5
100
AcDbArc
 50
180.0
 51
224.0
  0
ARC
  5
33F
100
AcDbEntity
  8
A_RUNDUNGEN
100
AcDbCircle
 62
8
  6
HIDDEN
 10
21.6052882849
 20
40.2783065164
 40
0.5
100
AcDbArc
 50
135.000001341
 51
179.9999994984
  0
ARC
  5
340
100
AcDbEntity
  8
A_RUNDUNGEN
100
AcDbCircle
 62
8
  6
HIDDEN
 10
21.8123950661
 20
40.4854132975
 40
0.5
100
AcDbArc
 50
90.0
 51
135.0000070685
  0
ARC
  5
341
100
AcDbEntity
  8
A_RUNDUNGEN
100
AcDbCircle
 62
8
  6
HIDDEN
 10
21.7675399038
 20
38.6875307791
 40
0.4
100
AcDbArc
 50
224.0
 51
268.0
  0
ARC
  5
342
100
AcDbEntity
  8
A_ACHSEN
100
AcDbCircle
 62
8
  6
HIDDEN
 10
35.6552882849
 20
34.4104132975
 40
3.0
100
AcDbArc
 50
166.8168642237
 51
349.8168642237
  0
ARC
  5
343
100
AcDbEntity
  8
A_ACHSEN
100
AcDbCircle
 62
8
  6
HIDDEN
 10
29.6552882849
 20
33.9104132975
 40
3.0
100
AcDbArc
 50
162.4473099136
 51
348.5053099136
  0
CIRCLE
  5
344
100
AcDbEntity
  8
A_ACHSEN
100
AcDbCircle
 62
8
  6
HIDDEN
 10
29.6552882849
 20
33.9104132975
 40
2.5
  0
CIRCLE
  5
345
100
AcDbEntity
  8
DEFAULT_2
100
AcDbCircle
 62
8
  6
HIDDEN
 10
35.6552882849
 20
34.4104132975
 40
2.5
  0
CIRCLE
  5
346
100
AcDbEntity
  8
A_FASEN
100
AcDbCircle
 62
8
  6
HIDDEN
 10
29.6552882849
 20
33.9104132975
 40
2.2
  0
CIRCLE
  5
347
100
AcDbEntity
  8
DEFAULT_2
100
AcDbCircle
 62
8
  6
HIDDEN
 10
35.6552882849
 20
34.4104132975
 40
2.2
  0
CIRCLE
  5
348
100
AcDbEntity
  8
A_ACHSEN
100
AcDbCircle
 62
8
  6
HIDDEN
 10
29.6552882849
 20
33.9104132975
 40
2.2
  0
CIRCLE
  5
349
100
AcDbEntity
  8
A_FASEN
100
AcDbCircle
 62
8
  6
HIDDEN
 10
29.6552882849
 20
33.9104132975
 40
1.85
  0
ARC
  5
34A
100
AcDbEntity
  8
DEFAULT_2
100
AcDbCircle
 62
8
  6
HIDDEN
 10
36.5052882849
 20
37.0578021337
 40
0.5
100
AcDbArc
 50
243.4798867806
 51
269.7
  0
ARC
  5
34B
100
AcDbEntity
  8
A_RUNDUNGEN
100
AcDbCircle
 62
8
  6
HIDDEN
 10
36.5052882849
 20
37.0578021337
 40
0.5
100
AcDbArc
 50
180.0
 51
269.7
  0
ARC
  5
34C
100
AcDbEntity
  8
A_RUNDUNGEN
100
AcDbCircle
 62
8
  6
HIDDEN
 10
31.3552882849
 20
37.202018252
 40
0.75
100
AcDbArc
 50
0.0
 51
87.9999999811
  0
ARC
  5
34D
100
AcDbEntity
  8
A_RUNDUNGEN
100
AcDbCircle
 62
7
  6
CONTINUOUS
 10
50.8251408781
 20
24.1021650141
 40
2.0
100
AcDbArc
 50
180.0
 51
270.0
  0
ARC
  5
34E
100
AcDbEntity
  8
A_RUNDUNGEN
100
AcDbCircle
 62
7
  6
CONTINUOUS
 10
56.8552882849
 20
25.0104132975
 40
0.25
100
AcDbArc
 50
0.0
 51
67.5
  0
ARC
  5
34F
100
AcDbEntity
  8
A_ACHSEN
100
AcDbCircle
 62
8
  6
HIDDEN
 10
54.8251408789
 20
29.6021650173
 40
3.0
100
AcDbArc
 50
164.8168642237
 51
359.8168642237
  0
CIRCLE
  5
350
100
AcDbEntity
  8
DEFAULT_2
100
AcDbCircle
 62
8
  6
HIDDEN
 10
54.8251405045
 20
29.6021635245
 40
2.5
  0
CIRCLE
  5
351
100
AcDbEntity
  8
DEFAULT_2
100
AcDbCircle
 62
8
  6
HIDDEN
 10
54.8251405045
 20
29.6021635245
 40
2.2
  0
ARC
  5
352
100
AcDbEntity
  8
A_RUNDUNGEN
100
AcDbCircle
 62
8
  6
HIDDEN
 10
47.4552882849
 20
32.0274005956
 40
0.25
100
AcDbArc
 50
120.0
 51
180.0
  0
ARC
  5
353
100
AcDbEntity
  8
A_RUNDUNGEN
100
AcDbCircle
 62
8
  6
HIDDEN
 10
50.6552882849
 20
31.5468539509
 40
0.25
100
AcDbArc
 50
180.0
 51
269.0
  0
ARC
  5
354
100
AcDbEntity
  8
A_RUNDUNGEN
100
AcDbCircle
 62
8
  6
HIDDEN
 10
47.4552882849
 20
30.0366339596
 40
0.25
100
AcDbArc
 50
180.0
 51
224.7499999931
  0
ARC
  5
355
100
AcDbEntity
  8
A_RUNDUNGEN
100
AcDbCircle
 62
8
  6
HIDDEN
 10
47.8103619342
 20
29.6784481088
 40
0.25
100
AcDbArc
 50
224.75
 51
269.5
  0
ARC
  5
356
100
AcDbEntity
  8
A_RUNDUNGEN
100
AcDbCircle
 62
7
  6
CONTINUOUS
 10
67.8251408781
 20
24.1021650141
 40
2.0
100
AcDbArc
 50
270.0
 51
360.0
  0
ARC
  5
357
100
AcDbEntity
  8
A_RUNDUNGEN
100
AcDbCircle
 62
7
  6
CONTINUOUS
 10
60.8251408781
 20
26.8021650141
 40
1.0
100
AcDbArc
 50
180.0
 51
270.0
  0
ARC
  5
358
100
AcDbEntity
  8
A_RUNDUNGEN
100
AcDbCircle
 62
8
  6
HIDDEN
 10
49.1966369165
 20
34.8604132975
 40
0.5
100
AcDbArc
 50
90.0
 51
179.0
  0
ARC
  5
359
100
AcDbEntity
  8
A_RUNDUNGEN
100
AcDbCircle
 62
8
  6
HIDDEN
 10
51.6139396533
 20
34.8604132975
 40
0.5
100
AcDbArc
 50
1.0
 51
90.0
  0
ARC
  5
35A
100
AcDbEntity
  8
A_RUNDUNGEN
100
AcDbCircle
 62
8
  6
HIDDEN
 10
49.9052882849
 20
32.7016096011
 40
0.5
100
AcDbArc
 50
0.0
 51
91.0
  0
ARC
  5
35B
100
AcDbEntity
  8
A_RUNDUNGEN
100
AcDbCircle
 62
8
  6
HIDDEN
 10
47.7052882849
 20
32.9132465402
 40
0.25
100
AcDbArc
 50
91.0
 51
180.0
  0
ARC
  5
35C
100
AcDbEntity
  8
A_RUNDUNGEN
100
AcDbCircle
 62
8
  6
HIDDEN
 10
47.2052882849
 20
32.4604132975
 40
0.25
100
AcDbArc
 50
300.0
 51
360.0
  0
ARC
  5
35D
100
AcDbEntity
  8
A_RUNDUNGEN
100
AcDbCircle
 62
8
  6
HIDDEN
 10
49.8546894365
 20
38.8546732685
 40
8.0
100
AcDbArc
 50
359.8168642237
 51
74.8168642237
  0
ARC
  5
35E
100
AcDbEntity
  8
A_RUNDUNGEN
100
AcDbCircle
 62
8
  6
HIDDEN
 10
48.8402335959
 20
38.0938053127
 40
5.0
100
AcDbArc
 50
344.8168642237
 51
74.8168642237
  0
ARC
  5
35F
100
AcDbEntity
  8
A_RUNDUNGEN
100
AcDbCircle
 62
8
  6
HIDDEN
 10
49.9052882849
 20
38.919216994
 40
0.5
100
AcDbArc
 50
269.0
 51
360.0
  0
ARC
  5
360
100
AcDbEntity
  8
A_RUNDUNGEN
100
AcDbCircle
 62
8
  6
HIDDEN
 10
47.7052882849
 20
39.8522477105
 40
0.5
100
AcDbArc
 50
95.0000001291
 51
180.0
  0
ARC
  5
361
100
AcDbEntity
  8
A_RUNDUNGEN
100
AcDbCircle
 62
8
  6
HIDDEN
 10
47.4552882849
 20
39.5934259994
 40
0.25
100
AcDbArc
 50
180.0
 51
240.0
  0
ARC
  5
362
100
AcDbEntity
  8
A_RUNDUNGEN
100
AcDbCircle
 62
8
  6
HIDDEN
 10
50.6552882849
 20
40.0739726441
 40
0.25
100
AcDbArc
 50
91.0
 51
180.0
  0
ARC
  5
363
100
AcDbEntity
  8
A_RUNDUNGEN
100
AcDbCircle
 62
8
  6
HIDDEN
 10
47.7052882849
 20
38.7075800549
 40
0.25
100
AcDbArc
 50
180.0
 51
269.0
  0
ARC
  5
364
100
AcDbEntity
  8
A_RUNDUNGEN
100
AcDbCircle
 62
8
  6
HIDDEN
 10
47.2052882849
 20
39.1604132975
 40
0.25
100
AcDbArc
 50
0.0
 51
60.0
  0
ARC
  5
365
100
AcDbEntity
  8
A_ACHSEN
100
AcDbCircle
 62
8
  6
HIDDEN
 10
54.8251408781
 20
34.6021650141
 40
3.0
100
AcDbArc
 50
194.9731099136
 51
22.9384099136
  0
CIRCLE
  5
366
100
AcDbEntity
  8
DEFAULT_2
100
AcDbCircle
 62
8
  6
HIDDEN
 10
54.8251408781
 20
34.6021650141
 40
2.5
  0
CIRCLE
  5
367
100
AcDbEntity
  8
A_FASEN
100
AcDbCircle
 62
8
  6
HIDDEN
 10
54.8251408781
 20
34.6021650141
 40
2.2
  0
CIRCLE
  5
368
100
AcDbEntity
  8
DEFAULT_2
100
AcDbCircle
 62
8
  6
HIDDEN
 10
54.8251408781
 20
34.6021650141
 40
2.2
  0
CIRCLE
  5
369
100
AcDbEntity
  8
A_FASEN
100
AcDbCircle
 62
8
  6
HIDDEN
 10
54.8251408781
 20
34.6021650141
 40
1.85
  0
ARC
  5
36A
100
AcDbEntity
  8
A_RUNDUNGEN
100
AcDbCircle
 62
7
  6
CONTINUOUS
 10
60.8251408781
 20
40.2174638029
 40
1.0
100
AcDbArc
 50
180.0
 51
215.0
  0
ARC
  5
36B
100
AcDbEntity
  8
A_RUNDUNGEN
100
AcDbCircle
 62
7
  6
CONTINUOUS
 10
60.8251408781
 20
36.6021650141
 40
1.0
100
AcDbArc
 50
134.6990188133
 51
180.0
  0
ARC
  5
36C
100
AcDbEntity
  8
A_RUNDUNGEN
100
AcDbCircle
 62
7
  6
CONTINUOUS
 10
60.8215600391
 20
39.0021650141
 40
0.3
100
AcDbArc
 50
215.0
 51
270.0
  0
ARC
  5
36D
100
AcDbEntity
  8
A_RUNDUNGEN
100
AcDbCircle
 62
7
  6
CONTINUOUS
 10
60.8336813002
 20
37.8021650141
 40
0.2
100
AcDbArc
 50
357.8854417555
 51
34.824489157
  0
ARC
  5
36E
100
AcDbEntity
  8
A_RUNDUNGEN
100
AcDbCircle
 62
7
  6
CONTINUOUS
 10
60.0251408781
 20
39.6648881572
 40
0.2
100
AcDbArc
 50
180.0
 51
214.824489157
  0
ARC
  5
36F
100
AcDbEntity
  8
A_RUNDUNGEN
100
AcDbCircle
 62
8
  6
HIDDEN
 10
40.8361979812
 20
43.3744307804
 40
6.0
100
AcDbArc
 50
74.8168642237
 51
166.8168642237
  0
ARC
  5
370
100
AcDbEntity
  8
A_RUNDUNGEN
100
AcDbCircle
 62
8
  6
HIDDEN
 10
36.4735993126
 20
48.8345126758
 40
5.0
100
AcDbArc
 50
77.1733099136
 51
162.4473099136
  0
ARC
  5
371
100
AcDbEntity
  8
A_RUNDUNGEN
100
AcDbCircle
 62
8
  6
HIDDEN
 10
43.0666262601
 20
41.7329728289
 40
3.0
100
AcDbArc
 50
74.8168642237
 51
169.8168642237
  0
ARC
  5
372
100
AcDbEntity
  8
A_RUNDUNGEN
100
AcDbCircle
 62
8
  6
HIDDEN
 10
37.5348307667
 20
47.5672942876
 40
2.0
100
AcDbArc
 50
77.1733099136
 51
168.5053099136
  0
ARC
  5
373
100
AcDbEntity
  8
A_RUNDUNGEN
100
AcDbCircle
 62
8
  6
HIDDEN
 10
21.6052882849
 20
47.6213236922
 40
0.5
100
AcDbArc
 50
136.0
 51
180.0
  0
ARC
  5
374
100
AcDbEntity
  8
A_RUNDUNGEN
100
AcDbCircle
 62
8
  6
HIDDEN
 10
21.6052882849
 20
46.3425200787
 40
0.5
100
AcDbArc
 50
180.0000005016
 51
224.999998659
  0
ARC
  5
375
100
AcDbEntity
  8
A_RUNDUNGEN
100
AcDbCircle
 62
8
  6
HIDDEN
 10
21.8123950661
 20
46.1354132975
 40
0.5
100
AcDbArc
 50
224.9999929315
 51
270.0
  0
ARC
  5
376
100
AcDbEntity
  8
A_RUNDUNGEN
100
AcDbCircle
 62
8
  6
HIDDEN
 10
21.7675399038
 20
47.9332958159
 40
0.4
100
AcDbArc
 50
92.0
 51
136.0
  0
ARC
  5
377
100
AcDbEntity
  8
A_RUNDUNGEN
100
AcDbCircle
 62
8
  6
HIDDEN
 10
31.3552882849
 20
49.4188083431
 40
0.75
100
AcDbArc
 50
272.0
 51
360.0
  0
ARC
  5
378
100
AcDbEntity
  8
DEFAULT_2
100
AcDbCircle
 62
8
  6
HIDDEN
 10
36.5052882849
 20
49.5630244614
 40
0.5
100
AcDbArc
 50
90.3
 51
116.5201132194
  0
ARC
  5
379
100
AcDbEntity
  8
A_RUNDUNGEN
100
AcDbCircle
 62
8
  6
HIDDEN
 10
21.6052882849
 20
56.2535064135
 40
0.5
100
AcDbArc
 50
135.25
 51
180.0
  0
ARC
  5
37A
100
AcDbEntity
  8
A_RUNDUNGEN
100
AcDbCircle
 62
8
  6
HIDDEN
 10
36.5052882849
 20
49.5630244614
 40
0.5
100
AcDbArc
 50
90.3
 51
180.0
  0
ARC
  5
37B
100
AcDbEntity
  8
A_RUNDUNGEN
100
AcDbCircle
 62
8
  6
HIDDEN
 10
22.5052882849
 20
55.5630244614
 40
0.5
100
AcDbArc
 50
90.3
 51
180.0
  0
ARC
  5
37C
100
AcDbEntity
  8
A_RUNDUNGEN
100
AcDbCircle
 62
8
  6
HIDDEN
 10
21.7734175469
 20
56.5651518031
 40
0.4
100
AcDbArc
 50
90.5
 51
135.25
  0
ARC
  5
37D
100
AcDbEntity
  8
A_RUNDUNGEN
100
AcDbCircle
 62
8
  6
HIDDEN
 10
44.106536106
 20
41.9686494457
 40
10.0
100
AcDbArc
 50
22.9384099136
 51
77.1733099136
  0
ARC
  5
37E
100
AcDbEntity
  8
A_RUNDUNGEN
100
AcDbCircle
 62
8
  6
HIDDEN
 10
44.312057344
 20
42.9474480675
 40
5.0
100
AcDbArc
 50
14.9731099136
 51
77.1733099136
  0
ARC
  5
37F
100
AcDbEntity
  8
A_RUNDUNGEN
100
AcDbCircle
 62
8
  6
HIDDEN
 10
49.7052882849
 20
40.9604132975
 40
0.5
100
AcDbArc
 50
90.0
 51
179.9999994494
  0
ARC
  5
380
100
AcDbEntity
  8
A_RUNDUNGEN
100
AcDbCircle
 62
8
  6
HIDDEN
 10
48.7052882849
 20
40.9435562116
 40
0.5
100
AcDbArc
 50
275.0
 51
360.0
  0
ARC
  5
381
100
AcDbEntity
  8
A_RUNDUNGEN
100
AcDbCircle
 62
8
  6
HIDDEN
 10
49.9052882849
 20
47.7016096011
 40
0.5
100
AcDbArc
 50
0.0
 51
91.0
  0
ARC
  5
382
100
AcDbEntity
  8
A_RUNDUNGEN
100
AcDbCircle
 62
8
  6
HIDDEN
 10
49.7052882849
 20
45.6604132975
 40
0.5
100
AcDbArc
 50
180.0000005506
 51
270.0
  0
ARC
  5
383
100
AcDbEntity
  8
A_RUNDUNGEN
100
AcDbCircle
 62
8
  6
HIDDEN
 10
47.7052882849
 20
46.7685788845
 40
0.5
100
AcDbArc
 50
180.0
 51
265.0
  0
ARC
  5
384
100
AcDbEntity
  8
A_RUNDUNGEN
100
AcDbCircle
 62
8
  6
HIDDEN
 10
48.7052882849
 20
45.6772703835
 40
0.5
100
AcDbArc
 50
0.0
 51
85.0
  0
ARC
  5
385
100
AcDbEntity
  8
A_RUNDUNGEN
100
AcDbCircle
 62
8
  6
HIDDEN
 10
47.4552882849
 20
47.0274005956
 40
0.25
100
AcDbArc
 50
120.0
 51
180.0
  0
ARC
  5
386
100
AcDbEntity
  8
A_RUNDUNGEN
100
AcDbCircle
 62
8
  6
HIDDEN
 10
50.6552882849
 20
46.5468539509
 40
0.25
100
AcDbArc
 50
180.0
 51
269.0
  0
ARC
  5
387
100
AcDbEntity
  8
A_RUNDUNGEN
100
AcDbCircle
 62
8
  6
HIDDEN
 10
47.7052882849
 20
47.9132465402
 40
0.25
100
AcDbArc
 50
91.0
 51
180.0
  0
ARC
  5
388
100
AcDbEntity
  8
A_RUNDUNGEN
100
AcDbCircle
 62
8
  6
HIDDEN
 10
47.2052882849
 20
47.4604132975
 40
0.25
100
AcDbArc
 50
300.0
 51
360.0
  0
ARC
  5
389
100
AcDbEntity
  8
A_RUNDUNGEN
100
AcDbCircle
 62
7
  6
CONTINUOUS
 10
65.0745738275
 20
40.9021650141
 40
1.0
100
AcDbArc
 50
35.0
 51
90.0
  0
ARC
  5
38A
100
AcDbEntity
  8
A_RUNDUNGEN
100
AcDbCircle
 62
7
  6
CONTINUOUS
 10
65.4026255976
 20
40.9021650141
 40
1.0
100
AcDbArc
 50
34.824489157
 51
90.0
  0
ARC
  5
38B
100
AcDbEntity
  8
A_RUNDUNGEN
100
AcDbCircle
 62
7
  6
CONTINUOUS
 10
60.3251408781
 20
41.4021650141
 40
0.5
100
AcDbArc
 50
90.0
 51
180.0
  0
ARC
  5
38C
100
AcDbEntity
  8
A_RUNDUNGEN
100
AcDbCircle
 62
8
  6
HIDDEN
 10
65.8251408781
 20
46.1021650141
 40
4.0
100
AcDbArc
 50
0.0
 51
90.0
  0
ARC
  5
38D
100
AcDbEntity
  8
A_RUNDUNGEN
100
AcDbCircle
 62
8
  6
HIDDEN
 10
55.1052882849
 20
56.6104132975
 40
0.5
100
AcDbArc
 50
270.0
 51
360.0
  0
ARC
  5
38E
100
AcDbEntity
  8
A_RUNDUNGEN
100
AcDbCircle
 62
8
  6
HIDDEN
 10
55.1052882849
 20
56.7337329301
 40
0.5
100
AcDbArc
 50
270.3
 51
360.0
  0
ARC
  5
38F
100
AcDbEntity
  8
A_RUNDUNGEN
100
AcDbCircle
 62
8
  6
HIDDEN
 10
49.1052882849
 20
50.6290122179
 40
0.5
100
AcDbArc
 50
270.3
 51
360.0
  0
ARC
  5
390
100
AcDbEntity
  8
A_RUNDUNGEN
100
AcDbCircle
 62
8
  6
HIDDEN
 10
49.9052882849
 20
53.919216994
 40
0.5
100
AcDbArc
 50
269.0
 51
360.0
  0
ARC
  5
391
100
AcDbEntity
  8
A_RUNDUNGEN
100
AcDbCircle
 62
8
  6
HIDDEN
 10
47.4552882849
 20
54.5934259994
 40
0.25
100
AcDbArc
 50
180.0
 51
240.0
  0
ARC
  5
392
100
AcDbEntity
  8
A_RUNDUNGEN
100
AcDbCircle
 62
8
  6
HIDDEN
 10
50.6552882849
 20
55.0739726441
 40
0.25
100
AcDbArc
 50
91.0
 51
180.0
  0
ARC
  5
393
100
AcDbEntity
  8
A_RUNDUNGEN
100
AcDbCircle
 62
8
  6
HIDDEN
 10
47.7052882849
 20
53.7075800549
 40
0.25
100
AcDbArc
 50
180.0
 51
269.0
  0
ARC
  5
394
100
AcDbEntity
  8
A_RUNDUNGEN
100
AcDbCircle
 62
8
  6
HIDDEN
 10
47.4552882849
 20
56.5841926355
 40
0.25
100
AcDbArc
 50
135.25
 51
180.0
  0
ARC
  5
395
100
AcDbEntity
  8
A_RUNDUNGEN
100
AcDbCircle
 62
8
  6
HIDDEN
 10
47.8103619342
 20
56.9423784862
 40
0.25
100
AcDbArc
 50
90.5
 51
135.2500000171
  0
ARC
  5
396
100
AcDbEntity
  8
A_RUNDUNGEN
100
AcDbCircle
 62
8
  6
HIDDEN
 10
47.2052882849
 20
54.1604132975
 40
0.25
100
AcDbArc
 50
0.0
 51
60.0
  0
ARC
  5
397
100
AcDbEntity
  8
A_RUNDUNGEN
100
AcDbCircle
 62
8
  6
HIDDEN
 10
115.8710971741
 20
43.7846727816
 40
66.6658166068
100
AcDbArc
 50
180.0275693117
 51
180.1829780698
  0
SPLINE
  5
398
100
AcDbEntity
  8
DEFAULT_2
100
AcDbSpline
 62
8
  6
HIDDEN
 70
0
 71
3
 72
13
 73
9
 74
0
 42
0.0000001
 43
0.0000001
 44
0.0000000001
 40
0.0
 40
0.0
 40
0.0
 40
0.0
 40
0.250768581
 40
0.375490064
 40
0.5000012175
 40
0.6245129445
 40
0.7492343186
 40
1.0
 40
1.0
 40
1.0
 40
1.0
 10
64.3251408781
 20
47.1691523122
 30
0.0
 10
64.2038435105
 20
47.1287198563
 30
0.0
 10
64.0184537722
 20
47.0777388256
 30
0.0
 10
63.7657838911
 20
47.0414955565
 30
0.0
 10
63.5751387368
 20
47.0325905458
 30
0.0
 10
63.3844943369
 20
47.0415017151
 30
0.0
 10
63.1318243605
 20
47.0777352032
 30
0.0
 10
62.9464368432
 20
47.1287203238
 30
0.0
 10
62.8251408781
 20
47.1691523122
 30
0.0
  0
SPLINE
  5
399
100
AcDbEntity
  8
DEFAULT_2
100
AcDbSpline
 62
8
  6
HIDDEN
 70
0
 71
3
 72
13
 73
9
 74
0
 42
0.0000001
 43
0.0000001
 44
0.0000000001
 40
0.0
 40
0.0
 40
0.0
 40
0.0
 40
0.250768581
 40
0.375490064
 40
0.5000012175
 40
0.6245129445
 40
0.7492343186
 40
1.0
 40
1.0
 40
1.0
 40
1.0
 10
62.8251408781
 20
47.1691523122
 30
0.0
 10
62.7038435105
 20
47.1287198563
 30
0.0
 10
62.5184537722
 20
47.0777388256
 30
0.0
 10
62.2657838911
 20
47.0414955565
 30
0.0
 10
62.0751387368
 20
47.0325905458
 30
0.0
 10
61.8844943369
 20
47.0415017151
 30
0.0
 10
61.6318243605
 20
47.0777352032
 30
0.0
 10
61.4464368432
 20
47.1287203238
 30
0.0
 10
61.3251408781
 20
47.1691523122
 30
0.0
  0
SPLINE
  5
39A
100
AcDbEntity
  8
DEFAULT_2
100
AcDbSpline
 62
8
  6
HIDDEN
 70
0
 71
3
 72
11
 73
7
 74
0
 42
0.0000001
 43
0.0000001
 44
0.0000000001
 40
0.0
 40
0.0
 40
0.0
 40
0.0
 40
0.25111694
 40
0.5
 40
0.74888306
 40
1.0
 40
1.0
 40
1.0
 40
1.0
 10
64.3251408781
 20
50.1021650141
 30
0.0
 10
64.2060768864
 20
50.053557343
 30
0.0
 10
63.9591805702
 20
49.9789779253
 30
0.0
 10
63.5751408781
 20
49.9409033785
 30
0.0
 10
63.191101186
 20
49.9789779253
 30
0.0
 10
62.9442048698
 20
50.053557343
 30
0.0
 10
62.8251408781
 20
50.1021650141
 30
0.0
  0
SPLINE
  5
39B
100
AcDbEntity
  8
DEFAULT_2
100
AcDbSpline
 62
8
  6
HIDDEN
 70
0
 71
3
 72
11
 73
7
 74
0
 42
0.0000001
 43
0.0000001
 44
0.0000000001
 40
0.0
 40
0.0
 40
0.0
 40
0.0
 40
0.25111694
 40
0.5
 40
0.74888306
 40
1.0
 40
1.0
 40
1.0
 40
1.0
 10
62.8251408781
 20
50.1021650141
 30
0.0
 10
62.7060768864
 20
50.053557343
 30
0.0
 10
62.4591805702
 20
49.9789779253
 30
0.0
 10
62.0751408781
 20
49.9409033785
 30
0.0
 10
61.691101186
 20
49.9789779253
 30
0.0
 10
61.4442048698
 20
50.053557343
 30
0.0
 10
61.3251408781
 20
50.1021650141
 30
0.0
  0
SPLINE
  5
39C
100
AcDbEntity
  8
A_RUNDUNGEN
100
AcDbSpline
 62
8
  6
HIDDEN
 70
0
 71
3
 72
9
 73
5
 74
0
 42
0.0000001
 43
0.0000001
 44
0.0000000001
 40
0.0
 40
0.0
 40
0.0
 40
0.0
 40
0.4999994613
 40
1.0
 40
1.0
 40
1.0
 40
1.0
 10
49.2052882849
 20
42.868231754
 30
0.0
 10
49.2052882845
 20
43.0156256748
 30
0.0
 10
49.2068564182
 20
43.3104131387
 30
0.0
 10
49.2052883032
 20
43.6052006027
 30
0.0
 10
49.2052882849
 20
43.752594841
 30
0.0
  0
SPLINE
  5
39D
100
AcDbEntity
  8
A_RUNDUNGEN
100
AcDbSpline
 62
8
  6
HIDDEN
 70
0
 71
3
 72
10
 73
6
 74
0
 42
0.0000001
 43
0.0000001
 44
0.0000000001
 40
0.0
 40
0.0
 40
0.0
 40
0.0
 40
0.1059553304
 40
0.3549570686
 40
1.0
 40
1.0
 40
1.0
 40
1.0
 10
36.0052882849
 20
30.4371155814
 30
0.0
 10
36.0226290168
 20
30.4549064898
 30
0.0
 10
36.0809864111
 20
30.5142449343
 30
0.0
 10
36.2471197605
 20
30.6797057453
 30
0.0
 10
36.3954466329
 20
30.8278324525
 30
0.0
 10
36.502670303
 20
30.9344976352
 30
0.0
  0
ENDSEC
  0
SECTION
  2
OBJECTS
  0
DICTIONARY
  5
39E
100
AcDbDictionary
  3
ACAD_GROUP
350
39F
  3
ACAD_MLINESTYLE
350
3A0
  0
DICTIONARY
  5
39F
102
{ACAD_REACTORS
330
39E
102
}
100
AcDbDictionary
  0
DICTIONARY
  5
3A0
102
{ACAD_REACTORS
330
39E
102
}
100
AcDbDictionary
  3
STANDARD
350
3A1
  0
MLINESTYLE
  5
3A1
102
{ACAD_REACTORS
330
3A0
102
}
100
AcDbMlineStyle
  2
STANDARD
 70
0
  3

 62
256
 51
90.0
 52
90.0
 71
2
 49
0.5
 62
256
  6
BYLAYER
 49
-0.5
 62
256
  6
BYLAYER
  0
ENDSEC
  0
EOF
