999
DXF file: d:\tmp\workingDir\0000102132\5_401740_0_00000_mkt_q_01_01.dxf
999
Pro/ENGINEER 2016380 by Parametric Technology Corporation
  0
SECTION
  2
HEADER
  9
$ACADVER
  1
AC1014
  9
$DWGCODEPAGE
  3
ANSI_1252
  9
$EXTMAX
 10
150.114
 20
140.0
 30
0.0
  9
$EXTMIN
 10
0.0
 20
0.0
 30
0.0
  9
$LIMMIN
 10
0.0
 20
0.0
  9
$LIMMAX
 10
150.114
 20
140.0
  9
$VIEWCTR
 10
75.057
 20
70.0
  9
$VIEWSIZE
 40
140.0
  9
$CLAYER
  8
0
  9
$LTSCALE
 40
9.1259259259
  9
$CELTYPE
  6
BYLAYER
  9
$DIMSCALE
 40
1.0
  9
$DIMASZ
 40
3.5
  9
$DIMEXO
 40
0.0
  9
$DIMDLI
 40
6.3051851852
  9
$DIMEXE
 40
2.0
  9
$DIMCEN
 40
1.4933333333
  9
$DIMLFAC
 40
1.0
  9
$DIMBLK
  1
_ARROW_FILLED
  9
$DIMALT
 70
0
  9
$DIMALTF
 40
25.4
  9
$DIMTXT
 40
3.5
  9
$DIMTOL
 70
1
  9
$DIMLIM
 70
0
  9
$DIMTFAC
 40
1.0
  9
$DIMTP
 40
0.01
  9
$DIMTM
 40
0.01
  9
$DIMGAP
 40
0.625
  9
$AUNITS
 70
0
  9
$PDMODE
 70
0
  9
$PDSIZE
 40
0.04
  9
$HANDSEED
  5
50A
  9
$TILEMODE
 70
1
  9
$MEASUREMENT
 70
1
  0
ENDSEC
  0
SECTION
  2
CLASSES
  0
ENDSEC
  0
SECTION
  2
TABLES
  0
TABLE
  2
VPORT
  5
8
100
AcDbSymbolTable
 70
2
  0
VPORT
  5
1F4
100
AcDbSymbolTableRecord
100
AcDbViewportTableRecord
  2
*ACTIVE
 70
0
 10
0.0
 20
0.0
 11
1.0
 21
1.0
 12
75.057
 22
70.0
 13
0.0
 23
0.0
 14
1.0
 24
1.0
 15
0.0
 25
0.0
 16
0.0
 26
0.0
 36
1.0
 17
0.0
 27
0.0
 37
0.0
 40
140.0
 41
1.0722428571
 42
50.0
 43
0.0
 44
0.0
 50
0.0
 51
0.0
 71
0
 72
100
 73
1
 74
1
 75
0
 76
0
 77
0
 78
0
  0
ENDTAB
  0
TABLE
  2
LTYPE
  5
5
100
AcDbSymbolTable
 70
6
  0
LTYPE
  5
14
100
AcDbSymbolTableRecord
100
AcDbLinetypeTableRecord
  2
BYBLOCK
 70
0
  3

 72
65
 73
0
 40
0.0
  0
LTYPE
  5
15
100
AcDbSymbolTableRecord
100
AcDbLinetypeTableRecord
  2
BYLAYER
 70
0
  3

 72
65
 73
0
 40
0.0
  0
LTYPE
  5
16
100
AcDbSymbolTableRecord
100
AcDbLinetypeTableRecord
  2
CONTINUOUS
 70
64
  3
Solid line
 72
65
 73
0
 40
0.0
  0
LTYPE
  5
1F5
100
AcDbSymbolTableRecord
100
AcDbLinetypeTableRecord
  2
CENTER
 70
64
  3
____ _ ____ _ ____ _ ____ _ ____ _ ____ _ ____
 72
65
 73
4
 40
0.6
 49
0.375
 74
0
 49
-0.075
 74
0
 49
0.075
 74
0
 49
-0.075
 74
0
  0
LTYPE
  5
1F6
100
AcDbSymbolTableRecord
100
AcDbLinetypeTableRecord
  2
HIDDEN
 70
64
  3
- - - - - - - - - - - - - - - - - - - -
 72
65
 73
2
 40
0.2
 49
0.1
 74
0
 49
-0.1
 74
0
  0
LTYPE
  5
1F7
100
AcDbSymbolTableRecord
100
AcDbLinetypeTableRecord
  2
PHANTOM
 70
64
  3
_____ _ _ _____ _ _ _____ _ _ _____
 72
65
 73
6
 40
0.8
 49
0.45
 74
0
 49
-0.05
 74
0
 49
0.1
 74
0
 49
-0.05
 74
0
 49
0.1
 74
0
 49
-0.05
 74
0
  0
LTYPE
  5
1F8
100
AcDbSymbolTableRecord
100
AcDbLinetypeTableRecord
  2
DOT
 70
64
  3
. . . . . . . . . . . . . . . . . . . .
 72
65
 73
2
 40
0.2
 49
0.1
 74
0
 49
-0.1
 74
0
  0
LTYPE
  5
1F9
100
AcDbSymbolTableRecord
100
AcDbLinetypeTableRecord
  2
DASHED
 70
64
  3
- - - - - - - - - - - - - - - - - - - -
 72
65
 73
2
 40
0.2
 49
0.1
 74
0
 49
-0.1
 74
0
  0
ENDTAB
  0
TABLE
  2
LAYER
  5
2
100
AcDbSymbolTable
 70
36
  0
LAYER
  5
10
100
AcDbSymbolTableRecord
100
AcDbLayerTableRecord
  2
0
 70
0
 62
7
  6
CONTINUOUS
  0
LAYER
  5
1FA
100
AcDbSymbolTableRecord
100
AcDbLayerTableRecord
  2
DEFAULT_1
 70
0
 62
7
  6
CENTER
  0
LAYER
  5
1FB
100
AcDbSymbolTableRecord
100
AcDbLayerTableRecord
  2
DEFAULT_2
 70
0
 62
8
  6
HIDDEN
  0
LAYER
  5
1FC
100
AcDbSymbolTableRecord
100
AcDbLayerTableRecord
  2
DEFAULT_3
 70
0
 62
7
  6
PHANTOM
  0
LAYER
  5
1FD
100
AcDbSymbolTableRecord
100
AcDbLayerTableRecord
  2
A_ACHSEN
 70
0
 62
7
  6
CONTINUOUS
  0
LAYER
  5
1FE
100
AcDbSymbolTableRecord
100
AcDbLayerTableRecord
  2
A_BASISEBENEN
 70
0
 62
7
  6
CONTINUOUS
  0
LAYER
  5
1FF
100
AcDbSymbolTableRecord
100
AcDbLayerTableRecord
  2
A_BEMASSUNGEN
 70
0
 62
7
  6
CONTINUOUS
  0
LAYER
  5
200
100
AcDbSymbolTableRecord
100
AcDbLayerTableRecord
  2
A_BOHRUNGEN
 70
0
 62
7
  6
CONTINUOUS
  0
LAYER
  5
201
100
AcDbSymbolTableRecord
100
AcDbLayerTableRecord
  2
A_EBENEN
 70
0
 62
7
  6
CONTINUOUS
  0
LAYER
  5
202
100
AcDbSymbolTableRecord
100
AcDbLayerTableRecord
  2
A_FASEN
 70
0
 62
7
  6
CONTINUOUS
  0
LAYER
  5
203
100
AcDbSymbolTableRecord
100
AcDbLayerTableRecord
  2
A_FLAECHEN
 70
0
 62
7
  6
CONTINUOUS
  0
LAYER
  5
204
100
AcDbSymbolTableRecord
100
AcDbLayerTableRecord
  2
A_FL_VERBAENDE
 70
0
 62
7
  6
CONTINUOUS
  0
LAYER
  5
205
100
AcDbSymbolTableRecord
100
AcDbLayerTableRecord
  2
A_KURVEN
 70
0
 62
7
  6
CONTINUOUS
  0
LAYER
  5
206
100
AcDbSymbolTableRecord
100
AcDbLayerTableRecord
  2
A_NOTIZEN_SYMB
 70
0
 62
7
  6
CONTINUOUS
  0
LAYER
  5
207
100
AcDbSymbolTableRecord
100
AcDbLayerTableRecord
  2
A_PUNKTE
 70
0
 62
7
  6
CONTINUOUS
  0
LAYER
  5
208
100
AcDbSymbolTableRecord
100
AcDbLayerTableRecord
  2
A_RUNDUNGEN
 70
0
 62
7
  6
CONTINUOUS
  0
LAYER
  5
209
100
AcDbSymbolTableRecord
100
AcDbLayerTableRecord
  2
BASISEBENEN
 70
0
 62
7
  6
CONTINUOUS
  0
LAYER
  5
20A
100
AcDbSymbolTableRecord
100
AcDbLayerTableRecord
  2
GRAVUR
 70
0
 62
7
  6
CONTINUOUS
  0
LAYER
  5
20B
100
AcDbSymbolTableRecord
100
AcDbLayerTableRecord
  2
LAY0001
 70
0
 62
7
  6
CONTINUOUS
  0
LAYER
  5
20C
100
AcDbSymbolTableRecord
100
AcDbLayerTableRecord
  2
SCHRIFTZUG_DREHMOMENT
 70
0
 62
7
  6
CONTINUOUS
  0
LAYER
  5
20D
100
AcDbSymbolTableRecord
100
AcDbLayerTableRecord
  2
XSEC_DATUMS
 70
0
 62
7
  6
CONTINUOUS
  0
ENDTAB
  0
TABLE
  2
STYLE
  5
3
100
AcDbSymbolTable
 70
1
  0
STYLE
  5
11
100
AcDbSymbolTableRecord
100
AcDbTextStyleTableRecord
  2
STANDARD
 70
0
 40
0.0
 41
1.0
 50
0.0
 71
0
 42
0.2
  3
txt
  4

  0
STYLE
  5
20E
100
AcDbSymbolTableRecord
100
AcDbTextStyleTableRecord
  2
TEXTSTYLE_1
 70
0
 40
0.0
 41
0.8
 50
0.0
 71
0
 42
0.2
  3
gdt
  4

  0
STYLE
  5
20F
100
AcDbSymbolTableRecord
100
AcDbTextStyleTableRecord
  2
TEXTSTYLE_2
 70
0
 40
0.0
 41
1.0
 50
0.0
 71
0
 42
0.2
  3
txt
  4

  0
ENDTAB
  0
TABLE
  2
VIEW
  5
6
100
AcDbSymbolTable
 70
0
  0
ENDTAB
  0
TABLE
  2
UCS
  5
7
100
AcDbSymbolTable
 70
0
  0
ENDTAB
  0
TABLE
  2
APPID
  5
9
100
AcDbSymbolTable
 70
1
  0
APPID
  5
210
100
AcDbSymbolTableRecord
100
AcDbRegAppTableRecord
  2
ACAD
 70
0
  0
ENDTAB
  0
TABLE
  2
BLOCK_RECORD
  5
1
100
AcDbSymbolTable
 70
0
  0
BLOCK_RECORD
  5
1F
100
AcDbSymbolTableRecord
100
AcDbBlockTableRecord
  2
*MODEL_SPACE
  0
BLOCK_RECORD
  5
1B
100
AcDbSymbolTableRecord
100
AcDbBlockTableRecord
  2
*PAPER_SPACE
  0
BLOCK_RECORD
  5
211
100
AcDbSymbolTableRecord
100
AcDbBlockTableRecord
  2
_ARROW_FILLED
  0
BLOCK_RECORD
  5
212
100
AcDbSymbolTableRecord
100
AcDbBlockTableRecord
  2
*D0
  0
BLOCK_RECORD
  5
213
100
AcDbSymbolTableRecord
100
AcDbBlockTableRecord
  2
*D1
  0
BLOCK_RECORD
  5
214
100
AcDbSymbolTableRecord
100
AcDbBlockTableRecord
  2
*D2
  0
BLOCK_RECORD
  5
215
100
AcDbSymbolTableRecord
100
AcDbBlockTableRecord
  2
*D3
  0
BLOCK_RECORD
  5
216
100
AcDbSymbolTableRecord
100
AcDbBlockTableRecord
  2
*D4
  0
ENDTAB
  0
TABLE
  2
DIMSTYLE
  5
A
100
AcDbSymbolTable
 70
1
  0
DIMSTYLE
105
217
100
AcDbSymbolTableRecord
100
AcDbDimStyleTableRecord
  2
STANDARD
 70
0
  3

  4

  5
_ARROW_FILLED
  6
_ARROW_FILLED
  7
_ARROW_FILLED
 40
1.0
 41
3.5
 42
0.0
 43
0.38
 44
2.0
 45
0.0
 46
0.0
 47
0.01
 48
0.01
140
3.5
141
0.09
142
0.0
143
25.4
144
1.0
145
0.0
146
1.0
147
0.625
 71
1.0
 72
0.0
 73
0
 74
0
 75
0
 76
0
 77
1
 78
8
170
0
171
1
172
0
173
0
174
0
175
0
176
0
177
0
178
5
270
2
271
2
272
2
273
2
274
2
275
0
280
0
281
0
282
0
283
1
284
8
285
0
286
0
287
3
288
0
340
11
  0
DIMSTYLE
105
218
100
AcDbSymbolTableRecord
100
AcDbDimStyleTableRecord
  2
DIMSTYLE_1
 70
0
  3

  4

  5
_ARROW_FILLED
  6
_ARROW_FILLED
  7
_ARROW_FILLED
 40
1.0
 41
3.5
 42
0.0
 43
0.38
 44
2.0
 45
0.0
 46
0.0
 47
0.1
 48
0.1
140
3.5
141
0.09
142
0.0
143
25.4
144
1.0
145
0.0
146
1.0
147
0.875
 71
0.0
 72
0.0
 73
0
 74
0
 75
0
 76
0
 77
1
 78
8
170
0
171
1
172
0
173
0
174
0
175
0
176
0
177
0
178
5
270
2
271
0
272
-1
273
2
274
2
275
0
280
0
281
0
282
0
283
1
284
8
285
0
286
0
287
3
288
0
340
20F
  0
DIMSTYLE
105
219
100
AcDbSymbolTableRecord
100
AcDbDimStyleTableRecord
  2
DIMSTYLE_2
 70
0
  3

  4

  5
_ARROW_FILLED
  6
_ARROW_FILLED
  7
_ARROW_FILLED
 40
1.0
 41
3.5
 42
0.0
 43
0.38
 44
2.0
 45
0.0
 46
0.0
 47
0.2
 48
0.2
140
3.5
141
0.09
142
0.0
143
25.4
144
1.0
145
0.0
146
1.0
147
0.875
 71
0.0
 72
0.0
 73
0
 74
0
 75
0
 76
0
 77
1
 78
8
170
0
171
1
172
0
173
0
174
0
175
0
176
0
177
0
178
5
270
2
271
4
272
-1
273
2
274
2
275
0
280
0
281
0
282
0
283
1
284
8
285
0
286
0
287
3
288
0
340
20F
  0
DIMSTYLE
105
21A
100
AcDbSymbolTableRecord
100
AcDbDimStyleTableRecord
  2
DIMSTYLE_3
 70
0
  3

  4

  5
_ARROW_FILLED
  6
_ARROW_FILLED
  7
_ARROW_FILLED
 40
1.0
 41
3.5
 42
0.0
 43
0.38
 44
2.0
 45
0.0
 46
0.0
 47
0.3
 48
0.3
140
3.5
141
0.09
142
0.0
143
25.4
144
1.0
145
0.0
146
1.0
147
0.875
 71
0.0
 72
0.0
 73
0
 74
0
 75
0
 76
0
 77
1
 78
8
170
0
171
1
172
0
173
0
174
0
175
0
176
0
177
0
178
5
270
2
271
4
272
-1
273
2
274
2
275
0
280
0
281
0
282
0
283
1
284
8
285
0
286
0
287
3
288
0
340
20F
  0
DIMSTYLE
105
21B
100
AcDbSymbolTableRecord
100
AcDbDimStyleTableRecord
  2
DIMSTYLE_4
 70
0
  3

  4

  5
_ARROW_FILLED
  6
_ARROW_FILLED
  7
_ARROW_FILLED
 40
1.0
 41
3.5
 42
0.0
 43
0.38
 44
2.0
 45
0.0
 46
0.0
 47
0.2
 48
0.2
140
3.5
141
0.09
142
0.0
143
25.4
144
1.0
145
0.0
146
1.0
147
0.875
 71
0.0
 72
0.0
 73
0
 74
0
 75
0
 76
0
 77
1
 78
8
170
0
171
1
172
0
173
0
174
0
175
0
176
0
177
0
178
5
270
2
271
0
272
-1
273
2
274
2
275
0
280
0
281
0
282
0
283
1
284
8
285
0
286
0
287
3
288
0
340
20F
  0
DIMSTYLE
105
21C
100
AcDbSymbolTableRecord
100
AcDbDimStyleTableRecord
  2
DIMSTYLE_5
 70
0
  3

  4

  5
_ARROW_FILLED
  6
_ARROW_FILLED
  7
_ARROW_FILLED
 40
1.0
 41
3.5
 42
0.0
 43
0.38
 44
2.0
 45
0.0
 46
0.0
 47
0.1
 48
0.1
140
3.5
141
0.09
142
0.0
143
25.4
144
1.0
145
0.0
146
1.0
147
0.875
 71
0.0
 72
0.0
 73
0
 74
0
 75
0
 76
0
 77
1
 78
8
170
0
171
1
172
0
173
0
174
0
175
0
176
0
177
0
178
5
270
2
271
2
272
-1
273
2
274
2
275
0
280
0
281
0
282
0
283
1
284
8
285
0
286
0
287
3
288
0
340
20F
  0
ENDTAB
  0
ENDSEC
  0
SECTION
  2
BLOCKS
  0
BLOCK
  5
20
100
AcDbEntity
  8
0
100
AcDbBlockBegin
  2
*MODEL_SPACE
 70
0
 10
0.0
 20
0.0
 30
0.0
  3
*MODEL_SPACE
  1

  0
ENDBLK
  5
21
100
AcDbEntity
  8
0
100
AcDbBlockEnd
  0
BLOCK
  5
1C
100
AcDbEntity
  8
0
100
AcDbBlockBegin
  2
*PAPER_SPACE
 70
0
 10
0.0
 20
0.0
 30
0.0
  3
*PAPER_SPACE
  1

  0
ENDBLK
  5
1D
100
AcDbEntity
  8
0
100
AcDbBlockEnd
  0
BLOCK
  5
21D
100
AcDbEntity
  8
0
100
AcDbBlockBegin
  2
_ARROW_FILLED
 70
64
 10
0.0
 20
0.0
  3
_ARROW_FILLED
  1

  0
SOLID
  5
21E
100
AcDbEntity
  8
0
  6
BYBLOCK
 62
0
100
AcDbTrace
 10
0.0
 20
0.0
 11
-1.0
 21
0.1428571429
 12
-1.0
 22
-0.1428571429
 13
-1.0
 23
-0.1428571429
  0
ENDBLK
  5
21F
100
AcDbEntity
  8
0
  6
BYBLOCK
 62
0
100
AcDbBlockEnd
  0
BLOCK
  5
220
100
AcDbEntity
  8
A_BEMASSUNGEN
100
AcDbBlockBegin
 62
2
  6
CONTINUOUS
  2
*D0
 70
65
 10
0.0
 20
0.0
  3
*D0
  1

  0
MTEXT
  5
221
100
AcDbEntity
  8
A_BEMASSUNGEN
100
AcDbMText
 62
5
  6
CONTINUOUS
  7
TEXTSTYLE_2
 71
2
 72
1
 10
4.0776702605
 20
17.4505013052
 30
0.0
 11
0.0
 21
1.0
 31
0.0
  1
4
 40
3.5
 41
4.125
  0
LINE
  5
222
100
AcDbEntity
  8
A_BEMASSUNGEN
100
AcDbLine
 62
2
  6
CONTINUOUS
 10
16.4230469906
 20
15.4167744374
 11
6.4526702605
 21
15.4167744374
  0
LINE
  5
223
100
AcDbEntity
  8
A_BEMASSUNGEN
100
AcDbLine
 62
2
  6
CONTINUOUS
 10
51.4230469906
 20
19.484228173
 11
6.4526702605
 21
19.484228173
  0
LINE
  5
224
100
AcDbEntity
  8
A_BEMASSUNGEN
100
AcDbLine
 62
2
  6
CONTINUOUS
 10
8.4526702605
 20
15.4167744374
 11
8.4526702605
 21
7.9167744374
  0
LINE
  5
225
100
AcDbEntity
  8
A_BEMASSUNGEN
100
AcDbLine
 62
2
  6
CONTINUOUS
 10
8.4526702605
 20
7.9167744374
 11
8.4526702605
 21
17.4505013052
  0
LINE
  5
226
100
AcDbEntity
  8
A_BEMASSUNGEN
100
AcDbLine
 62
2
  6
CONTINUOUS
 10
8.4526702605
 20
19.484228173
 11
8.4526702605
 21
26.984228173
  0
LINE
  5
227
100
AcDbEntity
  8
A_BEMASSUNGEN
100
AcDbLine
 62
2
  6
CONTINUOUS
 10
8.4526702605
 20
26.984228173
 11
8.4526702605
 21
17.4505013052
  0
INSERT
  5
228
100
AcDbEntity
  8
A_BEMASSUNGEN
100
AcDbBlockReference
 62
2
  6
CONTINUOUS
  2
_ARROW_FILLED
 10
8.4526702605
 20
15.4167744374
 41
3.5
 42
3.5
 43
3.5
 50
90.0
  0
INSERT
  5
229
100
AcDbEntity
  8
A_BEMASSUNGEN
100
AcDbBlockReference
 62
2
  6
CONTINUOUS
  2
_ARROW_FILLED
 10
8.4526702605
 20
19.484228173
 41
3.5
 42
3.5
 43
3.5
 50
270.0
  0
ENDBLK
  5
22A
100
AcDbEntity
  8
0
  6
BYBLOCK
 62
0
100
AcDbBlockEnd
  0
BLOCK
  5
22B
100
AcDbEntity
  8
A_BEMASSUNGEN
100
AcDbBlockBegin
 62
2
  6
CONTINUOUS
  2
*D1
 70
65
 10
0.0
 20
0.0
  3
*D1
  1

  0
MTEXT
  5
22C
100
AcDbEntity
  8
A_BEMASSUNGEN
100
AcDbMText
 62
5
  6
CONTINUOUS
  7
TEXTSTYLE_2
 71
1
 72
1
 10
142.0596785395
 20
30.8729931141
 30
0.0
 11
0.0
 21
1.0
 31
0.0
  1
8/10
 40
3.5
 41
15.25
  0
LINE
  5
22D
100
AcDbEntity
  8
A_BEMASSUNGEN
100
AcDbLine
 62
2
  6
CONTINUOUS
 10
137.9229342352
 20
26.8085337888
 11
148.4346785395
 21
26.8085337888
  0
LINE
  5
22E
100
AcDbEntity
  8
A_BEMASSUNGEN
100
AcDbLine
 62
2
  6
CONTINUOUS
 10
137.9229342352
 20
18.8085337888
 11
148.4346785395
 21
18.8085337888
  0
LINE
  5
22F
100
AcDbEntity
  8
A_BEMASSUNGEN
100
AcDbLine
 62
2
  6
CONTINUOUS
 10
146.4346785395
 20
26.8085337888
 11
146.4346785395
 21
41.0396597807
  0
LINE
  5
230
100
AcDbEntity
  8
A_BEMASSUNGEN
100
AcDbLine
 62
2
  6
CONTINUOUS
 10
146.4346785395
 20
41.0396597807
 11
146.4346785395
 21
22.8085337888
  0
LINE
  5
231
100
AcDbEntity
  8
A_BEMASSUNGEN
100
AcDbLine
 62
2
  6
CONTINUOUS
 10
146.4346785395
 20
18.8085337888
 11
146.4346785395
 21
11.3085337888
  0
LINE
  5
232
100
AcDbEntity
  8
A_BEMASSUNGEN
100
AcDbLine
 62
2
  6
CONTINUOUS
 10
146.4346785395
 20
11.3085337888
 11
146.4346785395
 21
22.8085337888
  0
INSERT
  5
233
100
AcDbEntity
  8
A_BEMASSUNGEN
100
AcDbBlockReference
 62
2
  6
CONTINUOUS
  2
_ARROW_FILLED
 10
146.4346785395
 20
26.8085337888
 41
3.5
 42
3.5
 43
3.5
 50
270.0
  0
INSERT
  5
234
100
AcDbEntity
  8
A_BEMASSUNGEN
100
AcDbBlockReference
 62
2
  6
CONTINUOUS
  2
_ARROW_FILLED
 10
146.4346785395
 20
18.8085337888
 41
3.5
 42
3.5
 43
3.5
 50
90.0
  0
ENDBLK
  5
235
100
AcDbEntity
  8
0
  6
BYBLOCK
 62
0
100
AcDbBlockEnd
  0
BLOCK
  5
236
100
AcDbEntity
  8
A_BEMASSUNGEN
100
AcDbBlockBegin
 62
2
  6
CONTINUOUS
  2
*D2
 70
65
 10
0.0
 20
0.0
  3
*D2
  1

  0
MTEXT
  5
237
100
AcDbEntity
  8
A_BEMASSUNGEN
100
AcDbMText
 62
5
  6
CONTINUOUS
  7
TEXTSTYLE_2
 71
2
 72
1
 10
42.5730469906
 20
65.1115290168
 30
0.0
 11
1.0
 21
0.0
 31
0.0
  1
51.7
 40
3.5
 41
13.875
  0
LINE
  5
238
100
AcDbEntity
  8
A_BEMASSUNGEN
100
AcDbLine
 62
2
  6
CONTINUOUS
 10
16.7230469906
 20
47.9167744374
 11
16.7230469906
 21
62.7365290168
  0
LINE
  5
239
100
AcDbEntity
  8
A_BEMASSUNGEN
100
AcDbLine
 62
2
  6
CONTINUOUS
 10
68.4230469906
 20
60.7365290168
 11
42.5730469906
 21
60.7365290168
  0
LINE
  5
23A
100
AcDbEntity
  8
A_BEMASSUNGEN
100
AcDbLine
 62
2
  6
CONTINUOUS
 10
16.7230469906
 20
60.7365290168
 11
42.5730469906
 21
60.7365290168
  0
INSERT
  5
23B
100
AcDbEntity
  8
A_BEMASSUNGEN
100
AcDbBlockReference
 62
2
  6
CONTINUOUS
  2
_ARROW_FILLED
 10
68.4230469906
 20
60.7365290168
 41
3.5
 42
3.5
 43
3.5
  0
INSERT
  5
23C
100
AcDbEntity
  8
A_BEMASSUNGEN
100
AcDbBlockReference
 62
2
  6
CONTINUOUS
  2
_ARROW_FILLED
 10
16.7230469906
 20
60.7365290168
 41
3.5
 42
3.5
 43
3.5
 50
180.0
  0
ENDBLK
  5
23D
100
AcDbEntity
  8
0
  6
BYBLOCK
 62
0
100
AcDbBlockEnd
  0
BLOCK
  5
23E
100
AcDbEntity
  8
A_BEMASSUNGEN
100
AcDbBlockBegin
 62
2
  6
CONTINUOUS
  2
*D3
 70
65
 10
0.0
 20
0.0
  3
*D3
  1

  0
MTEXT
  5
23F
100
AcDbEntity
  8
A_BEMASSUNGEN
100
AcDbMText
 62
5
  6
CONTINUOUS
  7
TEXTSTYLE_2
 71
2
 72
1
 10
4.0776702605
 20
33.2749628358
 30
0.0
 11
0.0
 21
1.0
 31
0.0
  1
28
 40
3.5
 41
8.25
  0
LINE
  5
240
100
AcDbEntity
  8
A_BEMASSUNGEN
100
AcDbLine
 62
2
  6
CONTINUOUS
 10
51.4230469906
 20
19.484228173
 11
6.4526702605
 21
19.484228173
  0
LINE
  5
241
100
AcDbEntity
  8
A_BEMASSUNGEN
100
AcDbLine
 62
2
  6
CONTINUOUS
 10
18.9230469906
 20
47.0656974986
 11
6.4526702605
 21
47.0656974986
  0
LINE
  5
242
100
AcDbEntity
  8
A_BEMASSUNGEN
100
AcDbLine
 62
2
  6
CONTINUOUS
 10
8.4526702605
 20
19.484228173
 11
8.4526702605
 21
33.2749628358
  0
LINE
  5
243
100
AcDbEntity
  8
A_BEMASSUNGEN
100
AcDbLine
 62
2
  6
CONTINUOUS
 10
8.4526702605
 20
47.0656974986
 11
8.4526702605
 21
33.2749628358
  0
INSERT
  5
244
100
AcDbEntity
  8
A_BEMASSUNGEN
100
AcDbBlockReference
 62
2
  6
CONTINUOUS
  2
_ARROW_FILLED
 10
8.4526702605
 20
19.484228173
 41
3.5
 42
3.5
 43
3.5
 50
270.0
  0
INSERT
  5
245
100
AcDbEntity
  8
A_BEMASSUNGEN
100
AcDbBlockReference
 62
2
  6
CONTINUOUS
  2
_ARROW_FILLED
 10
8.4526702605
 20
47.0656974986
 41
3.5
 42
3.5
 43
3.5
 50
90.0
  0
ENDBLK
  5
246
100
AcDbEntity
  8
0
  6
BYBLOCK
 62
0
100
AcDbBlockEnd
  0
BLOCK
  5
247
100
AcDbEntity
  8
A_BEMASSUNGEN
100
AcDbBlockBegin
 62
2
  6
CONTINUOUS
  2
*D4
 70
65
 10
0.0
 20
0.0
  3
*D4
  1

  0
MTEXT
  5
248
100
AcDbEntity
  8
A_BEMASSUNGEN
100
AcDbMText
 62
5
  6
CONTINUOUS
  7
TEXTSTYLE_2
 71
1
 72
1
 10
61.2056693896
 20
8.9170196052
 30
0.0
 11
1.0
 21
0.0
 31
0.0
  1
3.5
 40
3.5
 41
10.5
  0
LINE
  5
249
100
AcDbEntity
  8
A_BEMASSUNGEN
100
AcDbLine
 62
2
  6
CONTINUOUS
 10
54.9230469906
 20
18.4167744374
 11
54.9230469906
 21
2.5420196052
  0
LINE
  5
24A
100
AcDbEntity
  8
A_BEMASSUNGEN
100
AcDbLine
 62
2
  6
CONTINUOUS
 10
58.4229342352
 20
19.3085337888
 11
58.4229342352
 21
2.5420196052
  0
LINE
  5
24B
100
AcDbEntity
  8
A_BEMASSUNGEN
100
AcDbLine
 62
2
  6
CONTINUOUS
 10
54.9230469906
 20
4.5420196052
 11
47.4230469906
 21
4.5420196052
  0
LINE
  5
24C
100
AcDbEntity
  8
A_BEMASSUNGEN
100
AcDbLine
 62
2
  6
CONTINUOUS
 10
47.4230469906
 20
4.5420196052
 11
56.6729906129
 21
4.5420196052
  0
LINE
  5
24D
100
AcDbEntity
  8
A_BEMASSUNGEN
100
AcDbLine
 62
2
  6
CONTINUOUS
 10
58.4229342352
 20
4.5420196052
 11
68.2056693896
 21
4.5420196052
  0
LINE
  5
24E
100
AcDbEntity
  8
A_BEMASSUNGEN
100
AcDbLine
 62
2
  6
CONTINUOUS
 10
68.2056693896
 20
4.5420196052
 11
56.6729906129
 21
4.5420196052
  0
INSERT
  5
24F
100
AcDbEntity
  8
A_BEMASSUNGEN
100
AcDbBlockReference
 62
2
  6
CONTINUOUS
  2
_ARROW_FILLED
 10
54.9230469906
 20
4.5420196052
 41
3.5
 42
3.5
 43
3.5
 50
360.0
  0
INSERT
  5
250
100
AcDbEntity
  8
A_BEMASSUNGEN
100
AcDbBlockReference
 62
2
  6
CONTINUOUS
  2
_ARROW_FILLED
 10
58.4229342352
 20
4.5420196052
 41
3.5
 42
3.5
 43
3.5
 50
180.0
  0
ENDBLK
  5
251
100
AcDbEntity
  8
0
  6
BYBLOCK
 62
0
100
AcDbBlockEnd
  0
ENDSEC
  0
SECTION
  2
ENTITIES
  0
DIMENSION
  5
252
100
AcDbEntity
  8
A_BEMASSUNGEN
100
AcDbDimension
 62
2
  6
CONTINUOUS
  2
*D0
 10
8.4526702605
 20
19.484228173
 11
8.4526702605
 21
16.9505007134
 70
160
  3
DIMSTYLE_1
100
AcDbAlignedDimension
 13
16.4230469906
 23
15.4167744374
 14
51.4230469906
 24
19.484228173
 50
90.0
100
AcDbRotatedDimension
  0
DIMENSION
  5
253
100
AcDbEntity
  8
A_BEMASSUNGEN
100
AcDbDimension
 62
2
  6
CONTINUOUS
  2
*D1
 10
146.4346785395
 20
18.8085337888
 11
146.4346785395
 21
35.9563264474
 70
160
  1
<>/10
  3
DIMSTYLE_2
100
AcDbAlignedDimension
 13
137.9229342352
 23
26.8085337888
 14
137.9229342352
 24
18.8085337888
 50
270.0
100
AcDbRotatedDimension
  0
DIMENSION
  5
254
100
AcDbEntity
  8
A_BEMASSUNGEN
100
AcDbDimension
 62
2
  6
CONTINUOUS
  2
*D2
 10
16.7230469906
 20
60.7365290168
 11
42.073047092
 21
60.7365290168
 70
160
  3
DIMSTYLE_3
100
AcDbAlignedDimension
 13
68.4230469906
 23
132.4167744374
 14
16.7230469906
 24
47.9167744374
 50
180.0
100
AcDbRotatedDimension
  0
DIMENSION
  5
255
100
AcDbEntity
  8
A_BEMASSUNGEN
100
AcDbDimension
 62
2
  6
CONTINUOUS
  2
*D3
 10
8.4526702605
 20
47.0656974986
 11
8.4526702605
 21
32.7749623345
 70
160
  3
DIMSTYLE_4
100
AcDbAlignedDimension
 13
51.4230469906
 23
19.484228173
 14
18.9230469906
 24
47.0656974986
 50
90.0
100
AcDbRotatedDimension
  0
DIMENSION
  5
256
100
AcDbEntity
  8
A_BEMASSUNGEN
100
AcDbDimension
 62
2
  6
CONTINUOUS
  2
*D4
 10
58.4229342352
 20
4.5420196052
 11
64.2056682581
 21
4.5420196052
 70
160
  3
DIMSTYLE_5
100
AcDbAlignedDimension
 13
54.9230469906
 23
18.4167744374
 14
58.4229342352
 24
19.3085337888
100
AcDbRotatedDimension
  0
LINE
  5
257
100
AcDbEntity
  8
DEFAULT_2
100
AcDbLine
 62
8
  6
HIDDEN
 10
23.8159402094
 20
16.9167744374
 11
21.9230469906
 21
18.8096676562
  0
LINE
  5
258
100
AcDbEntity
  8
DEFAULT_2
100
AcDbLine
 62
8
  6
HIDDEN
 10
24.2301537718
 20
17.9167744374
 11
22.9230469906
 21
19.2238812186
  0
LINE
  5
259
100
AcDbEntity
  8
A_RUNDUNGEN
100
AcDbLine
 62
8
  6
HIDDEN
 10
19.0679543028
 20
20.1216739592
 11
19.3071021023
 21
19.880430042
  0
LINE
  5
25A
100
AcDbEntity
  8
A_RUNDUNGEN
100
AcDbLine
 62
8
  6
HIDDEN
 10
19.0633770904
 20
28.7585348576
 11
19.3396335661
 21
28.4724629027
  0
LINE
  5
25B
100
AcDbEntity
  8
A_RUNDUNGEN
100
AcDbLine
 62
7
  6
CONTINUOUS
 10
40.6199224252
 20
14.4881382166
 11
39.7667403034
 21
14.7611564956
  0
LINE
  5
25C
100
AcDbEntity
  8
A_RUNDUNGEN
100
AcDbLine
 62
8
  6
HIDDEN
 10
19.0694936
 20
36.095327828
 11
19.2766003812
 21
35.8882210468
  0
LINE
  5
25D
100
AcDbEntity
  8
0
100
AcDbLine
 62
7
  6
CONTINUOUS
 10
13.4230469906
 20
21.4167744374
 11
13.4230469906
 21
18.4167744374
  0
LINE
  5
25E
100
AcDbEntity
  8
0
100
AcDbLine
 62
7
  6
CONTINUOUS
 10
14.9230469906
 20
18.4167744374
 11
14.9230469906
 21
21.4167744374
  0
LINE
  5
25F
100
AcDbEntity
  8
0
100
AcDbLine
 62
3
  6
CONTINUOUS
 10
16.7230469906
 20
20.2167744374
 11
16.7230469906
 21
47.9167744374
  0
LINE
  5
260
100
AcDbEntity
  8
DEFAULT_2
100
AcDbLine
 62
8
  6
HIDDEN
 10
17.7230469906
 20
47.9167744374
 11
17.7230469906
 21
20.2167744374
  0
LINE
  5
261
100
AcDbEntity
  8
A_RUNDUNGEN
100
AcDbLine
 62
7
  6
CONTINUOUS
 10
65.7929342352
 20
12.2085337888
 11
48.7929342352
 21
12.2085337888
  0
LINE
  5
262
100
AcDbEntity
  8
A_ACHSEN
100
AcDbLine
 62
8
  6
HIDDEN
 10
56.2929342352
 20
14.2085337888
 11
49.7929342352
 21
14.2085337888
  0
LINE
  5
263
100
AcDbEntity
  8
A_RUNDUNGEN
100
AcDbLine
 62
7
  6
CONTINUOUS
 10
67.7929342352
 20
14.2085337888
 11
46.7929342352
 21
14.2085337888
  0
LINE
  5
264
100
AcDbEntity
  8
DEFAULT_2
100
AcDbLine
 62
8
  6
HIDDEN
 10
49.7929342352
 20
14.2085337888
 11
56.2929342352
 21
14.2085337888
  0
LINE
  5
265
100
AcDbEntity
  8
A_RUNDUNGEN
100
AcDbLine
 62
7
  6
CONTINUOUS
 10
54.5408487041
 20
14.4167744374
 11
41.0770860158
 21
14.4167744374
  0
LINE
  5
266
100
AcDbEntity
  8
0
100
AcDbLine
 62
7
  6
CONTINUOUS
 10
16.4230469906
 20
15.4167744374
 11
51.9230469906
 21
15.4167744374
  0
LINE
  5
267
100
AcDbEntity
  8
A_RUNDUNGEN
100
AcDbLine
 62
7
  6
CONTINUOUS
 10
51.9230469906
 20
15.4167744374
 11
54.5429342352
 21
15.4167744374
  0
LINE
  5
268
100
AcDbEntity
  8
A_FASEN
100
AcDbLine
 62
8
  6
HIDDEN
 10
33.8230469786
 20
30.5917744494
 11
33.3230469807
 21
31.0917744473
  0
LINE
  5
269
100
AcDbEntity
  8
A_RUNDUNGEN
100
AcDbLine
 62
8
  6
HIDDEN
 10
45.450574296
 20
19.6088055676
 11
45.0955006467
 21
19.9669914184
  0
LINE
  5
26A
100
AcDbEntity
  8
A_RUNDUNGEN
100
AcDbLine
 62
8
  6
HIDDEN
 10
22.9258715589
 20
18.1732553674
 11
22.9271112123
 21
18.1673849996
  0
LWPOLYLINE
  5
26B
100
AcDbEntity
  8
A_RUNDUNGEN
100
AcDbPolyline
 62
8
  6
HIDDEN
 90
3
 70
0
 10
22.9272055565
 20
18.1668977085
 10
22.9270819958
 20
18.1677142825
 10
22.9242092794
 20
18.1903011984
  0
LINE
  5
26C
100
AcDbEntity
  8
A_RUNDUNGEN
100
AcDbLine
 62
8
  6
HIDDEN
 10
22.9271112123
 20
18.1673849996
 11
22.9252890017
 21
18.1817934221
  0
LINE
  5
26D
100
AcDbEntity
  8
A_RUNDUNGEN
100
AcDbLine
 62
8
  6
HIDDEN
 10
22.9242024333
 20
18.190461328
 11
22.9230469897
 21
18.2167256176
  0
LINE
  5
26E
100
AcDbEntity
  8
A_BEMASSUNGEN
100
AcDbLine
 62
2
  6
CONTINUOUS
 10
18.9230469906
 20
47.0656974986
 11
18.9230469906
 21
46.28142571
  0
LINE
  5
26F
100
AcDbEntity
  8
DEFAULT_2
100
AcDbLine
 62
8
  6
HIDDEN
 10
18.9230469906
 20
35.9167744374
 11
18.9230469906
 21
30.9167744374
  0
LINE
  5
270
100
AcDbEntity
  8
DEFAULT_2
100
AcDbLine
 62
8
  6
HIDDEN
 10
18.9230469906
 20
26.4167744374
 11
18.9230469906
 21
21.4167744374
  0
LINE
  5
271
100
AcDbEntity
  8
A_RUNDUNGEN
100
AcDbLine
 62
8
  6
HIDDEN
 10
18.9230469906
 20
46.3598675534
 11
18.9230469906
 21
20.4736813215
  0
LINE
  5
272
100
AcDbEntity
  8
DEFAULT_2
100
AcDbLine
 62
8
  6
HIDDEN
 10
19.1230469906
 20
21.4167744374
 11
19.1230469906
 21
26.4167744374
  0
LINE
  5
273
100
AcDbEntity
  8
A_RUNDUNGEN
100
AcDbLine
 62
8
  6
HIDDEN
 10
19.8230469906
 20
45.6693856013
 11
19.8230469906
 21
21.1141632736
  0
LINE
  5
274
100
AcDbEntity
  8
0
100
AcDbLine
 62
3
  6
CONTINUOUS
 10
21.9230469906
 20
50.6167744374
 11
21.9230469906
 21
18.2167744374
  0
LINE
  5
275
100
AcDbEntity
  8
A_RUNDUNGEN
100
AcDbLine
 62
8
  6
HIDDEN
 10
21.9230469906
 20
50.6167744374
 11
21.9230469906
 21
18.2167744374
  0
LINE
  5
276
100
AcDbEntity
  8
DEFAULT_2
100
AcDbLine
 62
8
  6
HIDDEN
 10
22.0230469906
 20
46.9167744374
 11
22.0230469906
 21
44.4167744374
  0
LINE
  5
277
100
AcDbEntity
  8
DEFAULT_2
100
AcDbLine
 62
8
  6
HIDDEN
 10
22.0230469906
 20
43.5567744374
 11
22.0230469906
 21
41.8567744374
  0
LINE
  5
278
100
AcDbEntity
  8
DEFAULT_2
100
AcDbLine
 62
8
  6
HIDDEN
 10
22.0230469906
 20
41.5167744374
 11
22.0230469906
 21
40.9767744374
  0
LINE
  5
279
100
AcDbEntity
  8
DEFAULT_2
100
AcDbLine
 62
8
  6
HIDDEN
 10
22.0230469906
 20
40.5267744374
 11
22.0230469906
 21
38.1267744374
  0
LINE
  5
27A
100
AcDbEntity
  8
DEFAULT_2
100
AcDbLine
 62
8
  6
HIDDEN
 10
22.0230469906
 20
37.7567744374
 11
22.0230469906
 21
35.8567744374
  0
LINE
  5
27B
100
AcDbEntity
  8
DEFAULT_2
100
AcDbLine
 62
8
  6
HIDDEN
 10
22.0230469906
 20
35.5067744374
 11
22.0230469906
 21
33.4767744374
  0
LINE
  5
27C
100
AcDbEntity
  8
DEFAULT_2
100
AcDbLine
 62
8
  6
HIDDEN
 10
22.0230469906
 20
33.2267744374
 11
22.0230469906
 21
31.5267744374
  0
LINE
  5
27D
100
AcDbEntity
  8
DEFAULT_2
100
AcDbLine
 62
8
  6
HIDDEN
 10
22.0230469906
 20
31.3594974815
 11
22.0230469906
 21
27.9067744374
  0
LINE
  5
27E
100
AcDbEntity
  8
DEFAULT_2
100
AcDbLine
 62
8
  6
HIDDEN
 10
22.0230469906
 20
27.6467744374
 11
22.0230469906
 21
26.0967744374
  0
LINE
  5
27F
100
AcDbEntity
  8
DEFAULT_2
100
AcDbLine
 62
8
  6
HIDDEN
 10
22.0230469906
 20
25.7467744374
 11
22.0230469906
 21
23.6567744374
  0
LINE
  5
280
100
AcDbEntity
  8
DEFAULT_2
100
AcDbLine
 62
8
  6
HIDDEN
 10
22.0230469906
 20
23.5067744374
 11
22.0230469906
 21
22.9667744374
  0
LINE
  5
281
100
AcDbEntity
  8
DEFAULT_2
100
AcDbLine
 62
8
  6
HIDDEN
 10
22.0230469906
 20
22.8867744374
 11
22.0230469906
 21
21.53556653
  0
LINE
  5
282
100
AcDbEntity
  8
0
100
AcDbLine
 62
7
  6
CONTINUOUS
 10
22.9230469906
 20
50.6167744374
 11
22.9230469906
 21
50.3893049504
  0
LINE
  5
283
100
AcDbEntity
  8
A_RUNDUNGEN
100
AcDbLine
 62
8
  6
HIDDEN
 10
22.9230469906
 20
50.6167744374
 11
22.9230469906
 21
18.2167744374
  0
LINE
  5
284
100
AcDbEntity
  8
0
100
AcDbLine
 62
7
  6
CONTINUOUS
 10
22.9230469906
 20
18.4434625942
 11
22.9230469906
 21
18.2167744374
  0
LINE
  5
285
100
AcDbEntity
  8
DEFAULT_2
100
AcDbLine
 62
8
  6
HIDDEN
 10
22.9230469906
 20
18.4434625942
 11
22.9230469906
 21
50.3893049504
  0
LINE
  5
286
100
AcDbEntity
  8
0
100
AcDbLine
 62
7
  6
CONTINUOUS
 10
23.2230469906
 20
51.9167744374
 11
23.2230469906
 21
50.9167744374
  0
LINE
  5
287
100
AcDbEntity
  8
0
100
AcDbLine
 62
7
  6
CONTINUOUS
 10
23.2230469906
 20
16.9167744374
 11
23.2230469906
 21
17.9167744374
  0
LINE
  5
288
100
AcDbEntity
  8
0
100
AcDbLine
 62
7
  6
CONTINUOUS
 10
23.6022954454
 20
17.9167744374
 11
23.6022954454
 21
16.9167744374
  0
LINE
  5
289
100
AcDbEntity
  8
A_RUNDUNGEN
100
AcDbLine
 62
8
  6
HIDDEN
 10
22.9223760573
 20
49.608996723
 11
22.9227695766
 21
49.632481305
  0
LWPOLYLINE
  5
28A
100
AcDbEntity
  8
A_RUNDUNGEN
100
AcDbPolyline
 62
7
  6
CONTINUOUS
 90
3
 70
0
 10
54.5408344646
 20
14.4167744432
 10
54.5842452332
 20
14.4204015193
 10
54.6332533967
 20
14.4339339215
  0
LINE
  5
28B
100
AcDbEntity
  8
DEFAULT_2
100
AcDbLine
 62
8
  6
HIDDEN
 10
67.7929342352
 20
16.2085337888
 11
60.7929342352
 21
16.2085337888
  0
LINE
  5
28C
100
AcDbEntity
  8
A_RUNDUNGEN
100
AcDbLine
 62
7
  6
CONTINUOUS
 10
67.7929342352
 20
16.2085337888
 11
58.7929342352
 21
16.2085337888
  0
LINE
  5
28D
100
AcDbEntity
  8
A_ACHSEN
100
AcDbLine
 62
8
  6
HIDDEN
 10
56.2929342352
 20
16.2085337888
 11
49.7929342352
 21
16.2085337888
  0
LINE
  5
28E
100
AcDbEntity
  8
0
100
AcDbLine
 62
7
  6
CONTINUOUS
 10
51.9230469906
 20
16.9167744374
 11
16.4230469906
 21
16.9167744374
  0
LINE
  5
28F
100
AcDbEntity
  8
A_RUNDUNGEN
100
AcDbLine
 62
8
  6
HIDDEN
 10
23.6022954454
 20
16.9167744374
 11
41.4230469906
 21
16.9167744374
  0
LINE
  5
290
100
AcDbEntity
  8
DEFAULT_2
100
AcDbLine
 62
8
  6
HIDDEN
 10
24.2301537719
 20
17.9167744374
 11
23.6022954454
 21
17.9167744374
  0
LINE
  5
291
100
AcDbEntity
  8
0
100
AcDbLine
 62
7
  6
CONTINUOUS
 10
23.2230469906
 20
17.9167744374
 11
23.6022954454
 21
17.9167744374
  0
LINE
  5
292
100
AcDbEntity
  8
A_RUNDUNGEN
100
AcDbLine
 62
8
  6
HIDDEN
 10
23.6022954454
 20
17.9167744374
 11
26.9230469906
 21
17.9167744374
  0
LINE
  5
293
100
AcDbEntity
  8
A_RUNDUNGEN
100
AcDbLine
 62
8
  6
HIDDEN
 10
22.5159372061
 20
18.2167744374
 11
21.651423626
 21
18.2167744374
  0
LINE
  5
294
100
AcDbEntity
  8
A_RUNDUNGEN
100
AcDbLine
 62
3
  6
CONTINUOUS
 10
21.651423626
 20
18.2167744374
 11
18.7230469906
 21
18.2167744374
  0
LINE
  5
295
100
AcDbEntity
  8
0
100
AcDbLine
 62
7
  6
CONTINUOUS
 10
21.9230469906
 20
18.2167744374
 11
22.9230469906
 21
18.2167744374
  0
LINE
  5
296
100
AcDbEntity
  8
DEFAULT_2
100
AcDbLine
 62
8
  6
HIDDEN
 10
67.7929342352
 20
18.8085337888
 11
60.7929342352
 21
18.8085337888
  0
LINE
  5
297
100
AcDbEntity
  8
A_FASEN
100
AcDbLine
 62
7
  6
CONTINUOUS
 10
58.9229342352
 20
18.8085337888
 11
137.9229342352
 21
18.8085337888
  0
LINE
  5
298
100
AcDbEntity
  8
DEFAULT_2
100
AcDbLine
 62
8
  6
HIDDEN
 10
54.9828048553
 20
19.2085337888
 11
56.2929342352
 21
19.2085337888
  0
LINE
  5
299
100
AcDbEntity
  8
A_RUNDUNGEN
100
AcDbLine
 62
8
  6
HIDDEN
 10
18.7230469906
 20
19.2167744374
 11
22.9301527333
 21
19.2167744374
  0
LINE
  5
29A
100
AcDbEntity
  8
DEFAULT_2
100
AcDbLine
 62
8
  6
HIDDEN
 10
54.9230469906
 20
19.4167744374
 11
53.4230469906
 21
19.4167744374
  0
LINE
  5
29B
100
AcDbEntity
  8
A_RUNDUNGEN
100
AcDbLine
 62
7
  6
CONTINUOUS
 10
51.4230469906
 20
19.4167744374
 11
53.4230469906
 21
19.4167744374
  0
LINE
  5
29C
100
AcDbEntity
  8
DEFAULT_2
100
AcDbLine
 62
8
  6
HIDDEN
 10
53.4230469906
 20
19.5667744374
 11
54.9230469906
 21
19.5667744374
  0
LINE
  5
29D
100
AcDbEntity
  8
A_ACHSEN
100
AcDbLine
 62
7
  6
CENTER
 10
49.1280236427
 20
19.7085415506
 11
56.4577832485
 21
19.7085415506
  0
LINE
  5
29E
100
AcDbEntity
  8
0
100
AcDbLine
 62
3
  6
CONTINUOUS
 10
45.2230469906
 20
19.9371744374
 11
51.4230469906
 21
19.9371744374
  0
LINE
  5
29F
100
AcDbEntity
  8
A_RUNDUNGEN
100
AcDbLine
 62
8
  6
HIDDEN
 10
49.9230469906
 20
20.1167744374
 11
44.9230469906
 21
20.1167744374
  0
LINE
  5
2A0
100
AcDbEntity
  8
0
100
AcDbLine
 62
3
  6
CONTINUOUS
 10
49.9230469906
 20
20.1167744374
 11
44.9230469906
 21
20.1167744374
  0
LINE
  5
2A1
100
AcDbEntity
  8
DEFAULT_2
100
AcDbLine
 62
8
  6
HIDDEN
 10
50.8388274857
 20
20.2085337888
 11
49.7929342352
 21
20.2085337888
  0
LINE
  5
2A2
100
AcDbEntity
  8
0
100
AcDbLine
 62
7
  6
CONTINUOUS
 10
44.9230469906
 20
20.2371744374
 11
42.4230469906
 21
20.2371744374
  0
LINE
  5
2A3
100
AcDbEntity
  8
DEFAULT_2
100
AcDbLine
 62
8
  6
HIDDEN
 10
54.3860256729
 20
20.4327987066
 11
51.1998427975
 21
20.4327987066
  0
LINE
  5
2A4
100
AcDbEntity
  8
0
100
AcDbLine
 62
7
  6
CONTINUOUS
 10
58.0429342352
 20
20.5585337888
 11
58.4229342352
 21
20.5585337888
  0
LINE
  5
2A5
100
AcDbEntity
  8
DEFAULT_2
100
AcDbLine
 62
8
  6
HIDDEN
 10
58.4229342352
 20
20.5585337888
 11
58.8429342352
 21
20.5585337888
  0
LINE
  5
2A6
100
AcDbEntity
  8
0
100
AcDbLine
 62
7
  6
CONTINUOUS
 10
44.9230469906
 20
20.6650308411
 11
42.4230469906
 21
20.6650308411
  0
LINE
  5
2A7
100
AcDbEntity
  8
0
100
AcDbLine
 62
7
  6
CONTINUOUS
 10
49.9230469906
 20
20.817389612
 11
53.4230469906
 21
20.817389612
  0
LINE
  5
2A8
100
AcDbEntity
  8
DEFAULT_2
100
AcDbLine
 62
8
  6
HIDDEN
 10
49.9230469906
 20
21.1167744374
 11
44.9230469906
 21
21.1167744374
  0
LINE
  5
2A9
100
AcDbEntity
  8
A_RUNDUNGEN
100
AcDbLine
 62
8
  6
HIDDEN
 10
44.9230469906
 20
21.1167744374
 11
49.9230469906
 21
21.1167744374
  0
LINE
  5
2AA
100
AcDbEntity
  8
DEFAULT_2
100
AcDbLine
 62
8
  6
HIDDEN
 10
52.719553951
 20
21.2085337888
 11
56.2929342352
 21
21.2085337888
  0
LINE
  5
2AB
100
AcDbEntity
  8
0
100
AcDbLine
 62
7
  6
CONTINUOUS
 10
14.9230469906
 20
21.4167744374
 11
13.4230469906
 21
21.4167744374
  0
LINE
  5
2AC
100
AcDbEntity
  8
DEFAULT_2
100
AcDbLine
 62
8
  6
HIDDEN
 10
18.9230469906
 20
21.4167744374
 11
19.1230469906
 21
21.4167744374
  0
LINE
  5
2AD
100
AcDbEntity
  8
DEFAULT_2
100
AcDbLine
 62
8
  6
HIDDEN
 10
21.9230469906
 20
21.53556653
 11
22.0230469906
 21
21.53556653
  0
LINE
  5
2AE
100
AcDbEntity
  8
DEFAULT_2
100
AcDbLine
 62
8
  6
HIDDEN
 10
21.9230469906
 20
21.5967744374
 11
22.0230469906
 21
21.5967744374
  0
LINE
  5
2AF
100
AcDbEntity
  8
DEFAULT_2
100
AcDbLine
 62
8
  6
HIDDEN
 10
23.0339891569
 20
18.5094971677
 11
22.4096838923
 21
18.5096405275
  0
LINE
  5
2B0
100
AcDbEntity
  8
A_RUNDUNGEN
100
AcDbLine
 62
8
  6
HIDDEN
 10
33.8230469906
 20
20.5434699389
 11
20.3204290086
 21
20.6141701275
  0
LINE
  5
2B1
100
AcDbEntity
  8
A_RUNDUNGEN
100
AcDbLine
 62
8
  6
HIDDEN
 10
51.4230469906
 20
19.484228173
 11
19.5876856384
 21
19.7620511626
  0
LINE
  5
2B2
100
AcDbEntity
  8
A_RUNDUNGEN
100
AcDbLine
 62
7
  6
CONTINUOUS
 10
51.4230469906
 20
19.484228173
 11
53.4230469906
 21
19.4667744374
  0
LINE
  5
2B3
100
AcDbEntity
  8
A_RUNDUNGEN
100
AcDbLine
 62
8
  6
HIDDEN
 10
53.4230469906
 20
21.3167744374
 11
48.468683889
 21
21.403253167
  0
LINE
  5
2B4
100
AcDbEntity
  8
A_RUNDUNGEN
100
AcDbLine
 62
8
  6
HIDDEN
 10
29.9230469804
 20
23.9771683587
 11
29.9336015583
 21
23.8749276148
  0
LINE
  5
2B5
100
AcDbEntity
  8
A_RUNDUNGEN
100
AcDbLine
 62
8
  6
HIDDEN
 10
29.9230469906
 20
23.9773554406
 11
29.931938916
 21
23.8833825816
  0
LINE
  5
2B6
100
AcDbEntity
  8
A_RUNDUNGEN
100
AcDbLine
 62
8
  6
HIDDEN
 10
26.9230469906
 20
17.9167744374
 11
26.9230469906
 21
16.9167744374
  0
LINE
  5
2B7
100
AcDbEntity
  8
A_ACHSEN
100
AcDbLine
 62
7
  6
CENTER
 10
27.6230469906
 20
26.0908485115
 11
27.6230469906
 21
24.0167744377
  0
LINE
  5
2B8
100
AcDbEntity
  8
A_ACHSEN
100
AcDbLine
 62
7
  6
CENTER
 10
27.6230469906
 20
21.9427003634
 11
27.6230469906
 21
23.7384635731
  0
LINE
  5
2B9
100
AcDbEntity
  8
A_ACHSEN
100
AcDbLine
 62
7
  6
CONTINUOUS
 10
27.6230469906
 20
23.7384635731
 11
27.6230469906
 21
24.0167744377
  0
LINE
  5
2BA
100
AcDbEntity
  8
DEFAULT_2
100
AcDbLine
 62
8
  6
HIDDEN
 10
55.4429984131
 20
19.2589047471
 11
55.2588871084
 21
19.2085337888
  0
LINE
  5
2BB
100
AcDbEntity
  8
A_RUNDUNGEN
100
AcDbLine
 62
8
  6
HIDDEN
 10
47.7143207873
 20
23.3078945885
 11
45.518683889
 21
23.2695696039
  0
LINE
  5
2BC
100
AcDbEntity
  8
DEFAULT_2
100
AcDbLine
 62
8
  6
HIDDEN
 10
21.9230469906
 20
22.16556653
 11
22.0230469906
 21
22.16556653
  0
LINE
  5
2BD
100
AcDbEntity
  8
DEFAULT_2
100
AcDbLine
 62
8
  6
HIDDEN
 10
21.9230469906
 20
22.2267744374
 11
22.0230469906
 21
22.2267744374
  0
LINE
  5
2BE
100
AcDbEntity
  8
DEFAULT_2
100
AcDbLine
 62
8
  6
HIDDEN
 10
21.9230469906
 20
22.2825307757
 11
22.0230469906
 21
22.2825307757
  0
LINE
  5
2BF
100
AcDbEntity
  8
DEFAULT_2
100
AcDbLine
 62
8
  6
HIDDEN
 10
21.9230469906
 20
22.8867744374
 11
22.0230469906
 21
22.8867744374
  0
LINE
  5
2C0
100
AcDbEntity
  8
DEFAULT_2
100
AcDbLine
 62
8
  6
HIDDEN
 10
21.9230469906
 20
22.9667744374
 11
22.0230469906
 21
22.9667744374
  0
LINE
  5
2C1
100
AcDbEntity
  8
DEFAULT_2
100
AcDbLine
 62
8
  6
HIDDEN
 10
18.9230469906
 20
23.2367744374
 11
19.1230469906
 21
23.2367744374
  0
LINE
  5
2C2
100
AcDbEntity
  8
DEFAULT_2
100
AcDbLine
 62
8
  6
HIDDEN
 10
21.9230469906
 20
23.5067744374
 11
22.0230469906
 21
23.5067744374
  0
LINE
  5
2C3
100
AcDbEntity
  8
DEFAULT_2
100
AcDbLine
 62
8
  6
HIDDEN
 10
21.9230469906
 20
23.6567744374
 11
22.0230469906
 21
23.6567744374
  0
LINE
  5
2C4
100
AcDbEntity
  8
DEFAULT_2
100
AcDbLine
 62
8
  6
HIDDEN
 10
18.9230469906
 20
23.7767744374
 11
19.1230469906
 21
23.7767744374
  0
LINE
  5
2C5
100
AcDbEntity
  8
DEFAULT_2
100
AcDbLine
 62
8
  6
HIDDEN
 10
22.0230469906
 20
23.8967751662
 11
21.9230469906
 21
23.8967751662
  0
LINE
  5
2C6
100
AcDbEntity
  8
A_ACHSEN
100
AcDbLine
 62
7
  6
CENTER
 10
25.5489729165
 20
24.0167744374
 11
29.6971210646
 21
24.0167744374
  0
LINE
  5
2C7
100
AcDbEntity
  8
DEFAULT_2
100
AcDbLine
 62
8
  6
HIDDEN
 10
18.9230469906
 20
24.0567744374
 11
19.1230469906
 21
24.0567744374
  0
LINE
  5
2C8
100
AcDbEntity
  8
DEFAULT_2
100
AcDbLine
 62
8
  6
HIDDEN
 10
56.2929342352
 20
24.2085337888
 11
54.4699852183
 21
24.2085337888
  0
LINE
  5
2C9
100
AcDbEntity
  8
DEFAULT_2
100
AcDbLine
 62
8
  6
HIDDEN
 10
51.1158832521
 20
24.2085337888
 11
49.7929342352
 21
24.2085337888
  0
LINE
  5
2CA
100
AcDbEntity
  8
DEFAULT_2
100
AcDbLine
 62
8
  6
HIDDEN
 10
21.9230469906
 20
24.2567744374
 11
22.0230469906
 21
24.2567744374
  0
LINE
  5
2CB
100
AcDbEntity
  8
DEFAULT_2
100
AcDbLine
 62
8
  6
HIDDEN
 10
21.9230469906
 20
24.3167744374
 11
22.0230469906
 21
24.3167744374
  0
LINE
  5
2CC
100
AcDbEntity
  8
DEFAULT_2
100
AcDbLine
 62
8
  6
HIDDEN
 10
21.9230469906
 20
24.4566861589
 11
22.0230469906
 21
24.4566861589
  0
LINE
  5
2CD
100
AcDbEntity
  8
A_ACHSEN
100
AcDbLine
 62
7
  6
CENTER
 10
29.1611364154
 20
24.5167744374
 11
38.0849575657
 21
24.5167744374
  0
LINE
  5
2CE
100
AcDbEntity
  8
DEFAULT_2
100
AcDbLine
 62
8
  6
HIDDEN
 10
18.9230469906
 20
24.5967744374
 11
19.1230469906
 21
24.5967744374
  0
LINE
  5
2CF
100
AcDbEntity
  8
A_ACHSEN
100
AcDbLine
 62
7
  6
CENTER
 10
48.8682864971
 20
24.7085328701
 11
56.7175123012
 21
24.7085328701
  0
LINE
  5
2D0
100
AcDbEntity
  8
DEFAULT_2
100
AcDbLine
 62
8
  6
HIDDEN
 10
21.9230469906
 20
24.8667744374
 11
22.0230469906
 21
24.8667744374
  0
LINE
  5
2D1
100
AcDbEntity
  8
DEFAULT_2
100
AcDbLine
 62
8
  6
HIDDEN
 10
21.9230469906
 20
25.1867744374
 11
22.0230469906
 21
25.1867744374
  0
LINE
  5
2D2
100
AcDbEntity
  8
A_RUNDUNGEN
100
AcDbLine
 62
8
  6
HIDDEN
 10
49.431698359
 20
25.4667744374
 11
47.0143956221
 21
25.4667744374
  0
LINE
  5
2D3
100
AcDbEntity
  8
DEFAULT_2
100
AcDbLine
 62
8
  6
HIDDEN
 10
21.9230469906
 20
25.7467744374
 11
22.0230469906
 21
25.7467744374
  0
LINE
  5
2D4
100
AcDbEntity
  8
DEFAULT_2
100
AcDbLine
 62
8
  6
HIDDEN
 10
21.9230469906
 20
26.0967744374
 11
22.0230469906
 21
26.0967744374
  0
LINE
  5
2D5
100
AcDbEntity
  8
DEFAULT_2
100
AcDbLine
 62
8
  6
HIDDEN
 10
21.9230469906
 20
26.1767744374
 11
22.0230469906
 21
26.1767744374
  0
LINE
  5
2D6
100
AcDbEntity
  8
DEFAULT_2
100
AcDbLine
 62
8
  6
HIDDEN
 10
18.9230469906
 20
26.4167744374
 11
19.1230469906
 21
26.4167744374
  0
LINE
  5
2D7
100
AcDbEntity
  8
DEFAULT_2
100
AcDbLine
 62
8
  6
HIDDEN
 10
45.8230469906
 20
26.7167744374
 11
34.099791018
 21
26.7167744374
  0
LINE
  5
2D8
100
AcDbEntity
  8
A_FASEN
100
AcDbLine
 62
8
  6
HIDDEN
 10
58.9229342352
 20
26.8085337888
 11
66.4230469906
 21
26.8085337888
  0
LINE
  5
2D9
100
AcDbEntity
  8
A_FASEN
100
AcDbLine
 62
7
  6
CONTINUOUS
 10
66.4230469906
 20
26.8085337888
 11
137.9229342352
 21
26.8085337888
  0
LINE
  5
2DA
100
AcDbEntity
  8
0
100
AcDbLine
 62
7
  6
CONTINUOUS
 10
55.9230469906
 20
26.8167744374
 11
66.4230469906
 21
26.8167744374
  0
LINE
  5
2DB
100
AcDbEntity
  8
DEFAULT_2
100
AcDbLine
 62
8
  6
HIDDEN
 10
21.9230469906
 20
27.0867744374
 11
22.0230469906
 21
27.0867744374
  0
LINE
  5
2DC
100
AcDbEntity
  8
DEFAULT_2
100
AcDbLine
 62
8
  6
HIDDEN
 10
21.9230469906
 20
27.6467744374
 11
22.0230469906
 21
27.6467744374
  0
LINE
  5
2DD
100
AcDbEntity
  8
DEFAULT_2
100
AcDbLine
 62
8
  6
HIDDEN
 10
67.7929342352
 20
27.7085337888
 11
66.884238583
 21
27.7085337888
  0
LINE
  5
2DE
100
AcDbEntity
  8
A_RUNDUNGEN
100
AcDbLine
 62
8
  6
HIDDEN
 10
52.9256649725
 20
26.5667524495
 11
34.3204290086
 21
26.6641701275
  0
LINE
  5
2DF
100
AcDbEntity
  8
DEFAULT_2
100
AcDbLine
 62
8
  6
HIDDEN
 10
34.3204290086
 20
26.6641701275
 11
45.8230469906
 21
26.6039420102
  0
LINE
  5
2E0
100
AcDbEntity
  8
A_RUNDUNGEN
100
AcDbLine
 62
8
  6
HIDDEN
 10
19.5713388108
 20
28.3941355882
 11
29.1992216131
 21
28.0579225122
  0
LINE
  5
2E1
100
AcDbEntity
  8
A_RUNDUNGEN
100
AcDbLine
 62
8
  6
HIDDEN
 10
41.8200921447
 20
34.7346214243
 11
48.1175111088
 21
33.0256462139
  0
LINE
  5
2E2
100
AcDbEntity
  8
A_FASEN
100
AcDbLine
 62
7
  6
CONTINUOUS
 10
58.4229342352
 20
19.3085337888
 11
58.9229342352
 21
18.8085337888
  0
LINE
  5
2E3
100
AcDbEntity
  8
A_RUNDUNGEN
100
AcDbLine
 62
8
  6
HIDDEN
 10
53.4230469881
 20
30.0667744399
 11
52.0694936
 21
31.420327828
  0
LINE
  5
2E4
100
AcDbEntity
  8
A_FASEN
100
AcDbLine
 62
8
  6
HIDDEN
 10
54.9230469906
 20
29.4667744374
 11
53.9230469906
 21
30.4667744374
  0
LINE
  5
2E5
100
AcDbEntity
  8
A_RUNDUNGEN
100
AcDbLine
 62
8
  6
HIDDEN
 10
29.9230469906
 20
42.8561802982
 11
29.9230469906
 21
37.2743242719
  0
LINE
  5
2E6
100
AcDbEntity
  8
A_RUNDUNGEN
100
AcDbLine
 62
8
  6
HIDDEN
 10
29.9230469906
 20
29.5590904873
 11
29.9230469906
 21
23.9775279312
  0
LINE
  5
2E7
100
AcDbEntity
  8
A_FASEN
100
AcDbLine
 62
8
  6
HIDDEN
 10
33.3230469906
 20
35.7417744374
 11
33.3230469906
 21
31.0917744374
  0
LINE
  5
2E8
100
AcDbEntity
  8
DEFAULT_2
100
AcDbLine
 62
8
  6
HIDDEN
 10
33.4980469906
 20
35.9167744374
 11
33.4980469906
 21
30.9167744374
  0
LINE
  5
2E9
100
AcDbEntity
  8
A_ACHSEN
100
AcDbLine
 62
7
  6
CENTER
 10
33.6230469906
 20
20.0548638623
 11
33.6230469906
 21
28.9786850126
  0
LINE
  5
2EA
100
AcDbEntity
  8
A_RUNDUNGEN
100
AcDbLine
 62
8
  6
HIDDEN
 10
33.8230469906
 20
39.6693856013
 11
33.8230469906
 21
27.1641632736
  0
LINE
  5
2EB
100
AcDbEntity
  8
A_FASEN
100
AcDbLine
 62
8
  6
HIDDEN
 10
33.8230469906
 20
36.2417744374
 11
33.8230469906
 21
30.5917744374
  0
LINE
  5
2EC
100
AcDbEntity
  8
A_RUNDUNGEN
100
AcDbLine
 62
8
  6
HIDDEN
 10
33.8230469906
 20
20.5434699389
 11
33.8230469906
 21
19.6378210461
  0
LINE
  5
2ED
100
AcDbEntity
  8
A_RUNDUNGEN
100
AcDbLine
 62
8
  6
HIDDEN
 10
29.9230469906
 20
42.8561934344
 11
29.9319389163
 21
42.9501662953
  0
LINE
  5
2EE
100
AcDbEntity
  8
A_RUNDUNGEN
100
AcDbLine
 62
8
  6
HIDDEN
 10
29.9230469804
 20
42.8563805159
 11
29.9336015581
 21
42.9586212588
  0
LINE
  5
2EF
100
AcDbEntity
  8
A_RUNDUNGEN
100
AcDbLine
 62
8
  6
HIDDEN
 10
46.5666248619
 20
30.5518200024
 11
45.4794691192
 21
30.4567061995
  0
LINE
  5
2F0
100
AcDbEntity
  8
A_RUNDUNGEN
100
AcDbLine
 62
8
  6
HIDDEN
 10
53.4230469906
 20
30.5167744374
 11
48.468683889
 21
30.4302957078
  0
LINE
  5
2F1
100
AcDbEntity
  8
0
100
AcDbLine
 62
7
  6
CONTINUOUS
 10
66.4230469906
 20
27.8167744374
 11
56.4230469906
 21
27.8167744374
  0
LINE
  5
2F2
100
AcDbEntity
  8
DEFAULT_2
100
AcDbLine
 62
8
  6
HIDDEN
 10
21.9230469906
 20
27.9067744374
 11
22.0230469906
 21
27.9067744374
  0
LINE
  5
2F3
100
AcDbEntity
  8
DEFAULT_2
100
AcDbLine
 62
8
  6
HIDDEN
 10
58.0429342352
 20
28.0085337888
 11
58.9656556977
 21
28.0085337888
  0
LINE
  5
2F4
100
AcDbEntity
  8
0
100
AcDbLine
 62
7
  6
CONTINUOUS
 10
58.9656556977
 20
28.0085337888
 11
66.2929342352
 21
28.0085337888
  0
LINE
  5
2F5
100
AcDbEntity
  8
DEFAULT_2
100
AcDbLine
 62
8
  6
HIDDEN
 10
21.9230469906
 20
28.4467744374
 11
22.0230469906
 21
28.4467744374
  0
LINE
  5
2F6
100
AcDbEntity
  8
DEFAULT_2
100
AcDbLine
 62
8
  6
HIDDEN
 10
21.9230469906
 20
28.5055481425
 11
22.0230469906
 21
28.5055481425
  0
LINE
  5
2F7
100
AcDbEntity
  8
A_RUNDUNGEN
100
AcDbLine
 62
7
  6
CONTINUOUS
 10
65.2273037194
 20
28.8085337888
 11
58.7893533962
 21
28.8085337888
  0
LINE
  5
2F8
100
AcDbEntity
  8
DEFAULT_2
100
AcDbLine
 62
8
  6
HIDDEN
 10
58.8429342352
 20
28.8085337888
 11
65.2273037194
 21
28.8085337888
  0
LINE
  5
2F9
100
AcDbEntity
  8
0
100
AcDbLine
 62
7
  6
CONTINUOUS
 10
65.2273037194
 20
28.8085337888
 11
66.1190211917
 21
28.8085337888
  0
LINE
  5
2FA
100
AcDbEntity
  8
DEFAULT_2
100
AcDbLine
 62
8
  6
HIDDEN
 10
66.1190211917
 20
28.8085337888
 11
66.2929342352
 21
28.8085337888
  0
LINE
  5
2FB
100
AcDbEntity
  8
DEFAULT_2
100
AcDbLine
 62
8
  6
HIDDEN
 10
21.9230469906
 20
28.8628208075
 11
22.0230469906
 21
28.8628208075
  0
LINE
  5
2FC
100
AcDbEntity
  8
DEFAULT_2
100
AcDbLine
 62
8
  6
HIDDEN
 10
56.2929342352
 20
29.2085337888
 11
49.7929342352
 21
29.2085337888
  0
LINE
  5
2FD
100
AcDbEntity
  8
DEFAULT_2
100
AcDbLine
 62
8
  6
HIDDEN
 10
21.9230469906
 20
29.2155481425
 11
22.0230469906
 21
29.2155481425
  0
LINE
  5
2FE
100
AcDbEntity
  8
DEFAULT_2
100
AcDbLine
 62
8
  6
HIDDEN
 10
21.9230469906
 20
29.2811382364
 11
22.0230469906
 21
29.2811382364
  0
LINE
  5
2FF
100
AcDbEntity
  8
DEFAULT_2
100
AcDbLine
 62
8
  6
HIDDEN
 10
21.9230469906
 20
29.6294323796
 11
22.0230469906
 21
29.6294323796
  0
LINE
  5
300
100
AcDbEntity
  8
DEFAULT_2
100
AcDbLine
 62
8
  6
HIDDEN
 10
21.9230469906
 20
29.9711382364
 11
22.0230469906
 21
29.9711382364
  0
LINE
  5
301
100
AcDbEntity
  8
DEFAULT_2
100
AcDbLine
 62
8
  6
HIDDEN
 10
21.9230469906
 20
30.0470842323
 11
22.0230469906
 21
30.0470842323
  0
LINE
  5
302
100
AcDbEntity
  8
DEFAULT_2
100
AcDbLine
 62
8
  6
HIDDEN
 10
21.9230469906
 20
30.3984151676
 11
22.0230469906
 21
30.3984151676
  0
LINE
  5
303
100
AcDbEntity
  8
A_FASEN
100
AcDbLine
 62
8
  6
HIDDEN
 10
53.4230469906
 20
30.4667744374
 11
53.9230469906
 21
30.4667744374
  0
LINE
  5
304
100
AcDbEntity
  8
DEFAULT_2
100
AcDbLine
 62
8
  6
HIDDEN
 10
21.9230469906
 20
30.7570842323
 11
22.0230469906
 21
30.7570842323
  0
LINE
  5
305
100
AcDbEntity
  8
DEFAULT_2
100
AcDbLine
 62
8
  6
HIDDEN
 10
21.9230469906
 20
30.8194974815
 11
22.0230469906
 21
30.8194974815
  0
LINE
  5
306
100
AcDbEntity
  8
DEFAULT_2
100
AcDbLine
 62
8
  6
HIDDEN
 10
33.4980469906
 20
30.9167744374
 11
18.9230469906
 21
30.9167744374
  0
LINE
  5
307
100
AcDbEntity
  8
A_RUNDUNGEN
100
AcDbLine
 62
8
  6
HIDDEN
 10
33.3230469906
 20
31.0917744374
 11
19.6301537718
 21
31.0917744374
  0
LINE
  5
308
100
AcDbEntity
  8
DEFAULT_2
100
AcDbLine
 62
8
  6
HIDDEN
 10
21.9230469906
 20
31.3594974815
 11
22.0230469906
 21
31.3594974815
  0
LINE
  5
309
100
AcDbEntity
  8
DEFAULT_2
100
AcDbLine
 62
8
  6
HIDDEN
 10
52.0730469906
 20
31.4167744374
 11
47.0230469906
 21
31.4167744374
  0
LINE
  5
30A
100
AcDbEntity
  8
DEFAULT_2
100
AcDbLine
 62
8
  6
HIDDEN
 10
21.9230469906
 20
31.5267744374
 11
22.0230469906
 21
31.5267744374
  0
LINE
  5
30B
100
AcDbEntity
  8
A_RUNDUNGEN
100
AcDbLine
 62
8
  6
HIDDEN
 10
51.7159402094
 20
31.5667744374
 11
47.5230469906
 21
31.5667744374
  0
LINE
  5
30C
100
AcDbEntity
  8
DEFAULT_2
100
AcDbLine
 62
8
  6
HIDDEN
 10
21.9230469906
 20
31.5767744374
 11
22.0230469906
 21
31.5767744374
  0
LINE
  5
30D
100
AcDbEntity
  8
DEFAULT_2
100
AcDbLine
 62
8
  6
HIDDEN
 10
21.9230469906
 20
31.6367744374
 11
22.0230469906
 21
31.6367744374
  0
LINE
  5
30E
100
AcDbEntity
  8
A_ACHSEN
100
AcDbLine
 62
8
  6
HIDDEN
 10
63.2929342352
 20
32.0085337888
 11
58.2929342352
 21
32.0085337888
  0
LINE
  5
30F
100
AcDbEntity
  8
DEFAULT_2
100
AcDbLine
 62
8
  6
HIDDEN
 10
63.7929342352
 20
32.0085337888
 11
57.7929342352
 21
32.0085337888
  0
LINE
  5
310
100
AcDbEntity
  8
A_RUNDUNGEN
100
AcDbLine
 62
7
  6
CONTINUOUS
 10
57.7929342352
 20
32.0085337888
 11
63.3704189546
 21
32.0085337888
  0
LINE
  5
311
100
AcDbEntity
  8
DEFAULT_2
100
AcDbLine
 62
8
  6
HIDDEN
 10
21.9230469906
 20
32.0767744374
 11
22.0230469906
 21
32.0767744374
  0
LINE
  5
312
100
AcDbEntity
  8
A_ACHSEN
100
AcDbLine
 62
8
  6
HIDDEN
 10
58.7929342352
 20
32.2085337888
 11
62.7929342352
 21
32.2085337888
  0
LINE
  5
313
100
AcDbEntity
  8
DEFAULT_2
100
AcDbLine
 62
8
  6
HIDDEN
 10
63.0929342352
 20
32.5085337888
 11
58.4929342352
 21
32.5085337888
  0
LINE
  5
314
100
AcDbEntity
  8
DEFAULT_2
100
AcDbLine
 62
8
  6
HIDDEN
 10
21.9230469906
 20
32.6267744374
 11
22.0230469906
 21
32.6267744374
  0
LINE
  5
315
100
AcDbEntity
  8
DEFAULT_2
100
AcDbLine
 62
8
  6
HIDDEN
 10
21.9230469906
 20
33.1267744374
 11
22.0230469906
 21
33.1267744374
  0
LINE
  5
316
100
AcDbEntity
  8
DEFAULT_2
100
AcDbLine
 62
8
  6
HIDDEN
 10
21.9230469906
 20
33.1767744374
 11
22.0230469906
 21
33.1767744374
  0
LINE
  5
317
100
AcDbEntity
  8
A_ACHSEN
100
AcDbLine
 62
8
  6
HIDDEN
 10
63.7929342352
 20
33.2085337888
 11
57.7929342352
 21
33.2085337888
  0
LINE
  5
318
100
AcDbEntity
  8
DEFAULT_2
100
AcDbLine
 62
8
  6
HIDDEN
 10
21.9230469906
 20
33.2267744374
 11
22.0230469906
 21
33.2267744374
  0
LINE
  5
319
100
AcDbEntity
  8
0
100
AcDbLine
 62
7
  6
CONTINUOUS
 10
53.4230469906
 20
33.4167744374
 11
50.4230469906
 21
33.4167744374
  0
LINE
  5
31A
100
AcDbEntity
  8
DEFAULT_2
100
AcDbLine
 62
8
  6
HIDDEN
 10
21.9230469906
 20
33.4767744374
 11
22.0230469906
 21
33.4767744374
  0
LINE
  5
31B
100
AcDbEntity
  8
A_RUNDUNGEN
100
AcDbLine
 62
8
  6
HIDDEN
 10
47.7143207873
 20
28.5256542863
 11
45.518683889
 21
28.563979271
  0
LINE
  5
31C
100
AcDbEntity
  8
A_RUNDUNGEN
100
AcDbLine
 62
8
  6
HIDDEN
 10
35.9465907625
 20
39.6237497376
 11
43.3898259738
 21
37.9290436374
  0
LINE
  5
31D
100
AcDbEntity
  8
A_RUNDUNGEN
100
AcDbLine
 62
8
  6
HIDDEN
 10
49.9176793974
 20
36.6817964886
 11
40.3753756068
 21
39.2713590891
  0
LINE
  5
31E
100
AcDbEntity
  8
A_ACHSEN
100
AcDbLine
 62
8
  6
HIDDEN
 10
57.7929342352
 20
33.2085337888
 11
58.7929342352
 21
32.2085337888
  0
LINE
  5
31F
100
AcDbEntity
  8
A_RUNDUNGEN
100
AcDbLine
 62
8
  6
HIDDEN
 10
36.3230469906
 20
48.8963744374
 11
36.3230469906
 21
47.8963744374
  0
LINE
  5
320
100
AcDbEntity
  8
A_RUNDUNGEN
100
AcDbLine
 62
7
  6
CONTINUOUS
 10
39.5929342352
 20
14.9992625324
 11
39.5929342352
 21
15.1667744374
  0
LINE
  5
321
100
AcDbEntity
  8
0
100
AcDbLine
 62
7
  6
CONTINUOUS
 10
39.9230469906
 20
132.4167744374
 11
39.9230469906
 21
129.4167744374
  0
LINE
  5
322
100
AcDbEntity
  8
DEFAULT_2
100
AcDbLine
 62
8
  6
HIDDEN
 10
40.4230469906
 20
15.4167744374
 11
40.4230469906
 21
16.9167744374
  0
LINE
  5
323
100
AcDbEntity
  8
0
100
AcDbLine
 62
7
  6
CONTINUOUS
 10
41.4230469906
 20
129.4167744374
 11
41.4230469906
 21
132.4167744374
  0
LINE
  5
324
100
AcDbEntity
  8
A_RUNDUNGEN
100
AcDbLine
 62
8
  6
HIDDEN
 10
30.5628766809
 20
23.4189438661
 11
33.5426993681
 21
38.0722112441
  0
LINE
  5
325
100
AcDbEntity
  8
A_RUNDUNGEN
100
AcDbLine
 62
8
  6
HIDDEN
 10
47.7143207873
 20
38.3078945885
 11
45.518683889
 21
38.2695696039
  0
LINE
  5
326
100
AcDbEntity
  8
DEFAULT_2
100
AcDbLine
 62
8
  6
HIDDEN
 10
21.9230469906
 20
34.0167744374
 11
22.0230469906
 21
34.0167744374
  0
LINE
  5
327
100
AcDbEntity
  8
DEFAULT_2
100
AcDbLine
 62
8
  6
HIDDEN
 10
21.9230469906
 20
34.1667744374
 11
22.0230469906
 21
34.1667744374
  0
LINE
  5
328
100
AcDbEntity
  8
0
100
AcDbLine
 62
7
  6
CONTINUOUS
 10
53.4230469906
 20
34.4167744374
 11
50.4230469906
 21
34.4167744374
  0
LINE
  5
329
100
AcDbEntity
  8
DEFAULT_2
100
AcDbLine
 62
8
  6
HIDDEN
 10
21.9230469906
 20
34.8167744374
 11
22.0230469906
 21
34.8167744374
  0
LINE
  5
32A
100
AcDbEntity
  8
DEFAULT_2
100
AcDbLine
 62
8
  6
HIDDEN
 10
21.9230469906
 20
34.9667744374
 11
22.0230469906
 21
34.9667744374
  0
LINE
  5
32B
100
AcDbEntity
  8
A_RUNDUNGEN
100
AcDbLine
 62
8
  6
HIDDEN
 10
51.7159402094
 20
35.2667744374
 11
47.5230469906
 21
35.2667744374
  0
LINE
  5
32C
100
AcDbEntity
  8
0
100
AcDbLine
 62
7
  6
CONTINUOUS
 10
53.4230469906
 20
35.4167744374
 11
50.4230469906
 21
35.4167744374
  0
LINE
  5
32D
100
AcDbEntity
  8
DEFAULT_2
100
AcDbLine
 62
8
  6
HIDDEN
 10
50.4230469906
 20
35.4167744374
 11
47.0230469906
 21
35.4167744374
  0
LINE
  5
32E
100
AcDbEntity
  8
DEFAULT_2
100
AcDbLine
 62
8
  6
HIDDEN
 10
21.9230469906
 20
35.5067744374
 11
22.0230469906
 21
35.5067744374
  0
LINE
  5
32F
100
AcDbEntity
  8
A_RUNDUNGEN
100
AcDbLine
 62
8
  6
HIDDEN
 10
33.3230469906
 20
35.7417744374
 11
19.6301537718
 21
35.7417744374
  0
LINE
  5
330
100
AcDbEntity
  8
DEFAULT_2
100
AcDbLine
 62
8
  6
HIDDEN
 10
21.9230469906
 20
35.8566478148
 11
22.0230469906
 21
35.8566478148
  0
LINE
  5
331
100
AcDbEntity
  8
DEFAULT_2
100
AcDbLine
 62
8
  6
HIDDEN
 10
33.4980469906
 20
35.9167744374
 11
18.9230469906
 21
35.9167744374
  0
LINE
  5
332
100
AcDbEntity
  8
DEFAULT_2
100
AcDbLine
 62
8
  6
HIDDEN
 10
21.9230469906
 20
36.4066968172
 11
22.0230469906
 21
36.4066968172
  0
LINE
  5
333
100
AcDbEntity
  8
A_FASEN
100
AcDbLine
 62
8
  6
HIDDEN
 10
53.4230469906
 20
36.4667744374
 11
53.9230469906
 21
36.4667744374
  0
LINE
  5
334
100
AcDbEntity
  8
DEFAULT_2
100
AcDbLine
 62
8
  6
HIDDEN
 10
21.9230469906
 20
37.2067634678
 11
22.0230469906
 21
37.2067744374
  0
LINE
  5
335
100
AcDbEntity
  8
DEFAULT_2
100
AcDbLine
 62
8
  6
HIDDEN
 10
21.9230469906
 20
37.7567744374
 11
22.0230469906
 21
37.7567198322
  0
LINE
  5
336
100
AcDbEntity
  8
DEFAULT_2
100
AcDbLine
 62
8
  6
HIDDEN
 10
21.9230469906
 20
38.1267744374
 11
22.0230469906
 21
38.1267744374
  0
LINE
  5
337
100
AcDbEntity
  8
DEFAULT_2
100
AcDbLine
 62
8
  6
HIDDEN
 10
21.9230469906
 20
38.6667744374
 11
22.0230469906
 21
38.6667744374
  0
LINE
  5
338
100
AcDbEntity
  8
DEFAULT_2
100
AcDbLine
 62
8
  6
HIDDEN
 10
21.9230469906
 20
39.0820749309
 11
22.0230469906
 21
39.0820749309
  0
LINE
  5
339
100
AcDbEntity
  8
DEFAULT_2
100
AcDbLine
 62
8
  6
HIDDEN
 10
21.9230469906
 20
39.3267744374
 11
22.0230469906
 21
39.3267744374
  0
LINE
  5
33A
100
AcDbEntity
  8
A_RUNDUNGEN
100
AcDbLine
 62
8
  6
HIDDEN
 10
53.4230469906
 20
36.3167744374
 11
48.468683889
 21
36.403253167
  0
LINE
  5
33B
100
AcDbEntity
  8
A_RUNDUNGEN
100
AcDbLine
 62
8
  6
HIDDEN
 10
46.5666248619
 20
36.2817288724
 11
45.4794691192
 21
36.3768426754
  0
LINE
  5
33C
100
AcDbEntity
  8
A_RUNDUNGEN
100
AcDbLine
 62
8
  6
HIDDEN
 10
44.2943173325
 20
41.8254754799
 11
35.5513663715
 21
43.8161061542
  0
LINE
  5
33D
100
AcDbEntity
  8
A_FLAECHEN
100
AcDbLine
 62
8
  6
HIDDEN
 10
60.7929342352
 20
36.2755210869
 11
59.2929342352
 21
37.1415464907
  0
LINE
  5
33E
100
AcDbEntity
  8
DEFAULT_2
100
AcDbLine
 62
8
  6
HIDDEN
 10
59.2929342352
 20
40.0599473202
 11
59.0608834276
 21
40.2085337888
  0
LINE
  5
33F
100
AcDbEntity
  8
A_RUNDUNGEN
100
AcDbLine
 62
7
  6
CONTINUOUS
 10
58.5436077829
 20
28.9364608579
 11
57.9737821909
 21
29.7502561413
  0
LINE
  5
340
100
AcDbEntity
  8
A_RUNDUNGEN
100
AcDbLine
 62
7
  6
CONTINUOUS
 10
58.9656556977
 20
28.0227466865
 11
57.8287531948
 21
29.6570440343
  0
LINE
  5
341
100
AcDbEntity
  8
A_RUNDUNGEN
100
AcDbLine
 62
8
  6
HIDDEN
 10
55.5556721008
 20
25.8777578265
 11
51.2835350004
 21
35.9724309632
  0
LINE
  5
342
100
AcDbEntity
  8
A_RUNDUNGEN
100
AcDbLine
 62
8
  6
HIDDEN
 10
47.1100492386
 20
34.345642846
 11
49.894758039
 21
23.9334350334
  0
LINE
  5
343
100
AcDbEntity
  8
0
100
AcDbLine
 62
7
  6
CONTINUOUS
 10
44.5568468679
 20
51.8284291085
 11
45.162483343
 21
48.8901975893
  0
LINE
  5
344
100
AcDbEntity
  8
A_RUNDUNGEN
100
AcDbLine
 62
3
  6
CONTINUOUS
 10
42.4230469906
 20
50.9167744374
 11
42.4230469906
 21
47.4167744374
  0
LINE
  5
345
100
AcDbEntity
  8
A_RUNDUNGEN
100
AcDbLine
 62
3
  6
CONTINUOUS
 10
42.4230469906
 20
17.9167744374
 11
42.4230469906
 21
21.4167744374
  0
LINE
  5
346
100
AcDbEntity
  8
A_RUNDUNGEN
100
AcDbLine
 62
7
  6
CONTINUOUS
 10
42.4230469906
 20
50.9167744374
 11
42.4230469906
 21
51.9167744374
  0
LINE
  5
347
100
AcDbEntity
  8
A_RUNDUNGEN
100
AcDbLine
 62
7
  6
CONTINUOUS
 10
43.0122080925
 20
51.8963744374
 11
43.0122080925
 21
51.0337260428
  0
LINE
  5
348
100
AcDbEntity
  8
0
100
AcDbLine
 62
3
  6
CONTINUOUS
 10
44.9230469906
 20
48.7167744374
 11
44.9230469906
 21
47.4167744374
  0
LINE
  5
349
100
AcDbEntity
  8
A_RUNDUNGEN
100
AcDbLine
 62
8
  6
HIDDEN
 10
44.9230469906
 20
21.1167744374
 11
44.9230469906
 21
20.1167744374
  0
LINE
  5
34A
100
AcDbEntity
  8
0
100
AcDbLine
 62
3
  6
CONTINUOUS
 10
44.9230469906
 20
20.1167744374
 11
44.9230469906
 21
21.4167744374
  0
LINE
  5
34B
100
AcDbEntity
  8
A_RUNDUNGEN
100
AcDbLine
 62
8
  6
HIDDEN
 10
44.9230469906
 20
47.7167744374
 11
44.9230469906
 21
48.8963744374
  0
LINE
  5
34C
100
AcDbEntity
  8
DEFAULT_2
100
AcDbLine
 62
8
  6
HIDDEN
 10
44.9230469906
 20
48.7167744374
 11
44.9230469906
 21
48.8963744374
  0
LINE
  5
34D
100
AcDbEntity
  8
A_RUNDUNGEN
100
AcDbLine
 62
8
  6
HIDDEN
 10
45.0230469906
 20
46.6905537754
 11
45.0230469906
 21
20.1429950995
  0
LINE
  5
34E
100
AcDbEntity
  8
0
100
AcDbLine
 62
7
  6
CONTINUOUS
 10
45.2230469906
 20
51.8963744374
 11
45.2230469906
 21
48.8963744374
  0
LINE
  5
34F
100
AcDbEntity
  8
0
100
AcDbLine
 62
7
  6
CONTINUOUS
 10
45.2230469906
 20
16.9371744374
 11
45.2230469906
 21
19.9371744374
  0
LINE
  5
350
100
AcDbEntity
  8
A_RUNDUNGEN
100
AcDbLine
 62
8
  6
HIDDEN
 10
45.2730469906
 20
44.2667744374
 11
45.2730469906
 21
37.5667744374
  0
LINE
  5
351
100
AcDbEntity
  8
A_RUNDUNGEN
100
AcDbLine
 62
8
  6
HIDDEN
 10
45.2730469906
 20
29.2667744374
 11
45.2730469906
 21
22.5667744374
  0
LINE
  5
352
100
AcDbEntity
  8
DEFAULT_2
100
AcDbLine
 62
8
  6
HIDDEN
 10
45.8230469906
 20
26.6039420102
 11
45.8230469906
 21
26.7167744374
  0
LINE
  5
353
100
AcDbEntity
  8
DEFAULT_2
100
AcDbLine
 62
8
  6
HIDDEN
 10
45.8230469906
 20
40.1167744374
 11
45.8230469906
 21
40.2296068647
  0
LINE
  5
354
100
AcDbEntity
  8
A_RUNDUNGEN
100
AcDbLine
 62
8
  6
HIDDEN
 10
47.0230469906
 20
35.7836315234
 11
47.0230469906
 21
31.0499173515
  0
LINE
  5
355
100
AcDbEntity
  8
DEFAULT_2
100
AcDbLine
 62
8
  6
HIDDEN
 10
47.0230469906
 20
35.4167744374
 11
47.0230469906
 21
31.4167744374
  0
LINE
  5
356
100
AcDbEntity
  8
A_ACHSEN
100
AcDbLine
 62
8
  6
HIDDEN
 10
47.1730469906
 20
48.3963744374
 11
47.1730469906
 21
47.8963744374
  0
LINE
  5
357
100
AcDbEntity
  8
A_RUNDUNGEN
100
AcDbLine
 62
8
  6
HIDDEN
 10
47.4230469906
 20
47.3144132307
 11
47.4230469906
 21
39.6386032717
  0
LINE
  5
358
100
AcDbEntity
  8
A_RUNDUNGEN
100
AcDbLine
 62
8
  6
HIDDEN
 10
46.4193834554
 20
19.5278944831
 11
46.5144717745
 21
24.9755006406
  0
LINE
  5
359
100
AcDbEntity
  8
A_RUNDUNGEN
100
AcDbLine
 62
8
  6
HIDDEN
 10
36.5757904798
 20
23.9863916638
 11
38.0816355964
 21
32.3697226937
  0
LINE
  5
35A
100
AcDbEntity
  8
A_RUNDUNGEN
100
AcDbLine
 62
8
  6
HIDDEN
 10
32.9620719542
 20
34.8491771936
 11
30.7021082233
 21
25.2009649939
  0
LINE
  5
35B
100
AcDbEntity
  8
A_RUNDUNGEN
100
AcDbLine
 62
8
  6
HIDDEN
 10
29.6741535646
 20
40.4487879885
 11
24.7627267077
 21
24.9215218495
  0
LINE
  5
35C
100
AcDbEntity
  8
A_RUNDUNGEN
100
AcDbLine
 62
8
  6
HIDDEN
 10
19.5713388108
 20
38.4394132866
 11
29.1992216131
 21
38.7756263627
  0
LINE
  5
35D
100
AcDbEntity
  8
A_RUNDUNGEN
100
AcDbLine
 62
8
  6
HIDDEN
 10
52.9256649725
 20
40.2667964253
 11
34.3204290086
 21
40.1693787474
  0
LINE
  5
35E
100
AcDbEntity
  8
DEFAULT_2
100
AcDbLine
 62
8
  6
HIDDEN
 10
34.3204290086
 20
40.1693787474
 11
45.8230469906
 21
40.2296068647
  0
LINE
  5
35F
100
AcDbEntity
  8
DEFAULT_2
100
AcDbLine
 62
8
  6
HIDDEN
 10
21.9230469906
 20
39.5720749309
 11
22.0230469906
 21
39.5720749309
  0
LINE
  5
360
100
AcDbEntity
  8
A_ACHSEN
100
AcDbLine
 62
8
  6
HIDDEN
 10
63.7929342352
 20
39.7085337888
 11
57.7929342352
 21
39.7085337888
  0
LINE
  5
361
100
AcDbEntity
  8
DEFAULT_2
100
AcDbLine
 62
8
  6
HIDDEN
 10
21.9230469906
 20
39.9867744374
 11
22.0230469906
 21
39.9867744374
  0
LINE
  5
362
100
AcDbEntity
  8
DEFAULT_2
100
AcDbLine
 62
8
  6
HIDDEN
 10
34.099791018
 20
40.1167744374
 11
45.8230469906
 21
40.1167744374
  0
LINE
  5
363
100
AcDbEntity
  8
A_ACHSEN
100
AcDbLine
 62
8
  6
HIDDEN
 10
63.2929342352
 20
40.2085337888
 11
58.2929342352
 21
40.2085337888
  0
LINE
  5
364
100
AcDbEntity
  8
A_RUNDUNGEN
100
AcDbLine
 62
7
  6
CONTINUOUS
 10
63.7929342352
 20
40.2085337888
 11
55.9230469906
 21
40.2085337888
  0
LINE
  5
365
100
AcDbEntity
  8
A_RUNDUNGEN
100
AcDbLine
 62
8
  6
HIDDEN
 10
55.9230469906
 20
40.2085337888
 11
49.7929342352
 21
40.2085337888
  0
LINE
  5
366
100
AcDbEntity
  8
A_ACHSEN
100
AcDbLine
 62
8
  6
HIDDEN
 10
56.2929342352
 20
40.2085337888
 11
49.7929342352
 21
40.2085337888
  0
LINE
  5
367
100
AcDbEntity
  8
DEFAULT_2
100
AcDbLine
 62
8
  6
HIDDEN
 10
49.7929342352
 20
40.2085337888
 11
63.7929342352
 21
40.2085337888
  0
LINE
  5
368
100
AcDbEntity
  8
0
100
AcDbLine
 62
7
  6
CONTINUOUS
 10
63.7929342352
 20
40.2085337888
 11
64.2929342352
 21
40.2085337888
  0
LINE
  5
369
100
AcDbEntity
  8
0
100
AcDbLine
 62
7
  6
CONTINUOUS
 10
56.2929342352
 20
40.3085337888
 11
64.2929342352
 21
40.3085337888
  0
LINE
  5
36A
100
AcDbEntity
  8
DEFAULT_2
100
AcDbLine
 62
8
  6
HIDDEN
 10
21.9230469906
 20
40.5267744374
 11
22.0230469906
 21
40.5267744374
  0
LINE
  5
36B
100
AcDbEntity
  8
A_ACHSEN
100
AcDbLine
 62
8
  6
HIDDEN
 10
52.9230469906
 20
40.9167744374
 11
51.8230469906
 21
40.9167744374
  0
LINE
  5
36C
100
AcDbEntity
  8
DEFAULT_2
100
AcDbLine
 62
8
  6
HIDDEN
 10
21.9230469906
 20
40.9767744374
 11
22.0230469906
 21
40.9767744374
  0
LINE
  5
36D
100
AcDbEntity
  8
DEFAULT_2
100
AcDbLine
 62
8
  6
HIDDEN
 10
21.9230469906
 20
41.5167744374
 11
22.0230469906
 21
41.5167744374
  0
LINE
  5
36E
100
AcDbEntity
  8
DEFAULT_2
100
AcDbLine
 62
8
  6
HIDDEN
 10
54.9230469906
 20
41.5667744374
 11
51.8230469906
 21
41.5667744374
  0
LINE
  5
36F
100
AcDbEntity
  8
DEFAULT_2
100
AcDbLine
 62
8
  6
HIDDEN
 10
54.9230469906
 20
41.7167744374
 11
51.8230469906
 21
41.7167744374
  0
LINE
  5
370
100
AcDbEntity
  8
DEFAULT_2
100
AcDbLine
 62
8
  6
HIDDEN
 10
21.9230469906
 20
41.8567744374
 11
22.0230469906
 21
41.8567744374
  0
LINE
  5
371
100
AcDbEntity
  8
DEFAULT_2
100
AcDbLine
 62
8
  6
HIDDEN
 10
21.9230469906
 20
41.9167744374
 11
22.0230469906
 21
41.9167744374
  0
LINE
  5
372
100
AcDbEntity
  8
DEFAULT_2
100
AcDbLine
 62
8
  6
HIDDEN
 10
21.9230469906
 20
41.9667744374
 11
22.0230469906
 21
41.9667744374
  0
LINE
  5
373
100
AcDbEntity
  8
DEFAULT_2
100
AcDbLine
 62
8
  6
HIDDEN
 10
21.9230469906
 20
42.4067744374
 11
22.0230469906
 21
42.4067744374
  0
LINE
  5
374
100
AcDbEntity
  8
DEFAULT_2
100
AcDbLine
 62
8
  6
HIDDEN
 10
21.9230469906
 20
42.9567744374
 11
22.0230469906
 21
42.9567744374
  0
LINE
  5
375
100
AcDbEntity
  8
0
100
AcDbLine
 62
7
  6
CONTINUOUS
 10
56.4230469906
 20
43.4167744374
 11
64.4342277631
 21
43.4167744374
  0
LINE
  5
376
100
AcDbEntity
  8
DEFAULT_2
100
AcDbLine
 62
8
  6
HIDDEN
 10
21.9230469906
 20
43.4667744374
 11
22.0230469906
 21
43.4667744374
  0
LINE
  5
377
100
AcDbEntity
  8
DEFAULT_2
100
AcDbLine
 62
8
  6
HIDDEN
 10
21.9230469906
 20
43.5167744374
 11
22.0230469906
 21
43.5167744374
  0
LINE
  5
378
100
AcDbEntity
  8
DEFAULT_2
100
AcDbLine
 62
8
  6
HIDDEN
 10
21.9230469906
 20
43.5567744374
 11
22.0230469906
 21
43.5567744374
  0
LINE
  5
379
100
AcDbEntity
  8
0
100
AcDbLine
 62
7
  6
CONTINUOUS
 10
64.4342277631
 20
44.4167744374
 11
56.4230469906
 21
44.4167744374
  0
LINE
  5
37A
100
AcDbEntity
  8
DEFAULT_2
100
AcDbLine
 62
8
  6
HIDDEN
 10
21.9230469906
 20
44.4167744374
 11
22.0230469906
 21
44.4167744374
  0
LINE
  5
37B
100
AcDbEntity
  8
A_RUNDUNGEN
100
AcDbLine
 62
8
  6
HIDDEN
 10
47.7143207873
 20
43.5256542863
 11
45.518683889
 21
43.563979271
  0
LINE
  5
37C
100
AcDbEntity
  8
A_ACHSEN
100
AcDbLine
 62
8
  6
HIDDEN
 10
63.2929342352
 20
40.2085337888
 11
63.7929342352
 21
39.7085337888
  0
LINE
  5
37D
100
AcDbEntity
  8
A_RUNDUNGEN
100
AcDbLine
 62
7
  6
CONTINUOUS
 10
63.8615192289
 20
31.5821102252
 11
65.4730493326
 21
29.2806067197
  0
LINE
  5
37E
100
AcDbEntity
  8
A_RUNDUNGEN
100
AcDbLine
 62
7
  6
CONTINUOUS
 10
64.1913241564
 20
31.579598277
 11
66.7591581867
 21
27.8883368585
  0
LINE
  5
37F
100
AcDbEntity
  8
A_RUNDUNGEN
100
AcDbLine
 62
8
  6
HIDDEN
 10
66.7591581867
 20
27.8883368585
 11
66.884238583
 21
27.7085337888
  0
LINE
  5
380
100
AcDbEntity
  8
A_RUNDUNGEN
100
AcDbLine
 62
8
  6
HIDDEN
 10
50.0272601066
 20
19.4964090206
 11
49.9316222066
 21
24.9755006406
  0
LINE
  5
381
100
AcDbEntity
  8
A_ACHSEN
100
AcDbLine
 62
8
  6
HIDDEN
 10
47.6730469906
 20
48.3963744374
 11
47.6730469906
 21
47.8963744374
  0
LINE
  5
382
100
AcDbEntity
  8
A_RUNDUNGEN
100
AcDbLine
 62
8
  6
HIDDEN
 10
48.2230469906
 20
45.180333784
 11
48.2230469906
 21
36.6532150908
  0
LINE
  5
383
100
AcDbEntity
  8
A_RUNDUNGEN
100
AcDbLine
 62
8
  6
HIDDEN
 10
48.2230469906
 20
30.180333784
 11
48.2230469906
 21
21.6532150908
  0
LINE
  5
384
100
AcDbEntity
  8
DEFAULT_2
100
AcDbLine
 62
8
  6
HIDDEN
 10
49.7929342352
 20
40.2085337888
 11
49.7929342352
 21
14.2085337888
  0
LINE
  5
385
100
AcDbEntity
  8
A_ACHSEN
100
AcDbLine
 62
8
  6
HIDDEN
 10
49.7929342352
 20
16.2085337888
 11
49.7929342352
 21
14.2089044184
  0
LINE
  5
386
100
AcDbEntity
  8
A_RUNDUNGEN
100
AcDbLine
 62
7
  6
CONTINUOUS
 10
49.7929342352
 20
14.4167744374
 11
49.7929342352
 21
14.2085337888
  0
LINE
  5
387
100
AcDbEntity
  8
A_ACHSEN
100
AcDbLine
 62
8
  6
HIDDEN
 10
49.7929342352
 20
16.254652284
 11
49.7929342352
 21
19.652422483
  0
LINE
  5
388
100
AcDbEntity
  8
A_RUNDUNGEN
100
AcDbLine
 62
8
  6
HIDDEN
 10
49.7929342352
 20
14.4167744374
 11
49.7929342352
 21
40.2085337888
  0
LINE
  5
389
100
AcDbEntity
  8
A_RUNDUNGEN
100
AcDbLine
 62
8
  6
HIDDEN
 10
49.9230469906
 20
48.7167744374
 11
49.9230469906
 21
47.7167744374
  0
LINE
  5
38A
100
AcDbEntity
  8
A_RUNDUNGEN
100
AcDbLine
 62
8
  6
HIDDEN
 10
49.9230469906
 20
21.1167744374
 11
49.9230469906
 21
20.1167744374
  0
LINE
  5
38B
100
AcDbEntity
  8
0
100
AcDbLine
 62
3
  6
CONTINUOUS
 10
49.9230469906
 20
20.1167744374
 11
49.9230469906
 21
48.7167744374
  0
LINE
  5
38C
100
AcDbEntity
  8
A_RUNDUNGEN
100
AcDbLine
 62
7
  6
CONTINUOUS
 10
50.4230469906
 20
48.8963744374
 11
50.4230469906
 21
48.0161592629
  0
LINE
  5
38D
100
AcDbEntity
  8
A_RUNDUNGEN
100
AcDbLine
 62
8
  6
HIDDEN
 10
50.4230469906
 20
48.0161592629
 11
50.4230469906
 21
47.8963744374
  0
LINE
  5
38E
100
AcDbEntity
  8
0
100
AcDbLine
 62
7
  6
CONTINUOUS
 10
50.4230469906
 20
48.0161592629
 11
50.4230469906
 21
20.817389612
  0
LINE
  5
38F
100
AcDbEntity
  8
0
100
AcDbLine
 62
7
  6
CONTINUOUS
 10
51.4230469906
 20
51.8963744374
 11
51.4230469906
 21
48.8963744374
  0
LINE
  5
390
100
AcDbEntity
  8
0
100
AcDbLine
 62
7
  6
CONTINUOUS
 10
51.4230469906
 20
16.9371744374
 11
51.4230469906
 21
19.9371744374
  0
LINE
  5
391
100
AcDbEntity
  8
DEFAULT_2
100
AcDbLine
 62
8
  6
HIDDEN
 10
51.8230469906
 20
45.4167744374
 11
51.8230469906
 21
41.7167744374
  0
LINE
  5
392
100
AcDbEntity
  8
A_ACHSEN
100
AcDbLine
 62
8
  6
HIDDEN
 10
51.8230469906
 20
46.2164390157
 11
51.8230469906
 21
40.9171098591
  0
LINE
  5
393
100
AcDbEntity
  8
DEFAULT_2
100
AcDbLine
 62
8
  6
HIDDEN
 10
51.8230469906
 20
41.5667744374
 11
51.8230469906
 21
41.7167744374
  0
LINE
  5
394
100
AcDbEntity
  8
DEFAULT_2
100
AcDbLine
 62
8
  6
HIDDEN
 10
51.8230469906
 20
45.4167744374
 11
51.8230469906
 21
45.5667744374
  0
LINE
  5
395
100
AcDbEntity
  8
DEFAULT_2
100
AcDbLine
 62
8
  6
HIDDEN
 10
52.0730469906
 20
35.4167744374
 11
52.0730469906
 21
31.4167744374
  0
LINE
  5
396
100
AcDbEntity
  8
A_ACHSEN
100
AcDbLine
 62
7
  6
CENTER
 10
52.7928993992
 20
28.6331457721
 11
52.7929034456
 21
16.0436617477
  0
LINE
  5
397
100
AcDbEntity
  8
A_RUNDUNGEN
100
AcDbLine
 62
8
  6
HIDDEN
 10
53.4230469906
 20
45.5167744374
 11
48.468683889
 21
45.4302957078
  0
LINE
  5
398
100
AcDbEntity
  8
A_RUNDUNGEN
100
AcDbLine
 62
8
  6
HIDDEN
 10
53.4230469906
 20
47.3667744374
 11
19.5876856384
 21
47.0714977123
  0
LINE
  5
399
100
AcDbEntity
  8
A_BEMASSUNGEN
100
AcDbLine
 62
2
  6
CONTINUOUS
 10
19.5876856384
 20
47.0714977123
 11
18.9230469906
 21
47.0656974986
  0
LINE
  5
39A
100
AcDbEntity
  8
A_RUNDUNGEN
100
AcDbLine
 62
8
  6
HIDDEN
 10
52.9256649725
 20
46.3401009238
 11
20.3204290086
 21
46.1693787474
  0
LINE
  5
39B
100
AcDbEntity
  8
DEFAULT_2
100
AcDbLine
 62
8
  6
HIDDEN
 10
22.4096838923
 20
50.3239083474
 11
23.0339891569
 21
50.3240517071
  0
LINE
  5
39C
100
AcDbEntity
  8
DEFAULT_2
100
AcDbLine
 62
8
  6
HIDDEN
 10
54.9230469906
 20
45.4167744374
 11
51.8230469906
 21
45.4167744374
  0
LINE
  5
39D
100
AcDbEntity
  8
DEFAULT_2
100
AcDbLine
 62
8
  6
HIDDEN
 10
21.9230469906
 20
45.5267744374
 11
22.0230469906
 21
45.5267744374
  0
LINE
  5
39E
100
AcDbEntity
  8
DEFAULT_2
100
AcDbLine
 62
8
  6
HIDDEN
 10
54.9230469906
 20
45.5667744374
 11
51.8230469906
 21
45.5667744374
  0
LINE
  5
39F
100
AcDbEntity
  8
DEFAULT_2
100
AcDbLine
 62
8
  6
HIDDEN
 10
21.9230469906
 20
45.8067744374
 11
22.0230469906
 21
45.8067744374
  0
LINE
  5
3A0
100
AcDbEntity
  8
0
100
AcDbLine
 62
7
  6
CONTINUOUS
 10
64.4230469906
 20
45.9167744374
 11
56.4230469906
 21
45.9167744374
  0
LINE
  5
3A1
100
AcDbEntity
  8
A_ACHSEN
100
AcDbLine
 62
8
  6
HIDDEN
 10
52.9230469906
 20
46.2167744374
 11
51.8230469906
 21
46.2167744374
  0
LINE
  5
3A2
100
AcDbEntity
  8
DEFAULT_2
100
AcDbLine
 62
8
  6
HIDDEN
 10
21.9230469906
 20
46.9167744374
 11
22.0230469906
 21
46.9167744374
  0
LINE
  5
3A3
100
AcDbEntity
  8
0
100
AcDbLine
 62
7
  6
CONTINUOUS
 10
53.4230469906
 20
47.3667744374
 11
54.9230469906
 21
47.3667744374
  0
LINE
  5
3A4
100
AcDbEntity
  8
DEFAULT_2
100
AcDbLine
 62
8
  6
HIDDEN
 10
69.9230469906
 20
47.4167744374
 11
68.4230469906
 21
47.4167744374
  0
LINE
  5
3A5
100
AcDbEntity
  8
DEFAULT_2
100
AcDbLine
 62
8
  6
HIDDEN
 10
49.9230469906
 20
47.7167744374
 11
44.9230469906
 21
47.7167744374
  0
LINE
  5
3A6
100
AcDbEntity
  8
A_RUNDUNGEN
100
AcDbLine
 62
8
  6
HIDDEN
 10
44.9230469906
 20
47.7167744374
 11
49.9230469906
 21
47.7167744374
  0
LINE
  5
3A7
100
AcDbEntity
  8
A_ACHSEN
100
AcDbLine
 62
8
  6
HIDDEN
 10
47.6730469906
 20
47.8963744374
 11
47.1730469906
 21
47.8963744374
  0
LINE
  5
3A8
100
AcDbEntity
  8
A_RUNDUNGEN
100
AcDbLine
 62
8
  6
HIDDEN
 10
36.3230469906
 20
47.8963744374
 11
53.4230469906
 21
47.8963744374
  0
LINE
  5
3A9
100
AcDbEntity
  8
A_RUNDUNGEN
100
AcDbLine
 62
3
  6
CONTINUOUS
 10
53.4230469906
 20
47.8963744374
 11
67.5230469906
 21
47.8963744374
  0
LINE
  5
3AA
100
AcDbEntity
  8
0
100
AcDbLine
 62
7
  6
CONTINUOUS
 10
49.9230469906
 20
48.0161592629
 11
53.4230469906
 21
48.0161592629
  0
LINE
  5
3AB
100
AcDbEntity
  8
0
100
AcDbLine
 62
7
  6
CONTINUOUS
 10
44.9230469906
 20
48.1685180337
 11
42.4230469906
 21
48.1685180337
  0
LINE
  5
3AC
100
AcDbEntity
  8
A_ACHSEN
100
AcDbLine
 62
8
  6
HIDDEN
 10
47.6730469906
 20
48.3963744374
 11
47.1730469906
 21
48.3963744374
  0
LINE
  5
3AD
100
AcDbEntity
  8
0
100
AcDbLine
 62
7
  6
CONTINUOUS
 10
44.9230469906
 20
48.5963744374
 11
42.4230469906
 21
48.5963744374
  0
LINE
  5
3AE
100
AcDbEntity
  8
0
100
AcDbLine
 62
3
  6
CONTINUOUS
 10
44.9230469906
 20
48.7167744374
 11
49.9230469906
 21
48.7167744374
  0
LINE
  5
3AF
100
AcDbEntity
  8
A_RUNDUNGEN
100
AcDbLine
 62
8
  6
HIDDEN
 10
44.9230469906
 20
48.7167744374
 11
49.9230469906
 21
48.7167744374
  0
LINE
  5
3B0
100
AcDbEntity
  8
A_ACHSEN
100
AcDbLine
 62
8
  6
HIDDEN
 10
48.6730469906
 20
48.8963744374
 11
46.1730469906
 21
48.8963744374
  0
LINE
  5
3B1
100
AcDbEntity
  8
A_RUNDUNGEN
100
AcDbLine
 62
8
  6
HIDDEN
 10
36.3230469906
 20
48.8963744374
 11
51.4230469906
 21
48.8963744374
  0
LINE
  5
3B2
100
AcDbEntity
  8
0
100
AcDbLine
 62
3
  6
CONTINUOUS
 10
45.2230469906
 20
48.8963744374
 11
51.4230469906
 21
48.8963744374
  0
LINE
  5
3B3
100
AcDbEntity
  8
A_RUNDUNGEN
100
AcDbLine
 62
7
  6
CONTINUOUS
 10
51.4230469906
 20
48.8963744374
 11
67.5230469906
 21
48.8963744374
  0
LINE
  5
3B4
100
AcDbEntity
  8
A_RUNDUNGEN
100
AcDbLine
 62
8
  6
HIDDEN
 10
21.7735160745
 20
48.9167744374
 11
18.7230469906
 21
48.9167744374
  0
LINE
  5
3B5
100
AcDbEntity
  8
A_RUNDUNGEN
100
AcDbLine
 62
8
  6
HIDDEN
 10
21.6931319787
 20
49.9167744374
 11
21.6230469906
 21
49.9167744374
  0
LINE
  5
3B6
100
AcDbEntity
  8
A_RUNDUNGEN
100
AcDbLine
 62
3
  6
CONTINUOUS
 10
21.6230469906
 20
49.9167744374
 11
18.7230469906
 21
49.9167744374
  0
LINE
  5
3B7
100
AcDbEntity
  8
0
100
AcDbLine
 62
7
  6
CONTINUOUS
 10
21.9230469906
 20
50.6167744374
 11
22.9230469906
 21
50.6167744374
  0
LINE
  5
3B8
100
AcDbEntity
  8
A_RUNDUNGEN
100
AcDbLine
 62
8
  6
HIDDEN
 10
42.4230469906
 20
50.9167744374
 11
23.5963239688
 21
50.9167744374
  0
LINE
  5
3B9
100
AcDbEntity
  8
DEFAULT_2
100
AcDbLine
 62
8
  6
HIDDEN
 10
24.2301537719
 20
50.9167744374
 11
23.2230469906
 21
50.9167744374
  0
LINE
  5
3BA
100
AcDbEntity
  8
A_RUNDUNGEN
100
AcDbLine
 62
7
  6
CONTINUOUS
 10
23.5963239688
 20
50.9167744374
 11
23.2230469906
 21
50.9167744374
  0
LINE
  5
3BB
100
AcDbEntity
  8
A_RUNDUNGEN
100
AcDbLine
 62
8
  6
HIDDEN
 10
53.4230469906
 20
47.3667744374
 11
53.4230469906
 21
35.0938515905
  0
LINE
  5
3BC
100
AcDbEntity
  8
0
100
AcDbLine
 62
3
  6
CONTINUOUS
 10
53.4230469906
 20
48.0161592629
 11
53.4230469906
 21
20.817389612
  0
LINE
  5
3BD
100
AcDbEntity
  8
A_FASEN
100
AcDbLine
 62
8
  6
HIDDEN
 10
53.4230469906
 20
36.7667744374
 11
53.4230469906
 21
30.0667744374
  0
LINE
  5
3BE
100
AcDbEntity
  8
0
100
AcDbLine
 62
7
  6
CONTINUOUS
 10
53.4230469906
 20
20.817389612
 11
53.4230469906
 21
18.4167744374
  0
LINE
  5
3BF
100
AcDbEntity
  8
A_RUNDUNGEN
100
AcDbLine
 62
8
  6
HIDDEN
 10
53.4230469906
 20
31.7396972844
 11
53.4230469906
 21
19.4667744374
  0
LINE
  5
3C0
100
AcDbEntity
  8
A_RUNDUNGEN
100
AcDbLine
 62
7
  6
CONTINUOUS
 10
53.6230469906
 20
48.8963744374
 11
53.6230469906
 21
47.8963744374
  0
LINE
  5
3C1
100
AcDbEntity
  8
A_FASEN
100
AcDbLine
 62
8
  6
HIDDEN
 10
53.9230469906
 20
36.4667744374
 11
53.9230469906
 21
30.4667744374
  0
LINE
  5
3C2
100
AcDbEntity
  8
A_RUNDUNGEN
100
AcDbLine
 62
7
  6
CONTINUOUS
 10
54.7929342352
 20
14.6671898125
 11
54.7929342352
 21
17.595274831
  0
LINE
  5
3C3
100
AcDbEntity
  8
A_FASEN
100
AcDbLine
 62
8
  6
HIDDEN
 10
54.9230469906
 20
37.4667744374
 11
54.9230469906
 21
29.4667744374
  0
LINE
  5
3C4
100
AcDbEntity
  8
0
100
AcDbLine
 62
7
  6
CONTINUOUS
 10
54.9230469906
 20
18.4167744374
 11
54.9230469906
 21
42.9167744374
  0
LINE
  5
3C5
100
AcDbEntity
  8
DEFAULT_2
100
AcDbLine
 62
8
  6
HIDDEN
 10
54.9230469906
 20
42.9167744374
 11
54.9230469906
 21
45.478011881
  0
LINE
  5
3C6
100
AcDbEntity
  8
0
100
AcDbLine
 62
7
  6
CONTINUOUS
 10
54.9230469906
 20
45.478011881
 11
54.9230469906
 21
47.3667744374
  0
LINE
  5
3C7
100
AcDbEntity
  8
0
100
AcDbLine
 62
7
  6
CONTINUOUS
 10
55.9230469906
 20
28.3167744374
 11
55.9230469906
 21
42.9167744374
  0
LINE
  5
3C8
100
AcDbEntity
  8
A_ACHSEN
100
AcDbLine
 62
8
  6
HIDDEN
 10
56.2929342352
 20
14.2110322263
 11
56.2929342352
 21
16.2085337888
  0
LINE
  5
3C9
100
AcDbEntity
  8
DEFAULT_2
100
AcDbLine
 62
8
  6
HIDDEN
 10
56.2929342352
 20
14.2085337888
 11
56.2929342352
 21
40.2085337888
  0
LINE
  5
3CA
100
AcDbEntity
  8
0
100
AcDbLine
 62
7
  6
CONTINUOUS
 10
56.2929342352
 20
40.2085337888
 11
56.2929342352
 21
40.3085337888
  0
LINE
  5
3CB
100
AcDbEntity
  8
DEFAULT_2
100
AcDbLine
 62
8
  6
HIDDEN
 10
57.7929342352
 20
40.2085337888
 11
57.7929342352
 21
32.0085337888
  0
LINE
  5
3CC
100
AcDbEntity
  8
A_ACHSEN
100
AcDbLine
 62
8
  6
HIDDEN
 10
57.7929342352
 20
39.7085337888
 11
57.7929342352
 21
33.2085337888
  0
LINE
  5
3CD
100
AcDbEntity
  8
A_RUNDUNGEN
100
AcDbLine
 62
7
  6
CONTINUOUS
 10
57.7929342352
 20
26.7085337888
 11
57.7929342352
 21
17.2085337888
  0
LINE
  5
3CE
100
AcDbEntity
  8
A_RUNDUNGEN
100
AcDbLine
 62
7
  6
CONTINUOUS
 10
57.7929342352
 20
29.771256932
 11
57.7929342352
 21
32.0085337888
  0
LINE
  5
3CF
100
AcDbEntity
  8
DEFAULT_2
100
AcDbLine
 62
8
  6
HIDDEN
 10
58.0429342352
 20
28.0085337888
 11
58.0429342352
 21
26.8167744374
  0
LINE
  5
3D0
100
AcDbEntity
  8
0
100
AcDbLine
 62
7
  6
CONTINUOUS
 10
58.0429342352
 20
26.8167744374
 11
58.0429342352
 21
20.5585337888
  0
LINE
  5
3D1
100
AcDbEntity
  8
A_ACHSEN
100
AcDbLine
 62
8
  6
HIDDEN
 10
58.2929342352
 20
40.2085337888
 11
58.2929342352
 21
32.0085337888
  0
LINE
  5
3D2
100
AcDbEntity
  8
A_FASEN
100
AcDbLine
 62
7
  6
CONTINUOUS
 10
58.4229342352
 20
19.3085337888
 11
58.4229342352
 21
26.3085337888
  0
LINE
  5
3D3
100
AcDbEntity
  8
DEFAULT_2
100
AcDbLine
 62
8
  6
HIDDEN
 10
58.4929342352
 20
40.2085337888
 11
58.4929342352
 21
32.5085337888
  0
LINE
  5
3D4
100
AcDbEntity
  8
DEFAULT_2
100
AcDbLine
 62
8
  6
HIDDEN
 10
58.8429342352
 20
20.5585337888
 11
58.8429342352
 21
26.7285337888
  0
LINE
  5
3D5
100
AcDbEntity
  8
0
100
AcDbLine
 62
7
  6
CONTINUOUS
 10
58.8429342352
 20
26.7285337888
 11
58.8429342352
 21
26.8085337888
  0
LINE
  5
3D6
100
AcDbEntity
  8
DEFAULT_2
100
AcDbLine
 62
8
  6
HIDDEN
 10
58.8429342352
 20
26.8085337888
 11
58.8429342352
 21
28.1991587888
  0
LINE
  5
3D7
100
AcDbEntity
  8
0
100
AcDbLine
 62
7
  6
CONTINUOUS
 10
58.8429342352
 20
28.1991587888
 11
58.8429342352
 21
28.8085337888
  0
LINE
  5
3D8
100
AcDbEntity
  8
A_RUNDUNGEN
100
AcDbLine
 62
8
  6
HIDDEN
 10
55.7928881286
 20
19.6989550091
 11
55.8224037281
 21
28.9354816999
  0
LINE
  5
3D9
100
AcDbEntity
  8
0
100
AcDbLine
 62
7
  6
CONTINUOUS
 10
45.162483343
 20
19.9433512855
 11
44.5568468679
 21
17.0051197664
  0
LINE
  5
3DA
100
AcDbEntity
  8
A_RUNDUNGEN
100
AcDbLine
 62
8
  6
HIDDEN
 10
19.0679543028
 20
46.7118749156
 11
19.3071021023
 21
46.9531188328
  0
LINE
  5
3DB
100
AcDbEntity
  8
DEFAULT_2
100
AcDbLine
 62
8
  6
HIDDEN
 10
23.8159402094
 20
51.9167744374
 11
21.920272481
 21
50.0211067091
  0
LINE
  5
3DC
100
AcDbEntity
  8
DEFAULT_2
100
AcDbLine
 62
8
  6
HIDDEN
 10
24.2301537718
 20
50.9167744374
 11
22.9230470175
 21
49.6096676832
  0
LINE
  5
3DD
100
AcDbEntity
  8
A_RUNDUNGEN
100
AcDbLine
 62
8
  6
HIDDEN
 10
21.6638165537
 20
49.9195576096
 11
21.6230469906
 21
49.9167744374
  0
LINE
  5
3DE
100
AcDbEntity
  8
A_RUNDUNGEN
100
AcDbLine
 62
8
  6
HIDDEN
 10
21.6573329743
 20
49.9187400916
 11
21.6230469906
 21
49.9167744374
  0
LINE
  5
3DF
100
AcDbEntity
  8
A_RUNDUNGEN
100
AcDbLine
 62
7
  6
CONTINUOUS
 10
43.0122080925
 20
51.8963744374
 11
44.8948915249
 21
51.8963744374
  0
LINE
  5
3E0
100
AcDbEntity
  8
0
100
AcDbLine
 62
7
  6
CONTINUOUS
 10
45.2230469906
 20
51.8963744374
 11
51.4230469906
 21
51.8963744374
  0
LINE
  5
3E1
100
AcDbEntity
  8
DEFAULT_2
100
AcDbLine
 62
8
  6
HIDDEN
 10
23.8158244708
 20
51.9167744374
 11
23.2230469906
 21
51.9167744374
  0
LINE
  5
3E2
100
AcDbEntity
  8
A_RUNDUNGEN
100
AcDbLine
 62
3
  6
CONTINUOUS
 10
23.2230469906
 20
51.9167744374
 11
42.4230469906
 21
51.9167744374
  0
LINE
  5
3E3
100
AcDbEntity
  8
DEFAULT_2
100
AcDbLine
 62
8
  6
HIDDEN
 10
59.2929342352
 20
37.1418812571
 11
59.2929342352
 21
40.2085337888
  0
LINE
  5
3E4
100
AcDbEntity
  8
DEFAULT_2
100
AcDbLine
 62
8
  6
HIDDEN
 10
60.7929342352
 20
40.2085337888
 11
60.7929342352
 21
37.2755210869
  0
LINE
  5
3E5
100
AcDbEntity
  8
0
100
AcDbLine
 62
7
  6
CONTINUOUS
 10
60.7929342352
 20
18.8085337888
 11
60.7929342352
 21
16.2085337888
  0
LINE
  5
3E6
100
AcDbEntity
  8
A_ACHSEN
100
AcDbLine
 62
7
  6
CENTER
 10
60.7929342352
 20
29.2085337888
 11
60.7929342352
 21
43.2085337888
  0
LINE
  5
3E7
100
AcDbEntity
  8
DEFAULT_2
100
AcDbLine
 62
8
  6
HIDDEN
 10
62.2929342352
 20
40.2085337888
 11
62.2929342352
 21
37.1418812571
  0
LINE
  5
3E8
100
AcDbEntity
  8
DEFAULT_2
100
AcDbLine
 62
8
  6
HIDDEN
 10
63.0929342352
 20
40.2085337888
 11
63.0929342352
 21
32.5085337888
  0
LINE
  5
3E9
100
AcDbEntity
  8
A_ACHSEN
100
AcDbLine
 62
8
  6
HIDDEN
 10
63.2929342352
 20
40.2085337888
 11
63.2929342352
 21
32.0085337888
  0
LINE
  5
3EA
100
AcDbEntity
  8
DEFAULT_2
100
AcDbLine
 62
8
  6
HIDDEN
 10
63.7929342352
 20
40.2085337888
 11
63.7929342352
 21
32.0085337888
  0
LINE
  5
3EB
100
AcDbEntity
  8
A_ACHSEN
100
AcDbLine
 62
8
  6
HIDDEN
 10
63.7929342352
 20
39.7085337888
 11
63.7929342352
 21
33.2085337888
  0
LINE
  5
3EC
100
AcDbEntity
  8
0
100
AcDbLine
 62
7
  6
CONTINUOUS
 10
64.2929342352
 20
40.2085337888
 11
64.2929342352
 21
40.3085337888
  0
LINE
  5
3ED
100
AcDbEntity
  8
A_RUNDUNGEN
100
AcDbLine
 62
8
  6
HIDDEN
 10
51.6334585175
 20
26.8906552751
 11
49.8976219413
 21
20.4942546096
  0
LINE
  5
3EE
100
AcDbEntity
  8
A_RUNDUNGEN
100
AcDbLine
 62
8
  6
HIDDEN
 10
19.3396335661
 20
38.3610859722
 11
19.0633770904
 21
38.0750140173
  0
LINE
  5
3EF
100
AcDbEntity
  8
0
100
AcDbLine
 62
7
  6
CONTINUOUS
 10
66.2929342352
 20
28.0085337888
 11
66.2929342352
 21
28.5585337888
  0
LINE
  5
3F0
100
AcDbEntity
  8
DEFAULT_2
100
AcDbLine
 62
8
  6
HIDDEN
 10
66.2929342352
 20
28.5585337888
 11
66.2929342352
 21
28.8085337888
  0
LINE
  5
3F1
100
AcDbEntity
  8
A_RUNDUNGEN
100
AcDbLine
 62
7
  6
CONTINUOUS
 10
67.5230469906
 20
48.8963744374
 11
67.5230469906
 21
47.8963744374
  0
LINE
  5
3F2
100
AcDbEntity
  8
0
100
AcDbLine
 62
7
  6
CONTINUOUS
 10
67.7929342352
 20
18.8085337888
 11
67.7929342352
 21
16.2085337888
  0
LINE
  5
3F3
100
AcDbEntity
  8
A_RUNDUNGEN
100
AcDbLine
 62
7
  6
CONTINUOUS
 10
67.7929342352
 20
14.2085337888
 11
67.7929342352
 21
16.2085337888
  0
LINE
  5
3F4
100
AcDbEntity
  8
A_RUNDUNGEN
100
AcDbLine
 62
8
  6
HIDDEN
 10
67.7929342352
 20
27.7085337888
 11
67.7929342352
 21
28.2685388653
  0
LINE
  5
3F5
100
AcDbEntity
  8
A_RUNDUNGEN
100
AcDbLine
 62
7
  6
CONTINUOUS
 10
67.7929342352
 20
28.2685388653
 11
67.7929342352
 21
32.5923265252
  0
LINE
  5
3F6
100
AcDbEntity
  8
A_RUNDUNGEN
100
AcDbLine
 62
8
  6
HIDDEN
 10
67.7929342352
 20
32.5923265252
 11
67.7929342352
 21
33.6806180679
  0
LINE
  5
3F7
100
AcDbEntity
  8
A_RUNDUNGEN
100
AcDbLine
 62
7
  6
CONTINUOUS
 10
67.7929342352
 20
33.6806180679
 11
67.7929342352
 21
33.940905923
  0
LINE
  5
3F8
100
AcDbEntity
  8
A_RUNDUNGEN
100
AcDbLine
 62
8
  6
HIDDEN
 10
67.7929342352
 20
33.940905923
 11
67.7929342352
 21
35.4650277152
  0
LINE
  5
3F9
100
AcDbEntity
  8
A_RUNDUNGEN
100
AcDbLine
 62
7
  6
CONTINUOUS
 10
67.7929342352
 20
35.4650277152
 11
67.7929342352
 21
36.2085337888
  0
LINE
  5
3FA
100
AcDbEntity
  8
0
100
AcDbLine
 62
7
  6
CONTINUOUS
 10
68.4230469906
 20
132.4167744374
 11
68.4230469906
 21
36.3167744374
  0
LINE
  5
3FB
100
AcDbEntity
  8
0
100
AcDbLine
 62
7
  6
CONTINUOUS
 10
69.9230469906
 20
36.3167744374
 11
69.9230469906
 21
132.4167744374
  0
LINE
  5
3FC
100
AcDbEntity
  8
0
100
AcDbLine
 62
7
  6
CONTINUOUS
 10
64.9305008389
 20
42.8558397657
 11
64.1889021558
 21
36.8160031799
  0
LINE
  5
3FD
100
AcDbEntity
  8
0
100
AcDbLine
 62
7
  6
CONTINUOUS
 10
65.9113029682
 20
42.7294401239
 11
65.1418374263
 21
36.6165093391
  0
LINE
  5
3FE
100
AcDbEntity
  8
A_RUNDUNGEN
100
AcDbLine
 62
8
  6
HIDDEN
 10
19.0694936
 20
30.7382210468
 11
19.2766003812
 21
30.945327828
  0
LINE
  5
3FF
100
AcDbEntity
  8
0
100
AcDbLine
 62
7
  6
CONTINUOUS
 10
66.630093404
 20
36.4291750255
 11
67.3995589458
 21
42.5421058104
  0
LINE
  5
400
100
AcDbEntity
  8
A_RUNDUNGEN
100
AcDbLine
 62
8
  6
HIDDEN
 10
45.450574296
 20
47.2247433072
 11
45.0955006467
 21
46.8665574565
  0
LINE
  5
401
100
AcDbEntity
  8
A_FASEN
100
AcDbLine
 62
8
  6
HIDDEN
 10
33.8230469786
 20
36.2417744255
 11
33.3230469807
 21
35.7417744276
  0
LINE
  5
402
100
AcDbEntity
  8
A_RUNDUNGEN
100
AcDbLine
 62
8
  6
HIDDEN
 10
53.4230469881
 20
36.766774435
 11
52.0694936
 21
35.4132210468
  0
LINE
  5
403
100
AcDbEntity
  8
A_FASEN
100
AcDbLine
 62
8
  6
HIDDEN
 10
54.9230469906
 20
37.4667744374
 11
53.9230469906
 21
36.4667744374
  0
LINE
  5
404
100
AcDbEntity
  8
A_ACHSEN
100
AcDbLine
 62
8
  6
HIDDEN
 10
58.2929342352
 20
40.2085337888
 11
57.7929342352
 21
39.7085337888
  0
LINE
  5
405
100
AcDbEntity
  8
A_FASEN
100
AcDbLine
 62
7
  6
CONTINUOUS
 10
137.9229342352
 20
26.8085337888
 11
138.4229342352
 21
26.3085337888
  0
LINE
  5
406
100
AcDbEntity
  8
A_ACHSEN
100
AcDbLine
 62
8
  6
HIDDEN
 10
63.7929342352
 20
33.2085337888
 11
62.7929342352
 21
32.2085337888
  0
LINE
  5
407
100
AcDbEntity
  8
A_FASEN
100
AcDbLine
 62
7
  6
CONTINUOUS
 10
58.4229342352
 20
26.3085337888
 11
58.9229342352
 21
26.8085337888
  0
LINE
  5
408
100
AcDbEntity
  8
DEFAULT_2
100
AcDbLine
 62
8
  6
HIDDEN
 10
62.2929342352
 20
40.0599473202
 11
62.5249850427
 21
40.2085337888
  0
LINE
  5
409
100
AcDbEntity
  8
A_FLAECHEN
100
AcDbLine
 62
8
  6
HIDDEN
 10
60.7929342352
 20
36.2755210869
 11
62.2929342352
 21
37.1415464907
  0
LINE
  5
40A
100
AcDbEntity
  8
DEFAULT_2
100
AcDbLine
 62
8
  6
HIDDEN
 10
52.719553951
 20
21.2085337888
 11
49.7929342352
 21
19.652422483
  0
LINE
  5
40B
100
AcDbEntity
  8
A_ACHSEN
100
AcDbLine
 62
8
  6
HIDDEN
 10
55.4432604024
 20
19.259044046
 11
49.7929342352
 21
16.2547123309
  0
LWPOLYLINE
  5
40C
100
AcDbEntity
  8
A_RUNDUNGEN
100
AcDbPolyline
 62
7
  6
CONTINUOUS
 90
6
 70
0
 10
54.6332533967
 20
14.4339339215
 10
54.6819021298
 20
14.4592772086
 10
54.7261977974
 20
14.4970822919
 10
54.7621724423
 20
14.5470046942
 10
54.7857306853
 20
14.6075894932
 10
54.792934235
 20
14.6671895513
  0
LINE
  5
40D
100
AcDbEntity
  8
0
100
AcDbLine
 62
7
  6
CONTINUOUS
 10
39.9230469906
 20
129.4167744374
 11
41.4230469906
 21
129.4167744374
  0
LINE
  5
40E
100
AcDbEntity
  8
A_FASEN
100
AcDbLine
 62
7
  6
CONTINUOUS
 10
138.4229342352
 20
26.3085337888
 11
138.4229342352
 21
19.3085337888
  0
LINE
  5
40F
100
AcDbEntity
  8
0
100
AcDbLine
 62
7
  6
CONTINUOUS
 10
42.9230469906
 20
133.9167744374
 11
66.9230469906
 21
133.9167744374
  0
LINE
  5
410
100
AcDbEntity
  8
0
100
AcDbLine
 62
7
  6
CONTINUOUS
 10
66.9230469906
 20
135.4167744374
 11
42.9230469906
 21
135.4167744374
  0
LINE
  5
411
100
AcDbEntity
  8
A_FASEN
100
AcDbLine
 62
7
  6
CONTINUOUS
 10
137.9229342352
 20
18.8085337888
 11
138.4229342352
 21
19.3085337888
  0
ARC
  5
412
100
AcDbEntity
  8
0
100
AcDbCircle
 62
7
  6
CONTINUOUS
 10
16.4230469906
 20
18.4167744374
 40
3.0
100
AcDbArc
 50
180.0
 51
270.0
  0
ARC
  5
413
100
AcDbEntity
  8
0
100
AcDbCircle
 62
7
  6
CONTINUOUS
 10
16.4230469906
 20
18.4167744374
 40
1.5
100
AcDbArc
 50
180.0
 51
270.0
  0
ARC
  5
414
100
AcDbEntity
  8
A_RUNDUNGEN
100
AcDbCircle
 62
8
  6
HIDDEN
 10
21.651423626
 20
17.9167744374
 40
1.3
100
AcDbArc
 50
10.8069228749
 51
89.9999999999
  0
ARC
  5
415
100
AcDbEntity
  8
A_RUNDUNGEN
100
AcDbCircle
 62
7
  6
CONTINUOUS
 10
21.651423626
 20
17.9167744374
 40
0.3
100
AcDbArc
 50
10.8069228749
 51
90.0
  0
ARC
  5
416
100
AcDbEntity
  8
0
100
AcDbCircle
 62
3
  6
CONTINUOUS
 10
18.7230469906
 20
20.2167744374
 40
2.0
100
AcDbArc
 50
180.0
 51
270.0
  0
ARC
  5
417
100
AcDbEntity
  8
DEFAULT_2
100
AcDbCircle
 62
8
  6
HIDDEN
 10
18.7230469906
 20
20.2167744374
 40
1.0
100
AcDbArc
 50
180.0
 51
270.0
  0
ARC
  5
418
100
AcDbEntity
  8
A_RUNDUNGEN
100
AcDbCircle
 62
8
  6
HIDDEN
 10
19.4230469906
 20
20.4736813215
 40
0.5
100
AcDbArc
 50
180.0
 51
224.75
  0
ARC
  5
419
100
AcDbEntity
  8
A_RUNDUNGEN
100
AcDbCircle
 62
8
  6
HIDDEN
 10
20.3230469906
 20
21.1141632736
 40
0.5
100
AcDbArc
 50
180.0
 51
269.7
  0
ARC
  5
41A
100
AcDbEntity
  8
A_RUNDUNGEN
100
AcDbCircle
 62
8
  6
HIDDEN
 10
19.5911762526
 20
20.1620359318
 40
0.4
100
AcDbArc
 50
224.75
 51
269.5
  0
ARC
  5
41B
100
AcDbEntity
  8
DEFAULT_2
100
AcDbCircle
 62
8
  6
HIDDEN
 10
22.3405453721
 20
15.9498639196
 40
2.5634846459
100
AcDbArc
 50
77.535378342
 51
79.4227998413
  0
ARC
  5
41C
100
AcDbEntity
  8
DEFAULT_2
100
AcDbCircle
 62
8
  6
HIDDEN
 10
22.3426228495
 20
15.9589218085
 40
2.5541918614
100
AcDbArc
 50
76.8725100906
 51
77.53702676
  0
ARC
  5
41D
100
AcDbEntity
  8
DEFAULT_2
100
AcDbCircle
 62
8
  6
HIDDEN
 10
22.3473491643
 20
15.9867621984
 40
2.5259644213
100
AcDbArc
 50
79.42087476
 51
81.1046173545
  0
ARC
  5
41E
100
AcDbEntity
  8
DEFAULT_2
100
AcDbCircle
 62
8
  6
HIDDEN
 10
22.3498337441
 20
15.9898198417
 40
2.5224635549
100
AcDbArc
 50
76.2062881812
 51
76.8726221975
  0
ARC
  5
41F
100
AcDbEntity
  8
DEFAULT_2
100
AcDbCircle
 62
8
  6
HIDDEN
 10
22.3594348631
 20
16.0288379306
 40
2.4822815653
100
AcDbArc
 50
75.4047306447
 51
76.2067790415
  0
ARC
  5
420
100
AcDbEntity
  8
A_RUNDUNGEN
100
AcDbCircle
 62
3
  6
CONTINUOUS
 10
22.6889148737
 20
17.5096676562
 40
1.0
100
AcDbArc
 50
11.7448290054
 51
57.7149271569
  0
ARC
  5
421
100
AcDbEntity
  8
A_RUNDUNGEN
100
AcDbCircle
 62
8
  6
HIDDEN
 10
23.2230469906
 20
18.2167744374
 40
1.3
100
AcDbArc
 50
180.0
 51
270.0
  0
ARC
  5
422
100
AcDbEntity
  8
0
100
AcDbCircle
 62
3
  6
CONTINUOUS
 10
23.2230469906
 20
18.2167744374
 40
1.3
100
AcDbArc
 50
180.0
 51
270.0
  0
ARC
  5
423
100
AcDbEntity
  8
A_RUNDUNGEN
100
AcDbCircle
 62
8
  6
HIDDEN
 10
23.2230469906
 20
18.2167744374
 40
0.3
100
AcDbArc
 50
190.8069228749
 51
270.0
  0
ARC
  5
424
100
AcDbEntity
  8
0
100
AcDbCircle
 62
7
  6
CONTINUOUS
 10
23.2230469906
 20
18.2167744374
 40
0.3
100
AcDbArc
 50
180.0
 51
270.0
  0
ARC
  5
425
100
AcDbEntity
  8
A_RUNDUNGEN
100
AcDbCircle
 62
3
  6
CONTINUOUS
 10
24.6470425684
 20
17.9167744374
 40
1.0
100
AcDbArc
 50
191.7448290054
 51
270.0
  0
ARC
  5
426
100
AcDbEntity
  8
DEFAULT_2
100
AcDbCircle
 62
8
  6
HIDDEN
 10
23.7161904911
 20
18.254276559
 40
0.7922540096
100
AcDbArc
 50
174.1248213852
 51
176.0909486953
  0
ARC
  5
427
100
AcDbEntity
  8
A_ACHSEN
100
AcDbCircle
 62
8
  6
HIDDEN
 10
27.6230469906
 20
24.0167744374
 40
3.0
100
AcDbArc
 50
162.4473252019
 51
348.5053252019
  0
CIRCLE
  5
428
100
AcDbEntity
  8
A_ACHSEN
100
AcDbCircle
 62
8
  6
HIDDEN
 10
27.6230469906
 20
24.0167744374
 40
2.5
  0
CIRCLE
  5
429
100
AcDbEntity
  8
A_FASEN
100
AcDbCircle
 62
8
  6
HIDDEN
 10
27.6230469906
 20
24.0167744374
 40
2.2
  0
CIRCLE
  5
42A
100
AcDbEntity
  8
A_ACHSEN
100
AcDbCircle
 62
8
  6
HIDDEN
 10
27.6230469906
 20
24.0167744374
 40
2.2
  0
CIRCLE
  5
42B
100
AcDbEntity
  8
A_FASEN
100
AcDbCircle
 62
8
  6
HIDDEN
 10
27.6230469906
 20
24.0167744374
 40
1.85
  0
ARC
  5
42C
100
AcDbEntity
  8
A_RUNDUNGEN
100
AcDbCircle
 62
8
  6
HIDDEN
 10
19.4230469906
 20
29.1058640428
 40
0.5
100
AcDbArc
 50
180.0
 51
224.0
  0
ARC
  5
42D
100
AcDbEntity
  8
A_RUNDUNGEN
100
AcDbCircle
 62
8
  6
HIDDEN
 10
19.4230469906
 20
30.3846676562
 40
0.5
100
AcDbArc
 50
135.000001341
 51
179.9999994984
  0
ARC
  5
42E
100
AcDbEntity
  8
A_RUNDUNGEN
100
AcDbCircle
 62
8
  6
HIDDEN
 10
19.6301537718
 20
30.5917744374
 40
0.5
100
AcDbArc
 50
90.0
 51
135.0000070685
  0
ARC
  5
42F
100
AcDbEntity
  8
A_RUNDUNGEN
100
AcDbCircle
 62
8
  6
HIDDEN
 10
19.5852986095
 20
28.793891919
 40
0.4
100
AcDbArc
 50
224.0
 51
268.0
  0
ARC
  5
430
100
AcDbEntity
  8
A_RUNDUNGEN
100
AcDbCircle
 62
7
  6
CONTINUOUS
 10
39.8429342352
 20
15.1667744374
 40
0.25
100
AcDbArc
 50
90.0
 51
180.0
  0
ARC
  5
431
100
AcDbEntity
  8
A_RUNDUNGEN
100
AcDbCircle
 62
7
  6
CONTINUOUS
 10
39.8429342352
 20
14.9992625324
 40
0.25
100
AcDbArc
 50
180.0
 51
252.2553283749
  0
ARC
  5
432
100
AcDbEntity
  8
A_RUNDUNGEN
100
AcDbCircle
 62
8
  6
HIDDEN
 10
38.8039494888
 20
33.4807960806
 40
6.0
100
AcDbArc
 50
74.8169102323
 51
166.8169102323
  0
ARC
  5
433
100
AcDbEntity
  8
A_ACHSEN
100
AcDbCircle
 62
8
  6
HIDDEN
 10
33.6230469906
 20
24.5167744374
 40
3.0
100
AcDbArc
 50
166.8169102323
 51
349.8169102323
  0
CIRCLE
  5
434
100
AcDbEntity
  8
DEFAULT_2
100
AcDbCircle
 62
8
  6
HIDDEN
 10
33.6230469906
 20
24.5167744374
 40
2.5
  0
CIRCLE
  5
435
100
AcDbEntity
  8
DEFAULT_2
100
AcDbCircle
 62
8
  6
HIDDEN
 10
33.6230469906
 20
24.5167744374
 40
2.2
  0
ARC
  5
436
100
AcDbEntity
  8
A_RUNDUNGEN
100
AcDbCircle
 62
8
  6
HIDDEN
 10
29.1730469906
 20
27.3083793919
 40
0.75
100
AcDbArc
 50
0.0
 51
87.9999999811
  0
ARC
  5
437
100
AcDbEntity
  8
DEFAULT_2
100
AcDbCircle
 62
8
  6
HIDDEN
 10
34.3230469906
 20
27.1641632736
 40
0.5
100
AcDbArc
 50
243.4798867806
 51
269.7
  0
ARC
  5
438
100
AcDbEntity
  8
A_RUNDUNGEN
100
AcDbCircle
 62
8
  6
HIDDEN
 10
34.3230469906
 20
27.1641632736
 40
0.5
100
AcDbArc
 50
180.0
 51
269.7
  0
ARC
  5
439
100
AcDbEntity
  8
A_RUNDUNGEN
100
AcDbCircle
 62
8
  6
HIDDEN
 10
19.4230469906
 20
37.727684832
 40
0.5
100
AcDbArc
 50
136.0
 51
180.0
  0
ARC
  5
43A
100
AcDbEntity
  8
A_RUNDUNGEN
100
AcDbCircle
 62
8
  6
HIDDEN
 10
19.4230469906
 20
36.4488812186
 40
0.5
100
AcDbArc
 50
180.0000005016
 51
224.999998659
  0
ARC
  5
43B
100
AcDbEntity
  8
A_RUNDUNGEN
100
AcDbCircle
 62
8
  6
HIDDEN
 10
19.6301537718
 20
36.2417744374
 40
0.5
100
AcDbArc
 50
224.9999929315
 51
270.0
  0
ARC
  5
43C
100
AcDbEntity
  8
A_RUNDUNGEN
100
AcDbCircle
 62
8
  6
HIDDEN
 10
19.5852986095
 20
38.0396569558
 40
0.4
100
AcDbArc
 50
92.0
 51
136.0
  0
ARC
  5
43D
100
AcDbEntity
  8
0
100
AcDbCircle
 62
3
  6
CONTINUOUS
 10
18.7230469906
 20
47.9167744374
 40
2.0
100
AcDbArc
 50
90.0
 51
180.0
  0
ARC
  5
43E
100
AcDbEntity
  8
DEFAULT_2
100
AcDbCircle
 62
8
  6
HIDDEN
 10
18.7230469906
 20
47.9167744374
 40
1.0
100
AcDbArc
 50
90.0
 51
180.0
  0
ARC
  5
43F
100
AcDbEntity
  8
A_RUNDUNGEN
100
AcDbCircle
 62
8
  6
HIDDEN
 10
19.4230469906
 20
46.3598675534
 40
0.5
100
AcDbArc
 50
135.25
 51
180.0
  0
ARC
  5
440
100
AcDbEntity
  8
A_RUNDUNGEN
100
AcDbCircle
 62
8
  6
HIDDEN
 10
20.3230469906
 20
45.6693856013
 40
0.5
100
AcDbArc
 50
90.3
 51
180.0
  0
ARC
  5
441
100
AcDbEntity
  8
A_RUNDUNGEN
100
AcDbCircle
 62
8
  6
HIDDEN
 10
19.5911762526
 20
46.671512943
 40
0.4
100
AcDbArc
 50
90.5
 51
135.25
  0
ARC
  5
442
100
AcDbEntity
  8
A_RUNDUNGEN
100
AcDbCircle
 62
8
  6
HIDDEN
 10
21.6230469906
 20
50.2167744374
 40
1.3
100
AcDbArc
 50
270.0
 51
360.0
  0
ARC
  5
443
100
AcDbEntity
  8
A_RUNDUNGEN
100
AcDbCircle
 62
7
  6
CONTINUOUS
 10
21.6230469906
 20
50.2167744374
 40
0.3
100
AcDbArc
 50
270.0
 51
360.0
  0
ARC
  5
444
100
AcDbEntity
  8
A_RUNDUNGEN
100
AcDbCircle
 62
8
  6
HIDDEN
 10
21.7735160745
 20
50.2167744374
 40
1.3
100
AcDbArc
 50
270.0
 51
332.1599277587
  0
ARC
  5
445
100
AcDbEntity
  8
A_RUNDUNGEN
100
AcDbCircle
 62
3
  6
CONTINUOUS
 10
22.6889148737
 20
51.3238812186
 40
1.0
100
AcDbArc
 50
302.285072843
 51
348.2551709947
  0
ARC
  5
446
100
AcDbEntity
  8
A_RUNDUNGEN
100
AcDbCircle
 62
8
  6
HIDDEN
 10
21.6931866167
 20
50.2167744374
 40
0.3
100
AcDbArc
 50
270.0000000279
 51
319.2502295803
  0
ARC
  5
447
100
AcDbEntity
  8
DEFAULT_2
100
AcDbCircle
 62
8
  6
HIDDEN
 10
22.3431766214
 20
52.8725084607
 40
2.5520091281
100
AcDbArc
 50
282.3202119393
 51
283.1232294322
  0
ARC
  5
448
100
AcDbEntity
  8
DEFAULT_2
100
AcDbCircle
 62
8
  6
HIDDEN
 10
22.3447664518
 20
52.862683805
 40
2.5420715585
100
AcDbArc
 50
278.8967798786
 51
282.3324533085
  0
ARC
  5
449
100
AcDbEntity
  8
DEFAULT_2
100
AcDbCircle
 62
8
  6
HIDDEN
 10
22.3507223301
 20
52.8401120577
 40
2.5187455655
100
AcDbArc
 50
283.1233848969
 51
283.7868064876
  0
ARC
  5
44A
100
AcDbEntity
  8
DEFAULT_2
100
AcDbCircle
 62
8
  6
HIDDEN
 10
22.3599554868
 20
52.8025677215
 40
2.4800825604
100
AcDbArc
 50
283.7863454181
 51
284.5791464297
  0
ARC
  5
44B
100
AcDbEntity
  8
DEFAULT_2
100
AcDbCircle
 62
8
  6
HIDDEN
 10
22.3752497546
 20
52.6503729102
 40
2.3276022661
100
AcDbArc
 50
274.4692678424
 51
278.9636946614
  0
ARC
  5
44C
100
AcDbEntity
  8
0
100
AcDbCircle
 62
3
  6
CONTINUOUS
 10
23.2230469906
 20
50.6167744374
 40
1.3
100
AcDbArc
 50
90.0
 51
180.0
  0
ARC
  5
44D
100
AcDbEntity
  8
DEFAULT_2
100
AcDbCircle
 62
8
  6
HIDDEN
 10
23.7177435821
 20
50.5794443969
 40
0.7938149778
100
AcDbArc
 50
183.914211776
 51
185.8757648863
  0
ARC
  5
44E
100
AcDbEntity
  8
0
100
AcDbCircle
 62
7
  6
CONTINUOUS
 10
23.2230469906
 20
50.6167744374
 40
0.3
100
AcDbArc
 50
90.0
 51
180.0
  0
ARC
  5
44F
100
AcDbEntity
  8
A_RUNDUNGEN
100
AcDbCircle
 62
3
  6
CONTINUOUS
 10
24.6470425684
 20
50.9167744374
 40
1.0
100
AcDbArc
 50
90.0
 51
168.2551709947
  0
ARC
  5
450
100
AcDbEntity
  8
A_RUNDUNGEN
100
AcDbCircle
 62
8
  6
HIDDEN
 10
34.441354036
 20
38.940875635
 40
5.0
100
AcDbArc
 50
77.1733252019
 51
162.4473252019
  0
ARC
  5
451
100
AcDbEntity
  8
A_RUNDUNGEN
100
AcDbCircle
 62
8
  6
HIDDEN
 10
35.5025858283
 20
37.67365753
 40
2.0
100
AcDbArc
 50
77.1733252019
 51
168.5053252019
  0
ARC
  5
452
100
AcDbEntity
  8
A_RUNDUNGEN
100
AcDbCircle
 62
8
  6
HIDDEN
 10
29.1730469906
 20
39.5251694829
 40
0.75
100
AcDbArc
 50
272.0
 51
360.0
  0
ARC
  5
453
100
AcDbEntity
  8
DEFAULT_2
100
AcDbCircle
 62
8
  6
HIDDEN
 10
34.3230469906
 20
39.6693856013
 40
0.5
100
AcDbArc
 50
90.3
 51
116.5201132194
  0
ARC
  5
454
100
AcDbEntity
  8
A_RUNDUNGEN
100
AcDbCircle
 62
8
  6
HIDDEN
 10
34.3230469906
 20
39.6693856013
 40
0.5
100
AcDbArc
 50
90.3
 51
180.0
  0
ARC
  5
455
100
AcDbEntity
  8
A_RUNDUNGEN
100
AcDbCircle
 62
7
  6
CONTINUOUS
 10
41.0770860158
 20
15.9167744374
 40
1.5
100
AcDbArc
 50
252.2553283749
 51
270.0
  0
ARC
  5
456
100
AcDbEntity
  8
A_RUNDUNGEN
100
AcDbCircle
 62
3
  6
CONTINUOUS
 10
41.4230469906
 20
17.9167744374
 40
1.0
100
AcDbArc
 50
270.0
 51
360.0
  0
ARC
  5
457
100
AcDbEntity
  8
0
100
AcDbCircle
 62
3
  6
CONTINUOUS
 10
43.6730469906
 20
21.4167744374
 40
1.25
100
AcDbArc
 50
0.0
 51
180.0
  0
ARC
  5
458
100
AcDbEntity
  8
0
100
AcDbCircle
 62
7
  6
CONTINUOUS
 10
45.2230469906
 20
20.2371744374
 40
3.3
100
AcDbArc
 50
211.4035206053
 51
270.0
  0
ARC
  5
459
100
AcDbEntity
  8
0
100
AcDbCircle
 62
3
  6
CONTINUOUS
 10
45.2230469906
 20
20.2371744374
 40
0.3
100
AcDbArc
 50
203.661092959
 51
270.0
  0
ARC
  5
45A
100
AcDbEntity
  8
A_RUNDUNGEN
100
AcDbCircle
 62
8
  6
HIDDEN
 10
45.2730469906
 20
20.1429950995
 40
0.25
100
AcDbArc
 50
180.0
 51
186.0777586836
  0
ARC
  5
45B
100
AcDbEntity
  8
A_RUNDUNGEN
100
AcDbCircle
 62
7
  6
CONTINUOUS
 10
45.2730469906
 20
20.1429950995
 40
0.25
100
AcDbArc
 50
186.0777586836
 51
209.8333333288
  0
ARC
  5
45C
100
AcDbEntity
  8
A_RUNDUNGEN
100
AcDbCircle
 62
8
  6
HIDDEN
 10
45.2730469906
 20
20.1429950995
 40
0.25
100
AcDbArc
 50
209.8333333288
 51
224.7499999931
  0
ARC
  5
45D
100
AcDbEntity
  8
A_RUNDUNGEN
100
AcDbCircle
 62
8
  6
HIDDEN
 10
45.6281206399
 20
19.7848092487
 40
0.25
100
AcDbArc
 50
224.75
 51
269.5
  0
ARC
  5
45E
100
AcDbEntity
  8
A_RUNDUNGEN
100
AcDbCircle
 62
8
  6
HIDDEN
 10
45.2730469906
 20
22.1337617355
 40
0.25
100
AcDbArc
 50
120.0
 51
180.0
  0
ARC
  5
45F
100
AcDbEntity
  8
A_RUNDUNGEN
100
AcDbCircle
 62
8
  6
HIDDEN
 10
45.5230469906
 20
23.0196076801
 40
0.25
100
AcDbArc
 50
91.0
 51
180.0
  0
ARC
  5
460
100
AcDbEntity
  8
A_RUNDUNGEN
100
AcDbCircle
 62
8
  6
HIDDEN
 10
45.0230469906
 20
22.5667744374
 40
0.25
100
AcDbArc
 50
300.0
 51
360.0
  0
ARC
  5
461
100
AcDbEntity
  8
0
100
AcDbCircle
 62
7
  6
CONTINUOUS
 10
51.9230469906
 20
18.4167744374
 40
3.0
100
AcDbArc
 50
270.0
 51
360.0
  0
ARC
  5
462
100
AcDbEntity
  8
A_RUNDUNGEN
100
AcDbCircle
 62
7
  6
CONTINUOUS
 10
48.7929342352
 20
14.2085337888
 40
2.0
100
AcDbArc
 50
180.0
 51
270.0
  0
ARC
  5
463
100
AcDbEntity
  8
0
100
AcDbCircle
 62
7
  6
CONTINUOUS
 10
51.9230469906
 20
18.4167744374
 40
1.5
100
AcDbArc
 50
270.0
 51
360.0
  0
ARC
  5
464
100
AcDbEntity
  8
A_RUNDUNGEN
100
AcDbCircle
 62
8
  6
HIDDEN
 10
47.7230469906
 20
22.8079707409
 40
0.5
100
AcDbArc
 50
0.0
 51
91.0
  0
ARC
  5
465
100
AcDbEntity
  8
A_RUNDUNGEN
100
AcDbCircle
 62
8
  6
HIDDEN
 10
48.4730469906
 20
21.6532150908
 40
0.25
100
AcDbArc
 50
180.0
 51
269.0
  0
ARC
  5
466
100
AcDbEntity
  8
A_RUNDUNGEN
100
AcDbCircle
 62
8
  6
HIDDEN
 10
45.5230469906
 20
28.8139411947
 40
0.25
100
AcDbArc
 50
180.0
 51
269.0
  0
ARC
  5
467
100
AcDbEntity
  8
A_RUNDUNGEN
100
AcDbCircle
 62
8
  6
HIDDEN
 10
42.0742926615
 20
32.0750144416
 40
10.0
100
AcDbArc
 50
22.9384252019
 51
77.1733252019
  0
ARC
  5
468
100
AcDbEntity
  8
A_RUNDUNGEN
100
AcDbCircle
 62
8
  6
HIDDEN
 10
42.2798136383
 20
33.0538131182
 40
5.0
100
AcDbArc
 50
14.9731252019
 51
77.1733252019
  0
ARC
  5
469
100
AcDbEntity
  8
A_RUNDUNGEN
100
AcDbCircle
 62
8
  6
HIDDEN
 10
41.0343790857
 20
31.8393399201
 40
3.0
100
AcDbArc
 50
74.8169102323
 51
169.8169102323
  0
ARC
  5
46A
100
AcDbEntity
  8
A_RUNDUNGEN
100
AcDbCircle
 62
8
  6
HIDDEN
 10
45.5230469906
 20
29.9586088504
 40
0.5
100
AcDbArc
 50
95.0000001291
 51
180.0
  0
ARC
  5
46B
100
AcDbEntity
  8
A_RUNDUNGEN
100
AcDbCircle
 62
8
  6
HIDDEN
 10
45.2730469906
 20
29.6997871393
 40
0.25
100
AcDbArc
 50
180.0
 51
240.0
  0
ARC
  5
46C
100
AcDbEntity
  8
A_RUNDUNGEN
100
AcDbCircle
 62
8
  6
HIDDEN
 10
45.0230469906
 20
29.2667744374
 40
0.25
100
AcDbArc
 50
0.0
 51
60.0
  0
ARC
  5
46D
100
AcDbEntity
  8
A_RUNDUNGEN
100
AcDbCircle
 62
8
  6
HIDDEN
 10
47.8224445734
 20
28.9610458106
 40
8.0
100
AcDbArc
 50
359.8169102323
 51
74.8169102323
  0
ARC
  5
46E
100
AcDbEntity
  8
A_RUNDUNGEN
100
AcDbCircle
 62
8
  6
HIDDEN
 10
46.8079893438
 20
28.2001770401
 40
5.0
100
AcDbArc
 50
344.8169102323
 51
74.8169102323
  0
ARC
  5
46F
100
AcDbEntity
  8
A_RUNDUNGEN
100
AcDbCircle
 62
8
  6
HIDDEN
 10
47.0143956221
 20
24.9667744374
 40
0.5
100
AcDbArc
 50
90.0
 51
179.0
  0
ARC
  5
470
100
AcDbEntity
  8
A_RUNDUNGEN
100
AcDbCircle
 62
8
  6
HIDDEN
 10
49.431698359
 20
24.9667744374
 40
0.5
100
AcDbArc
 50
1.0
 51
90.0
  0
ARC
  5
471
100
AcDbEntity
  8
A_RUNDUNGEN
100
AcDbCircle
 62
8
  6
HIDDEN
 10
51.7159402094
 20
31.0667744374
 40
0.5
100
AcDbArc
 50
45.0000075022
 51
90.0
  0
ARC
  5
472
100
AcDbEntity
  8
A_RUNDUNGEN
100
AcDbCircle
 62
8
  6
HIDDEN
 10
47.7230469906
 20
29.0255781339
 40
0.5
100
AcDbArc
 50
269.0
 51
360.0
  0
ARC
  5
473
100
AcDbEntity
  8
A_RUNDUNGEN
100
AcDbCircle
 62
8
  6
HIDDEN
 10
47.5230469906
 20
31.0667744374
 40
0.5
100
AcDbArc
 50
90.0
 51
179.9999994494
  0
ARC
  5
474
100
AcDbEntity
  8
A_RUNDUNGEN
100
AcDbCircle
 62
8
  6
HIDDEN
 10
46.5230469906
 20
31.0499173515
 40
0.5
100
AcDbArc
 50
275.0
 51
360.0
  0
ARC
  5
475
100
AcDbEntity
  8
A_RUNDUNGEN
100
AcDbCircle
 62
8
  6
HIDDEN
 10
48.4730469906
 20
30.180333784
 40
0.25
100
AcDbArc
 50
91.0
 51
180.0
  0
ARC
  5
476
100
AcDbEntity
  8
A_RUNDUNGEN
100
AcDbCircle
 62
7
  6
CONTINUOUS
 10
54.5429342352
 20
15.1667744374
 40
0.25
100
AcDbArc
 50
0.0
 51
90.0
  0
ARC
  5
477
100
AcDbEntity
  8
A_ACHSEN
100
AcDbCircle
 62
8
  6
HIDDEN
 10
52.7929034456
 20
19.7085415506
 40
3.0
100
AcDbArc
 50
164.8169102323
 51
359.8169102323
  0
CIRCLE
  5
478
100
AcDbEntity
  8
DEFAULT_2
100
AcDbCircle
 62
8
  6
HIDDEN
 10
52.7929034456
 20
19.7085415506
 40
2.5
  0
CIRCLE
  5
479
100
AcDbEntity
  8
DEFAULT_2
100
AcDbCircle
 62
8
  6
HIDDEN
 10
52.7929034456
 20
19.7085415506
 40
2.2
  0
CIRCLE
  5
47A
100
AcDbEntity
  8
DEFAULT_2
100
AcDbCircle
 62
8
  6
HIDDEN
 10
52.7929342352
 20
19.7085337888
 40
1.75
  0
ARC
  5
47B
100
AcDbEntity
  8
DEFAULT_2
100
AcDbCircle
 62
8
  6
HIDDEN
 10
54.9830185331
 20
20.644470129
 40
1.4359363561
100
AcDbArc
 50
267.6485929855
 51
269.9914739737
  0
ARC
  5
47C
100
AcDbEntity
  8
A_RUNDUNGEN
100
AcDbCircle
 62
7
  6
CONTINUOUS
 10
58.7929342352
 20
17.2085337888
 40
1.0
100
AcDbArc
 50
180.0
 51
270.0
  0
ARC
  5
47D
100
AcDbEntity
  8
A_ACHSEN
100
AcDbCircle
 62
8
  6
HIDDEN
 10
52.7928993992
 20
24.7085328701
 40
3.0
100
AcDbArc
 50
194.9731252019
 51
22.9384252019
  0
CIRCLE
  5
47E
100
AcDbEntity
  8
DEFAULT_2
100
AcDbCircle
 62
8
  6
HIDDEN
 10
52.7928993992
 20
24.7085328701
 40
2.5
  0
CIRCLE
  5
47F
100
AcDbEntity
  8
A_FASEN
100
AcDbCircle
 62
8
  6
HIDDEN
 10
52.7928993992
 20
24.7085328701
 40
2.2
  0
CIRCLE
  5
480
100
AcDbEntity
  8
DEFAULT_2
100
AcDbCircle
 62
8
  6
HIDDEN
 10
52.7928993992
 20
24.7085328701
 40
2.2
  0
CIRCLE
  5
481
100
AcDbEntity
  8
DEFAULT_2
100
AcDbCircle
 62
8
  6
HIDDEN
 10
52.7929342352
 20
24.7085337888
 40
1.75
  0
ARC
  5
482
100
AcDbEntity
  8
0
100
AcDbCircle
 62
7
  6
CONTINUOUS
 10
55.9230469906
 20
27.8167744374
 40
1.0
100
AcDbArc
 50
180.0
 51
270.0
  0
ARC
  5
483
100
AcDbEntity
  8
A_RUNDUNGEN
100
AcDbCircle
 62
8
  6
HIDDEN
 10
52.9230469906
 20
26.0667593034
 40
0.5
100
AcDbArc
 50
0.0
 51
89.6999999949
  0
ARC
  5
484
100
AcDbEntity
  8
0
100
AcDbCircle
 62
7
  6
CONTINUOUS
 10
56.4230469906
 20
28.3167744374
 40
0.5
100
AcDbArc
 50
180.0
 51
270.0
  0
ARC
  5
485
100
AcDbEntity
  8
A_RUNDUNGEN
100
AcDbCircle
 62
7
  6
CONTINUOUS
 10
57.9929342352
 20
29.771256932
 40
0.2
100
AcDbArc
 50
180.0
 51
214.824489157
  0
ARC
  5
486
100
AcDbEntity
  8
A_RUNDUNGEN
100
AcDbCircle
 62
8
  6
HIDDEN
 10
58.7929342352
 20
26.7085337888
 40
1.0
100
AcDbArc
 50
89.1227142444
 51
173.6517777277
  0
ARC
  5
487
100
AcDbEntity
  8
A_RUNDUNGEN
100
AcDbCircle
 62
7
  6
CONTINUOUS
 10
58.7929342352
 20
26.7085337888
 40
1.0
100
AcDbArc
 50
173.6517777277
 51
180.0
  0
ARC
  5
488
100
AcDbEntity
  8
A_RUNDUNGEN
100
AcDbCircle
 62
8
  6
HIDDEN
 10
58.8014746573
 20
27.9085337888
 40
0.2
100
AcDbArc
 50
271.9607074675
 51
331.9728169508
  0
ARC
  5
489
100
AcDbEntity
  8
A_RUNDUNGEN
100
AcDbCircle
 62
7
  6
CONTINUOUS
 10
58.8014746573
 20
27.9085337888
 40
0.2
100
AcDbArc
 50
331.9728169508
 51
34.824489157
  0
ARC
  5
48A
100
AcDbEntity
  8
A_RUNDUNGEN
100
AcDbCircle
 62
7
  6
CONTINUOUS
 10
58.7929342352
 20
30.3238325777
 40
1.0
100
AcDbArc
 50
180.0
 51
215.0
  0
ARC
  5
48B
100
AcDbEntity
  8
A_RUNDUNGEN
100
AcDbCircle
 62
7
  6
CONTINUOUS
 10
63.0423671846
 20
31.0085337888
 40
1.0
100
AcDbArc
 50
35.0
 51
90.0
  0
ARC
  5
48C
100
AcDbEntity
  8
A_RUNDUNGEN
100
AcDbCircle
 62
7
  6
CONTINUOUS
 10
63.3704189546
 20
31.0085337888
 40
1.0
100
AcDbArc
 50
34.824489157
 51
90.0
  0
ARC
  5
48D
100
AcDbEntity
  8
A_RUNDUNGEN
100
AcDbCircle
 62
7
  6
CONTINUOUS
 10
58.2929342352
 20
31.5085337888
 40
0.5
100
AcDbArc
 50
90.0
 51
180.0
  0
ARC
  5
48E
100
AcDbEntity
  8
A_RUNDUNGEN
100
AcDbCircle
 62
7
  6
CONTINUOUS
 10
58.7893533962
 20
29.1085337888
 40
0.3
100
AcDbArc
 50
215.0
 51
270.0
  0
ARC
  5
48F
100
AcDbEntity
  8
A_RUNDUNGEN
100
AcDbCircle
 62
8
  6
HIDDEN
 10
47.7230469906
 20
37.8079707409
 40
0.5
100
AcDbArc
 50
0.0
 51
91.0
  0
ARC
  5
490
100
AcDbEntity
  8
A_RUNDUNGEN
100
AcDbCircle
 62
8
  6
HIDDEN
 10
47.5230469906
 20
35.7667744374
 40
0.5
100
AcDbArc
 50
180.0000005506
 51
270.0
  0
ARC
  5
491
100
AcDbEntity
  8
A_RUNDUNGEN
100
AcDbCircle
 62
8
  6
HIDDEN
 10
45.5230469906
 20
36.8749400244
 40
0.5
100
AcDbArc
 50
180.0
 51
265.0
  0
ARC
  5
492
100
AcDbEntity
  8
A_RUNDUNGEN
100
AcDbCircle
 62
8
  6
HIDDEN
 10
46.5230469906
 20
35.7836315234
 40
0.5
100
AcDbArc
 50
0.0
 51
85.0
  0
ARC
  5
493
100
AcDbEntity
  8
A_RUNDUNGEN
100
AcDbCircle
 62
8
  6
HIDDEN
 10
45.2730469906
 20
37.1337617355
 40
0.25
100
AcDbArc
 50
120.0
 51
180.0
  0
ARC
  5
494
100
AcDbEntity
  8
A_RUNDUNGEN
100
AcDbCircle
 62
8
  6
HIDDEN
 10
48.4730469906
 20
36.6532150908
 40
0.25
100
AcDbArc
 50
180.0
 51
269.0
  0
ARC
  5
495
100
AcDbEntity
  8
A_RUNDUNGEN
100
AcDbCircle
 62
8
  6
HIDDEN
 10
45.5230469906
 20
38.0196076801
 40
0.25
100
AcDbArc
 50
91.0
 51
180.0
  0
ARC
  5
496
100
AcDbEntity
  8
A_RUNDUNGEN
100
AcDbCircle
 62
8
  6
HIDDEN
 10
45.0230469906
 20
37.5667744374
 40
0.25
100
AcDbArc
 50
300.0
 51
360.0
  0
ARC
  5
497
100
AcDbEntity
  8
A_RUNDUNGEN
100
AcDbCircle
 62
8
  6
HIDDEN
 10
46.9230469906
 20
40.7353733578
 40
0.5
100
AcDbArc
 50
270.3
 51
360.0
  0
ARC
  5
498
100
AcDbEntity
  8
A_RUNDUNGEN
100
AcDbCircle
 62
8
  6
HIDDEN
 10
51.7159402094
 20
35.7667744374
 40
0.5
100
AcDbArc
 50
270.0
 51
314.9999924978
  0
ARC
  5
499
100
AcDbEntity
  8
A_RUNDUNGEN
100
AcDbCircle
 62
8
  6
HIDDEN
 10
52.9230469906
 20
40.4167744374
 40
0.5
100
AcDbArc
 50
0.0
 51
90.0
  0
ARC
  5
49A
100
AcDbEntity
  8
A_RUNDUNGEN
100
AcDbCircle
 62
8
  6
HIDDEN
 10
52.9230469906
 20
40.7667895715
 40
0.5
100
AcDbArc
 50
270.3
 51
360.0
  0
ARC
  5
49B
100
AcDbEntity
  8
A_RUNDUNGEN
100
AcDbCircle
 62
8
  6
HIDDEN
 10
45.2730469906
 20
44.6997871393
 40
0.25
100
AcDbArc
 50
180.0
 51
240.0
  0
ARC
  5
49C
100
AcDbEntity
  8
A_RUNDUNGEN
100
AcDbCircle
 62
8
  6
HIDDEN
 10
45.5230469906
 20
43.8139411947
 40
0.25
100
AcDbArc
 50
180.0
 51
269.0
  0
ARC
  5
49D
100
AcDbEntity
  8
A_RUNDUNGEN
100
AcDbCircle
 62
8
  6
HIDDEN
 10
45.2730469906
 20
46.6905537754
 40
0.25
100
AcDbArc
 50
135.25
 51
180.0
  0
ARC
  5
49E
100
AcDbEntity
  8
A_RUNDUNGEN
100
AcDbCircle
 62
8
  6
HIDDEN
 10
45.6281206399
 20
47.0487396261
 40
0.25
100
AcDbArc
 50
90.5
 51
135.2500000171
  0
ARC
  5
49F
100
AcDbEntity
  8
A_RUNDUNGEN
100
AcDbCircle
 62
8
  6
HIDDEN
 10
45.0230469906
 20
44.2667744374
 40
0.25
100
AcDbArc
 50
0.0
 51
60.0
  0
ARC
  5
4A0
100
AcDbEntity
  8
0
100
AcDbCircle
 62
7
  6
CONTINUOUS
 10
45.2230469906
 20
48.5963744374
 40
3.3
100
AcDbArc
 50
90.0
 51
148.2891454881
  0
ARC
  5
4A1
100
AcDbEntity
  8
0
100
AcDbCircle
 62
3
  6
CONTINUOUS
 10
43.6730469906
 20
47.4167744374
 40
1.25
100
AcDbArc
 50
180.0
 51
360.0
  0
ARC
  5
4A2
100
AcDbEntity
  8
A_RUNDUNGEN
100
AcDbCircle
 62
3
  6
CONTINUOUS
 10
41.4230469906
 20
50.9167744374
 40
1.0
100
AcDbArc
 50
0.0
 51
90.0
  0
ARC
  5
4A3
100
AcDbEntity
  8
0
100
AcDbCircle
 62
3
  6
CONTINUOUS
 10
45.2230469906
 20
48.5963744374
 40
0.3
100
AcDbArc
 50
90.0
 51
156.3613637344
  0
ARC
  5
4A4
100
AcDbEntity
  8
A_RUNDUNGEN
100
AcDbCircle
 62
8
  6
HIDDEN
 10
52.9230469906
 20
46.7167744374
 40
0.5
100
AcDbArc
 50
270.0
 51
360.0
  0
ARC
  5
4A5
100
AcDbEntity
  8
A_RUNDUNGEN
100
AcDbCircle
 62
8
  6
HIDDEN
 10
52.9230469906
 20
46.8400940699
 40
0.5
100
AcDbArc
 50
270.3
 51
360.0
  0
ARC
  5
4A6
100
AcDbEntity
  8
A_RUNDUNGEN
100
AcDbCircle
 62
8
  6
HIDDEN
 10
47.7230469906
 20
44.0255781339
 40
0.5
100
AcDbArc
 50
269.0
 51
360.0
  0
ARC
  5
4A7
100
AcDbEntity
  8
A_RUNDUNGEN
100
AcDbCircle
 62
8
  6
HIDDEN
 10
48.4730469906
 20
45.180333784
 40
0.25
100
AcDbArc
 50
91.0
 51
180.0
  0
ARC
  5
4A8
100
AcDbEntity
  8
A_ACHSEN
100
AcDbCircle
 62
8
  6
HIDDEN
 10
47.4230469906
 20
47.5838744374
 40
1.8125
100
AcDbArc
 50
46.3971810273
 51
133.6028189727
  0
ARC
  5
4A9
100
AcDbEntity
  8
DEFAULT_2
100
AcDbCircle
 62
8
  6
HIDDEN
 10
47.4230469906
 20
47.5838744374
 40
1.8125
100
AcDbArc
 50
46.3971810273
 51
133.6028189727
  0
ARC
  5
4AA
100
AcDbEntity
  8
0
100
AcDbCircle
 62
7
  6
CONTINUOUS
 10
56.4230469906
 20
42.9167744374
 40
3.0
100
AcDbArc
 50
90.0
 51
180.0
  0
ARC
  5
4AB
100
AcDbEntity
  8
0
100
AcDbCircle
 62
7
  6
CONTINUOUS
 10
56.4230469906
 20
42.9167744374
 40
1.5
100
AcDbArc
 50
90.0
 51
180.0
  0
ARC
  5
4AC
100
AcDbEntity
  8
0
100
AcDbCircle
 62
7
  6
CONTINUOUS
 10
56.4230469906
 20
42.9167744374
 40
0.5
100
AcDbArc
 50
90.0
 51
180.0
  0
ARC
  5
4AD
100
AcDbEntity
  8
A_RUNDUNGEN
100
AcDbCircle
 62
8
  6
HIDDEN
 10
63.7929342352
 20
36.2085337888
 40
4.0
100
AcDbArc
 50
38.4849697477
 51
78.3485841763
  0
ARC
  5
4AE
100
AcDbEntity
  8
A_RUNDUNGEN
100
AcDbCircle
 62
7
  6
CONTINUOUS
 10
63.7929342352
 20
36.2085337888
 40
4.0
100
AcDbArc
 50
78.3485841763
 51
90.0
  0
ARC
  5
4AF
100
AcDbEntity
  8
A_RUNDUNGEN
100
AcDbCircle
 62
7
  6
CONTINUOUS
 10
63.7929342352
 20
36.2085337888
 40
4.0
100
AcDbArc
 50
0.0
 51
38.4849697477
  0
ARC
  5
4B0
100
AcDbEntity
  8
0
100
AcDbCircle
 62
7
  6
CONTINUOUS
 10
64.4230469906
 20
42.9167744374
 40
3.0
100
AcDbArc
 50
352.8256229611
 51
90.0
  0
ARC
  5
4B1
100
AcDbEntity
  8
0
100
AcDbCircle
 62
7
  6
CONTINUOUS
 10
64.4230469906
 20
42.9167744374
 40
1.5
100
AcDbArc
 50
352.8256229611
 51
90.0
  0
ARC
  5
4B2
100
AcDbEntity
  8
0
100
AcDbCircle
 62
7
  6
CONTINUOUS
 10
64.4342277631
 20
42.9167744374
 40
0.5
100
AcDbArc
 50
353.0
 51
90.0
  0
ARC
  5
4B3
100
AcDbEntity
  8
0
100
AcDbCircle
 62
7
  6
CONTINUOUS
 10
42.9230469906
 20
132.4167744374
 40
3.0
100
AcDbArc
 50
90.0
 51
180.0
  0
ARC
  5
4B4
100
AcDbEntity
  8
0
100
AcDbCircle
 62
7
  6
CONTINUOUS
 10
42.9230469906
 20
132.4167744374
 40
1.5
100
AcDbArc
 50
90.0
 51
180.0
  0
ARC
  5
4B5
100
AcDbEntity
  8
A_RUNDUNGEN
100
AcDbCircle
 62
8
  6
HIDDEN
 10
113.6888558732
 20
33.8910339215
 40
66.6658166002
100
AcDbArc
 50
180.0275693117
 51
180.1829780698
  0
ARC
  5
4B6
100
AcDbEntity
  8
0
100
AcDbCircle
 62
7
  6
CONTINUOUS
 10
66.4230469906
 20
30.4167744374
 40
3.6
100
AcDbArc
 50
270.0
 51
78.273484448
  0
ARC
  5
4B7
100
AcDbEntity
  8
0
100
AcDbCircle
 62
7
  6
CONTINUOUS
 10
67.6628136866
 20
36.389460478
 40
3.5
100
AcDbArc
 50
173.0
 51
258.273484448
  0
ARC
  5
4B8
100
AcDbEntity
  8
0
100
AcDbCircle
 62
7
  6
CONTINUOUS
 10
66.4230469906
 20
30.4167744374
 40
2.6
100
AcDbArc
 50
270.0
 51
78.273484448
  0
ARC
  5
4B9
100
AcDbEntity
  8
0
100
AcDbCircle
 62
7
  6
CONTINUOUS
 10
67.5230469906
 20
36.3167744374
 40
2.4
100
AcDbArc
 50
172.8256229611
 51
360.0
  0
ARC
  5
4BA
100
AcDbEntity
  8
A_RUNDUNGEN
100
AcDbCircle
 62
7
  6
CONTINUOUS
 10
65.7929342352
 20
14.2085337888
 40
2.0
100
AcDbArc
 50
270.0
 51
360.0
  0
ARC
  5
4BB
100
AcDbEntity
  8
0
100
AcDbCircle
 62
7
  6
CONTINUOUS
 10
67.5230469906
 20
36.3167744374
 40
0.9
100
AcDbArc
 50
172.8256229611
 51
360.0
  0
ARC
  5
4BC
100
AcDbEntity
  8
A_RUNDUNGEN
100
AcDbCircle
 62
7
  6
CONTINUOUS
 10
65.2273037194
 20
29.1085337888
 40
0.3
100
AcDbArc
 50
270.0
 51
35.0
  0
ARC
  5
4BD
100
AcDbEntity
  8
0
100
AcDbCircle
 62
7
  6
CONTINUOUS
 10
66.9230469906
 20
132.4167744374
 40
3.0
100
AcDbArc
 50
0.0
 51
90.0
  0
ARC
  5
4BE
100
AcDbEntity
  8
0
100
AcDbCircle
 62
7
  6
CONTINUOUS
 10
66.9230469906
 20
132.4167744374
 40
1.5
100
AcDbArc
 50
0.0
 51
90.0
  0
SPLINE
  5
4BF
100
AcDbEntity
  8
DEFAULT_2
100
AcDbSpline
 62
8
  6
HIDDEN
 70
0
 71
3
 72
11
 73
7
 74
0
 42
0.0000001
 43
0.0000001
 44
0.0000000001
 40
0.0
 40
0.0
 40
0.0
 40
0.0
 40
0.319070777
 40
0.5955005063
 40
0.822272746
 40
1.0
 40
1.0
 40
1.0
 40
1.0
 10
56.2929342352
 20
20.1238906462
 30
0.0
 10
56.2047898703
 20
20.0292225396
 30
0.0
 10
56.0445808029
 20
19.8486085668
 30
0.0
 10
55.8265674576
 20
19.5962805513
 30
0.0
 10
55.6371445116
 20
19.3956991826
 30
0.0
 10
55.506891933
 20
19.2928453438
 30
0.0
 10
55.4432573783
 20
19.2590540662
 30
0.0
  0
SPLINE
  5
4C0
100
AcDbEntity
  8
DEFAULT_2
100
AcDbSpline
 62
8
  6
HIDDEN
 70
0
 71
3
 72
15
 73
11
 74
0
 42
0.0000001
 43
0.0000001
 44
0.0000000001
 40
0.0
 40
0.0
 40
0.0
 40
0.0
 40
0.1445732394
 40
0.2885555385
 40
0.430437509
 40
0.5671584802
 40
0.694564099
 40
0.8091624626
 40
0.9099753501
 40
1.0
 40
1.0
 40
1.0
 40
1.0
 10
50.8388274857
 20
20.2085337888
 30
0.0
 10
51.0460205349
 20
20.2085337888
 30
0.0
 10
51.4597677081
 20
20.1960394461
 30
0.0
 10
52.0735591979
 20
20.125626214
 30
0.0
 10
52.6656983281
 20
19.9923571602
 30
0.0
 10
53.2166907056
 20
19.8024026892
 30
0.0
 10
53.7151553606
 20
19.5873695022
 30
0.0
 10
54.1650810953
 20
19.3899664275
 30
0.0
 10
54.5799931629
 20
19.2472566234
 30
0.0
 10
54.8537873291
 20
19.2085337888
 30
0.0
 10
54.9828048553
 20
19.2085337888
 30
0.0
  0
SPLINE
  5
4C1
100
AcDbEntity
  8
DEFAULT_2
100
AcDbSpline
 62
8
  6
HIDDEN
 70
0
 71
3
 72
10
 73
6
 74
0
 42
0.0000001
 43
0.0000001
 44
0.0000000001
 40
0.0
 40
0.0
 40
0.0
 40
0.0
 40
0.5242435127
 40
0.7766103932
 40
1.0
 40
1.0
 40
1.0
 40
1.0
 10
23.2230469906
 20
18.3550686745
 30
0.0
 10
23.2003654534
 20
18.3928148239
 30
0.0
 10
23.1601862705
 20
18.4460760721
 30
0.0
 10
23.0924256972
 20
18.4961548866
 30
0.0
 10
23.0527892485
 20
18.5096118401
 30
0.0
 10
23.0340263951
 20
18.5093417446
 30
0.0
  0
SPLINE
  5
4C2
100
AcDbEntity
  8
DEFAULT_2
100
AcDbSpline
 62
8
  6
HIDDEN
 70
0
 71
3
 72
13
 73
9
 74
0
 42
0.0000001
 43
0.0000001
 44
0.0000000001
 40
0.0
 40
0.0
 40
0.0
 40
0.0
 40
0.3450305753
 40
0.6391631969
 40
0.7505742122
 40
0.8393227363
 40
0.9169934906
 40
1.0
 40
1.0
 40
1.0
 40
1.0
 10
23.2230469906
 20
42.8866123208
 30
0.0
 10
23.1882452309
 20
42.8659004132
 30
0.0
 10
23.1200462519
 20
42.8338682613
 30
0.0
 10
23.0324999295
 20
42.8136377956
 30
0.0
 10
22.9742311264
 20
42.8189941232
 30
0.0
 10
22.943415525
 20
42.8326915779
 30
0.0
 10
22.9255910654
 20
42.857593227
 30
0.0
 10
22.9230469906
 20
42.876869252
 30
0.0
 10
22.9230469906
 20
42.8866123208
 30
0.0
  0
SPLINE
  5
4C3
100
AcDbEntity
  8
DEFAULT_2
100
AcDbSpline
 62
8
  6
HIDDEN
 70
0
 71
3
 72
10
 73
6
 74
0
 42
0.0000001
 43
0.0000001
 44
0.0000000001
 40
0.0
 40
0.0
 40
0.0
 40
0.0
 40
0.2236508744
 40
0.4758011603
 40
1.0
 40
1.0
 40
1.0
 40
1.0
 10
23.0340066014
 20
50.3241379064
 30
0.0
 10
23.0527939482
 20
50.32388108
 30
0.0
 10
23.0924002694
 20
50.3374571673
 30
0.0
 10
23.1602234558
 20
50.3874315711
 30
0.0
 10
23.2003645393
 20
50.4407325296
 30
0.0
 10
23.2230469906
 20
50.4784802003
 30
0.0
  0
SPLINE
  5
4C4
100
AcDbEntity
  8
A_RUNDUNGEN
100
AcDbSpline
 62
8
  6
HIDDEN
 70
0
 71
3
 72
18
 73
14
 74
0
 42
0.0000001
 43
0.0000001
 44
0.0000000001
 40
0.0
 40
0.0
 40
0.0
 40
0.0
 40
0.2130627845
 40
0.4053265324
 40
0.5748104199
 40
0.7195464257
 40
0.8374366747
 40
0.8854307309
 40
0.9255983282
 40
0.957541443
 40
0.9808590409
 40
0.995147331
 40
1.0
 40
1.0
 40
1.0
 40
1.0
 10
21.9230469914
 20
50.2167744509
 30
0.0
 10
21.9230724307
 20
50.2028720423
 30
0.0
 10
21.9231786539
 20
50.1764242454
 30
0.0
 10
21.9233741936
 20
50.1389191381
 30
0.0
 10
21.9234241532
 20
50.1058677785
 30
0.0
 10
21.923198641
 20
50.0776812156
 30
0.0
 10
21.9225524798
 20
50.0573984764
 30
0.0
 10
21.921929789
 20
50.0440045784
 30
0.0
 10
21.9213964936
 20
50.0361038386
 30
0.0
 10
21.9211531836
 20
50.0300979255
 30
0.0
 10
21.9203629885
 20
50.0250939248
 30
0.0
 10
21.9209026191
 20
50.0231965483
 30
0.0
 10
21.9199619848
 20
50.0210443793
 30
0.0
 10
21.9202724355
 20
50.021106672
 30
0.0
  0
SPLINE
  5
4C5
100
AcDbEntity
  8
A_RUNDUNGEN
100
AcDbSpline
 62
8
  6
HIDDEN
 70
0
 71
3
 72
17
 73
13
 74
0
 42
0.0000001
 43
0.0000001
 44
0.0000000001
 40
0.0
 40
0.0
 40
0.0
 40
0.0
 40
0.2130671783
 40
0.4053343809
 40
0.574820544
 40
0.7195574027
 40
0.8374469595
 40
0.9256053813
 40
0.9575470629
 40
0.9808629871
 40
0.9951493937
 40
1.0
 40
1.0
 40
1.0
 40
1.0
 10
21.9230469914
 20
50.2167744509
 30
0.0
 10
21.9230724103
 20
50.2028717721
 30
0.0
 10
21.9231795151
 20
50.1764250399
 30
0.0
 10
21.9233714169
 20
50.1389131693
 30
0.0
 10
21.9234323677
 20
50.1058800192
 30
0.0
 10
21.9231747071
 20
50.0776387383
 30
0.0
 10
21.9225330288
 20
50.0548824995
 30
0.0
 10
21.9215670506
 20
50.0391032393
 30
0.0
 10
21.9211256831
 20
50.0301465775
 30
0.0
 10
21.9204199217
 20
50.0249734585
 30
0.0
 10
21.9208119421
 20
50.0233890384
 30
0.0
 10
21.9200265632
 20
50.0209073858
 30
0.0
 10
21.9202724433
 20
50.0211066785
 30
0.0
  0
SPLINE
  5
4C6
100
AcDbEntity
  8
DEFAULT_2
100
AcDbSpline
 62
8
  6
HIDDEN
 70
0
 71
3
 72
13
 73
9
 74
0
 42
0.0000001
 43
0.0000001
 44
0.0000000001
 40
0.0
 40
0.0
 40
0.0
 40
0.0
 40
0.250768581
 40
0.375490064
 40
0.5000012175
 40
0.6245129445
 40
0.7492343186
 40
1.0
 40
1.0
 40
1.0
 40
1.0
 10
62.2929342352
 20
37.2755210869
 30
0.0
 10
62.1716368675
 20
37.235088631
 30
0.0
 10
61.9862471293
 20
37.1841076004
 30
0.0
 10
61.7335772482
 20
37.1478643312
 30
0.0
 10
61.5429320939
 20
37.1389593205
 30
0.0
 10
61.352287694
 20
37.1478704899
 30
0.0
 10
61.0996177176
 20
37.1841039779
 30
0.0
 10
60.9142302003
 20
37.2350890986
 30
0.0
 10
60.7929342352
 20
37.2755210869
 30
0.0
  0
SPLINE
  5
4C7
100
AcDbEntity
  8
DEFAULT_2
100
AcDbSpline
 62
8
  6
HIDDEN
 70
0
 71
3
 72
13
 73
9
 74
0
 42
0.0000001
 43
0.0000001
 44
0.0000000001
 40
0.0
 40
0.0
 40
0.0
 40
0.0
 40
0.250768581
 40
0.375490064
 40
0.5000012175
 40
0.6245129445
 40
0.7492343186
 40
1.0
 40
1.0
 40
1.0
 40
1.0
 10
60.7929342352
 20
37.2755210869
 30
0.0
 10
60.6716368675
 20
37.235088631
 30
0.0
 10
60.4862471293
 20
37.1841076004
 30
0.0
 10
60.2335772482
 20
37.1478643312
 30
0.0
 10
60.0429320939
 20
37.1389593205
 30
0.0
 10
59.852287694
 20
37.1478704899
 30
0.0
 10
59.5996177176
 20
37.1841039779
 30
0.0
 10
59.4142302003
 20
37.2350890986
 30
0.0
 10
59.2929342352
 20
37.2755210869
 30
0.0
  0
SPLINE
  5
4C8
100
AcDbEntity
  8
DEFAULT_2
100
AcDbSpline
 62
8
  6
HIDDEN
 70
0
 71
3
 72
11
 73
7
 74
0
 42
0.0000001
 43
0.0000001
 44
0.0000000001
 40
0.0
 40
0.0
 40
0.0
 40
0.0
 40
0.25111694
 40
0.5
 40
0.74888306
 40
1.0
 40
1.0
 40
1.0
 40
1.0
 10
62.2929342352
 20
40.2085337888
 30
0.0
 10
62.1738702435
 20
40.1599261178
 30
0.0
 10
61.9269739273
 20
40.0853467
 30
0.0
 10
61.5429342352
 20
40.0472721532
 30
0.0
 10
61.1588945431
 20
40.0853467
 30
0.0
 10
60.9119982269
 20
40.1599261178
 30
0.0
 10
60.7929342352
 20
40.2085337888
 30
0.0
  0
SPLINE
  5
4C9
100
AcDbEntity
  8
DEFAULT_2
100
AcDbSpline
 62
8
  6
HIDDEN
 70
0
 71
3
 72
11
 73
7
 74
0
 42
0.0000001
 43
0.0000001
 44
0.0000000001
 40
0.0
 40
0.0
 40
0.0
 40
0.0
 40
0.25111694
 40
0.5
 40
0.74888306
 40
1.0
 40
1.0
 40
1.0
 40
1.0
 10
60.7929342352
 20
40.2085337888
 30
0.0
 10
60.6738702435
 20
40.1599261178
 30
0.0
 10
60.4269739273
 20
40.0853467
 30
0.0
 10
60.0429342352
 20
40.0472721532
 30
0.0
 10
59.6588945431
 20
40.0853467
 30
0.0
 10
59.4119982269
 20
40.1599261178
 30
0.0
 10
59.2929342352
 20
40.2085337888
 30
0.0
  0
SPLINE
  5
4CA
100
AcDbEntity
  8
DEFAULT_2
100
AcDbSpline
 62
8
  6
HIDDEN
 70
0
 71
3
 72
9
 73
5
 74
0
 42
0.0000001
 43
0.0000001
 44
0.0000000001
 40
0.0
 40
0.0
 40
0.0
 40
0.0
 40
0.2452194116
 40
1.0
 40
1.0
 40
1.0
 40
1.0
 10
54.9241045412
 20
19.2097428517
 30
0.0
 10
54.9037760684
 20
19.2105746537
 30
0.0
 10
54.8209501657
 20
19.215688496
 30
0.0
 10
54.7385871844
 20
19.2274800301
 30
0.0
 10
54.6771120459
 20
19.2394151836
 30
0.0
  0
SPLINE
  5
4CB
100
AcDbEntity
  8
DEFAULT_2
100
AcDbSpline
 62
8
  6
HIDDEN
 70
0
 71
3
 72
9
 73
5
 74
0
 42
0.0000001
 43
0.0000001
 44
0.0000000001
 40
0.0
 40
0.0
 40
0.0
 40
0.0
 40
0.2345166226
 40
1.0
 40
1.0
 40
1.0
 40
1.0
 10
54.6771120459
 20
19.2394151836
 30
0.0
 10
54.632645265
 20
19.2480482321
 30
0.0
 10
54.4443265356
 20
19.2916720414
 30
0.0
 10
54.2620441969
 20
19.35782359
 30
0.0
 10
54.1247765487
 20
19.4127627349
 30
0.0
  0
SPLINE
  5
4CC
100
AcDbEntity
  8
DEFAULT_2
100
AcDbSpline
 62
8
  6
HIDDEN
 70
0
 71
3
 72
9
 73
5
 74
0
 42
0.0000001
 43
0.0000001
 44
0.0000000001
 40
0.0
 40
0.0
 40
0.0
 40
0.0
 40
0.2384771417
 40
1.0
 40
1.0
 40
1.0
 40
1.0
 10
54.1247765487
 20
19.4127627349
 30
0.0
 10
54.0861802049
 20
19.4282102941
 30
0.0
 10
53.9249686524
 20
19.4945738296
 30
0.0
 10
53.7655131291
 20
19.5650665622
 30
0.0
 10
53.6436909265
 20
19.6178195098
 30
0.0
  0
SPLINE
  5
4CD
100
AcDbEntity
  8
DEFAULT_2
100
AcDbSpline
 62
8
  6
HIDDEN
 70
0
 71
3
 72
9
 73
5
 74
0
 42
0.0000001
 43
0.0000001
 44
0.0000000001
 40
0.0
 40
0.0
 40
0.0
 40
0.0
 40
0.2461693129
 40
1.0
 40
1.0
 40
1.0
 40
1.0
 10
53.6436909265
 20
19.6178195098
 30
0.0
 10
53.6259807573
 20
19.6254885849
 30
0.0
 10
53.5540091771
 20
19.6565758074
 30
0.0
 10
53.4818635391
 20
19.6872640481
 30
0.0
 10
53.4273012814
 20
19.7099728629
 30
0.0
  0
SPLINE
  5
4CE
100
AcDbEntity
  8
A_RUNDUNGEN
100
AcDbSpline
 62
8
  6
HIDDEN
 70
0
 71
3
 72
9
 73
5
 74
0
 42
0.0000001
 43
0.0000001
 44
0.0000000001
 40
0.0
 40
0.0
 40
0.0
 40
0.0
 40
0.2401297435
 40
1.0
 40
1.0
 40
1.0
 40
1.0
 10
53.4230469906
 20
35.0938515537
 30
0.0
 10
53.4230469906
 20
35.0668428191
 30
0.0
 10
53.4203361423
 20
34.9543607866
 30
0.0
 10
53.4098457082
 20
34.842260374
 30
0.0
 10
53.4011764757
 20
34.7572343318
 30
0.0
  0
SPLINE
  5
4CF
100
AcDbEntity
  8
A_RUNDUNGEN
100
AcDbSpline
 62
8
  6
HIDDEN
 70
0
 71
3
 72
9
 73
5
 74
0
 42
0.0000001
 43
0.0000001
 44
0.0000000001
 40
0.0
 40
0.0
 40
0.0
 40
0.0
 40
0.2582398267
 40
1.0
 40
1.0
 40
1.0
 40
1.0
 10
53.4011772793
 20
32.0763060183
 30
0.0
 10
53.4041229576
 20
32.0474143094
 30
0.0
 10
53.415110732
 20
31.9355199384
 30
0.0
 10
53.4230469906
 20
31.8231151998
 30
0.0
 10
53.4230469906
 20
31.7396973267
 30
0.0
  0
SPLINE
  5
4D0
100
AcDbEntity
  8
A_RUNDUNGEN
100
AcDbSpline
 62
8
  6
HIDDEN
 70
0
 71
3
 72
17
 73
13
 74
0
 42
0.0000001
 43
0.0000001
 44
0.0000000001
 40
0.0
 40
0.0
 40
0.0
 40
0.0
 40
0.0578237577
 40
0.1186694694
 40
0.2439338522
 40
0.3715710663
 40
0.4999962726
 40
0.6284258027
 40
0.7560655464
 40
0.8813306142
 40
0.942176234
 40
1.0
 40
1.0
 40
1.0
 40
1.0
 10
53.4230469906
 20
31.7396973267
 30
0.0
 10
53.4230469906
 20
31.804549908
 30
0.0
 10
53.4155722839
 20
31.9376045655
 30
0.0
 10
53.3877222274
 20
32.2097488148
 30
0.0
 10
53.3469700086
 20
32.5592822894
 30
0.0
 10
53.3098510213
 20
32.9854763379
 30
0.0
 10
53.2961242169
 20
33.4167667269
 30
0.0
 10
53.3098497233
 20
33.8480600311
 30
0.0
 10
53.3469694261
 20
34.274262518
 30
0.0
 10
53.387722865
 20
34.6237993967
 30
0.0
 10
53.4155715112
 20
34.8959444436
 30
0.0
 10
53.4230469906
 20
35.0289989631
 30
0.0
 10
53.4230469906
 20
35.0938515537
 30
0.0
  0
SPLINE
  5
4D1
100
AcDbEntity
  8
A_RUNDUNGEN
100
AcDbSpline
 62
8
  6
HIDDEN
 70
0
 71
3
 72
9
 73
5
 74
0
 42
0.0000001
 43
0.0000001
 44
0.0000000001
 40
0.0
 40
0.0
 40
0.0
 40
0.0
 40
0.4999994613
 40
1.0
 40
1.0
 40
1.0
 40
1.0
 10
47.0230469906
 20
32.9745928939
 30
0.0
 10
47.0230469902
 20
33.1219868147
 30
0.0
 10
47.0246151238
 20
33.4167742786
 30
0.0
 10
47.0230470089
 20
33.7115617426
 30
0.0
 10
47.0230469906
 20
33.8589559809
 30
0.0
  0
SPLINE
  5
4D2
100
AcDbEntity
  8
A_RUNDUNGEN
100
AcDbSpline
 62
8
  6
HIDDEN
 70
0
 71
3
 72
10
 73
6
 74
0
 42
0.0000001
 43
0.0000001
 44
0.0000000001
 40
0.0
 40
0.0
 40
0.0
 40
0.0
 40
0.1059553304
 40
0.3549570686
 40
1.0
 40
1.0
 40
1.0
 40
1.0
 10
33.8230469906
 20
20.5434767213
 30
0.0
 10
33.8403877225
 20
20.5612676297
 30
0.0
 10
33.8987451167
 20
20.6206060742
 30
0.0
 10
34.0648784662
 20
20.7860668852
 30
0.0
 10
34.2132053386
 20
20.9341935924
 30
0.0
 10
34.3204290086
 20
21.0408587751
 30
0.0
  0
SPLINE
  5
4D3
100
AcDbEntity
  8
DEFAULT_2
100
AcDbSpline
 62
8
  6
HIDDEN
 70
0
 71
3
 72
9
 73
5
 74
0
 42
0.0000001
 43
0.0000001
 44
0.0000000001
 40
0.0
 40
0.0
 40
0.0
 40
0.0
 40
0.2606271981
 40
1.0
 40
1.0
 40
1.0
 40
1.0
 10
23.0340263951
 20
50.3242071302
 30
0.0
 10
23.0301694593
 20
50.3242626517
 30
0.0
 10
23.0154048827
 20
50.3254703104
 30
0.0
 10
23.0009690109
 20
50.3309731187
 30
0.0
 10
22.9919114058
 20
50.3371136509
 30
0.0
  0
SPLINE
  5
4D4
100
AcDbEntity
  8
DEFAULT_2
100
AcDbSpline
 62
8
  6
HIDDEN
 70
0
 71
3
 72
8
 73
4
 74
0
 42
0.0000001
 43
0.0000001
 44
0.0000000001
 40
0.0
 40
0.0
 40
0.0
 40
0.0
 40
1.0
 40
1.0
 40
1.0
 40
1.0
 10
22.9919114058
 20
50.3371136509
 30
0.0
 10
22.9824021842
 20
50.3435603529
 30
0.0
 10
22.9743990632
 20
50.3523739602
 30
0.0
 10
22.9679312261
 20
50.3618688191
 30
0.0
  0
SPLINE
  5
4D5
100
AcDbEntity
  8
DEFAULT_2
100
AcDbSpline
 62
8
  6
HIDDEN
 70
0
 71
3
 72
8
 73
4
 74
0
 42
0.0000001
 43
0.0000001
 44
0.0000000001
 40
0.0
 40
0.0
 40
0.0
 40
0.0
 40
1.0
 40
1.0
 40
1.0
 40
1.0
 10
22.9679312261
 20
50.3618688191
 30
0.0
 10
22.9606150786
 20
50.3726090074
 30
0.0
 10
22.9548684592
 20
50.3844525604
 30
0.0
 10
22.9501286567
 20
50.3965526401
 30
0.0
  0
SPLINE
  5
4D6
100
AcDbEntity
  8
DEFAULT_2
100
AcDbSpline
 62
8
  6
HIDDEN
 70
0
 71
3
 72
8
 73
4
 74
0
 42
0.0000001
 43
0.0000001
 44
0.0000000001
 40
0.0
 40
0.0
 40
0.0
 40
0.0
 40
1.0
 40
1.0
 40
1.0
 40
1.0
 10
22.9501286567
 20
50.3965526401
 30
0.0
 10
22.9468628563
 20
50.4048897903
 30
0.0
 10
22.944084788
 20
50.4134264905
 30
0.0
 10
22.9416833995
 20
50.4220524316
 30
0.0
  0
SPLINE
  5
4D7
100
AcDbEntity
  8
DEFAULT_2
100
AcDbSpline
 62
8
  6
HIDDEN
 70
0
 71
3
 72
8
 73
4
 74
0
 42
0.0000001
 43
0.0000001
 44
0.0000000001
 40
0.0
 40
0.0
 40
0.0
 40
0.0
 40
1.0
 40
1.0
 40
1.0
 40
1.0
 10
22.9416833995
 20
50.4220524316
 30
0.0
 10
22.9394990396
 20
50.4298987925
 30
0.0
 10
22.937621832
 20
50.4378340171
 30
0.0
 10
22.9359761048
 20
50.4458107576
 30
0.0
  0
SPLINE
  5
4D8
100
AcDbEntity
  8
DEFAULT_2
100
AcDbSpline
 62
8
  6
HIDDEN
 70
0
 71
3
 72
8
 73
4
 74
0
 42
0.0000001
 43
0.0000001
 44
0.0000000001
 40
0.0
 40
0.0
 40
0.0
 40
0.0
 40
1.0
 40
1.0
 40
1.0
 40
1.0
 10
22.9359761048
 20
50.4458107576
 30
0.0
 10
22.932409174
 20
50.4630994559
 30
0.0
 10
22.9299209028
 20
50.4806215731
 30
0.0
 10
22.9280991434
 20
50.4981801401
 30
0.0
  0
SPLINE
  5
4D9
100
AcDbEntity
  8
DEFAULT_2
100
AcDbSpline
 62
8
  6
HIDDEN
 70
0
 71
3
 72
9
 73
5
 74
0
 42
0.0000001
 43
0.0000001
 44
0.0000000001
 40
0.0
 40
0.0
 40
0.0
 40
0.0
 40
0.2454814992
 40
1.0
 40
1.0
 40
1.0
 40
1.0
 10
22.925780275
 20
50.5252563984
 30
0.0
 10
22.925262586
 20
50.5327314342
 30
0.0
 10
22.9235255432
 20
50.5632080766
 30
0.0
 10
22.9230469906
 20
50.5937439341
 30
0.0
 10
22.9230469906
 20
50.6167744374
 30
0.0
  0
SPLINE
  5
4DA
100
AcDbEntity
  8
DEFAULT_2
100
AcDbSpline
 62
8
  6
HIDDEN
 70
0
 71
3
 72
10
 73
6
 74
0
 42
0.0000001
 43
0.0000001
 44
0.0000000001
 40
0.0
 40
0.0
 40
0.0
 40
0.0
 40
0.5054908225
 40
0.7477312396
 40
1.0
 40
1.0
 40
1.0
 40
1.0
 10
22.9500925554
 20
50.3966604139
 30
0.0
 10
22.9573079344
 20
50.3781871089
 30
0.0
 10
22.9713232318
 20
50.3507853314
 30
0.0
 10
23.0044882108
 20
50.3281738206
 30
0.0
 10
23.0241100193
 20
50.3242731945
 30
0.0
 10
23.0340066014
 20
50.3241379064
 30
0.0
  0
SPLINE
  5
4DB
100
AcDbEntity
  8
DEFAULT_2
100
AcDbSpline
 62
8
  6
HIDDEN
 70
0
 71
3
 72
11
 73
7
 74
0
 42
0.0000001
 43
0.0000001
 44
0.0000000001
 40
0.0
 40
0.0
 40
0.0
 40
0.0
 40
0.2518205081
 40
0.4927072181
 40
0.7405230614
 40
1.0
 40
1.0
 40
1.0
 40
1.0
 10
23.0340263951
 20
18.5093417446
 30
0.0
 10
23.0240714935
 20
18.5091984416
 30
0.0
 10
23.0043492242
 20
18.5054166572
 30
0.0
 10
22.9795941758
 20
18.4884614041
 30
0.0
 10
22.9620712119
 20
18.4641906201
 30
0.0
 10
22.9535991791
 20
18.4459356801
 30
0.0
 10
22.9498855086
 20
18.4363728211
 30
0.0
  0
SPLINE
  5
4DC
100
AcDbEntity
  8
DEFAULT_2
100
AcDbSpline
 62
8
  6
HIDDEN
 70
0
 71
3
 72
9
 73
5
 74
0
 42
0.0000001
 43
0.0000001
 44
0.0000000001
 40
0.0
 40
0.0
 40
0.0
 40
0.0
 40
0.2542531482
 40
1.0
 40
1.0
 40
1.0
 40
1.0
 10
22.9230469906
 20
18.2167744374
 30
0.0
 10
22.9230469906
 20
18.2245344209
 30
0.0
 10
22.923213233
 20
18.2550532649
 30
0.0
 10
22.9242091151
 20
18.2855803467
 30
0.0
 10
22.9257796433
 20
18.3082868116
 30
0.0
  0
SPLINE
  5
4DD
100
AcDbEntity
  8
DEFAULT_2
100
AcDbSpline
 62
8
  6
HIDDEN
 70
0
 71
3
 72
8
 73
4
 74
0
 42
0.0000001
 43
0.0000001
 44
0.0000000001
 40
0.0
 40
0.0
 40
0.0
 40
0.0
 40
1.0
 40
1.0
 40
1.0
 40
1.0
 10
22.9280979897
 20
18.3353729526
 30
0.0
 10
22.9298859023
 20
18.3526067876
 30
0.0
 10
22.9323174874
 20
18.3698043322
 30
0.0
 10
22.9357803301
 20
18.3867810933
 30
0.0
  0
SPLINE
  5
4DE
100
AcDbEntity
  8
DEFAULT_2
100
AcDbSpline
 62
8
  6
HIDDEN
 70
0
 71
3
 72
8
 73
4
 74
0
 42
0.0000001
 43
0.0000001
 44
0.0000000001
 40
0.0
 40
0.0
 40
0.0
 40
0.0
 40
1.0
 40
1.0
 40
1.0
 40
1.0
 10
22.9357803301
 20
18.3867810933
 30
0.0
 10
22.9374733646
 20
18.3950812808
 30
0.0
 10
22.9394159899
 20
18.4033375439
 30
0.0
 10
22.9416900879
 20
18.4114976883
 30
0.0
  0
SPLINE
  5
4DF
100
AcDbEntity
  8
DEFAULT_2
100
AcDbSpline
 62
8
  6
HIDDEN
 70
0
 71
3
 72
8
 73
4
 74
0
 42
0.0000001
 43
0.0000001
 44
0.0000000001
 40
0.0
 40
0.0
 40
0.0
 40
0.0
 40
1.0
 40
1.0
 40
1.0
 40
1.0
 10
22.9416900879
 20
18.4114976883
 30
0.0
 10
22.9440237957
 20
18.4198717308
 30
0.0
 10
22.9467116076
 20
18.428160879
 30
0.0
 10
22.9498509945
 20
18.4362673597
 30
0.0
  0
SPLINE
  5
4E0
100
AcDbEntity
  8
DEFAULT_2
100
AcDbSpline
 62
8
  6
HIDDEN
 70
0
 71
3
 72
8
 73
4
 74
0
 42
0.0000001
 43
0.0000001
 44
0.0000000001
 40
0.0
 40
0.0
 40
0.0
 40
0.0
 40
1.0
 40
1.0
 40
1.0
 40
1.0
 10
22.9498509945
 20
18.4362673597
 30
0.0
 10
22.9546389676
 20
18.4486307966
 30
0.0
 10
22.9604451275
 20
18.4607509297
 30
0.0
 10
22.9679219076
 20
18.471699766
 30
0.0
  0
SPLINE
  5
4E1
100
AcDbEntity
  8
DEFAULT_2
100
AcDbSpline
 62
8
  6
HIDDEN
 70
0
 71
3
 72
8
 73
4
 74
0
 42
0.0000001
 43
0.0000001
 44
0.0000000001
 40
0.0
 40
0.0
 40
0.0
 40
0.0
 40
1.0
 40
1.0
 40
1.0
 40
1.0
 10
22.9679219076
 20
18.471699766
 30
0.0
 10
22.9743953062
 20
18.4811792719
 30
0.0
 10
22.9824306709
 20
18.4899503884
 30
0.0
 10
22.9919433739
 20
18.4963749041
 30
0.0
  0
SPLINE
  5
4E2
100
AcDbEntity
  8
DEFAULT_2
100
AcDbSpline
 62
8
  6
HIDDEN
 70
0
 71
3
 72
9
 73
5
 74
0
 42
0.0000001
 43
0.0000001
 44
0.0000000001
 40
0.0
 40
0.0
 40
0.0
 40
0.0
 40
0.7399528591
 40
1.0
 40
1.0
 40
1.0
 40
1.0
 10
22.9919433739
 20
18.4963749041
 30
0.0
 10
23.0010175341
 20
18.5025032447
 30
0.0
 10
23.0153909538
 20
18.508123241
 30
0.0
 10
23.0301588101
 20
18.5093583684
 30
0.0
 10
23.0340066014
 20
18.5094109684
 30
0.0
  0
SPLINE
  5
4E3
100
AcDbEntity
  8
DEFAULT_2
100
AcDbSpline
 62
8
  6
HIDDEN
 70
0
 71
3
 72
8
 73
4
 74
0
 42
0.0000001
 43
0.0000001
 44
0.0000000001
 40
0.0
 40
0.0
 40
0.0
 40
0.0
 40
1.0
 40
1.0
 40
1.0
 40
1.0
 10
23.1345563146
 20
18.4633317719
 30
0.0
 10
23.1534892237
 20
18.4472237879
 30
0.0
 10
23.1705084733
 20
18.4287652985
 30
0.0
 10
23.1858884849
 20
18.4092364112
 30
0.0
  0
SPLINE
  5
4E4
100
AcDbEntity
  8
DEFAULT_2
100
AcDbSpline
 62
8
  6
HIDDEN
 70
0
 71
3
 72
8
 73
4
 74
0
 42
0.0000001
 43
0.0000001
 44
0.0000000001
 40
0.0
 40
0.0
 40
0.0
 40
0.0
 40
1.0
 40
1.0
 40
1.0
 40
1.0
 10
23.1858884849
 20
18.4092364112
 30
0.0
 10
23.1994358173
 20
18.3920345822
 30
0.0
 10
23.2117692389
 20
18.3738368778
 30
0.0
 10
23.2230469906
 20
18.3550686745
 30
0.0
  0
LINE
  5
4E5
100
AcDbEntity
  8
A_RUNDUNGEN
100
AcDbLine
 62
8
  6
HIDDEN
 10
22.9230469906
 20
50.2167744397
 11
22.9230661333
 21
49.7744744472
  0
SPLINE
  5
4E6
100
AcDbEntity
  8
DEFAULT_2
100
AcDbSpline
 62
8
  6
HIDDEN
 70
0
 71
3
 72
13
 73
9
 74
0
 42
0.0000001
 43
0.0000001
 44
0.0000000001
 40
0.0
 40
0.0
 40
0.0
 40
0.0
 40
0.0830037747
 40
0.1606696616
 40
0.2493999299
 40
0.3608001034
 40
0.6549524578
 40
1.0
 40
1.0
 40
1.0
 40
1.0
 10
22.9230469906
 20
22.8866123208
 30
0.0
 10
22.9230469906
 20
22.8768695566
 30
0.0
 10
22.9255904839
 20
22.8575940478
 30
0.0
 10
22.9434135426
 20
22.8326962315
 30
0.0
 10
22.9742212736
 20
22.818992247
 30
0.0
 10
23.0324908632
 20
22.8136394759
 30
0.0
 10
23.1200399937
 20
22.8338639481
 30
0.0
 10
23.1882434609
 20
22.8658993598
 30
0.0
 10
23.2230469906
 20
22.8866123208
 30
0.0
  0
SPLINE
  5
4E7
100
AcDbEntity
  8
DEFAULT_2
100
AcDbSpline
 62
8
  6
HIDDEN
 70
0
 71
3
 72
13
 73
9
 74
0
 42
0.0000001
 43
0.0000001
 44
0.0000000001
 40
0.0
 40
0.0
 40
0.0
 40
0.0
 40
0.3450448725
 40
0.6391940873
 40
0.7505959305
 40
0.8393291096
 40
0.9169957807
 40
1.0
 40
1.0
 40
1.0
 40
1.0
 10
23.2230469906
 20
45.946936554
 30
0.0
 10
23.1882437393
 20
45.9676493494
 30
0.0
 10
23.1200409823
 20
45.9996842354
 30
0.0
 10
23.0324923005
 20
46.0199096847
 30
0.0
 10
22.974222845
 20
46.0145563279
 30
0.0
 10
22.9434138631
 20
46.0008533902
 30
0.0
 10
22.9255905812
 20
45.9759549602
 30
0.0
 10
22.9230469906
 20
45.9566793679
 30
0.0
 10
22.9230469906
 20
45.946936554
 30
0.0
  0
SPLINE
  5
4E8
100
AcDbEntity
  8
DEFAULT_2
100
AcDbSpline
 62
8
  6
HIDDEN
 70
0
 71
3
 72
8
 73
4
 74
0
 42
0.0000001
 43
0.0000001
 44
0.0000000001
 40
0.0
 40
0.0
 40
0.0
 40
0.0
 40
1.0
 40
1.0
 40
1.0
 40
1.0
 10
23.2230469906
 20
50.4784802003
 30
0.0
 10
23.212014961
 20
50.4601209227
 30
0.0
 10
23.1999742584
 20
50.4423085965
 30
0.0
 10
23.1867752348
 20
50.4254398525
 30
0.0
  0
SPLINE
  5
4E9
100
AcDbEntity
  8
DEFAULT_2
100
AcDbSpline
 62
8
  6
HIDDEN
 70
0
 71
3
 72
9
 73
5
 74
0
 42
0.0000001
 43
0.0000001
 44
0.0000000001
 40
0.0
 40
0.0
 40
0.0
 40
0.0
 40
0.529929596
 40
1.0
 40
1.0
 40
1.0
 40
1.0
 10
23.1867752348
 20
50.4254398525
 30
0.0
 10
23.166402391
 20
50.3994027533
 30
0.0
 10
23.1235706347
 20
50.3545727659
 30
0.0
 10
23.063349267
 20
50.3237850209
 30
0.0
 10
23.0340263951
 20
50.3242071302
 30
0.0
  0
SPLINE
  5
4EA
100
AcDbEntity
  8
DEFAULT_2
100
AcDbSpline
 62
8
  6
HIDDEN
 70
0
 71
3
 72
11
 73
7
 74
0
 42
0.0000001
 43
0.0000001
 44
0.0000000001
 40
0.0
 40
0.0
 40
0.0
 40
0.0
 40
0.2302274542
 40
0.4456081163
 40
0.6914707632
 40
1.0
 40
1.0
 40
1.0
 40
1.0
 10
22.9230469906
 20
42.8866123208
 30
0.0
 10
22.9230469906
 20
42.8768850493
 30
0.0
 10
22.9255819265
 20
42.8576459144
 30
0.0
 10
22.9433312992
 20
42.8327703582
 30
0.0
 10
22.9740242066
 20
42.8190632245
 30
0.0
 10
22.9975723302
 20
42.8167943888
 30
0.0
 10
23.0106078921
 20
42.8167746735
 30
0.0
  0
SPLINE
  5
4EB
100
AcDbEntity
  8
DEFAULT_2
100
AcDbSpline
 62
8
  6
HIDDEN
 70
0
 71
3
 72
13
 73
9
 74
0
 42
0.0000001
 43
0.0000001
 44
0.0000000001
 40
0.0
 40
0.0
 40
0.0
 40
0.0
 40
0.3450448737
 40
0.6391940888
 40
0.7505959315
 40
0.8393291101
 40
0.9169957809
 40
1.0
 40
1.0
 40
1.0
 40
1.0
 10
23.2230469906
 20
25.946936554
 30
0.0
 10
23.1882437392
 20
25.9676493494
 30
0.0
 10
23.120040982
 20
25.9996842356
 30
0.0
 10
23.0324923001
 20
26.0199096847
 30
0.0
 10
22.9742228446
 20
26.0145563279
 30
0.0
 10
22.943413863
 20
26.00085339
 30
0.0
 10
22.925590581
 20
25.9759549602
 30
0.0
 10
22.9230469906
 20
25.9566793679
 30
0.0
 10
22.9230469906
 20
25.946936554
 30
0.0
  0
SPLINE
  5
4EC
100
AcDbEntity
  8
DEFAULT_2
100
AcDbSpline
 62
8
  6
HIDDEN
 70
0
 71
3
 72
9
 73
5
 74
0
 42
0.0000001
 43
0.0000001
 44
0.0000000001
 40
0.0
 40
0.0
 40
0.0
 40
0.0
 40
0.7512985643
 40
1.0
 40
1.0
 40
1.0
 40
1.0
 10
23.2230469906
 20
18.3550686745
 30
0.0
 10
23.1646023686
 20
18.3775138305
 30
0.0
 10
23.0853684674
 20
18.403774014
 30
0.0
 10
23.0049992676
 20
18.4257934206
 30
0.0
 10
22.9849436497
 20
18.4310162186
 30
0.0
  0
SPLINE
  5
4ED
100
AcDbEntity
  8
DEFAULT_2
100
AcDbSpline
 62
8
  6
HIDDEN
 70
0
 71
3
 72
9
 73
5
 74
0
 42
0.0000001
 43
0.0000001
 44
0.0000000001
 40
0.0
 40
0.0
 40
0.0
 40
0.0
 40
0.2571652056
 40
1.0
 40
1.0
 40
1.0
 40
1.0
 10
22.7379409828
 20
18.4823451541
 30
0.0
 10
22.7224739139
 20
18.4847650811
 30
0.0
 10
22.6622426227
 20
18.4936076308
 30
0.0
 10
22.6016772159
 20
18.5002064605
 30
0.0
 10
22.5565921302
 20
18.5037090066
 30
0.0
  0
SPLINE
  5
4EE
100
AcDbEntity
  8
DEFAULT_2
100
AcDbSpline
 62
8
  6
HIDDEN
 70
0
 71
3
 72
9
 73
5
 74
0
 42
0.0000001
 43
0.0000001
 44
0.0000000001
 40
0.0
 40
0.0
 40
0.0
 40
0.0
 40
0.2588898505
 40
1.0
 40
1.0
 40
1.0
 40
1.0
 10
22.5565921302
 20
18.5037090066
 30
0.0
 10
22.5439427788
 20
18.5046917026
 30
0.0
 10
22.4950513238
 20
18.5080566783
 30
0.0
 10
22.4460314584
 20
18.5096718311
 30
0.0
 10
22.4097117286
 20
18.5096744718
 30
0.0
  0
SPLINE
  5
4EF
100
AcDbEntity
  8
DEFAULT_2
100
AcDbSpline
 62
8
  6
HIDDEN
 70
0
 71
3
 72
9
 73
5
 74
0
 42
0.0000001
 43
0.0000001
 44
0.0000000001
 40
0.0
 40
0.0
 40
0.0
 40
0.0
 40
0.2408813109
 40
1.0
 40
1.0
 40
1.0
 40
1.0
 10
22.4097129241
 20
50.3238812248
 30
0.0
 10
22.4215205915
 20
50.3238825676
 30
0.0
 10
22.4705385789
 20
50.3244178777
 30
0.0
 10
22.5195273304
 20
50.3269684587
 30
0.0
 10
22.556626673
 20
50.3298482448
 30
0.0
  0
SPLINE
  5
4F0
100
AcDbEntity
  8
DEFAULT_2
100
AcDbSpline
 62
8
  6
HIDDEN
 70
0
 71
3
 72
9
 73
5
 74
0
 42
0.0000001
 43
0.0000001
 44
0.0000000001
 40
0.0
 40
0.0
 40
0.0
 40
0.0
 40
0.2487162257
 40
1.0
 40
1.0
 40
1.0
 40
1.0
 10
22.984234753
 20
50.4023417104
 30
0.0
 10
23.004351929
 20
50.407574472
 30
0.0
 10
23.0849623566
 20
50.4296393978
 30
0.0
 10
23.1644319298
 20
50.4559695888
 30
0.0
 10
23.2230469906
 20
50.4784802003
 30
0.0
  0
SPLINE
  5
4F1
100
AcDbEntity
  8
A_RUNDUNGEN
100
AcDbSpline
 62
8
  6
HIDDEN
 70
0
 71
3
 72
14
 73
10
 74
0
 42
0.0000001
 43
0.0000001
 44
0.0000000001
 40
0.0
 40
0.0
 40
0.0
 40
0.0
 40
0.0191524916
 40
0.0744059494
 40
0.1625521913
 40
0.2804311598
 40
0.4251665669
 40
0.5946576381
 40
1.0
 40
1.0
 40
1.0
 40
1.0
 10
21.9202724363
 20
50.0211066731
 30
0.0
 10
21.9208005203
 20
50.0222393215
 30
0.0
 10
21.9202647755
 20
50.0273396794
 30
0.0
 10
21.9219233737
 20
50.0376736574
 30
0.0
 10
21.922338838
 20
50.0548326373
 30
0.0
 10
21.9232474192
 20
50.0776557797
 30
0.0
 10
21.9234082608
 20
50.1058714103
 30
0.0
 10
21.9233635546
 20
50.1528143727
 30
0.0
 10
21.9230966452
 20
50.1903257849
 30
0.0
 10
21.9230469914
 20
50.2167744525
 30
0.0
  0
SPLINE
  5
4F2
100
AcDbEntity
  8
0
100
AcDbSpline
 62
7
  6
CONTINUOUS
 70
0
 71
3
 72
9
 73
5
 74
0
 42
0.0000001
 43
0.0000001
 44
0.0000000001
 40
0.0
 40
0.0
 40
0.0
 40
0.0
 40
0.4580168312
 40
1.0
 40
1.0
 40
1.0
 40
1.0
 10
42.4154661379
 20
20.9041903055
 30
0.0
 10
42.4984240976
 20
20.8953749684
 30
0.0
 10
42.6781713142
 20
20.8632064148
 30
0.0
 10
42.8538193186
 20
20.8140695484
 30
0.0
 10
42.9476904178
 20
20.7835138003
 30
0.0
  0
SPLINE
  5
4F3
100
AcDbEntity
  8
0
100
AcDbSpline
 62
7
  6
CONTINUOUS
 70
0
 71
3
 72
8
 73
4
 74
0
 42
0.0000001
 43
0.0000001
 44
0.0000000001
 40
0.0
 40
0.0
 40
0.0
 40
0.0
 40
1.0
 40
1.0
 40
1.0
 40
1.0
 10
44.9232062407
 20
20.7833407118
 30
0.0
 10
44.2621496647
 20
20.7837385439
 30
0.0
 10
43.6010928496
 20
20.7832414749
 30
0.0
 10
42.9400361547
 20
20.7832739401
 30
0.0
  0
SPLINE
  5
4F4
100
AcDbEntity
  8
0
100
AcDbSpline
 62
7
  6
CONTINUOUS
 70
0
 71
3
 72
9
 73
5
 74
0
 42
0.0000001
 43
0.0000001
 44
0.0000000001
 40
0.0
 40
0.0
 40
0.0
 40
0.0
 40
0.2496280898
 40
1.0
 40
1.0
 40
1.0
 40
1.0
 10
44.9230631262
 20
48.050196085
 30
0.0
 10
44.7580858885
 20
48.050054724
 30
0.0
 10
44.0971937563
 20
48.0495304605
 30
0.0
 10
43.436302093
 20
48.0482383858
 30
0.0
 10
42.9403870282
 20
48.0482140317
 30
0.0
  0
SPLINE
  5
4F5
100
AcDbEntity
  8
0
100
AcDbSpline
 62
7
  6
CONTINUOUS
 70
0
 71
3
 72
9
 73
5
 74
0
 42
0.0000001
 43
0.0000001
 44
0.0000000001
 40
0.0
 40
0.0
 40
0.0
 40
0.0
 40
0.5416144034
 40
1.0
 40
1.0
 40
1.0
 40
1.0
 10
42.9484493512
 20
48.0500113319
 30
0.0
 10
42.854677231
 20
48.0194970476
 30
0.0
 10
42.6791075284
 20
47.9703335986
 30
0.0
 10
42.4994128186
 20
47.9383090217
 30
0.0
 10
42.4164244057
 20
47.9294632939
 30
0.0
  0
SPLINE
  5
4F6
100
AcDbEntity
  8
0
100
AcDbSpline
 62
7
  6
CONTINUOUS
 70
0
 71
3
 72
9
 73
5
 74
0
 42
0.0000001
 43
0.0000001
 44
0.0000000001
 40
0.0
 40
0.0
 40
0.0
 40
0.0
 40
0.4616583924
 40
1.0
 40
1.0
 40
1.0
 40
1.0
 10
42.9484493512
 20
48.0500113319
 30
0.0
 10
43.251878187
 20
48.038308574
 30
0.0
 10
43.9095245747
 20
48.0235836732
 30
0.0
 10
44.5672507765
 20
48.0176010708
 30
0.0
 10
44.9213418987
 20
48.0165828907
 30
0.0
  0
SPLINE
  5
4F7
100
AcDbEntity
  8
0
100
AcDbSpline
 62
7
  6
CONTINUOUS
 70
0
 71
3
 72
9
 73
5
 74
0
 42
0.0000001
 43
0.0000001
 44
0.0000000001
 40
0.0
 40
0.0
 40
0.0
 40
0.0
 40
0.5383746409
 40
1.0
 40
1.0
 40
1.0
 40
1.0
 10
44.921341898
 20
20.816966006
 30
0.0
 10
44.567092787
 20
20.8159474085
 30
0.0
 10
43.9091134995
 20
20.8099600244
 30
0.0
 10
43.2512141553
 20
20.7952237685
 30
0.0
 10
42.9476904178
 20
20.7835138003
 30
0.0
  0
SPLINE
  5
4F8
100
AcDbEntity
  8
0
100
AcDbSpline
 62
7
  6
CONTINUOUS
 70
0
 71
3
 72
9
 73
5
 74
0
 42
0.0000001
 43
0.0000001
 44
0.0000000001
 40
0.0
 40
0.0
 40
0.0
 40
0.0
 40
0.5224324651
 40
1.0
 40
1.0
 40
1.0
 40
1.0
 10
22.9230469906
 20
50.6167744374
 30
0.0
 10
22.9230469906
 20
50.5780157997
 30
0.0
 10
22.9249317883
 20
50.5040126442
 30
0.0
 10
22.9372024435
 20
50.4296625567
 30
0.0
 10
22.9500925554
 20
50.3966604139
 30
0.0
  0
SPLINE
  5
4F9
100
AcDbEntity
  8
0
100
AcDbSpline
 62
7
  6
CONTINUOUS
 70
0
 71
3
 72
9
 73
5
 74
0
 42
0.0000001
 43
0.0000001
 44
0.0000000001
 40
0.0
 40
0.0
 40
0.0
 40
0.0
 40
0.4776604329
 40
1.0
 40
1.0
 40
1.0
 40
1.0
 10
22.9498855086
 20
18.4363728211
 30
0.0
 10
22.9370887922
 20
18.403420733
 30
0.0
 10
22.9249383054
 20
18.3292509494
 30
0.0
 10
22.9230469906
 20
18.255430577
 30
0.0
 10
22.9230469906
 20
18.2167744374
 30
0.0
  0
SPLINE
  5
4FA
100
AcDbEntity
  8
0
100
AcDbSpline
 62
3
  6
CONTINUOUS
 70
0
 71
3
 72
9
 73
5
 74
0
 42
0.0000001
 43
0.0000001
 44
0.0000000001
 40
0.0
 40
0.0
 40
0.0
 40
0.0
 40
0.5297262387
 40
1.0
 40
1.0
 40
1.0
 40
1.0
 10
23.2230469906
 20
50.4784802003
 30
0.0
 10
23.0860696355
 20
50.4258752215
 30
0.0
 10
22.8168353552
 20
50.3540553826
 30
0.0
 10
22.5399750296
 20
50.3238838744
 30
0.0
 10
22.4097117286
 20
50.323874403
 30
0.0
  0
SPLINE
  5
4FB
100
AcDbEntity
  8
0
100
AcDbSpline
 62
3
  6
CONTINUOUS
 70
0
 71
3
 72
9
 73
5
 74
0
 42
0.0000001
 43
0.0000001
 44
0.0000000001
 40
0.0
 40
0.0
 40
0.0
 40
0.0
 40
0.4702261407
 40
1.0
 40
1.0
 40
1.0
 40
1.0
 10
22.4097129241
 20
18.50966765
 30
0.0
 10
22.5399628129
 20
18.5096528374
 30
0.0
 10
22.8168242752
 20
18.4795078897
 30
0.0
 10
23.0860575542
 20
18.407678293
 30
0.0
 10
23.2230469906
 20
18.3550686745
 30
0.0
  0
SPLINE
  5
4FC
100
AcDbEntity
  8
0
100
AcDbSpline
 62
3
  6
CONTINUOUS
 70
0
 71
3
 72
17
 73
13
 74
0
 42
0.0000001
 43
0.0000001
 44
0.0000000001
 40
0.0
 40
0.0
 40
0.0
 40
0.0
 40
0.1837699409
 40
0.3609997202
 40
0.5243641033
 40
0.6672409736
 40
0.7840258718
 40
0.8313609165
 40
0.8711773098
 40
0.9042992399
 40
0.9334918002
 40
1.0
 40
1.0
 40
1.0
 40
1.0
 10
23.2230469906
 20
23.6027004564
 30
0.0
 10
23.1458830947
 20
23.5637750768
 30
0.0
 10
22.9847827404
 20
23.5057371203
 30
0.0
 10
22.7418009479
 20
23.4607639132
 30
0.0
 10
22.5150435439
 20
23.4410942637
 30
0.0
 10
22.3161456675
 20
23.4355240397
 30
0.0
 10
22.1716193451
 20
23.4385023172
 30
0.0
 10
22.0761874627
 20
23.4490214919
 30
0.0
 10
22.0207985784
 20
23.4612307817
 30
0.0
 10
21.9761162504
 20
23.4801220983
 30
0.0
 10
21.9300513138
 20
23.5222264796
 30
0.0
 10
21.9230469906
 20
23.5714220161
 30
0.0
 10
21.9230469906
 20
23.6027004564
 30
0.0
  0
SPLINE
  5
4FD
100
AcDbEntity
  8
0
100
AcDbSpline
 62
3
  6
CONTINUOUS
 70
0
 71
3
 72
13
 73
9
 74
0
 42
0.0000001
 43
0.0000001
 44
0.0000000001
 40
0.0
 40
0.0
 40
0.0
 40
0.0
 40
0.2119858219
 40
0.3092845474
 40
0.4134273644
 40
0.5319808968
 40
0.6688156213
 40
1.0
 40
1.0
 40
1.0
 40
1.0
 10
21.9230469906
 20
18.2167744374
 30
0.0
 10
21.9230469906
 20
18.2622015746
 30
0.0
 10
21.9333451805
 20
18.3316638732
 30
0.0
 10
21.9876236107
 20
18.403607535
 30
0.0
 10
22.0438482084
 20
18.4442306843
 30
0.0
 10
22.1152926661
 20
18.4742918185
 30
0.0
 10
22.2378141821
 20
18.5038826263
 30
0.0
 10
22.3387423376
 20
18.5096757211
 30
0.0
 10
22.4097129241
 20
18.50966765
 30
0.0
  0
SPLINE
  5
4FE
100
AcDbEntity
  8
0
100
AcDbSpline
 62
3
  6
CONTINUOUS
 70
0
 71
3
 72
17
 73
13
 74
0
 42
0.0000001
 43
0.0000001
 44
0.0000000001
 40
0.0
 40
0.0
 40
0.0
 40
0.0
 40
0.1837699411
 40
0.3609997208
 40
0.524364104
 40
0.6672409743
 40
0.7840258724
 40
0.8313609169
 40
0.8711773101
 40
0.9042992401
 40
0.9334918002
 40
1.0
 40
1.0
 40
1.0
 40
1.0
 10
23.2230469906
 20
43.6027004564
 30
0.0
 10
23.1458830946
 20
43.5637750767
 30
0.0
 10
22.98478274
 20
43.5057371202
 30
0.0
 10
22.7418009471
 20
43.460763913
 30
0.0
 10
22.5150435429
 20
43.4410942637
 30
0.0
 10
22.3161456666
 20
43.4355240397
 30
0.0
 10
22.1716193443
 20
43.4385023172
 30
0.0
 10
22.0761874621
 20
43.449021492
 30
0.0
 10
22.0207985779
 20
43.4612307818
 30
0.0
 10
21.9761162502
 20
43.4801220987
 30
0.0
 10
21.9300513135
 20
43.5222264796
 30
0.0
 10
21.9230469906
 20
43.5714220162
 30
0.0
 10
21.9230469906
 20
43.6027004564
 30
0.0
  0
SPLINE
  5
4FF
100
AcDbEntity
  8
0
100
AcDbSpline
 62
3
  6
CONTINUOUS
 70
0
 71
3
 72
17
 73
13
 74
0
 42
0.0000001
 43
0.0000001
 44
0.0000000001
 40
0.0
 40
0.0
 40
0.0
 40
0.0
 40
0.0665071116
 40
0.0956987637
 40
0.12882025
 40
0.168636887
 40
0.2159721568
 40
0.3327579636
 40
0.4756354293
 40
0.6389994452
 40
0.8162290526
 40
1.0
 40
1.0
 40
1.0
 40
1.0
 10
21.9230469906
 20
25.2308484185
 30
0.0
 10
21.9230469906
 20
25.2621263561
 30
0.0
 10
21.9300479853
 20
25.3113226141
 30
0.0
 10
21.9761148866
 20
25.3534232096
 30
0.0
 10
22.0207949508
 20
25.3723173034
 30
0.0
 10
22.0761840132
 20
25.3845275581
 30
0.0
 10
22.171616548
 20
25.3950459627
 30
0.0
 10
22.3161437283
 20
25.3980250794
 30
0.0
 10
22.5150421982
 20
25.3924546503
 30
0.0
 10
22.7417997095
 20
25.3727851648
 30
0.0
 10
22.9847817593
 20
25.3278118333
 30
0.0
 10
23.1458826495
 20
25.2697740226
 30
0.0
 10
23.2230469906
 20
25.2308484185
 30
0.0
  0
SPLINE
  5
500
100
AcDbEntity
  8
0
100
AcDbSpline
 62
3
  6
CONTINUOUS
 70
0
 71
3
 72
17
 73
13
 74
0
 42
0.0000001
 43
0.0000001
 44
0.0000000001
 40
0.0
 40
0.0
 40
0.0
 40
0.0
 40
0.0665071116
 40
0.0956987637
 40
0.12882025
 40
0.1686368869
 40
0.2159721567
 40
0.3327579635
 40
0.4756354293
 40
0.6389994452
 40
0.8162290525
 40
1.0
 40
1.0
 40
1.0
 40
1.0
 10
21.9230469906
 20
45.2308484185
 30
0.0
 10
21.9230469906
 20
45.262126356
 30
0.0
 10
21.9300479852
 20
45.3113226141
 30
0.0
 10
21.9761148866
 20
45.3534232095
 30
0.0
 10
22.0207949507
 20
45.3723173034
 30
0.0
 10
22.0761840131
 20
45.3845275581
 30
0.0
 10
22.1716165479
 20
45.3950459627
 30
0.0
 10
22.3161437282
 20
45.3980250794
 30
0.0
 10
22.5150421981
 20
45.3924546503
 30
0.0
 10
22.7417997095
 20
45.3727851648
 30
0.0
 10
22.9847817593
 20
45.3278118333
 30
0.0
 10
23.1458826495
 20
45.2697740226
 30
0.0
 10
23.2230469906
 20
45.2308484185
 30
0.0
  0
SPLINE
  5
501
100
AcDbEntity
  8
0
100
AcDbSpline
 62
3
  6
CONTINUOUS
 70
0
 71
3
 72
13
 73
9
 74
0
 42
0.0000001
 43
0.0000001
 44
0.0000000001
 40
0.0
 40
0.0
 40
0.0
 40
0.0
 40
0.331156308
 40
0.4680038574
 40
0.5865417169
 40
0.6906927515
 40
0.7879916628
 40
1.0
 40
1.0
 40
1.0
 40
1.0
 10
22.4097117286
 20
50.323874403
 30
0.0
 10
22.3387475624
 20
50.3238692433
 30
0.0
 10
22.2378239446
 20
50.3296684651
 30
0.0
 10
22.1153102248
 20
50.3592613525
 30
0.0
 10
22.0438650826
 20
50.3893184542
 30
0.0
 10
21.9876300456
 20
50.4299255366
 30
0.0
 10
21.9333512896
 20
50.5018778999
 30
0.0
 10
21.9230469906
 20
50.5713427348
 30
0.0
 10
21.9230469906
 20
50.6167744374
 30
0.0
  0
ELLIPSE
  5
502
100
AcDbEntity
  8
DEFAULT_2
100
AcDbEllipse
 62
8
  6
HIDDEN
 10
21.401726647
 20
24.4167744374
 30
0.0
 11
2.8284271247
 21
-0.0
 31
0.0
 40
0.7071067812
 41
-0.8711672008
 42
0.8711672008
  0
ELLIPSE
  5
503
100
AcDbEntity
  8
DEFAULT_2
100
AcDbEllipse
 62
8
  6
HIDDEN
 10
21.401726647
 20
44.4167744374
 30
0.0
 11
2.8284271247
 21
0.0
 31
0.0
 40
0.7071067812
 41
-0.8711672008
 42
0.8711672008
  0
ELLIPSE
  5
504
100
AcDbEntity
  8
0
100
AcDbEllipse
 62
3
  6
CONTINUOUS
 10
22.401726647
 20
44.4167744374
 30
0.0
 11
1.4142135624
 21
-0.0
 31
0.0
 40
0.7071067812
 41
-0.9511329166
 42
0.9511329166
  0
ELLIPSE
  5
505
100
AcDbEntity
  8
0
100
AcDbEllipse
 62
3
  6
CONTINUOUS
 10
22.401726647
 20
24.4167744374
 30
0.0
 11
1.4142135624
 21
-0.0
 31
0.0
 40
0.7071067812
 41
-0.9511329166
 42
0.9511329166
  0
ENDSEC
  0
SECTION
  2
OBJECTS
  0
DICTIONARY
  5
506
100
AcDbDictionary
  3
ACAD_GROUP
350
507
  3
ACAD_MLINESTYLE
350
508
  0
DICTIONARY
  5
507
102
{ACAD_REACTORS
330
506
102
}
100
AcDbDictionary
  0
DICTIONARY
  5
508
102
{ACAD_REACTORS
330
506
102
}
100
AcDbDictionary
  3
STANDARD
350
509
  0
MLINESTYLE
  5
509
102
{ACAD_REACTORS
330
508
102
}
100
AcDbMlineStyle
  2
STANDARD
 70
0
  3

 62
256
 51
90.0
 52
90.0
 71
2
 49
0.5
 62
256
  6
BYLAYER
 49
-0.5
 62
256
  6
BYLAYER
  0
ENDSEC
  0
EOF
