999
DXF file: d:\tmp\workingDir\0000065618\teg_310_2d_v01_01.dxf
999
Pro/ENGINEER 2016380 by Parametric Technology Corporation
  0
SECTION
  2
HEADER
  9
$ACADVER
  1
AC1014
  9
$DWGCODEPAGE
  3
ANSI_1252
  9
$EXTMAX
 10
89.916
 20
180.0
 30
0.0
  9
$EXTMIN
 10
0.0
 20
0.0
 30
0.0
  9
$LIMMIN
 10
0.0
 20
0.0
  9
$LIMMAX
 10
89.916
 20
180.0
  9
$VIEWCTR
 10
44.958
 20
90.0
  9
$VIEWSIZE
 40
180.0
  9
$CLAYER
  8
0
  9
$LTSCALE
 40
11.7333333333
  9
$CELTYPE
  6
BYLAYER
  9
$DIMSCALE
 40
1.0
  9
$DIMASZ
 40
3.5
  9
$DIMEXO
 40
0.0
  9
$DIMDLI
 40
8.1066666667
  9
$DIMEXE
 40
2.0
  9
$DIMCEN
 40
1.92
  9
$DIMLFAC
 40
1.0
  9
$DIMBLK
  1
_ARROW_FILLED
  9
$DIMALT
 70
0
  9
$DIMALTF
 40
25.4
  9
$DIMTXT
 40
3.5
  9
$DIMTOL
 70
1
  9
$DIMLIM
 70
0
  9
$DIMTFAC
 40
1.0
  9
$DIMTP
 40
0.01
  9
$DIMTM
 40
0.01
  9
$DIMGAP
 40
0.625
  9
$AUNITS
 70
0
  9
$PDMODE
 70
0
  9
$PDSIZE
 40
0.04
  9
$HANDSEED
  5
438
  9
$TILEMODE
 70
1
  9
$MEASUREMENT
 70
1
  0
ENDSEC
  0
SECTION
  2
CLASSES
  0
ENDSEC
  0
SECTION
  2
TABLES
  0
TABLE
  2
VPORT
  5
8
100
AcDbSymbolTable
 70
2
  0
VPORT
  5
1F4
100
AcDbSymbolTableRecord
100
AcDbViewportTableRecord
  2
*ACTIVE
 70
0
 10
0.0
 20
0.0
 11
1.0
 21
1.0
 12
44.958
 22
90.0
 13
0.0
 23
0.0
 14
1.0
 24
1.0
 15
0.0
 25
0.0
 16
0.0
 26
0.0
 36
1.0
 17
0.0
 27
0.0
 37
0.0
 40
180.0
 41
0.4995333333
 42
50.0
 43
0.0
 44
0.0
 50
0.0
 51
0.0
 71
0
 72
100
 73
1
 74
1
 75
0
 76
0
 77
0
 78
0
  0
ENDTAB
  0
TABLE
  2
LTYPE
  5
5
100
AcDbSymbolTable
 70
6
  0
LTYPE
  5
14
100
AcDbSymbolTableRecord
100
AcDbLinetypeTableRecord
  2
BYBLOCK
 70
0
  3

 72
65
 73
0
 40
0.0
  0
LTYPE
  5
15
100
AcDbSymbolTableRecord
100
AcDbLinetypeTableRecord
  2
BYLAYER
 70
0
  3

 72
65
 73
0
 40
0.0
  0
LTYPE
  5
16
100
AcDbSymbolTableRecord
100
AcDbLinetypeTableRecord
  2
CONTINUOUS
 70
64
  3
Solid line
 72
65
 73
0
 40
0.0
  0
LTYPE
  5
1F5
100
AcDbSymbolTableRecord
100
AcDbLinetypeTableRecord
  2
CENTER
 70
64
  3
____ _ ____ _ ____ _ ____ _ ____ _ ____ _ ____
 72
65
 73
4
 40
0.6
 49
0.375
 74
0
 49
-0.075
 74
0
 49
0.075
 74
0
 49
-0.075
 74
0
  0
LTYPE
  5
1F6
100
AcDbSymbolTableRecord
100
AcDbLinetypeTableRecord
  2
HIDDEN
 70
64
  3
- - - - - - - - - - - - - - - - - - - -
 72
65
 73
2
 40
0.2
 49
0.1
 74
0
 49
-0.1
 74
0
  0
LTYPE
  5
1F7
100
AcDbSymbolTableRecord
100
AcDbLinetypeTableRecord
  2
PHANTOM
 70
64
  3
_____ _ _ _____ _ _ _____ _ _ _____
 72
65
 73
6
 40
0.8
 49
0.45
 74
0
 49
-0.05
 74
0
 49
0.1
 74
0
 49
-0.05
 74
0
 49
0.1
 74
0
 49
-0.05
 74
0
  0
LTYPE
  5
1F8
100
AcDbSymbolTableRecord
100
AcDbLinetypeTableRecord
  2
DOT
 70
64
  3
. . . . . . . . . . . . . . . . . . . .
 72
65
 73
2
 40
0.2
 49
0.1
 74
0
 49
-0.1
 74
0
  0
LTYPE
  5
1F9
100
AcDbSymbolTableRecord
100
AcDbLinetypeTableRecord
  2
DASHED
 70
64
  3
- - - - - - - - - - - - - - - - - - - -
 72
65
 73
2
 40
0.2
 49
0.1
 74
0
 49
-0.1
 74
0
  0
ENDTAB
  0
TABLE
  2
LAYER
  5
2
100
AcDbSymbolTable
 70
36
  0
LAYER
  5
10
100
AcDbSymbolTableRecord
100
AcDbLayerTableRecord
  2
0
 70
0
 62
7
  6
CONTINUOUS
  0
LAYER
  5
1FA
100
AcDbSymbolTableRecord
100
AcDbLayerTableRecord
  2
DEFAULT_1
 70
0
 62
7
  6
CENTER
  0
LAYER
  5
1FB
100
AcDbSymbolTableRecord
100
AcDbLayerTableRecord
  2
DEFAULT_2
 70
0
 62
8
  6
HIDDEN
  0
LAYER
  5
1FC
100
AcDbSymbolTableRecord
100
AcDbLayerTableRecord
  2
DEFAULT_3
 70
0
 62
7
  6
PHANTOM
  0
LAYER
  5
1FD
100
AcDbSymbolTableRecord
100
AcDbLayerTableRecord
  2
A_ACHSEN
 70
0
 62
7
  6
CONTINUOUS
  0
LAYER
  5
1FE
100
AcDbSymbolTableRecord
100
AcDbLayerTableRecord
  2
A_BASISEBENEN
 70
0
 62
7
  6
CONTINUOUS
  0
LAYER
  5
1FF
100
AcDbSymbolTableRecord
100
AcDbLayerTableRecord
  2
A_BEMASSUNGEN
 70
0
 62
7
  6
CONTINUOUS
  0
LAYER
  5
200
100
AcDbSymbolTableRecord
100
AcDbLayerTableRecord
  2
A_BOHRUNGEN
 70
0
 62
7
  6
CONTINUOUS
  0
LAYER
  5
201
100
AcDbSymbolTableRecord
100
AcDbLayerTableRecord
  2
A_EBENEN
 70
0
 62
7
  6
CONTINUOUS
  0
LAYER
  5
202
100
AcDbSymbolTableRecord
100
AcDbLayerTableRecord
  2
A_FASEN
 70
0
 62
7
  6
CONTINUOUS
  0
LAYER
  5
203
100
AcDbSymbolTableRecord
100
AcDbLayerTableRecord
  2
A_FLAECHEN
 70
0
 62
7
  6
CONTINUOUS
  0
LAYER
  5
204
100
AcDbSymbolTableRecord
100
AcDbLayerTableRecord
  2
A_FL_VERBAENDE
 70
0
 62
7
  6
CONTINUOUS
  0
LAYER
  5
205
100
AcDbSymbolTableRecord
100
AcDbLayerTableRecord
  2
A_KURVEN
 70
0
 62
7
  6
CONTINUOUS
  0
LAYER
  5
206
100
AcDbSymbolTableRecord
100
AcDbLayerTableRecord
  2
A_NOTIZEN_SYMB
 70
0
 62
7
  6
CONTINUOUS
  0
LAYER
  5
207
100
AcDbSymbolTableRecord
100
AcDbLayerTableRecord
  2
A_PUNKTE
 70
0
 62
7
  6
CONTINUOUS
  0
LAYER
  5
208
100
AcDbSymbolTableRecord
100
AcDbLayerTableRecord
  2
A_RUNDUNGEN
 70
0
 62
7
  6
CONTINUOUS
  0
LAYER
  5
209
100
AcDbSymbolTableRecord
100
AcDbLayerTableRecord
  2
BASISEBENEN
 70
0
 62
7
  6
CONTINUOUS
  0
LAYER
  5
20A
100
AcDbSymbolTableRecord
100
AcDbLayerTableRecord
  2
GRAVUR
 70
0
 62
7
  6
CONTINUOUS
  0
LAYER
  5
20B
100
AcDbSymbolTableRecord
100
AcDbLayerTableRecord
  2
SCHRIFTZUG_DREHMOMENT
 70
0
 62
7
  6
CONTINUOUS
  0
LAYER
  5
20C
100
AcDbSymbolTableRecord
100
AcDbLayerTableRecord
  2
XSEC_DATUMS
 70
0
 62
7
  6
CONTINUOUS
  0
ENDTAB
  0
TABLE
  2
STYLE
  5
3
100
AcDbSymbolTable
 70
1
  0
STYLE
  5
11
100
AcDbSymbolTableRecord
100
AcDbTextStyleTableRecord
  2
STANDARD
 70
0
 40
0.0
 41
1.0
 50
0.0
 71
0
 42
0.2
  3
txt
  4

  0
STYLE
  5
20D
100
AcDbSymbolTableRecord
100
AcDbTextStyleTableRecord
  2
TEXTSTYLE_1
 70
0
 40
0.0
 41
0.8
 50
0.0
 71
0
 42
0.2
  3
gdt
  4

  0
STYLE
  5
20E
100
AcDbSymbolTableRecord
100
AcDbTextStyleTableRecord
  2
TEXTSTYLE_2
 70
0
 40
0.0
 41
1.0
 50
0.0
 71
0
 42
0.2
  3
txt
  4

  0
ENDTAB
  0
TABLE
  2
VIEW
  5
6
100
AcDbSymbolTable
 70
0
  0
ENDTAB
  0
TABLE
  2
UCS
  5
7
100
AcDbSymbolTable
 70
0
  0
ENDTAB
  0
TABLE
  2
APPID
  5
9
100
AcDbSymbolTable
 70
1
  0
APPID
  5
20F
100
AcDbSymbolTableRecord
100
AcDbRegAppTableRecord
  2
ACAD
 70
0
  0
ENDTAB
  0
TABLE
  2
BLOCK_RECORD
  5
1
100
AcDbSymbolTable
 70
0
  0
BLOCK_RECORD
  5
1F
100
AcDbSymbolTableRecord
100
AcDbBlockTableRecord
  2
*MODEL_SPACE
  0
BLOCK_RECORD
  5
1B
100
AcDbSymbolTableRecord
100
AcDbBlockTableRecord
  2
*PAPER_SPACE
  0
BLOCK_RECORD
  5
210
100
AcDbSymbolTableRecord
100
AcDbBlockTableRecord
  2
_ARROW_FILLED
  0
BLOCK_RECORD
  5
211
100
AcDbSymbolTableRecord
100
AcDbBlockTableRecord
  2
*D0
  0
BLOCK_RECORD
  5
212
100
AcDbSymbolTableRecord
100
AcDbBlockTableRecord
  2
*D1
  0
BLOCK_RECORD
  5
213
100
AcDbSymbolTableRecord
100
AcDbBlockTableRecord
  2
*D2
  0
BLOCK_RECORD
  5
214
100
AcDbSymbolTableRecord
100
AcDbBlockTableRecord
  2
*D3
  0
ENDTAB
  0
TABLE
  2
DIMSTYLE
  5
A
100
AcDbSymbolTable
 70
1
  0
DIMSTYLE
105
215
100
AcDbSymbolTableRecord
100
AcDbDimStyleTableRecord
  2
STANDARD
 70
0
  3

  4

  5
_ARROW_FILLED
  6
_ARROW_FILLED
  7
_ARROW_FILLED
 40
1.0
 41
3.5
 42
0.0
 43
0.38
 44
2.0
 45
0.0
 46
0.0
 47
0.01
 48
0.01
140
3.5
141
0.09
142
0.0
143
25.4
144
1.0
145
0.0
146
1.0
147
0.625
 71
1.0
 72
0.0
 73
0
 74
0
 75
0
 76
0
 77
1
 78
8
170
0
171
1
172
0
173
0
174
0
175
0
176
0
177
0
178
5
270
2
271
2
272
2
273
2
274
2
275
0
280
0
281
0
282
0
283
1
284
8
285
0
286
0
287
3
288
0
340
11
  0
DIMSTYLE
105
216
100
AcDbSymbolTableRecord
100
AcDbDimStyleTableRecord
  2
DIMSTYLE_1
 70
0
  3

  4

  5
_ARROW_FILLED
  6
_ARROW_FILLED
  7
_ARROW_FILLED
 40
1.0
 41
3.5
 42
0.0
 43
0.38
 44
2.0
 45
0.0
 46
0.0
 47
0.5
 48
0.5
140
3.5
141
0.09
142
0.0
143
25.4
144
1.0
145
0.0
146
1.0
147
0.875
 71
0.0
 72
0.0
 73
0
 74
0
 75
0
 76
0
 77
1
 78
8
170
0
171
1
172
0
173
0
174
0
175
0
176
0
177
0
178
5
270
2
271
4
272
-1
273
2
274
2
275
0
280
0
281
0
282
0
283
1
284
8
285
0
286
0
287
3
288
0
340
20E
  0
DIMSTYLE
105
217
100
AcDbSymbolTableRecord
100
AcDbDimStyleTableRecord
  2
DIMSTYLE_2
 70
0
  3

  4

  5
_ARROW_FILLED
  6
_ARROW_FILLED
  7
_ARROW_FILLED
 40
1.0
 41
3.5
 42
0.0
 43
0.38
 44
2.0
 45
0.0
 46
0.0
 47
0.2
 48
0.2
140
3.5
141
0.09
142
0.0
143
25.4
144
1.0
145
0.0
146
1.0
147
0.875
 71
0.0
 72
0.0
 73
0
 74
0
 75
0
 76
0
 77
1
 78
8
170
0
171
1
172
0
173
0
174
0
175
0
176
0
177
0
178
5
270
2
271
0
272
-1
273
2
274
2
275
0
280
0
281
0
282
0
283
1
284
8
285
0
286
0
287
3
288
0
340
20E
  0
DIMSTYLE
105
218
100
AcDbSymbolTableRecord
100
AcDbDimStyleTableRecord
  2
DIMSTYLE_3
 70
0
  3

  4

  5
_ARROW_FILLED
  6
_ARROW_FILLED
  7
_ARROW_FILLED
 40
1.0
 41
3.5
 42
0.0
 43
0.38
 44
2.0
 45
0.0
 46
0.0
 47
0.2
 48
0.2
140
3.5
141
0.09
142
0.0
143
25.4
144
1.0
145
0.0
146
1.0
147
0.875
 71
0.0
 72
0.0
 73
0
 74
0
 75
0
 76
0
 77
1
 78
8
170
0
171
1
172
0
173
0
174
0
175
0
176
0
177
0
178
5
270
2
271
4
272
-1
273
2
274
2
275
0
280
0
281
0
282
0
283
1
284
8
285
0
286
0
287
3
288
0
340
20E
  0
DIMSTYLE
105
219
100
AcDbSymbolTableRecord
100
AcDbDimStyleTableRecord
  2
DIMSTYLE_4
 70
0
  3

  4

  5
_ARROW_FILLED
  6
_ARROW_FILLED
  7
_ARROW_FILLED
 40
1.0
 41
3.5
 42
0.0
 43
0.38
 44
2.0
 45
0.0
 46
0.0
 47
0.3
 48
0.3
140
3.5
141
0.09
142
0.0
143
25.4
144
1.0
145
0.0
146
1.0
147
0.875
 71
0.0
 72
0.0
 73
0
 74
0
 75
0
 76
0
 77
1
 78
8
170
0
171
1
172
0
173
0
174
0
175
0
176
0
177
0
178
5
270
2
271
4
272
-1
273
2
274
2
275
0
280
0
281
0
282
0
283
1
284
8
285
0
286
0
287
3
288
0
340
20E
  0
ENDTAB
  0
ENDSEC
  0
SECTION
  2
BLOCKS
  0
BLOCK
  5
20
100
AcDbEntity
  8
0
100
AcDbBlockBegin
  2
*MODEL_SPACE
 70
0
 10
0.0
 20
0.0
 30
0.0
  3
*MODEL_SPACE
  1

  0
ENDBLK
  5
21
100
AcDbEntity
  8
0
100
AcDbBlockEnd
  0
BLOCK
  5
1C
100
AcDbEntity
  8
0
100
AcDbBlockBegin
  2
*PAPER_SPACE
 70
0
 10
0.0
 20
0.0
 30
0.0
  3
*PAPER_SPACE
  1

  0
ENDBLK
  5
1D
100
AcDbEntity
  8
0
100
AcDbBlockEnd
  0
BLOCK
  5
21A
100
AcDbEntity
  8
0
100
AcDbBlockBegin
  2
_ARROW_FILLED
 70
64
 10
0.0
 20
0.0
  3
_ARROW_FILLED
  1

  0
SOLID
  5
21B
100
AcDbEntity
  8
0
  6
BYBLOCK
 62
0
100
AcDbTrace
 10
0.0
 20
0.0
 11
-1.0
 21
0.1428571429
 12
-1.0
 22
-0.1428571429
 13
-1.0
 23
-0.1428571429
  0
ENDBLK
  5
21C
100
AcDbEntity
  8
0
  6
BYBLOCK
 62
0
100
AcDbBlockEnd
  0
BLOCK
  5
21D
100
AcDbEntity
  8
A_BEMASSUNGEN
100
AcDbBlockBegin
 62
2
  6
CONTINUOUS
  2
*D0
 70
65
 10
0.0
 20
0.0
  3
*D0
  1

  0
MTEXT
  5
21E
100
AcDbEntity
  8
A_BEMASSUNGEN
100
AcDbMText
 62
5
  6
CONTINUOUS
  7
TEXTSTYLE_2
 71
2
 72
1
 10
82.5285166763
 20
95.6275093594
 30
0.0
 11
0.0
 21
1.0
 31
0.0
  1
160
 40
3.5
 41
11.25
  0
LINE
  5
21F
100
AcDbEntity
  8
A_BEMASSUNGEN
100
AcDbLine
 62
2
  6
CONTINUOUS
 10
62.8836083046
 20
15.6275093594
 11
74.1948581369
 21
15.6275093594
  0
LINE
  5
220
100
AcDbEntity
  8
A_BEMASSUNGEN
100
AcDbLine
 62
2
  6
CONTINUOUS
 10
81.0608133221
 20
15.6275093594
 11
88.9035166763
 21
15.6275093594
  0
LINE
  5
221
100
AcDbEntity
  8
A_BEMASSUNGEN
100
AcDbLine
 62
2
  6
CONTINUOUS
 10
62.8836083046
 20
175.6275093594
 11
88.9035166763
 21
175.6275093594
  0
LINE
  5
222
100
AcDbEntity
  8
A_BEMASSUNGEN
100
AcDbLine
 62
2
  6
CONTINUOUS
 10
86.9035166763
 20
15.6275093594
 11
86.9035166763
 21
95.6275093594
  0
LINE
  5
223
100
AcDbEntity
  8
A_BEMASSUNGEN
100
AcDbLine
 62
2
  6
CONTINUOUS
 10
86.9035166763
 20
175.6275093594
 11
86.9035166763
 21
95.6275093594
  0
INSERT
  5
224
100
AcDbEntity
  8
A_BEMASSUNGEN
100
AcDbBlockReference
 62
2
  6
CONTINUOUS
  2
_ARROW_FILLED
 10
86.9035166763
 20
15.6275093594
 41
3.5
 42
3.5
 43
3.5
 50
270.0
  0
INSERT
  5
225
100
AcDbEntity
  8
A_BEMASSUNGEN
100
AcDbBlockReference
 62
2
  6
CONTINUOUS
  2
_ARROW_FILLED
 10
86.9035166763
 20
175.6275093594
 41
3.5
 42
3.5
 43
3.5
 50
90.0
  0
ENDBLK
  5
226
100
AcDbEntity
  8
0
  6
BYBLOCK
 62
0
100
AcDbBlockEnd
  0
BLOCK
  5
227
100
AcDbEntity
  8
A_BEMASSUNGEN
100
AcDbBlockBegin
 62
2
  6
CONTINUOUS
  2
*D1
 70
65
 10
0.0
 20
0.0
  3
*D1
  1

  0
MTEXT
  5
228
100
AcDbEntity
  8
A_BEMASSUNGEN
100
AcDbMText
 62
5
  6
CONTINUOUS
  7
TEXTSTYLE_2
 71
2
 72
1
 10
62.8336083046
 20
8.478604042
 30
0.0
 11
1.0
 21
0.0
 31
0.0
  1
28
 40
3.5
 41
8.25
  0
LINE
  5
229
100
AcDbEntity
  8
A_BEMASSUNGEN
100
AcDbLine
 62
2
  6
CONTINUOUS
 10
76.7836083046
 20
29.5275093594
 11
76.7836083046
 21
2.103604042
  0
LINE
  5
22A
100
AcDbEntity
  8
A_BEMASSUNGEN
100
AcDbLine
 62
2
  6
CONTINUOUS
 10
48.8836083046
 20
30.6275093594
 11
48.8836083046
 21
2.103604042
  0
LINE
  5
22B
100
AcDbEntity
  8
A_BEMASSUNGEN
100
AcDbLine
 62
2
  6
CONTINUOUS
 10
76.7836083046
 20
4.103604042
 11
62.8336083046
 21
4.103604042
  0
LINE
  5
22C
100
AcDbEntity
  8
A_BEMASSUNGEN
100
AcDbLine
 62
2
  6
CONTINUOUS
 10
48.8836083046
 20
4.103604042
 11
62.8336083046
 21
4.103604042
  0
INSERT
  5
22D
100
AcDbEntity
  8
A_BEMASSUNGEN
100
AcDbBlockReference
 62
2
  6
CONTINUOUS
  2
_ARROW_FILLED
 10
76.7836083046
 20
4.103604042
 41
3.5
 42
3.5
 43
3.5
  0
INSERT
  5
22E
100
AcDbEntity
  8
A_BEMASSUNGEN
100
AcDbBlockReference
 62
2
  6
CONTINUOUS
  2
_ARROW_FILLED
 10
48.8836083046
 20
4.103604042
 41
3.5
 42
3.5
 43
3.5
 50
180.0
  0
ENDBLK
  5
22F
100
AcDbEntity
  8
0
  6
BYBLOCK
 62
0
100
AcDbBlockEnd
  0
BLOCK
  5
230
100
AcDbEntity
  8
A_BEMASSUNGEN
100
AcDbBlockBegin
 62
2
  6
CONTINUOUS
  2
*D2
 70
65
 10
0.0
 20
0.0
  3
*D2
  1

  0
MTEXT
  5
231
100
AcDbEntity
  8
A_BEMASSUNGEN
100
AcDbMText
 62
5
  6
CONTINUOUS
  7
TEXTSTYLE_2
 71
2
 72
1
 10
30.7355867376
 20
38.6760921254
 30
0.0
 11
1.0
 21
0.0
 31
0.0
  1
21
 40
3.5
 41
7.125
  0
LINE
  5
232
100
AcDbEntity
  8
A_BEMASSUNGEN
100
AcDbLine
 62
2
  6
CONTINUOUS
 10
41.2355867376
 20
47.6275093594
 11
41.2355867376
 21
32.3010921254
  0
LINE
  5
233
100
AcDbEntity
  8
A_BEMASSUNGEN
100
AcDbLine
 62
2
  6
CONTINUOUS
 10
20.2355867376
 20
50.1275093594
 11
20.2355867376
 21
32.3010921254
  0
LINE
  5
234
100
AcDbEntity
  8
A_BEMASSUNGEN
100
AcDbLine
 62
2
  6
CONTINUOUS
 10
41.2355867376
 20
34.3010921254
 11
30.7355867376
 21
34.3010921254
  0
LINE
  5
235
100
AcDbEntity
  8
A_BEMASSUNGEN
100
AcDbLine
 62
2
  6
CONTINUOUS
 10
20.2355867376
 20
34.3010921254
 11
30.7355867376
 21
34.3010921254
  0
INSERT
  5
236
100
AcDbEntity
  8
A_BEMASSUNGEN
100
AcDbBlockReference
 62
2
  6
CONTINUOUS
  2
_ARROW_FILLED
 10
41.2355867376
 20
34.3010921254
 41
3.5
 42
3.5
 43
3.5
  0
INSERT
  5
237
100
AcDbEntity
  8
A_BEMASSUNGEN
100
AcDbBlockReference
 62
2
  6
CONTINUOUS
  2
_ARROW_FILLED
 10
20.2355867376
 20
34.3010921254
 41
3.5
 42
3.5
 43
3.5
 50
180.0
  0
ENDBLK
  5
238
100
AcDbEntity
  8
0
  6
BYBLOCK
 62
0
100
AcDbBlockEnd
  0
BLOCK
  5
239
100
AcDbEntity
  8
A_BEMASSUNGEN
100
AcDbBlockBegin
 62
2
  6
CONTINUOUS
  2
*D3
 70
65
 10
0.0
 20
0.0
  3
*D3
  1

  0
MTEXT
  5
23A
100
AcDbEntity
  8
A_BEMASSUNGEN
100
AcDbMText
 62
5
  6
CONTINUOUS
  7
TEXTSTYLE_2
 71
2
 72
1
 10
2.2567565147
 20
95.6275093594
 30
0.0
 11
0.0
 21
1.0
 31
0.0
  1
100
 40
3.5
 41
11.25
  0
LINE
  5
23B
100
AcDbEntity
  8
A_BEMASSUNGEN
100
AcDbLine
 62
2
  6
CONTINUOUS
 10
22.2355867376
 20
145.6275093594
 11
4.6317565147
 21
145.6275093594
  0
LINE
  5
23C
100
AcDbEntity
  8
A_BEMASSUNGEN
100
AcDbLine
 62
2
  6
CONTINUOUS
 10
22.2355867376
 20
45.6275093594
 11
4.6317565147
 21
45.6275093594
  0
LINE
  5
23D
100
AcDbEntity
  8
A_BEMASSUNGEN
100
AcDbLine
 62
2
  6
CONTINUOUS
 10
6.6317565147
 20
145.6275093594
 11
6.6317565147
 21
95.6275093594
  0
LINE
  5
23E
100
AcDbEntity
  8
A_BEMASSUNGEN
100
AcDbLine
 62
2
  6
CONTINUOUS
 10
6.6317565147
 20
45.6275093594
 11
6.6317565147
 21
95.6275093594
  0
INSERT
  5
23F
100
AcDbEntity
  8
A_BEMASSUNGEN
100
AcDbBlockReference
 62
2
  6
CONTINUOUS
  2
_ARROW_FILLED
 10
6.6317565147
 20
145.6275093594
 41
3.5
 42
3.5
 43
3.5
 50
90.0
  0
INSERT
  5
240
100
AcDbEntity
  8
A_BEMASSUNGEN
100
AcDbBlockReference
 62
2
  6
CONTINUOUS
  2
_ARROW_FILLED
 10
6.6317565147
 20
45.6275093594
 41
3.5
 42
3.5
 43
3.5
 50
270.0
  0
ENDBLK
  5
241
100
AcDbEntity
  8
0
  6
BYBLOCK
 62
0
100
AcDbBlockEnd
  0
ENDSEC
  0
SECTION
  2
ENTITIES
  0
DIMENSION
  5
242
100
AcDbEntity
  8
A_BEMASSUNGEN
100
AcDbDimension
 62
2
  6
CONTINUOUS
  2
*D0
 10
86.9035166763
 20
175.6275093594
 11
86.9035166763
 21
95.1275135165
 70
160
  3
DIMSTYLE_1
100
AcDbAlignedDimension
 13
62.8836083046
 23
15.6275093594
 14
62.8836083046
 24
175.6275093594
 50
90.0
100
AcDbRotatedDimension
  0
DIMENSION
  5
243
100
AcDbEntity
  8
A_BEMASSUNGEN
100
AcDbDimension
 62
2
  6
CONTINUOUS
  2
*D1
 10
48.8836083046
 20
4.103604042
 11
62.3336119792
 21
4.103604042
 70
160
  3
DIMSTYLE_2
100
AcDbAlignedDimension
 13
76.7836083046
 23
29.5275093594
 14
48.8836083046
 24
30.6275093594
 50
180.0
100
AcDbRotatedDimension
  0
DIMENSION
  5
244
100
AcDbEntity
  8
A_BEMASSUNGEN
100
AcDbDimension
 62
2
  6
CONTINUOUS
  2
*D2
 10
20.2355867376
 20
34.3010921254
 11
30.2355846354
 21
34.3010921254
 70
160
  3
DIMSTYLE_3
100
AcDbAlignedDimension
 13
41.2355867376
 23
47.6275093594
 14
20.2355867376
 24
50.1275093594
 50
180.0
100
AcDbRotatedDimension
  0
DIMENSION
  5
245
100
AcDbEntity
  8
A_BEMASSUNGEN
100
AcDbDimension
 62
2
  6
CONTINUOUS
  2
*D3
 10
6.6317565147
 20
45.6275093594
 11
6.6317565147
 21
95.1275093551
 70
160
  3
DIMSTYLE_4
100
AcDbAlignedDimension
 13
22.2355867376
 23
145.6275093594
 14
22.2355867376
 24
45.6275093594
 50
270.0
100
AcDbRotatedDimension
  0
MTEXT
  5
246
100
AcDbEntity
  8
A_NOTIZEN_SYMB
100
AcDbMText
 62
5
  6
CONTINUOUS
  7
TEXTSTYLE_2
 71
1
 72
1
 10
9.909765902
 20
101.040923881
 30
0.0
 11
1.0
 21
0.0
 31
0.0
  1
BBL
 40
3.5
 41
12.625
  0
LINE
  5
247
100
AcDbEntity
  8
A_ACHSEN
100
AcDbLine
 62
7
  6
CENTER
 10
50.1587946249
 20
25.5275093594
 11
60.4513286645
 21
25.5275093594
  0
LINE
  5
248
100
AcDbEntity
  8
A_ACHSEN
100
AcDbLine
 62
7
  6
CENTER
 10
64.7187508675
 20
25.5275093594
 11
75.9484657416
 21
25.5275093594
  0
LINE
  5
249
100
AcDbEntity
  8
A_ACHSEN
100
AcDbLine
 62
7
  6
CENTER
 10
60.8637920768
 20
27.7275093594
 11
55.3336083048
 21
27.7275093594
  0
LINE
  5
24A
100
AcDbEntity
  8
A_ACHSEN
100
AcDbLine
 62
7
  6
CONTINUOUS
 10
55.3336083048
 20
27.7275093594
 11
54.9546334833
 21
27.7275093594
  0
LINE
  5
24B
100
AcDbEntity
  8
A_ACHSEN
100
AcDbLine
 62
7
  6
CENTER
 10
54.9546334833
 20
27.7275093594
 11
50.130247965
 21
27.7275093594
  0
LINE
  5
24C
100
AcDbEntity
  8
A_ACHSEN
100
AcDbLine
 62
7
  6
CENTER
 10
65.0156361302
 20
27.7275093594
 11
75.651580479
 21
27.7275093594
  0
LINE
  5
24D
100
AcDbEntity
  8
DEFAULT_2
100
AcDbLine
 62
8
  6
HIDDEN
 10
62.3836083046
 20
30.0275093594
 11
63.3836083046
 21
30.0275093594
  0
LINE
  5
24E
100
AcDbEntity
  8
0
100
AcDbLine
 62
7
  6
CONTINUOUS
 10
60.9836083046
 20
31.4275093594
 11
61.7858090603
 21
31.4275093594
  0
LINE
  5
24F
100
AcDbEntity
  8
DEFAULT_2
100
AcDbLine
 62
8
  6
HIDDEN
 10
61.7858090603
 20
31.4275093594
 11
62.0836083046
 21
31.4275093594
  0
LINE
  5
250
100
AcDbEntity
  8
DEFAULT_2
100
AcDbLine
 62
8
  6
HIDDEN
 10
63.6836083046
 20
31.4275093594
 11
64.7836083046
 21
31.4275093594
  0
LINE
  5
251
100
AcDbEntity
  8
A_ACHSEN
100
AcDbLine
 62
7
  6
CENTER
 10
57.2691481428
 20
31.9275093594
 11
68.4980684663
 21
31.9275093594
  0
LINE
  5
252
100
AcDbEntity
  8
DEFAULT_2
100
AcDbLine
 62
8
  6
HIDDEN
 10
64.7836083046
 20
32.4275093594
 11
63.6836083046
 21
32.4275093594
  0
LINE
  5
253
100
AcDbEntity
  8
DEFAULT_2
100
AcDbLine
 62
8
  6
HIDDEN
 10
62.0836083046
 20
32.4275093594
 11
61.7858090603
 21
32.4275093594
  0
LINE
  5
254
100
AcDbEntity
  8
0
100
AcDbLine
 62
7
  6
CONTINUOUS
 10
61.7858090603
 20
32.4275093594
 11
60.9836083046
 21
32.4275093594
  0
LINE
  5
255
100
AcDbEntity
  8
DEFAULT_2
100
AcDbLine
 62
8
  6
HIDDEN
 10
63.3836083046
 20
33.8275093594
 11
62.3836083046
 21
33.8275093594
  0
LINE
  5
256
100
AcDbEntity
  8
0
100
AcDbLine
 62
7
  6
CONTINUOUS
 10
72.1236083046
 20
38.6379456649
 11
73.8436083046
 21
38.6379456649
  0
LINE
  5
257
100
AcDbEntity
  8
0
100
AcDbLine
 62
7
  6
CONTINUOUS
 10
48.8836083046
 20
43.1990751256
 11
48.7836083046
 21
43.1973296191
  0
LINE
  5
258
100
AcDbEntity
  8
A_RUNDUNGEN
100
AcDbLine
 62
7
  6
CONTINUOUS
 10
48.7836083046
 20
43.1973296191
 11
45.029245203
 21
43.1317969674
  0
LINE
  5
259
100
AcDbEntity
  8
A_RUNDUNGEN
100
AcDbLine
 62
7
  6
CONTINUOUS
 10
44.029245203
 20
44.0794317726
 11
46.5379714062
 21
44.1232217514
  0
LINE
  5
25A
100
AcDbEntity
  8
A_ACHSEN
100
AcDbLine
 62
7
  6
CENTER
 10
68.659495311
 20
40.1275093594
 11
77.3077212982
 21
40.1275093594
  0
LINE
  5
25B
100
AcDbEntity
  8
0
100
AcDbLine
 62
7
  6
CONTINUOUS
 10
73.8436083046
 20
41.6170730539
 11
72.1236083046
 21
41.6170730539
  0
LINE
  5
25C
100
AcDbEntity
  8
A_RUNDUNGEN
100
AcDbLine
 62
7
  6
CONTINUOUS
 10
44.3660963995
 20
42.1275093594
 11
44.5336083046
 21
42.1275093594
  0
LINE
  5
25D
100
AcDbEntity
  8
A_RUNDUNGEN
100
AcDbLine
 62
7
  6
CONTINUOUS
 10
39.2355867376
 20
45.6275093594
 11
22.2355867376
 21
45.6275093594
  0
LINE
  5
25E
100
AcDbEntity
  8
0
100
AcDbLine
 62
7
  6
CONTINUOUS
 10
27.2355867376
 20
132.859560167
 11
25.7355867376
 21
131.9935347632
  0
LINE
  5
25F
100
AcDbEntity
  8
0
100
AcDbLine
 62
7
  6
CONTINUOUS
 10
27.2355867376
 20
129.3954585518
 11
28.7355867376
 21
130.2614839556
  0
LINE
  5
260
100
AcDbEntity
  8
A_RUNDUNGEN
100
AcDbLine
 62
7
  6
CONTINUOUS
 10
48.9836083046
 20
47.354182873
 11
48.8879488917
 21
47.354182873
  0
LINE
  5
261
100
AcDbEntity
  8
0
100
AcDbLine
 62
7
  6
CONTINUOUS
 10
62.0925882666
 20
47.5275093594
 11
48.9836083046
 21
47.5275093594
  0
LINE
  5
262
100
AcDbEntity
  8
A_RUNDUNGEN
100
AcDbLine
 62
7
  6
CONTINUOUS
 10
72.2836083046
 20
47.5713041493
 11
62.2857900219
 21
47.5713041493
  0
LINE
  5
263
100
AcDbEntity
  8
A_RUNDUNGEN
100
AcDbLine
 62
7
  6
CONTINUOUS
 10
38.2355867376
 20
50.1275093594
 11
20.2355867376
 21
50.1275093594
  0
LINE
  5
264
100
AcDbEntity
  8
0
100
AcDbLine
 62
7
  6
CONTINUOUS
 10
48.9829382143
 20
47.489119913
 11
48.7836083046
 21
47.4925992296
  0
LINE
  5
265
100
AcDbEntity
  8
A_RUNDUNGEN
100
AcDbLine
 62
7
  6
CONTINUOUS
 10
48.7836083046
 20
47.4925992296
 11
47.0379714062
 21
47.523069435
  0
LINE
  5
266
100
AcDbEntity
  8
0
100
AcDbLine
 62
7
  6
CONTINUOUS
 10
25.7355867376
 20
59.2614839556
 11
27.2355867376
 21
58.3954585518
  0
LINE
  5
267
100
AcDbEntity
  8
0
100
AcDbLine
 62
7
  6
CONTINUOUS
 10
28.7355867376
 20
60.9935347632
 11
27.2355867376
 21
61.859560167
  0
LINE
  5
268
100
AcDbEntity
  8
A_RUNDUNGEN
100
AcDbLine
 62
7
  6
CONTINUOUS
 10
20.2355867376
 20
47.6275093594
 11
20.2355867376
 21
143.6275093594
  0
LINE
  5
269
100
AcDbEntity
  8
A_FASEN
100
AcDbLine
 62
8
  6
HIDDEN
 10
63.3938305567
 20
160.0498636459
 11
63.3898848437
 21
160.0459179329
  0
LINE
  5
26A
100
AcDbEntity
  8
A_FASEN
100
AcDbLine
 62
8
  6
HIDDEN
 10
62.1651997311
 20
158.8212328203
 11
62.1612540181
 21
158.8172871073
  0
LINE
  5
26B
100
AcDbEntity
  8
A_FASEN
100
AcDbLine
 62
8
  6
HIDDEN
 10
62.3392649921
 20
158.783166047
 11
61.7858090603
 21
158.2297101152
  0
LINE
  5
26C
100
AcDbEntity
  8
A_FASEN
100
AcDbLine
 62
7
  6
CONTINUOUS
 10
61.7858090603
 20
158.2297101152
 11
61.4693947422
 21
157.913295797
  0
LINE
  5
26D
100
AcDbEntity
  8
A_FASEN
100
AcDbLine
 62
8
  6
HIDDEN
 10
63.427951617
 20
159.8718526719
 11
64.2978218669
 21
160.7417229218
  0
LINE
  5
26E
100
AcDbEntity
  8
A_FASEN
100
AcDbLine
 62
8
  6
HIDDEN
 10
62.3733860525
 20
158.6051550729
 11
62.3773317654
 21
158.6091007859
  0
LINE
  5
26F
100
AcDbEntity
  8
A_FASEN
100
AcDbLine
 62
8
  6
HIDDEN
 10
63.602016878
 20
159.8337858985
 11
63.605962591
 21
159.8377316115
  0
LINE
  5
270
100
AcDbEntity
  8
A_RUNDUNGEN
100
AcDbLine
 62
7
  6
CONTINUOUS
 10
72.7836083046
 20
55.1801136694
 11
49.9362126145
 21
55.1801136694
  0
LINE
  5
271
100
AcDbEntity
  8
0
100
AcDbLine
 62
7
  6
CONTINUOUS
 10
38.2355867376
 20
55.2775093594
 11
31.7355867376
 21
55.2775093594
  0
LINE
  5
272
100
AcDbEntity
  8
A_RUNDUNGEN
100
AcDbLine
 62
7
  6
CONTINUOUS
 10
69.3419091418
 20
55.2927158506
 11
55.4336083046
 21
55.2927158506
  0
LINE
  5
273
100
AcDbEntity
  8
A_RUNDUNGEN
100
AcDbLine
 62
7
  6
CONTINUOUS
 10
51.4336083046
 20
55.2927158506
 11
50.0488147957
 21
55.2927158506
  0
LINE
  5
274
100
AcDbEntity
  8
0
100
AcDbLine
 62
7
  6
CONTINUOUS
 10
32.2356865699
 20
55.3275093594
 11
38.2356311464
 21
55.3275093594
  0
LINE
  5
275
100
AcDbEntity
  8
0
100
AcDbLine
 62
7
  6
CONTINUOUS
 10
50.9336360163
 20
55.3275093594
 11
56.9335805928
 21
55.3275093594
  0
LINE
  5
276
100
AcDbEntity
  8
0
100
AcDbLine
 62
7
  6
CONTINUOUS
 10
32.2356865699
 20
56.6275093594
 11
32.8136225854
 21
56.6275093594
  0
LINE
  5
277
100
AcDbEntity
  8
A_ACHSEN
100
AcDbLine
 62
7
  6
CONTINUOUS
 10
32.2363646785
 20
56.6275093594
 11
32.7139303019
 21
56.6275093594
  0
LINE
  5
278
100
AcDbEntity
  8
A_RUNDUNGEN
100
AcDbLine
 62
7
  6
CONTINUOUS
 10
32.7139303019
 20
56.6275093594
 11
60.4670719154
 21
56.6275093594
  0
LINE
  5
279
100
AcDbEntity
  8
A_ACHSEN
100
AcDbLine
 62
7
  6
CONTINUOUS
 10
31.7355867376
 20
60.0775093594
 11
32.2356588582
 21
60.0775093594
  0
LINE
  5
27A
100
AcDbEntity
  8
A_ACHSEN
100
AcDbLine
 62
7
  6
CONTINUOUS
 10
27.7689200709
 20
60.1275093594
 11
26.7022534042
 21
60.1275093594
  0
LINE
  5
27B
100
AcDbEntity
  8
A_ACHSEN
100
AcDbLine
 62
7
  6
CENTER
 10
24.5689200709
 20
60.1275093594
 11
21.2355867376
 21
60.1275093594
  0
LINE
  5
27C
100
AcDbEntity
  8
A_ACHSEN
100
AcDbLine
 62
7
  6
CENTER
 10
29.9022534042
 20
60.1275093594
 11
33.2355867376
 21
60.1275093594
  0
LINE
  5
27D
100
AcDbEntity
  8
A_FASEN
100
AcDbLine
 62
8
  6
HIDDEN
 10
62.1612540181
 20
32.4377316115
 11
62.1651997311
 21
32.4337858985
  0
LINE
  5
27E
100
AcDbEntity
  8
A_FASEN
100
AcDbLine
 62
8
  6
HIDDEN
 10
63.3898848437
 20
31.2091007859
 11
63.3938305567
 21
31.2051550729
  0
LINE
  5
27F
100
AcDbEntity
  8
A_FASEN
100
AcDbLine
 62
8
  6
HIDDEN
 10
64.2978218669
 20
30.513295797
 11
63.427951617
 21
31.383166047
  0
LINE
  5
280
100
AcDbEntity
  8
A_FASEN
100
AcDbLine
 62
7
  6
CONTINUOUS
 10
61.4693947422
 20
33.3417229218
 11
61.7858090603
 21
33.0253086036
  0
LINE
  5
281
100
AcDbEntity
  8
A_FASEN
100
AcDbLine
 62
8
  6
HIDDEN
 10
61.7858090603
 20
33.0253086036
 11
62.3392649921
 21
32.4718526719
  0
LINE
  5
282
100
AcDbEntity
  8
A_FASEN
100
AcDbLine
 62
8
  6
HIDDEN
 10
63.605962591
 20
31.4172871073
 11
63.602016878
 21
31.4212328203
  0
LINE
  5
283
100
AcDbEntity
  8
A_FASEN
100
AcDbLine
 62
8
  6
HIDDEN
 10
62.3773317654
 20
32.6459179329
 11
62.3733860525
 21
32.6498636459
  0
LINE
  5
284
100
AcDbEntity
  8
0
100
AcDbLine
 62
7
  6
CONTINUOUS
 10
25.7355867376
 20
131.9935347632
 11
25.7355867376
 21
130.2614839556
  0
LINE
  5
285
100
AcDbEntity
  8
0
100
AcDbLine
 62
7
  6
CONTINUOUS
 10
25.7355867376
 20
96.4935347632
 11
25.7355867376
 21
94.7614839556
  0
LINE
  5
286
100
AcDbEntity
  8
0
100
AcDbLine
 62
7
  6
CONTINUOUS
 10
25.7355867376
 20
60.9935347632
 11
25.7355867376
 21
59.2614839556
  0
LINE
  5
287
100
AcDbEntity
  8
A_ACHSEN
100
AcDbLine
 62
7
  6
CONTINUOUS
 10
27.2355867376
 20
131.6608426927
 11
27.2355867376
 21
130.5941760261
  0
LINE
  5
288
100
AcDbEntity
  8
A_ACHSEN
100
AcDbLine
 62
7
  6
CENTER
 10
27.2355867376
 20
128.4608426927
 11
27.2355867376
 21
125.1275093594
  0
LINE
  5
289
100
AcDbEntity
  8
A_ACHSEN
100
AcDbLine
 62
7
  6
CONTINUOUS
 10
27.2355867376
 20
96.1608426927
 11
27.2355867376
 21
95.0941760261
  0
LINE
  5
28A
100
AcDbEntity
  8
A_ACHSEN
100
AcDbLine
 62
7
  6
CENTER
 10
27.2355867376
 20
92.9608426927
 11
27.2355867376
 21
89.6275093594
  0
LINE
  5
28B
100
AcDbEntity
  8
A_ACHSEN
100
AcDbLine
 62
7
  6
CONTINUOUS
 10
27.2355867376
 20
60.6608426927
 11
27.2355867376
 21
59.5941760261
  0
LINE
  5
28C
100
AcDbEntity
  8
A_ACHSEN
100
AcDbLine
 62
7
  6
CENTER
 10
27.2355867376
 20
57.4608426927
 11
27.2355867376
 21
54.1275093594
  0
LINE
  5
28D
100
AcDbEntity
  8
A_ACHSEN
100
AcDbLine
 62
7
  6
CENTER
 10
27.2355867376
 20
62.7941760261
 11
27.2355867376
 21
66.1275093594
  0
LINE
  5
28E
100
AcDbEntity
  8
A_ACHSEN
100
AcDbLine
 62
7
  6
CENTER
 10
27.2355867376
 20
98.2941760261
 11
27.2355867376
 21
101.6275093594
  0
LINE
  5
28F
100
AcDbEntity
  8
A_ACHSEN
100
AcDbLine
 62
7
  6
CENTER
 10
27.2355867376
 20
133.7941760261
 11
27.2355867376
 21
137.1275093594
  0
LINE
  5
290
100
AcDbEntity
  8
0
100
AcDbLine
 62
7
  6
CONTINUOUS
 10
28.7355867376
 20
59.2614839556
 11
28.7355867376
 21
60.9935347632
  0
LINE
  5
291
100
AcDbEntity
  8
0
100
AcDbLine
 62
7
  6
CONTINUOUS
 10
28.7355867376
 20
94.7614839556
 11
28.7355867376
 21
96.4935347632
  0
LINE
  5
292
100
AcDbEntity
  8
0
100
AcDbLine
 62
7
  6
CONTINUOUS
 10
28.7355867376
 20
130.2614839556
 11
28.7355867376
 21
131.9935347632
  0
LINE
  5
293
100
AcDbEntity
  8
A_RUNDUNGEN
100
AcDbLine
 62
7
  6
CONTINUOUS
 10
44.1279903627
 20
148.9537032912
 11
43.8549720838
 21
148.1005211694
  0
LINE
  5
294
100
AcDbEntity
  8
A_ACHSEN
100
AcDbLine
 62
7
  6
CONTINUOUS
 10
31.7355867376
 20
67.1775093594
 11
32.2356588582
 21
67.1775093594
  0
LINE
  5
295
100
AcDbEntity
  8
A_RUNDUNGEN
100
AcDbLine
 62
7
  6
CONTINUOUS
 10
43.8549720838
 20
43.1544975494
 11
44.1279903627
 21
42.3013154276
  0
LINE
  5
296
100
AcDbEntity
  8
0
100
AcDbLine
 62
7
  6
CONTINUOUS
 10
31.7355867376
 20
55.2775093594
 11
31.7355867376
 21
71.9775093594
  0
LINE
  5
297
100
AcDbEntity
  8
0
100
AcDbLine
 62
7
  6
CONTINUOUS
 10
31.7355867376
 20
76.7775093594
 11
31.7355867376
 21
114.4775093594
  0
LINE
  5
298
100
AcDbEntity
  8
A_ACHSEN
100
AcDbLine
 62
7
  6
CONTINUOUS
 10
31.7355867376
 20
119.2775093594
 11
31.7355867376
 21
135.9775093594
  0
LINE
  5
299
100
AcDbEntity
  8
0
100
AcDbLine
 62
7
  6
CONTINUOUS
 10
32.2356171928
 20
114.4275093594
 11
32.2356171928
 21
113.1275093594
  0
LINE
  5
29A
100
AcDbEntity
  8
0
100
AcDbLine
 62
7
  6
CONTINUOUS
 10
32.2356171928
 20
76.8275093594
 11
32.2356171928
 21
78.1275093594
  0
LINE
  5
29B
100
AcDbEntity
  8
A_ACHSEN
100
AcDbLine
 62
7
  6
CONTINUOUS
 10
32.2356171928
 20
78.1275093594
 11
32.2356171928
 21
113.1275093594
  0
LINE
  5
29C
100
AcDbEntity
  8
0
100
AcDbLine
 62
7
  6
CONTINUOUS
 10
32.2356588582
 20
135.9275093594
 11
32.2356588582
 21
134.6275093594
  0
LINE
  5
29D
100
AcDbEntity
  8
0
100
AcDbLine
 62
7
  6
CONTINUOUS
 10
32.2356588582
 20
71.9275093594
 11
32.2356588582
 21
70.6275093594
  0
LINE
  5
29E
100
AcDbEntity
  8
0
100
AcDbLine
 62
7
  6
CONTINUOUS
 10
32.2356588582
 20
55.3275093594
 11
32.2356588582
 21
56.6275093594
  0
LINE
  5
29F
100
AcDbEntity
  8
A_ACHSEN
100
AcDbLine
 62
7
  6
CONTINUOUS
 10
32.2356588582
 20
56.6275093594
 11
32.2356588582
 21
70.6275093594
  0
LINE
  5
2A0
100
AcDbEntity
  8
0
100
AcDbLine
 62
7
  6
CONTINUOUS
 10
32.2356588582
 20
119.3275093594
 11
32.2356588582
 21
120.6275093594
  0
LINE
  5
2A1
100
AcDbEntity
  8
A_ACHSEN
100
AcDbLine
 62
7
  6
CONTINUOUS
 10
32.2356588582
 20
120.6275093594
 11
32.2356588582
 21
134.6275093594
  0
LINE
  5
2A2
100
AcDbEntity
  8
A_ACHSEN
100
AcDbLine
 62
7
  6
CENTER
 10
35.2356588582
 20
52.8944306016
 11
35.2356588582
 21
138.9275093594
  0
LINE
  5
2A3
100
AcDbEntity
  8
A_RUNDUNGEN
100
AcDbLine
 62
7
  6
CONTINUOUS
 10
50.0488147957
 20
119.2927158506
 11
49.9362126145
 21
119.1801136694
  0
LINE
  5
2A4
100
AcDbEntity
  8
0
100
AcDbLine
 62
7
  6
CONTINUOUS
 10
32.8136225854
 20
70.6275093594
 11
32.2356865699
 21
70.6275093594
  0
LINE
  5
2A5
100
AcDbEntity
  8
A_ACHSEN
100
AcDbLine
 62
7
  6
CONTINUOUS
 10
32.2363646785
 20
70.6275093594
 11
32.7139303019
 21
70.6275093594
  0
LINE
  5
2A6
100
AcDbEntity
  8
A_RUNDUNGEN
100
AcDbLine
 62
7
  6
CONTINUOUS
 10
32.7139303019
 20
70.6275093594
 11
60.4670719154
 21
70.6275093594
  0
LINE
  5
2A7
100
AcDbEntity
  8
0
100
AcDbLine
 62
7
  6
CONTINUOUS
 10
32.2356865699
 20
71.9275093594
 11
38.2356311464
 21
71.9275093594
  0
LINE
  5
2A8
100
AcDbEntity
  8
0
100
AcDbLine
 62
7
  6
CONTINUOUS
 10
50.9336360163
 20
71.9275093594
 11
56.9335805928
 21
71.9275093594
  0
LINE
  5
2A9
100
AcDbEntity
  8
A_RUNDUNGEN
100
AcDbLine
 62
7
  6
CONTINUOUS
 10
50.0488147957
 20
71.9623028682
 11
52.2086083046
 21
71.9623028682
  0
LINE
  5
2AA
100
AcDbEntity
  8
A_RUNDUNGEN
100
AcDbLine
 62
7
  6
CONTINUOUS
 10
53.9336083046
 20
71.9623028682
 11
69.3419091418
 21
71.9623028682
  0
LINE
  5
2AB
100
AcDbEntity
  8
0
100
AcDbLine
 62
7
  6
CONTINUOUS
 10
31.7355867376
 20
71.9775093594
 11
38.2355867376
 21
71.9775093594
  0
LINE
  5
2AC
100
AcDbEntity
  8
A_RUNDUNGEN
100
AcDbLine
 62
7
  6
CONTINUOUS
 10
49.9362126145
 20
72.0749050495
 11
72.7836083046
 21
72.0749050495
  0
LINE
  5
2AD
100
AcDbEntity
  8
A_RUNDUNGEN
100
AcDbLine
 62
7
  6
CONTINUOUS
 10
50.0488147957
 20
71.9623028682
 11
49.9362126145
 21
72.0749050495
  0
LINE
  5
2AE
100
AcDbEntity
  8
A_ACHSEN
100
AcDbLine
 62
7
  6
CONTINUOUS
 10
38.2355867376
 20
76.8275093594
 11
38.2355867376
 21
76.7775093594
  0
LINE
  5
2AF
100
AcDbEntity
  8
A_ACHSEN
100
AcDbLine
 62
7
  6
CONTINUOUS
 10
38.2355867376
 20
55.2775093594
 11
38.2355867376
 21
55.3275093594
  0
LINE
  5
2B0
100
AcDbEntity
  8
A_RUNDUNGEN
100
AcDbLine
 62
7
  6
CONTINUOUS
 10
38.2355867376
 20
50.1275093594
 11
38.2355867376
 21
55.2775093594
  0
LINE
  5
2B1
100
AcDbEntity
  8
A_ACHSEN
100
AcDbLine
 62
7
  6
CONTINUOUS
 10
38.2355867376
 20
71.8957313425
 11
38.2355867376
 21
71.9775093594
  0
LINE
  5
2B2
100
AcDbEntity
  8
0
100
AcDbLine
 62
7
  6
CONTINUOUS
 10
38.2355867376
 20
71.9775093594
 11
38.2355867376
 21
76.7775093594
  0
LINE
  5
2B3
100
AcDbEntity
  8
A_ACHSEN
100
AcDbLine
 62
7
  6
CONTINUOUS
 10
38.2355867376
 20
114.4275093594
 11
38.2355867376
 21
119.3275093594
  0
LINE
  5
2B4
100
AcDbEntity
  8
A_ACHSEN
100
AcDbLine
 62
7
  6
CONTINUOUS
 10
38.2355867376
 20
135.8957313425
 11
38.2355867376
 21
135.9775093594
  0
LINE
  5
2B5
100
AcDbEntity
  8
A_RUNDUNGEN
100
AcDbLine
 62
7
  6
CONTINUOUS
 10
38.2355867376
 20
135.9775093594
 11
38.2355867376
 21
141.1275093594
  0
LINE
  5
2B6
100
AcDbEntity
  8
0
100
AcDbLine
 62
7
  6
CONTINUOUS
 10
38.2356171928
 20
114.4275093594
 11
38.2356171928
 21
113.1275093594
  0
LINE
  5
2B7
100
AcDbEntity
  8
0
100
AcDbLine
 62
7
  6
CONTINUOUS
 10
38.2356171928
 20
76.8275093594
 11
38.2356171928
 21
78.1275093594
  0
LINE
  5
2B8
100
AcDbEntity
  8
0
100
AcDbLine
 62
7
  6
CONTINUOUS
 10
38.2356588582
 20
135.9275093594
 11
38.2356588582
 21
134.6275093594
  0
LINE
  5
2B9
100
AcDbEntity
  8
0
100
AcDbLine
 62
7
  6
CONTINUOUS
 10
38.2356588582
 20
71.9275093594
 11
38.2356588582
 21
70.6275093594
  0
LINE
  5
2BA
100
AcDbEntity
  8
0
100
AcDbLine
 62
7
  6
CONTINUOUS
 10
38.2356588582
 20
55.3275093594
 11
38.2356588582
 21
56.6275093594
  0
LINE
  5
2BB
100
AcDbEntity
  8
0
100
AcDbLine
 62
7
  6
CONTINUOUS
 10
38.2356588582
 20
119.3275093594
 11
38.2356588582
 21
120.6275093594
  0
LINE
  5
2BC
100
AcDbEntity
  8
A_RUNDUNGEN
100
AcDbLine
 62
7
  6
CONTINUOUS
 10
41.2355867376
 20
47.6275093594
 11
41.2355867376
 21
56.6275093594
  0
LINE
  5
2BD
100
AcDbEntity
  8
A_RUNDUNGEN
100
AcDbLine
 62
7
  6
CONTINUOUS
 10
41.2355867376
 20
70.6275093594
 11
41.2355867376
 21
78.1275093594
  0
LINE
  5
2BE
100
AcDbEntity
  8
A_RUNDUNGEN
100
AcDbLine
 62
7
  6
CONTINUOUS
 10
41.2355867376
 20
113.1275093594
 11
41.2355867376
 21
120.6275093594
  0
LINE
  5
2BF
100
AcDbEntity
  8
A_RUNDUNGEN
100
AcDbLine
 62
7
  6
CONTINUOUS
 10
41.2355867376
 20
134.6275093594
 11
41.2355867376
 21
143.6275093594
  0
LINE
  5
2C0
100
AcDbEntity
  8
A_RUNDUNGEN
100
AcDbLine
 62
7
  6
CONTINUOUS
 10
43.7836083046
 20
147.6433575788
 11
43.7836083046
 21
134.6275093594
  0
LINE
  5
2C1
100
AcDbEntity
  8
A_RUNDUNGEN
100
AcDbLine
 62
7
  6
CONTINUOUS
 10
43.7836083046
 20
120.6275093594
 11
43.7836083046
 21
113.1275093594
  0
LINE
  5
2C2
100
AcDbEntity
  8
A_RUNDUNGEN
100
AcDbLine
 62
7
  6
CONTINUOUS
 10
43.7836083046
 20
78.1275093594
 11
43.7836083046
 21
70.6275093594
  0
LINE
  5
2C3
100
AcDbEntity
  8
A_RUNDUNGEN
100
AcDbLine
 62
7
  6
CONTINUOUS
 10
43.7836083046
 20
56.6275093594
 11
43.7836083046
 21
43.6116611401
  0
LINE
  5
2C4
100
AcDbEntity
  8
0
100
AcDbLine
 62
7
  6
CONTINUOUS
 10
72.1236083046
 20
152.6170730539
 11
71.2636083046
 21
151.1275093594
  0
LINE
  5
2C5
100
AcDbEntity
  8
0
100
AcDbLine
 62
7
  6
CONTINUOUS
 10
27.2355867376
 20
97.359560167
 11
25.7355867376
 21
96.4935347632
  0
LINE
  5
2C6
100
AcDbEntity
  8
0
100
AcDbLine
 62
7
  6
CONTINUOUS
 10
27.2355867376
 20
93.8954585518
 11
28.7355867376
 21
94.7614839556
  0
LINE
  5
2C7
100
AcDbEntity
  8
A_RUNDUNGEN
100
AcDbLine
 62
7
  6
CONTINUOUS
 10
72.7836083046
 20
76.6801136694
 11
49.9362126145
 21
76.6801136694
  0
LINE
  5
2C8
100
AcDbEntity
  8
0
100
AcDbLine
 62
7
  6
CONTINUOUS
 10
31.7355867376
 20
76.7775093594
 11
38.2355867376
 21
76.7775093594
  0
LINE
  5
2C9
100
AcDbEntity
  8
A_RUNDUNGEN
100
AcDbLine
 62
7
  6
CONTINUOUS
 10
69.3419091418
 20
76.7927158506
 11
55.1586083046
 21
76.7927158506
  0
LINE
  5
2CA
100
AcDbEntity
  8
A_RUNDUNGEN
100
AcDbLine
 62
7
  6
CONTINUOUS
 10
52.2086083046
 20
76.7927158506
 11
50.0488147957
 21
76.7927158506
  0
LINE
  5
2CB
100
AcDbEntity
  8
0
100
AcDbLine
 62
7
  6
CONTINUOUS
 10
32.2356463689
 20
76.8275093594
 11
38.2355880167
 21
76.8275093594
  0
LINE
  5
2CC
100
AcDbEntity
  8
0
100
AcDbLine
 62
7
  6
CONTINUOUS
 10
50.4336374807
 20
76.8275093594
 11
56.4335791285
 21
76.8275093594
  0
LINE
  5
2CD
100
AcDbEntity
  8
0
100
AcDbLine
 62
7
  6
CONTINUOUS
 10
32.2356463689
 20
78.1275093594
 11
33.9717220077
 21
78.1275093594
  0
LINE
  5
2CE
100
AcDbEntity
  8
A_ACHSEN
100
AcDbLine
 62
7
  6
CONTINUOUS
 10
32.2364154246
 20
78.1275093594
 11
33.9717220077
 21
78.1275093594
  0
LINE
  5
2CF
100
AcDbEntity
  8
A_RUNDUNGEN
100
AcDbLine
 62
7
  6
CONTINUOUS
 10
33.9717220077
 20
78.1275093594
 11
63.392111195
 21
78.1275093594
  0
LINE
  5
2D0
100
AcDbEntity
  8
0
100
AcDbLine
 62
7
  6
CONTINUOUS
 10
25.7355867376
 20
94.7614839556
 11
27.2355867376
 21
93.8954585518
  0
LINE
  5
2D1
100
AcDbEntity
  8
0
100
AcDbLine
 62
7
  6
CONTINUOUS
 10
28.7355867376
 20
96.4935347632
 11
27.2355867376
 21
97.359560167
  0
LINE
  5
2D2
100
AcDbEntity
  8
0
100
AcDbLine
 62
7
  6
CONTINUOUS
 10
71.2636083046
 20
40.1275093594
 11
72.1236083046
 21
38.6379456649
  0
LINE
  5
2D3
100
AcDbEntity
  8
A_RUNDUNGEN
100
AcDbLine
 62
7
  6
CONTINUOUS
 10
44.7836083046
 20
148.8775093594
 11
44.7836083046
 21
148.3731836752
  0
LINE
  5
2D4
100
AcDbEntity
  8
A_RUNDUNGEN
100
AcDbLine
 62
7
  6
CONTINUOUS
 10
44.7836083046
 20
42.8818350436
 11
44.7836083046
 21
42.3775093594
  0
LINE
  5
2D5
100
AcDbEntity
  8
A_RUNDUNGEN
100
AcDbLine
 62
7
  6
CONTINUOUS
 10
46.7836083046
 20
44.3731836752
 11
46.7836083046
 21
56.6275093594
  0
LINE
  5
2D6
100
AcDbEntity
  8
A_RUNDUNGEN
100
AcDbLine
 62
7
  6
CONTINUOUS
 10
46.7836083046
 20
70.6275093594
 11
46.7836083046
 21
78.1275093594
  0
LINE
  5
2D7
100
AcDbEntity
  8
A_RUNDUNGEN
100
AcDbLine
 62
7
  6
CONTINUOUS
 10
46.7836083046
 20
113.1275093594
 11
46.7836083046
 21
120.6275093594
  0
LINE
  5
2D8
100
AcDbEntity
  8
A_RUNDUNGEN
100
AcDbLine
 62
7
  6
CONTINUOUS
 10
46.7836083046
 20
134.6275093594
 11
46.7836083046
 21
146.8818350436
  0
LINE
  5
2D9
100
AcDbEntity
  8
A_RUNDUNGEN
100
AcDbLine
 62
7
  6
CONTINUOUS
 10
48.7836083046
 20
148.0576890997
 11
48.7836083046
 21
134.6275093594
  0
LINE
  5
2DA
100
AcDbEntity
  8
A_RUNDUNGEN
100
AcDbLine
 62
7
  6
CONTINUOUS
 10
48.7836083046
 20
120.6275093594
 11
48.7836083046
 21
113.1275093594
  0
LINE
  5
2DB
100
AcDbEntity
  8
A_RUNDUNGEN
100
AcDbLine
 62
7
  6
CONTINUOUS
 10
48.7836083046
 20
78.1275093594
 11
48.7836083046
 21
70.6275093594
  0
LINE
  5
2DC
100
AcDbEntity
  8
A_RUNDUNGEN
100
AcDbLine
 62
7
  6
CONTINUOUS
 10
48.7836083046
 20
56.6275093594
 11
48.7836083046
 21
43.1973296191
  0
LINE
  5
2DD
100
AcDbEntity
  8
A_RUNDUNGEN
100
AcDbLine
 62
7
  6
CONTINUOUS
 10
48.8836083046
 20
30.6275093594
 11
48.8836083046
 21
46.8541897269
  0
LINE
  5
2DE
100
AcDbEntity
  8
A_RUNDUNGEN
100
AcDbLine
 62
7
  6
CONTINUOUS
 10
48.8836083046
 20
144.4008289919
 11
48.8836083046
 21
160.6275093594
  0
LINE
  5
2DF
100
AcDbEntity
  8
0
100
AcDbLine
 62
7
  6
CONTINUOUS
 10
48.9836083046
 20
47.5275093594
 11
48.9836083046
 21
29.5275093594
  0
LINE
  5
2E0
100
AcDbEntity
  8
0
100
AcDbLine
 62
7
  6
CONTINUOUS
 10
48.9836083046
 20
143.7275093594
 11
48.9836083046
 21
161.7275093594
  0
LINE
  5
2E1
100
AcDbEntity
  8
A_RUNDUNGEN
100
AcDbLine
 62
7
  6
CONTINUOUS
 10
49.0546549133
 20
143.3034250217
 11
49.0546549133
 21
134.6275093594
  0
LINE
  5
2E2
100
AcDbEntity
  8
A_RUNDUNGEN
100
AcDbLine
 62
7
  6
CONTINUOUS
 10
49.0546549133
 20
120.6275093594
 11
49.0546549133
 21
113.1275093594
  0
LINE
  5
2E3
100
AcDbEntity
  8
A_RUNDUNGEN
100
AcDbLine
 62
7
  6
CONTINUOUS
 10
49.0546549133
 20
78.1275093594
 11
49.0546549133
 21
70.6275093594
  0
LINE
  5
2E4
100
AcDbEntity
  8
A_RUNDUNGEN
100
AcDbLine
 62
7
  6
CONTINUOUS
 10
49.0546549133
 20
56.6275093594
 11
49.0546549133
 21
47.9515936971
  0
LINE
  5
2E5
100
AcDbEntity
  8
A_RUNDUNGEN
100
AcDbLine
 62
7
  6
CONTINUOUS
 10
49.9336083046
 20
143.3275162133
 11
49.9336083046
 21
136.5748981956
  0
LINE
  5
2E6
100
AcDbEntity
  8
A_RUNDUNGEN
100
AcDbLine
 62
7
  6
CONTINUOUS
 10
49.9336083046
 20
118.6801205232
 11
49.9336083046
 21
115.0748981956
  0
LINE
  5
2E7
100
AcDbEntity
  8
A_RUNDUNGEN
100
AcDbLine
 62
7
  6
CONTINUOUS
 10
49.9336083046
 20
76.1801205232
 11
49.9336083046
 21
72.5748981956
  0
LINE
  5
2E8
100
AcDbEntity
  8
A_RUNDUNGEN
100
AcDbLine
 62
7
  6
CONTINUOUS
 10
49.9336083046
 20
54.6801205232
 11
49.9336083046
 21
47.9275025055
  0
LINE
  5
2E9
100
AcDbEntity
  8
A_RUNDUNGEN
100
AcDbLine
 62
7
  6
CONTINUOUS
 10
49.9603038061
 20
136.0508138579
 11
49.9603038061
 21
134.6275093594
  0
LINE
  5
2EA
100
AcDbEntity
  8
A_RUNDUNGEN
100
AcDbLine
 62
7
  6
CONTINUOUS
 10
49.9603038061
 20
120.6275093594
 11
49.9603038061
 21
119.2042048609
  0
LINE
  5
2EB
100
AcDbEntity
  8
A_RUNDUNGEN
100
AcDbLine
 62
7
  6
CONTINUOUS
 10
49.9603038061
 20
114.5508138579
 11
49.9603038061
 21
113.1275093594
  0
LINE
  5
2EC
100
AcDbEntity
  8
A_RUNDUNGEN
100
AcDbLine
 62
7
  6
CONTINUOUS
 10
49.9603038061
 20
78.1275093594
 11
49.9603038061
 21
76.7042048609
  0
LINE
  5
2ED
100
AcDbEntity
  8
A_RUNDUNGEN
100
AcDbLine
 62
7
  6
CONTINUOUS
 10
49.9603038061
 20
72.0508138579
 11
49.9603038061
 21
70.6275093594
  0
LINE
  5
2EE
100
AcDbEntity
  8
A_RUNDUNGEN
100
AcDbLine
 62
7
  6
CONTINUOUS
 10
49.9603038061
 20
56.6275093594
 11
49.9603038061
 21
55.2042048609
  0
LINE
  5
2EF
100
AcDbEntity
  8
A_RUNDUNGEN
100
AcDbLine
 62
7
  6
CONTINUOUS
 10
50.0310039946
 20
55.2927158506
 11
50.0310039946
 21
56.6275093594
  0
LINE
  5
2F0
100
AcDbEntity
  8
A_RUNDUNGEN
100
AcDbLine
 62
7
  6
CONTINUOUS
 10
50.0310039946
 20
70.6275093594
 11
50.0310039946
 21
71.9623028682
  0
LINE
  5
2F1
100
AcDbEntity
  8
A_RUNDUNGEN
100
AcDbLine
 62
7
  6
CONTINUOUS
 10
50.0310039946
 20
76.7927158506
 11
50.0310039946
 21
78.1275093594
  0
LINE
  5
2F2
100
AcDbEntity
  8
A_RUNDUNGEN
100
AcDbLine
 62
7
  6
CONTINUOUS
 10
50.0310039946
 20
113.1275093594
 11
50.0310039946
 21
114.4623028682
  0
LINE
  5
2F3
100
AcDbEntity
  8
A_RUNDUNGEN
100
AcDbLine
 62
7
  6
CONTINUOUS
 10
50.0310039946
 20
119.2927158506
 11
50.0310039946
 21
120.6275093594
  0
LINE
  5
2F4
100
AcDbEntity
  8
A_RUNDUNGEN
100
AcDbLine
 62
7
  6
CONTINUOUS
 10
50.0310039946
 20
134.6275093594
 11
50.0310039946
 21
135.9623028682
  0
LINE
  5
2F5
100
AcDbEntity
  8
A_RUNDUNGEN
100
AcDbLine
 62
7
  6
CONTINUOUS
 10
50.0514191057
 20
55.7927089967
 11
50.0514191057
 21
56.6275093594
  0
LINE
  5
2F6
100
AcDbEntity
  8
A_RUNDUNGEN
100
AcDbLine
 62
7
  6
CONTINUOUS
 10
50.0514191057
 20
70.6275093594
 11
50.0514191057
 21
71.4623097221
  0
LINE
  5
2F7
100
AcDbEntity
  8
A_RUNDUNGEN
100
AcDbLine
 62
7
  6
CONTINUOUS
 10
50.0514191057
 20
77.2927089967
 11
50.0514191057
 21
78.1275093594
  0
LINE
  5
2F8
100
AcDbEntity
  8
A_RUNDUNGEN
100
AcDbLine
 62
7
  6
CONTINUOUS
 10
50.0514191057
 20
113.1275093594
 11
50.0514191057
 21
113.9623097221
  0
LINE
  5
2F9
100
AcDbEntity
  8
A_RUNDUNGEN
100
AcDbLine
 62
7
  6
CONTINUOUS
 10
50.0514191057
 20
119.7927089967
 11
50.0514191057
 21
120.6275093594
  0
LINE
  5
2FA
100
AcDbEntity
  8
A_RUNDUNGEN
100
AcDbLine
 62
7
  6
CONTINUOUS
 10
50.0514191057
 20
134.6275093594
 11
50.0514191057
 21
135.4623097221
  0
LINE
  5
2FB
100
AcDbEntity
  8
0
100
AcDbLine
 62
7
  6
CONTINUOUS
 10
50.4336083046
 20
114.4275093594
 11
50.4336083046
 21
113.1275093594
  0
LINE
  5
2FC
100
AcDbEntity
  8
0
100
AcDbLine
 62
7
  6
CONTINUOUS
 10
50.4336083046
 20
76.8275093594
 11
50.4336083046
 21
78.1275093594
  0
LINE
  5
2FD
100
AcDbEntity
  8
DEFAULT_2
100
AcDbLine
 62
8
  6
HIDDEN
 10
50.7336083046
 20
165.7275093594
 11
50.7336083046
 21
163.5275093594
  0
LINE
  5
2FE
100
AcDbEntity
  8
DEFAULT_2
100
AcDbLine
 62
8
  6
HIDDEN
 10
50.7336083046
 20
25.5275093594
 11
50.7336083046
 21
27.7275093594
  0
LINE
  5
2FF
100
AcDbEntity
  8
0
100
AcDbLine
 62
7
  6
CONTINUOUS
 10
50.9336083046
 20
135.9275093594
 11
50.9336083046
 21
134.6275093594
  0
LINE
  5
300
100
AcDbEntity
  8
0
100
AcDbLine
 62
7
  6
CONTINUOUS
 10
50.9336083046
 20
71.9275093594
 11
50.9336083046
 21
70.6275093594
  0
LINE
  5
301
100
AcDbEntity
  8
0
100
AcDbLine
 62
7
  6
CONTINUOUS
 10
50.9336083046
 20
55.3275093594
 11
50.9336083046
 21
56.6275093594
  0
LINE
  5
302
100
AcDbEntity
  8
0
100
AcDbLine
 62
7
  6
CONTINUOUS
 10
50.9336083046
 20
119.3275093594
 11
50.9336083046
 21
120.6275093594
  0
LINE
  5
303
100
AcDbEntity
  8
0
100
AcDbLine
 62
7
  6
CONTINUOUS
 10
73.8436083046
 20
149.6379456649
 11
74.7036083046
 21
151.1275093594
  0
LINE
  5
304
100
AcDbEntity
  8
A_ACHSEN
100
AcDbLine
 62
7
  6
CONTINUOUS
 10
31.7355867376
 20
82.7775093594
 11
32.2356171928
 21
82.7775093594
  0
LINE
  5
305
100
AcDbEntity
  8
0
100
AcDbLine
 62
7
  6
CONTINUOUS
 10
74.7036083046
 20
40.1275093594
 11
73.8436083046
 21
41.6170730539
  0
LINE
  5
306
100
AcDbEntity
  8
A_RUNDUNGEN
100
AcDbLine
 62
8
  6
HIDDEN
 10
52.7247284557
 20
165.7275093594
 11
52.7247284557
 21
163.5275093594
  0
LINE
  5
307
100
AcDbEntity
  8
A_RUNDUNGEN
100
AcDbLine
 62
8
  6
HIDDEN
 10
52.7247284557
 20
27.7275093594
 11
52.7247284557
 21
25.5275093594
  0
LINE
  5
308
100
AcDbEntity
  8
A_ACHSEN
100
AcDbLine
 62
7
  6
CENTER
 10
53.9336083046
 20
53.6483394063
 11
53.9336083046
 21
138.2963638452
  0
LINE
  5
309
100
AcDbEntity
  8
A_ACHSEN
100
AcDbLine
 62
7
  6
CENTER
 10
55.3336083046
 20
20.4097889995
 11
55.3336083046
 21
33.304472021
  0
LINE
  5
30A
100
AcDbEntity
  8
A_ACHSEN
100
AcDbLine
 62
7
  6
CENTER
 10
55.3336083046
 20
158.0995095966
 11
55.3336083046
 21
171.5123423706
  0
LINE
  5
30B
100
AcDbEntity
  8
0
100
AcDbLine
 62
7
  6
CONTINUOUS
 10
56.4336083046
 20
114.4275093594
 11
56.4336083046
 21
113.1275093594
  0
LINE
  5
30C
100
AcDbEntity
  8
0
100
AcDbLine
 62
7
  6
CONTINUOUS
 10
56.4336083046
 20
76.8275093594
 11
56.4336083046
 21
78.1275093594
  0
LINE
  5
30D
100
AcDbEntity
  8
0
100
AcDbLine
 62
7
  6
CONTINUOUS
 10
56.9336083046
 20
135.9275093594
 11
56.9336083046
 21
134.6275093594
  0
LINE
  5
30E
100
AcDbEntity
  8
0
100
AcDbLine
 62
7
  6
CONTINUOUS
 10
56.9336083046
 20
71.9275093594
 11
56.9336083046
 21
70.6275093594
  0
LINE
  5
30F
100
AcDbEntity
  8
0
100
AcDbLine
 62
7
  6
CONTINUOUS
 10
56.9336083046
 20
55.3275093594
 11
56.9336083046
 21
56.6275093594
  0
LINE
  5
310
100
AcDbEntity
  8
0
100
AcDbLine
 62
7
  6
CONTINUOUS
 10
56.9336083046
 20
119.3275093594
 11
56.9336083046
 21
120.6275093594
  0
LINE
  5
311
100
AcDbEntity
  8
A_RUNDUNGEN
100
AcDbLine
 62
8
  6
HIDDEN
 10
57.9424881535
 20
25.5275093594
 11
57.9424881535
 21
27.7275093594
  0
LINE
  5
312
100
AcDbEntity
  8
A_RUNDUNGEN
100
AcDbLine
 62
8
  6
HIDDEN
 10
57.9424881535
 20
163.5275093594
 11
57.9424881535
 21
165.7275093594
  0
LINE
  5
313
100
AcDbEntity
  8
A_ACHSEN
100
AcDbLine
 62
7
  6
CENTER
 10
9.3894971946
 20
95.6275093594
 11
79.7530316742
 21
95.6275093594
  0
LINE
  5
314
100
AcDbEntity
  8
A_FASEN
100
AcDbLine
 62
7
  6
CONTINUOUS
 10
58.8836083046
 20
30.9275093594
 11
58.8836083046
 21
32.9275093594
  0
LINE
  5
315
100
AcDbEntity
  8
A_FASEN
100
AcDbLine
 62
7
  6
CONTINUOUS
 10
58.8836083046
 20
158.3275093594
 11
58.8836083046
 21
160.3275093594
  0
LINE
  5
316
100
AcDbEntity
  8
DEFAULT_2
100
AcDbLine
 62
8
  6
HIDDEN
 10
59.9336083046
 20
27.7275093594
 11
59.9336083046
 21
25.5275093594
  0
LINE
  5
317
100
AcDbEntity
  8
DEFAULT_2
100
AcDbLine
 62
8
  6
HIDDEN
 10
59.9336083046
 20
163.5275093594
 11
59.9336083046
 21
165.7275093594
  0
LINE
  5
318
100
AcDbEntity
  8
A_RUNDUNGEN
100
AcDbLine
 62
7
  6
CONTINUOUS
 10
60.4674594259
 20
134.6275093594
 11
60.4674594259
 21
120.6275093594
  0
LINE
  5
319
100
AcDbEntity
  8
A_RUNDUNGEN
100
AcDbLine
 62
7
  6
CONTINUOUS
 10
60.4674594259
 20
70.6275093594
 11
60.4674594259
 21
56.6275093594
  0
LINE
  5
31A
100
AcDbEntity
  8
0
100
AcDbLine
 62
7
  6
CONTINUOUS
 10
60.9836083046
 20
159.8275093594
 11
60.9836083046
 21
158.8275093594
  0
LINE
  5
31B
100
AcDbEntity
  8
0
100
AcDbLine
 62
7
  6
CONTINUOUS
 10
60.9836083046
 20
32.4275093594
 11
60.9836083046
 21
31.4275093594
  0
LINE
  5
31C
100
AcDbEntity
  8
A_RUNDUNGEN
100
AcDbLine
 62
7
  6
CONTINUOUS
 10
61.7858090603
 20
175.0641648843
 11
61.7858090603
 21
144.183695531
  0
LINE
  5
31D
100
AcDbEntity
  8
A_RUNDUNGEN
100
AcDbLine
 62
7
  6
CONTINUOUS
 10
61.7858090603
 20
47.0713231878
 11
61.7858090603
 21
16.1908538346
  0
LINE
  5
31E
100
AcDbEntity
  8
DEFAULT_2
100
AcDbLine
 62
8
  6
HIDDEN
 10
62.3836083046
 20
161.2275093594
 11
62.3836083046
 21
160.1275093594
  0
LINE
  5
31F
100
AcDbEntity
  8
DEFAULT_2
100
AcDbLine
 62
8
  6
HIDDEN
 10
62.3836083046
 20
158.5275093594
 11
62.3836083046
 21
157.4275093594
  0
LINE
  5
320
100
AcDbEntity
  8
DEFAULT_2
100
AcDbLine
 62
8
  6
HIDDEN
 10
62.3836083046
 20
33.8275093594
 11
62.3836083046
 21
32.7275093594
  0
LINE
  5
321
100
AcDbEntity
  8
DEFAULT_2
100
AcDbLine
 62
8
  6
HIDDEN
 10
62.3836083046
 20
31.1275093594
 11
62.3836083046
 21
30.0275093594
  0
LINE
  5
322
100
AcDbEntity
  8
A_ACHSEN
100
AcDbLine
 62
7
  6
CENTER
 10
62.8336083046
 20
153.4036732773
 11
62.8336083046
 21
165.0807314706
  0
LINE
  5
323
100
AcDbEntity
  8
A_ACHSEN
100
AcDbLine
 62
7
  6
CENTER
 10
62.8836083046
 20
26.3130491976
 11
62.8836083046
 21
37.5419695212
  0
LINE
  5
324
100
AcDbEntity
  8
DEFAULT_2
100
AcDbLine
 62
8
  6
HIDDEN
 10
63.3836083046
 20
30.0275093594
 11
63.3836083046
 21
31.1275093594
  0
LINE
  5
325
100
AcDbEntity
  8
DEFAULT_2
100
AcDbLine
 62
8
  6
HIDDEN
 10
63.3836083046
 20
32.7275093594
 11
63.3836083046
 21
33.8275093594
  0
LINE
  5
326
100
AcDbEntity
  8
DEFAULT_2
100
AcDbLine
 62
8
  6
HIDDEN
 10
63.3836083046
 20
157.4275093594
 11
63.3836083046
 21
158.5275093594
  0
LINE
  5
327
100
AcDbEntity
  8
DEFAULT_2
100
AcDbLine
 62
8
  6
HIDDEN
 10
63.3836083046
 20
160.1275093594
 11
63.3836083046
 21
161.2275093594
  0
LINE
  5
328
100
AcDbEntity
  8
A_RUNDUNGEN
100
AcDbLine
 62
7
  6
CONTINUOUS
 10
63.3923860003
 20
113.1275093594
 11
63.3923860003
 21
78.1275093594
  0
LINE
  5
329
100
AcDbEntity
  8
DEFAULT_2
100
AcDbLine
 62
8
  6
HIDDEN
 10
64.7836083046
 20
31.4275093594
 11
64.7836083046
 21
32.4275093594
  0
LINE
  5
32A
100
AcDbEntity
  8
DEFAULT_2
100
AcDbLine
 62
8
  6
HIDDEN
 10
64.7836083046
 20
158.8275093594
 11
64.7836083046
 21
159.8275093594
  0
LINE
  5
32B
100
AcDbEntity
  8
A_RUNDUNGEN
100
AcDbLine
 62
7
  6
CONTINUOUS
 10
20.2355867376
 20
50.1275093594
 11
24.2355867376
 21
54.1275093594
  0
LINE
  5
32C
100
AcDbEntity
  8
A_RUNDUNGEN
100
AcDbLine
 62
7
  6
CONTINUOUS
 10
50.0488147957
 20
76.7927158506
 11
49.9362126145
 21
76.6801136694
  0
LINE
  5
32D
100
AcDbEntity
  8
A_RUNDUNGEN
100
AcDbLine
 62
7
  6
CONTINUOUS
 10
24.2355867376
 20
137.1275093594
 11
20.2355867376
 21
141.1275093594
  0
LINE
  5
32E
100
AcDbEntity
  8
A_RUNDUNGEN
100
AcDbLine
 62
7
  6
CONTINUOUS
 10
50.0488147957
 20
114.4623028682
 11
49.9362126145
 21
114.5749050495
  0
LINE
  5
32F
100
AcDbEntity
  8
DEFAULT_2
100
AcDbLine
 62
8
  6
HIDDEN
 10
65.7336083046
 20
27.7275093594
 11
65.7336083046
 21
25.5275093594
  0
LINE
  5
330
100
AcDbEntity
  8
DEFAULT_2
100
AcDbLine
 62
8
  6
HIDDEN
 10
65.7336083046
 20
163.5275093594
 11
65.7336083046
 21
165.7275093594
  0
LINE
  5
331
100
AcDbEntity
  8
A_FASEN
100
AcDbLine
 62
8
  6
HIDDEN
 10
66.8836083046
 20
160.3275093594
 11
66.8836083046
 21
158.3275093594
  0
LINE
  5
332
100
AcDbEntity
  8
A_FASEN
100
AcDbLine
 62
8
  6
HIDDEN
 10
66.8836083046
 20
32.9275093594
 11
66.8836083046
 21
30.9275093594
  0
LINE
  5
333
100
AcDbEntity
  8
A_RUNDUNGEN
100
AcDbLine
 62
8
  6
HIDDEN
 10
67.7247284557
 20
165.7275093594
 11
67.7247284557
 21
163.5275093594
  0
LINE
  5
334
100
AcDbEntity
  8
A_RUNDUNGEN
100
AcDbLine
 62
8
  6
HIDDEN
 10
67.7247284557
 20
27.7275093594
 11
67.7247284557
 21
25.5275093594
  0
LINE
  5
335
100
AcDbEntity
  8
A_ACHSEN
100
AcDbLine
 62
7
  6
CENTER
 10
70.3336083046
 20
19.9126519223
 11
70.3336083046
 21
33.0454815338
  0
LINE
  5
336
100
AcDbEntity
  8
A_ACHSEN
100
AcDbLine
 62
7
  6
CENTER
 10
70.3336083046
 20
158.1864193388
 11
70.3336083046
 21
170.7978521528
  0
LINE
  5
337
100
AcDbEntity
  8
0
100
AcDbLine
 62
7
  6
CONTINUOUS
 10
27.2355867376
 20
61.859560167
 11
25.7355867376
 21
60.9935347632
  0
LINE
  5
338
100
AcDbEntity
  8
A_ACHSEN
100
AcDbLine
 62
7
  6
CONTINUOUS
 10
31.7355867376
 20
108.4775093594
 11
32.2356171928
 21
108.4775093594
  0
LINE
  5
339
100
AcDbEntity
  8
0
100
AcDbLine
 62
7
  6
CONTINUOUS
 10
25.7355867376
 20
130.2614839556
 11
27.2355867376
 21
129.3954585518
  0
LINE
  5
33A
100
AcDbEntity
  8
A_RUNDUNGEN
100
AcDbLine
 62
7
  6
CONTINUOUS
 10
72.7836083046
 20
143.1836764915
 11
72.7836083046
 21
48.0713422274
  0
LINE
  5
33B
100
AcDbEntity
  8
A_RUNDUNGEN
100
AcDbLine
 62
8
  6
HIDDEN
 10
72.9424881535
 20
25.5275093594
 11
72.9424881535
 21
27.7275093594
  0
LINE
  5
33C
100
AcDbEntity
  8
A_RUNDUNGEN
100
AcDbLine
 62
8
  6
HIDDEN
 10
72.9424881535
 20
163.5275093594
 11
72.9424881535
 21
165.7275093594
  0
LINE
  5
33D
100
AcDbEntity
  8
A_ACHSEN
100
AcDbLine
 62
7
  6
CONTINUOUS
 10
72.9836083046
 20
151.6608426927
 11
72.9836083046
 21
150.5941760261
  0
LINE
  5
33E
100
AcDbEntity
  8
A_ACHSEN
100
AcDbLine
 62
7
  6
CENTER
 10
72.9836083046
 20
148.4608426927
 11
72.9836083046
 21
146.2275093594
  0
LINE
  5
33F
100
AcDbEntity
  8
A_ACHSEN
100
AcDbLine
 62
7
  6
CENTER
 10
72.9836083046
 20
35.8033963658
 11
72.9836083046
 21
44.451622353
  0
LINE
  5
340
100
AcDbEntity
  8
A_ACHSEN
100
AcDbLine
 62
7
  6
CENTER
 10
72.9836083046
 20
153.7941760261
 11
72.9836083046
 21
156.0275093594
  0
LINE
  5
341
100
AcDbEntity
  8
DEFAULT_2
100
AcDbLine
 62
8
  6
HIDDEN
 10
74.9336083046
 20
165.7275093594
 11
74.9336083046
 21
163.5275093594
  0
LINE
  5
342
100
AcDbEntity
  8
DEFAULT_2
100
AcDbLine
 62
8
  6
HIDDEN
 10
74.9336083046
 20
25.5275093594
 11
74.9336083046
 21
27.7275093594
  0
LINE
  5
343
100
AcDbEntity
  8
A_RUNDUNGEN
100
AcDbLine
 62
7
  6
CONTINUOUS
 10
76.7814075488
 20
29.6275093594
 11
76.7814075488
 21
161.6275093594
  0
LINE
  5
344
100
AcDbEntity
  8
0
100
AcDbLine
 62
7
  6
CONTINUOUS
 10
76.7836083046
 20
161.7275093594
 11
76.7836083046
 21
161.6275093594
  0
LINE
  5
345
100
AcDbEntity
  8
0
100
AcDbLine
 62
7
  6
CONTINUOUS
 10
76.7836083046
 20
29.5275093594
 11
76.7836083046
 21
29.6275093594
  0
LINE
  5
346
100
AcDbEntity
  8
0
100
AcDbLine
 62
7
  6
CONTINUOUS
 10
27.2355867376
 20
58.3954585518
 11
28.7355867376
 21
59.2614839556
  0
LINE
  5
347
100
AcDbEntity
  8
0
100
AcDbLine
 62
7
  6
CONTINUOUS
 10
32.2356463689
 20
113.1275093594
 11
33.9717220077
 21
113.1275093594
  0
LINE
  5
348
100
AcDbEntity
  8
A_ACHSEN
100
AcDbLine
 62
7
  6
CONTINUOUS
 10
32.2364154246
 20
113.1275093594
 11
33.9717220077
 21
113.1275093594
  0
LINE
  5
349
100
AcDbEntity
  8
A_RUNDUNGEN
100
AcDbLine
 62
7
  6
CONTINUOUS
 10
33.9717220077
 20
113.1275093594
 11
63.392111195
 21
113.1275093594
  0
LINE
  5
34A
100
AcDbEntity
  8
0
100
AcDbLine
 62
7
  6
CONTINUOUS
 10
32.2356463689
 20
114.4275093594
 11
38.2355880167
 21
114.4275093594
  0
LINE
  5
34B
100
AcDbEntity
  8
0
100
AcDbLine
 62
7
  6
CONTINUOUS
 10
50.4336374807
 20
114.4275093594
 11
56.4335791285
 21
114.4275093594
  0
LINE
  5
34C
100
AcDbEntity
  8
A_RUNDUNGEN
100
AcDbLine
 62
7
  6
CONTINUOUS
 10
50.0488147957
 20
114.4623028682
 11
52.2086083046
 21
114.4623028682
  0
LINE
  5
34D
100
AcDbEntity
  8
A_RUNDUNGEN
100
AcDbLine
 62
7
  6
CONTINUOUS
 10
55.1586083046
 20
114.4623028682
 11
69.3419091418
 21
114.4623028682
  0
LINE
  5
34E
100
AcDbEntity
  8
A_ACHSEN
100
AcDbLine
 62
7
  6
CONTINUOUS
 10
31.7355867376
 20
114.4775093594
 11
38.2355867376
 21
114.4775093594
  0
LINE
  5
34F
100
AcDbEntity
  8
A_RUNDUNGEN
100
AcDbLine
 62
7
  6
CONTINUOUS
 10
49.9362126145
 20
114.5749050495
 11
72.7836083046
 21
114.5749050495
  0
LINE
  5
350
100
AcDbEntity
  8
0
100
AcDbLine
 62
7
  6
CONTINUOUS
 10
28.7355867376
 20
131.9935347632
 11
27.2355867376
 21
132.859560167
  0
LINE
  5
351
100
AcDbEntity
  8
A_RUNDUNGEN
100
AcDbLine
 62
7
  6
CONTINUOUS
 10
49.9362126145
 20
55.1801136694
 11
50.0488147957
 21
55.2927158506
  0
LINE
  5
352
100
AcDbEntity
  8
A_RUNDUNGEN
100
AcDbLine
 62
7
  6
CONTINUOUS
 10
72.7836083046
 20
119.1801136694
 11
49.9362126145
 21
119.1801136694
  0
LINE
  5
353
100
AcDbEntity
  8
A_ACHSEN
100
AcDbLine
 62
7
  6
CONTINUOUS
 10
31.7355867376
 20
119.2775093594
 11
38.2355867376
 21
119.2775093594
  0
LINE
  5
354
100
AcDbEntity
  8
A_RUNDUNGEN
100
AcDbLine
 62
7
  6
CONTINUOUS
 10
69.3419091418
 20
119.2927158506
 11
53.9336083046
 21
119.2927158506
  0
LINE
  5
355
100
AcDbEntity
  8
A_RUNDUNGEN
100
AcDbLine
 62
7
  6
CONTINUOUS
 10
52.2086083046
 20
119.2927158506
 11
50.0488147957
 21
119.2927158506
  0
LINE
  5
356
100
AcDbEntity
  8
0
100
AcDbLine
 62
7
  6
CONTINUOUS
 10
32.2356865699
 20
119.3275093594
 11
38.2356311464
 21
119.3275093594
  0
LINE
  5
357
100
AcDbEntity
  8
0
100
AcDbLine
 62
7
  6
CONTINUOUS
 10
50.9336360163
 20
119.3275093594
 11
56.9335805928
 21
119.3275093594
  0
LINE
  5
358
100
AcDbEntity
  8
0
100
AcDbLine
 62
7
  6
CONTINUOUS
 10
32.2356865699
 20
120.6275093594
 11
32.8136225854
 21
120.6275093594
  0
LINE
  5
359
100
AcDbEntity
  8
A_ACHSEN
100
AcDbLine
 62
7
  6
CONTINUOUS
 10
32.2363646785
 20
120.6275093594
 11
32.7139303019
 21
120.6275093594
  0
LINE
  5
35A
100
AcDbEntity
  8
A_RUNDUNGEN
100
AcDbLine
 62
7
  6
CONTINUOUS
 10
32.7139303019
 20
120.6275093594
 11
60.4670719154
 21
120.6275093594
  0
LINE
  5
35B
100
AcDbEntity
  8
A_ACHSEN
100
AcDbLine
 62
7
  6
CONTINUOUS
 10
31.7355867376
 20
124.0775093594
 11
32.2356588582
 21
124.0775093594
  0
LINE
  5
35C
100
AcDbEntity
  8
A_RUNDUNGEN
100
AcDbLine
 62
7
  6
CONTINUOUS
 10
49.9362126145
 20
136.0749050495
 11
50.0488147957
 21
135.9623028682
  0
LINE
  5
35D
100
AcDbEntity
  8
A_ACHSEN
100
AcDbLine
 62
7
  6
CONTINUOUS
 10
27.7689200709
 20
131.1275093594
 11
26.7022534042
 21
131.1275093594
  0
LINE
  5
35E
100
AcDbEntity
  8
A_ACHSEN
100
AcDbLine
 62
7
  6
CENTER
 10
24.5689200709
 20
131.1275093594
 11
21.2355867376
 21
131.1275093594
  0
LINE
  5
35F
100
AcDbEntity
  8
A_ACHSEN
100
AcDbLine
 62
7
  6
CENTER
 10
29.9022534042
 20
131.1275093594
 11
33.2355867376
 21
131.1275093594
  0
LINE
  5
360
100
AcDbEntity
  8
A_ACHSEN
100
AcDbLine
 62
7
  6
CONTINUOUS
 10
31.7355867376
 20
131.1775093594
 11
32.2356588582
 21
131.1775093594
  0
LINE
  5
361
100
AcDbEntity
  8
0
100
AcDbLine
 62
7
  6
CONTINUOUS
 10
72.1236083046
 20
41.6170730539
 11
71.2636083046
 21
40.1275093594
  0
LINE
  5
362
100
AcDbEntity
  8
0
100
AcDbLine
 62
7
  6
CONTINUOUS
 10
73.8436083046
 20
38.6379456649
 11
74.7036083046
 21
40.1275093594
  0
LINE
  5
363
100
AcDbEntity
  8
0
100
AcDbLine
 62
7
  6
CONTINUOUS
 10
32.8136225854
 20
134.6275093594
 11
32.2356865699
 21
134.6275093594
  0
LINE
  5
364
100
AcDbEntity
  8
A_ACHSEN
100
AcDbLine
 62
7
  6
CONTINUOUS
 10
32.2363646785
 20
134.6275093594
 11
32.7139303019
 21
134.6275093594
  0
LINE
  5
365
100
AcDbEntity
  8
A_RUNDUNGEN
100
AcDbLine
 62
7
  6
CONTINUOUS
 10
32.7139303019
 20
134.6275093594
 11
60.4670719154
 21
134.6275093594
  0
LINE
  5
366
100
AcDbEntity
  8
0
100
AcDbLine
 62
7
  6
CONTINUOUS
 10
32.2356865699
 20
135.9275093594
 11
38.2356311464
 21
135.9275093594
  0
LINE
  5
367
100
AcDbEntity
  8
0
100
AcDbLine
 62
7
  6
CONTINUOUS
 10
50.9336360163
 20
135.9275093594
 11
56.9335805928
 21
135.9275093594
  0
LINE
  5
368
100
AcDbEntity
  8
A_RUNDUNGEN
100
AcDbLine
 62
7
  6
CONTINUOUS
 10
69.3419091418
 20
135.9623028682
 11
55.4336083046
 21
135.9623028682
  0
LINE
  5
369
100
AcDbEntity
  8
A_RUNDUNGEN
100
AcDbLine
 62
7
  6
CONTINUOUS
 10
51.4336083046
 20
135.9623028682
 11
50.0488147957
 21
135.9623028682
  0
LINE
  5
36A
100
AcDbEntity
  8
0
100
AcDbLine
 62
7
  6
CONTINUOUS
 10
38.2355867376
 20
135.9775093594
 11
31.7355867376
 21
135.9775093594
  0
LINE
  5
36B
100
AcDbEntity
  8
A_RUNDUNGEN
100
AcDbLine
 62
7
  6
CONTINUOUS
 10
49.9362126145
 20
136.0749050495
 11
72.7836083046
 21
136.0749050495
  0
LINE
  5
36C
100
AcDbEntity
  8
0
100
AcDbLine
 62
7
  6
CONTINUOUS
 10
71.2636083046
 20
151.1275093594
 11
72.1236083046
 21
149.6379456649
  0
LINE
  5
36D
100
AcDbEntity
  8
0
100
AcDbLine
 62
7
  6
CONTINUOUS
 10
74.7036083046
 20
151.1275093594
 11
73.8436083046
 21
152.6170730539
  0
LINE
  5
36E
100
AcDbEntity
  8
A_FASEN
100
AcDbLine
 62
8
  6
HIDDEN
 10
63.3938305567
 20
32.6498636459
 11
63.3898848437
 21
32.6459179329
  0
LINE
  5
36F
100
AcDbEntity
  8
A_FASEN
100
AcDbLine
 62
8
  6
HIDDEN
 10
62.1651997311
 20
31.4212328203
 11
62.1612540181
 21
31.4172871073
  0
LINE
  5
370
100
AcDbEntity
  8
A_FASEN
100
AcDbLine
 62
8
  6
HIDDEN
 10
62.3392649921
 20
31.383166047
 11
61.7858090603
 21
30.8297101152
  0
LINE
  5
371
100
AcDbEntity
  8
A_FASEN
100
AcDbLine
 62
7
  6
CONTINUOUS
 10
61.7858090603
 20
30.8297101152
 11
61.4693947422
 21
30.513295797
  0
LINE
  5
372
100
AcDbEntity
  8
A_FASEN
100
AcDbLine
 62
8
  6
HIDDEN
 10
63.427951617
 20
32.4718526719
 11
64.2978218669
 21
33.3417229218
  0
LINE
  5
373
100
AcDbEntity
  8
A_FASEN
100
AcDbLine
 62
8
  6
HIDDEN
 10
62.3733860525
 20
31.2051550729
 11
62.3773317654
 21
31.2091007859
  0
LINE
  5
374
100
AcDbEntity
  8
A_FASEN
100
AcDbLine
 62
8
  6
HIDDEN
 10
63.602016878
 20
32.4337858985
 11
63.605962591
 21
32.4377316115
  0
LINE
  5
375
100
AcDbEntity
  8
0
100
AcDbLine
 62
7
  6
CONTINUOUS
 10
48.9829382143
 20
143.7658988058
 11
48.7836083046
 21
143.7624194893
  0
LINE
  5
376
100
AcDbEntity
  8
A_RUNDUNGEN
100
AcDbLine
 62
7
  6
CONTINUOUS
 10
47.0379714062
 20
143.7319492839
 11
48.7836083046
 21
143.7624194893
  0
LINE
  5
377
100
AcDbEntity
  8
A_RUNDUNGEN
100
AcDbLine
 62
7
  6
CONTINUOUS
 10
20.2355867376
 20
141.1275093594
 11
38.2355867376
 21
141.1275093594
  0
LINE
  5
378
100
AcDbEntity
  8
A_RUNDUNGEN
100
AcDbLine
 62
7
  6
CONTINUOUS
 10
62.2857900219
 20
143.6837145695
 11
72.2836083046
 21
143.6837145695
  0
LINE
  5
379
100
AcDbEntity
  8
0
100
AcDbLine
 62
7
  6
CONTINUOUS
 10
62.0923168111
 20
143.7275093594
 11
48.9836083046
 21
143.7275093594
  0
LINE
  5
37A
100
AcDbEntity
  8
A_RUNDUNGEN
100
AcDbLine
 62
7
  6
CONTINUOUS
 10
48.8879488917
 20
143.9008358458
 11
48.9836083046
 21
143.9008358458
  0
LINE
  5
37B
100
AcDbEntity
  8
A_RUNDUNGEN
100
AcDbLine
 62
7
  6
CONTINUOUS
 10
22.2355867376
 20
145.6275093594
 11
39.2355867376
 21
145.6275093594
  0
LINE
  5
37C
100
AcDbEntity
  8
A_FASEN
100
AcDbLine
 62
8
  6
HIDDEN
 10
62.1612540181
 20
159.8377316115
 11
62.1651997311
 21
159.8337858985
  0
LINE
  5
37D
100
AcDbEntity
  8
A_FASEN
100
AcDbLine
 62
8
  6
HIDDEN
 10
63.3898848437
 20
158.6091007859
 11
63.3938305567
 21
158.6051550729
  0
LINE
  5
37E
100
AcDbEntity
  8
A_FASEN
100
AcDbLine
 62
7
  6
CONTINUOUS
 10
61.4693947422
 20
160.7417229218
 11
61.7858090603
 21
160.4253086036
  0
LINE
  5
37F
100
AcDbEntity
  8
A_FASEN
100
AcDbLine
 62
8
  6
HIDDEN
 10
61.7858090603
 20
160.4253086036
 11
62.3392649921
 21
159.8718526719
  0
LINE
  5
380
100
AcDbEntity
  8
A_FASEN
100
AcDbLine
 62
8
  6
HIDDEN
 10
64.2978218669
 20
157.913295797
 11
63.427951617
 21
158.783166047
  0
LINE
  5
381
100
AcDbEntity
  8
A_FASEN
100
AcDbLine
 62
8
  6
HIDDEN
 10
63.605962591
 20
158.8172871073
 11
63.602016878
 21
158.8212328203
  0
LINE
  5
382
100
AcDbEntity
  8
A_FASEN
100
AcDbLine
 62
8
  6
HIDDEN
 10
62.3773317654
 20
160.0459179329
 11
62.3733860525
 21
160.0498636459
  0
LINE
  5
383
100
AcDbEntity
  8
A_RUNDUNGEN
100
AcDbLine
 62
7
  6
CONTINUOUS
 10
44.3660963995
 20
149.1275093594
 11
44.5336083046
 21
149.1275093594
  0
LINE
  5
384
100
AcDbEntity
  8
0
100
AcDbLine
 62
7
  6
CONTINUOUS
 10
72.1236083046
 20
149.6379456649
 11
73.8436083046
 21
149.6379456649
  0
LINE
  5
385
100
AcDbEntity
  8
A_ACHSEN
100
AcDbLine
 62
7
  6
CONTINUOUS
 10
73.5169416379
 20
151.1275093594
 11
72.4502749712
 21
151.1275093594
  0
LINE
  5
386
100
AcDbEntity
  8
A_ACHSEN
100
AcDbLine
 62
7
  6
CENTER
 10
70.3169416379
 20
151.1275093594
 11
68.0836083046
 21
151.1275093594
  0
LINE
  5
387
100
AcDbEntity
  8
A_ACHSEN
100
AcDbLine
 62
7
  6
CENTER
 10
75.6502749712
 20
151.1275093594
 11
77.8836083046
 21
151.1275093594
  0
LINE
  5
388
100
AcDbEntity
  8
0
100
AcDbLine
 62
7
  6
CONTINUOUS
 10
73.8436083046
 20
152.6170730539
 11
72.1236083046
 21
152.6170730539
  0
LINE
  5
389
100
AcDbEntity
  8
A_RUNDUNGEN
100
AcDbLine
 62
7
  6
CONTINUOUS
 10
46.5379714062
 20
147.1317969674
 11
44.029245203
 21
147.1755869462
  0
LINE
  5
38A
100
AcDbEntity
  8
0
100
AcDbLine
 62
7
  6
CONTINUOUS
 10
48.8836083046
 20
148.0559435932
 11
48.7836083046
 21
148.0576890997
  0
LINE
  5
38B
100
AcDbEntity
  8
A_RUNDUNGEN
100
AcDbLine
 62
7
  6
CONTINUOUS
 10
45.029245203
 20
148.1232217514
 11
48.7836083046
 21
148.0576890997
  0
LINE
  5
38C
100
AcDbEntity
  8
DEFAULT_2
100
AcDbLine
 62
8
  6
HIDDEN
 10
62.3836083046
 20
157.4275093594
 11
63.3836083046
 21
157.4275093594
  0
LINE
  5
38D
100
AcDbEntity
  8
0
100
AcDbLine
 62
7
  6
CONTINUOUS
 10
60.9836083046
 20
158.8275093594
 11
61.7858090603
 21
158.8275093594
  0
LINE
  5
38E
100
AcDbEntity
  8
DEFAULT_2
100
AcDbLine
 62
8
  6
HIDDEN
 10
61.7858090603
 20
158.8275093594
 11
62.0836083046
 21
158.8275093594
  0
LINE
  5
38F
100
AcDbEntity
  8
DEFAULT_2
100
AcDbLine
 62
8
  6
HIDDEN
 10
63.6836083046
 20
158.8275093594
 11
64.7836083046
 21
158.8275093594
  0
LINE
  5
390
100
AcDbEntity
  8
A_ACHSEN
100
AcDbLine
 62
7
  6
CENTER
 10
57.8602510316
 20
159.2275093594
 11
67.8069655775
 21
159.2275093594
  0
LINE
  5
391
100
AcDbEntity
  8
DEFAULT_2
100
AcDbLine
 62
8
  6
HIDDEN
 10
64.7836083046
 20
159.8275093594
 11
63.6836083046
 21
159.8275093594
  0
LINE
  5
392
100
AcDbEntity
  8
DEFAULT_2
100
AcDbLine
 62
8
  6
HIDDEN
 10
62.0836083046
 20
159.8275093594
 11
61.7858090603
 21
159.8275093594
  0
LINE
  5
393
100
AcDbEntity
  8
0
100
AcDbLine
 62
7
  6
CONTINUOUS
 10
61.7858090603
 20
159.8275093594
 11
60.9836083046
 21
159.8275093594
  0
LINE
  5
394
100
AcDbEntity
  8
DEFAULT_2
100
AcDbLine
 62
8
  6
HIDDEN
 10
63.3836083046
 20
161.2275093594
 11
62.3836083046
 21
161.2275093594
  0
LINE
  5
395
100
AcDbEntity
  8
A_ACHSEN
100
AcDbLine
 62
7
  6
CENTER
 10
49.9056085418
 20
163.5275093594
 11
60.7616080674
 21
163.5275093594
  0
LINE
  5
396
100
AcDbEntity
  8
A_ACHSEN
100
AcDbLine
 62
7
  6
CENTER
 10
64.9925182839
 20
163.5275093594
 11
75.6746983252
 21
163.5275093594
  0
LINE
  5
397
100
AcDbEntity
  8
A_ACHSEN
100
AcDbLine
 62
7
  6
CENTER
 10
49.5487752934
 20
165.7275093594
 11
61.1184413158
 21
165.7275093594
  0
LINE
  5
398
100
AcDbEntity
  8
A_ACHSEN
100
AcDbLine
 62
7
  6
CENTER
 10
65.2632655112
 20
165.7275093594
 11
75.403951098
 21
165.7275093594
  0
ARC
  5
399
100
AcDbEntity
  8
A_RUNDUNGEN
100
AcDbCircle
 62
7
  6
CONTINUOUS
 10
22.2355867376
 20
47.6275093594
 40
2.0
100
AcDbArc
 50
180.0
 51
270.0
  0
ARC
  5
39A
100
AcDbEntity
  8
0
100
AcDbCircle
 62
2
  6
CONTINUOUS
 10
27.2355867376
 20
60.1275093594
 40
3.0
100
AcDbArc
 50
255.0
 51
195.0
  0
CIRCLE
  5
39B
100
AcDbEntity
  8
A_ACHSEN
100
AcDbCircle
 62
7
  6
CONTINUOUS
 10
27.2355867376
 20
60.1275093594
 40
2.75
  0
CIRCLE
  5
39C
100
AcDbEntity
  8
A_ACHSEN
100
AcDbCircle
 62
7
  6
CONTINUOUS
 10
27.2355867376
 20
60.1275093594
 40
2.5
  0
ARC
  5
39D
100
AcDbEntity
  8
0
100
AcDbCircle
 62
2
  6
CONTINUOUS
 10
27.2355867376
 20
60.1275093594
 40
2.3
100
AcDbArc
 50
255.0
 51
195.0
  0
CIRCLE
  5
39E
100
AcDbEntity
  8
0
100
AcDbCircle
 62
7
  6
CONTINUOUS
 10
27.2355867376
 20
60.1275093594
 40
1.7320508076
  0
ARC
  5
39F
100
AcDbEntity
  8
A_RUNDUNGEN
100
AcDbCircle
 62
7
  6
CONTINUOUS
 10
39.2355867376
 20
47.6275093594
 40
2.0
100
AcDbArc
 50
270.0
 51
360.0
  0
ARC
  5
3A0
100
AcDbEntity
  8
A_RUNDUNGEN
100
AcDbCircle
 62
7
  6
CONTINUOUS
 10
45.2836083046
 20
43.6116611401
 40
1.5
100
AcDbArc
 50
180.0
 51
197.7446716251
  0
ARC
  5
3A1
100
AcDbEntity
  8
A_RUNDUNGEN
100
AcDbCircle
 62
7
  6
CONTINUOUS
 10
45.0336083046
 20
42.8818350436
 40
0.25
100
AcDbArc
 50
91.0
 51
180.0
  0
ARC
  5
3A2
100
AcDbEntity
  8
A_RUNDUNGEN
100
AcDbCircle
 62
7
  6
CONTINUOUS
 10
44.5336083046
 20
42.3775093594
 40
0.25
100
AcDbArc
 50
270.0
 51
360.0
  0
ARC
  5
3A3
100
AcDbEntity
  8
A_RUNDUNGEN
100
AcDbCircle
 62
7
  6
CONTINUOUS
 10
46.5336083046
 20
44.3731836752
 40
0.25
100
AcDbArc
 50
271.0
 51
360.0
  0
ARC
  5
3A4
100
AcDbEntity
  8
A_RUNDUNGEN
100
AcDbCircle
 62
7
  6
CONTINUOUS
 10
47.0336083046
 20
47.2731075112
 40
0.25
100
AcDbArc
 50
89.0
 51
179.9999999999
  0
ARC
  5
3A5
100
AcDbEntity
  8
A_RUNDUNGEN
100
AcDbCircle
 62
7
  6
CONTINUOUS
 10
44.0336083046
 20
43.8294698488
 40
0.25
100
AcDbArc
 50
91.0
 51
180.0
  0
ARC
  5
3A6
100
AcDbEntity
  8
A_RUNDUNGEN
100
AcDbCircle
 62
7
  6
CONTINUOUS
 10
44.3660963995
 20
42.3775093594
 40
0.25
100
AcDbArc
 50
197.7446716251
 51
270.0
  0
ARC
  5
3A7
100
AcDbEntity
  8
A_ACHSEN
100
AcDbCircle
 62
7
  6
CONTINUOUS
 10
36.9402166618
 20
76.8243887842
 40
0.04537008
100
AcDbArc
 50
0.0246641595
 51
3.029918578
  0
ARC
  5
3A8
100
AcDbEntity
  8
0
100
AcDbCircle
 62
2
  6
CONTINUOUS
 10
27.2355867376
 20
95.6275093594
 40
3.0
100
AcDbArc
 50
255.0
 51
195.0
  0
CIRCLE
  5
3A9
100
AcDbEntity
  8
A_ACHSEN
100
AcDbCircle
 62
7
  6
CONTINUOUS
 10
27.2355867376
 20
95.6275093594
 40
2.75
  0
CIRCLE
  5
3AA
100
AcDbEntity
  8
A_ACHSEN
100
AcDbCircle
 62
7
  6
CONTINUOUS
 10
27.2355867376
 20
95.6275093594
 40
2.5
  0
ARC
  5
3AB
100
AcDbEntity
  8
0
100
AcDbCircle
 62
2
  6
CONTINUOUS
 10
27.2355867376
 20
95.6275093594
 40
2.3
100
AcDbArc
 50
255.0
 51
195.0
  0
CIRCLE
  5
3AC
100
AcDbEntity
  8
0
100
AcDbCircle
 62
7
  6
CONTINUOUS
 10
27.2355867376
 20
95.6275093594
 40
1.7320508076
  0
ARC
  5
3AD
100
AcDbEntity
  8
0
100
AcDbCircle
 62
2
  6
CONTINUOUS
 10
27.2355867376
 20
131.1275093594
 40
3.0
100
AcDbArc
 50
255.0
 51
195.0
  0
CIRCLE
  5
3AE
100
AcDbEntity
  8
A_ACHSEN
100
AcDbCircle
 62
7
  6
CONTINUOUS
 10
27.2355867376
 20
131.1275093594
 40
2.75
  0
CIRCLE
  5
3AF
100
AcDbEntity
  8
A_ACHSEN
100
AcDbCircle
 62
7
  6
CONTINUOUS
 10
27.2355867376
 20
131.1275093594
 40
2.5
  0
ARC
  5
3B0
100
AcDbEntity
  8
0
100
AcDbCircle
 62
2
  6
CONTINUOUS
 10
27.2355867376
 20
131.1275093594
 40
2.3
100
AcDbArc
 50
255.0
 51
195.0
  0
ARC
  5
3B1
100
AcDbEntity
  8
A_RUNDUNGEN
100
AcDbCircle
 62
7
  6
CONTINUOUS
 10
22.2355867376
 20
143.6275093594
 40
2.0
100
AcDbArc
 50
90.0
 51
180.0
  0
CIRCLE
  5
3B2
100
AcDbEntity
  8
0
100
AcDbCircle
 62
7
  6
CONTINUOUS
 10
27.2355867376
 20
131.1275093594
 40
1.7320508076
  0
ARC
  5
3B3
100
AcDbEntity
  8
A_ACHSEN
100
AcDbCircle
 62
7
  6
CONTINUOUS
 10
36.9402179678
 20
114.4306299294
 40
0.0453687739
100
AcDbArc
 50
356.9705011635
 51
359.975341676
  0
ARC
  5
3B4
100
AcDbEntity
  8
A_RUNDUNGEN
100
AcDbCircle
 62
7
  6
CONTINUOUS
 10
39.2355867376
 20
143.6275093594
 40
2.0
100
AcDbArc
 50
0.0
 51
90.0
  0
ARC
  5
3B5
100
AcDbEntity
  8
A_RUNDUNGEN
100
AcDbCircle
 62
7
  6
CONTINUOUS
 10
45.2836083046
 20
147.6433575788
 40
1.5
100
AcDbArc
 50
162.2553283749
 51
180.0
  0
ARC
  5
3B6
100
AcDbEntity
  8
A_RUNDUNGEN
100
AcDbCircle
 62
7
  6
CONTINUOUS
 10
45.0336083046
 20
148.3731836752
 40
0.25
100
AcDbArc
 50
180.0
 51
269.0
  0
ARC
  5
3B7
100
AcDbEntity
  8
A_RUNDUNGEN
100
AcDbCircle
 62
7
  6
CONTINUOUS
 10
44.5336083046
 20
148.8775093594
 40
0.25
100
AcDbArc
 50
0.0
 51
90.0
  0
ARC
  5
3B8
100
AcDbEntity
  8
A_RUNDUNGEN
100
AcDbCircle
 62
7
  6
CONTINUOUS
 10
46.5336083046
 20
146.8818350436
 40
0.25
100
AcDbArc
 50
0.0
 51
89.0
  0
ARC
  5
3B9
100
AcDbEntity
  8
A_RUNDUNGEN
100
AcDbCircle
 62
7
  6
CONTINUOUS
 10
47.0336083046
 20
143.9819112077
 40
0.25
100
AcDbArc
 50
180.0000000007
 51
271.0
  0
ARC
  5
3BA
100
AcDbEntity
  8
A_RUNDUNGEN
100
AcDbCircle
 62
7
  6
CONTINUOUS
 10
44.0336083046
 20
147.42554887
 40
0.25
100
AcDbArc
 50
180.0
 51
269.0
  0
ARC
  5
3BB
100
AcDbEntity
  8
A_RUNDUNGEN
100
AcDbCircle
 62
7
  6
CONTINUOUS
 10
44.3660963995
 20
148.8775093594
 40
0.25
100
AcDbArc
 50
90.0
 51
162.2553283749
  0
ARC
  5
3BC
100
AcDbEntity
  8
0
100
AcDbCircle
 62
7
  6
CONTINUOUS
 10
62.8336083046
 20
30.6275093594
 40
13.95
100
AcDbArc
 50
180.0
 51
184.5713581469
  0
ARC
  5
3BD
100
AcDbEntity
  8
A_RUNDUNGEN
100
AcDbCircle
 62
7
  6
CONTINUOUS
 10
62.8336083046
 20
29.6275093594
 40
13.9477992442
100
AcDbArc
 50
267.6653191977
 51
360.0
  0
ARC
  5
3BE
100
AcDbEntity
  8
0
100
AcDbCircle
 62
7
  6
CONTINUOUS
 10
62.8836083046
 20
29.5275093594
 40
13.9
100
AcDbArc
 50
180.0
 51
360.0
  0
ARC
  5
3BF
100
AcDbEntity
  8
DEFAULT_2
100
AcDbCircle
 62
8
  6
HIDDEN
 10
55.3336083046
 20
27.7275093594
 40
4.6
100
AcDbArc
 50
0.0
 51
180.0
  0
ARC
  5
3C0
100
AcDbEntity
  8
DEFAULT_2
100
AcDbCircle
 62
8
  6
HIDDEN
 10
55.3336083046
 20
25.5275093594
 40
4.6
100
AcDbArc
 50
180.0
 51
360.0
  0
ARC
  5
3C1
100
AcDbEntity
  8
A_FASEN
100
AcDbCircle
 62
8
  6
HIDDEN
 10
62.8836083046
 20
30.9275093594
 40
4.0
100
AcDbArc
 50
254.0695125528
 51
360.0
  0
ARC
  5
3C2
100
AcDbEntity
  8
A_FASEN
100
AcDbCircle
 62
7
  6
CONTINUOUS
 10
62.8836083046
 20
30.9275093594
 40
4.0
100
AcDbArc
 50
180.0
 51
254.0695125528
  0
ARC
  5
3C3
100
AcDbEntity
  8
DEFAULT_2
100
AcDbCircle
 62
8
  6
HIDDEN
 10
62.8836083046
 20
31.9275093594
 40
3.75
100
AcDbArc
 50
252.8754845528
 51
107.1245154472
  0
ARC
  5
3C4
100
AcDbEntity
  8
0
100
AcDbCircle
 62
7
  6
CONTINUOUS
 10
62.8836083046
 20
31.9275093594
 40
3.75
100
AcDbArc
 50
107.1245154472
 51
252.8754845528
  0
ARC
  5
3C5
100
AcDbEntity
  8
A_RUNDUNGEN
100
AcDbCircle
 62
8
  6
HIDDEN
 10
55.3336083046
 20
27.7275093594
 40
2.6088798489
100
AcDbArc
 50
0.0
 51
180.0
  0
ARC
  5
3C6
100
AcDbEntity
  8
A_RUNDUNGEN
100
AcDbCircle
 62
8
  6
HIDDEN
 10
55.3336083046
 20
25.5275093594
 40
2.6088798489
100
AcDbArc
 50
180.0
 51
360.0
  0
ARC
  5
3C7
100
AcDbEntity
  8
A_RUNDUNGEN
100
AcDbCircle
 62
7
  6
CONTINUOUS
 10
62.2858271954
 20
16.1908877513
 40
0.5000194957
100
AcDbArc
 50
180.0038863629
 51
267.6612214178
  0
ARC
  5
3C8
100
AcDbEntity
  8
DEFAULT_2
100
AcDbCircle
 62
8
  6
HIDDEN
 10
62.0836083046
 20
31.1275093594
 40
0.3
100
AcDbArc
 50
75.0
 51
90.0
  0
ARC
  5
3C9
100
AcDbEntity
  8
DEFAULT_2
100
AcDbCircle
 62
8
  6
HIDDEN
 10
63.6836083046
 20
31.1275093594
 40
0.3
100
AcDbArc
 50
90.0
 51
105.0
  0
ARC
  5
3CA
100
AcDbEntity
  8
DEFAULT_2
100
AcDbCircle
 62
8
  6
HIDDEN
 10
63.6836083046
 20
31.1275093594
 40
0.3
100
AcDbArc
 50
165.0
 51
180.0
  0
ARC
  5
3CB
100
AcDbEntity
  8
DEFAULT_2
100
AcDbCircle
 62
8
  6
HIDDEN
 10
62.0836083046
 20
31.1275093594
 40
0.3
100
AcDbArc
 50
0.0
 51
15.0
  0
ARC
  5
3CC
100
AcDbEntity
  8
A_FASEN
100
AcDbCircle
 62
8
  6
HIDDEN
 10
62.8836083046
 20
32.9275093594
 40
4.0
100
AcDbArc
 50
0.0
 51
105.9304906345
  0
ARC
  5
3CD
100
AcDbEntity
  8
A_FASEN
100
AcDbCircle
 62
7
  6
CONTINUOUS
 10
62.8836083046
 20
32.9275093594
 40
4.0
100
AcDbArc
 50
105.9304906345
 51
180.0
  0
ARC
  5
3CE
100
AcDbEntity
  8
A_RUNDUNGEN
100
AcDbCircle
 62
7
  6
CONTINUOUS
 10
62.285827105
 20
47.0712838507
 40
0.5000217153
100
AcDbArc
 50
90.0042491617
 51
179.9954924632
  0
ARC
  5
3CF
100
AcDbEntity
  8
DEFAULT_2
100
AcDbCircle
 62
8
  6
HIDDEN
 10
63.6836083046
 20
32.7275093594
 40
0.3
100
AcDbArc
 50
255.0
 51
270.0
  0
ARC
  5
3D0
100
AcDbEntity
  8
DEFAULT_2
100
AcDbCircle
 62
8
  6
HIDDEN
 10
63.6836083046
 20
32.7275093594
 40
0.3
100
AcDbArc
 50
180.0
 51
195.0
  0
ARC
  5
3D1
100
AcDbEntity
  8
DEFAULT_2
100
AcDbCircle
 62
8
  6
HIDDEN
 10
62.0836083046
 20
32.7275093594
 40
0.3
100
AcDbArc
 50
345.0
 51
360.0
  0
ARC
  5
3D2
100
AcDbEntity
  8
DEFAULT_2
100
AcDbCircle
 62
8
  6
HIDDEN
 10
62.0836083046
 20
32.7275093594
 40
0.3
100
AcDbArc
 50
270.0
 51
285.0
  0
ARC
  5
3D3
100
AcDbEntity
  8
DEFAULT_2
100
AcDbCircle
 62
8
  6
HIDDEN
 10
70.3336083046
 20
27.7275093594
 40
4.6
100
AcDbArc
 50
0.0
 51
180.0
  0
ARC
  5
3D4
100
AcDbEntity
  8
DEFAULT_2
100
AcDbCircle
 62
8
  6
HIDDEN
 10
70.3336083046
 20
25.5275093594
 40
4.6
100
AcDbArc
 50
180.0
 51
360.0
  0
ARC
  5
3D5
100
AcDbEntity
  8
A_RUNDUNGEN
100
AcDbCircle
 62
8
  6
HIDDEN
 10
70.3336083046
 20
27.7275093594
 40
2.6088798489
100
AcDbArc
 50
0.0
 51
180.0
  0
ARC
  5
3D6
100
AcDbEntity
  8
A_RUNDUNGEN
100
AcDbCircle
 62
8
  6
HIDDEN
 10
70.3336083046
 20
25.5275093594
 40
2.6088798489
100
AcDbArc
 50
180.0
 51
360.0
  0
CIRCLE
  5
3D7
100
AcDbEntity
  8
A_RUNDUNGEN
100
AcDbCircle
 62
7
  6
CONTINUOUS
 10
72.9836083046
 20
40.1275093594
 40
1.7693517937
  0
CIRCLE
  5
3D8
100
AcDbEntity
  8
0
100
AcDbCircle
 62
7
  6
CONTINUOUS
 10
72.9836083046
 20
40.1275093594
 40
1.72
  0
ARC
  5
3D9
100
AcDbEntity
  8
A_RUNDUNGEN
100
AcDbCircle
 62
7
  6
CONTINUOUS
 10
72.2808398629
 20
48.0717495839
 40
0.5027756416
100
AcDbArc
 50
343.6130360886
 51
358.5923787155
  0
ARC
  5
3DA
100
AcDbEntity
  8
A_RUNDUNGEN
100
AcDbCircle
 62
7
  6
CONTINUOUS
 10
72.2835896203
 20
48.0713136798
 40
0.500011075
100
AcDbArc
 50
270.0021410184
 51
343.5720623915
  0
ARC
  5
3DB
100
AcDbEntity
  8
A_RUNDUNGEN
100
AcDbCircle
 62
7
  6
CONTINUOUS
 10
72.2874086394
 20
48.0713739561
 40
0.4961996662
100
AcDbArc
 50
358.6171066095
 51
359.9963364231
  0
ARC
  5
3DC
100
AcDbEntity
  8
A_FASEN
100
AcDbCircle
 62
8
  6
HIDDEN
 10
62.8836083046
 20
158.3275093594
 40
4.0
100
AcDbArc
 50
254.0695125528
 51
360.0
  0
ARC
  5
3DD
100
AcDbEntity
  8
A_FASEN
100
AcDbCircle
 62
7
  6
CONTINUOUS
 10
62.8836083046
 20
158.3275093594
 40
4.0
100
AcDbArc
 50
180.0
 51
254.0695125528
  0
ARC
  5
3DE
100
AcDbEntity
  8
A_RUNDUNGEN
100
AcDbCircle
 62
7
  6
CONTINUOUS
 10
62.2858322678
 20
144.1837377772
 40
0.500025799
100
AcDbArc
 50
180.0048408313
 51
269.9951592651
  0
ARC
  5
3DF
100
AcDbEntity
  8
DEFAULT_2
100
AcDbCircle
 62
8
  6
HIDDEN
 10
62.0836083046
 20
158.5275093594
 40
0.3
100
AcDbArc
 50
75.0
 51
90.0
  0
ARC
  5
3E0
100
AcDbEntity
  8
DEFAULT_2
100
AcDbCircle
 62
8
  6
HIDDEN
 10
63.6836083046
 20
158.5275093594
 40
0.3
100
AcDbArc
 50
90.0
 51
105.0
  0
ARC
  5
3E1
100
AcDbEntity
  8
DEFAULT_2
100
AcDbCircle
 62
8
  6
HIDDEN
 10
63.6836083046
 20
158.5275093594
 40
0.3
100
AcDbArc
 50
165.0
 51
180.0
  0
ARC
  5
3E2
100
AcDbEntity
  8
DEFAULT_2
100
AcDbCircle
 62
8
  6
HIDDEN
 10
62.0836083046
 20
158.5275093594
 40
0.3
100
AcDbArc
 50
0.0
 51
15.0
  0
ARC
  5
3E3
100
AcDbEntity
  8
0
100
AcDbCircle
 62
7
  6
CONTINUOUS
 10
62.8336083046
 20
160.6275093594
 40
13.95
100
AcDbArc
 50
175.4286418531
 51
180.0
  0
ARC
  5
3E4
100
AcDbEntity
  8
A_RUNDUNGEN
100
AcDbCircle
 62
7
  6
CONTINUOUS
 10
62.8336083046
 20
161.6275093594
 40
13.9477992442
100
AcDbArc
 50
0.0
 51
92.3346808023
  0
ARC
  5
3E5
100
AcDbEntity
  8
0
100
AcDbCircle
 62
7
  6
CONTINUOUS
 10
62.8836083046
 20
161.7275093594
 40
13.9
100
AcDbArc
 50
0.0
 51
180.0
  0
ARC
  5
3E6
100
AcDbEntity
  8
DEFAULT_2
100
AcDbCircle
 62
8
  6
HIDDEN
 10
55.3336083046
 20
163.5275093594
 40
4.6
100
AcDbArc
 50
180.0
 51
360.0
  0
ARC
  5
3E7
100
AcDbEntity
  8
DEFAULT_2
100
AcDbCircle
 62
8
  6
HIDDEN
 10
55.3336083046
 20
165.7275093594
 40
4.6
100
AcDbArc
 50
0.0
 51
180.0
  0
ARC
  5
3E8
100
AcDbEntity
  8
A_FASEN
100
AcDbCircle
 62
8
  6
HIDDEN
 10
62.8836083046
 20
160.3275093594
 40
4.0
100
AcDbArc
 50
0.0
 51
105.9304906345
  0
ARC
  5
3E9
100
AcDbEntity
  8
A_FASEN
100
AcDbCircle
 62
7
  6
CONTINUOUS
 10
62.8836083046
 20
160.3275093594
 40
4.0
100
AcDbArc
 50
105.9304906345
 51
180.0
  0
ARC
  5
3EA
100
AcDbEntity
  8
DEFAULT_2
100
AcDbCircle
 62
8
  6
HIDDEN
 10
62.8836083046
 20
159.3275093594
 40
3.75
100
AcDbArc
 50
252.8754845528
 51
107.1245154472
  0
ARC
  5
3EB
100
AcDbEntity
  8
0
100
AcDbCircle
 62
7
  6
CONTINUOUS
 10
62.8836083046
 20
159.3275093594
 40
3.75
100
AcDbArc
 50
107.1245154472
 51
252.8754845528
  0
ARC
  5
3EC
100
AcDbEntity
  8
A_RUNDUNGEN
100
AcDbCircle
 62
8
  6
HIDDEN
 10
55.3336083046
 20
163.5275093594
 40
2.6088798489
100
AcDbArc
 50
180.0
 51
360.0
  0
ARC
  5
3ED
100
AcDbEntity
  8
A_RUNDUNGEN
100
AcDbCircle
 62
8
  6
HIDDEN
 10
55.3336083046
 20
165.7275093594
 40
2.6088798489
100
AcDbArc
 50
0.0
 51
180.0
  0
ARC
  5
3EE
100
AcDbEntity
  8
A_RUNDUNGEN
100
AcDbCircle
 62
7
  6
CONTINUOUS
 10
62.2858304759
 20
175.0641260462
 40
0.5000237566
100
AcDbArc
 50
92.3391311542
 51
179.9955497278
  0
ARC
  5
3EF
100
AcDbEntity
  8
DEFAULT_2
100
AcDbCircle
 62
8
  6
HIDDEN
 10
63.6836083046
 20
160.1275093594
 40
0.3
100
AcDbArc
 50
255.0
 51
270.0
  0
ARC
  5
3F0
100
AcDbEntity
  8
DEFAULT_2
100
AcDbCircle
 62
8
  6
HIDDEN
 10
63.6836083046
 20
160.1275093594
 40
0.3
100
AcDbArc
 50
180.0
 51
195.0
  0
ARC
  5
3F1
100
AcDbEntity
  8
DEFAULT_2
100
AcDbCircle
 62
8
  6
HIDDEN
 10
62.0836083046
 20
160.1275093594
 40
0.3
100
AcDbArc
 50
345.0
 51
360.0
  0
ARC
  5
3F2
100
AcDbEntity
  8
DEFAULT_2
100
AcDbCircle
 62
8
  6
HIDDEN
 10
62.0836083046
 20
160.1275093594
 40
0.3
100
AcDbArc
 50
270.0
 51
285.0
  0
CIRCLE
  5
3F3
100
AcDbEntity
  8
A_RUNDUNGEN
100
AcDbCircle
 62
7
  6
CONTINUOUS
 10
72.9836083046
 20
151.1275093594
 40
1.7693517937
  0
CIRCLE
  5
3F4
100
AcDbEntity
  8
0
100
AcDbCircle
 62
7
  6
CONTINUOUS
 10
72.9836083046
 20
151.1275093594
 40
1.72
  0
ARC
  5
3F5
100
AcDbEntity
  8
A_RUNDUNGEN
100
AcDbCircle
 62
7
  6
CONTINUOUS
 10
72.2810665719
 20
143.1833349413
 40
0.5025418487
100
AcDbArc
 50
0.0389407519
 51
16.0053490353
  0
ARC
  5
3F6
100
AcDbEntity
  8
A_RUNDUNGEN
100
AcDbCircle
 62
7
  6
CONTINUOUS
 10
72.2835820935
 20
143.1836915432
 40
0.5000251231
100
AcDbArc
 50
16.0455478562
 51
89.996996567
  0
ARC
  5
3F7
100
AcDbEntity
  8
DEFAULT_2
100
AcDbCircle
 62
8
  6
HIDDEN
 10
70.3336083046
 20
163.5275093594
 40
4.6
100
AcDbArc
 50
180.0
 51
360.0
  0
ARC
  5
3F8
100
AcDbEntity
  8
DEFAULT_2
100
AcDbCircle
 62
8
  6
HIDDEN
 10
70.3336083046
 20
165.7275093594
 40
4.6
100
AcDbArc
 50
0.0
 51
180.0
  0
ARC
  5
3F9
100
AcDbEntity
  8
A_RUNDUNGEN
100
AcDbCircle
 62
8
  6
HIDDEN
 10
70.3336083046
 20
163.5275093594
 40
2.6088798489
100
AcDbArc
 50
180.0
 51
360.0
  0
ARC
  5
3FA
100
AcDbEntity
  8
A_RUNDUNGEN
100
AcDbCircle
 62
8
  6
HIDDEN
 10
70.3336083046
 20
165.7275093594
 40
2.6088798489
100
AcDbArc
 50
0.0
 51
180.0
  0
SPLINE
  5
3FB
100
AcDbEntity
  8
A_FASEN
100
AcDbSpline
 62
8
  6
HIDDEN
 70
0
 71
3
 72
9
 73
5
 74
0
 42
0.0000001
 43
0.0000001
 44
0.0000000001
 40
0.0
 40
0.0
 40
0.0
 40
0.0
 40
0.2340993006
 40
1.0
 40
1.0
 40
1.0
 40
1.0
 10
62.3484607803
 20
31.3923618352
 30
0.0
 10
62.3536459614
 20
31.3787854524
 30
0.0
 10
62.3728539891
 20
31.3197397416
 30
0.0
 10
62.3801362814
 20
31.2565650664
 30
0.0
 10
62.3773317654
 20
31.2091007859
 30
0.0
  0
SPLINE
  5
3FC
100
AcDbEntity
  8
A_FASEN
100
AcDbSpline
 62
8
  6
HIDDEN
 70
0
 71
3
 72
9
 73
5
 74
0
 42
0.0000001
 43
0.0000001
 44
0.0000000001
 40
0.0
 40
0.0
 40
0.0
 40
0.0
 40
0.2340993006
 40
1.0
 40
1.0
 40
1.0
 40
1.0
 10
63.4187558288
 20
32.4626568837
 30
0.0
 10
63.4135706477
 20
32.4762332664
 30
0.0
 10
63.39436262
 20
32.5352789772
 30
0.0
 10
63.3870803277
 20
32.5984536524
 30
0.0
 10
63.3898848437
 20
32.6459179329
 30
0.0
  0
SPLINE
  5
3FD
100
AcDbEntity
  8
A_FASEN
100
AcDbSpline
 62
8
  6
HIDDEN
 70
0
 71
3
 72
9
 73
5
 74
0
 42
0.0000001
 43
0.0000001
 44
0.0000000001
 40
0.0
 40
0.0
 40
0.0
 40
0.0
 40
0.2720496667
 40
1.0
 40
1.0
 40
1.0
 40
1.0
 10
63.602016878
 20
32.4337858985
 30
0.0
 10
63.5851455708
 20
32.4327890257
 30
0.0
 10
63.5229319032
 20
32.4328889579
 30
0.0
 10
63.4609824798
 20
32.4465005714
 30
0.0
 10
63.4187366535
 20
32.4626377083
 30
0.0
  0
SPLINE
  5
3FE
100
AcDbEntity
  8
A_FASEN
100
AcDbSpline
 62
8
  6
HIDDEN
 70
0
 71
3
 72
9
 73
5
 74
0
 42
0.0000001
 43
0.0000001
 44
0.0000000001
 40
0.0
 40
0.0
 40
0.0
 40
0.0
 40
0.2720496667
 40
1.0
 40
1.0
 40
1.0
 40
1.0
 10
62.1651997311
 20
31.4212328203
 30
0.0
 10
62.1820710383
 20
31.4222296931
 30
0.0
 10
62.2442847059
 20
31.4221297609
 30
0.0
 10
62.3062341293
 20
31.4085181474
 30
0.0
 10
62.3484799556
 20
31.3923810105
 30
0.0
  0
SPLINE
  5
3FF
100
AcDbEntity
  8
A_FASEN
100
AcDbSpline
 62
8
  6
HIDDEN
 70
0
 71
3
 72
9
 73
5
 74
0
 42
0.0000001
 43
0.0000001
 44
0.0000000001
 40
0.0
 40
0.0
 40
0.0
 40
0.0
 40
0.2340689775
 40
1.0
 40
1.0
 40
1.0
 40
1.0
 10
63.4187366535
 20
31.3923810105
 30
0.0
 10
63.4323123492
 20
31.3975666268
 30
0.0
 10
63.4913603494
 20
31.4167897072
 30
0.0
 10
63.5545461586
 20
31.4240377167
 30
0.0
 10
63.602016878
 20
31.4212328203
 30
0.0
  0
SPLINE
  5
400
100
AcDbEntity
  8
A_FASEN
100
AcDbSpline
 62
8
  6
HIDDEN
 70
0
 71
3
 72
9
 73
5
 74
0
 42
0.0000001
 43
0.0000001
 44
0.0000000001
 40
0.0
 40
0.0
 40
0.0
 40
0.0
 40
0.2720387916
 40
1.0
 40
1.0
 40
1.0
 40
1.0
 10
62.3773317654
 20
32.6459179329
 30
0.0
 10
62.3783285235
 20
32.6290485682
 30
0.0
 10
62.378217172
 20
32.5668389632
 30
0.0
 10
62.3645977348
 20
32.5048982048
 30
0.0
 10
62.3484634646
 20
32.4626541993
 30
0.0
  0
SPLINE
  5
401
100
AcDbEntity
  8
A_FASEN
100
AcDbSpline
 62
8
  6
HIDDEN
 70
0
 71
3
 72
9
 73
5
 74
0
 42
0.0000001
 43
0.0000001
 44
0.0000000001
 40
0.0
 40
0.0
 40
0.0
 40
0.0
 40
0.2340689774
 40
1.0
 40
1.0
 40
1.0
 40
1.0
 10
62.3484799556
 20
32.4626377083
 30
0.0
 10
62.33490426
 20
32.4574520919
 30
0.0
 10
62.2758562597
 20
32.4382290116
 30
0.0
 10
62.2126704505
 20
32.4309810021
 30
0.0
 10
62.1651997311
 20
32.4337858985
 30
0.0
  0
SPLINE
  5
402
100
AcDbEntity
  8
A_FASEN
100
AcDbSpline
 62
8
  6
HIDDEN
 70
0
 71
3
 72
9
 73
5
 74
0
 42
0.0000001
 43
0.0000001
 44
0.0000000001
 40
0.0
 40
0.0
 40
0.0
 40
0.0
 40
0.2720387836
 40
1.0
 40
1.0
 40
1.0
 40
1.0
 10
63.3898848437
 20
31.2091007859
 30
0.0
 10
63.3888880857
 20
31.2259701506
 30
0.0
 10
63.3889994325
 20
31.2881797574
 30
0.0
 10
63.402618866
 20
31.3501205195
 30
0.0
 10
63.4187531373
 20
31.3923645267
 30
0.0
  0
SPLINE
  5
403
100
AcDbEntity
  8
A_FASEN
100
AcDbSpline
 62
8
  6
HIDDEN
 70
0
 71
3
 72
9
 73
5
 74
0
 42
0.0000001
 43
0.0000001
 44
0.0000000001
 40
0.0
 40
0.0
 40
0.0
 40
0.0
 40
0.2340993006
 40
1.0
 40
1.0
 40
1.0
 40
1.0
 10
62.3484607803
 20
158.7923618352
 30
0.0
 10
62.3536459614
 20
158.7787854524
 30
0.0
 10
62.3728539891
 20
158.7197397416
 30
0.0
 10
62.3801362814
 20
158.6565650664
 30
0.0
 10
62.3773317654
 20
158.6091007859
 30
0.0
  0
SPLINE
  5
404
100
AcDbEntity
  8
A_FASEN
100
AcDbSpline
 62
8
  6
HIDDEN
 70
0
 71
3
 72
9
 73
5
 74
0
 42
0.0000001
 43
0.0000001
 44
0.0000000001
 40
0.0
 40
0.0
 40
0.0
 40
0.0
 40
0.2340993006
 40
1.0
 40
1.0
 40
1.0
 40
1.0
 10
63.4187558288
 20
159.8626568837
 30
0.0
 10
63.4135706477
 20
159.8762332664
 30
0.0
 10
63.39436262
 20
159.9352789772
 30
0.0
 10
63.3870803277
 20
159.9984536524
 30
0.0
 10
63.3898848437
 20
160.0459179329
 30
0.0
  0
SPLINE
  5
405
100
AcDbEntity
  8
A_FASEN
100
AcDbSpline
 62
8
  6
HIDDEN
 70
0
 71
3
 72
9
 73
5
 74
0
 42
0.0000001
 43
0.0000001
 44
0.0000000001
 40
0.0
 40
0.0
 40
0.0
 40
0.0
 40
0.2720496667
 40
1.0
 40
1.0
 40
1.0
 40
1.0
 10
63.602016878
 20
159.8337858985
 30
0.0
 10
63.5851455708
 20
159.8327890257
 30
0.0
 10
63.5229319032
 20
159.8328889579
 30
0.0
 10
63.4609824798
 20
159.8465005714
 30
0.0
 10
63.4187366535
 20
159.8626377083
 30
0.0
  0
SPLINE
  5
406
100
AcDbEntity
  8
A_FASEN
100
AcDbSpline
 62
8
  6
HIDDEN
 70
0
 71
3
 72
9
 73
5
 74
0
 42
0.0000001
 43
0.0000001
 44
0.0000000001
 40
0.0
 40
0.0
 40
0.0
 40
0.0
 40
0.2720496667
 40
1.0
 40
1.0
 40
1.0
 40
1.0
 10
62.1651997311
 20
158.8212328203
 30
0.0
 10
62.1820710383
 20
158.8222296931
 30
0.0
 10
62.2442847059
 20
158.8221297609
 30
0.0
 10
62.3062341293
 20
158.8085181474
 30
0.0
 10
62.3484799556
 20
158.7923810105
 30
0.0
  0
SPLINE
  5
407
100
AcDbEntity
  8
A_FASEN
100
AcDbSpline
 62
8
  6
HIDDEN
 70
0
 71
3
 72
9
 73
5
 74
0
 42
0.0000001
 43
0.0000001
 44
0.0000000001
 40
0.0
 40
0.0
 40
0.0
 40
0.0
 40
0.2340689775
 40
1.0
 40
1.0
 40
1.0
 40
1.0
 10
63.4187366535
 20
158.7923810105
 30
0.0
 10
63.4323123492
 20
158.7975666268
 30
0.0
 10
63.4913603494
 20
158.8167897072
 30
0.0
 10
63.5545461586
 20
158.8240377167
 30
0.0
 10
63.602016878
 20
158.8212328203
 30
0.0
  0
SPLINE
  5
408
100
AcDbEntity
  8
A_FASEN
100
AcDbSpline
 62
8
  6
HIDDEN
 70
0
 71
3
 72
9
 73
5
 74
0
 42
0.0000001
 43
0.0000001
 44
0.0000000001
 40
0.0
 40
0.0
 40
0.0
 40
0.0
 40
0.2720387916
 40
1.0
 40
1.0
 40
1.0
 40
1.0
 10
62.3773317654
 20
160.0459179329
 30
0.0
 10
62.3783285235
 20
160.0290485682
 30
0.0
 10
62.378217172
 20
159.9668389632
 30
0.0
 10
62.3645977348
 20
159.9048982048
 30
0.0
 10
62.3484634646
 20
159.8626541993
 30
0.0
  0
SPLINE
  5
409
100
AcDbEntity
  8
A_FASEN
100
AcDbSpline
 62
8
  6
HIDDEN
 70
0
 71
3
 72
9
 73
5
 74
0
 42
0.0000001
 43
0.0000001
 44
0.0000000001
 40
0.0
 40
0.0
 40
0.0
 40
0.0
 40
0.2340689774
 40
1.0
 40
1.0
 40
1.0
 40
1.0
 10
62.3484799556
 20
159.8626377083
 30
0.0
 10
62.33490426
 20
159.8574520919
 30
0.0
 10
62.2758562597
 20
159.8382290116
 30
0.0
 10
62.2126704505
 20
159.8309810021
 30
0.0
 10
62.1651997311
 20
159.8337858985
 30
0.0
  0
SPLINE
  5
40A
100
AcDbEntity
  8
A_FASEN
100
AcDbSpline
 62
8
  6
HIDDEN
 70
0
 71
3
 72
9
 73
5
 74
0
 42
0.0000001
 43
0.0000001
 44
0.0000000001
 40
0.0
 40
0.0
 40
0.0
 40
0.0
 40
0.2720387836
 40
1.0
 40
1.0
 40
1.0
 40
1.0
 10
63.3898848437
 20
158.6091007859
 30
0.0
 10
63.3888880857
 20
158.6259701506
 30
0.0
 10
63.3889994325
 20
158.6881797574
 30
0.0
 10
63.402618866
 20
158.7501205195
 30
0.0
 10
63.4187531373
 20
158.7923645267
 30
0.0
  0
SPLINE
  5
40B
100
AcDbEntity
  8
A_ACHSEN
100
AcDbSpline
 62
7
  6
CONTINUOUS
 70
0
 71
3
 72
9
 73
5
 74
0
 42
0.0000001
 43
0.0000001
 44
0.0000000001
 40
0.0
 40
0.0
 40
0.0
 40
0.0
 40
0.6063035409
 40
1.0
 40
1.0
 40
1.0
 40
1.0
 10
36.8526040746
 20
76.7775093594
 30
0.0
 10
36.8764748109
 20
76.7775093594
 30
0.0
 10
36.9154153836
 20
76.7785361518
 30
0.0
 10
36.9554984989
 20
76.786562291
 30
0.0
 10
36.9686131838
 20
76.7948243216
 30
0.0
  0
SPLINE
  5
40C
100
AcDbEntity
  8
A_ACHSEN
100
AcDbSpline
 62
7
  6
CONTINUOUS
 70
0
 71
3
 72
9
 73
5
 74
0
 42
0.0000001
 43
0.0000001
 44
0.0000000001
 40
0.0
 40
0.0
 40
0.0
 40
0.0
 40
0.5077801034
 40
1.0
 40
1.0
 40
1.0
 40
1.0
 10
36.9686131838
 20
76.7948243216
 30
0.0
 10
36.9736824967
 20
76.7980179033
 30
0.0
 10
36.9828781539
 20
76.8063864776
 30
0.0
 10
36.9855867376
 20
76.8186005108
 30
0.0
 10
36.9855867376
 20
76.8244083147
 30
0.0
  0
SPLINE
  5
40D
100
AcDbEntity
  8
A_ACHSEN
100
AcDbSpline
 62
7
  6
CONTINUOUS
 70
0
 71
3
 72
9
 73
5
 74
0
 42
0.0000001
 43
0.0000001
 44
0.0000000001
 40
0.0
 40
0.0
 40
0.0
 40
0.0
 40
0.479359741
 40
1.0
 40
1.0
 40
1.0
 40
1.0
 10
34.2507704958
 20
76.8256115853
 30
0.0
 10
34.3508213166
 20
76.8061766593
 30
0.0
 10
34.5627504198
 20
76.7822912348
 30
0.0
 10
34.7754104173
 20
76.7775093594
 30
0.0
 10
34.8861084028
 20
76.7775093594
 30
0.0
  0
SPLINE
  5
40E
100
AcDbEntity
  8
A_ACHSEN
100
AcDbSpline
 62
7
  6
CONTINUOUS
 70
0
 71
3
 72
9
 73
5
 74
0
 42
0.0000001
 43
0.0000001
 44
0.0000000001
 40
0.0
 40
0.0
 40
0.0
 40
0.0
 40
0.5206589014
 40
1.0
 40
1.0
 40
1.0
 40
1.0
 10
34.8861084028
 20
114.4775093594
 30
0.0
 10
34.7753291607
 20
114.4775093594
 30
0.0
 10
34.5625206821
 20
114.4727208508
 30
0.0
 10
34.3504446562
 20
114.448793734
 30
0.0
 10
34.2503324421
 20
114.4293224867
 30
0.0
  0
SPLINE
  5
40F
100
AcDbEntity
  8
A_ACHSEN
100
AcDbSpline
 62
7
  6
CONTINUOUS
 70
0
 71
3
 72
10
 73
6
 74
0
 42
0.0000001
 43
0.0000001
 44
0.0000000001
 40
0.0
 40
0.0
 40
0.0
 40
0.0
 40
0.2354320193
 40
0.4602583233
 40
1.0
 40
1.0
 40
1.0
 40
1.0
 10
36.9855867376
 20
114.4306104041
 30
0.0
 10
36.9855867376
 20
114.4346950681
 30
0.0
 10
36.9844259314
 20
114.4428067315
 30
0.0
 10
36.9751412379
 20
114.457990505
 30
0.0
 10
36.9623381761
 20
114.4641623608
 30
0.0
 10
36.9534714462
 20
114.4671743038
 30
0.0
  0
SPLINE
  5
410
100
AcDbEntity
  8
A_FASEN
100
AcDbSpline
 62
7
  6
CONTINUOUS
 70
0
 71
3
 72
24
 73
20
 74
0
 42
0.0000001
 43
0.0000001
 44
0.0000000001
 40
0.0
 40
0.0
 40
0.0
 40
0.0
 40
0.0014876882
 40
0.0053691433
 40
0.0116414218
 40
0.0202927826
 40
0.0313103131
 40
0.044678423
 40
0.0603583453
 40
0.0782981469
 40
0.1207488817
 40
0.1716091718
 40
0.2304104704
 40
0.2966553711
 40
0.3698102192
 40
0.4492040969
 40
0.6235528856
 40
0.8099039905
 40
1.0
 40
1.0
 40
1.0
 40
1.0
 10
51.4086366008
 20
71.9770424155
 30
0.0
 10
51.4093466948
 20
71.9777525219
 30
0.0
 10
51.4135312854
 20
71.9772643917
 30
0.0
 10
51.4208652175
 20
71.9784811746
 30
0.0
 10
51.4338297083
 20
71.9785461893
 30
0.0
 10
51.4512130261
 20
71.9792213504
 30
0.0
 10
51.4735550567
 20
71.9796473042
 30
0.0
 10
51.5005794196
 20
71.9801648625
 30
0.0
 10
51.5322994988
 20
71.9806439197
 30
0.0
 10
51.583642463
 20
71.9813264889
 30
0.0
 10
51.6587373286
 20
71.9821235707
 30
0.0
 10
51.7614133975
 20
71.9829957554
 30
0.0
 10
51.8801528705
 20
71.9838132316
 30
0.0
 10
52.0139422322
 20
71.9845702181
 30
0.0
 10
52.1616328072
 20
71.9852577358
 30
0.0
 10
52.3822966587
 20
71.9860988803
 30
0.0
 10
52.6793719411
 20
71.9868936935
 30
0.0
 10
53.0511750033
 20
71.9874654528
 30
0.0
 10
53.305287905
 20
71.9875886726
 30
0.0
 10
53.4336083046
 20
71.9875886726
 30
0.0
  0
SPLINE
  5
411
100
AcDbEntity
  8
A_FASEN
100
AcDbSpline
 62
7
  6
CONTINUOUS
 70
0
 71
3
 72
24
 73
20
 74
0
 42
0.0000001
 43
0.0000001
 44
0.0000000001
 40
0.0
 40
0.0
 40
0.0
 40
0.0
 40
0.0014865826
 40
0.005364462
 40
0.0116298677
 40
0.0202702357
 40
0.0312718305
 40
0.0446183663
 40
0.0602723687
 40
0.0781846515
 40
0.1205866514
 40
0.1714210986
 40
0.2301953388
 40
0.296362501
 40
0.369360671
 40
0.4485737851
 40
0.6227592568
 40
0.8093708454
 40
1.0
 40
1.0
 40
1.0
 40
1.0
 10
55.4585802511
 20
119.2779765269
 30
0.0
 10
55.4578706847
 20
119.2772669482
 30
0.0
 10
55.4536897698
 20
119.2777544389
 30
0.0
 10
55.4463630908
 20
119.2765387761
 30
0.0
 10
55.433413429
 20
119.2764734549
 30
0.0
 10
55.4160527447
 20
119.2757988625
 30
0.0
 10
55.393743535
 20
119.2753730832
 30
0.0
 10
55.3667619548
 20
119.2748558731
 30
0.0
 10
55.3350925201
 20
119.2743771016
 30
0.0
 10
55.2838185174
 20
119.2736948623
 30
0.0
 10
55.2087925635
 20
119.2728980323
 30
0.0
 10
55.1061850892
 20
119.2720261377
 30
0.0
 10
54.9875337893
 20
119.2712087231
 30
0.0
 10
54.8539209166
 20
119.2704518534
 30
0.0
 10
54.7065105838
 20
119.2697646851
 30
0.0
 10
54.4861847334
 20
119.2689238658
 30
0.0
 10
54.1891658486
 20
119.268127807
 30
0.0
 10
53.8169372644
 20
119.2675538714
 30
0.0
 10
53.5622886085
 20
119.2674300462
 30
0.0
 10
53.4336083046
 20
119.2674300462
 30
0.0
  0
SPLINE
  5
412
100
AcDbEntity
  8
A_FASEN
100
AcDbSpline
 62
7
  6
CONTINUOUS
 70
0
 71
3
 72
24
 73
20
 74
0
 42
0.0000001
 43
0.0000001
 44
0.0000000001
 40
0.0
 40
0.0
 40
0.0
 40
0.0
 40
0.1936265364
 40
0.3808355293
 40
0.5536819077
 40
0.6323428917
 40
0.704941914
 40
0.770858547
 40
0.8294624553
 40
0.8801217183
 40
0.9223045049
 40
0.9401050721
 40
0.9556555647
 40
0.9689139255
 40
0.9798459168
 40
0.9884341065
 40
0.9946635606
 40
0.9985205162
 40
1.0
 40
1.0
 40
1.0
 40
1.0
 10
53.4336083046
 20
119.2674300462
 30
0.0
 10
53.3029046691
 20
119.2674300462
 30
0.0
 10
53.0458294068
 20
119.2675585731
 30
0.0
 10
52.6720781397
 20
119.268138558
 30
0.0
 10
52.3759326186
 20
119.2689411406
 30
0.0
 10
52.1571528232
 20
119.2697799274
 30
0.0
 10
52.0105537375
 20
119.2704659775
 30
0.0
 10
51.877494393
 20
119.2712228275
 30
0.0
 10
51.759245443
 20
119.2720403609
 30
0.0
 10
51.6570191735
 20
119.2729113193
 30
0.0
 10
51.5823348669
 20
119.273706777
 30
0.0
 10
51.5313541083
 20
119.2743875
 30
0.0
 10
51.4998895246
 20
119.2748651032
 30
0.0
 10
51.4730841964
 20
119.2753809028
 30
0.0
 10
51.4509170731
 20
119.2758061956
 30
0.0
 10
51.4336620141
 20
119.2764782964
 30
0.0
 10
51.4207878639
 20
119.2765460088
 30
0.0
 10
51.4135011648
 20
119.277755064
 30
0.0
 10
51.4093425515
 20
119.2772728619
 30
0.0
 10
51.4086363734
 20
119.2779790522
 30
0.0
  0
SPLINE
  5
413
100
AcDbEntity
  8
A_FASEN
100
AcDbSpline
 62
7
  6
CONTINUOUS
 70
0
 71
3
 72
24
 73
20
 74
0
 42
0.0000001
 43
0.0000001
 44
0.0000000001
 40
0.0
 40
0.0
 40
0.0
 40
0.0
 40
0.1939420481
 40
0.3811076582
 40
0.5537723104
 40
0.6324423548
 40
0.7050628056
 40
0.7709680182
 40
0.8295376133
 40
0.8801649336
 40
0.922331228
 40
0.9401273655
 40
0.9556745603
 40
0.9689296922
 40
0.9798577713
 40
0.9884417823
 40
0.9946674366
 40
0.9985216175
 40
1.0
 40
1.0
 40
1.0
 40
1.0
 10
53.4336083046
 20
71.9875886726
 30
0.0
 10
53.5645249057
 20
71.9875886726
 30
0.0
 10
53.8217838353
 20
71.9874594713
 30
0.0
 10
54.1955960875
 20
71.9868796566
 30
0.0
 10
54.4915957355
 20
71.9860763596
 30
0.0
 10
54.7102734173
 20
71.985237662
 30
0.0
 10
54.8568853592
 20
71.9845515981
 30
0.0
 10
54.9899282829
 20
71.9837947707
 30
0.0
 10
55.1081247855
 20
71.982977297
 30
0.0
 10
55.2102951855
 20
71.9821064002
 30
0.0
 10
55.2849437977
 20
71.9813110867
 30
0.0
 10
55.3359082024
 20
71.9806304713
 30
0.0
 10
55.3673653859
 20
71.9801529208
 30
0.0
 10
55.3941636684
 20
71.9796372076
 30
0.0
 10
55.4163231312
 20
71.9792119404
 30
0.0
 10
55.4335702251
 20
71.978540062
 30
0.0
 10
55.4464369195
 20
71.978472029
 30
0.0
 10
55.4537188527
 20
71.9772638886
 30
0.0
 10
55.4578743377
 20
71.9777451607
 30
0.0
 10
55.45857999
 20
71.9770394961
 30
0.0
  0
SPLINE
  5
414
100
AcDbEntity
  8
A_FASEN
100
AcDbSpline
 62
7
  6
CONTINUOUS
 70
0
 71
3
 72
24
 73
20
 74
0
 42
0.0000001
 43
0.0000001
 44
0.0000000001
 40
0.0
 40
0.0
 40
0.0
 40
0.0
 40
0.0010007943
 40
0.0044198163
 40
0.0102634116
 40
0.0185201637
 40
0.0291770216
 40
0.0422194904
 40
0.0576131205
 40
0.0753054431
 40
0.1173734993
 40
0.1679950063
 40
0.2266962448
 40
0.292970207
 40
0.3662779675
 40
0.4459408559
 40
0.6211394121
 40
0.8086544263
 40
1.0
 40
1.0
 40
1.0
 40
1.0
 10
55.45857999
 20
71.9770394961
 30
0.0
 10
55.4590576896
 20
71.9765617881
 30
0.0
 10
55.453208431
 20
71.9764876541
 30
0.0
 10
55.4492886733
 20
71.9757502921
 30
0.0
 10
55.4357023865
 20
71.9754450342
 30
0.0
 10
55.4197910182
 20
71.9748696507
 30
0.0
 10
55.3979137571
 20
71.9744019453
 30
0.0
 10
55.3716418906
 20
71.9738941121
 30
0.0
 10
55.340468764
 20
71.9734063158
 30
0.0
 10
55.2897578657
 20
71.9727181961
 30
0.0
 10
55.2152401302
 20
71.9719117556
 30
0.0
 10
55.1130531709
 20
71.9710310219
 30
0.0
 10
54.9945200363
 20
71.9702045896
 30
0.0
 10
54.8606738893
 20
71.9694390528
 30
0.0
 10
54.7126766963
 20
71.9687434358
 30
0.0
 10
54.491151337
 20
71.9678915794
 30
0.0
 10
54.1925309126
 20
71.9670865946
 30
0.0
 10
53.8185197522
 20
71.9665075795
 30
0.0
 10
53.5627740376
 20
71.9663827284
 30
0.0
 10
53.4336083046
 20
71.9663827284
 30
0.0
  0
SPLINE
  5
415
100
AcDbEntity
  8
A_FASEN
100
AcDbSpline
 62
7
  6
CONTINUOUS
 70
0
 71
3
 72
24
 73
20
 74
0
 42
0.0000001
 43
0.0000001
 44
0.0000000001
 40
0.0
 40
0.0
 40
0.0
 40
0.0
 40
0.1952159724
 40
0.3835128543
 40
0.557013466
 40
0.635956223
 40
0.7087367762
 40
0.7746779106
 40
0.8331486763
 40
0.8835311873
 40
0.9253098228
 40
0.9428579327
 40
0.9581198161
 40
0.9710517196
 40
0.981621573
 40
0.9898133508
 40
0.9956125986
 40
0.9990064977
 40
1.0
 40
1.0
 40
1.0
 40
1.0
 10
53.4336083046
 20
71.9663827284
 30
0.0
 10
53.3018298794
 20
71.9663827284
 30
0.0
 10
53.0429436608
 20
71.9665135814
 30
0.0
 10
52.6669381634
 20
71.9671007595
 30
0.0
 10
52.3694222214
 20
71.9679141884
 30
0.0
 10
52.1498850121
 20
71.9687635228
 30
0.0
 10
52.0029544749
 20
71.9694577571
 30
0.0
 10
51.8698444505
 20
71.9702232136
 30
0.0
 10
51.7518528959
 20
71.9710496158
 30
0.0
 10
51.6501781888
 20
71.971928976
 30
0.0
 10
51.576114566
 20
71.9727336036
 30
0.0
 10
51.5257851819
 20
71.9734197444
 30
0.0
 10
51.4948733403
 20
71.9739060409
 30
0.0
 10
51.4688227233
 20
71.9744120641
 30
0.0
 10
51.4471255005
 20
71.9748790446
 30
0.0
 10
51.4313398657
 20
71.9754513135
 30
0.0
 10
51.4178588941
 20
71.9757592242
 30
0.0
 10
51.4139671861
 20
71.9764888355
 30
0.0
 10
51.4081623817
 20
71.9765681881
 30
0.0
 10
51.4086366008
 20
71.9770424155
 30
0.0
  0
SPLINE
  5
416
100
AcDbEntity
  8
A_FASEN
100
AcDbSpline
 62
7
  6
CONTINUOUS
 70
0
 71
3
 72
24
 73
20
 74
0
 42
0.0000001
 43
0.0000001
 44
0.0000000001
 40
0.0
 40
0.0
 40
0.0
 40
0.0
 40
0.0010000663
 40
0.0044160371
 40
0.0102534081
 40
0.0184999229
 40
0.0291416917
 40
0.0421634227
 40
0.0575314979
 40
0.0751961807
 40
0.1172140246
 40
0.1678079783
 40
0.2264834827
 40
0.2926833768
 40
0.3658366452
 40
0.445317118
 40
0.6203451914
 40
0.808118136
 40
1.0
 40
1.0
 40
1.0
 40
1.0
 10
51.4086363734
 20
119.2779790522
 30
0.0
 10
51.4081590211
 20
119.2784564128
 30
0.0
 10
51.4140032718
 20
119.2785307455
 30
0.0
 10
51.4179192744
 20
119.2792674089
 30
0.0
 10
51.4314902678
 20
119.2795727152
 30
0.0
 10
51.4473814738
 20
119.280147664
 30
0.0
 10
51.4692271197
 20
119.2806151376
 30
0.0
 10
51.4954577664
 20
119.2811226421
 30
0.0
 10
51.5265809116
 20
119.281610146
 30
0.0
 10
51.577222039
 20
119.2822979267
 30
0.0
 10
51.6516686171
 20
119.2831041029
 30
0.0
 10
51.7537857248
 20
119.2839845319
 30
0.0
 10
51.8722329011
 20
119.2848108898
 30
0.0
 10
52.0059074039
 20
119.285576319
 30
0.0
 10
52.1536271881
 20
119.286271602
 30
0.0
 10
52.3748100644
 20
119.2871231211
 30
0.0
 10
52.6733664137
 20
119.2879293169
 30
0.0
 10
53.0477986637
 20
119.2885105312
 30
0.0
 10
53.3040805392
 20
119.2886359904
 30
0.0
 10
53.4336083046
 20
119.2886359904
 30
0.0
  0
SPLINE
  5
417
100
AcDbEntity
  8
A_FASEN
100
AcDbSpline
 62
7
  6
CONTINUOUS
 70
0
 71
3
 72
24
 73
20
 74
0
 42
0.0000001
 43
0.0000001
 44
0.0000000001
 40
0.0
 40
0.0
 40
0.0
 40
0.0
 40
0.1948980712
 40
0.3832422819
 40
0.5569213653
 40
0.6358531071
 40
0.7086129054
 40
0.7745674844
 40
0.8330734466
 40
0.8834872934
 40
0.9252818387
 40
0.9428343284
 40
0.9580996496
 40
0.9710351347
 40
0.9816092801
 40
0.9898055227
 40
0.9956087492
 40
0.9990054815
 40
1.0
 40
1.0
 40
1.0
 40
1.0
 10
53.4336083046
 20
119.2886359904
 30
0.0
 10
53.5651721456
 20
119.2886359904
 30
0.0
 10
53.8238757404
 20
119.2885058142
 30
0.0
 10
54.199819099
 20
119.2879184689
 30
0.0
 10
54.4974800583
 20
119.2871057792
 30
0.0
 10
54.717116317
 20
119.286256352
 30
0.0
 10
54.8640344966
 20
119.2855621287
 30
0.0
 10
54.9971633571
 20
119.2847966545
 30
0.0
 10
55.1152089112
 20
119.2839702003
 30
0.0
 10
55.2169392786
 20
119.2830907806
 30
0.0
 10
55.2910377606
 20
119.2822860142
 30
0.0
 10
55.3413831642
 20
119.2815997686
 30
0.0
 10
55.3723027057
 20
119.281113426
 30
0.0
 10
55.3983609458
 20
119.2806072975
 30
0.0
 10
55.4200665921
 20
119.2801403442
 30
0.0
 10
55.4358604413
 20
119.2795677403
 30
0.0
 10
55.4493502173
 20
119.27926035
 30
0.0
 10
55.4532446875
 20
119.27852958
 30
0.0
 10
55.4590549553
 20
119.2784512393
 30
0.0
 10
55.4585802511
 20
119.2779765269
 30
0.0
  0
ELLIPSE
  5
418
100
AcDbEntity
  8
A_RUNDUNGEN
100
AcDbEllipse
 62
7
  6
CONTINUOUS
 10
50.4336151585
 20
47.9275162134
 30
0.0
 11
-0.3535630835
 21
-0.3535630835
 31
0.0
 40
0.9999725851
 41
-0.7853844557
 42
0.1444519185
  0
ELLIPSE
  5
419
100
AcDbEntity
  8
A_RUNDUNGEN
100
AcDbEllipse
 62
7
  6
CONTINUOUS
 10
50.4336151585
 20
143.3275025054
 30
0.0
 11
0.3535630835
 21
-0.3535630835
 31
0.0
 40
0.9999725851
 41
2.9971407351
 42
3.9269771093
  0
ELLIPSE
  5
41A
100
AcDbEntity
  8
A_RUNDUNGEN
100
AcDbEllipse
 62
7
  6
CONTINUOUS
 10
49.9362263224
 20
54.6801205232
 30
0.0
 11
0.0
 21
0.5
 31
0.0
 40
0.0052360356
 41
0.0052359878
 42
1.5707963268
  0
ELLIPSE
  5
41B
100
AcDbEntity
  8
A_RUNDUNGEN
100
AcDbEllipse
 62
7
  6
CONTINUOUS
 10
49.9362263224
 20
136.5748981956
 30
0.0
 11
0.0
 21
0.5
 31
0.0
 40
0.0052360356
 41
-4.7123889804
 42
-3.1468286413
  0
ELLIPSE
  5
41C
100
AcDbEntity
  8
A_RUNDUNGEN
100
AcDbEllipse
 62
7
  6
CONTINUOUS
 10
49.9362263224
 20
118.6801205232
 30
0.0
 11
-0.0
 21
0.5
 31
0.0
 40
0.0052360356
 41
0.0052359878
 42
1.5707963268
  0
ELLIPSE
  5
41D
100
AcDbEntity
  8
A_RUNDUNGEN
100
AcDbEllipse
 62
7
  6
CONTINUOUS
 10
49.9362263224
 20
115.0748981956
 30
0.0
 11
0.0
 21
0.5
 31
0.0
 40
0.0052360356
 41
-4.7123889804
 42
-3.1468286413
  0
ELLIPSE
  5
41E
100
AcDbEntity
  8
A_RUNDUNGEN
100
AcDbEllipse
 62
7
  6
CONTINUOUS
 10
49.9362263224
 20
76.1801205232
 30
0.0
 11
0.0
 21
0.5
 31
0.0
 40
0.0052360356
 41
0.0052359878
 42
1.5707963268
  0
ELLIPSE
  5
41F
100
AcDbEntity
  8
A_RUNDUNGEN
100
AcDbEllipse
 62
7
  6
CONTINUOUS
 10
49.9362263224
 20
72.5748981956
 30
0.0
 11
0.0
 21
0.5
 31
0.0
 40
0.0052360356
 41
1.5707963268
 42
3.1363566658
  0
ELLIPSE
  5
420
100
AcDbEntity
  8
A_RUNDUNGEN
100
AcDbEllipse
 62
7
  6
CONTINUOUS
 10
50.0488010879
 20
71.4623097221
 30
0.0
 11
0.0
 21
0.5
 31
0.0
 40
0.0052360356
 41
-1.5707963268
 42
-0.0052359878
  0
ELLIPSE
  5
421
100
AcDbEntity
  8
A_RUNDUNGEN
100
AcDbEllipse
 62
7
  6
CONTINUOUS
 10
50.0488010879
 20
55.7927089967
 30
0.0
 11
0.0
 21
0.5
 31
0.0
 40
0.0052360356
 41
-3.1363566658
 42
-1.5707963268
  0
ELLIPSE
  5
422
100
AcDbEntity
  8
A_RUNDUNGEN
100
AcDbEllipse
 62
7
  6
CONTINUOUS
 10
50.0488010879
 20
77.2927089967
 30
0.0
 11
0.0
 21
0.5
 31
0.0
 40
0.0052360356
 41
-3.1363566658
 42
-1.5707963268
  0
ELLIPSE
  5
423
100
AcDbEntity
  8
A_RUNDUNGEN
100
AcDbEllipse
 62
7
  6
CONTINUOUS
 10
50.0488010879
 20
113.9623097221
 30
0.0
 11
0.0
 21
0.5
 31
0.0
 40
0.0052360356
 41
-1.5707963268
 42
-0.0052359878
  0
ELLIPSE
  5
424
100
AcDbEntity
  8
A_RUNDUNGEN
100
AcDbEllipse
 62
7
  6
CONTINUOUS
 10
50.0488010879
 20
135.4623097221
 30
0.0
 11
0.0
 21
0.5
 31
0.0
 40
0.0052360356
 41
-1.5707963268
 42
-0.0052359878
  0
ELLIPSE
  5
425
100
AcDbEntity
  8
A_RUNDUNGEN
100
AcDbEllipse
 62
7
  6
CONTINUOUS
 10
50.0488010879
 20
119.7927089967
 30
0.0
 11
0.0
 21
0.5
 31
0.0
 40
0.0052360356
 41
-3.1363566658
 42
-1.5707963268
  0
ELLIPSE
  5
426
100
AcDbEntity
  8
0
100
AcDbEllipse
 62
7
  6
CONTINUOUS
 10
53.9336083046
 20
72.0083936894
 30
0.0
 11
1.725
 21
0.0
 31
0.0
 40
0.0052360356
 41
-1.5707963268
 42
3.1415926536
  0
ELLIPSE
  5
427
100
AcDbEntity
  8
0
100
AcDbEllipse
 62
7
  6
CONTINUOUS
 10
53.9336083046
 20
76.7466250294
 30
0.0
 11
1.725
 21
0.0
 31
0.0
 40
0.0052360356
 41
3.1415926536
 42
7.853981634
  0
ELLIPSE
  5
428
100
AcDbEntity
  8
0
100
AcDbEllipse
 62
7
  6
CONTINUOUS
 10
53.9336083046
 20
55.2466250294
 30
0.0
 11
1.725
 21
0.0
 31
0.0
 40
0.0052360356
 41
3.1415926536
 42
7.853981634
  0
ELLIPSE
  5
429
100
AcDbEntity
  8
0
100
AcDbEllipse
 62
7
  6
CONTINUOUS
 10
53.4336083046
 20
76.778041243
 30
0.0
 11
1.725
 21
-0.0
 31
0.0
 40
0.0052360356
 41
0.0
 42
6.2831853072
  0
ELLIPSE
  5
42A
100
AcDbEntity
  8
0
100
AcDbEllipse
 62
7
  6
CONTINUOUS
 10
53.9336083046
 20
136.0083936894
 30
0.0
 11
1.725
 21
0.0
 31
0.0
 40
0.0052360356
 41
-1.5707963268
 42
3.1415926536
  0
ELLIPSE
  5
42B
100
AcDbEntity
  8
0
100
AcDbEllipse
 62
7
  6
CONTINUOUS
 10
53.4336083046
 20
135.9769774758
 30
0.0
 11
2.0
 21
0.0
 31
0.0
 40
0.0052360356
 41
0.0
 42
6.2831853072
  0
ELLIPSE
  5
42C
100
AcDbEntity
  8
0
100
AcDbEllipse
 62
7
  6
CONTINUOUS
 10
53.4336083046
 20
114.4769774758
 30
0.0
 11
1.725
 21
-0.0
 31
0.0
 40
0.0052360356
 41
-1.5707963268
 42
3.1415926536
  0
ELLIPSE
  5
42D
100
AcDbEntity
  8
0
100
AcDbEllipse
 62
7
  6
CONTINUOUS
 10
53.9336083046
 20
114.5083936894
 30
0.0
 11
1.725
 21
0.0
 31
0.0
 40
0.0052360356
 41
-1.5707963268
 42
3.1415926536
  0
ELLIPSE
  5
42E
100
AcDbEntity
  8
0
100
AcDbEllipse
 62
7
  6
CONTINUOUS
 10
53.9336083046
 20
119.2466250294
 30
0.0
 11
1.725
 21
0.0
 31
0.0
 40
0.0052360356
 41
3.1415926536
 42
7.853981634
  0
ELLIPSE
  5
42F
100
AcDbEntity
  8
0
100
AcDbEllipse
 62
7
  6
CONTINUOUS
 10
53.4336083046
 20
55.278041243
 30
0.0
 11
2.0
 21
0.0
 31
0.0
 40
0.0052360356
 41
0.0
 42
6.2831853072
  0
ELLIPSE
  5
430
100
AcDbEntity
  8
A_RUNDUNGEN
100
AcDbEllipse
 62
7
  6
CONTINUOUS
 10
49.0502914794
 20
47.9515936971
 30
0.0
 11
-0.0
 21
0.5
 31
0.0
 40
0.0087268678
 41
-2.615174277
 42
-1.5707963268
  0
ELLIPSE
  5
431
100
AcDbEntity
  8
A_RUNDUNGEN
100
AcDbEllipse
 62
7
  6
CONTINUOUS
 10
49.0502914794
 20
143.3034250217
 30
0.0
 11
0.0
 21
0.5
 31
0.0
 40
0.0087268678
 41
-1.5707963268
 42
-0.5296651579
  0
ELLIPSE
  5
432
100
AcDbEntity
  8
A_RUNDUNGEN
100
AcDbEllipse
 62
7
  6
CONTINUOUS
 10
48.8879717385
 20
46.8541897269
 30
0.0
 11
0.0
 21
0.5
 31
0.0
 40
0.0087268678
 41
0.0052359878
 42
1.5707963268
  0
ELLIPSE
  5
433
100
AcDbEntity
  8
A_RUNDUNGEN
100
AcDbEllipse
 62
7
  6
CONTINUOUS
 10
48.8879717385
 20
144.4008289919
 30
0.0
 11
-0.0
 21
0.5
 31
0.0
 40
0.0087268678
 41
-4.7123889804
 42
-3.1468286413
  0
ENDSEC
  0
SECTION
  2
OBJECTS
  0
DICTIONARY
  5
434
100
AcDbDictionary
  3
ACAD_GROUP
350
435
  3
ACAD_MLINESTYLE
350
436
  0
DICTIONARY
  5
435
102
{ACAD_REACTORS
330
434
102
}
100
AcDbDictionary
  0
DICTIONARY
  5
436
102
{ACAD_REACTORS
330
434
102
}
100
AcDbDictionary
  3
STANDARD
350
437
  0
MLINESTYLE
  5
437
102
{ACAD_REACTORS
330
436
102
}
100
AcDbMlineStyle
  2
STANDARD
 70
0
  3

 62
256
 51
90.0
 52
90.0
 71
2
 49
0.5
 62
256
  6
BYLAYER
 49
-0.5
 62
256
  6
BYLAYER
  0
ENDSEC
  0
EOF
