  0
SECTION
  2
HEADER
  9
$ACADVER
  1
AC1018
  9
$ACADMAINTVER
 70
     0
  9
$DWGCODEPAGE
  3
ANSI_1252
  9
$INSBASE
 10
0.0
 20
0.0
 30
0.0
  9
$EXTMIN
 10
154.25506959535
 20
-224.945374558843
 30
0.0
  9
$EXTMAX
 10
291.459946055579
 20
-117.5599502096961
 30
0.0
  9
$LIMMIN
 10
0.0
 20
0.0
  9
$LIMMAX
 10
12.0
 20
9.0
  9
$ORTHOMODE
 70
     0
  9
$REGENMODE
 70
     1
  9
$FILLMODE
 70
     1
  9
$QTEXTMODE
 70
     0
  9
$MIRRTEXT
 70
     1
  9
$LTSCALE
 40
1.0
  9
$ATTMODE
 70
     1
  9
$TEXTSIZE
 40
0.2
  9
$TRACEWID
 40
0.05
  9
$TEXTSTYLE
  7
Standard
  9
$CLAYER
  8
0
  9
$CELTYPE
  6
ByLayer
  9
$CECOLOR
 62
   256
  9
$CELTSCALE
 40
1.0
  9
$DISPSILH
 70
     0
  9
$DIMSCALE
 40
1.0
  9
$DIMASZ
 40
0.18
  9
$DIMEXO
 40
0.0625
  9
$DIMDLI
 40
0.38
  9
$DIMRND
 40
0.0
  9
$DIMDLE
 40
0.0
  9
$DIMEXE
 40
0.18
  9
$DIMTP
 40
0.0
  9
$DIMTM
 40
0.0
  9
$DIMTXT
 40
0.18
  9
$DIMCEN
 40
0.09
  9
$DIMTSZ
 40
0.0
  9
$DIMTOL
 70
     0
  9
$DIMLIM
 70
     0
  9
$DIMTIH
 70
     1
  9
$DIMTOH
 70
     1
  9
$DIMSE1
 70
     0
  9
$DIMSE2
 70
     0
  9
$DIMTAD
 70
     0
  9
$DIMZIN
 70
     0
  9
$DIMBLK
  1

  9
$DIMASO
 70
     1
  9
$DIMSHO
 70
     1
  9
$DIMPOST
  1

  9
$DIMAPOST
  1

  9
$DIMALT
 70
     0
  9
$DIMALTD
 70
     2
  9
$DIMALTF
 40
25.4
  9
$DIMLFAC
 40
1.0
  9
$DIMTOFL
 70
     0
  9
$DIMTVP
 40
0.0
  9
$DIMTIX
 70
     0
  9
$DIMSOXD
 70
     0
  9
$DIMSAH
 70
     0
  9
$DIMBLK1
  1

  9
$DIMBLK2
  1

  9
$DIMSTYLE
  2
Standard
  9
$DIMCLRD
 70
     0
  9
$DIMCLRE
 70
     0
  9
$DIMCLRT
 70
     0
  9
$DIMTFAC
 40
1.0
  9
$DIMGAP
 40
0.09
  9
$DIMJUST
 70
     0
  9
$DIMSD1
 70
     0
  9
$DIMSD2
 70
     0
  9
$DIMTOLJ
 70
     1
  9
$DIMTZIN
 70
     0
  9
$DIMALTZ
 70
     0
  9
$DIMALTTZ
 70
     0
  9
$DIMUPT
 70
     0
  9
$DIMDEC
 70
     4
  9
$DIMTDEC
 70
     4
  9
$DIMALTU
 70
     2
  9
$DIMALTTD
 70
     2
  9
$DIMTXSTY
  7
Standard
  9
$DIMAUNIT
 70
     0
  9
$DIMADEC
 70
     0
  9
$DIMALTRND
 40
0.0
  9
$DIMAZIN
 70
     0
  9
$DIMDSEP
 70
    46
  9
$DIMATFIT
 70
     3
  9
$DIMFRAC
 70
     0
  9
$DIMLDRBLK
  1

  9
$DIMLUNIT
 70
     2
  9
$DIMLWD
 70
    -2
  9
$DIMLWE
 70
    -2
  9
$DIMTMOVE
 70
     0
  9
$LUNITS
 70
     2
  9
$LUPREC
 70
     4
  9
$SKETCHINC
 40
0.1
  9
$FILLETRAD
 40
0.5
  9
$AUNITS
 70
     0
  9
$AUPREC
 70
     0
  9
$MENU
  1
.
  9
$ELEVATION
 40
0.0
  9
$PELEVATION
 40
0.0
  9
$THICKNESS
 40
0.0
  9
$LIMCHECK
 70
     0
  9
$CHAMFERA
 40
0.5
  9
$CHAMFERB
 40
0.5
  9
$CHAMFERC
 40
1.0
  9
$CHAMFERD
 40
0.0
  9
$SKPOLY
 70
     0
  9
$TDCREATE
 40
2455761.460126748
  9
$TDUCREATE
 40
2455761.376793414
  9
$TDUPDATE
 40
2455761.460126759
  9
$TDUUPDATE
 40
2455761.376793426
  9
$TDINDWG
 40
0.0000000116
  9
$TDUSRTIMER
 40
0.0000000116
  9
$USRTIMER
 70
     1
  9
$ANGBASE
 50
0.0
  9
$ANGDIR
 70
     0
  9
$PDMODE
 70
     0
  9
$PDSIZE
 40
0.0
  9
$PLINEWID
 40
0.0
  9
$SPLFRAME
 70
     0
  9
$SPLINETYPE
 70
     6
  9
$SPLINESEGS
 70
     8
  9
$HANDSEED
  5
173
  9
$SURFTAB1
 70
     6
  9
$SURFTAB2
 70
     6
  9
$SURFTYPE
 70
     6
  9
$SURFU
 70
     6
  9
$SURFV
 70
     6
  9
$UCSBASE
  2

  9
$UCSNAME
  2

  9
$UCSORG
 10
0.0
 20
0.0
 30
0.0
  9
$UCSXDIR
 10
1.0
 20
0.0
 30
0.0
  9
$UCSYDIR
 10
0.0
 20
1.0
 30
0.0
  9
$UCSORTHOREF
  2

  9
$UCSORTHOVIEW
 70
     0
  9
$UCSORGTOP
 10
0.0
 20
0.0
 30
0.0
  9
$UCSORGBOTTOM
 10
0.0
 20
0.0
 30
0.0
  9
$UCSORGLEFT
 10
0.0
 20
0.0
 30
0.0
  9
$UCSORGRIGHT
 10
0.0
 20
0.0
 30
0.0
  9
$UCSORGFRONT
 10
0.0
 20
0.0
 30
0.0
  9
$UCSORGBACK
 10
0.0
 20
0.0
 30
0.0
  9
$PUCSBASE
  2

  9
$PUCSNAME
  2

  9
$PUCSORG
 10
0.0
 20
0.0
 30
0.0
  9
$PUCSXDIR
 10
1.0
 20
0.0
 30
0.0
  9
$PUCSYDIR
 10
0.0
 20
1.0
 30
0.0
  9
$PUCSORTHOREF
  2

  9
$PUCSORTHOVIEW
 70
     0
  9
$PUCSORGTOP
 10
0.0
 20
0.0
 30
0.0
  9
$PUCSORGBOTTOM
 10
0.0
 20
0.0
 30
0.0
  9
$PUCSORGLEFT
 10
0.0
 20
0.0
 30
0.0
  9
$PUCSORGRIGHT
 10
0.0
 20
0.0
 30
0.0
  9
$PUCSORGFRONT
 10
0.0
 20
0.0
 30
0.0
  9
$PUCSORGBACK
 10
0.0
 20
0.0
 30
0.0
  9
$USERI1
 70
     0
  9
$USERI2
 70
     0
  9
$USERI3
 70
     0
  9
$USERI4
 70
     0
  9
$USERI5
 70
     0
  9
$USERR1
 40
14.5
  9
$USERR2
 40
0.0
  9
$USERR3
 40
0.0
  9
$USERR4
 40
0.0
  9
$USERR5
 40
0.0
  9
$WORLDVIEW
 70
     1
  9
$SHADEDGE
 70
     3
  9
$SHADEDIF
 70
    70
  9
$TILEMODE
 70
     1
  9
$MAXACTVP
 70
    64
  9
$PINSBASE
 10
0.0
 20
0.0
 30
0.0
  9
$PLIMCHECK
 70
     0
  9
$PEXTMIN
 10
1.00000000000000E+20
 20
1.00000000000000E+20
 30
1.00000000000000E+20
  9
$PEXTMAX
 10
-1.00000000000000E+20
 20
-1.00000000000000E+20
 30
-1.00000000000000E+20
  9
$PLIMMIN
 10
0.0
 20
0.0
  9
$PLIMMAX
 10
12.0
 20
9.0
  9
$UNITMODE
 70
     0
  9
$VISRETAIN
 70
     1
  9
$PLINEGEN
 70
     0
  9
$PSLTSCALE
 70
     1
  9
$TREEDEPTH
 70
  3020
  9
$CMLSTYLE
  2
Standard
  9
$CMLJUST
 70
     0
  9
$CMLSCALE
 40
1.0
  9
$PROXYGRAPHICS
 70
     1
  9
$MEASUREMENT
 70
     1
  9
$CELWEIGHT
370
    -1
  9
$ENDCAPS
280
     0
  9
$JOINSTYLE
280
     0
  9
$LWDISPLAY
290
     0
  9
$INSUNITS
 70
     1
  9
$HYPERLINKBASE
  1

  9
$STYLESHEET
  1

  9
$XEDIT
290
     1
  9
$CEPSNTYPE
380
     0
  9
$PSTYLEMODE
290
     1
  9
$FINGERPRINTGUID
  2
{CD69A1DD-8887-4DEA-BF98-3877E556D9F2}
  9
$VERSIONGUID
  2
{FAEB1C32-E019-11D5-929B-00C0DF256EC4}
  9
$EXTNAMES
290
     1
  9
$PSVPSCALE
 40
0.0
  9
$OLESTARTUP
290
     0
  9
$SORTENTS
280
   127
  9
$INDEXCTL
280
     0
  9
$HIDETEXT
280
     1
  9
$XCLIPFRAME
290
     0
  9
$HALOGAP
280
     0
  9
$OBSCOLOR
 70
   257
  9
$OBSLTYPE
280
     0
  9
$INTERSECTIONDISPLAY
280
     0
  9
$INTERSECTIONCOLOR
 70
   257
  9
$DIMASSOC
280
     2
  9
$PROJECTNAME
  1

  0
ENDSEC
  0
SECTION
  2
CLASSES
  0
CLASS
  1
ACDBDICTIONARYWDFLT
  2
AcDbDictionaryWithDefault
  3
ObjectDBX Classes
 90
        0
 91
        3
280
     0
281
     0
  0
CLASS
  1

  2
exOdDbCircle
  3

 90
        0
 91
        3
280
     0
281
     1
  0
ENDSEC
  0
SECTION
  2
TABLES
  0
TABLE
  2
VPORT
  5
8
330
0
100
AcDbSymbolTable
 70
     1
  0
VPORT
  5
29
330
8
100
AcDbSymbolTableRecord
100
AcDbViewportTableRecord
  2
*Active
 70
     0
 10
0.0
 20
0.0
 11
1.0
 21
1.0
 12
222.8575078254645
 22
-171.2526623842696
 13
0.0
 23
0.0
 14
0.5
 24
0.5
 15
0.5
 25
0.5
 16
0.0
 26
0.0
 36
1.0
 17
0.0
 27
0.0
 37
0.0
 40
118.1239667840616
 41
1.60267857142857
 42
50.0
 43
0.0
 44
0.0
 50
0.0
 51
0.0
 71
     0
 72
   100
 73
     1
 74
     3
 75
     0
 76
     0
 77
     0
 78
     0
281
     0
 65
     1
110
0.0
120
0.0
130
0.0
111
1.0
121
0.0
131
0.0
112
0.0
122
1.0
132
0.0
 79
     0
146
0.0
  0
ENDTAB
  0
TABLE
  2
LTYPE
  5
5
330
0
100
AcDbSymbolTable
 70
     8
  0
LTYPE
  5
14
330
5
100
AcDbSymbolTableRecord
100
AcDbLinetypeTableRecord
  2
ByBlock
 70
     0
  3

 72
    65
 73
     0
 40
0.0
  0
LTYPE
  5
15
330
5
100
AcDbSymbolTableRecord
100
AcDbLinetypeTableRecord
  2
ByLayer
 70
     0
  3

 72
    65
 73
     0
 40
0.0
  0
LTYPE
  5
16
330
5
100
AcDbSymbolTableRecord
100
AcDbLinetypeTableRecord
  2
Continuous
 70
     0
  3
Solid line
 72
    65
 73
     0
 40
0.0
  0
LTYPE
  5
2A
330
5
100
AcDbSymbolTableRecord
100
AcDbLinetypeTableRecord
  2
DASHED
 70
     0
  3
Dashed
 72
    65
 73
     2
 40
15.0
 49
7.0
 74
     0
 49
-8.0
 74
     0
  0
LTYPE
  5
2B
330
5
100
AcDbSymbolTableRecord
100
AcDbLinetypeTableRecord
  2
DOTTED
 70
     0
  3
Dotted
 72
    65
 73
     2
 40
1.0
 49
0.0
 74
     0
 49
-1.0
 74
     0
  0
LTYPE
  5
2C
330
5
100
AcDbSymbolTableRecord
100
AcDbLinetypeTableRecord
  2
DOT_CENTER
 70
     0
  3
Dot_Center
 72
    65
 73
     4
 40
14.0
 49
12.0
 74
     0
 49
-1.0
 74
     0
 49
0.0
 74
     0
 49
-1.0
 74
     0
  0
LTYPE
  5
2D
330
5
100
AcDbSymbolTableRecord
100
AcDbLinetypeTableRecord
  2
LONG_DASHED
 70
     0
  3
Long_Dashed
 72
    65
 73
     2
 40
15.0
 49
10.0
 74
     0
 49
-5.0
 74
     0
  0
LTYPE
  5
2E
330
5
100
AcDbSymbolTableRecord
100
AcDbLinetypeTableRecord
  2
DASH_CENTER
 70
     0
  3
Dash_Center
 72
    65
 73
     4
 40
14.0
 49
11.0
 74
     0
 49
-1.0
 74
     0
 49
1.0
 74
     0
 49
-1.0
 74
     0
  0
LTYPE
  5
2F
330
5
100
AcDbSymbolTableRecord
100
AcDbLinetypeTableRecord
  2
PHANTOM
 70
     0
  3
Phantom
 72
    65
 73
     6
 40
13.0
 49
10.0
 74
     0
 49
-1.0
 74
     0
 49
0.0
 74
     0
 49
-1.0
 74
     0
 49
0.0
 74
     0
 49
-1.0
 74
     0
  0
LTYPE
  5
30
330
5
100
AcDbSymbolTableRecord
100
AcDbLinetypeTableRecord
  2
CENTER_DASH_DASH
 70
     0
  3
Center_Dash_Dash
 72
    65
 73
     6
 40
14.0
 49
9.0
 74
     0
 49
-1.0
 74
     0
 49
1.0
 74
     0
 49
-1.0
 74
     0
 49
1.0
 74
     0
 49
-1.0
 74
     0
  0
ENDTAB
  0
TABLE
  2
LAYER
  5
2
330
0
100
AcDbSymbolTable
 70
     2
  0
LAYER
  5
10
330
2
100
AcDbSymbolTableRecord
100
AcDbLayerTableRecord
  2
0
 70
     0
 62
     7
  6
Continuous
370
    -3
390
F
  0
LAYER
  5
31
330
2
100
AcDbSymbolTableRecord
100
AcDbLayerTableRecord
  2
1
 70
     0
 62
     7
  6
Continuous
370
    -3
390
F
  0
ENDTAB
  0
TABLE
  2
STYLE
  5
3
330
0
100
AcDbSymbolTable
 70
     2
  0
STYLE
  5
11
330
3
100
AcDbSymbolTableRecord
100
AcDbTextStyleTableRecord
  2
Standard
 70
     0
 40
0.0
 41
1.0
 50
0.0
 71
     0
 42
0.2
  3
txt
  4

  0
STYLE
  5
10F
330
3
100
AcDbSymbolTableRecord
100
AcDbTextStyleTableRecord
  2
CONVERTER_11
 70
     0
 40
0.0
 41
0.9
 50
0.0
 71
     0
 42
0.2
  3
txt.shx
  4

  0
ENDTAB
  0
TABLE
  2
VIEW
  5
6
330
0
100
AcDbSymbolTable
 70
     0
  0
ENDTAB
  0
TABLE
  2
UCS
  5
7
330
0
100
AcDbSymbolTable
 70
     0
  0
ENDTAB
  0
TABLE
  2
APPID
  5
9
330
0
100
AcDbSymbolTable
 70
     1
  0
APPID
  5
12
330
9
100
AcDbSymbolTableRecord
100
AcDbRegAppTableRecord
  2
ACAD
 70
     0
  0
ENDTAB
  0
TABLE
  2
DIMSTYLE
  5
A
330
0
100
AcDbSymbolTable
 70
    10
100
AcDbDimStyleTable
  0
DIMSTYLE
105
27
330
A
100
AcDbSymbolTableRecord
100
AcDbDimStyleTableRecord
  2
Standard
 70
     0
340
11
  0
DIMSTYLE
105
113
102
{ACAD_REACTORS
330
114
102
}
330
A
100
AcDbSymbolTableRecord
100
AcDbDimStyleTableRecord
  2
ME10_DIM_10
 70
     0
 41
3.5
 42
0.0
 44
2.0
 73
     0
 74
     0
 77
     1
 78
     8
140
3.5
147
2.0
172
     1
173
     1
176
     2
177
     2
178
     2
271
     3
340
10F
  0
DIMSTYLE
105
11E
102
{ACAD_REACTORS
330
11F
102
}
330
A
100
AcDbSymbolTableRecord
100
AcDbDimStyleTableRecord
  2
ME10_DIM_11
 70
     0
 41
3.5
 42
0.0
 44
2.0
 73
     0
 74
     0
 77
     1
 78
     8
140
3.5
147
2.0
172
     1
173
     1
176
     2
177
     2
178
     2
271
     3
340
10F
  0
DIMSTYLE
105
129
102
{ACAD_REACTORS
330
12A
102
}
330
A
100
AcDbSymbolTableRecord
100
AcDbDimStyleTableRecord
  2
ME10_DIM_12
 70
     0
 41
3.5
 42
0.0
 44
2.0
 73
     0
 74
     0
 77
     1
 78
     8
140
3.5
147
2.0
172
     1
173
     1
176
     2
177
     2
178
     2
271
     3
340
10F
  0
DIMSTYLE
105
134
102
{ACAD_REACTORS
330
135
102
}
330
A
100
AcDbSymbolTableRecord
100
AcDbDimStyleTableRecord
  2
ME10_DIM_13
 70
     0
 41
3.5
 42
0.0
 44
2.0
 73
     0
 74
     0
 77
     1
 78
     8
140
3.5
147
2.0
172
     1
173
     1
176
     2
177
     2
178
     2
271
     3
340
10F
  0
DIMSTYLE
105
141
102
{ACAD_REACTORS
330
142
102
}
330
A
100
AcDbSymbolTableRecord
100
AcDbDimStyleTableRecord
  2
ME10_DIM_14
 70
     0
 41
3.5
 42
0.0
 44
2.0
 73
     0
 74
     0
 77
     1
 78
     8
140
3.5
147
2.0
172
     1
173
     1
176
     2
177
     2
178
     2
271
     3
340
10F
  0
DIMSTYLE
105
14C
102
{ACAD_REACTORS
330
14D
102
}
330
A
100
AcDbSymbolTableRecord
100
AcDbDimStyleTableRecord
  2
ME10_DIM_15
 70
     0
 41
3.5
 42
0.0
 44
2.0
 73
     0
 74
     0
 77
     1
 78
     8
140
3.5
147
2.0
172
     1
173
     1
176
     2
177
     2
178
     2
271
     3
340
10F
  0
DIMSTYLE
105
159
102
{ACAD_REACTORS
330
15A
102
}
330
A
100
AcDbSymbolTableRecord
100
AcDbDimStyleTableRecord
  2
ME10_DIM_16
 70
     0
 41
3.5
 42
0.0
 44
2.0
 73
     0
 74
     0
 77
     1
 78
     8
140
3.5
147
2.0
172
     1
173
     1
176
     2
177
     2
178
     2
271
     3
340
10F
  0
DIMSTYLE
105
164
102
{ACAD_REACTORS
330
165
102
}
330
A
100
AcDbSymbolTableRecord
100
AcDbDimStyleTableRecord
  2
ME10_DIM_17
 70
     0
 41
3.5
 42
0.0
 44
2.0
 73
     0
 74
     0
 77
     1
 78
     8
140
3.5
147
2.0
172
     1
173
     1
176
     2
177
     2
178
     2
271
     3
340
10F
  0
DIMSTYLE
105
171
102
{ACAD_REACTORS
330
172
102
}
330
A
100
AcDbSymbolTableRecord
100
AcDbDimStyleTableRecord
  2
ME10_DIM_18
 70
     0
 41
3.5
 42
0.0
 44
2.0
 73
     0
 74
     0
 77
     1
 78
     8
140
3.5
147
2.0
172
     1
173
     1
176
     2
177
     2
178
     2
271
     3
340
10F
  0
ENDTAB
  0
TABLE
  2
BLOCK_RECORD
  5
1
330
0
100
AcDbSymbolTable
 70
    10
  0
BLOCK_RECORD
  5
1F
330
1
100
AcDbSymbolTableRecord
100
AcDbBlockTableRecord
  2
*Model_Space
340
22
  0
BLOCK_RECORD
  5
1B
330
1
100
AcDbSymbolTableRecord
100
AcDbBlockTableRecord
  2
*Paper_Space
340
1E
  0
BLOCK_RECORD
  5
23
330
1
100
AcDbSymbolTableRecord
100
AcDbBlockTableRecord
  2
*Paper_Space0
340
26
  0
BLOCK_RECORD
  5
109
330
1
100
AcDbSymbolTableRecord
100
AcDbBlockTableRecord
  2
*D1
340
0
  0
BLOCK_RECORD
  5
115
330
1
100
AcDbSymbolTableRecord
100
AcDbBlockTableRecord
  2
*D2
340
0
  0
BLOCK_RECORD
  5
120
330
1
100
AcDbSymbolTableRecord
100
AcDbBlockTableRecord
  2
*D3
340
0
  0
BLOCK_RECORD
  5
12B
330
1
100
AcDbSymbolTableRecord
100
AcDbBlockTableRecord
  2
*D4
340
0
  0
BLOCK_RECORD
  5
136
330
1
100
AcDbSymbolTableRecord
100
AcDbBlockTableRecord
  2
*D5
340
0
  0
BLOCK_RECORD
  5
143
330
1
100
AcDbSymbolTableRecord
100
AcDbBlockTableRecord
  2
*D6
340
0
  0
BLOCK_RECORD
  5
14E
330
1
100
AcDbSymbolTableRecord
100
AcDbBlockTableRecord
  2
*D7
340
0
  0
BLOCK_RECORD
  5
15B
330
1
100
AcDbSymbolTableRecord
100
AcDbBlockTableRecord
  2
*D8
340
0
  0
BLOCK_RECORD
  5
166
330
1
100
AcDbSymbolTableRecord
100
AcDbBlockTableRecord
  2
*D9
340
0
  0
ENDTAB
  0
ENDSEC
  0
SECTION
  2
BLOCKS
  0
BLOCK
  5
20
330
1F
100
AcDbEntity
  8
0
100
AcDbBlockBegin
  2
*Model_Space
 70
     0
 71
     0
 10
0.0
 20
0.0
 30
0.0
  3
*Model_Space
  1

  0
ENDBLK
  5
21
330
1F
100
AcDbEntity
  8
0
100
AcDbBlockEnd
  0
BLOCK
  5
1C
330
1B
100
AcDbEntity
 67
     1
  8
0
100
AcDbBlockBegin
  2
*Paper_Space
 70
     0
 71
     0
 10
0.0
 20
0.0
 30
0.0
  3
*Paper_Space
  1

  0
ENDBLK
  5
1D
330
1B
100
AcDbEntity
 67
     1
  8
0
100
AcDbBlockEnd
  0
BLOCK
  5
24
330
23
100
AcDbEntity
  8
0
100
AcDbBlockBegin
  2
*Paper_Space0
 70
     0
 71
     0
 10
0.0
 20
0.0
 30
0.0
  3
*Paper_Space0
  1

  0
ENDBLK
  5
25
330
23
100
AcDbEntity
  8
0
100
AcDbBlockEnd
  0
BLOCK
  5
111
330
109
100
AcDbEntity
  8
0
100
AcDbBlockBegin
  2
*D1
 70
     1
 71
     0
 10
0.0
 20
0.0
 30
0.0
  3
*D1
  1

  0
LINE
  5
10A
330
109
100
AcDbEntity
  8
1
  6
Continuous
 62
     2
100
AcDbLine
 10
279.250765445773
 20
-186.345236978873
 30
0.0
 11
279.250765445773
 21
-202.345236978873
 31
0.0
  0
LINE
  5
10B
330
109
100
AcDbEntity
  8
1
  6
Continuous
 62
     2
100
AcDbLine
 10
249.6161905229037
 20
-202.345236978873
 30
0.0
 11
281.250765445773
 21
-202.345236978873
 31
0.0
  0
LINE
  5
10C
330
109
100
AcDbEntity
  8
1
  6
Continuous
 62
     2
100
AcDbLine
 10
251.6088358908837
 20
-186.345236978873
 30
0.0
 11
281.250765445773
 21
-186.345236978873
 31
0.0
  0
SOLID
  5
10D
330
109
100
AcDbEntity
  8
1
 62
     2
100
AcDbTrace
 10
279.7115491873289
 20
-189.845236978873
 30
0.0
 11
278.7899817042172
 21
-189.845236978873
 31
0.0
 12
279.250765445773
 22
-186.345236978873
 32
0.0
 13
279.250765445773
 23
-186.345236978873
 33
0.0
  0
SOLID
  5
10E
330
109
100
AcDbEntity
  8
1
 62
     2
100
AcDbTrace
 10
278.7899817042172
 20
-198.845236978873
 30
0.0
 11
279.7115491873289
 21
-198.845236978873
 31
0.0
 12
279.250765445773
 22
-202.345236978873
 32
0.0
 13
279.250765445773
 23
-202.345236978873
 33
0.0
  0
MTEXT
  5
110
330
109
100
AcDbEntity
  8
1
 62
     2
100
AcDbMText
 10
277.250765445773
 20
-197.265172844791
 30
0.0
 40
3.5
 41
0.0
 71
     7
 72
     1
  1
16
  7
CONVERTER_11
 11
0.0
 21
1.0
 31
0.0
 73
     1
 44
0.60024009603842
  0
ENDBLK
  5
112
330
109
100
AcDbEntity
  8
0
100
AcDbBlockEnd
  0
BLOCK
  5
11C
330
115
100
AcDbEntity
  8
0
100
AcDbBlockBegin
  2
*D2
 70
     1
 71
     0
 10
0.0
 20
0.0
 30
0.0
  3
*D2
  1

  0
LINE
  5
116
330
115
100
AcDbEntity
  8
1
  6
Continuous
 62
     2
100
AcDbLine
 10
168.418712178793
 20
-184.345236978873
 30
0.0
 11
168.418712178793
 21
-202.3456019609304
 31
0.0
  0
LINE
  5
117
330
115
100
AcDbEntity
  8
1
  6
Continuous
 62
     2
100
AcDbLine
 10
197.6092528030221
 20
-202.3456019609304
 30
0.0
 11
166.418712178793
 21
-202.3456019609304
 31
0.0
  0
LINE
  5
118
330
115
100
AcDbEntity
  8
1
  6
Continuous
 62
     2
100
AcDbLine
 10
203.6071553528253
 20
-184.345236978873
 30
0.0
 11
166.418712178793
 21
-184.345236978873
 31
0.0
  0
SOLID
  5
119
330
115
100
AcDbEntity
  8
1
 62
     2
100
AcDbTrace
 10
168.8794959203489
 20
-187.845236978873
 30
0.0
 11
167.9579284372371
 21
-187.845236978873
 31
0.0
 12
168.418712178793
 22
-184.345236978873
 32
0.0
 13
168.418712178793
 23
-184.345236978873
 33
0.0
  0
SOLID
  5
11A
330
115
100
AcDbEntity
  8
1
 62
     2
100
AcDbTrace
 10
167.9579284372371
 20
-198.8456019609304
 30
0.0
 11
168.8794959203489
 21
-198.8456019609304
 31
0.0
 12
168.418712178793
 22
-202.3456019609304
 32
0.0
 13
168.418712178793
 23
-202.3456019609304
 33
0.0
  0
MTEXT
  5
11B
330
115
100
AcDbEntity
  8
1
 62
     2
100
AcDbMText
 10
166.418712178793
 20
-195.139651813903
 30
0.0
 40
3.5
 41
0.0
 71
     7
 72
     1
  1
18
  7
CONVERTER_11
 11
0.0
 21
1.0
 31
0.0
 73
     1
 44
0.60024009603842
  0
ENDBLK
  5
11D
330
115
100
AcDbEntity
  8
0
100
AcDbBlockEnd
  0
BLOCK
  5
127
330
120
100
AcDbEntity
  8
0
100
AcDbBlockBegin
  2
*D3
 70
     1
 71
     0
 10
0.0
 20
0.0
 30
0.0
  3
*D3
  1

  0
LINE
  5
121
330
120
100
AcDbEntity
  8
1
  6
Continuous
 62
     2
100
AcDbLine
 10
224.6092528042418
 20
-218.5784634498689
 30
0.0
 11
251.6088358908837
 21
-218.5784634498689
 31
0.0
  0
LINE
  5
122
330
120
100
AcDbEntity
  8
1
  6
Continuous
 62
     2
100
AcDbLine
 10
251.6088358908837
 20
-201.6199969268938
 30
0.0
 11
251.6088358908837
 21
-220.5784634498689
 31
0.0
  0
LINE
  5
123
330
120
100
AcDbEntity
  8
1
  6
Continuous
 62
     2
100
AcDbLine
 10
224.6092528042418
 20
-208.3452369788284
 30
0.0
 11
224.6092528042418
 21
-220.5784634498689
 31
0.0
  0
SOLID
  5
124
330
120
100
AcDbEntity
  8
1
 62
     2
100
AcDbTrace
 10
228.1092528042418
 20
-218.117679708313
 30
0.0
 11
228.1092528042418
 21
-219.0392471914248
 31
0.0
 12
224.6092528042418
 22
-218.5784634498689
 32
0.0
 13
224.6092528042418
 23
-218.5784634498689
 33
0.0
  0
SOLID
  5
125
330
120
100
AcDbEntity
  8
1
 62
     2
100
AcDbTrace
 10
248.1088358908837
 20
-219.0392471914248
 30
0.0
 11
248.1088358908837
 21
-218.117679708313
 31
0.0
 12
251.6088358908837
 22
-218.5784634498689
 32
0.0
 13
251.6088358908837
 23
-218.5784634498689
 33
0.0
  0
MTEXT
  5
126
330
120
100
AcDbEntity
  8
1
 62
     2
100
AcDbMText
 10
236.774757454633
 20
-216.5784634498689
 30
0.0
 40
3.5
 41
0.0
 71
     7
 72
     1
  1
27
  7
CONVERTER_11
 11
0.9999999999970621
 21
2.424068405545307E-6
 31
0.0
 73
     1
 44
0.60024009603842
  0
ENDBLK
  5
128
330
120
100
AcDbEntity
  8
0
100
AcDbBlockEnd
  0
BLOCK
  5
132
330
12B
100
AcDbEntity
  8
0
100
AcDbBlockBegin
  2
*D4
 70
     1
 71
     0
 10
0.0
 20
0.0
 30
0.0
  3
*D4
  1

  0
LINE
  5
12C
330
12B
100
AcDbEntity
  8
1
  6
Continuous
 62
     2
100
AcDbLine
 10
197.6092528030221
 20
-218.5784634498689
 30
0.0
 11
221.6092528042421
 21
-218.5784634498689
 31
0.0
  0
LINE
  5
12D
330
12B
100
AcDbEntity
  8
1
  6
Continuous
 62
     2
100
AcDbLine
 10
221.6092528042421
 20
-208.3452369788283
 30
0.0
 11
221.6092528042421
 21
-220.5784634498689
 31
0.0
  0
LINE
  5
12E
330
12B
100
AcDbEntity
  8
1
  6
Continuous
 62
     2
100
AcDbLine
 10
197.6092528030221
 20
-202.3456019609304
 30
0.0
 11
197.6092528030221
 21
-220.5784634498689
 31
0.0
  0
SOLID
  5
12F
330
12B
100
AcDbEntity
  8
1
 62
     2
100
AcDbTrace
 10
201.1092528030221
 20
-218.117679708313
 30
0.0
 11
201.1092528030221
 21
-219.0392471914248
 31
0.0
 12
197.6092528030221
 22
-218.5784634498689
 32
0.0
 13
197.6092528030221
 23
-218.5784634498689
 33
0.0
  0
SOLID
  5
130
330
12B
100
AcDbEntity
  8
1
 62
     2
100
AcDbTrace
 10
218.1092528042421
 20
-219.0392471914248
 30
0.0
 11
218.1092528042421
 21
-218.117679708313
 31
0.0
 12
221.6092528042421
 22
-218.5784634498689
 32
0.0
 13
221.6092528042421
 23
-218.5784634498689
 33
0.0
  0
MTEXT
  5
131
330
12B
100
AcDbEntity
  8
1
 62
     2
100
AcDbMText
 10
206.791548876334
 20
-216.5784634498689
 30
0.0
 40
3.5
 41
0.0
 71
     7
 72
     1
  1
24
  7
CONVERTER_11
 11
0.9999999999970621
 21
2.424068405545307E-6
 31
0.0
 73
     1
 44
0.60024009603842
  0
ENDBLK
  5
133
330
12B
100
AcDbEntity
  8
0
100
AcDbBlockEnd
  0
BLOCK
  5
13F
330
136
100
AcDbEntity
  8
0
100
AcDbBlockBegin
  2
*D5
 70
     1
 71
     0
 10
0.0
 20
0.0
 30
0.0
  3
*D5
  1

  0
LINE
  5
137
330
136
100
AcDbEntity
  8
1
  6
Continuous
 62
     2
100
AcDbLine
 10
289.459946055579
 20
-204.345236978873
 30
0.0
 11
289.459946055579
 21
-197.345236978873
 31
0.0
  0
LINE
  5
138
330
136
100
AcDbEntity
  8
1
  6
Continuous
 62
     2
100
AcDbLine
 10
289.459946055579
 20
-208.3452369788284
 30
0.0
 11
289.459946055579
 21
-204.345236978873
 31
0.0
  0
LINE
  5
139
330
136
100
AcDbEntity
  8
1
  6
Continuous
 62
     2
100
AcDbLine
 10
289.459946055579
 20
-215.3452369788284
 30
0.0
 11
289.459946055579
 21
-208.3452369788284
 31
0.0
  0
LINE
  5
13A
330
136
100
AcDbEntity
  8
1
  6
Continuous
 62
     2
100
AcDbLine
 10
234.6113502532189
 20
-204.345236978873
 30
0.0
 11
291.459946055579
 21
-204.345236978873
 31
0.0
  0
LINE
  5
13B
330
136
100
AcDbEntity
  8
1
  6
Continuous
 62
     2
100
AcDbLine
 10
224.6092528042418
 20
-208.3452369788284
 30
0.0
 11
291.459946055579
 21
-208.3452369788284
 31
0.0
  0
SOLID
  5
13C
330
136
100
AcDbEntity
  8
1
 62
     2
100
AcDbTrace
 10
289.9207297971349
 20
-211.8452369788284
 30
0.0
 11
288.9991623140231
 21
-211.8452369788284
 31
0.0
 12
289.459946055579
 22
-208.3452369788284
 32
0.0
 13
289.459946055579
 23
-208.3452369788284
 33
0.0
  0
SOLID
  5
13D
330
136
100
AcDbEntity
  8
1
 62
     2
100
AcDbTrace
 10
288.9991623140231
 20
-200.845236978873
 30
0.0
 11
289.9207297971349
 21
-200.845236978873
 31
0.0
 12
289.459946055579
 22
-204.345236978873
 32
0.0
 13
289.459946055579
 23
-204.345236978873
 33
0.0
  0
MTEXT
  5
13E
330
136
100
AcDbEntity
  8
1
 62
     2
100
AcDbMText
 10
287.459946055579
 20
-213.681753763622
 30
0.0
 40
3.5
 41
0.0
 71
     7
 72
     1
  1
4
  7
CONVERTER_11
 11
0.0
 21
1.0
 31
0.0
 73
     1
 44
0.60024009603842
  0
ENDBLK
  5
140
330
136
100
AcDbEntity
  8
0
100
AcDbBlockEnd
  0
BLOCK
  5
14A
330
143
100
AcDbEntity
  8
0
100
AcDbBlockBegin
  2
*D6
 70
     1
 71
     0
 10
0.0
 20
0.0
 30
0.0
  3
*D6
  1

  0
LINE
  5
144
330
143
100
AcDbEntity
  8
1
  6
Continuous
 62
     2
100
AcDbLine
 10
289.459946055579
 20
-204.345236978873
 30
0.0
 11
289.459946055579
 21
-186.345236978873
 31
0.0
  0
LINE
  5
145
330
143
100
AcDbEntity
  8
1
  6
Continuous
 62
     2
100
AcDbLine
 10
251.6088358908837
 20
-186.345236978873
 30
0.0
 11
291.459946055579
 21
-186.345236978873
 31
0.0
  0
LINE
  5
146
330
143
100
AcDbEntity
  8
1
  6
Continuous
 62
     2
100
AcDbLine
 10
234.6113502532189
 20
-204.345236978873
 30
0.0
 11
291.459946055579
 21
-204.345236978873
 31
0.0
  0
SOLID
  5
147
330
143
100
AcDbEntity
  8
1
 62
     2
100
AcDbTrace
 10
288.9991623140231
 20
-200.845236978873
 30
0.0
 11
289.9207297971349
 21
-200.845236978873
 31
0.0
 12
289.459946055579
 22
-204.345236978873
 32
0.0
 13
289.459946055579
 23
-204.345236978873
 33
0.0
  0
SOLID
  5
148
330
143
100
AcDbEntity
  8
1
 62
     2
100
AcDbTrace
 10
289.9207297971349
 20
-189.845236978873
 30
0.0
 11
288.9991623140231
 21
-189.845236978873
 31
0.0
 12
289.459946055579
 22
-186.345236978873
 32
0.0
 13
289.459946055579
 23
-186.345236978873
 33
0.0
  0
MTEXT
  5
149
330
143
100
AcDbEntity
  8
1
 62
     2
100
AcDbMText
 10
287.459946055579
 20
-198.445236978873
 30
0.0
 40
3.5
 41
0.0
 71
     7
 72
     1
  1
18
  7
CONVERTER_11
 11
0.0
 21
1.0
 31
0.0
 73
     1
 44
0.60024009603842
  0
ENDBLK
  5
14B
330
143
100
AcDbEntity
  8
0
100
AcDbBlockEnd
  0
BLOCK
  5
157
330
14E
100
AcDbEntity
  8
0
100
AcDbBlockBegin
  2
*D7
 70
     1
 71
     0
 10
0.0
 20
0.0
 30
0.0
  3
*D7
  1

  0
LINE
  5
14F
330
14E
100
AcDbEntity
  8
1
  6
Continuous
 62
     2
100
AcDbLine
 10
224.6092528042418
 20
-218.5784634498689
 30
0.0
 11
231.6092528042418
 21
-218.5784634498689
 31
0.0
  0
LINE
  5
150
330
14E
100
AcDbEntity
  8
1
  6
Continuous
 62
     2
100
AcDbLine
 10
221.6092528042421
 20
-218.5784634498689
 30
0.0
 11
224.6092528042418
 21
-218.5784634498689
 31
0.0
  0
LINE
  5
151
330
14E
100
AcDbEntity
  8
1
  6
Continuous
 62
     2
100
AcDbLine
 10
214.6092528042421
 20
-218.5784634498689
 30
0.0
 11
221.6092528042421
 21
-218.5784634498689
 31
0.0
  0
LINE
  5
152
330
14E
100
AcDbEntity
  8
1
  6
Continuous
 62
     2
100
AcDbLine
 10
224.6092528042418
 20
-208.3452369788284
 30
0.0
 11
224.6092528042418
 21
-220.5784634498689
 31
0.0
  0
LINE
  5
153
330
14E
100
AcDbEntity
  8
1
  6
Continuous
 62
     2
100
AcDbLine
 10
221.6092528042421
 20
-208.3452369788283
 30
0.0
 11
221.6092528042421
 21
-220.5784634498689
 31
0.0
  0
SOLID
  5
154
330
14E
100
AcDbEntity
  8
1
 62
     2
100
AcDbTrace
 10
218.1092528042421
 20
-219.0392471914248
 30
0.0
 11
218.1092528042421
 21
-218.117679708313
 31
0.0
 12
221.6092528042421
 22
-218.5784634498689
 32
0.0
 13
221.6092528042421
 23
-218.5784634498689
 33
0.0
  0
SOLID
  5
155
330
14E
100
AcDbEntity
  8
1
 62
     2
100
AcDbTrace
 10
228.1092528042418
 20
-218.117679708313
 30
0.0
 11
228.1092528042418
 21
-219.0392471914248
 31
0.0
 12
224.6092528042418
 22
-218.5784634498689
 32
0.0
 13
224.6092528042418
 23
-218.5784634498689
 33
0.0
  0
MTEXT
  5
156
330
14E
100
AcDbEntity
  8
1
 62
     2
100
AcDbMText
 10
222.260203299086
 20
-224.945374558843
 30
0.0
 40
3.5
 41
0.0
 71
     7
 72
     1
  1
3
  7
CONVERTER_11
 11
0.9999999999970621
 21
2.424068405545307E-6
 31
0.0
 73
     1
 44
0.60024009603842
  0
ENDBLK
  5
158
330
14E
100
AcDbEntity
  8
0
100
AcDbBlockEnd
  0
BLOCK
  5
162
330
15B
100
AcDbEntity
  8
0
100
AcDbBlockBegin
  2
*D8
 70
     1
 71
     0
 10
0.0
 20
0.0
 30
0.0
  3
*D8
  1

  0
LINE
  5
15C
330
15B
100
AcDbEntity
  8
1
  6
Continuous
 62
     2
100
AcDbLine
 10
159.75506959535
 20
-184.345236978873
 30
0.0
 11
159.75506959535
 21
-205.345236978873
 31
0.0
  0
LINE
  5
15D
330
15B
100
AcDbEntity
  8
1
  6
Continuous
 62
     2
100
AcDbLine
 10
203.6071553528253
 20
-184.345236978873
 30
0.0
 11
157.75506959535
 21
-184.345236978873
 31
0.0
  0
LINE
  5
15E
330
15B
100
AcDbEntity
  8
1
  6
Continuous
 62
     2
100
AcDbLine
 10
211.6071553528253
 20
-205.345236978873
 30
0.0
 11
157.75506959535
 21
-205.345236978873
 31
0.0
  0
SOLID
  5
15F
330
15B
100
AcDbEntity
  8
1
 62
     2
100
AcDbTrace
 10
160.2158533369059
 20
-187.845236978873
 30
0.0
 11
159.2942858537941
 21
-187.845236978873
 31
0.0
 12
159.75506959535
 22
-184.345236978873
 32
0.0
 13
159.75506959535
 23
-184.345236978873
 33
0.0
  0
SOLID
  5
160
330
15B
100
AcDbEntity
  8
1
 62
     2
100
AcDbTrace
 10
159.2942858537941
 20
-201.845236978873
 30
0.0
 11
160.2158533369059
 21
-201.845236978873
 31
0.0
 12
159.75506959535
 22
-205.345236978873
 32
0.0
 13
159.75506959535
 23
-205.345236978873
 33
0.0
  0
MTEXT
  5
161
330
15B
100
AcDbEntity
  8
1
 62
     2
100
AcDbMText
 10
157.75506959535
 20
-196.007864866226
 30
0.0
 40
3.5
 41
0.0
 71
     7
 72
     1
  1
21
  7
CONVERTER_11
 11
0.0
 21
1.0
 31
0.0
 73
     1
 44
0.60024009603842
  0
ENDBLK
  5
163
330
15B
100
AcDbEntity
  8
0
100
AcDbBlockEnd
  0
BLOCK
  5
16F
330
166
100
AcDbEntity
  8
0
100
AcDbBlockBegin
  2
*D9
 70
     1
 71
     0
 10
0.0
 20
0.0
 30
0.0
  3
*D9
  1

  0
LINE
  5
167
330
166
100
AcDbEntity
  8
1
  6
Continuous
 62
     2
100
AcDbLine
 10
159.75506959535
 20
-198.345236978873
 30
0.0
 11
159.75506959535
 21
-205.345236978873
 31
0.0
  0
LINE
  5
168
330
166
100
AcDbEntity
  8
1
  6
Continuous
 62
     2
100
AcDbLine
 10
159.75506959535
 20
-205.345236978873
 30
0.0
 11
159.75506959535
 21
-208.3452369788284
 31
0.0
  0
LINE
  5
169
330
166
100
AcDbEntity
  8
1
  6
Continuous
 62
     2
100
AcDbLine
 10
159.75506959535
 20
-208.3452369788284
 30
0.0
 11
159.75506959535
 21
-215.3452369788284
 31
0.0
  0
LINE
  5
16A
330
166
100
AcDbEntity
  8
1
  6
Continuous
 62
     2
100
AcDbLine
 10
211.6071553528253
 20
-205.345236978873
 30
0.0
 11
157.75506959535
 21
-205.345236978873
 31
0.0
  0
LINE
  5
16B
330
166
100
AcDbEntity
  8
1
  6
Continuous
 62
     2
100
AcDbLine
 10
178.609252804242
 20
-208.3452369788284
 30
0.0
 11
157.75506959535
 21
-208.3452369788284
 31
0.0
  0
SOLID
  5
16C
330
166
100
AcDbEntity
  8
1
 62
     2
100
AcDbTrace
 10
159.2942858537941
 20
-201.845236978873
 30
0.0
 11
160.2158533369059
 21
-201.845236978873
 31
0.0
 12
159.75506959535
 22
-205.345236978873
 32
0.0
 13
159.75506959535
 23
-205.345236978873
 33
0.0
  0
SOLID
  5
16D
330
166
100
AcDbEntity
  8
1
 62
     2
100
AcDbTrace
 10
160.2158533369059
 20
-211.8452369788284
 30
0.0
 11
159.2942858537941
 21
-211.8452369788284
 31
0.0
 12
159.75506959535
 22
-208.3452369788284
 32
0.0
 13
159.75506959535
 23
-208.3452369788284
 33
0.0
  0
MTEXT
  5
16E
330
166
100
AcDbEntity
  8
1
 62
     2
100
AcDbMText
 10
157.75506959535
 20
-207.8952369788507
 30
0.0
 40
3.5
 41
0.0
 71
     7
 72
     1
  1
3
  7
CONVERTER_11
 11
0.0
 21
1.0
 31
0.0
 73
     1
 44
0.60024009603842
  0
ENDBLK
  5
170
330
166
100
AcDbEntity
  8
0
100
AcDbBlockEnd
  0
ENDSEC
  0
SECTION
  2
ENTITIES
  0
POINT
  5
32
330
1F
100
AcDbEntity
  8
1
 62
     3
 60
     1
100
AcDbPoint
 10
221.6092528042418
 20
-205.345236978873
 30
0.0
  0
POINT
  5
33
330
1F
100
AcDbEntity
  8
1
 62
     3
 60
     1
100
AcDbPoint
 10
224.609252804242
 20
-184.3452369788284
 30
0.0
  0
POINT
  5
34
330
1F
100
AcDbEntity
  8
1
 62
     3
 60
     1
100
AcDbPoint
 10
269.609252804242
 20
-168.3452369788284
 30
0.0
  0
POINT
  5
35
330
1F
100
AcDbEntity
  8
1
 62
     3
 60
     1
100
AcDbPoint
 10
237.6092528042421
 20
-168.3452369788284
 30
0.0
  0
POINT
  5
36
330
1F
100
AcDbEntity
  8
1
 62
     3
 60
     1
100
AcDbPoint
 10
237.6092528042421
 20
-184.3452369788284
 30
0.0
  0
LINE
  5
37
330
1F
100
AcDbEntity
  8
1
  6
DOT_CENTER
 62
     2
100
AcDbLine
 10
242.6092528042418
 20
-189.3452372935224
 30
0.0
 11
242.6092528042418
 21
-198.9452366641344
 31
0.0
  0
LINE
  5
38
330
1F
100
AcDbEntity
  8
1
  6
DOT_CENTER
 62
     2
100
AcDbLine
 10
247.4092524895478
 20
-194.1452369788284
 30
0.0
 11
237.8092531189359
 21
-194.1452369788284
 31
0.0
  0
LINE
  5
39
330
1F
100
AcDbEntity
  8
1
  6
DOT_CENTER
 62
     2
100
AcDbLine
 10
218.1092528042418
 20
-196.3452369788284
 30
0.0
 11
218.1092528042418
 21
-205.9452369788284
 31
0.0
  0
LINE
  5
3A
330
1F
100
AcDbEntity
  8
1
  6
DOT_CENTER
 62
     2
100
AcDbLine
 10
222.9092528042419
 20
-201.1452369788284
 30
0.0
 11
213.3092528042419
 21
-201.1452369788284
 31
0.0
  0
LINE
  5
3B
330
1F
100
AcDbEntity
  8
1
  6
DOT_CENTER
 62
     2
100
AcDbLine
 10
228.1092528042418
 20
-196.3452369788284
 30
0.0
 11
228.1092528042418
 21
-205.9452369788284
 31
0.0
  0
LINE
  5
3C
330
1F
100
AcDbEntity
  8
1
  6
DOT_CENTER
 62
     2
100
AcDbLine
 10
232.9092528042419
 20
-201.1452369788284
 30
0.0
 11
223.3092528042419
 21
-201.1452369788284
 31
0.0
  0
LINE
  5
3D
330
1F
100
AcDbEntity
  8
1
  6
DOT_CENTER
 62
     2
100
AcDbLine
 10
223.1092528042418
 20
-183.2452369144918
 30
0.0
 11
223.1092528042418
 21
-195.0452370431649
 31
0.0
  0
LINE
  5
3E
330
1F
100
AcDbEntity
  8
1
  6
DOT_CENTER
 62
     2
100
AcDbLine
 10
229.0092528685784
 20
-189.1452369788284
 30
0.0
 11
217.2092527399053
 21
-189.1452369788284
 31
0.0
  0
LINE
  5
3F
330
1F
100
AcDbEntity
  8
1
  6
DOT_CENTER
 62
     2
100
AcDbLine
 10
203.6092528042418
 20
-189.3452372935389
 30
0.0
 11
203.6092528042418
 21
-198.9452366641179
 31
0.0
  0
LINE
  5
40
330
1F
100
AcDbEntity
  8
1
  6
DOT_CENTER
 62
     2
100
AcDbLine
 10
208.4092524895314
 20
-194.1452369788284
 30
0.0
 11
198.8092531189524
 21
-194.1452369788284
 31
0.0
  0
LINE
  5
41
330
1F
100
AcDbEntity
  8
0
  6
Continuous
 62
     7
100
AcDbLine
 10
215.1092528042418
 20
-194.5675179788284
 30
0.0
 11
215.1092528042418
 21
-201.1452369788284
 31
0.0
  0
LINE
  5
42
330
1F
100
AcDbEntity
  8
0
  6
Continuous
 62
     7
100
AcDbLine
 10
222.0717155969419
 20
-193.1790428879284
 30
0.0
 11
220.5136592214419
 21
-193.5675098747284
 31
0.0
  0
LINE
  5
43
330
1F
100
AcDbEntity
  8
0
  6
Continuous
 62
     7
100
AcDbLine
 10
239.6548297000419
 20
-193.6242925696284
 30
0.0
 11
239.8896547395418
 21
-192.2925333455284
 31
0.0
  0
LINE
  5
44
330
1F
100
AcDbEntity
  8
0
  6
Continuous
 62
     7
100
AcDbLine
 10
242.8640182890987
 20
-189.2787395467862
 30
0.0
 11
245.0667087961418
 21
-192.4245079672284
 31
0.0
  0
LINE
  5
45
330
1F
100
AcDbEntity
  8
0
  6
Continuous
 62
     7
100
AcDbLine
 10
237.9200388042418
 20
-189.9452369788284
 30
0.0
 11
228.4168288507773
 21
-189.9452369788284
 31
0.0
  0
LINE
  5
46
330
1F
100
AcDbEntity
  8
0
  6
DASHED
 62
     2
100
AcDbLine
 10
234.2092528042418
 20
-187.1452369788284
 30
0.0
 11
237.0092528042418
 21
-189.9452369788284
 31
0.0
  0
LINE
  5
47
330
1F
100
AcDbEntity
  8
0
  6
Continuous
 62
     7
100
AcDbLine
 10
226.1092528042418
 20
-187.1452369788284
 30
0.0
 11
238.7672888042418
 21
-187.1452369788284
 31
0.0
  0
LINE
  5
48
330
1F
100
AcDbEntity
  8
0
  6
Continuous
 62
     7
100
AcDbLine
 10
216.2784050233419
 20
-191.7415127593284
 30
0.0
 11
221.3092672091543
 21
-186.7452262914813
 31
0.0
  0
LINE
  5
49
330
1F
100
AcDbEntity
  8
0
  6
Continuous
 62
     7
100
AcDbLine
 10
219.1848867559419
 20
-196.3533378752284
 30
0.0
 11
220.8286793482266
 21
-199.8784618322963
 31
0.0
  0
LINE
  5
4A
330
1F
100
AcDbEntity
  8
0
  6
DASHED
 62
     2
100
AcDbLine
 10
228.1629271798504
 20
-189.9612940408402
 30
0.0
 11
225.2323882648832
 21
-187.0257334385697
 31
0.0
  0
LINE
  5
4B
330
1F
100
AcDbEntity
  8
0
  6
Continuous
 62
     7
100
AcDbLine
 10
231.1092528042418
 20
-201.1452369788284
 30
0.0
 11
231.1092528042418
 21
-194.5675179788284
 31
0.0
  0
LINE
  5
4C
330
1F
100
AcDbEntity
  8
1
  6
Continuous
 62
     7
100
AcDbLine
 10
231.1092528042418
 20
-200.1452369788284
 30
0.0
 11
227.1148971468094
 21
-196.150881321396
 31
0.0
  0
LINE
  5
4D
330
1F
100
AcDbEntity
  8
0
  6
Continuous
 62
     7
100
AcDbLine
 10
229.9401005850418
 20
-191.7415127593284
 30
0.0
 11
228.1629271798504
 21
-189.9612940408402
 31
0.0
  0
LINE
  5
4E
330
1F
100
AcDbEntity
  8
0
  6
Continuous
 62
     7
100
AcDbLine
 10
227.0336188525419
 20
-196.3533378752284
 30
0.0
 11
225.3908331326624
 21
-199.8763025876285
 31
0.0
  0
LINE
  5
4F
330
1F
100
AcDbEntity
  8
0
  6
Continuous
 62
     7
100
AcDbLine
 10
224.1467900115418
 20
-193.1790428879284
 30
0.0
 11
225.7048463870418
 21
-193.5675098747284
 31
0.0
  0
LINE
  5
50
330
1F
100
AcDbEntity
  8
0
  6
Continuous
 62
     7
100
AcDbLine
 10
209.2092528042418
 20
-189.9452369788284
 30
0.0
 11
212.0092528042418
 21
-187.1452369788284
 31
0.0
  0
LINE
  5
51
330
1F
100
AcDbEntity
  8
0
  6
Continuous
 62
     7
100
AcDbLine
 10
208.2984668042419
 20
-189.9452369788284
 30
0.0
 11
217.803628714103
 21
-189.9452369788284
 31
0.0
  0
LINE
  5
52
330
1F
100
AcDbEntity
  8
0
  6
Continuous
 62
     7
100
AcDbLine
 10
206.5636757980278
 20
-193.6242925891034
 30
0.0
 11
206.3288508689419
 21
-192.2925333455284
 31
0.0
  0
LINE
  5
53
330
1F
100
AcDbEntity
  8
0
  6
Continuous
 62
     7
100
AcDbLine
 10
203.354487318995
 20
-189.2787395473432
 30
0.0
 11
201.1517968123418
 21
-192.4245079672284
 31
0.0
  0
LINE
  5
54
330
1F
100
AcDbEntity
  8
0
  6
Continuous
 62
     7
100
AcDbLine
 10
220.1092528042418
 20
-187.1452369788284
 30
0.0
 11
207.4512168042419
 21
-187.1452369788284
 31
0.0
  0
LINE
  5
55
330
1F
100
AcDbEntity
  8
0
  6
Continuous
 62
     7
100
AcDbLine
 10
224.6092528030221
 20
-204.345236978873
 30
0.0
 11
224.6092528030221
 21
-193.29434778393
 31
0.0
  0
LINE
  5
56
330
1F
100
AcDbEntity
  8
0
  6
Continuous
 62
     7
100
AcDbLine
 10
246.096184700722
 20
-194.9079201839933
 30
0.0
 11
244.6725657507722
 21
-191.0943598539171
 31
0.0
  0
LINE
  5
57
330
1F
100
AcDbEntity
  8
1
  6
DASHED
 62
     2
100
AcDbLine
 10
228.0462574437206
 20
-196.061435318
 30
0.0
 11
229.4649659544174
 21
-192.2610289749292
 31
0.0
  0
LINE
  5
58
330
1F
100
AcDbEntity
  8
0
  6
Continuous
 62
     7
100
AcDbLine
 10
224.6092528030221
 20
-186.5549016850138
 30
0.0
 11
224.6092528030221
 21
-186.345236978873
 31
0.0
  0
LINE
  5
59
330
1F
100
AcDbEntity
  8
0
  6
Continuous
 62
     7
100
AcDbLine
 10
234.6113502532189
 20
-204.345236978873
 30
0.0
 11
224.6092528042418
 21
-204.345236978873
 31
0.0
  0
LINE
  5
5A
330
1F
100
AcDbEntity
  8
1
  6
Continuous
 62
     7
100
AcDbLine
 10
231.1092528030221
 20
-204.345236978873
 30
0.0
 11
231.1092528030221
 21
-201.6450756358983
 31
0.0
  0
LINE
  5
5B
330
1F
100
AcDbEntity
  8
0
  6
Continuous
 62
     7
100
AcDbLine
 10
234.111188910896
 20
-202.345236978873
 30
0.0
 11
234.6113502532189
 21
-202.345236978873
 31
0.0
  0
LINE
  5
5C
330
1F
100
AcDbEntity
  8
0
  6
Continuous
 62
     7
100
AcDbLine
 10
247.6155451536123
 20
-189.6415261038648
 30
0.0
 11
247.6155451536123
 21
-198.4443687830655
 31
0.0
  0
LINE
  5
5D
330
1F
100
AcDbEntity
  8
0
  6
Continuous
 62
     7
100
AcDbLine
 10
242.613931730384
 20
-187.6408807350391
 30
0.0
 11
247.6155451536123
 21
-189.6415261038648
 31
0.0
  0
LINE
  5
5E
330
1F
100
AcDbEntity
  8
0
  6
Continuous
 62
     7
100
AcDbLine
 10
229.6097368299905
 20
-186.8906387208564
 30
0.0
 11
246.6152224689666
 21
-186.8906387208564
 31
0.0
  0
LINE
  5
5F
330
1F
100
AcDbEntity
  8
0
  6
Continuous
 62
     7
100
AcDbLine
 10
246.6152224689666
 20
-187.4908384379534
 30
0.0
 11
240.5939180031363
 21
-187.4908384379534
 31
0.0
  0
LINE
  5
60
330
1F
100
AcDbEntity
  8
0
  6
Continuous
 62
     7
100
AcDbLine
 10
242.1137703880613
 20
-200.6450756358983
 30
0.0
 11
232.1092528030221
 21
-200.6450756358983
 31
0.0
  0
LINE
  5
61
330
1F
100
AcDbEntity
  8
0
  6
Continuous
 62
     7
100
AcDbLine
 10
245.4886419027988
 20
-200.7951331968954
 30
0.0
 11
234.8114270046298
 21
-200.7951331968954
 31
0.0
  0
LINE
  5
62
330
1F
100
AcDbEntity
  8
0
  6
Continuous
 62
     7
100
AcDbLine
 10
247.6155451536123
 20
-198.4443687830655
 30
0.0
 11
242.1137703880613
 21
-200.6450756358983
 31
0.0
  0
LINE
  5
63
330
1F
100
AcDbEntity
  8
0
  6
Continuous
 62
     7
100
AcDbLine
 10
250.7085515782181
 20
-198.8968844180064
 30
0.0
 11
245.4886419027988
 21
-200.7951331968954
 31
0.0
  0
LINE
  5
64
330
1F
100
AcDbEntity
  8
0
  6
Continuous
 62
     7
100
AcDbLine
 10
251.6088358908837
 20
-201.6199969268938
 30
0.0
 11
249.6161905229037
 21
-202.345236978873
 31
0.0
  0
LINE
  5
65
330
1F
100
AcDbEntity
  8
0
  6
Continuous
 62
     7
100
AcDbLine
 10
225.6084460914079
 20
-186.345236978873
 30
0.0
 11
225.6084460914079
 21
-187.0815202199457
 31
0.0
  0
LINE
  5
66
330
1F
100
AcDbEntity
  8
0
  6
Continuous
 62
     7
100
AcDbLine
 10
234.111188910896
 20
-202.345236978873
 30
0.0
 11
234.111188910896
 21
-201.4953560239238
 31
0.0
  0
LINE
  5
67
330
1F
100
AcDbEntity
  8
0
  6
Continuous
 62
     7
100
AcDbLine
 10
234.6113502532189
 20
-202.345236978873
 30
0.0
 11
234.6113502532189
 21
-204.345236978873
 31
0.0
  0
LINE
  5
68
330
1F
100
AcDbEntity
  8
0
  6
Continuous
 62
     7
100
AcDbLine
 10
246.6152224689666
 20
-186.8906387208564
 30
0.0
 11
246.6152224689666
 21
-187.4908384379534
 31
0.0
  0
LINE
  5
69
330
1F
100
AcDbEntity
  8
0
  6
Continuous
 62
     7
100
AcDbLine
 10
248.8159445822183
 20
-186.8906387208564
 30
0.0
 11
248.8159445822183
 21
-186.345236978873
 31
0.0
  0
LINE
  5
6A
330
1F
100
AcDbEntity
  8
0
  6
Continuous
 62
     7
100
AcDbLine
 10
250.7085515782181
 20
-188.9894065548734
 30
0.0
 11
250.7085515782181
 21
-198.8968844180064
 31
0.0
  0
LINE
  5
6B
330
1F
100
AcDbEntity
  8
0
  6
Continuous
 62
     7
100
AcDbLine
 10
246.6152224689666
 20
-187.4908384379534
 30
0.0
 11
250.7085515782181
 21
-188.9894065548734
 31
0.0
  0
LINE
  5
6C
330
1F
100
AcDbEntity
  8
0
  6
Continuous
 62
     7
100
AcDbLine
 10
251.6088358908837
 20
-187.6408807350391
 30
0.0
 11
249.6161905229037
 21
-186.8906387208564
 31
0.0
  0
LINE
  5
6D
330
1F
100
AcDbEntity
  8
0
  6
Continuous
 62
     7
100
AcDbLine
 10
224.6092528042418
 20
-186.345236978873
 30
0.0
 11
248.8159445822183
 21
-186.345236978873
 31
0.0
  0
LINE
  5
6E
330
1F
100
AcDbEntity
  8
0
  6
Continuous
 62
     7
100
AcDbLine
 10
240.9377207383458
 20
-187.6408807350391
 30
0.0
 11
242.613931730384
 21
-187.6408807350391
 31
0.0
  0
LINE
  5
6F
330
1F
100
AcDbEntity
  8
0
  6
Continuous
 62
     7
100
AcDbLine
 10
229.6097368299905
 20
-187.1452369789196
 30
0.0
 11
229.6097368299905
 21
-186.345236978873
 31
0.0
  0
LINE
  5
70
330
1F
100
AcDbEntity
  8
0
  6
Continuous
 62
     7
100
AcDbLine
 10
246.6152224689666
 20
-186.8906387208564
 30
0.0
 11
249.6161905229037
 21
-186.8906387208564
 31
0.0
  0
LINE
  5
71
330
1F
100
AcDbEntity
  8
0
  6
Continuous
 62
     7
100
AcDbLine
 10
251.6088358908837
 20
-201.6199969268938
 30
0.0
 11
251.6088358908837
 21
-187.6408807350391
 31
0.0
  0
LINE
  5
72
330
1F
100
AcDbEntity
  8
1
  6
Continuous
 62
     7
100
AcDbLine
 10
225.6084460914079
 20
-204.345236978873
 30
0.0
 11
225.6084460914079
 21
-202.8023325678961
 31
0.0
  0
LINE
  5
73
330
1F
100
AcDbEntity
  8
1
  6
Continuous
 62
     7
100
AcDbLine
 10
248.8159445822183
 20
-186.345236978873
 30
0.0
 11
251.6088358908837
 21
-186.345236978873
 31
0.0
  0
LINE
  5
74
330
1F
100
AcDbEntity
  8
1
  6
Continuous
 62
     7
100
AcDbLine
 10
249.6161905229037
 20
-202.345236978873
 30
0.0
 11
251.6088358908837
 21
-202.345236978873
 31
0.0
  0
LINE
  5
75
330
1F
100
AcDbEntity
  8
1
  6
Continuous
 62
     7
100
AcDbLine
 10
251.6088358908837
 20
-187.6408807350391
 30
0.0
 11
251.6088358908837
 21
-186.345236978873
 31
0.0
  0
LINE
  5
76
330
1F
100
AcDbEntity
  8
1
  6
Continuous
 62
     7
100
AcDbLine
 10
251.6088358908837
 20
-201.6199969268938
 30
0.0
 11
251.6088358908837
 21
-202.345236978873
 31
0.0
  0
LINE
  5
77
330
1F
100
AcDbEntity
  8
0
  6
Continuous
 62
     7
100
AcDbLine
 10
234.6113502532189
 20
-202.345236978873
 30
0.0
 11
249.6161905229037
 21
-202.345236978873
 31
0.0
  0
LINE
  5
78
330
1F
100
AcDbEntity
  8
0
  6
Continuous
 62
     7
100
AcDbLine
 10
203.6071553528253
 20
-184.345236978873
 30
0.0
 11
211.1092528042433
 21
-184.345236978873
 31
0.0
  0
LINE
  5
79
330
1F
100
AcDbEntity
  8
0
  6
Continuous
 62
     7
100
AcDbLine
 10
197.6092528030221
 20
-185.1952278240652
 30
0.0
 11
197.6092528030221
 21
-201.495336837049
 31
0.0
  0
LINE
  5
7A
330
1F
100
AcDbEntity
  8
0
  6
Continuous
 62
     7
100
AcDbLine
 10
211.6071553528253
 20
-200.3449757789796
 30
0.0
 11
204.1047352179829
 21
-200.3449757789796
 31
0.0
  0
LINE
  5
7B
330
1F
100
AcDbEntity
  8
0
  6
Continuous
 62
     7
100
AcDbLine
 10
199.1071553528253
 20
-189.0650125328986
 30
0.0
 11
199.1071553528253
 21
-189.0024841198766
 31
0.0
  0
LINE
  5
7C
330
1F
100
AcDbEntity
  8
0
  6
Continuous
 62
     7
100
AcDbLine
 10
211.6071553528253
 20
-201.395233929071
 30
0.0
 11
211.6071553528253
 21
-200.3449757789796
 31
0.0
  0
LINE
  5
7D
330
1F
100
AcDbEntity
  8
1
  6
Continuous
 62
     7
100
AcDbLine
 10
199.1071553528253
 20
-190.3827343579916
 30
0.0
 11
199.1071553528253
 21
-196.3077334909768
 31
0.0
  0
LINE
  5
7E
330
1F
100
AcDbEntity
  8
0
  6
Continuous
 62
     7
100
AcDbLine
 10
211.6071553528253
 20
-201.395233929071
 30
0.0
 11
204.032150767738
 21
-201.395233929071
 31
0.0
  0
LINE
  5
7F
330
1F
100
AcDbEntity
  8
0
  6
Continuous
 62
     7
100
AcDbLine
 10
204.032150767738
 20
-201.395233929071
 30
0.0
 11
200.8286472782438
 21
-200.9447438709041
 31
0.0
  0
LINE
  5
80
330
1F
100
AcDbEntity
  8
0
  6
Continuous
 62
     7
100
AcDbLine
 10
199.1071553528253
 20
-198.9642304919263
 30
0.0
 11
199.1071553528253
 21
-196.3077334909768
 31
0.0
  0
LINE
  5
81
330
1F
100
AcDbEntity
  8
0
  6
Continuous
 62
     7
100
AcDbLine
 10
199.1071553528253
 20
-190.3827343579916
 30
0.0
 11
199.1071553528253
 21
-189.0650125328986
 31
0.0
  0
LINE
  5
82
330
1F
100
AcDbEntity
  8
0
  6
Continuous
 62
     7
100
AcDbLine
 10
201.6871682181899
 20
-186.0320277879083
 30
0.0
 11
206.5446553528253
 21
-185.345236978873
 31
0.0
  0
LINE
  5
83
330
1F
100
AcDbEntity
  8
0
  6
Continuous
 62
     7
100
AcDbLine
 10
219.6071553528253
 20
-184.845236978873
 30
0.0
 11
219.6071553528253
 21
-184.345236978873
 31
0.0
  0
LINE
  5
84
330
1F
100
AcDbEntity
  8
0
  6
Continuous
 62
     7
100
AcDbLine
 10
217.7446523010675
 20
-185.345236978873
 30
0.0
 11
219.6071553528253
 21
-184.845236978873
 31
0.0
  0
LINE
  5
85
330
1F
100
AcDbEntity
  8
0
  6
Continuous
 62
     7
100
AcDbLine
 10
206.5446553528253
 20
-185.345236978873
 30
0.0
 11
217.7446523010675
 21
-185.345236978873
 31
0.0
  0
LINE
  5
86
330
1F
100
AcDbEntity
  8
0
  6
Continuous
 62
     7
100
AcDbLine
 10
211.6071553528253
 20
-187.1452369789196
 30
0.0
 11
211.6071553528253
 21
-186.845236978873
 31
0.0
  0
LINE
  5
87
330
1F
100
AcDbEntity
  8
0
  6
Continuous
 62
     7
100
AcDbLine
 10
220.6100595146363
 20
-187.0815187840791
 30
0.0
 11
220.6100595146363
 21
-184.345236978873
 31
0.0
  0
LINE
  5
88
330
1F
100
AcDbEntity
  8
0
  6
Continuous
 62
     7
100
AcDbLine
 10
211.6071553528253
 20
-202.3456019609304
 30
0.0
 11
211.6071553528253
 21
-201.395233929071
 31
0.0
  0
LINE
  5
89
330
1F
100
AcDbEntity
  8
0
  6
Continuous
 62
     7
100
AcDbLine
 10
211.6071553528253
 20
-203.2445607389392
 30
0.0
 11
211.6071553528253
 21
-202.3456019609304
 31
0.0
  0
LINE
  5
8A
330
1F
100
AcDbEntity
  8
0
  6
Continuous
 62
     7
100
AcDbLine
 10
215.1082847490852
 20
-204.3462665168637
 30
0.0
 11
215.1082847490852
 21
-201.3452986380154
 31
0.0
  0
LINE
  5
8B
330
1F
100
AcDbEntity
  8
0
  6
Continuous
 62
     7
100
AcDbLine
 10
220.6100595146363
 20
-205.345236978873
 30
0.0
 11
220.6100595146363
 21
-204.3462665168637
 31
0.0
  0
LINE
  5
8C
330
1F
100
AcDbEntity
  8
0
  6
Continuous
 62
     7
100
AcDbLine
 10
197.6092528030221
 20
-185.1952278240652
 30
0.0
 11
203.6071553528253
 21
-184.345236978873
 31
0.0
  0
LINE
  5
8D
330
1F
100
AcDbEntity
  8
0
  6
Continuous
 62
     7
100
AcDbLine
 10
199.1071553528253
 20
-189.0650125328986
 30
0.0
 11
201.6039284989182
 21
-188.2410728199476
 31
0.0
  0
LINE
  5
8E
330
1F
100
AcDbEntity
  8
0
  6
Continuous
 62
     7
100
AcDbLine
 10
201.6039284989182
 20
-188.2410728199476
 30
0.0
 11
204.3275167345946
 21
-188.2410728199476
 31
0.0
  0
LINE
  5
8F
330
1F
100
AcDbEntity
  8
0
  6
Continuous
 62
     7
100
AcDbLine
 10
204.1047352179829
 20
-200.3449757789796
 30
0.0
 11
199.1074027940575
 21
-198.9956899240216
 31
0.0
  0
LINE
  5
90
330
1F
100
AcDbEntity
  8
0
  6
Continuous
 62
     7
100
AcDbLine
 10
203.6045738682095
 20
-202.3456019609304
 30
0.0
 11
197.6092528030221
 21
-201.495336837049
 31
0.0
  0
LINE
  5
91
330
1F
100
AcDbEntity
  8
0
  6
Continuous
 62
     7
100
AcDbLine
 10
214.1079620644395
 20
-200.3449757789796
 30
0.0
 11
211.6071553528253
 21
-200.3449757789796
 31
0.0
  0
LINE
  5
92
330
1F
100
AcDbEntity
  8
0
  6
Continuous
 62
     7
100
AcDbLine
 10
203.6045738682095
 20
-202.3456019609304
 30
0.0
 11
211.6071553528253
 21
-202.3456019609304
 31
0.0
  0
LINE
  5
93
330
1F
100
AcDbEntity
  8
0
  6
Continuous
 62
     7
100
AcDbLine
 10
221.6103821992818
 20
-204.3462665168637
 30
0.0
 11
220.6100595146363
 21
-204.3462665168637
 31
0.0
  0
LINE
  5
94
330
1F
100
AcDbEntity
  8
1
  6
Continuous
 62
     7
100
AcDbLine
 10
219.6071553528253
 20
-184.345236978873
 30
0.0
 11
220.6100595146363
 21
-184.345236978873
 31
0.0
  0
LINE
  5
95
330
1F
100
AcDbEntity
  8
1
  6
Continuous
 62
     7
100
AcDbLine
 10
220.6100595146363
 20
-184.345236978873
 30
0.0
 11
221.6092528042418
 21
-184.345236978873
 31
0.0
  0
LINE
  5
96
330
1F
100
AcDbEntity
  8
1
  6
Continuous
 62
     7
100
AcDbLine
 10
213.50776226818
 20
-205.345236978873
 30
0.0
 11
220.6100595146363
 21
-205.345236978873
 31
0.0
  0
LINE
  5
97
330
1F
100
AcDbEntity
  8
1
  6
Continuous
 62
     7
100
AcDbLine
 10
220.6100595146363
 20
-205.345236978873
 30
0.0
 11
221.6092528042418
 21
-205.345236978873
 31
0.0
  0
LINE
  5
98
330
1F
100
AcDbEntity
  8
0
  6
Continuous
 62
     7
100
AcDbLine
 10
220.6100595146363
 20
-204.3462665168637
 30
0.0
 11
215.1082847490852
 21
-204.3462665168637
 31
0.0
  0
LINE
  5
99
330
1F
100
AcDbEntity
  8
0
  6
Continuous
 62
     7
100
AcDbLine
 10
201.5459398627226
 20
-191.0943598539171
 30
0.0
 11
200.1223208978717
 21
-194.9079201839933
 31
0.0
  0
LINE
  5
9A
330
1F
100
AcDbEntity
  8
0
  6
Continuous
 62
     7
100
AcDbLine
 10
221.6092528030221
 20
-184.345236978873
 30
0.0
 11
221.6092528030221
 21
-186.5549016850138
 31
0.0
  0
LINE
  5
9B
330
1F
100
AcDbEntity
  8
0
  6
Continuous
 62
     7
100
AcDbLine
 10
221.6092528030221
 20
-205.345236978873
 30
0.0
 11
221.6092528030221
 21
-193.29434778393
 31
0.0
  0
LINE
  5
9C
330
1F
100
AcDbEntity
  8
1
  6
DASHED
 62
     2
100
AcDbLine
 10
216.7535396516267
 20
-192.2610289749292
 30
0.0
 11
218.1722481623236
 21
-196.061435318
 31
0.0
  0
LINE
  5
9D
330
1F
100
AcDbEntity
  8
1
  6
Continuous
 62
     7
100
AcDbLine
 10
203.6045738682095
 20
-202.3456019609304
 30
0.0
 11
197.6092528030221
 21
-202.3456019609304
 31
0.0
  0
LINE
  5
9E
330
1F
100
AcDbEntity
  8
1
  6
Continuous
 62
     7
100
AcDbLine
 10
197.6092528030221
 20
-201.495336837049
 30
0.0
 11
197.6092528030221
 21
-202.3456019609304
 31
0.0
  0
LINE
  5
9F
330
1F
100
AcDbEntity
  8
0
  6
Continuous
 62
     7
100
AcDbLine
 10
215.1082847490852
 20
-201.3452986380154
 30
0.0
 11
215.1082847490852
 21
-201.3452984629268
 31
0.0
  0
LINE
  5
A0
330
1F
100
AcDbEntity
  8
1
  6
Continuous
 62
     7
100
AcDbLine
 10
211.6071553528253
 20
-203.2445607389392
 30
0.0
 11
211.6071553528253
 21
-205.345236978873
 31
0.0
  0
LINE
  5
A1
330
1F
100
AcDbEntity
  8
1
  6
Continuous
 62
     7
100
AcDbLine
 10
213.50776226818
 20
-205.345236978873
 30
0.0
 11
211.6071553528253
 21
-205.345236978873
 31
0.0
  0
LINE
  5
A2
330
1F
100
AcDbEntity
  8
0
  6
Continuous
 62
     7
100
AcDbLine
 10
211.1092528042433
 20
-184.345236978873
 30
0.0
 11
219.6071553528253
 21
-184.345236978873
 31
0.0
  0
LINE
  5
A3
330
1F
100
AcDbEntity
  8
1
  6
Continuous
 62
     7
100
AcDbLine
 10
221.6092528042421
 20
-208.3452369788283
 30
0.0
 11
178.609252804242
 21
-208.3452369788284
 31
0.0
  0
LINE
  5
A4
330
1F
100
AcDbEntity
  8
1
  6
Continuous
 62
     7
100
AcDbLine
 10
234.6092528042421
 20
-179.3452369788284
 30
0.0
 11
234.6092528042421
 21
-117.5599502096961
 31
0.0
  0
LINE
  5
A5
330
1F
100
AcDbEntity
  8
1
  6
Continuous
 62
     7
100
AcDbLine
 10
221.6092528042421
 20
-179.3452369788283
 30
0.0
 11
234.6092528042421
 21
-179.3452369788284
 31
0.0
  0
LINE
  5
A6
330
1F
100
AcDbEntity
  8
1
  6
Continuous
 62
     7
100
AcDbLine
 10
222.6092528042421
 20
-181.0772877863973
 30
0.0
 11
222.6092528042421
 21
-180.3452369788284
 31
0.0
  0
LINE
  5
A7
330
1F
100
AcDbEntity
  8
1
  6
Continuous
 62
     7
100
AcDbLine
 10
223.9186538810005
 20
-183.3452369788284
 30
0.0
 11
222.6092528042421
 21
-181.0772877863973
 31
0.0
  0
LINE
  5
A8
330
1F
100
AcDbEntity
  8
1
  6
Continuous
 62
     7
100
AcDbLine
 10
232.2998517274836
 20
-183.3452369788284
 30
0.0
 11
223.9186538810005
 21
-183.3452369788284
 31
0.0
  0
LINE
  5
A9
330
1F
100
AcDbEntity
  8
1
  6
Continuous
 62
     7
100
AcDbLine
 10
233.6092528042421
 20
-181.0772877863973
 30
0.0
 11
232.2998517274836
 21
-183.3452369788284
 31
0.0
  0
LINE
  5
AA
330
1F
100
AcDbEntity
  8
1
  6
Continuous
 62
     7
100
AcDbLine
 10
233.6092528042421
 20
-180.3452369788284
 30
0.0
 11
233.6092528042421
 21
-181.0772877863973
 31
0.0
  0
LINE
  5
AB
330
1F
100
AcDbEntity
  8
1
  6
Continuous
 62
     7
100
AcDbLine
 10
222.6092528042421
 20
-180.3452369788284
 30
0.0
 11
233.6092528042421
 21
-180.3452369788284
 31
0.0
  0
LINE
  5
AC
330
1F
100
AcDbEntity
  8
1
  6
Continuous
 62
     7
100
AcDbLine
 10
234.6092528042421
 20
-181.3452369788284
 30
0.0
 11
234.6092528042421
 21
-179.3452369788284
 31
0.0
  0
LINE
  5
AD
330
1F
100
AcDbEntity
  8
1
  6
Continuous
 62
     7
100
AcDbLine
 10
232.8772019966732
 20
-184.3452369788284
 30
0.0
 11
234.6092528042421
 21
-181.3452369788284
 31
0.0
  0
LINE
  5
AE
330
1F
100
AcDbEntity
  8
1
  6
Continuous
 62
     7
100
AcDbLine
 10
223.3413036118109
 20
-184.3452369788284
 30
0.0
 11
232.8772019966732
 21
-184.3452369788284
 31
0.0
  0
LINE
  5
AF
330
1F
100
AcDbEntity
  8
1
  6
Continuous
 62
     7
100
AcDbLine
 10
221.6092528042421
 20
-181.3452369788284
 30
0.0
 11
223.3413036118109
 21
-184.3452369788284
 31
0.0
  0
LINE
  5
B0
330
1F
100
AcDbEntity
  8
1
  6
Continuous
 62
     7
100
AcDbLine
 10
221.6092528042421
 20
-179.3452369788283
 30
0.0
 11
221.6092528042421
 21
-184.3452369788283
 31
0.0
  0
LINE
  5
B1
330
1F
100
AcDbEntity
  8
1
  6
Continuous
 62
     7
100
AcDbLine
 10
221.6092528042421
 20
-205.3452369788283
 30
0.0
 11
221.6092528042421
 21
-208.3452369788283
 31
0.0
  0
LINE
  5
B2
330
1F
100
AcDbEntity
  8
1
  6
DASHED
 62
     2
100
AcDbLine
 10
209.8592528042419
 20
-159.5952369788284
 30
0.0
 11
207.6092528042419
 21
-157.3452369788283
 31
0.0
  0
LINE
  5
B3
330
1F
100
AcDbEntity
  8
1
  6
DASHED
 62
     2
100
AcDbLine
 10
211.6092528042419
 20
-159.5952369788284
 30
0.0
 11
209.8592528042419
 21
-159.5952369788284
 31
0.0
  0
LINE
  5
B4
330
1F
100
AcDbEntity
  8
1
  6
DASHED
 62
     2
100
AcDbLine
 10
209.8592528042419
 20
-148.0952369788284
 30
0.0
 11
209.8592528042419
 21
-142.5952369788284
 31
0.0
  0
LINE
  5
B5
330
1F
100
AcDbEntity
  8
1
  6
DASHED
 62
     2
100
AcDbLine
 10
209.8592528042419
 20
-142.5952369788284
 30
0.0
 11
207.6092528042419
 21
-140.3452369788284
 31
0.0
  0
LINE
  5
B6
330
1F
100
AcDbEntity
  8
1
  6
DASHED
 62
     2
100
AcDbLine
 10
211.6092528042419
 20
-142.5952369788284
 30
0.0
 11
209.8592528042419
 21
-142.5952369788284
 31
0.0
  0
LINE
  5
B7
330
1F
100
AcDbEntity
  8
1
  6
DASHED
 62
     2
100
AcDbLine
 10
209.8592528042419
 20
-148.0952369788284
 30
0.0
 11
207.6092528042419
 21
-150.3452369788284
 31
0.0
  0
LINE
  5
B8
330
1F
100
AcDbEntity
  8
1
  6
DASHED
 62
     2
100
AcDbLine
 10
211.6092528042419
 20
-148.0952369788284
 30
0.0
 11
209.8592528042419
 21
-148.0952369788284
 31
0.0
  0
LINE
  5
B9
330
1F
100
AcDbEntity
  8
1
  6
Continuous
 62
     7
100
AcDbLine
 10
211.609252804242
 20
-135.3452369788284
 30
0.0
 11
207.609252804242
 21
-135.3452369788284
 31
0.0
  0
LINE
  5
BA
330
1F
100
AcDbEntity
  8
1
  6
DOT_CENTER
 62
     2
100
AcDbLine
 10
211.609252804242
 20
-117.5599502096961
 30
0.0
 11
207.3773826702092
 21
-117.5599502096961
 31
0.0
  0
LINE
  5
BB
330
1F
100
AcDbEntity
  8
1
  6
DASHED
 62
     2
100
AcDbLine
 10
209.8592528042419
 20
-165.0952369788284
 30
0.0
 11
209.8592528042419
 21
-159.5952369788284
 31
0.0
  0
LINE
  5
BC
330
1F
100
AcDbEntity
  8
1
  6
DASHED
 62
     2
100
AcDbLine
 10
209.8592528042419
 20
-165.0952369788284
 30
0.0
 11
207.6092528042419
 21
-167.3452369788284
 31
0.0
  0
LINE
  5
BD
330
1F
100
AcDbEntity
  8
1
  6
DASHED
 62
     2
100
AcDbLine
 10
211.6092528042419
 20
-165.0952369788284
 30
0.0
 11
209.8592528042419
 21
-165.0952369788284
 31
0.0
  0
LINE
  5
BE
330
1F
100
AcDbEntity
  8
1
  6
Continuous
 62
     7
100
AcDbLine
 10
211.609252804242
 20
-184.3452369788283
 30
0.0
 11
211.609252804242
 21
-117.5599502096961
 31
0.0
  0
LINE
  5
BF
330
1F
100
AcDbEntity
  8
1
  6
Continuous
 62
     7
100
AcDbLine
 10
207.609252804242
 20
-135.3452369788284
 30
0.0
 11
207.6092528042421
 21
-184.3452369788283
 31
0.0
  0
LINE
  5
C0
330
1F
100
AcDbEntity
  8
1
  6
PHANTOM
 62
     2
100
AcDbLine
 10
228.109252804242
 20
-162.3452369788284
 30
0.0
 11
206.109252804242
 21
-162.3452369788284
 31
0.0
  0
LINE
  5
C1
330
1F
100
AcDbEntity
  8
1
  6
PHANTOM
 62
     2
100
AcDbLine
 10
228.109252804242
 20
-145.3452369788284
 30
0.0
 11
206.109252804242
 21
-145.3452369788284
 31
0.0
  0
LINE
  5
C2
330
1F
100
AcDbEntity
  8
1
  6
DOT_CENTER
 62
     2
100
AcDbLine
 10
234.6092528042421
 20
-117.5599502096961
 30
0.0
 11
241.623726021373
 21
-117.5599502096961
 31
0.0
  0
LINE
  5
C3
330
1F
100
AcDbEntity
  8
1
  6
DOT_CENTER
 62
     2
100
AcDbLine
 10
234.6092528042421
 20
-117.5599502096961
 30
0.0
 11
211.609252804242
 21
-117.5599502096961
 31
0.0
  0
LINE
  5
C4
330
1F
100
AcDbEntity
  8
1
  6
Continuous
 62
     7
100
AcDbLine
 10
178.609252804242
 20
-193.3452369788283
 30
0.0
 11
197.6092528042418
 21
-193.3452369788283
 31
0.0
  0
LINE
  5
C5
330
1F
100
AcDbEntity
  8
1
  6
Continuous
 62
     7
100
AcDbLine
 10
178.609252804242
 20
-193.3452369788283
 30
0.0
 11
178.609252804242
 21
-208.3452369788284
 31
0.0
  0
LINE
  5
C6
330
1F
100
AcDbEntity
  8
1
  6
Continuous
 62
     7
100
AcDbLine
 10
237.6092528042421
 20
-184.3452369788284
 30
0.0
 11
224.609252804242
 21
-184.3452369788284
 31
0.0
  0
LINE
  5
C7
330
1F
100
AcDbEntity
  8
1
  6
Continuous
 62
     7
100
AcDbLine
 10
237.6092528042421
 20
-168.3452369788284
 30
0.0
 11
237.6092528042421
 21
-184.3452369788284
 31
0.0
  0
LINE
  5
C8
330
1F
100
AcDbEntity
  8
1
  6
Continuous
 62
     7
100
AcDbLine
 10
269.609252804242
 20
-208.3452369788284
 30
0.0
 11
224.6092528042418
 21
-208.3452369788284
 31
0.0
  0
LINE
  5
C9
330
1F
100
AcDbEntity
  8
1
  6
Continuous
 62
     7
100
AcDbLine
 10
224.6092528042418
 20
-208.3452369788284
 30
0.0
 11
224.6092528042418
 21
-204.2452369788284
 31
0.0
  0
LINE
  5
CA
330
1F
100
AcDbEntity
  8
1
  6
PHANTOM
 62
     2
100
AcDbLine
 10
269.609252804242
 20
-208.3452369788284
 30
0.0
 11
269.609252804242
 21
-168.3452369788284
 31
0.0
  0
LINE
  5
CB
330
1F
100
AcDbEntity
  8
1
  6
PHANTOM
 62
     2
100
AcDbLine
 10
269.609252804242
 20
-210.1209675859319
 30
0.0
 11
269.609252804242
 21
-208.3452369788284
 31
0.0
  0
LINE
  5
CC
330
1F
100
AcDbEntity
  8
1
  6
Continuous
 62
     7
100
AcDbLine
 10
237.6092528042421
 20
-168.3452369788284
 30
0.0
 11
269.609252804242
 21
-168.3452369788284
 31
0.0
  0
LINE
  5
CD
330
1F
100
AcDbEntity
  8
1
  6
PHANTOM
 62
     2
100
AcDbLine
 10
269.609252804242
 20
-168.3452369788284
 30
0.0
 11
269.609252804242
 21
-163.5196902925655
 31
0.0
  0
LINE
  5
CE
330
1F
100
AcDbEntity
  8
1
  6
Continuous
 62
     7
100
AcDbLine
 10
224.6092528042418
 20
-186.3952369788284
 30
0.0
 11
224.609252804242
 21
-184.3452369788284
 31
0.0
  0
ARC
  5
CF
330
1F
100
AcDbEntity
  8
1
  6
Continuous
 62
     7
100
AcDbCircle
 10
223.1092528042418
 20
-189.1452369788284
 30
0.0
 40
2.999999906983866
100
AcDbArc
 50
53.13044491299246
 51
126.8695550870058
  0
ARC
  5
D0
330
1F
100
AcDbEntity
  8
0
  6
Continuous
 62
     7
100
AcDbCircle
 10
220.9975028042418
 20
-195.5081009788284
 30
0.0
 40
2.000000587400086
100
AcDbArc
 50
104.0002493777111
 51
-154.9999960591342
  0
ARC
  5
D1
330
1F
100
AcDbEntity
  8
0
  6
Continuous
 62
     7
100
AcDbCircle
 10
222.5555592736419
 20
-195.1196343690284
 30
0.0
 40
2.000000000000298
100
AcDbArc
 50
84.70508283238682
 51
103.9999966194169
  0
ARC
  5
D2
330
1F
100
AcDbEntity
  8
0
  6
Continuous
 62
     7
100
AcDbCircle
 10
223.1092528042418
 20
-189.1452369788284
 30
0.0
 40
4.000000058487776
100
AcDbArc
 50
-95.29491716816774
 51
-27.81813778990135
  0
ARC
  5
D3
330
1F
100
AcDbEntity
  8
0
  6
Continuous
 62
     7
100
AcDbCircle
 10
228.4158528042418
 20
-191.9452369788284
 30
0.0
 40
2.000000238166696
100
AcDbArc
 50
89.97203832867363
 51
152.1818622102274
  0
ARC
  5
D4
330
1F
100
AcDbEntity
  8
0
  6
Continuous
 62
     7
100
AcDbCircle
 10
242.6092528042418
 20
-194.1452369788284
 30
0.0
 40
2.99999971389945
100
AcDbArc
 50
170.0000018151076
 51
34.999996890672
  0
ARC
  5
D5
330
1F
100
AcDbEntity
  8
0
  6
Continuous
 62
     7
100
AcDbCircle
 10
237.9200388042418
 20
-191.9452369788284
 30
0.0
 40
2.000000000000322
100
AcDbArc
 50
-9.99999818488399
 51
90.0
  0
ARC
  5
D6
330
1F
100
AcDbEntity
  8
0
  6
Continuous
 62
     7
100
AcDbCircle
 10
238.7672888042418
 20
-192.1452369788284
 30
0.0
 40
5.000000000000056
100
AcDbArc
 50
34.98063096413191
 51
90.0
  0
ARC
  5
D7
330
1F
100
AcDbEntity
  8
0
  6
Continuous
 62
     7
100
AcDbCircle
 10
226.1092526503003
 20
-185.1452369749077
 30
0.0
 40
2.000000003920711
100
AcDbArc
 50
-126.8704078886109
 51
-89.9999955899009
  0
ARC
  5
D8
330
1F
100
AcDbEntity
  8
0
  6
Continuous
 62
     7
100
AcDbCircle
 10
219.1092528042418
 20
-194.5675179788284
 30
0.0
 40
4.000000000000139
100
AcDbArc
 50
135.0489633727968
 51
180.0
  0
ARC
  5
D9
330
1F
100
AcDbEntity
  8
0
  6
Continuous
 62
     7
100
AcDbCircle
 10
218.1092528042418
 20
-201.1452369788284
 30
0.0
 40
3.0
100
AcDbArc
 50
180.0
 51
24.97725091595625
  0
ARC
  5
DA
330
1F
100
AcDbEntity
  8
0
  6
DASHED
 62
     2
100
AcDbCircle
 10
223.1092528042418
 20
-189.1452369788284
 30
0.0
 40
2.999999906900363
100
AcDbArc
 50
44.95095183479431
 51
126.8695550870058
  0
ARC
  5
DB
330
1F
100
AcDbEntity
  8
0
  6
Continuous
 62
     7
100
AcDbCircle
 10
220.1092439756765
 20
-185.1452100277841
 30
0.0
 40
2.00002695106379
100
AcDbArc
 50
-89.99974708364238
 51
-53.12984943783776
  0
ARC
  5
DC
330
1F
100
AcDbEntity
  8
0
  6
Continuous
 62
     7
100
AcDbCircle
 10
227.1092528042418
 20
-194.5675179788284
 30
0.0
 40
4.0
100
AcDbArc
 50
0.0
 51
44.95095183510362
  0
ARC
  5
DD
330
1F
100
AcDbEntity
  8
0
  6
Continuous
 62
     7
100
AcDbCircle
 10
228.1092528042418
 20
-201.1452369788284
 30
0.0
 40
2.999999999999952
100
AcDbArc
 50
154.9772473927498
 51
0.0
  0
ARC
  5
DE
330
1F
100
AcDbEntity
  8
0
  6
Continuous
 62
     7
100
AcDbCircle
 10
223.6629463348419
 20
-195.1196343690284
 30
0.0
 40
2.000000000000094
100
AcDbArc
 50
76.00000338058553
 51
95.29491716761318
  0
ARC
  5
DF
330
1F
100
AcDbEntity
  8
0
  6
Continuous
 62
     7
100
AcDbCircle
 10
225.2210028042418
 20
-195.5081009788284
 30
0.0
 40
2.000000587397656
100
AcDbArc
 50
-25.00000394086336
 51
76.0000033786014
  0
ARC
  5
E0
330
1F
100
AcDbEntity
  8
0
  6
DASHED
 62
     2
100
AcDbCircle
 10
223.1092528042418
 20
-189.1452369788284
 30
0.0
 40
4.000000058499872
100
AcDbArc
 50
-152.1818622100979
 51
-84.70508283182943
  0
ARC
  5
E1
330
1F
100
AcDbEntity
  8
0
  6
Continuous
 62
     7
100
AcDbCircle
 10
217.8026528042419
 20
-191.9452369788284
 30
0.0
 40
2.000000238100026
100
AcDbArc
 50
82.73476168625548
 51
89.97204224410507
  0
ARC
  5
E2
330
1F
100
AcDbEntity
  8
0
  6
DASHED
 62
     2
100
AcDbCircle
 10
217.8026528042419
 20
-191.9452369788284
 30
0.0
 40
2.000000238166721
100
AcDbArc
 50
27.81813778977222
 51
82.73476168625548
  0
ARC
  5
E3
330
1F
100
AcDbEntity
  8
0
  6
Continuous
 62
     7
100
AcDbCircle
 10
208.2984666260527
 20
-191.9452371911963
 30
0.0
 40
2.000000212367902
100
AcDbArc
 50
89.99999489525527
 51
-170.0000069198622
  0
ARC
  5
E4
330
1F
100
AcDbEntity
  8
0
  6
Continuous
 62
     7
100
AcDbCircle
 10
203.6092528042418
 20
-194.1452369788284
 30
0.0
 40
2.999999713914515
100
AcDbArc
 50
145.0000031093283
 51
9.99999818489213
  0
ARC
  5
E5
330
1F
100
AcDbEntity
  8
0
  6
Continuous
 62
     7
100
AcDbCircle
 10
207.4512168042419
 20
-192.1452369788284
 30
0.0
 40
5.0
100
AcDbArc
 50
90.0
 51
145.0193690436598
  0
ARC
  5
E6
330
1F
100
AcDbEntity
  8
0
  6
Continuous
 62
     7
100
AcDbCircle
 10
245.1593343095996
 20
-195.2576505803576
 30
0.0
 40
1.000000002743714
100
AcDbArc
 50
-64.31920209639108
 51
20.47082578444105
  0
ARC
  5
E7
330
1F
100
AcDbEntity
  8
0
  6
Continuous
 62
     7
100
AcDbCircle
 10
243.735715362108
 20
-191.444090252776
 30
0.0
 40
1.000000001313166
100
AcDbArc
 50
20.47082596760117
 51
92.93306118728212
  0
ARC
  5
E8
330
1F
100
AcDbEntity
  8
1
  6
DASHED
 62
     2
100
AcDbCircle
 10
243.7357153579367
 20
-191.4440902523583
 30
0.0
 40
1.000000000682549
100
AcDbArc
 50
92.93306094982297
 51
116.8591055193401
  0
ARC
  5
E9
330
1F
100
AcDbEntity
  8
1
  6
DASHED
 62
     2
100
AcDbCircle
 10
235.6146448677341
 20
-175.4082292189296
 30
0.0
 40
16.97499999904698
100
AcDbArc
 50
-75.32764300541965
 51
-63.14089444347223
  0
ARC
  5
EA
330
1F
100
AcDbEntity
  8
0
  6
Continuous
 62
     7
100
AcDbCircle
 10
235.6146448695492
 20
-175.4082292171564
 30
0.0
 40
23.02500000185651
100
AcDbArc
 50
-101.2941943923539
 51
-64.3192023795723
  0
ARC
  5
EB
330
1F
100
AcDbEntity
  8
1
  6
DASHED
 62
     2
100
AcDbCircle
 10
235.614644901756
 20
-175.4082292251983
 30
0.0
 40
23.02500000027797
100
AcDbArc
 50
-107.5231641396263
 51
-101.2941944748649
  0
ARC
  5
EC
330
1F
100
AcDbEntity
  8
1
  6
DOT_CENTER
 62
     2
100
AcDbCircle
 10
235.6146448676456
 20
-175.4082292173023
 30
0.0
 40
20.00000000054516
100
AcDbArc
 50
-112.8847335666415
 51
-56.98750613962285
  0
ARC
  5
ED
330
1F
100
AcDbEntity
  8
1
  6
DASHED
 62
     2
100
AcDbCircle
 10
230.2744728699271
 20
-192.52434177106
 30
0.0
 40
0.8512549997464545
100
AcDbArc
 50
113.12912270238
 51
161.9815606853395
  0
ARC
  5
EE
330
1F
100
AcDbEntity
  8
0
  6
Continuous
 62
     7
100
AcDbCircle
 10
230.4018163438345
 20
-192.6107593714974
 30
0.0
 40
0.9999999995393305
100
AcDbArc
 50
73.14178252001331
 51
118.0103407897235
  0
ARC
  5
EF
330
1F
100
AcDbEntity
  8
0
  6
Continuous
 62
     7
100
AcDbCircle
 10
235.6146448718439
 20
-175.408229217112
 30
0.0
 40
16.97499999976433
100
AcDbArc
 50
-106.8582175785751
 51
-75.32764302039297
  0
ARC
  5
F0
330
1F
100
AcDbEntity
  8
0
  6
Continuous
 62
     7
100
AcDbCircle
 10
234.8114193711939
 20
-201.4953636571933
 30
0.0
 40
0.700230460339467
100
AcDbArc
 50
89.99937540040744
 51
179.999375414026
  0
ARC
  5
F1
330
1F
100
AcDbEntity
  8
0
  6
Continuous
 62
     7
100
AcDbCircle
 10
207.6071553528253
 20
-193.3452339244842
 30
0.0
 40
9.001466751672686
100
AcDbArc
 50
160.7850540294024
 51
-160.7850540294024
  0
ARC
  5
F2
330
1F
100
AcDbEntity
  8
0
  6
Continuous
 62
     7
100
AcDbCircle
 10
213.1071553528253
 20
-186.845236978873
 30
0.0
 40
1.500000000000024
100
AcDbArc
 50
89.99998975471624
 51
180.0
  0
ARC
  5
F3
330
1F
100
AcDbEntity
  8
0
  6
Continuous
 62
     7
100
AcDbCircle
 10
213.6078007219996
 20
-203.3445919708056
 30
0.0
 40
2.003144563067621
100
AcDbArc
 50
177.1376243864603
 51
-92.86258244053788
  0
ARC
  5
F4
330
1F
100
AcDbEntity
  8
0
  6
Continuous
 62
     7
100
AcDbCircle
 10
214.1079620647888
 20
-201.345298463276
 30
0.0
 40
1.000322684296451
100
AcDbArc
 50
-0.00001000859878
 51
90.00000002000387
  0
ARC
  5
F5
330
1F
100
AcDbEntity
  8
0
  6
Continuous
 62
     7
100
AcDbCircle
 10
210.6038607391465
 20
-175.4082292184314
 30
0.0
 40
23.02499999862775
100
AcDbArc
 50
-115.6807976110402
 51
-78.705805631676
  0
ARC
  5
F6
330
1F
100
AcDbEntity
  8
0
  6
Continuous
 62
     7
100
AcDbCircle
 10
215.8166892600674
 20
-192.6107593712883
 30
0.0
 40
1.000000000878645
100
AcDbArc
 50
61.98969150828135
 51
106.8582177745371
  0
ARC
  5
F7
330
1F
100
AcDbEntity
  8
0
  6
Continuous
 62
     7
100
AcDbCircle
 10
210.603860730222
 20
-175.4082292170457
 30
0.0
 40
16.97499999882075
100
AcDbArc
 50
-104.6723569665602
 51
-73.14178243270605
  0
ARC
  5
F8
330
1F
100
AcDbEntity
  8
0
  6
Continuous
 62
     7
100
AcDbCircle
 10
202.4827902468957
 20
-191.4440902459383
 30
0.0
 40
0.9999999947142515
100
AcDbArc
 50
87.06693853568977
 51
159.5291743094353
  0
ARC
  5
F9
330
1F
100
AcDbEntity
  8
0
  6
Continuous
 62
     7
100
AcDbCircle
 10
201.0591712872061
 20
-195.2576505759153
 30
0.0
 40
0.9999999995149252
100
AcDbArc
 50
159.5291744181837
 51
-115.6807969315476
  0
ARC
  5
FA
330
1F
100
AcDbEntity
  8
1
  6
DASHED
 62
     2
100
AcDbCircle
 10
202.4827902467263
 20
-191.4440902539728
 30
0.0
 40
1.000000002746894
100
AcDbArc
 50
63.14089445186004
 51
87.06693854955562
  0
ARC
  5
FB
330
1F
100
AcDbEntity
  8
1
  6
DASHED
 62
     2
100
AcDbCircle
 10
210.6038607373734
 20
-175.4082292213995
 30
0.0
 40
16.97499999642033
100
AcDbArc
 50
-116.8591055574739
 51
-104.6723569936334
  0
ARC
  5
FC
330
1F
100
AcDbEntity
  8
1
  6
DASHED
 62
     2
100
AcDbCircle
 10
215.9440327345779
 20
-192.5243417775237
 30
0.0
 40
0.8512550033685805
100
AcDbArc
 50
18.01843969633279
 51
66.87087783440931
  0
ARC
  5
FD
330
1F
100
AcDbEntity
  8
1
  6
DASHED
 62
     2
100
AcDbCircle
 10
210.6038607368287
 20
-175.4082292149239
 30
0.0
 40
23.02500000252128
100
AcDbArc
 50
-78.70580562772946
 51
-72.47683592760812
  0
ARC
  5
FE
330
1F
100
AcDbEntity
  8
1
  6
DOT_CENTER
 62
     2
100
AcDbCircle
 10
210.6038607388216
 20
-175.4082292188046
 30
0.0
 40
19.99999999826913
100
AcDbArc
 50
-121.766769139177
 51
-66.97291285317135
  0
CIRCLE
  5
FF
330
1F
100
AcDbEntity
  8
0
  6
Continuous
 62
     7
100
AcDbCircle
 10
223.1092528042418
 20
-189.1452369788284
 30
0.0
 40
1.700000000000102
  0
CIRCLE
  5
100
330
1F
100
AcDbEntity
  8
0
  6
Continuous
 62
     7
100
AcDbCircle
 10
242.6092528042418
 20
-194.1452369788284
 30
0.0
 40
1.950000000000102
  0
CIRCLE
  5
101
330
1F
100
AcDbEntity
  8
0
  6
Continuous
 62
     7
100
AcDbCircle
 10
218.1092528042418
 20
-201.1452369788284
 30
0.0
 40
1.700000000000102
  0
CIRCLE
  5
102
330
1F
100
AcDbEntity
  8
0
  6
Continuous
 62
     7
100
AcDbCircle
 10
203.6092528042418
 20
-194.1452369788284
 30
0.0
 40
1.950000000000102
  0
CIRCLE
  5
103
330
1F
100
AcDbEntity
  8
0
  6
Continuous
 62
     7
100
AcDbCircle
 10
228.1092528042418
 20
-201.1452369788284
 30
0.0
 40
1.700000000000102
  0
ARC
  5
104
330
1F
100
AcDbEntity
  8
1
  6
DASHED
 62
     2
100
AcDbCircle
 10
228.9831078275983
 20
-196.4111657148761
 30
0.0
 40
0.9999999961354458
100
AcDbArc
 50
159.5291740429201
 51
-107.5231635698321
  0
ARC
  5
105
330
1F
100
AcDbEntity
  8
1
  6
Continuous
 62
     7
100
AcDbCircle
 10
232.1092528030221
 20
-201.6450756358983
 30
0.0
 40
1.0
100
AcDbArc
 50
90.0
 51
180.0
  0
ARC
  5
106
330
1F
100
AcDbEntity
  8
1
  6
Continuous
 62
     7
100
AcDbCircle
 10
201.1071553528253
 20
-198.9642304919263
 30
0.0
 40
2.0
100
AcDbArc
 50
180.0
 51
-98.00468291870025
  0
ARC
  5
107
330
1F
100
AcDbEntity
  8
1
  6
Continuous
 62
     7
100
AcDbCircle
 10
202.1071553528253
 20
-189.0024841198766
 30
0.0
 40
3.000000002231643
100
AcDbArc
 50
98.04759808704986
 51
180.0
  0
ARC
  5
108
330
1F
100
AcDbEntity
  8
1
  6
DASHED
 62
     2
100
AcDbCircle
 10
217.2353977784459
 20
-196.4111657148761
 30
0.0
 40
0.9999999989942512
100
AcDbArc
 50
-72.47683602308439
 51
20.47082595707992
  0
DIMENSION
  5
114
330
1F
100
AcDbEntity
  8
1
100
AcDbDimension
  2
*D1
 10
279.250765445773
 20
-186.345236978873
 30
0.0
 11
275.500765445773
 21
-195.165172844791
 31
0.0
 70
    32
  1
<>
 71
     5
 42
-1.0
 53
90.0
  3
ME10_DIM_10
100
AcDbAlignedDimension
 13
249.6161905229037
 23
-202.345236978873
 33
0.0
 14
251.6088358908837
 24
-186.345236978873
 34
0.0
 50
90.0
100
AcDbRotatedDimension
  0
DIMENSION
  5
11F
330
1F
100
AcDbEntity
  8
1
100
AcDbDimension
  2
*D2
 10
168.418712178793
 20
-184.345236978873
 30
0.0
 11
164.668712178793
 21
-193.039651813903
 31
0.0
 70
    32
  1
<>
 71
     5
 42
-1.0
 53
90.0
  3
ME10_DIM_11
100
AcDbAlignedDimension
 13
197.6092528030221
 23
-202.3456019609304
 33
0.0
 14
203.6071553528253
 24
-184.345236978873
 34
0.0
 50
90.0
100
AcDbRotatedDimension
  0
DIMENSION
  5
12A
330
1F
100
AcDbEntity
  8
1
100
AcDbDimension
  2
*D3
 10
224.6092528042418
 20
-218.5784634498689
 30
0.0
 11
239.399757454633
 21
-214.8284634498689
 31
0.0
 70
    32
  1
<>
 71
     5
 42
-1.0
 53
0.00013888888889
  3
ME10_DIM_12
100
AcDbAlignedDimension
 13
251.6088358908837
 23
-201.6199969268938
 33
0.0
 14
224.6092528042418
 24
-208.3452369788284
 34
0.0
100
AcDbRotatedDimension
  0
DIMENSION
  5
135
330
1F
100
AcDbEntity
  8
1
100
AcDbDimension
  2
*D4
 10
197.6092528030221
 20
-218.5784634498689
 30
0.0
 11
209.416548876334
 21
-214.8284634498689
 31
0.0
 70
    32
  1
<>
 71
     5
 42
-1.0
 53
0.00013888888889
  3
ME10_DIM_13
100
AcDbAlignedDimension
 13
221.6092528042421
 23
-208.3452369788283
 33
0.0
 14
197.6092528030221
 24
-202.3456019609304
 34
0.0
100
AcDbRotatedDimension
  0
DIMENSION
  5
142
330
1F
100
AcDbEntity
  8
1
100
AcDbDimension
  2
*D5
 10
289.459946055579
 20
-208.3452369788284
 30
0.0
 11
285.709946055579
 21
-212.631753763622
 31
0.0
 70
    32
  1
<>
 71
     5
 42
-1.0
 53
90.0
  3
ME10_DIM_14
100
AcDbAlignedDimension
 13
234.6113502532189
 23
-204.345236978873
 33
0.0
 14
224.6092528042418
 24
-208.3452369788284
 34
0.0
 50
90.0
100
AcDbRotatedDimension
  0
DIMENSION
  5
14D
330
1F
100
AcDbEntity
  8
1
100
AcDbDimension
  2
*D6
 10
289.459946055579
 20
-204.345236978873
 30
0.0
 11
285.709946055579
 21
-196.345236978873
 31
0.0
 70
    32
  1
<>
 71
     5
 42
-1.0
 53
90.0
  3
ME10_DIM_15
100
AcDbAlignedDimension
 13
251.6088358908837
 23
-186.345236978873
 33
0.0
 14
234.6113502532189
 24
-204.345236978873
 34
0.0
 50
90.0
100
AcDbRotatedDimension
  0
DIMENSION
  5
15A
330
1F
100
AcDbEntity
  8
1
100
AcDbDimension
  2
*D7
 10
221.6092528042421
 20
-218.5784634498689
 30
0.0
 11
223.310203299086
 21
-223.195374558843
 31
0.0
 70
    32
  1
<>
 71
     5
 42
-1.0
 53
0.00013888888889
  3
ME10_DIM_16
100
AcDbAlignedDimension
 13
224.6092528042418
 23
-208.3452369788284
 33
0.0
 14
221.6092528042421
 24
-208.3452369788283
 34
0.0
100
AcDbRotatedDimension
  0
DIMENSION
  5
165
330
1F
100
AcDbEntity
  8
1
100
AcDbDimension
  2
*D8
 10
159.75506959535
 20
-184.345236978873
 30
0.0
 11
156.00506959535
 21
-193.907864866226
 31
0.0
 70
    32
  1
<>
 71
     5
 42
-1.0
 53
90.0
  3
ME10_DIM_17
100
AcDbAlignedDimension
 13
211.6071553528253
 23
-205.345236978873
 33
0.0
 14
203.6071553528253
 24
-184.345236978873
 34
0.0
 50
90.0
100
AcDbRotatedDimension
  0
DIMENSION
  5
172
330
1F
100
AcDbEntity
  8
1
100
AcDbDimension
  2
*D9
 10
159.75506959535
 20
-205.345236978873
 30
0.0
 11
156.00506959535
 21
-206.8452369788507
 31
0.0
 70
    32
  1
<>
 71
     5
 42
-1.0
 53
90.0
  3
ME10_DIM_18
100
AcDbAlignedDimension
 13
178.609252804242
 23
-208.3452369788284
 33
0.0
 14
211.6071553528253
 24
-205.345236978873
 34
0.0
 50
90.0
100
AcDbRotatedDimension
  0
ENDSEC
  0
SECTION
  2
OBJECTS
  0
DICTIONARY
  5
C
330
0
100
AcDbDictionary
281
     1
  3
ACAD_GROUP
350
D
  3
ACAD_LAYOUT
350
1A
  3
ACAD_MLINESTYLE
350
17
  3
ACAD_PLOTSETTINGS
350
19
  3
ACAD_PLOTSTYLENAME
350
E
  0
DICTIONARY
  5
D
102
{ACAD_REACTORS
330
C
102
}
330
C
100
AcDbDictionary
281
     1
  0
DICTIONARY
  5
1A
102
{ACAD_REACTORS
330
C
102
}
330
C
100
AcDbDictionary
281
     1
  3
Layout1
350
1E
  3
Layout2
350
26
  3
Model
350
22
  0
DICTIONARY
  5
17
102
{ACAD_REACTORS
330
C
102
}
330
C
100
AcDbDictionary
281
     1
  3
Standard
350
18
  0
DICTIONARY
  5
19
102
{ACAD_REACTORS
330
C
102
}
330
C
100
AcDbDictionary
281
     1
  0
ACDBDICTIONARYWDFLT
  5
E
102
{ACAD_REACTORS
330
C
102
}
330
C
100
AcDbDictionary
281
     1
  3
Normal
350
F
100
AcDbDictionaryWithDefault
340
F
  0
LAYOUT
  5
1E
102
{ACAD_REACTORS
330
1A
102
}
330
1A
100
AcDbPlotSettings
  1

  2

  4

  6

 40
0.0
 41
0.0
 42
0.0
 43
0.0
 44
0.0
 45
0.0
 46
0.0
 47
0.0
 48
0.0
 49
0.0
140
0.0
141
0.0
142
1.0
143
1.0
 70
   688
 72
     0
 73
     0
 74
     5
  7

 75
    16
 76
     0
 77
     2
 78
   300
147
1.0
148
0.0
149
0.0
100
AcDbLayout
  1
Layout1
 70
     1
 71
     1
 10
0.0
 20
0.0
 11
0.0
 21
0.0
 12
0.0
 22
0.0
 32
0.0
 14
0.0
 24
0.0
 34
0.0
 15
0.0
 25
0.0
 35
0.0
146
0.0
 13
0.0
 23
0.0
 33
0.0
 16
1.0
 26
0.0
 36
0.0
 17
0.0
 27
1.0
 37
0.0
 76
     0
330
1B
  0
LAYOUT
  5
26
102
{ACAD_REACTORS
330
1A
102
}
330
1A
100
AcDbPlotSettings
  1

  2

  4

  6

 40
0.0
 41
0.0
 42
0.0
 43
0.0
 44
0.0
 45
0.0
 46
0.0
 47
0.0
 48
0.0
 49
0.0
140
0.0
141
0.0
142
1.0
143
1.0
 70
   688
 72
     0
 73
     0
 74
     5
  7

 75
    16
 76
     0
 77
     2
 78
   300
147
1.0
148
0.0
149
0.0
100
AcDbLayout
  1
Layout2
 70
     1
 71
     2
 10
0.0
 20
0.0
 11
0.0
 21
0.0
 12
0.0
 22
0.0
 32
0.0
 14
0.0
 24
0.0
 34
0.0
 15
0.0
 25
0.0
 35
0.0
146
0.0
 13
0.0
 23
0.0
 33
0.0
 16
1.0
 26
0.0
 36
0.0
 17
0.0
 27
1.0
 37
0.0
 76
     0
330
23
  0
LAYOUT
  5
22
102
{ACAD_REACTORS
330
1A
102
}
330
1A
100
AcDbPlotSettings
  1

  2

  4

  6

 40
0.0
 41
0.0
 42
0.0
 43
0.0
 44
0.0
 45
0.0
 46
0.0
 47
0.0
 48
0.0
 49
0.0
140
0.0
141
0.0
142
1.0
143
1.0
 70
  1712
 72
     0
 73
     0
 74
     0
  7

 75
     0
 76
     0
 77
     2
 78
   300
147
1.0
148
0.0
149
0.0
100
AcDbLayout
  1
Model
 70
     1
 71
     0
 10
0.0
 20
0.0
 11
0.0
 21
0.0
 12
0.0
 22
0.0
 32
0.0
 14
154.25506959535
 24
-224.945374558843
 34
0.0
 15
291.459946055579
 25
-117.5599502096961
 35
0.0
146
0.0
 13
0.0
 23
0.0
 33
0.0
 16
1.0
 26
0.0
 36
0.0
 17
0.0
 27
1.0
 37
0.0
 76
     0
330
1F
  0
MLINESTYLE
  5
18
102
{ACAD_REACTORS
330
17
102
}
330
17
100
AcDbMlineStyle
  2
Standard
 70
     0
  3

 62
   256
 51
90.0
 52
90.0
 71
     2
 49
0.5
 62
   256
  6
BYLAYER
 49
-0.5
 62
   256
  6
BYLAYER
  0
ACDBPLACEHOLDER
  5
F
102
{ACAD_REACTORS
330
E
102
}
330
E
  0
ENDSEC
  0
EOF
