999
DXF file: d:\tmp\workingDir\0000102989\5_400441_0_00000_mkt_v_01_01.dxf
999
Pro/ENGINEER 2016380 by Parametric Technology Corporation
  0
SECTION
  2
HEADER
  9
$ACADVER
  1
AC1014
  9
$DWGCODEPAGE
  3
ANSI_1252
  9
$EXTMAX
 10
100.076
 20
180.0
 30
0.0
  9
$EXTMIN
 10
0.0
 20
0.0
 30
0.0
  9
$LIMMIN
 10
0.0
 20
0.0
  9
$LIMMAX
 10
100.076
 20
180.0
  9
$VIEWCTR
 10
50.038
 20
90.0
  9
$VIEWSIZE
 40
180.0
  9
$CLAYER
  8
0
  9
$LTSCALE
 40
11.7333333333
  9
$CELTYPE
  6
BYLAYER
  9
$DIMSCALE
 40
1.0
  9
$DIMASZ
 40
3.5
  9
$DIMEXO
 40
0.0
  9
$DIMDLI
 40
8.1066666667
  9
$DIMEXE
 40
2.0
  9
$DIMCEN
 40
1.92
  9
$DIMLFAC
 40
1.0
  9
$DIMBLK
  1
_ARROW_FILLED
  9
$DIMALT
 70
0
  9
$DIMALTF
 40
25.4
  9
$DIMTXT
 40
3.5
  9
$DIMTOL
 70
1
  9
$DIMLIM
 70
0
  9
$DIMTFAC
 40
1.0
  9
$DIMTP
 40
0.01
  9
$DIMTM
 40
0.01
  9
$DIMGAP
 40
0.625
  9
$AUNITS
 70
0
  9
$PDMODE
 70
0
  9
$PDSIZE
 40
0.04
  9
$HANDSEED
  5
339
  9
$TILEMODE
 70
1
  9
$MEASUREMENT
 70
1
  0
ENDSEC
  0
SECTION
  2
CLASSES
  0
ENDSEC
  0
SECTION
  2
TABLES
  0
TABLE
  2
VPORT
  5
8
100
AcDbSymbolTable
 70
2
  0
VPORT
  5
1F4
100
AcDbSymbolTableRecord
100
AcDbViewportTableRecord
  2
*ACTIVE
 70
0
 10
0.0
 20
0.0
 11
1.0
 21
1.0
 12
50.038
 22
90.0
 13
0.0
 23
0.0
 14
1.0
 24
1.0
 15
0.0
 25
0.0
 16
0.0
 26
0.0
 36
1.0
 17
0.0
 27
0.0
 37
0.0
 40
180.0
 41
0.5559777778
 42
50.0
 43
0.0
 44
0.0
 50
0.0
 51
0.0
 71
0
 72
100
 73
1
 74
1
 75
0
 76
0
 77
0
 78
0
  0
ENDTAB
  0
TABLE
  2
LTYPE
  5
5
100
AcDbSymbolTable
 70
6
  0
LTYPE
  5
14
100
AcDbSymbolTableRecord
100
AcDbLinetypeTableRecord
  2
BYBLOCK
 70
0
  3

 72
65
 73
0
 40
0.0
  0
LTYPE
  5
15
100
AcDbSymbolTableRecord
100
AcDbLinetypeTableRecord
  2
BYLAYER
 70
0
  3

 72
65
 73
0
 40
0.0
  0
LTYPE
  5
16
100
AcDbSymbolTableRecord
100
AcDbLinetypeTableRecord
  2
CONTINUOUS
 70
64
  3
Solid line
 72
65
 73
0
 40
0.0
  0
LTYPE
  5
1F5
100
AcDbSymbolTableRecord
100
AcDbLinetypeTableRecord
  2
CENTER
 70
64
  3
____ _ ____ _ ____ _ ____ _ ____ _ ____ _ ____
 72
65
 73
4
 40
0.6
 49
0.375
 74
0
 49
-0.075
 74
0
 49
0.075
 74
0
 49
-0.075
 74
0
  0
LTYPE
  5
1F6
100
AcDbSymbolTableRecord
100
AcDbLinetypeTableRecord
  2
HIDDEN
 70
64
  3
- - - - - - - - - - - - - - - - - - - -
 72
65
 73
2
 40
0.2
 49
0.1
 74
0
 49
-0.1
 74
0
  0
LTYPE
  5
1F7
100
AcDbSymbolTableRecord
100
AcDbLinetypeTableRecord
  2
PHANTOM
 70
64
  3
_____ _ _ _____ _ _ _____ _ _ _____
 72
65
 73
6
 40
0.8
 49
0.45
 74
0
 49
-0.05
 74
0
 49
0.1
 74
0
 49
-0.05
 74
0
 49
0.1
 74
0
 49
-0.05
 74
0
  0
LTYPE
  5
1F8
100
AcDbSymbolTableRecord
100
AcDbLinetypeTableRecord
  2
DOT
 70
64
  3
. . . . . . . . . . . . . . . . . . . .
 72
65
 73
2
 40
0.2
 49
0.1
 74
0
 49
-0.1
 74
0
  0
LTYPE
  5
1F9
100
AcDbSymbolTableRecord
100
AcDbLinetypeTableRecord
  2
DASHED
 70
64
  3
- - - - - - - - - - - - - - - - - - - -
 72
65
 73
2
 40
0.2
 49
0.1
 74
0
 49
-0.1
 74
0
  0
ENDTAB
  0
TABLE
  2
LAYER
  5
2
100
AcDbSymbolTable
 70
36
  0
LAYER
  5
10
100
AcDbSymbolTableRecord
100
AcDbLayerTableRecord
  2
0
 70
0
 62
7
  6
CONTINUOUS
  0
LAYER
  5
1FA
100
AcDbSymbolTableRecord
100
AcDbLayerTableRecord
  2
DEFAULT_1
 70
0
 62
7
  6
CENTER
  0
LAYER
  5
1FB
100
AcDbSymbolTableRecord
100
AcDbLayerTableRecord
  2
DEFAULT_2
 70
0
 62
8
  6
HIDDEN
  0
LAYER
  5
1FC
100
AcDbSymbolTableRecord
100
AcDbLayerTableRecord
  2
DEFAULT_3
 70
0
 62
7
  6
PHANTOM
  0
LAYER
  5
1FD
100
AcDbSymbolTableRecord
100
AcDbLayerTableRecord
  2
A_ACHSEN
 70
0
 62
7
  6
CONTINUOUS
  0
LAYER
  5
1FE
100
AcDbSymbolTableRecord
100
AcDbLayerTableRecord
  2
A_BEMASSUNGEN
 70
0
 62
7
  6
CONTINUOUS
  0
LAYER
  5
1FF
100
AcDbSymbolTableRecord
100
AcDbLayerTableRecord
  2
A_BOHRUNGEN
 70
0
 62
7
  6
CONTINUOUS
  0
LAYER
  5
200
100
AcDbSymbolTableRecord
100
AcDbLayerTableRecord
  2
A_EBENEN
 70
0
 62
7
  6
CONTINUOUS
  0
LAYER
  5
201
100
AcDbSymbolTableRecord
100
AcDbLayerTableRecord
  2
A_FL_VERBAENDE
 70
0
 62
7
  6
CONTINUOUS
  0
LAYER
  5
202
100
AcDbSymbolTableRecord
100
AcDbLayerTableRecord
  2
A_NOTIZEN_SYMB
 70
0
 62
7
  6
CONTINUOUS
  0
LAYER
  5
203
100
AcDbSymbolTableRecord
100
AcDbLayerTableRecord
  2
A_RUNDUNGEN
 70
0
 62
7
  6
CONTINUOUS
  0
LAYER
  5
204
100
AcDbSymbolTableRecord
100
AcDbLayerTableRecord
  2
BASISEBENEN
 70
0
 62
7
  6
CONTINUOUS
  0
LAYER
  5
205
100
AcDbSymbolTableRecord
100
AcDbLayerTableRecord
  2
XSEC_DATUMS
 70
0
 62
7
  6
CONTINUOUS
  0
ENDTAB
  0
TABLE
  2
STYLE
  5
3
100
AcDbSymbolTable
 70
1
  0
STYLE
  5
11
100
AcDbSymbolTableRecord
100
AcDbTextStyleTableRecord
  2
STANDARD
 70
0
 40
0.0
 41
1.0
 50
0.0
 71
0
 42
0.2
  3
txt
  4

  0
STYLE
  5
206
100
AcDbSymbolTableRecord
100
AcDbTextStyleTableRecord
  2
TEXTSTYLE_1
 70
0
 40
0.0
 41
0.8
 50
0.0
 71
0
 42
0.2
  3
gdt
  4

  0
STYLE
  5
207
100
AcDbSymbolTableRecord
100
AcDbTextStyleTableRecord
  2
TEXTSTYLE_2
 70
0
 40
0.0
 41
1.0
 50
0.0
 71
0
 42
0.2
  3
txt
  4

  0
ENDTAB
  0
TABLE
  2
VIEW
  5
6
100
AcDbSymbolTable
 70
0
  0
ENDTAB
  0
TABLE
  2
UCS
  5
7
100
AcDbSymbolTable
 70
0
  0
ENDTAB
  0
TABLE
  2
APPID
  5
9
100
AcDbSymbolTable
 70
1
  0
APPID
  5
208
100
AcDbSymbolTableRecord
100
AcDbRegAppTableRecord
  2
ACAD
 70
0
  0
ENDTAB
  0
TABLE
  2
BLOCK_RECORD
  5
1
100
AcDbSymbolTable
 70
0
  0
BLOCK_RECORD
  5
1F
100
AcDbSymbolTableRecord
100
AcDbBlockTableRecord
  2
*MODEL_SPACE
  0
BLOCK_RECORD
  5
1B
100
AcDbSymbolTableRecord
100
AcDbBlockTableRecord
  2
*PAPER_SPACE
  0
BLOCK_RECORD
  5
209
100
AcDbSymbolTableRecord
100
AcDbBlockTableRecord
  2
_ARROW_FILLED
  0
BLOCK_RECORD
  5
20A
100
AcDbSymbolTableRecord
100
AcDbBlockTableRecord
  2
*D0
  0
BLOCK_RECORD
  5
20B
100
AcDbSymbolTableRecord
100
AcDbBlockTableRecord
  2
*D1
  0
ENDTAB
  0
TABLE
  2
DIMSTYLE
  5
A
100
AcDbSymbolTable
 70
1
  0
DIMSTYLE
105
20C
100
AcDbSymbolTableRecord
100
AcDbDimStyleTableRecord
  2
STANDARD
 70
0
  3

  4

  5
_ARROW_FILLED
  6
_ARROW_FILLED
  7
_ARROW_FILLED
 40
1.0
 41
3.5
 42
0.0
 43
0.38
 44
2.0
 45
0.0
 46
0.0
 47
0.01
 48
0.01
140
3.5
141
0.09
142
0.0
143
25.4
144
1.0
145
0.0
146
1.0
147
0.625
 71
1.0
 72
0.0
 73
0
 74
0
 75
0
 76
0
 77
1
 78
8
170
0
171
1
172
0
173
0
174
0
175
0
176
0
177
0
178
5
270
2
271
2
272
2
273
2
274
2
275
0
280
0
281
0
282
0
283
1
284
8
285
0
286
0
287
3
288
0
340
11
  0
DIMSTYLE
105
20D
100
AcDbSymbolTableRecord
100
AcDbDimStyleTableRecord
  2
DIMSTYLE_1
 70
0
  3

  4

  5
_ARROW_FILLED
  6
_ARROW_FILLED
  7
_ARROW_FILLED
 40
1.0
 41
3.5
 42
0.0
 43
0.38
 44
2.0
 45
0.0
 46
0.0
 47
0.3
 48
0.3
140
3.5
141
0.09
142
0.0
143
25.4
144
1.0
145
0.0
146
1.0
147
0.875
 71
0.0
 72
0.0
 73
0
 74
0
 75
0
 76
0
 77
1
 78
8
170
0
171
1
172
0
173
0
174
0
175
0
176
0
177
0
178
5
270
2
271
3
272
-1
273
2
274
2
275
0
280
0
281
0
282
0
283
1
284
8
285
0
286
0
287
3
288
0
340
207
  0
DIMSTYLE
105
20E
100
AcDbSymbolTableRecord
100
AcDbDimStyleTableRecord
  2
DIMSTYLE_2
 70
0
  3

  4

  5
_ARROW_FILLED
  6
_ARROW_FILLED
  7
_ARROW_FILLED
 40
1.0
 41
3.5
 42
0.0
 43
0.38
 44
2.0
 45
0.0
 46
0.0
 47
0.5
 48
0.5
140
3.5
141
0.09
142
0.0
143
25.4
144
1.0
145
0.0
146
1.0
147
0.875
 71
0.0
 72
0.0
 73
0
 74
0
 75
0
 76
0
 77
1
 78
8
170
0
171
1
172
0
173
0
174
0
175
0
176
0
177
0
178
5
270
2
271
4
272
-1
273
2
274
2
275
0
280
0
281
0
282
0
283
1
284
8
285
0
286
0
287
3
288
0
340
207
  0
ENDTAB
  0
ENDSEC
  0
SECTION
  2
BLOCKS
  0
BLOCK
  5
20
100
AcDbEntity
  8
0
100
AcDbBlockBegin
  2
*MODEL_SPACE
 70
0
 10
0.0
 20
0.0
 30
0.0
  3
*MODEL_SPACE
  1

  0
ENDBLK
  5
21
100
AcDbEntity
  8
0
100
AcDbBlockEnd
  0
BLOCK
  5
1C
100
AcDbEntity
  8
0
100
AcDbBlockBegin
  2
*PAPER_SPACE
 70
0
 10
0.0
 20
0.0
 30
0.0
  3
*PAPER_SPACE
  1

  0
ENDBLK
  5
1D
100
AcDbEntity
  8
0
100
AcDbBlockEnd
  0
BLOCK
  5
20F
100
AcDbEntity
  8
0
100
AcDbBlockBegin
  2
_ARROW_FILLED
 70
64
 10
0.0
 20
0.0
  3
_ARROW_FILLED
  1

  0
SOLID
  5
210
100
AcDbEntity
  8
0
  6
BYBLOCK
 62
0
100
AcDbTrace
 10
0.0
 20
0.0
 11
-1.0
 21
0.0940374286
 12
-1.0
 22
-0.0940374286
 13
-1.0
 23
-0.0940374286
  0
ENDBLK
  5
211
100
AcDbEntity
  8
0
  6
BYBLOCK
 62
0
100
AcDbBlockEnd
  0
BLOCK
  5
212
100
AcDbEntity
  8
A_BEMASSUNGEN
100
AcDbBlockBegin
 62
2
  6
CONTINUOUS
  2
*D0
 70
65
 10
0.0
 20
0.0
  3
*D0
  1

  0
MTEXT
  5
213
100
AcDbEntity
  8
A_BEMASSUNGEN
100
AcDbMText
 62
5
  6
CONTINUOUS
  7
TEXTSTYLE_2
 71
2
 72
1
 10
54.3448979485
 20
178.4650102511
 30
0.0
 11
1.0
 21
0.0
 31
0.0
  1
70
 40
3.5
 41
8.25
  0
LINE
  5
214
100
AcDbEntity
  8
A_BEMASSUNGEN
100
AcDbLine
 62
2
  6
CONTINUOUS
 10
19.3448979485
 20
166.8096368896
 11
19.3448979485
 21
176.0900102511
  0
LINE
  5
215
100
AcDbEntity
  8
A_BEMASSUNGEN
100
AcDbLine
 62
2
  6
CONTINUOUS
 10
89.3448979485
 20
154.1596368896
 11
89.3448979485
 21
176.0900102511
  0
LINE
  5
216
100
AcDbEntity
  8
A_BEMASSUNGEN
100
AcDbLine
 62
2
  6
CONTINUOUS
 10
19.3448979485
 20
174.0900102511
 11
54.3448979485
 21
174.0900102511
  0
LINE
  5
217
100
AcDbEntity
  8
A_BEMASSUNGEN
100
AcDbLine
 62
2
  6
CONTINUOUS
 10
89.3448979485
 20
174.0900102511
 11
54.3448979485
 21
174.0900102511
  0
INSERT
  5
218
100
AcDbEntity
  8
A_BEMASSUNGEN
100
AcDbBlockReference
 62
2
  6
CONTINUOUS
  2
_ARROW_FILLED
 10
19.3448979485
 20
174.0900102511
 41
3.5
 42
3.5
 43
3.5
 50
180.0
  0
INSERT
  5
219
100
AcDbEntity
  8
A_BEMASSUNGEN
100
AcDbBlockReference
 62
2
  6
CONTINUOUS
  2
_ARROW_FILLED
 10
89.3448979485
 20
174.0900102511
 41
3.5
 42
3.5
 43
3.5
  0
ENDBLK
  5
21A
100
AcDbEntity
  8
0
  6
BYBLOCK
 62
0
100
AcDbBlockEnd
  0
BLOCK
  5
21B
100
AcDbEntity
  8
A_BEMASSUNGEN
100
AcDbBlockBegin
 62
2
  6
CONTINUOUS
  2
*D1
 70
65
 10
0.0
 20
0.0
  3
*D1
  1

  0
MTEXT
  5
21C
100
AcDbEntity
  8
A_BEMASSUNGEN
100
AcDbMText
 62
5
  6
CONTINUOUS
  7
TEXTSTYLE_2
 71
2
 72
1
 10
4.3063775063
 20
86.8096368896
 30
0.0
 11
0.0
 21
1.0
 31
0.0
  1
160
 40
3.5
 41
11.25
  0
LINE
  5
21D
100
AcDbEntity
  8
A_BEMASSUNGEN
100
AcDbLine
 62
2
  6
CONTINUOUS
 10
19.3448979485
 20
166.8096368896
 11
6.6813775063
 21
166.8096368896
  0
LINE
  5
21E
100
AcDbEntity
  8
A_BEMASSUNGEN
100
AcDbLine
 62
2
  6
CONTINUOUS
 10
19.3448979485
 20
6.8096368896
 11
6.6813775063
 21
6.8096368896
  0
LINE
  5
21F
100
AcDbEntity
  8
A_BEMASSUNGEN
100
AcDbLine
 62
2
  6
CONTINUOUS
 10
8.6813775063
 20
166.8096368896
 11
8.6813775063
 21
86.8096368896
  0
LINE
  5
220
100
AcDbEntity
  8
A_BEMASSUNGEN
100
AcDbLine
 62
2
  6
CONTINUOUS
 10
8.6813775063
 20
6.8096368896
 11
8.6813775063
 21
86.8096368896
  0
INSERT
  5
221
100
AcDbEntity
  8
A_BEMASSUNGEN
100
AcDbBlockReference
 62
2
  6
CONTINUOUS
  2
_ARROW_FILLED
 10
8.6813775063
 20
166.8096368896
 41
3.5
 42
3.5
 43
3.5
 50
90.0
  0
INSERT
  5
222
100
AcDbEntity
  8
A_BEMASSUNGEN
100
AcDbBlockReference
 62
2
  6
CONTINUOUS
  2
_ARROW_FILLED
 10
8.6813775063
 20
6.8096368896
 41
3.5
 42
3.5
 43
3.5
 50
270.0
  0
ENDBLK
  5
223
100
AcDbEntity
  8
0
  6
BYBLOCK
 62
0
100
AcDbBlockEnd
  0
ENDSEC
  0
SECTION
  2
ENTITIES
  0
DIMENSION
  5
224
100
AcDbEntity
  8
A_BEMASSUNGEN
100
AcDbDimension
 62
2
  6
CONTINUOUS
  2
*D0
 10
89.3448979485
 20
174.0900102511
 11
53.8449010417
 21
174.0900102511
 70
160
  3
DIMSTYLE_1
100
AcDbAlignedDimension
 13
19.3448979485
 23
166.8096368896
 14
89.3448979485
 24
154.1596368896
100
AcDbRotatedDimension
  0
DIMENSION
  5
225
100
AcDbEntity
  8
A_BEMASSUNGEN
100
AcDbDimension
 62
2
  6
CONTINUOUS
  2
*D1
 10
8.6813775063
 20
6.8096368896
 11
8.6813775063
 21
86.3096382896
 70
160
  3
DIMSTYLE_2
100
AcDbAlignedDimension
 13
19.3448979485
 23
166.8096368896
 14
19.3448979485
 24
6.8096368896
 50
270.0
100
AcDbRotatedDimension
  0
LINE
  5
226
100
AcDbEntity
  8
0
100
AcDbLine
 62
7
  6
CONTINUOUS
 10
69.3448979485
 20
6.8096368896
 11
19.3448979485
 21
6.8096368896
  0
LINE
  5
227
100
AcDbEntity
  8
0
100
AcDbLine
 62
7
  6
CONTINUOUS
 10
79.3448979485
 20
9.4596368896
 11
71.3448979485
 21
9.4596368896
  0
LINE
  5
228
100
AcDbEntity
  8
0
100
AcDbLine
 62
7
  6
CONTINUOUS
 10
47.0472617003
 20
14.4117659777
 11
46.2029597239
 21
14.3849395276
  0
LINE
  5
229
100
AcDbEntity
  8
0
100
AcDbLine
 62
7
  6
CONTINUOUS
 10
24.0472617003
 20
14.4117659777
 11
23.2029597239
 21
14.3849395276
  0
LINE
  5
22A
100
AcDbEntity
  8
DEFAULT_1
100
AcDbLine
 62
7
  6
CENTER
 10
78.8448979485
 20
15.8096368896
 11
74.0448979485
 21
15.8096368896
  0
LINE
  5
22B
100
AcDbEntity
  8
DEFAULT_1
100
AcDbLine
 62
7
  6
CENTER
 10
78.8448979485
 20
15.8096368896
 11
83.6448979485
 21
15.8096368896
  0
LINE
  5
22C
100
AcDbEntity
  8
DEFAULT_1
100
AcDbLine
 62
7
  6
CENTER
 10
49.3448979485
 20
16.8096368896
 11
41.0948979485
 21
16.8096368896
  0
LINE
  5
22D
100
AcDbEntity
  8
DEFAULT_1
100
AcDbLine
 62
7
  6
CENTER
 10
26.3448979485
 20
16.8096368896
 11
18.0948979485
 21
16.8096368896
  0
LINE
  5
22E
100
AcDbEntity
  8
DEFAULT_1
100
AcDbLine
 62
7
  6
CENTER
 10
26.3448979485
 20
16.8096368896
 11
34.5948979485
 21
16.8096368896
  0
LINE
  5
22F
100
AcDbEntity
  8
DEFAULT_1
100
AcDbLine
 62
7
  6
CENTER
 10
49.3448979485
 20
16.8096368896
 11
57.5948979485
 21
16.8096368896
  0
LINE
  5
230
100
AcDbEntity
  8
0
100
AcDbLine
 62
7
  6
CONTINUOUS
 10
29.486836173
 20
14.3849395276
 11
28.6425341967
 21
14.4117659777
  0
LINE
  5
231
100
AcDbEntity
  8
0
100
AcDbLine
 62
7
  6
CONTINUOUS
 10
52.486836173
 20
14.3849395276
 11
51.6425341967
 21
14.4117659777
  0
LINE
  5
232
100
AcDbEntity
  8
0
100
AcDbLine
 62
7
  6
CONTINUOUS
 10
51.6425341967
 20
19.2075078015
 11
52.486836173
 21
19.2343342517
  0
LINE
  5
233
100
AcDbEntity
  8
0
100
AcDbLine
 62
7
  6
CONTINUOUS
 10
28.6425341967
 20
19.2075078015
 11
29.486836173
 21
19.2343342517
  0
LINE
  5
234
100
AcDbEntity
  8
0
100
AcDbLine
 62
7
  6
CONTINUOUS
 10
77.8458071145
 20
20.8096368896
 11
81.8458071145
 21
20.8096368896
  0
LINE
  5
235
100
AcDbEntity
  8
0
100
AcDbLine
 62
7
  6
CONTINUOUS
 10
23.2029596414
 20
19.2343342543
 11
24.0472617003
 21
19.2075078015
  0
LINE
  5
236
100
AcDbEntity
  8
0
100
AcDbLine
 62
7
  6
CONTINUOUS
 10
46.2029597239
 20
19.2343342517
 11
47.0472617003
 21
19.2075078015
  0
LINE
  5
237
100
AcDbEntity
  8
0
100
AcDbLine
 62
7
  6
CONTINUOUS
 10
25.4170989479
 20
159.9983837051
 11
25.8160175487
 21
160.7429838902
  0
LINE
  5
238
100
AcDbEntity
  8
0
100
AcDbLine
 62
7
  6
CONTINUOUS
 10
22.6740793242
 20
155.3009872511
 11
23.1194626997
 21
156.018760986
  0
LINE
  5
239
100
AcDbEntity
  8
0
100
AcDbLine
 62
7
  6
CONTINUOUS
 10
30.0157165728
 20
158.3182865282
 11
29.5703331973
 21
157.6005127933
  0
LINE
  5
23A
100
AcDbEntity
  8
0
100
AcDbLine
 62
7
  6
CONTINUOUS
 10
23.1194626997
 20
17.6005127933
 11
22.6740793242
 21
18.3182865282
  0
LINE
  5
23B
100
AcDbEntity
  8
0
100
AcDbLine
 62
7
  6
CONTINUOUS
 10
29.5703331973
 20
16.018760986
 11
30.0157165728
 21
15.3009872511
  0
LINE
  5
23C
100
AcDbEntity
  8
0
100
AcDbLine
 62
7
  6
CONTINUOUS
 10
25.8160175487
 20
12.876289889
 11
25.4170989479
 21
13.6208900741
  0
LINE
  5
23D
100
AcDbEntity
  8
0
100
AcDbLine
 62
7
  6
CONTINUOUS
 10
27.2726969491
 20
153.6208900741
 11
26.8737783482
 21
152.876289889
  0
LINE
  5
23E
100
AcDbEntity
  8
A_ACHSEN
100
AcDbLine
 62
7
  6
CONTINUOUS
 10
29.4948979485
 20
31.6596368896
 11
50.1948979485
 21
31.6596368896
  0
LINE
  5
23F
100
AcDbEntity
  8
0
100
AcDbLine
 62
7
  6
CONTINUOUS
 10
26.8737783482
 20
20.7429838902
 11
27.2726969491
 21
19.9983837051
  0
LINE
  5
240
100
AcDbEntity
  8
DEFAULT_1
100
AcDbLine
 62
7
  6
CENTER
 10
50.1948979485
 20
35.8096368896
 11
33.8696080729
 21
35.8096368896
  0
LINE
  5
241
100
AcDbEntity
  8
DEFAULT_1
100
AcDbLine
 62
7
  6
CENTER
 10
29.4948979485
 20
35.8096368896
 11
23.3115386913
 21
35.8096368896
  0
LINE
  5
242
100
AcDbEntity
  8
DEFAULT_1
100
AcDbLine
 62
7
  6
CENTER
 10
29.4948979485
 20
35.8096368896
 11
33.8696080729
 21
35.8096368896
  0
LINE
  5
243
100
AcDbEntity
  8
DEFAULT_1
100
AcDbLine
 62
7
  6
CENTER
 10
50.1948979485
 20
35.8096368896
 11
55.8907242117
 21
35.8096368896
  0
LINE
  5
244
100
AcDbEntity
  8
A_ACHSEN
100
AcDbLine
 62
7
  6
CONTINUOUS
 10
50.1948979485
 20
39.9596368896
 11
29.4948979485
 21
39.9596368896
  0
LINE
  5
245
100
AcDbEntity
  8
0
100
AcDbLine
 62
7
  6
CONTINUOUS
 10
45.6740793242
 20
155.3009872511
 11
46.1194626997
 21
156.018760986
  0
LINE
  5
246
100
AcDbEntity
  8
0
100
AcDbLine
 62
7
  6
CONTINUOUS
 10
42.486836173
 20
46.3849395276
 11
41.6425341967
 21
46.4117659777
  0
LINE
  5
247
100
AcDbEntity
  8
0
100
AcDbLine
 62
7
  6
CONTINUOUS
 10
46.1194626997
 20
17.6005127933
 11
45.6740793541
 21
18.31828648
  0
LINE
  5
248
100
AcDbEntity
  8
0
100
AcDbLine
 62
7
  6
CONTINUOUS
 10
19.3448979485
 20
6.8096368896
 11
19.3448979485
 21
166.8096368896
  0
LINE
  5
249
100
AcDbEntity
  8
0
100
AcDbLine
 62
7
  6
CONTINUOUS
 10
48.4170989479
 20
159.9983837051
 11
48.8160175487
 21
160.7429838902
  0
LINE
  5
24A
100
AcDbEntity
  8
0
100
AcDbLine
 62
7
  6
CONTINUOUS
 10
50.2726969491
 20
153.6208900741
 11
49.8737783482
 21
152.876289889
  0
LINE
  5
24B
100
AcDbEntity
  8
0
100
AcDbLine
 62
7
  6
CONTINUOUS
 10
53.0157165728
 20
158.3182865282
 11
52.5703331077
 21
157.6005126489
  0
LINE
  5
24C
100
AcDbEntity
  8
0
100
AcDbLine
 62
7
  6
CONTINUOUS
 10
35.6740793242
 20
123.3009872511
 11
36.1194626997
 21
124.018760986
  0
LINE
  5
24D
100
AcDbEntity
  8
0
100
AcDbLine
 62
7
  6
CONTINUOUS
 10
37.0472617003
 20
46.4117659777
 11
36.2029597239
 21
46.3849395276
  0
LINE
  5
24E
100
AcDbEntity
  8
0
100
AcDbLine
 62
7
  6
CONTINUOUS
 10
41.6425341967
 20
51.2075078015
 11
42.486836173
 21
51.2343342517
  0
LINE
  5
24F
100
AcDbEntity
  8
DEFAULT_1
100
AcDbLine
 62
7
  6
CENTER
 10
39.3448979485
 20
48.8096368896
 11
31.0948979485
 21
48.8096368896
  0
LINE
  5
250
100
AcDbEntity
  8
DEFAULT_1
100
AcDbLine
 62
7
  6
CENTER
 10
39.3448979485
 20
48.8096368896
 11
47.5948979485
 21
48.8096368896
  0
LINE
  5
251
100
AcDbEntity
  8
0
100
AcDbLine
 62
7
  6
CONTINUOUS
 10
36.2029597239
 20
51.2343342517
 11
37.0472617003
 21
51.2075078015
  0
LINE
  5
252
100
AcDbEntity
  8
0
100
AcDbLine
 62
7
  6
CONTINUOUS
 10
52.5703331973
 20
16.018760986
 11
53.0157165728
 21
15.3009872511
  0
LINE
  5
253
100
AcDbEntity
  8
0
100
AcDbLine
 62
7
  6
CONTINUOUS
 10
36.1194626997
 20
49.6005127933
 11
35.6740793242
 21
50.3182865282
  0
LINE
  5
254
100
AcDbEntity
  8
0
100
AcDbLine
 62
7
  6
CONTINUOUS
 10
48.8160175487
 20
12.876289889
 11
48.4170989479
 21
13.6208900741
  0
LINE
  5
255
100
AcDbEntity
  8
0
100
AcDbLine
 62
7
  6
CONTINUOUS
 10
49.8737783482
 20
20.7429838902
 11
50.2726969491
 21
19.9983837051
  0
LINE
  5
256
100
AcDbEntity
  8
0
100
AcDbLine
 62
7
  6
CONTINUOUS
 10
38.4170989479
 20
127.9983837051
 11
38.8160175487
 21
128.7429838902
  0
LINE
  5
257
100
AcDbEntity
  8
0
100
AcDbLine
 62
7
  6
CONTINUOUS
 10
40.2726969491
 20
121.6208900741
 11
39.8737783482
 21
120.876289889
  0
LINE
  5
258
100
AcDbEntity
  8
0
100
AcDbLine
 62
7
  6
CONTINUOUS
 10
43.0157165728
 20
126.3182865282
 11
42.5703331973
 21
125.6005127933
  0
LINE
  5
259
100
AcDbEntity
  8
0
100
AcDbLine
 62
7
  6
CONTINUOUS
 10
42.5703331973
 20
48.018760986
 11
43.0157165728
 21
47.3009872511
  0
LINE
  5
25A
100
AcDbEntity
  8
0
100
AcDbLine
 62
7
  6
CONTINUOUS
 10
38.8160175487
 20
44.876289889
 11
38.4170989479
 21
45.6208900741
  0
LINE
  5
25B
100
AcDbEntity
  8
0
100
AcDbLine
 62
7
  6
CONTINUOUS
 10
39.8737783482
 20
52.7429838902
 11
40.2726969491
 21
51.9983837051
  0
LINE
  5
25C
100
AcDbEntity
  8
DEFAULT_1
100
AcDbLine
 62
7
  6
CENTER
 10
26.3448979485
 20
156.8096368896
 11
26.3448979485
 21
148.5596368896
  0
LINE
  5
25D
100
AcDbEntity
  8
DEFAULT_1
100
AcDbLine
 62
7
  6
CENTER
 10
26.3448979485
 20
16.8096368896
 11
26.3448979485
 21
8.5596368896
  0
LINE
  5
25E
100
AcDbEntity
  8
DEFAULT_1
100
AcDbLine
 62
7
  6
CENTER
 10
26.3448979485
 20
16.8096368896
 11
26.3448979485
 21
25.0596368896
  0
LINE
  5
25F
100
AcDbEntity
  8
DEFAULT_1
100
AcDbLine
 62
7
  6
CENTER
 10
26.3448979485
 20
156.8096368896
 11
26.3448979485
 21
165.0596368896
  0
LINE
  5
260
100
AcDbEntity
  8
DEFAULT_1
100
AcDbLine
 62
7
  6
CENTER
 10
29.4948979485
 20
137.8096368896
 11
29.4948979485
 21
134.8095368896
  0
LINE
  5
261
100
AcDbEntity
  8
DEFAULT_1
100
AcDbLine
 62
7
  6
CENTER
 10
29.4948979485
 20
35.8096368896
 11
29.4948979485
 21
29.6262776324
  0
LINE
  5
262
100
AcDbEntity
  8
DEFAULT_1
100
AcDbLine
 62
7
  6
CENTER
 10
29.4948979485
 20
35.8096368896
 11
29.4948979485
 21
41.9929961468
  0
LINE
  5
263
100
AcDbEntity
  8
DEFAULT_1
100
AcDbLine
 62
7
  6
CENTER
 10
29.4948979485
 20
137.8096368896
 11
29.4948979485
 21
140.8097368896
  0
LINE
  5
264
100
AcDbEntity
  8
DEFAULT_1
100
AcDbLine
 62
7
  6
CENTER
 10
33.3448979485
 20
86.8096368896
 11
33.3448979485
 21
78.5596368896
  0
LINE
  5
265
100
AcDbEntity
  8
DEFAULT_1
100
AcDbLine
 62
7
  6
CENTER
 10
33.3448979485
 20
86.8096368896
 11
33.3448979485
 21
95.0596368896
  0
LINE
  5
266
100
AcDbEntity
  8
DEFAULT_1
100
AcDbLine
 62
7
  6
CENTER
 10
37.3448979485
 20
106.8096368896
 11
37.3448979485
 21
98.3096368896
  0
LINE
  5
267
100
AcDbEntity
  8
DEFAULT_1
100
AcDbLine
 62
7
  6
CENTER
 10
37.3448979485
 20
66.8096368896
 11
37.3448979485
 21
58.3096368896
  0
LINE
  5
268
100
AcDbEntity
  8
DEFAULT_1
100
AcDbLine
 62
7
  6
CENTER
 10
37.3448979485
 20
66.8096368896
 11
37.3448979485
 21
75.3096368896
  0
LINE
  5
269
100
AcDbEntity
  8
DEFAULT_1
100
AcDbLine
 62
7
  6
CENTER
 10
37.3448979485
 20
106.8096368896
 11
37.3448979485
 21
115.3096368896
  0
LINE
  5
26A
100
AcDbEntity
  8
0
100
AcDbLine
 62
7
  6
CONTINUOUS
 10
32.4170989479
 20
89.9983837051
 11
32.8160175487
 21
90.7429838902
  0
LINE
  5
26B
100
AcDbEntity
  8
0
100
AcDbLine
 62
7
  6
CONTINUOUS
 10
29.6740793242
 20
85.3009872511
 11
30.1194626997
 21
86.018760986
  0
LINE
  5
26C
100
AcDbEntity
  8
DEFAULT_1
100
AcDbLine
 62
7
  6
CENTER
 10
37.3448979485
 20
66.8096368896
 11
28.8448979485
 21
66.8096368896
  0
LINE
  5
26D
100
AcDbEntity
  8
DEFAULT_1
100
AcDbLine
 62
7
  6
CENTER
 10
37.3448979485
 20
66.8096368896
 11
45.8448979485
 21
66.8096368896
  0
LINE
  5
26E
100
AcDbEntity
  8
0
100
AcDbLine
 62
7
  6
CONTINUOUS
 10
30.1194626997
 20
87.6005127933
 11
29.6740793242
 21
88.3182865282
  0
LINE
  5
26F
100
AcDbEntity
  8
0
100
AcDbLine
 62
7
  6
CONTINUOUS
 10
32.8160175487
 20
82.876289889
 11
32.4170989479
 21
83.6208900741
  0
LINE
  5
270
100
AcDbEntity
  8
DEFAULT_1
100
AcDbLine
 62
7
  6
CENTER
 10
39.3448979485
 20
124.8096368896
 11
39.3448979485
 21
116.5596368896
  0
LINE
  5
271
100
AcDbEntity
  8
DEFAULT_1
100
AcDbLine
 62
7
  6
CENTER
 10
39.3448979485
 20
48.8096368896
 11
39.3448979485
 21
40.5596368896
  0
LINE
  5
272
100
AcDbEntity
  8
DEFAULT_1
100
AcDbLine
 62
7
  6
CENTER
 10
39.3448979485
 20
48.8096368896
 11
39.3448979485
 21
57.0596368896
  0
LINE
  5
273
100
AcDbEntity
  8
DEFAULT_1
100
AcDbLine
 62
7
  6
CENTER
 10
39.3448979485
 20
124.8096368896
 11
39.3448979485
 21
133.0596368896
  0
LINE
  5
274
100
AcDbEntity
  8
0
100
AcDbLine
 62
7
  6
CONTINUOUS
 10
34.2726969491
 20
83.6208900741
 11
33.8737783482
 21
82.876289889
  0
LINE
  5
275
100
AcDbEntity
  8
0
100
AcDbLine
 62
7
  6
CONTINUOUS
 10
37.0157165728
 20
88.3182865282
 11
36.5703331973
 21
87.6005127933
  0
LINE
  5
276
100
AcDbEntity
  8
0
100
AcDbLine
 62
7
  6
CONTINUOUS
 10
36.5703331973
 20
86.018760986
 11
37.0157165728
 21
85.3009872511
  0
LINE
  5
277
100
AcDbEntity
  8
0
100
AcDbLine
 62
7
  6
CONTINUOUS
 10
33.8737783482
 20
90.7429838902
 11
34.2726969491
 21
89.9983837051
  0
LINE
  5
278
100
AcDbEntity
  8
DEFAULT_1
100
AcDbLine
 62
7
  6
CENTER
 10
49.3448979485
 20
156.8096368896
 11
49.3448979485
 21
148.5596368896
  0
LINE
  5
279
100
AcDbEntity
  8
DEFAULT_1
100
AcDbLine
 62
7
  6
CENTER
 10
49.3448979485
 20
16.8096368896
 11
49.3448979485
 21
8.5596368896
  0
LINE
  5
27A
100
AcDbEntity
  8
DEFAULT_1
100
AcDbLine
 62
7
  6
CENTER
 10
49.3448979485
 20
16.8096368896
 11
49.3448979485
 21
25.0596368896
  0
LINE
  5
27B
100
AcDbEntity
  8
DEFAULT_1
100
AcDbLine
 62
7
  6
CENTER
 10
49.3448979485
 20
156.8096368896
 11
49.3448979485
 21
165.0596368896
  0
LINE
  5
27C
100
AcDbEntity
  8
DEFAULT_1
100
AcDbLine
 62
7
  6
CENTER
 10
50.1948979485
 20
137.8096368896
 11
50.1948979485
 21
134.8095368896
  0
LINE
  5
27D
100
AcDbEntity
  8
DEFAULT_1
100
AcDbLine
 62
7
  6
CENTER
 10
50.1948979485
 20
35.8096368896
 11
50.1948979485
 21
28.4587059884
  0
LINE
  5
27E
100
AcDbEntity
  8
DEFAULT_1
100
AcDbLine
 62
7
  6
CENTER
 10
50.1948979485
 20
35.8096368896
 11
50.1948979485
 21
43.1605677908
  0
LINE
  5
27F
100
AcDbEntity
  8
DEFAULT_1
100
AcDbLine
 62
7
  6
CENTER
 10
50.1948979485
 20
137.8096368896
 11
50.1948979485
 21
140.8097368896
  0
LINE
  5
280
100
AcDbEntity
  8
0
100
AcDbLine
 62
7
  6
CONTINUOUS
 10
31.0472617003
 20
84.4117659777
 11
30.2029597239
 21
84.3849395276
  0
LINE
  5
281
100
AcDbEntity
  8
DEFAULT_1
100
AcDbLine
 62
7
  6
CENTER
 10
33.3448979485
 20
86.8096368896
 11
16.7257072434
 21
86.8096368896
  0
LINE
  5
282
100
AcDbEntity
  8
DEFAULT_1
100
AcDbLine
 62
7
  6
CENTER
 10
33.3448979485
 20
86.8096368896
 11
71.8727660669
 21
86.8096368896
  0
LINE
  5
283
100
AcDbEntity
  8
0
100
AcDbLine
 62
7
  6
CONTINUOUS
 10
36.486836173
 20
84.3849395276
 11
35.6425341967
 21
84.4117659777
  0
LINE
  5
284
100
AcDbEntity
  8
0
100
AcDbLine
 62
7
  6
CONTINUOUS
 10
38.4170989479
 20
51.9983837051
 11
38.8160175487
 21
52.7429838902
  0
LINE
  5
285
100
AcDbEntity
  8
0
100
AcDbLine
 62
7
  6
CONTINUOUS
 10
25.4170989479
 20
19.9983837051
 11
25.8160175487
 21
20.7429838902
  0
LINE
  5
286
100
AcDbEntity
  8
0
100
AcDbLine
 62
7
  6
CONTINUOUS
 10
35.6740793242
 20
47.3009872511
 11
36.1194626997
 21
48.018760986
  0
LINE
  5
287
100
AcDbEntity
  8
0
100
AcDbLine
 62
7
  6
CONTINUOUS
 10
35.6425341967
 20
89.2075078015
 11
36.486836173
 21
89.2343342517
  0
LINE
  5
288
100
AcDbEntity
  8
0
100
AcDbLine
 62
7
  6
CONTINUOUS
 10
30.2029597239
 20
89.2343342517
 11
31.0472617003
 21
89.2075078015
  0
LINE
  5
289
100
AcDbEntity
  8
0
100
AcDbLine
 62
7
  6
CONTINUOUS
 10
36.1194626997
 20
125.6005127933
 11
35.6740793242
 21
126.3182865282
  0
LINE
  5
28A
100
AcDbEntity
  8
0
100
AcDbLine
 62
7
  6
CONTINUOUS
 10
38.8160175487
 20
120.876289889
 11
38.4170989479
 21
121.6208900741
  0
LINE
  5
28B
100
AcDbEntity
  8
0
100
AcDbLine
 62
7
  6
CONTINUOUS
 10
25.8160175487
 20
152.876289889
 11
25.4170989151
 21
153.6208901352
  0
LINE
  5
28C
100
AcDbEntity
  8
0
100
AcDbLine
 62
7
  6
CONTINUOUS
 10
40.2726969491
 20
45.6208900741
 11
39.8737783482
 21
44.876289889
  0
LINE
  5
28D
100
AcDbEntity
  8
0
100
AcDbLine
 62
7
  6
CONTINUOUS
 10
27.2726969487
 20
13.6208900734
 11
26.8737783482
 21
12.876289889
  0
LINE
  5
28E
100
AcDbEntity
  8
0
100
AcDbLine
 62
7
  6
CONTINUOUS
 10
43.0157165728
 20
50.3182865282
 11
42.5703331973
 21
49.6005127933
  0
LINE
  5
28F
100
AcDbEntity
  8
0
100
AcDbLine
 62
7
  6
CONTINUOUS
 10
22.6740793242
 20
15.3009872511
 11
23.1194626997
 21
16.018760986
  0
LINE
  5
290
100
AcDbEntity
  8
0
100
AcDbLine
 62
7
  6
CONTINUOUS
 10
42.5703331973
 20
124.018760986
 11
43.0157165728
 21
123.3009872511
  0
LINE
  5
291
100
AcDbEntity
  8
0
100
AcDbLine
 62
7
  6
CONTINUOUS
 10
23.1194626997
 20
157.6005127933
 11
22.6740793242
 21
158.3182865282
  0
LINE
  5
292
100
AcDbEntity
  8
0
100
AcDbLine
 62
7
  6
CONTINUOUS
 10
39.8737783482
 20
128.7429838902
 11
40.2726969491
 21
127.9983837051
  0
LINE
  5
293
100
AcDbEntity
  8
0
100
AcDbLine
 62
7
  6
CONTINUOUS
 10
26.8737783482
 20
160.7429838902
 11
27.2726969491
 21
159.9983837051
  0
LINE
  5
294
100
AcDbEntity
  8
0
100
AcDbLine
 62
7
  6
CONTINUOUS
 10
67.8448979485
 20
143.3228518701
 11
67.8448979485
 21
30.2964219092
  0
LINE
  5
295
100
AcDbEntity
  8
0
100
AcDbLine
 62
7
  6
CONTINUOUS
 10
69.3448979485
 20
166.8096368896
 11
69.3448979485
 21
166.1596368896
  0
LINE
  5
296
100
AcDbEntity
  8
0
100
AcDbLine
 62
7
  6
CONTINUOUS
 10
69.3448979485
 20
7.4596368896
 11
69.3448979485
 21
6.8096368896
  0
LINE
  5
297
100
AcDbEntity
  8
0
100
AcDbLine
 62
7
  6
CONTINUOUS
 10
30.0157165728
 20
18.3182865282
 11
29.5703331973
 21
17.6005127933
  0
LINE
  5
298
100
AcDbEntity
  8
0
100
AcDbLine
 62
7
  6
CONTINUOUS
 10
29.5703331973
 20
156.018760986
 11
30.0157165728
 21
155.3009872511
  0
LINE
  5
299
100
AcDbEntity
  8
DEFAULT_1
100
AcDbLine
 62
7
  6
CENTER
 10
37.3448979485
 20
106.8096368896
 11
28.8448979485
 21
106.8096368896
  0
LINE
  5
29A
100
AcDbEntity
  8
DEFAULT_1
100
AcDbLine
 62
7
  6
CENTER
 10
37.3448979485
 20
106.8096368896
 11
45.8448979485
 21
106.8096368896
  0
LINE
  5
29B
100
AcDbEntity
  8
DEFAULT_1
100
AcDbLine
 62
7
  6
CENTER
 10
78.8448979485
 20
157.8096368896
 11
78.8448979485
 21
153.0096368896
  0
LINE
  5
29C
100
AcDbEntity
  8
DEFAULT_1
100
AcDbLine
 62
7
  6
CENTER
 10
78.8448979485
 20
15.8096368896
 11
78.8448979485
 21
11.0096368896
  0
LINE
  5
29D
100
AcDbEntity
  8
DEFAULT_1
100
AcDbLine
 62
7
  6
CENTER
 10
78.8448979485
 20
15.8096368896
 11
78.8448979485
 21
20.6096368896
  0
LINE
  5
29E
100
AcDbEntity
  8
DEFAULT_1
100
AcDbLine
 62
7
  6
CENTER
 10
78.8448979485
 20
157.8096368896
 11
78.8448979485
 21
162.6096368896
  0
LINE
  5
29F
100
AcDbEntity
  8
0
100
AcDbLine
 62
7
  6
CONTINUOUS
 10
48.4170989479
 20
19.9983837051
 11
48.8160175487
 21
20.7429838902
  0
LINE
  5
2A0
100
AcDbEntity
  8
0
100
AcDbLine
 62
7
  6
CONTINUOUS
 10
48.8160175487
 20
152.876289889
 11
48.4170989479
 21
153.6208900741
  0
LINE
  5
2A1
100
AcDbEntity
  8
0
100
AcDbLine
 62
7
  6
CONTINUOUS
 10
89.3448979485
 20
154.1596368896
 11
89.3448979485
 21
153.4096368896
  0
LINE
  5
2A2
100
AcDbEntity
  8
0
100
AcDbLine
 62
7
  6
CONTINUOUS
 10
89.3448979485
 20
20.2096368896
 11
89.3448979485
 21
19.4596368896
  0
LINE
  5
2A3
100
AcDbEntity
  8
0
100
AcDbLine
 62
7
  6
CONTINUOUS
 10
50.2726969491
 20
13.6208900741
 11
49.8737783482
 21
12.876289889
  0
LINE
  5
2A4
100
AcDbEntity
  8
0
100
AcDbLine
 62
7
  6
CONTINUOUS
 10
45.6740793242
 20
15.3009872511
 11
46.1194626997
 21
16.018760986
  0
LINE
  5
2A5
100
AcDbEntity
  8
0
100
AcDbLine
 62
7
  6
CONTINUOUS
 10
53.0157165728
 20
18.3182865282
 11
52.5703331973
 21
17.6005127933
  0
LINE
  5
2A6
100
AcDbEntity
  8
0
100
AcDbLine
 62
7
  6
CONTINUOUS
 10
42.486836173
 20
122.3849395276
 11
41.6425341967
 21
122.4117659777
  0
LINE
  5
2A7
100
AcDbEntity
  8
0
100
AcDbLine
 62
7
  6
CONTINUOUS
 10
46.1194626996
 20
157.6005127934
 11
45.6740793242
 21
158.3182865282
  0
LINE
  5
2A8
100
AcDbEntity
  8
0
100
AcDbLine
 62
7
  6
CONTINUOUS
 10
52.5703331973
 20
156.018760986
 11
53.0157165728
 21
155.3009872511
  0
LINE
  5
2A9
100
AcDbEntity
  8
0
100
AcDbLine
 62
7
  6
CONTINUOUS
 10
49.8737783482
 20
160.7429838902
 11
50.272697031
 21
159.9983835522
  0
LINE
  5
2AA
100
AcDbEntity
  8
0
100
AcDbLine
 62
7
  6
CONTINUOUS
 10
37.0472617003
 20
122.4117659777
 11
36.2029597239
 21
122.3849395276
  0
LINE
  5
2AB
100
AcDbEntity
  8
0
100
AcDbLine
 62
7
  6
CONTINUOUS
 10
41.6425341967
 20
127.2075078015
 11
42.486836173
 21
127.2343342517
  0
LINE
  5
2AC
100
AcDbEntity
  8
DEFAULT_1
100
AcDbLine
 62
7
  6
CENTER
 10
39.3448979485
 20
124.8096368896
 11
31.0948979485
 21
124.8096368896
  0
LINE
  5
2AD
100
AcDbEntity
  8
DEFAULT_1
100
AcDbLine
 62
7
  6
CENTER
 10
39.3448979485
 20
124.8096368896
 11
47.5948979485
 21
124.8096368896
  0
LINE
  5
2AE
100
AcDbEntity
  8
0
100
AcDbLine
 62
7
  6
CONTINUOUS
 10
36.2029597239
 20
127.2343342517
 11
37.0472617003
 21
127.2075078015
  0
LINE
  5
2AF
100
AcDbEntity
  8
A_ACHSEN
100
AcDbLine
 62
7
  6
CONTINUOUS
 10
29.4948979485
 20
133.6596368896
 11
50.1948979485
 21
133.6596368896
  0
LINE
  5
2B0
100
AcDbEntity
  8
DEFAULT_1
100
AcDbLine
 62
7
  6
CENTER
 10
50.1948979485
 20
137.8096368896
 11
47.1947979485
 21
137.8096368896
  0
LINE
  5
2B1
100
AcDbEntity
  8
DEFAULT_1
100
AcDbLine
 62
7
  6
CENTER
 10
29.4948979485
 20
137.8096368896
 11
26.4947979485
 21
137.8096368896
  0
LINE
  5
2B2
100
AcDbEntity
  8
DEFAULT_1
100
AcDbLine
 62
7
  6
CENTER
 10
29.4948979485
 20
137.8096368896
 11
32.4949979485
 21
137.8096368896
  0
LINE
  5
2B3
100
AcDbEntity
  8
DEFAULT_1
100
AcDbLine
 62
7
  6
CENTER
 10
50.1948979485
 20
137.8096368896
 11
53.1949979485
 21
137.8096368896
  0
LINE
  5
2B4
100
AcDbEntity
  8
A_ACHSEN
100
AcDbLine
 62
7
  6
CONTINUOUS
 10
50.1948979485
 20
141.9596368896
 11
29.4948979485
 21
141.9596368896
  0
LINE
  5
2B5
100
AcDbEntity
  8
0
100
AcDbLine
 62
7
  6
CONTINUOUS
 10
47.0472617003
 20
154.4117659777
 11
46.2029597239
 21
154.3849395276
  0
LINE
  5
2B6
100
AcDbEntity
  8
0
100
AcDbLine
 62
7
  6
CONTINUOUS
 10
24.0472617003
 20
154.4117659777
 11
23.2029598447
 21
154.3849395314
  0
LINE
  5
2B7
100
AcDbEntity
  8
0
100
AcDbLine
 62
7
  6
CONTINUOUS
 10
81.8458071145
 20
152.8096368896
 11
77.8458071145
 21
152.8096368896
  0
LINE
  5
2B8
100
AcDbEntity
  8
DEFAULT_1
100
AcDbLine
 62
7
  6
CENTER
 10
49.3448979485
 20
156.8096368896
 11
41.0948979485
 21
156.8096368896
  0
LINE
  5
2B9
100
AcDbEntity
  8
DEFAULT_1
100
AcDbLine
 62
7
  6
CENTER
 10
26.3448979485
 20
156.8096368896
 11
18.0948979485
 21
156.8096368896
  0
LINE
  5
2BA
100
AcDbEntity
  8
DEFAULT_1
100
AcDbLine
 62
7
  6
CENTER
 10
26.3448979485
 20
156.8096368896
 11
34.5948979485
 21
156.8096368896
  0
LINE
  5
2BB
100
AcDbEntity
  8
DEFAULT_1
100
AcDbLine
 62
7
  6
CENTER
 10
49.3448979485
 20
156.8096368896
 11
57.5948979485
 21
156.8096368896
  0
LINE
  5
2BC
100
AcDbEntity
  8
0
100
AcDbLine
 62
7
  6
CONTINUOUS
 10
29.486836173
 20
154.3849395276
 11
28.6425341967
 21
154.4117659777
  0
LINE
  5
2BD
100
AcDbEntity
  8
0
100
AcDbLine
 62
7
  6
CONTINUOUS
 10
52.486836173
 20
154.3849395276
 11
51.6425341967
 21
154.4117659777
  0
LINE
  5
2BE
100
AcDbEntity
  8
0
100
AcDbLine
 62
7
  6
CONTINUOUS
 10
51.6425341967
 20
159.2075078015
 11
52.486836173
 21
159.2343342517
  0
LINE
  5
2BF
100
AcDbEntity
  8
0
100
AcDbLine
 62
7
  6
CONTINUOUS
 10
28.6425341967
 20
159.2075078015
 11
29.486836173
 21
159.2343342517
  0
LINE
  5
2C0
100
AcDbEntity
  8
DEFAULT_1
100
AcDbLine
 62
7
  6
CENTER
 10
78.8448979485
 20
157.8096368896
 11
74.0448979485
 21
157.8096368896
  0
LINE
  5
2C1
100
AcDbEntity
  8
DEFAULT_1
100
AcDbLine
 62
7
  6
CENTER
 10
78.8448979485
 20
157.8096368896
 11
83.6448979485
 21
157.8096368896
  0
LINE
  5
2C2
100
AcDbEntity
  8
0
100
AcDbLine
 62
7
  6
CONTINUOUS
 10
23.2029597239
 20
159.2343342517
 11
24.0472617003
 21
159.2075078015
  0
LINE
  5
2C3
100
AcDbEntity
  8
0
100
AcDbLine
 62
7
  6
CONTINUOUS
 10
46.2029597239
 20
159.2343342517
 11
47.0472617003
 21
159.2075078015
  0
LINE
  5
2C4
100
AcDbEntity
  8
0
100
AcDbLine
 62
7
  6
CONTINUOUS
 10
71.3448979485
 20
164.1596368896
 11
79.3448979485
 21
164.1596368896
  0
LINE
  5
2C5
100
AcDbEntity
  8
0
100
AcDbLine
 62
7
  6
CONTINUOUS
 10
19.3448979485
 20
166.8096368896
 11
69.3448979485
 21
166.8096368896
  0
CIRCLE
  5
2C6
100
AcDbEntity
  8
A_ACHSEN
100
AcDbCircle
 62
7
  6
CONTINUOUS
 10
26.3448979485
 20
16.8096368896
 40
5.25
  0
ARC
  5
2C7
100
AcDbEntity
  8
A_ACHSEN
100
AcDbCircle
 62
7
  6
CONTINUOUS
 10
29.4948979485
 20
35.8096368896
 40
4.15
100
AcDbArc
 50
90.0
 51
270.0
  0
ARC
  5
2C8
100
AcDbEntity
  8
0
100
AcDbCircle
 62
7
  6
CONTINUOUS
 10
37.0948979485
 20
44.9125225726
 40
1.5
100
AcDbArc
 50
28.1801233609
 51
91.8198766391
  0
ARC
  5
2C9
100
AcDbEntity
  8
0
100
AcDbCircle
 62
7
  6
CONTINUOUS
 10
34.8448979485
 20
48.8096368896
 40
1.5
100
AcDbArc
 50
328.1801233609
 51
31.8198766391
  0
ARC
  5
2CA
100
AcDbEntity
  8
0
100
AcDbCircle
 62
7
  6
CONTINUOUS
 10
28.5948979485
 20
20.7067512066
 40
1.5
100
AcDbArc
 50
208.1801233609
 51
271.8198766391
  0
ARC
  5
2CB
100
AcDbEntity
  8
0
100
AcDbCircle
 62
7
  6
CONTINUOUS
 10
24.0948979485
 20
20.7067512066
 40
1.5
100
AcDbArc
 50
268.1801233609
 51
331.8198766391
  0
ARC
  5
2CC
100
AcDbEntity
  8
0
100
AcDbCircle
 62
7
  6
CONTINUOUS
 10
30.8448979485
 20
16.8096368896
 40
1.5
100
AcDbArc
 50
148.1801233609
 51
211.8198766391
  0
ARC
  5
2CD
100
AcDbEntity
  8
0
100
AcDbCircle
 62
7
  6
CONTINUOUS
 10
28.5948979485
 20
12.9125225726
 40
1.5
100
AcDbArc
 50
88.1801233609
 51
151.8198766662
  0
ARC
  5
2CE
100
AcDbEntity
  8
0
100
AcDbCircle
 62
7
  6
CONTINUOUS
 10
24.0948979485
 20
12.9125225726
 40
1.5
100
AcDbArc
 50
28.1801233609
 51
91.8198766391
  0
ARC
  5
2CF
100
AcDbEntity
  8
0
100
AcDbCircle
 62
7
  6
CONTINUOUS
 10
21.8448979485
 20
16.8096368896
 40
1.5
100
AcDbArc
 50
328.1801233609
 51
31.8198766391
  0
ARC
  5
2D0
100
AcDbEntity
  8
0
100
AcDbCircle
 62
7
  6
CONTINUOUS
 10
36.1839052247
 20
46.9846368896
 40
0.6
100
AcDbArc
 50
148.1801233609
 51
271.8198766391
  0
ARC
  5
2D1
100
AcDbEntity
  8
0
100
AcDbCircle
 62
7
  6
CONTINUOUS
 10
26.3448979485
 20
20.4596368896
 40
0.6
100
AcDbArc
 50
28.1801233609
 51
151.8198766391
  0
ARC
  5
2D2
100
AcDbEntity
  8
0
100
AcDbCircle
 62
7
  6
CONTINUOUS
 10
29.5058906723
 20
18.6346368896
 40
0.6
100
AcDbArc
 50
328.1801233609
 51
91.8198766391
  0
ARC
  5
2D3
100
AcDbEntity
  8
0
100
AcDbCircle
 62
7
  6
CONTINUOUS
 10
23.1839052247
 20
18.6346368896
 40
0.6
100
AcDbArc
 50
88.1801312494
 51
211.8198766391
  0
ARC
  5
2D4
100
AcDbEntity
  8
0
100
AcDbCircle
 62
7
  6
CONTINUOUS
 10
29.5058906723
 20
14.9846368896
 40
0.6
100
AcDbArc
 50
268.1801233609
 51
31.8198766391
  0
ARC
  5
2D5
100
AcDbEntity
  8
0
100
AcDbCircle
 62
7
  6
CONTINUOUS
 10
26.3448979485
 20
13.1596368896
 40
0.6
100
AcDbArc
 50
208.1801233609
 51
331.8198766391
  0
ARC
  5
2D6
100
AcDbEntity
  8
0
100
AcDbCircle
 62
7
  6
CONTINUOUS
 10
23.1839052247
 20
14.9846368896
 40
0.6
100
AcDbArc
 50
148.1801233609
 51
271.8198766391
  0
CIRCLE
  5
2D7
100
AcDbEntity
  8
A_ACHSEN
100
AcDbCircle
 62
7
  6
CONTINUOUS
 10
37.3448979485
 20
66.8096368896
 40
5.5
  0
ARC
  5
2D8
100
AcDbEntity
  8
0
100
AcDbCircle
 62
7
  6
CONTINUOUS
 10
35.5948979485
 20
82.9125225726
 40
1.5
100
AcDbArc
 50
88.1801233609
 51
151.8198766391
  0
ARC
  5
2D9
100
AcDbEntity
  8
0
100
AcDbCircle
 62
7
  6
CONTINUOUS
 10
31.0948979485
 20
82.9125225726
 40
1.5
100
AcDbArc
 50
28.1801233609
 51
91.8198766391
  0
ARC
  5
2DA
100
AcDbEntity
  8
0
100
AcDbCircle
 62
7
  6
CONTINUOUS
 10
37.0948979485
 20
52.7067512066
 40
1.5
100
AcDbArc
 50
268.1801233609
 51
331.8198766391
  0
ARC
  5
2DB
100
AcDbEntity
  8
0
100
AcDbCircle
 62
7
  6
CONTINUOUS
 10
36.5058906723
 20
84.9846368896
 40
0.6
100
AcDbArc
 50
268.1801233609
 51
31.8198766391
  0
ARC
  5
2DC
100
AcDbEntity
  8
0
100
AcDbCircle
 62
7
  6
CONTINUOUS
 10
33.3448979485
 20
83.1596368896
 40
0.6
100
AcDbArc
 50
208.1801233609
 51
331.8198766391
  0
ARC
  5
2DD
100
AcDbEntity
  8
0
100
AcDbCircle
 62
7
  6
CONTINUOUS
 10
30.1839052247
 20
84.9846368896
 40
0.6
100
AcDbArc
 50
148.1801233609
 51
271.8198766391
  0
ARC
  5
2DE
100
AcDbEntity
  8
0
100
AcDbCircle
 62
7
  6
CONTINUOUS
 10
36.1839052247
 20
50.6346368896
 40
0.6
100
AcDbArc
 50
88.1801233609
 51
211.8198766391
  0
CIRCLE
  5
2DF
100
AcDbEntity
  8
A_ACHSEN
100
AcDbCircle
 62
7
  6
CONTINUOUS
 10
39.3448979485
 20
48.8096368896
 40
5.25
  0
CIRCLE
  5
2E0
100
AcDbEntity
  8
A_ACHSEN
100
AcDbCircle
 62
7
  6
CONTINUOUS
 10
49.3448979485
 20
16.8096368896
 40
5.25
  0
ARC
  5
2E1
100
AcDbEntity
  8
A_ACHSEN
100
AcDbCircle
 62
7
  6
CONTINUOUS
 10
50.1948979485
 20
35.8096368896
 40
4.15
100
AcDbArc
 50
270.0
 51
90.0
  0
ARC
  5
2E2
100
AcDbEntity
  8
0
100
AcDbCircle
 62
7
  6
CONTINUOUS
 10
51.5948979485
 20
20.7067512066
 40
1.5
100
AcDbArc
 50
208.1801233609
 51
271.8198766391
  0
ARC
  5
2E3
100
AcDbEntity
  8
0
100
AcDbCircle
 62
7
  6
CONTINUOUS
 10
47.0948979485
 20
20.7067512066
 40
1.5
100
AcDbArc
 50
268.1801233609
 51
331.8198766391
  0
ARC
  5
2E4
100
AcDbEntity
  8
0
100
AcDbCircle
 62
7
  6
CONTINUOUS
 10
53.8448979485
 20
16.8096368896
 40
1.5
100
AcDbArc
 50
148.1801233609
 51
211.8198766391
  0
ARC
  5
2E5
100
AcDbEntity
  8
0
100
AcDbCircle
 62
7
  6
CONTINUOUS
 10
51.5948979485
 20
12.9125225726
 40
1.5
100
AcDbArc
 50
88.1801233609
 51
151.8198766391
  0
ARC
  5
2E6
100
AcDbEntity
  8
0
100
AcDbCircle
 62
7
  6
CONTINUOUS
 10
47.0948979485
 20
12.9125225726
 40
1.5
100
AcDbArc
 50
28.1801233609
 51
91.8198766391
  0
ARC
  5
2E7
100
AcDbEntity
  8
0
100
AcDbCircle
 62
7
  6
CONTINUOUS
 10
44.8448979485
 20
16.8096368896
 40
1.5
100
AcDbArc
 50
328.1801233609
 51
31.8198766391
  0
ARC
  5
2E8
100
AcDbEntity
  8
0
100
AcDbCircle
 62
7
  6
CONTINUOUS
 10
43.8448979485
 20
48.8096368896
 40
1.5
100
AcDbArc
 50
148.1801233609
 51
211.8198766391
  0
ARC
  5
2E9
100
AcDbEntity
  8
0
100
AcDbCircle
 62
7
  6
CONTINUOUS
 10
41.5948979485
 20
44.9125225726
 40
1.5
100
AcDbArc
 50
88.1801233609
 51
151.8198766391
  0
ARC
  5
2EA
100
AcDbEntity
  8
0
100
AcDbCircle
 62
7
  6
CONTINUOUS
 10
49.3448979485
 20
20.4596368896
 40
0.6
100
AcDbArc
 50
28.1801233609
 51
151.8198766391
  0
ARC
  5
2EB
100
AcDbEntity
  8
0
100
AcDbCircle
 62
7
  6
CONTINUOUS
 10
52.5058906723
 20
18.6346368896
 40
0.6
100
AcDbArc
 50
328.1801233609
 51
91.8198766391
  0
ARC
  5
2EC
100
AcDbEntity
  8
0
100
AcDbCircle
 62
7
  6
CONTINUOUS
 10
46.1839052247
 20
18.6346368896
 40
0.6
100
AcDbArc
 50
88.1801233609
 51
211.8198820505
  0
ARC
  5
2ED
100
AcDbEntity
  8
0
100
AcDbCircle
 62
7
  6
CONTINUOUS
 10
52.5058906723
 20
14.9846368896
 40
0.6
100
AcDbArc
 50
268.1801233609
 51
31.8198766391
  0
ARC
  5
2EE
100
AcDbEntity
  8
0
100
AcDbCircle
 62
7
  6
CONTINUOUS
 10
49.3448979485
 20
13.1596368896
 40
0.6
100
AcDbArc
 50
208.1801233609
 51
331.8198766391
  0
ARC
  5
2EF
100
AcDbEntity
  8
0
100
AcDbCircle
 62
7
  6
CONTINUOUS
 10
46.1839052247
 20
14.9846368896
 40
0.6
100
AcDbArc
 50
148.1801233609
 51
271.8198766391
  0
ARC
  5
2F0
100
AcDbEntity
  8
0
100
AcDbCircle
 62
7
  6
CONTINUOUS
 10
42.5058906723
 20
46.9846368896
 40
0.6
100
AcDbArc
 50
268.1801233609
 51
31.8198766391
  0
ARC
  5
2F1
100
AcDbEntity
  8
0
100
AcDbCircle
 62
7
  6
CONTINUOUS
 10
39.3448979485
 20
45.1596368896
 40
0.6
100
AcDbArc
 50
208.1801233609
 51
331.8198766391
  0
ARC
  5
2F2
100
AcDbEntity
  8
0
100
AcDbCircle
 62
7
  6
CONTINUOUS
 10
41.5948979485
 20
52.7067512066
 40
1.5
100
AcDbArc
 50
208.1801233609
 51
271.8198766391
  0
ARC
  5
2F3
100
AcDbEntity
  8
0
100
AcDbCircle
 62
7
  6
CONTINUOUS
 10
39.3448979485
 20
52.4596368896
 40
0.6
100
AcDbArc
 50
28.1801233609
 51
151.8198766391
  0
ARC
  5
2F4
100
AcDbEntity
  8
0
100
AcDbCircle
 62
7
  6
CONTINUOUS
 10
42.5058906723
 20
50.6346368896
 40
0.6
100
AcDbArc
 50
328.1801233609
 51
91.8198766391
  0
CIRCLE
  5
2F5
100
AcDbEntity
  8
A_ACHSEN
100
AcDbCircle
 62
7
  6
CONTINUOUS
 10
37.3448979485
 20
106.8096368896
 40
5.5
  0
CIRCLE
  5
2F6
100
AcDbEntity
  8
A_ACHSEN
100
AcDbCircle
 62
7
  6
CONTINUOUS
 10
33.3448979485
 20
86.8096368896
 40
5.25
  0
ARC
  5
2F7
100
AcDbEntity
  8
0
100
AcDbCircle
 62
7
  6
CONTINUOUS
 10
35.5948979485
 20
90.7067512066
 40
1.5
100
AcDbArc
 50
208.1801233609
 51
271.8198766391
  0
ARC
  5
2F8
100
AcDbEntity
  8
0
100
AcDbCircle
 62
7
  6
CONTINUOUS
 10
31.0948979485
 20
90.7067512066
 40
1.5
100
AcDbArc
 50
268.1801233609
 51
331.8198766391
  0
ARC
  5
2F9
100
AcDbEntity
  8
0
100
AcDbCircle
 62
7
  6
CONTINUOUS
 10
28.8448979485
 20
86.8096368896
 40
1.5
100
AcDbArc
 50
328.1801233609
 51
31.8198766391
  0
ARC
  5
2FA
100
AcDbEntity
  8
0
100
AcDbCircle
 62
7
  6
CONTINUOUS
 10
37.0948979485
 20
120.9125225726
 40
1.5
100
AcDbArc
 50
28.1801233609
 51
91.8198766391
  0
ARC
  5
2FB
100
AcDbEntity
  8
0
100
AcDbCircle
 62
7
  6
CONTINUOUS
 10
33.3448979485
 20
90.4596368896
 40
0.6
100
AcDbArc
 50
28.1801233609
 51
151.8198766391
  0
ARC
  5
2FC
100
AcDbEntity
  8
0
100
AcDbCircle
 62
7
  6
CONTINUOUS
 10
36.5058906723
 20
88.6346368896
 40
0.6
100
AcDbArc
 50
328.1801233609
 51
91.8198766391
  0
ARC
  5
2FD
100
AcDbEntity
  8
0
100
AcDbCircle
 62
7
  6
CONTINUOUS
 10
30.1839052247
 20
88.6346368896
 40
0.6
100
AcDbArc
 50
88.1801233609
 51
211.8198766391
  0
ARC
  5
2FE
100
AcDbEntity
  8
0
100
AcDbCircle
 62
7
  6
CONTINUOUS
 10
36.1839052247
 20
122.9846368896
 40
0.6
100
AcDbArc
 50
148.1801233609
 51
271.8198766391
  0
CIRCLE
  5
2FF
100
AcDbEntity
  8
A_ACHSEN
100
AcDbCircle
 62
7
  6
CONTINUOUS
 10
26.3448979485
 20
156.8096368896
 40
5.25
  0
ARC
  5
300
100
AcDbEntity
  8
A_ACHSEN
100
AcDbCircle
 62
7
  6
CONTINUOUS
 10
29.4948979485
 20
137.8096368896
 40
4.15
100
AcDbArc
 50
90.0
 51
270.0
  0
ARC
  5
301
100
AcDbEntity
  8
0
100
AcDbCircle
 62
7
  6
CONTINUOUS
 10
37.0948979485
 20
128.7067512066
 40
1.5
100
AcDbArc
 50
268.1801233609
 51
331.8198766391
  0
ARC
  5
302
100
AcDbEntity
  8
0
100
AcDbCircle
 62
7
  6
CONTINUOUS
 10
34.8448979485
 20
124.8096368896
 40
1.5
100
AcDbArc
 50
328.1801233609
 51
31.8198766391
  0
ARC
  5
303
100
AcDbEntity
  8
0
100
AcDbCircle
 62
7
  6
CONTINUOUS
 10
28.5948979485
 20
160.7067512066
 40
1.5
100
AcDbArc
 50
208.1801233609
 51
271.8198766391
  0
ARC
  5
304
100
AcDbEntity
  8
0
100
AcDbCircle
 62
7
  6
CONTINUOUS
 10
24.0948979485
 20
160.7067512066
 40
1.5
100
AcDbArc
 50
268.1801233609
 51
331.8198766391
  0
ARC
  5
305
100
AcDbEntity
  8
0
100
AcDbCircle
 62
7
  6
CONTINUOUS
 10
30.8448979485
 20
156.8096368896
 40
1.5
100
AcDbArc
 50
148.1801233609
 51
211.8198766391
  0
ARC
  5
306
100
AcDbEntity
  8
0
100
AcDbCircle
 62
7
  6
CONTINUOUS
 10
28.5948979485
 20
152.9125225726
 40
1.5
100
AcDbArc
 50
88.1801233609
 51
151.8198766391
  0
ARC
  5
307
100
AcDbEntity
  8
0
100
AcDbCircle
 62
7
  6
CONTINUOUS
 10
24.0948979485
 20
152.9125225726
 40
1.5
100
AcDbArc
 50
28.1801260091
 51
91.8198766391
  0
ARC
  5
308
100
AcDbEntity
  8
0
100
AcDbCircle
 62
7
  6
CONTINUOUS
 10
21.8448979485
 20
156.8096368896
 40
1.5
100
AcDbArc
 50
328.1801233609
 51
31.8198766391
  0
ARC
  5
309
100
AcDbEntity
  8
0
100
AcDbCircle
 62
7
  6
CONTINUOUS
 10
36.1839052247
 20
126.6346368896
 40
0.6
100
AcDbArc
 50
88.1801233609
 51
211.8198766391
  0
ARC
  5
30A
100
AcDbEntity
  8
0
100
AcDbCircle
 62
7
  6
CONTINUOUS
 10
26.3448979485
 20
160.4596368896
 40
0.6
100
AcDbArc
 50
28.1801233609
 51
151.8198766391
  0
ARC
  5
30B
100
AcDbEntity
  8
0
100
AcDbCircle
 62
7
  6
CONTINUOUS
 10
29.5058906723
 20
158.6346368896
 40
0.6
100
AcDbArc
 50
328.1801233609
 51
91.8198766391
  0
ARC
  5
30C
100
AcDbEntity
  8
0
100
AcDbCircle
 62
7
  6
CONTINUOUS
 10
23.1839052247
 20
158.6346368896
 40
0.6
100
AcDbArc
 50
88.1801233609
 51
211.8198766391
  0
ARC
  5
30D
100
AcDbEntity
  8
0
100
AcDbCircle
 62
7
  6
CONTINUOUS
 10
29.5058906723
 20
154.9846368896
 40
0.6
100
AcDbArc
 50
268.1801233609
 51
31.8198766391
  0
ARC
  5
30E
100
AcDbEntity
  8
0
100
AcDbCircle
 62
7
  6
CONTINUOUS
 10
26.3448979485
 20
153.1596368896
 40
0.6
100
AcDbArc
 50
208.1801233609
 51
331.8198766391
  0
ARC
  5
30F
100
AcDbEntity
  8
0
100
AcDbCircle
 62
7
  6
CONTINUOUS
 10
23.1839052247
 20
154.9846368896
 40
0.6
100
AcDbArc
 50
148.1801233609
 51
271.8198881772
  0
ARC
  5
310
100
AcDbEntity
  8
0
100
AcDbCircle
 62
7
  6
CONTINUOUS
 10
37.8448979485
 20
86.8096368896
 40
1.5
100
AcDbArc
 50
148.1801233609
 51
211.8198766391
  0
ARC
  5
311
100
AcDbEntity
  8
0
100
AcDbCircle
 62
7
  6
CONTINUOUS
 10
41.5948979485
 20
120.9125225726
 40
1.5
100
AcDbArc
 50
88.1801233609
 51
151.8198766391
  0
ARC
  5
312
100
AcDbEntity
  8
0
100
AcDbCircle
 62
7
  6
CONTINUOUS
 10
42.5058906723
 20
122.9846368896
 40
0.6
100
AcDbArc
 50
268.1801233609
 51
31.8198766391
  0
ARC
  5
313
100
AcDbEntity
  8
0
100
AcDbCircle
 62
7
  6
CONTINUOUS
 10
39.3448979485
 20
121.1596368896
 40
0.6
100
AcDbArc
 50
208.1801233609
 51
331.8198766391
  0
CIRCLE
  5
314
100
AcDbEntity
  8
A_ACHSEN
100
AcDbCircle
 62
7
  6
CONTINUOUS
 10
39.3448979485
 20
124.8096368896
 40
5.25
  0
CIRCLE
  5
315
100
AcDbEntity
  8
A_ACHSEN
100
AcDbCircle
 62
7
  6
CONTINUOUS
 10
49.3448979485
 20
156.8096368896
 40
5.25
  0
ARC
  5
316
100
AcDbEntity
  8
A_ACHSEN
100
AcDbCircle
 62
7
  6
CONTINUOUS
 10
50.1948979485
 20
137.8096368896
 40
4.15
100
AcDbArc
 50
270.0
 51
90.0
  0
ARC
  5
317
100
AcDbEntity
  8
0
100
AcDbCircle
 62
7
  6
CONTINUOUS
 10
51.5948979485
 20
160.7067512066
 40
1.5
100
AcDbArc
 50
208.1801299866
 51
271.8198766391
  0
ARC
  5
318
100
AcDbEntity
  8
0
100
AcDbCircle
 62
7
  6
CONTINUOUS
 10
47.0948979485
 20
160.7067512066
 40
1.5
100
AcDbArc
 50
268.1801233609
 51
331.8198766391
  0
ARC
  5
319
100
AcDbEntity
  8
0
100
AcDbCircle
 62
7
  6
CONTINUOUS
 10
53.8448979485
 20
156.8096368896
 40
1.5
100
AcDbArc
 50
148.1801298482
 51
211.8198766391
  0
ARC
  5
31A
100
AcDbEntity
  8
0
100
AcDbCircle
 62
7
  6
CONTINUOUS
 10
51.5948979485
 20
152.9125225726
 40
1.5
100
AcDbArc
 50
88.1801233609
 51
151.8198766391
  0
ARC
  5
31B
100
AcDbEntity
  8
0
100
AcDbCircle
 62
7
  6
CONTINUOUS
 10
47.0948979485
 20
152.9125225726
 40
1.5
100
AcDbArc
 50
28.1801233609
 51
91.8198766391
  0
ARC
  5
31C
100
AcDbEntity
  8
0
100
AcDbCircle
 62
7
  6
CONTINUOUS
 10
44.8448979485
 20
156.8096368896
 40
1.5
100
AcDbArc
 50
328.1801233609
 51
31.8198766468
  0
ARC
  5
31D
100
AcDbEntity
  8
0
100
AcDbCircle
 62
7
  6
CONTINUOUS
 10
41.5948979485
 20
128.7067512066
 40
1.5
100
AcDbArc
 50
208.1801233609
 51
271.8198766391
  0
ARC
  5
31E
100
AcDbEntity
  8
0
100
AcDbCircle
 62
7
  6
CONTINUOUS
 10
43.8448979485
 20
124.8096368896
 40
1.5
100
AcDbArc
 50
148.1801233609
 51
211.8198766391
  0
ARC
  5
31F
100
AcDbEntity
  8
0
100
AcDbCircle
 62
7
  6
CONTINUOUS
 10
49.3448979485
 20
160.4596368896
 40
0.6
100
AcDbArc
 50
28.1801233609
 51
151.8198766391
  0
ARC
  5
320
100
AcDbEntity
  8
0
100
AcDbCircle
 62
7
  6
CONTINUOUS
 10
52.5058906723
 20
158.6346368896
 40
0.6
100
AcDbArc
 50
328.1801233609
 51
91.8198766391
  0
ARC
  5
321
100
AcDbEntity
  8
0
100
AcDbCircle
 62
7
  6
CONTINUOUS
 10
46.1839052247
 20
158.6346368896
 40
0.6
100
AcDbArc
 50
88.1801233609
 51
211.8198766391
  0
ARC
  5
322
100
AcDbEntity
  8
0
100
AcDbCircle
 62
7
  6
CONTINUOUS
 10
52.5058906723
 20
154.9846368896
 40
0.6
100
AcDbArc
 50
268.1801233609
 51
31.8198766391
  0
ARC
  5
323
100
AcDbEntity
  8
0
100
AcDbCircle
 62
7
  6
CONTINUOUS
 10
49.3448979485
 20
153.1596368896
 40
0.6
100
AcDbArc
 50
208.1801233609
 51
331.8198766391
  0
ARC
  5
324
100
AcDbEntity
  8
0
100
AcDbCircle
 62
7
  6
CONTINUOUS
 10
46.1839052247
 20
154.9846368896
 40
0.6
100
AcDbArc
 50
148.1801233609
 51
271.8198766391
  0
ARC
  5
325
100
AcDbEntity
  8
0
100
AcDbCircle
 62
7
  6
CONTINUOUS
 10
39.3448979485
 20
128.4596368896
 40
0.6
100
AcDbArc
 50
28.1801233609
 51
151.8198766391
  0
ARC
  5
326
100
AcDbEntity
  8
0
100
AcDbCircle
 62
7
  6
CONTINUOUS
 10
42.5058906723
 20
126.6346368896
 40
0.6
100
AcDbArc
 50
328.1801233609
 51
91.8198766391
  0
ARC
  5
327
100
AcDbEntity
  8
0
100
AcDbCircle
 62
7
  6
CONTINUOUS
 10
79.3448979485
 20
19.4596368896
 40
10.0
100
AcDbArc
 50
270.0
 51
360.0
  0
ARC
  5
328
100
AcDbEntity
  8
0
100
AcDbCircle
 62
7
  6
CONTINUOUS
 10
77.3448979485
 20
30.2964219092
 40
9.5
100
AcDbArc
 50
180.0
 51
273.022452237
  0
ARC
  5
329
100
AcDbEntity
  8
0
100
AcDbCircle
 62
7
  6
CONTINUOUS
 10
81.8458071145
 20
30.3096368896
 40
9.5
100
AcDbArc
 50
270.0
 51
298.5667204538
  0
ARC
  5
32A
100
AcDbEntity
  8
0
100
AcDbCircle
 62
2
  6
CONTINUOUS
 10
78.8448979485
 20
15.8096368896
 40
2.5
100
AcDbArc
 50
255.0
 51
195.0
  0
ARC
  5
32B
100
AcDbEntity
  8
0
100
AcDbCircle
 62
7
  6
CONTINUOUS
 10
87.3448979485
 20
20.2096368896
 40
2.0
100
AcDbArc
 50
0.0
 51
118.5667204538
  0
ARC
  5
32C
100
AcDbEntity
  8
0
100
AcDbCircle
 62
7
  6
CONTINUOUS
 10
71.3448979485
 20
7.4596368896
 40
2.0
100
AcDbArc
 50
90.0
 51
180.0
  0
CIRCLE
  5
32D
100
AcDbEntity
  8
A_ACHSEN
100
AcDbCircle
 62
7
  6
CONTINUOUS
 10
78.8448979485
 20
15.8096368896
 40
1.8
  0
ARC
  5
32E
100
AcDbEntity
  8
0
100
AcDbCircle
 62
7
  6
CONTINUOUS
 10
79.3448979485
 20
154.1596368896
 40
10.0
100
AcDbArc
 50
0.0
 51
90.0
  0
ARC
  5
32F
100
AcDbEntity
  8
0
100
AcDbCircle
 62
7
  6
CONTINUOUS
 10
81.8458071145
 20
143.3096368896
 40
9.5
100
AcDbArc
 50
61.4332795462
 51
90.0
  0
ARC
  5
330
100
AcDbEntity
  8
0
100
AcDbCircle
 62
7
  6
CONTINUOUS
 10
77.3448979485
 20
143.3228518701
 40
9.5
100
AcDbArc
 50
86.977547763
 51
180.0
  0
ARC
  5
331
100
AcDbEntity
  8
0
100
AcDbCircle
 62
2
  6
CONTINUOUS
 10
78.8448979485
 20
157.8096368896
 40
2.5
100
AcDbArc
 50
255.0
 51
195.0
  0
ARC
  5
332
100
AcDbEntity
  8
0
100
AcDbCircle
 62
7
  6
CONTINUOUS
 10
71.3448979485
 20
166.1596368896
 40
2.0
100
AcDbArc
 50
180.0
 51
270.0
  0
ARC
  5
333
100
AcDbEntity
  8
0
100
AcDbCircle
 62
7
  6
CONTINUOUS
 10
87.3448979485
 20
153.4096368896
 40
2.0
100
AcDbArc
 50
241.4332795462
 51
360.0
  0
CIRCLE
  5
334
100
AcDbEntity
  8
A_ACHSEN
100
AcDbCircle
 62
7
  6
CONTINUOUS
 10
78.8448979485
 20
157.8096368896
 40
1.8
  0
ENDSEC
  0
SECTION
  2
OBJECTS
  0
DICTIONARY
  5
335
100
AcDbDictionary
  3
ACAD_GROUP
350
336
  3
ACAD_MLINESTYLE
350
337
  0
DICTIONARY
  5
336
102
{ACAD_REACTORS
330
335
102
}
100
AcDbDictionary
  0
DICTIONARY
  5
337
102
{ACAD_REACTORS
330
335
102
}
100
AcDbDictionary
  3
STANDARD
350
338
  0
MLINESTYLE
  5
338
102
{ACAD_REACTORS
330
337
102
}
100
AcDbMlineStyle
  2
STANDARD
 70
0
  3

 62
256
 51
90.0
 52
90.0
 71
2
 49
0.5
 62
256
  6
BYLAYER
 49
-0.5
 62
256
  6
BYLAYER
  0
ENDSEC
  0
EOF
