  0
SECTION
  2
HEADER
  9
$ACADVER
  1
AC1018
  9
$ACADMAINTVER
 70
     0
  9
$DWGCODEPAGE
  3
ANSI_1252
  9
$INSBASE
 10
0.0
 20
0.0
 30
0.0
  9
$EXTMIN
 10
284.6713041535669
 20
183.895866267286
 30
0.0
  9
$EXTMAX
 10
403.405963712947
 20
300.70810141156
 30
0.0
  9
$LIMMIN
 10
0.0
 20
0.0
  9
$LIMMAX
 10
12.0
 20
9.0
  9
$ORTHOMODE
 70
     0
  9
$REGENMODE
 70
     1
  9
$FILLMODE
 70
     1
  9
$QTEXTMODE
 70
     0
  9
$MIRRTEXT
 70
     1
  9
$LTSCALE
 40
1.0
  9
$ATTMODE
 70
     1
  9
$TEXTSIZE
 40
0.2
  9
$TRACEWID
 40
0.05
  9
$TEXTSTYLE
  7
Standard
  9
$CLAYER
  8
0
  9
$CELTYPE
  6
ByLayer
  9
$CECOLOR
 62
   256
  9
$CELTSCALE
 40
1.0
  9
$DISPSILH
 70
     0
  9
$DIMSCALE
 40
1.0
  9
$DIMASZ
 40
0.18
  9
$DIMEXO
 40
0.0625
  9
$DIMDLI
 40
0.38
  9
$DIMRND
 40
0.0
  9
$DIMDLE
 40
0.0
  9
$DIMEXE
 40
0.18
  9
$DIMTP
 40
0.0
  9
$DIMTM
 40
0.0
  9
$DIMTXT
 40
0.18
  9
$DIMCEN
 40
0.09
  9
$DIMTSZ
 40
0.0
  9
$DIMTOL
 70
     0
  9
$DIMLIM
 70
     0
  9
$DIMTIH
 70
     1
  9
$DIMTOH
 70
     1
  9
$DIMSE1
 70
     0
  9
$DIMSE2
 70
     0
  9
$DIMTAD
 70
     0
  9
$DIMZIN
 70
     0
  9
$DIMBLK
  1

  9
$DIMASO
 70
     1
  9
$DIMSHO
 70
     1
  9
$DIMPOST
  1

  9
$DIMAPOST
  1

  9
$DIMALT
 70
     0
  9
$DIMALTD
 70
     2
  9
$DIMALTF
 40
25.4
  9
$DIMLFAC
 40
1.0
  9
$DIMTOFL
 70
     0
  9
$DIMTVP
 40
0.0
  9
$DIMTIX
 70
     0
  9
$DIMSOXD
 70
     0
  9
$DIMSAH
 70
     0
  9
$DIMBLK1
  1

  9
$DIMBLK2
  1

  9
$DIMSTYLE
  2
Standard
  9
$DIMCLRD
 70
     0
  9
$DIMCLRE
 70
     0
  9
$DIMCLRT
 70
     0
  9
$DIMTFAC
 40
1.0
  9
$DIMGAP
 40
0.09
  9
$DIMJUST
 70
     0
  9
$DIMSD1
 70
     0
  9
$DIMSD2
 70
     0
  9
$DIMTOLJ
 70
     1
  9
$DIMTZIN
 70
     0
  9
$DIMALTZ
 70
     0
  9
$DIMALTTZ
 70
     0
  9
$DIMUPT
 70
     0
  9
$DIMDEC
 70
     4
  9
$DIMTDEC
 70
     4
  9
$DIMALTU
 70
     2
  9
$DIMALTTD
 70
     2
  9
$DIMTXSTY
  7
Standard
  9
$DIMAUNIT
 70
     0
  9
$DIMADEC
 70
     0
  9
$DIMALTRND
 40
0.0
  9
$DIMAZIN
 70
     0
  9
$DIMDSEP
 70
    46
  9
$DIMATFIT
 70
     3
  9
$DIMFRAC
 70
     0
  9
$DIMLDRBLK
  1

  9
$DIMLUNIT
 70
     2
  9
$DIMLWD
 70
    -2
  9
$DIMLWE
 70
    -2
  9
$DIMTMOVE
 70
     0
  9
$LUNITS
 70
     2
  9
$LUPREC
 70
     4
  9
$SKETCHINC
 40
0.1
  9
$FILLETRAD
 40
0.5
  9
$AUNITS
 70
     0
  9
$AUPREC
 70
     0
  9
$MENU
  1
.
  9
$ELEVATION
 40
0.0
  9
$PELEVATION
 40
0.0
  9
$THICKNESS
 40
0.0
  9
$LIMCHECK
 70
     0
  9
$CHAMFERA
 40
0.5
  9
$CHAMFERB
 40
0.5
  9
$CHAMFERC
 40
1.0
  9
$CHAMFERD
 40
0.0
  9
$SKPOLY
 70
     0
  9
$TDCREATE
 40
2455841.338293056
  9
$TDUCREATE
 40
2455841.254959722
  9
$TDUPDATE
 40
2455841.338293067
  9
$TDUUPDATE
 40
2455841.254959734
  9
$TDINDWG
 40
0.0000000116
  9
$TDUSRTIMER
 40
0.0000000116
  9
$USRTIMER
 70
     1
  9
$ANGBASE
 50
0.0
  9
$ANGDIR
 70
     0
  9
$PDMODE
 70
     0
  9
$PDSIZE
 40
0.0
  9
$PLINEWID
 40
0.0
  9
$SPLFRAME
 70
     0
  9
$SPLINETYPE
 70
     6
  9
$SPLINESEGS
 70
     8
  9
$HANDSEED
  5
13D
  9
$SURFTAB1
 70
     6
  9
$SURFTAB2
 70
     6
  9
$SURFTYPE
 70
     6
  9
$SURFU
 70
     6
  9
$SURFV
 70
     6
  9
$UCSBASE
  2

  9
$UCSNAME
  2

  9
$UCSORG
 10
0.0
 20
0.0
 30
0.0
  9
$UCSXDIR
 10
1.0
 20
0.0
 30
0.0
  9
$UCSYDIR
 10
0.0
 20
1.0
 30
0.0
  9
$UCSORTHOREF
  2

  9
$UCSORTHOVIEW
 70
     0
  9
$UCSORGTOP
 10
0.0
 20
0.0
 30
0.0
  9
$UCSORGBOTTOM
 10
0.0
 20
0.0
 30
0.0
  9
$UCSORGLEFT
 10
0.0
 20
0.0
 30
0.0
  9
$UCSORGRIGHT
 10
0.0
 20
0.0
 30
0.0
  9
$UCSORGFRONT
 10
0.0
 20
0.0
 30
0.0
  9
$UCSORGBACK
 10
0.0
 20
0.0
 30
0.0
  9
$PUCSBASE
  2

  9
$PUCSNAME
  2

  9
$PUCSORG
 10
0.0
 20
0.0
 30
0.0
  9
$PUCSXDIR
 10
1.0
 20
0.0
 30
0.0
  9
$PUCSYDIR
 10
0.0
 20
1.0
 30
0.0
  9
$PUCSORTHOREF
  2

  9
$PUCSORTHOVIEW
 70
     0
  9
$PUCSORGTOP
 10
0.0
 20
0.0
 30
0.0
  9
$PUCSORGBOTTOM
 10
0.0
 20
0.0
 30
0.0
  9
$PUCSORGLEFT
 10
0.0
 20
0.0
 30
0.0
  9
$PUCSORGRIGHT
 10
0.0
 20
0.0
 30
0.0
  9
$PUCSORGFRONT
 10
0.0
 20
0.0
 30
0.0
  9
$PUCSORGBACK
 10
0.0
 20
0.0
 30
0.0
  9
$USERI1
 70
     0
  9
$USERI2
 70
     0
  9
$USERI3
 70
     0
  9
$USERI4
 70
     0
  9
$USERI5
 70
     0
  9
$USERR1
 40
14.5
  9
$USERR2
 40
0.0
  9
$USERR3
 40
0.0
  9
$USERR4
 40
0.0
  9
$USERR5
 40
0.0
  9
$WORLDVIEW
 70
     1
  9
$SHADEDGE
 70
     3
  9
$SHADEDIF
 70
    70
  9
$TILEMODE
 70
     1
  9
$MAXACTVP
 70
    64
  9
$PINSBASE
 10
0.0
 20
0.0
 30
0.0
  9
$PLIMCHECK
 70
     0
  9
$PEXTMIN
 10
1.00000000000000E+20
 20
1.00000000000000E+20
 30
1.00000000000000E+20
  9
$PEXTMAX
 10
-1.00000000000000E+20
 20
-1.00000000000000E+20
 30
-1.00000000000000E+20
  9
$PLIMMIN
 10
0.0
 20
0.0
  9
$PLIMMAX
 10
12.0
 20
9.0
  9
$UNITMODE
 70
     0
  9
$VISRETAIN
 70
     1
  9
$PLINEGEN
 70
     0
  9
$PSLTSCALE
 70
     1
  9
$TREEDEPTH
 70
  3020
  9
$CMLSTYLE
  2
Standard
  9
$CMLJUST
 70
     0
  9
$CMLSCALE
 40
1.0
  9
$PROXYGRAPHICS
 70
     1
  9
$MEASUREMENT
 70
     1
  9
$CELWEIGHT
370
    -1
  9
$ENDCAPS
280
     0
  9
$JOINSTYLE
280
     0
  9
$LWDISPLAY
290
     0
  9
$INSUNITS
 70
     1
  9
$HYPERLINKBASE
  1

  9
$STYLESHEET
  1

  9
$XEDIT
290
     1
  9
$CEPSNTYPE
380
     0
  9
$PSTYLEMODE
290
     1
  9
$FINGERPRINTGUID
  2
{00341184-ADEC-4896-B957-36DBA8311E4C}
  9
$VERSIONGUID
  2
{FAEB1C32-E019-11D5-929B-00C0DF256EC4}
  9
$EXTNAMES
290
     1
  9
$PSVPSCALE
 40
0.0
  9
$OLESTARTUP
290
     0
  9
$SORTENTS
280
   127
  9
$INDEXCTL
280
     0
  9
$HIDETEXT
280
     1
  9
$XCLIPFRAME
290
     0
  9
$HALOGAP
280
     0
  9
$OBSCOLOR
 70
   257
  9
$OBSLTYPE
280
     0
  9
$INTERSECTIONDISPLAY
280
     0
  9
$INTERSECTIONCOLOR
 70
   257
  9
$DIMASSOC
280
     2
  9
$PROJECTNAME
  1

  0
ENDSEC
  0
SECTION
  2
CLASSES
  0
CLASS
  1
ACDBDICTIONARYWDFLT
  2
AcDbDictionaryWithDefault
  3
ObjectDBX Classes
 90
        0
 91
        3
280
     0
281
     0
  0
CLASS
  1

  2
exOdDbCircle
  3

 90
        0
 91
        3
280
     0
281
     1
  0
ENDSEC
  0
SECTION
  2
TABLES
  0
TABLE
  2
VPORT
  5
8
330
0
100
AcDbSymbolTable
 70
     1
  0
VPORT
  5
29
330
8
100
AcDbSymbolTableRecord
100
AcDbViewportTableRecord
  2
*Active
 70
     0
 10
0.0
 20
0.0
 11
1.0
 21
1.0
 12
344.038633933257
 22
242.301983839423
 13
0.0
 23
0.0
 14
0.5
 24
0.5
 15
0.5
 25
0.5
 16
0.0
 26
0.0
 36
1.0
 17
0.0
 27
0.0
 37
0.0
 40
128.4934586587014
 41
1.60267857142857
 42
50.0
 43
0.0
 44
0.0
 50
0.0
 51
0.0
 71
     0
 72
   100
 73
     1
 74
     3
 75
     0
 76
     0
 77
     0
 78
     0
281
     0
 65
     1
110
0.0
120
0.0
130
0.0
111
1.0
121
0.0
131
0.0
112
0.0
122
1.0
132
0.0
 79
     0
146
0.0
  0
ENDTAB
  0
TABLE
  2
LTYPE
  5
5
330
0
100
AcDbSymbolTable
 70
     8
  0
LTYPE
  5
14
330
5
100
AcDbSymbolTableRecord
100
AcDbLinetypeTableRecord
  2
ByBlock
 70
     0
  3

 72
    65
 73
     0
 40
0.0
  0
LTYPE
  5
15
330
5
100
AcDbSymbolTableRecord
100
AcDbLinetypeTableRecord
  2
ByLayer
 70
     0
  3

 72
    65
 73
     0
 40
0.0
  0
LTYPE
  5
16
330
5
100
AcDbSymbolTableRecord
100
AcDbLinetypeTableRecord
  2
Continuous
 70
     0
  3
Solid line
 72
    65
 73
     0
 40
0.0
  0
LTYPE
  5
2A
330
5
100
AcDbSymbolTableRecord
100
AcDbLinetypeTableRecord
  2
DASHED
 70
     0
  3
Dashed
 72
    65
 73
     2
 40
15.0
 49
7.0
 74
     0
 49
-8.0
 74
     0
  0
LTYPE
  5
2B
330
5
100
AcDbSymbolTableRecord
100
AcDbLinetypeTableRecord
  2
DOTTED
 70
     0
  3
Dotted
 72
    65
 73
     2
 40
1.0
 49
0.0
 74
     0
 49
-1.0
 74
     0
  0
LTYPE
  5
2C
330
5
100
AcDbSymbolTableRecord
100
AcDbLinetypeTableRecord
  2
DOT_CENTER
 70
     0
  3
Dot_Center
 72
    65
 73
     4
 40
14.0
 49
12.0
 74
     0
 49
-1.0
 74
     0
 49
0.0
 74
     0
 49
-1.0
 74
     0
  0
LTYPE
  5
2D
330
5
100
AcDbSymbolTableRecord
100
AcDbLinetypeTableRecord
  2
LONG_DASHED
 70
     0
  3
Long_Dashed
 72
    65
 73
     2
 40
15.0
 49
10.0
 74
     0
 49
-5.0
 74
     0
  0
LTYPE
  5
2E
330
5
100
AcDbSymbolTableRecord
100
AcDbLinetypeTableRecord
  2
DASH_CENTER
 70
     0
  3
Dash_Center
 72
    65
 73
     4
 40
14.0
 49
11.0
 74
     0
 49
-1.0
 74
     0
 49
1.0
 74
     0
 49
-1.0
 74
     0
  0
LTYPE
  5
2F
330
5
100
AcDbSymbolTableRecord
100
AcDbLinetypeTableRecord
  2
PHANTOM
 70
     0
  3
Phantom
 72
    65
 73
     6
 40
13.0
 49
10.0
 74
     0
 49
-1.0
 74
     0
 49
0.0
 74
     0
 49
-1.0
 74
     0
 49
0.0
 74
     0
 49
-1.0
 74
     0
  0
LTYPE
  5
30
330
5
100
AcDbSymbolTableRecord
100
AcDbLinetypeTableRecord
  2
CENTER_DASH_DASH
 70
     0
  3
Center_Dash_Dash
 72
    65
 73
     6
 40
14.0
 49
9.0
 74
     0
 49
-1.0
 74
     0
 49
1.0
 74
     0
 49
-1.0
 74
     0
 49
1.0
 74
     0
 49
-1.0
 74
     0
  0
ENDTAB
  0
TABLE
  2
LAYER
  5
2
330
0
100
AcDbSymbolTable
 70
     2
  0
LAYER
  5
10
330
2
100
AcDbSymbolTableRecord
100
AcDbLayerTableRecord
  2
0
 70
     0
 62
     7
  6
Continuous
370
    -3
390
F
  0
LAYER
  5
31
330
2
100
AcDbSymbolTableRecord
100
AcDbLayerTableRecord
  2
1
 70
     0
 62
     7
  6
Continuous
370
    -3
390
F
  0
ENDTAB
  0
TABLE
  2
STYLE
  5
3
330
0
100
AcDbSymbolTable
 70
     2
  0
STYLE
  5
11
330
3
100
AcDbSymbolTableRecord
100
AcDbTextStyleTableRecord
  2
Standard
 70
     0
 40
0.0
 41
1.0
 50
0.0
 71
     0
 42
0.2
  3
txt
  4

  0
STYLE
  5
107
330
3
100
AcDbSymbolTableRecord
100
AcDbTextStyleTableRecord
  2
CONVERTER_11
 70
     0
 40
0.0
 41
0.9
 50
0.0
 71
     0
 42
0.2
  3
txt.shx
  4

  0
ENDTAB
  0
TABLE
  2
VIEW
  5
6
330
0
100
AcDbSymbolTable
 70
     0
  0
ENDTAB
  0
TABLE
  2
UCS
  5
7
330
0
100
AcDbSymbolTable
 70
     0
  0
ENDTAB
  0
TABLE
  2
APPID
  5
9
330
0
100
AcDbSymbolTable
 70
     1
  0
APPID
  5
12
330
9
100
AcDbSymbolTableRecord
100
AcDbRegAppTableRecord
  2
ACAD
 70
     0
  0
ENDTAB
  0
TABLE
  2
DIMSTYLE
  5
A
330
0
100
AcDbSymbolTable
 70
     6
100
AcDbDimStyleTable
  0
DIMSTYLE
105
27
330
A
100
AcDbSymbolTableRecord
100
AcDbDimStyleTableRecord
  2
Standard
 70
     0
340
11
  0
DIMSTYLE
105
10B
102
{ACAD_REACTORS
330
10C
102
}
330
A
100
AcDbSymbolTableRecord
100
AcDbDimStyleTableRecord
  2
ME10_DIM_10
 70
     0
 41
3.5
 42
0.0
 44
2.0
 73
     0
 74
     0
 77
     1
 78
     8
140
3.5
147
2.0
172
     1
173
     1
176
     2
177
     2
178
     2
271
     3
340
107
  0
DIMSTYLE
105
116
102
{ACAD_REACTORS
330
117
102
}
330
A
100
AcDbSymbolTableRecord
100
AcDbDimStyleTableRecord
  2
ME10_DIM_11
 70
     0
 41
3.5
 42
0.0
 44
2.0
 73
     0
 74
     0
 77
     1
 78
     8
140
3.5
147
2.0
172
     1
173
     1
176
     2
177
     2
178
     2
271
     3
340
107
  0
DIMSTYLE
105
123
102
{ACAD_REACTORS
330
124
102
}
330
A
100
AcDbSymbolTableRecord
100
AcDbDimStyleTableRecord
  2
ME10_DIM_12
 70
     0
 41
3.5
 42
0.0
 44
2.0
 73
     0
 74
     0
 77
     1
 78
     8
140
3.5
147
2.0
172
     1
173
     1
176
     2
177
     2
178
     2
271
     3
340
107
  0
DIMSTYLE
105
130
102
{ACAD_REACTORS
330
131
102
}
330
A
100
AcDbSymbolTableRecord
100
AcDbDimStyleTableRecord
  2
ME10_DIM_13
 70
     0
 41
3.5
 42
0.0
 44
2.0
 73
     0
 74
     0
 77
     1
 78
     8
140
3.5
147
2.0
172
     1
173
     1
176
     2
177
     2
178
     2
271
     3
340
107
  0
DIMSTYLE
105
13B
102
{ACAD_REACTORS
330
13C
102
}
330
A
100
AcDbSymbolTableRecord
100
AcDbDimStyleTableRecord
  2
ME10_DIM_14
 70
     0
 41
3.5
 42
0.0
 44
2.0
 73
     0
 74
     0
 77
     1
 78
     8
140
3.5
147
2.0
172
     1
173
     1
176
     2
177
     2
178
     2
271
     3
340
107
  0
ENDTAB
  0
TABLE
  2
BLOCK_RECORD
  5
1
330
0
100
AcDbSymbolTable
 70
     6
  0
BLOCK_RECORD
  5
1F
330
1
100
AcDbSymbolTableRecord
100
AcDbBlockTableRecord
  2
*Model_Space
340
22
  0
BLOCK_RECORD
  5
1B
330
1
100
AcDbSymbolTableRecord
100
AcDbBlockTableRecord
  2
*Paper_Space
340
1E
  0
BLOCK_RECORD
  5
23
330
1
100
AcDbSymbolTableRecord
100
AcDbBlockTableRecord
  2
*Paper_Space0
340
26
  0
BLOCK_RECORD
  5
101
330
1
100
AcDbSymbolTableRecord
100
AcDbBlockTableRecord
  2
*D1
340
0
  0
BLOCK_RECORD
  5
10D
330
1
100
AcDbSymbolTableRecord
100
AcDbBlockTableRecord
  2
*D2
340
0
  0
BLOCK_RECORD
  5
118
330
1
100
AcDbSymbolTableRecord
100
AcDbBlockTableRecord
  2
*D3
340
0
  0
BLOCK_RECORD
  5
125
330
1
100
AcDbSymbolTableRecord
100
AcDbBlockTableRecord
  2
*D4
340
0
  0
BLOCK_RECORD
  5
132
330
1
100
AcDbSymbolTableRecord
100
AcDbBlockTableRecord
  2
*D5
340
0
  0
ENDTAB
  0
ENDSEC
  0
SECTION
  2
BLOCKS
  0
BLOCK
  5
20
330
1F
100
AcDbEntity
  8
0
100
AcDbBlockBegin
  2
*Model_Space
 70
     0
 71
     0
 10
0.0
 20
0.0
 30
0.0
  3
*Model_Space
  1

  0
ENDBLK
  5
21
330
1F
100
AcDbEntity
  8
0
100
AcDbBlockEnd
  0
BLOCK
  5
1C
330
1B
100
AcDbEntity
 67
     1
  8
0
100
AcDbBlockBegin
  2
*Paper_Space
 70
     0
 71
     0
 10
0.0
 20
0.0
 30
0.0
  3
*Paper_Space
  1

  0
ENDBLK
  5
1D
330
1B
100
AcDbEntity
 67
     1
  8
0
100
AcDbBlockEnd
  0
BLOCK
  5
24
330
23
100
AcDbEntity
  8
0
100
AcDbBlockBegin
  2
*Paper_Space0
 70
     0
 71
     0
 10
0.0
 20
0.0
 30
0.0
  3
*Paper_Space0
  1

  0
ENDBLK
  5
25
330
23
100
AcDbEntity
  8
0
100
AcDbBlockEnd
  0
BLOCK
  5
109
330
101
100
AcDbEntity
  8
0
100
AcDbBlockBegin
  2
*D1
 70
     1
 71
     0
 10
0.0
 20
0.0
 30
0.0
  3
*D1
  1

  0
LINE
  5
102
330
101
100
AcDbEntity
  8
1
  6
Continuous
 62
     2
100
AcDbLine
 10
303.6713041535665
 20
185.895866267286
 30
0.0
 11
334.6713041535669
 21
185.895866267286
 31
0.0
  0
LINE
  5
103
330
101
100
AcDbEntity
  8
1
  6
Continuous
 62
     2
100
AcDbLine
 10
334.6713041535669
 20
205.985348568515
 30
0.0
 11
334.6713041535669
 21
183.895866267286
 31
0.0
  0
LINE
  5
104
330
101
100
AcDbEntity
  8
1
  6
Continuous
 62
     2
100
AcDbLine
 10
303.6713041535665
 20
209.9853485685152
 30
0.0
 11
303.6713041535665
 21
183.895866267286
 31
0.0
  0
SOLID
  5
105
330
101
100
AcDbEntity
  8
1
 62
     2
100
AcDbTrace
 10
307.1713041535665
 20
186.3566500088419
 30
0.0
 11
307.1713041535665
 21
185.4350825257301
 31
0.0
 12
303.6713041535665
 22
185.895866267286
 32
0.0
 13
303.6713041535665
 23
185.895866267286
 33
0.0
  0
SOLID
  5
106
330
101
100
AcDbEntity
  8
1
 62
     2
100
AcDbTrace
 10
331.1713041535669
 20
185.4350825257301
 30
0.0
 11
331.1713041535669
 21
186.3566500088419
 31
0.0
 12
334.6713041535669
 22
185.895866267286
 32
0.0
 13
334.6713041535669
 23
185.895866267286
 33
0.0
  0
MTEXT
  5
108
330
101
100
AcDbEntity
  8
1
 62
     2
100
AcDbMText
 10
315.8862064040507
 20
187.895866267286
 30
0.0
 40
3.5
 41
0.0
 71
     7
 72
     1
  1
31
  7
CONVERTER_11
 11
0.9999999999970621
 21
2.424068405545307E-6
 31
0.0
 73
     1
 44
0.60024009603842
  0
ENDBLK
  5
10A
330
101
100
AcDbEntity
  8
0
100
AcDbBlockEnd
  0
BLOCK
  5
114
330
10D
100
AcDbEntity
  8
0
100
AcDbBlockBegin
  2
*D2
 70
     1
 71
     0
 10
0.0
 20
0.0
 30
0.0
  3
*D2
  1

  0
LINE
  5
10E
330
10D
100
AcDbEntity
  8
1
  6
Continuous
 62
     2
100
AcDbLine
 10
338.171304153567
 20
185.895866267286
 30
0.0
 11
371.671304153567
 21
185.895866267286
 31
0.0
  0
LINE
  5
10F
330
10D
100
AcDbEntity
  8
1
  6
Continuous
 62
     2
100
AcDbLine
 10
371.671304153567
 20
209.985348568515
 30
0.0
 11
371.671304153567
 21
183.895866267286
 31
0.0
  0
LINE
  5
110
330
10D
100
AcDbEntity
  8
1
  6
Continuous
 62
     2
100
AcDbLine
 10
338.171304153567
 20
205.985348568515
 30
0.0
 11
338.171304153567
 21
183.895866267286
 31
0.0
  0
SOLID
  5
111
330
10D
100
AcDbEntity
  8
1
 62
     2
100
AcDbTrace
 10
341.671304153567
 20
186.3566500088419
 30
0.0
 11
341.671304153567
 21
185.4350825257301
 31
0.0
 12
338.171304153567
 22
185.895866267286
 32
0.0
 13
338.171304153567
 23
185.895866267286
 33
0.0
  0
SOLID
  5
112
330
10D
100
AcDbEntity
  8
1
 62
     2
100
AcDbTrace
 10
368.171304153567
 20
185.4350825257301
 30
0.0
 11
368.171304153567
 21
186.3566500088419
 31
0.0
 12
371.671304153567
 22
185.895866267286
 32
0.0
 13
371.671304153567
 23
185.895866267286
 33
0.0
  0
MTEXT
  5
113
330
10D
100
AcDbEntity
  8
1
 62
     2
100
AcDbMText
 10
350.152554153567
 20
187.895866267286
 30
0.0
 40
3.5
 41
0.0
 71
     7
 72
     1
  1
33.5
  7
CONVERTER_11
 11
0.9999999999970621
 21
2.424068405545307E-6
 31
0.0
 73
     1
 44
0.60024009603842
  0
ENDBLK
  5
115
330
10D
100
AcDbEntity
  8
0
100
AcDbBlockEnd
  0
BLOCK
  5
121
330
118
100
AcDbEntity
  8
0
100
AcDbBlockBegin
  2
*D3
 70
     1
 71
     0
 10
0.0
 20
0.0
 30
0.0
  3
*D3
  1

  0
LINE
  5
119
330
118
100
AcDbEntity
  8
1
  6
Continuous
 62
     2
100
AcDbLine
 10
338.171304153567
 20
195.895866267286
 30
0.0
 11
345.171304153567
 21
195.895866267286
 31
0.0
  0
LINE
  5
11A
330
118
100
AcDbEntity
  8
1
  6
Continuous
 62
     2
100
AcDbLine
 10
334.6713041535669
 20
195.895866267286
 30
0.0
 11
338.171304153567
 21
195.895866267286
 31
0.0
  0
LINE
  5
11B
330
118
100
AcDbEntity
  8
1
  6
Continuous
 62
     2
100
AcDbLine
 10
324.226139971097
 20
195.895866267286
 30
0.0
 11
334.6713041535669
 21
195.895866267286
 31
0.0
  0
LINE
  5
11C
330
118
100
AcDbEntity
  8
1
  6
Continuous
 62
     2
100
AcDbLine
 10
338.171304153567
 20
205.985348568515
 30
0.0
 11
338.171304153567
 21
193.895866267286
 31
0.0
  0
LINE
  5
11D
330
118
100
AcDbEntity
  8
1
  6
Continuous
 62
     2
100
AcDbLine
 10
334.6713041535669
 20
205.985348568515
 30
0.0
 11
334.6713041535669
 21
193.895866267286
 31
0.0
  0
SOLID
  5
11E
330
118
100
AcDbEntity
  8
1
 62
     2
100
AcDbTrace
 10
331.1713041535669
 20
195.4350825257301
 30
0.0
 11
331.1713041535669
 21
196.3566500088419
 31
0.0
 12
334.6713041535669
 22
195.895866267286
 32
0.0
 13
334.6713041535669
 23
195.895866267286
 33
0.0
  0
SOLID
  5
11F
330
118
100
AcDbEntity
  8
1
 62
     2
100
AcDbTrace
 10
341.671304153567
 20
196.3566500088419
 30
0.0
 11
341.671304153567
 21
195.4350825257301
 31
0.0
 12
338.171304153567
 22
195.895866267286
 32
0.0
 13
338.171304153567
 23
195.895866267286
 33
0.0
  0
MTEXT
  5
120
330
118
100
AcDbEntity
  8
1
 62
     2
100
AcDbMText
 10
324.226139971097
 20
197.895866267286
 30
0.0
 40
3.5
 41
0.0
 71
     7
 72
     1
  1
3.5
  7
CONVERTER_11
 11
0.9999999999970621
 21
2.424068405545307E-6
 31
0.0
 73
     1
 44
0.60024009603842
  0
ENDBLK
  5
122
330
118
100
AcDbEntity
  8
0
100
AcDbBlockEnd
  0
BLOCK
  5
12E
330
125
100
AcDbEntity
  8
0
100
AcDbBlockBegin
  2
*D4
 70
     1
 71
     0
 10
0.0
 20
0.0
 30
0.0
  3
*D4
  1

  0
LINE
  5
126
330
125
100
AcDbEntity
  8
1
  6
Continuous
 62
     2
100
AcDbLine
 10
401.405963712947
 20
209.985348568515
 30
0.0
 11
401.405963712947
 21
216.985348568515
 31
0.0
  0
LINE
  5
127
330
125
100
AcDbEntity
  8
1
  6
Continuous
 62
     2
100
AcDbLine
 10
401.405963712947
 20
205.985348568515
 30
0.0
 11
401.405963712947
 21
209.985348568515
 31
0.0
  0
LINE
  5
128
330
125
100
AcDbEntity
  8
1
  6
Continuous
 62
     2
100
AcDbLine
 10
401.405963712947
 20
198.985348568515
 30
0.0
 11
401.405963712947
 21
205.985348568515
 31
0.0
  0
LINE
  5
129
330
125
100
AcDbEntity
  8
1
  6
Continuous
 62
     2
100
AcDbLine
 10
371.6713041535671
 20
209.985348568515
 30
0.0
 11
403.405963712947
 21
209.985348568515
 31
0.0
  0
LINE
  5
12A
330
125
100
AcDbEntity
  8
1
  6
Continuous
 62
     2
100
AcDbLine
 10
393.171304153567
 20
205.985348568515
 30
0.0
 11
403.405963712947
 21
205.985348568515
 31
0.0
  0
SOLID
  5
12B
330
125
100
AcDbEntity
  8
1
 62
     2
100
AcDbTrace
 10
401.8667474545029
 20
202.485348568515
 30
0.0
 11
400.9451799713912
 21
202.485348568515
 31
0.0
 12
401.405963712947
 22
205.985348568515
 32
0.0
 13
401.405963712947
 23
205.985348568515
 33
0.0
  0
SOLID
  5
12C
330
125
100
AcDbEntity
  8
1
 62
     2
100
AcDbTrace
 10
400.9451799713912
 20
213.485348568515
 30
0.0
 11
401.8667474545029
 21
213.485348568515
 31
0.0
 12
401.405963712947
 22
209.985348568515
 32
0.0
 13
401.405963712947
 23
209.985348568515
 33
0.0
  0
MTEXT
  5
12D
330
125
100
AcDbEntity
  8
1
 62
     2
100
AcDbMText
 10
399.405963712947
 20
200.022838819559
 30
0.0
 40
3.5
 41
0.0
 71
     7
 72
     1
  1
4
  7
CONVERTER_11
 11
0.0
 21
1.0
 31
0.0
 73
     1
 44
0.60024009603842
  0
ENDBLK
  5
12F
330
125
100
AcDbEntity
  8
0
100
AcDbBlockEnd
  0
BLOCK
  5
139
330
132
100
AcDbEntity
  8
0
100
AcDbBlockBegin
  2
*D5
 70
     1
 71
     0
 10
0.0
 20
0.0
 30
0.0
  3
*D5
  1

  0
LINE
  5
133
330
132
100
AcDbEntity
  8
1
  6
Continuous
 62
     2
100
AcDbLine
 10
401.405963712947
 20
209.985348568515
 30
0.0
 11
401.405963712947
 21
237.985348568515
 31
0.0
  0
LINE
  5
134
330
132
100
AcDbEntity
  8
1
  6
Continuous
 62
     2
100
AcDbLine
 10
371.6713041535671
 20
237.985348568515
 30
0.0
 11
403.405963712947
 21
237.985348568515
 31
0.0
  0
LINE
  5
135
330
132
100
AcDbEntity
  8
1
  6
Continuous
 62
     2
100
AcDbLine
 10
371.6713041535671
 20
209.985348568515
 30
0.0
 11
403.405963712947
 21
209.985348568515
 31
0.0
  0
SOLID
  5
136
330
132
100
AcDbEntity
  8
1
 62
     2
100
AcDbTrace
 10
400.9451799713912
 20
213.485348568515
 30
0.0
 11
401.8667474545029
 21
213.485348568515
 31
0.0
 12
401.405963712947
 22
209.985348568515
 32
0.0
 13
401.405963712947
 23
209.985348568515
 33
0.0
  0
SOLID
  5
137
330
132
100
AcDbEntity
  8
1
 62
     2
100
AcDbTrace
 10
401.8667474545029
 20
234.485348568515
 30
0.0
 11
400.9451799713912
 21
234.485348568515
 31
0.0
 12
401.405963712947
 22
237.985348568515
 32
0.0
 13
401.405963712947
 23
237.985348568515
 33
0.0
  0
MTEXT
  5
138
330
132
100
AcDbEntity
  8
1
 62
     2
100
AcDbMText
 10
399.405963712947
 20
221.360348568515
 30
0.0
 40
3.5
 41
0.0
 71
     7
 72
     1
  1
28
  7
CONVERTER_11
 11
0.0
 21
1.0
 31
0.0
 73
     1
 44
0.60024009603842
  0
ENDBLK
  5
13A
330
132
100
AcDbEntity
  8
0
100
AcDbBlockEnd
  0
ENDSEC
  0
SECTION
  2
ENTITIES
  0
LINE
  5
32
330
1F
100
AcDbEntity
  8
1
  6
DOT_CENTER
 62
     2
100
AcDbLine
 10
362.921304153567
 20
233.3103489412755
 30
0.0
 11
362.921304153567
 21
223.1603481957545
 31
0.0
  0
LINE
  5
33
330
1F
100
AcDbEntity
  8
1
  6
DOT_CENTER
 62
     2
100
AcDbLine
 10
367.9963045263276
 20
228.235348568515
 30
0.0
 11
357.8463037808065
 21
228.235348568515
 31
0.0
  0
LINE
  5
34
330
1F
100
AcDbEntity
  8
1
  6
DOT_CENTER
 62
     2
100
AcDbLine
 10
328.921304153567
 20
221.1353483989899
 30
0.0
 11
328.921304153567
 21
209.3353487380402
 31
0.0
  0
LINE
  5
35
330
1F
100
AcDbEntity
  8
1
  6
DOT_CENTER
 62
     2
100
AcDbLine
 10
334.8213039840419
 20
215.235348568515
 30
0.0
 11
323.0213043230921
 21
215.235348568515
 31
0.0
  0
LINE
  5
36
330
1F
100
AcDbEntity
  8
1
  6
DOT_CENTER
 62
     2
100
AcDbLine
 10
343.921304153567
 20
221.1353483989913
 30
0.0
 11
343.921304153567
 21
209.3353487380387
 31
0.0
  0
LINE
  5
37
330
1F
100
AcDbEntity
  8
1
  6
DOT_CENTER
 62
     2
100
AcDbLine
 10
349.8213039840433
 20
215.235348568515
 30
0.0
 11
338.0213043230907
 21
215.235348568515
 31
0.0
  0
LINE
  5
38
330
1F
100
AcDbEntity
  8
1
  6
DOT_CENTER
 62
     2
100
AcDbLine
 10
336.421304153567
 20
238.1353490486453
 30
0.0
 11
336.421304153567
 21
226.3353480883848
 31
0.0
  0
LINE
  5
39
330
1F
100
AcDbEntity
  8
1
  6
DOT_CENTER
 62
     2
100
AcDbLine
 10
342.3213046336972
 20
232.235348568515
 30
0.0
 11
330.5213036734368
 21
232.235348568515
 31
0.0
  0
LINE
  5
3A
330
1F
100
AcDbEntity
  8
1
  6
DOT_CENTER
 62
     2
100
AcDbLine
 10
309.921304153567
 20
233.3103489413053
 30
0.0
 11
309.921304153567
 21
223.1603481957247
 31
0.0
  0
LINE
  5
3B
330
1F
100
AcDbEntity
  8
1
  6
DOT_CENTER
 62
     2
100
AcDbLine
 10
314.9963045263573
 20
228.235348568515
 30
0.0
 11
304.8463037807767
 21
228.235348568515
 31
0.0
  0
LINE
  5
3C
330
1F
100
AcDbEntity
  8
1
  6
DOT_CENTER
 62
     2
100
AcDbLine
 10
344.4534924115874
 20
259.9853485685151
 30
0.0
 11
319.6713041535669
 21
259.9853485685152
 31
0.0
  0
LINE
  5
3D
330
1F
100
AcDbEntity
  8
1
  6
DASHED
 62
     2
100
AcDbLine
 10
324.6713041535669
 20
257.2353485685152
 30
0.0
 11
323.4213041535669
 21
257.2353485685152
 31
0.0
  0
LINE
  5
3E
330
1F
100
AcDbEntity
  8
1
  6
DASHED
 62
     2
100
AcDbLine
 10
323.4213041535669
 20
257.2353485685152
 30
0.0
 11
321.1713041535669
 21
254.9853485685152
 31
0.0
  0
LINE
  5
3F
330
1F
100
AcDbEntity
  8
1
  6
DASHED
 62
     2
100
AcDbLine
 10
324.6713041535669
 20
262.7353485685152
 30
0.0
 11
323.4213041535669
 21
262.7353485685152
 31
0.0
  0
LINE
  5
40
330
1F
100
AcDbEntity
  8
1
  6
DASHED
 62
     2
100
AcDbLine
 10
323.4213041535669
 20
262.7353485685152
 30
0.0
 11
321.1713041535668
 21
264.9853485685152
 31
0.0
  0
LINE
  5
41
330
1F
100
AcDbEntity
  8
1
  6
DASHED
 62
     2
100
AcDbLine
 10
323.4213041535669
 20
257.2353485685152
 30
0.0
 11
323.4213041535669
 21
262.7353485685152
 31
0.0
  0
LINE
  5
42
330
1F
100
AcDbEntity
  8
1
  6
DASHED
 62
     2
100
AcDbLine
 10
323.4213041535669
 20
270.2353485685152
 30
0.0
 11
323.4213041535669
 21
275.7353485685152
 31
0.0
  0
LINE
  5
43
330
1F
100
AcDbEntity
  8
1
  6
Continuous
 62
     7
100
AcDbLine
 10
321.1713041535669
 20
237.9853485685152
 30
0.0
 11
321.1713041535669
 21
289.9853485685152
 31
0.0
  0
LINE
  5
44
330
1F
100
AcDbEntity
  8
1
  6
DASHED
 62
     2
100
AcDbLine
 10
323.4213041535669
 20
275.7353485685152
 30
0.0
 11
321.1713041535668
 21
277.9853485685152
 31
0.0
  0
LINE
  5
45
330
1F
100
AcDbEntity
  8
1
  6
DASHED
 62
     2
100
AcDbLine
 10
324.6713041535669
 20
275.7353485685152
 30
0.0
 11
323.4213041535669
 21
275.7353485685152
 31
0.0
  0
LINE
  5
46
330
1F
100
AcDbEntity
  8
1
  6
DASHED
 62
     2
100
AcDbLine
 10
323.4213041535669
 20
270.2353485685152
 30
0.0
 11
321.1713041535669
 21
267.9853485685152
 31
0.0
  0
LINE
  5
47
330
1F
100
AcDbEntity
  8
1
  6
DASHED
 62
     2
100
AcDbLine
 10
324.6713041535669
 20
270.2353485685152
 30
0.0
 11
323.4213041535669
 21
270.2353485685152
 31
0.0
  0
LINE
  5
48
330
1F
100
AcDbEntity
  8
1
  6
DOT_CENTER
 62
     2
100
AcDbLine
 10
344.4534924115874
 20
272.9853485685151
 30
0.0
 11
319.6713041535669
 21
272.9853485685152
 31
0.0
  0
LINE
  5
49
330
1F
100
AcDbEntity
  8
1
  6
Continuous
 62
     7
100
AcDbLine
 10
324.6713041535669
 20
289.9853485685152
 30
0.0
 11
324.6713041535669
 21
237.9853485685152
 31
0.0
  0
LINE
  5
4A
330
1F
100
AcDbEntity
  8
1
  6
Continuous
 62
     7
100
AcDbLine
 10
321.1713041535669
 20
289.9853485685152
 30
0.0
 11
324.6713041535669
 21
289.9853485685152
 31
0.0
  0
LINE
  5
4B
330
1F
100
AcDbEntity
  8
0
  6
Continuous
 62
     7
100
AcDbLine
 10
360.969623654367
 20
234.115575182915
 30
0.0
 11
365.009380153567
 21
230.725818568515
 31
0.0
  0
LINE
  5
4C
330
1F
100
AcDbEntity
  8
0
  6
Continuous
 62
     7
100
AcDbLine
 10
359.782045736767
 20
227.394184391815
 30
0.0
 11
359.201234074367
 21
229.561802132215
 31
0.0
  0
LINE
  5
4D
330
1F
100
AcDbEntity
  8
0
  6
DASHED
 62
     2
100
AcDbLine
 10
355.655548269767
 20
231.785348568515
 30
0.0
 11
352.821304153567
 21
235.285348568515
 31
0.0
  0
LINE
  5
4E
330
1F
100
AcDbEntity
  8
0
  6
Continuous
 62
     7
100
AcDbLine
 10
339.804720153567
 20
235.285348568515
 30
0.0
 11
357.755692153567
 21
235.285348568515
 31
0.0
  0
LINE
  5
4F
330
1F
100
AcDbEntity
  8
0
  6
Continuous
 62
     7
100
AcDbLine
 10
346.114927153567
 20
231.785348568515
 30
0.0
 11
356.303455153567
 21
231.785348568515
 31
0.0
  0
LINE
  5
50
330
1F
100
AcDbEntity
  8
0
  6
Continuous
 62
     7
100
AcDbLine
 10
335.272651468867
 20
227.101122695915
 30
0.0
 11
331.428723258167
 21
225.548074206715
 31
0.0
  0
LINE
  5
51
330
1F
100
AcDbEntity
  8
0
  6
Continuous
 62
     7
100
AcDbLine
 10
344.991107389467
 20
231.566900663815
 30
0.0
 11
341.448262883967
 21
230.135498863615
 31
0.0
  0
LINE
  5
52
330
1F
100
AcDbEntity
  8
0
  6
Continuous
 62
     7
100
AcDbLine
 10
330.099471153567
 20
222.173569568515
 30
0.0
 11
332.546535153567
 21
216.925821568515
 31
0.0
  0
LINE
  5
53
330
1F
100
AcDbEntity
  8
0
  6
Continuous
 62
     7
100
AcDbLine
 10
325.829504981167
 20
228.328090418715
 30
0.0
 11
333.797067718567
 21
235.254187190415
 31
0.0
  0
LINE
  5
54
330
1F
100
AcDbEntity
  8
0
  6
Continuous
 62
     7
100
AcDbLine
 10
324.936524864267
 20
214.886728874815
 30
0.0
 11
324.128826148267
 21
224.118763629615
 31
0.0
  0
LINE
  5
55
330
1F
100
AcDbEntity
  8
0
  6
Continuous
 62
     7
100
AcDbLine
 10
325.106436500967
 20
214.032525406015
 30
0.0
 11
324.936524864267
 21
214.886728874815
 31
0.0
  0
LINE
  5
56
330
1F
100
AcDbEntity
  8
1
  6
Continuous
 62
     7
100
AcDbLine
 10
363.8940944854368
 20
231.6616539267195
 30
0.0
 11
364.9661072095436
 21
231.9693194160461
 31
0.0
  0
LINE
  5
57
330
1F
100
AcDbEntity
  8
0
  6
DASHED
 62
     2
100
AcDbLine
 10
362.6136676655563
 20
224.9999410217112
 30
0.0
 11
364.8979039099805
 21
225.6555122160277
 31
0.0
  0
LINE
  5
58
330
1F
100
AcDbEntity
  8
0
  6
Continuous
 62
     7
100
AcDbLine
 10
364.8979039099805
 20
225.6555122160277
 30
0.0
 11
366.6350704782137
 21
226.1540755168432
 31
0.0
  0
LINE
  5
59
330
1F
100
AcDbEntity
  8
1
  6
Continuous
 62
     7
100
AcDbLine
 10
344.1024797776675
 20
221.2362107978349
 30
0.0
 11
344.2373320743429
 21
220.7663388657244
 31
0.0
  0
LINE
  5
5A
330
1F
100
AcDbEntity
  8
0
  6
Continuous
 62
     7
100
AcDbLine
 10
348.4348583614177
 20
220.9306513533645
 30
0.0
 11
362.6136676655563
 21
224.9999410217112
 31
0.0
  0
LINE
  5
5B
330
1F
100
AcDbEntity
  8
0
  6
Continuous
 62
     7
100
AcDbLine
 10
367.3204061196896
 20
227.3911345527556
 30
0.0
 11
366.2031662455218
 21
231.2839837746348
 31
0.0
  0
LINE
  5
5C
330
1F
100
AcDbEntity
  8
1
  6
DOT_CENTER
 62
     2
100
AcDbLine
 10
342.0341705147477
 20
222.2407833483709
 30
0.0
 11
368.346375622484
 21
229.7923331364816
 31
0.0
  0
LINE
  5
5D
330
1F
100
AcDbEntity
  8
1
  6
DASHED
 62
     2
100
AcDbLine
 10
358.9224669014668
 20
230.2348068390153
 30
0.0
 11
363.8940944854368
 21
231.6616539267195
 31
0.0
  0
LINE
  5
5E
330
1F
100
AcDbEntity
  8
0
  6
Continuous
 62
     7
100
AcDbLine
 10
358.9224669014668
 20
230.2348068390153
 30
0.0
 11
348.0310410208547
 21
227.1089895819739
 31
0.0
  0
LINE
  5
5F
330
1F
100
AcDbEntity
  8
0
  6
DASHED
 62
     2
100
AcDbLine
 10
345.4743911103326
 20
220.0810032242504
 30
0.0
 11
348.4348583614177
 21
220.9306513533645
 31
0.0
  0
LINE
  5
60
330
1F
100
AcDbEntity
  8
1
  6
DASHED
 62
     2
100
AcDbLine
 10
343.1200922004066
 20
224.6591880877228
 30
0.0
 11
344.1024797776675
 21
221.2362107978349
 31
0.0
  0
LINE
  5
61
330
1F
100
AcDbEntity
  8
0
  6
DASHED
 62
     2
100
AcDbLine
 10
348.0310410208547
 20
227.1089895819739
 30
0.0
 11
343.8054278418942
 21
225.896247123718
 31
0.0
  0
LINE
  5
62
330
1F
100
AcDbEntity
  8
0
  6
Continuous
 62
     7
100
AcDbLine
 10
338.171304153567
 20
235.8210256667159
 30
0.0
 11
338.171304153567
 21
236.985348568515
 31
0.0
  0
LINE
  5
63
330
1F
100
AcDbEntity
  8
1
  6
Continuous
 62
     7
100
AcDbLine
 10
363.671304153567
 20
237.985348568515
 30
0.0
 11
371.671304153567
 21
237.985348568515
 31
0.0
  0
LINE
  5
64
330
1F
100
AcDbEntity
  8
0
  6
Continuous
 62
     7
100
AcDbLine
 10
367.671304153567
 20
234.8853485685156
 30
0.0
 11
367.671304153567
 21
218.235348568515
 31
0.0
  0
LINE
  5
65
330
1F
100
AcDbEntity
  8
0
  6
Continuous
 62
     7
100
AcDbLine
 10
359.2713041535674
 20
236.985348568515
 30
0.0
 11
367.671304153567
 21
234.8853485685156
 31
0.0
  0
LINE
  5
66
330
1F
100
AcDbEntity
  8
0
  6
Continuous
 62
     7
100
AcDbLine
 10
371.671304153567
 20
211.110348568515
 30
0.0
 11
371.671304153567
 21
236.860348568515
 31
0.0
  0
LINE
  5
67
330
1F
100
AcDbEntity
  8
1
  6
Continuous
 62
     7
100
AcDbLine
 10
371.671304153567
 20
237.985348568515
 30
0.0
 11
371.671304153567
 21
236.860348568515
 31
0.0
  0
LINE
  5
68
330
1F
100
AcDbEntity
  8
0
  6
Continuous
 62
     7
100
AcDbLine
 10
367.671304153567
 20
218.235348568515
 30
0.0
 11
364.671304153567
 21
217.235348568515
 31
0.0
  0
LINE
  5
69
330
1F
100
AcDbEntity
  8
1
  6
Continuous
 62
     7
100
AcDbLine
 10
371.671304153567
 20
209.985348568515
 30
0.0
 11
371.671304153567
 21
211.110348568515
 31
0.0
  0
LINE
  5
6A
330
1F
100
AcDbEntity
  8
0
  6
Continuous
 62
     7
100
AcDbLine
 10
364.671304153567
 20
217.235348568515
 30
0.0
 11
349.171304153567
 21
217.235348568515
 31
0.0
  0
LINE
  5
6B
330
1F
100
AcDbEntity
  8
0
  6
Continuous
 62
     7
100
AcDbLine
 10
348.171304153567
 20
209.985348568515
 30
0.0
 11
354.4712919465357
 21
209.985348568515
 31
0.0
  0
LINE
  5
6C
330
1F
100
AcDbEntity
  8
0
  6
Continuous
 62
     7
100
AcDbLine
 10
348.171304153567
 20
216.235348568515
 30
0.0
 11
348.171304153567
 21
209.985348568515
 31
0.0
  0
LINE
  5
6D
330
1F
100
AcDbEntity
  8
0
  6
Continuous
 62
     7
100
AcDbLine
 10
338.171304153567
 20
209.985348568515
 30
0.0
 11
338.171304153567
 21
226.858162503028
 31
0.0
  0
LINE
  5
6E
330
1F
100
AcDbEntity
  8
0
  6
Continuous
 62
     7
100
AcDbLine
 10
363.671304153567
 20
237.985348568515
 30
0.0
 11
339.4712919465357
 21
237.985348568515
 31
0.0
  0
LINE
  5
6F
330
1F
100
AcDbEntity
  8
0
  6
Continuous
 62
     7
100
AcDbLine
 10
339.4712919465357
 20
237.985348568515
 30
0.0
 11
339.4712919465357
 21
236.985348568515
 31
0.0
  0
LINE
  5
70
330
1F
100
AcDbEntity
  8
0
  6
Continuous
 62
     7
100
AcDbLine
 10
339.4712919465357
 20
236.985348568515
 30
0.0
 11
362.4713072053248
 21
236.985348568515
 31
0.0
  0
LINE
  5
71
330
1F
100
AcDbEntity
  8
0
  6
Continuous
 62
     7
100
AcDbLine
 10
362.4713072053248
 20
236.985348568515
 30
0.0
 11
370.4713072053248
 21
235.0103500943939
 31
0.0
  0
LINE
  5
72
330
1F
100
AcDbEntity
  8
0
  6
Continuous
 62
     7
100
AcDbLine
 10
370.4713072053248
 20
215.4822709469406
 30
0.0
 11
370.4713072053248
 21
235.0103500943939
 31
0.0
  0
LINE
  5
73
330
1F
100
AcDbEntity
  8
0
  6
Continuous
 62
     7
100
AcDbLine
 10
371.671304153567
 20
236.860348568515
 30
0.0
 11
363.671304153567
 21
237.985348568515
 31
0.0
  0
LINE
  5
74
330
1F
100
AcDbEntity
  8
0
  6
Continuous
 62
     7
100
AcDbLine
 10
363.5212949982936
 20
211.985348568515
 30
0.0
 11
367.871053708792
 21
212.6103130235903
 31
0.0
  0
LINE
  5
75
330
1F
100
AcDbEntity
  8
0
  6
Continuous
 62
     7
100
AcDbLine
 10
355.9712919465357
 20
211.985348568515
 30
0.0
 11
363.5212949982936
 21
211.985348568515
 31
0.0
  0
LINE
  5
76
330
1F
100
AcDbEntity
  8
0
  6
Continuous
 62
     7
100
AcDbLine
 10
363.671304153567
 20
209.985348568515
 30
0.0
 11
371.671304153567
 21
211.110348568515
 31
0.0
  0
LINE
  5
77
330
1F
100
AcDbEntity
  8
1
  6
Continuous
 62
     7
100
AcDbLine
 10
339.4712919465357
 20
236.985348568515
 30
0.0
 11
338.171304153567
 21
236.985348568515
 31
0.0
  0
LINE
  5
78
330
1F
100
AcDbEntity
  8
0
  6
Continuous
 62
     7
100
AcDbLine
 10
338.171304153567
 20
236.985348568515
 30
0.0
 11
338.171304153567
 21
237.985348568515
 31
0.0
  0
LINE
  5
79
330
1F
100
AcDbEntity
  8
0
  6
Continuous
 62
     7
100
AcDbLine
 10
339.4712919465357
 20
237.985348568515
 30
0.0
 11
338.171304153567
 21
237.985348568515
 31
0.0
  0
LINE
  5
7A
330
1F
100
AcDbEntity
  8
1
  6
Continuous
 62
     7
100
AcDbLine
 10
354.4712919465357
 20
210.4853483062458
 30
0.0
 11
354.4712919465357
 21
209.985348568515
 31
0.0
  0
LINE
  5
7B
330
1F
100
AcDbEntity
  8
0
  6
Continuous
 62
     7
100
AcDbLine
 10
338.171304153567
 20
209.985348568515
 30
0.0
 11
348.171304153567
 21
209.985348568515
 31
0.0
  0
LINE
  5
7C
330
1F
100
AcDbEntity
  8
0
  6
Continuous
 62
     7
100
AcDbLine
 10
354.4712919465357
 20
209.985348568515
 30
0.0
 11
363.671304153567
 21
209.985348568515
 31
0.0
  0
LINE
  5
7D
330
1F
100
AcDbEntity
  8
1
  6
Continuous
 62
     7
100
AcDbLine
 10
363.671304153567
 20
209.985348568515
 30
0.0
 11
371.671304153567
 21
209.985348568515
 31
0.0
  0
LINE
  5
7E
330
1F
100
AcDbEntity
  8
1
  6
Continuous
 62
     7
100
AcDbLine
 10
338.1713041535671
 20
245.985348568515
 30
0.0
 11
393.1713041535669
 21
245.985348568515
 31
0.0
  0
LINE
  5
7F
330
1F
100
AcDbEntity
  8
1
  6
Continuous
 62
     7
100
AcDbLine
 10
338.1713041535671
 20
245.985348568515
 30
0.0
 11
338.171304153567
 21
237.985348568515
 31
0.0
  0
LINE
  5
80
330
1F
100
AcDbEntity
  8
1
  6
DOT_CENTER
 62
     2
100
AcDbLine
 10
393.1713041535669
 20
245.985348568515
 30
0.0
 11
393.1713041535669
 21
248.7370035696502
 31
0.0
  0
LINE
  5
81
330
1F
100
AcDbEntity
  8
1
  6
PHANTOM
 62
     2
100
AcDbLine
 10
393.1713041535669
 20
205.985348568515
 30
0.0
 11
393.1713041535669
 21
245.985348568515
 31
0.0
  0
LINE
  5
82
330
1F
100
AcDbEntity
  8
1
  6
DOT_CENTER
 62
     2
100
AcDbLine
 10
393.1713041535669
 20
205.985348568515
 30
0.0
 11
393.1713041535669
 21
203.085348568515
 31
0.0
  0
LINE
  5
83
330
1F
100
AcDbEntity
  8
1
  6
Continuous
 62
     7
100
AcDbLine
 10
338.171304153567
 20
205.985348568515
 30
0.0
 11
393.1713041535669
 21
205.985348568515
 31
0.0
  0
LINE
  5
84
330
1F
100
AcDbEntity
  8
1
  6
Continuous
 62
     7
100
AcDbLine
 10
338.171304153567
 20
209.985348568515
 30
0.0
 11
338.171304153567
 21
205.985348568515
 31
0.0
  0
LINE
  5
85
330
1F
100
AcDbEntity
  8
0
  6
Continuous
 62
     7
100
AcDbLine
 10
329.0146996534897
 20
231.096937965237
 30
0.0
 11
327.851500917667
 21
231.566900663815
 31
0.0
  0
LINE
  5
86
330
1F
100
AcDbEntity
  8
0
  6
Continuous
 62
     7
100
AcDbLine
 10
343.8279086536443
 20
231.096937965237
 30
0.0
 11
347.013103325967
 21
228.328090418715
 31
0.0
  0
LINE
  5
87
330
1F
100
AcDbEntity
  8
0
  6
Continuous
 62
     7
100
AcDbLine
 10
347.906083442867
 20
214.886728874815
 30
0.0
 11
347.736171806167
 21
214.032525406015
 31
0.0
  0
LINE
  5
88
330
1F
100
AcDbEntity
  8
0
  6
Continuous
 62
     7
100
AcDbLine
 10
348.713782158867
 20
224.118763629615
 30
0.0
 11
347.906083442867
 21
214.886728874815
 31
0.0
  0
LINE
  5
89
330
1F
100
AcDbEntity
  8
0
  6
DASHED
 62
     2
100
AcDbLine
 10
339.045540588567
 20
235.254187190415
 30
0.0
 11
343.8279086536443
 21
231.096937965237
 31
0.0
  0
LINE
  5
8A
330
1F
100
AcDbEntity
  8
0
  6
Continuous
 62
     7
100
AcDbLine
 10
340.296073153567
 20
216.925821568515
 30
0.0
 11
342.743137153567
 21
222.173569568515
 31
0.0
  0
LINE
  5
8B
330
1F
100
AcDbEntity
  8
0
  6
Continuous
 62
     7
100
AcDbLine
 10
342.891626981767
 20
222.580999163615
 30
0.0
 11
348.075544360867
 21
216.823675231115
 31
0.0
  0
LINE
  5
8C
330
1F
100
AcDbEntity
  8
0
  6
DASHED
 62
     2
100
AcDbLine
 10
331.394345423167
 20
230.135498863615
 30
0.0
 11
329.0146996534897
 21
231.096937965237
 31
0.0
  0
LINE
  5
8D
330
1F
100
AcDbEntity
  8
0
  6
Continuous
 62
     7
100
AcDbLine
 10
341.413885048967
 20
225.548074206715
 30
0.0
 11
337.569956838267
 21
227.101122695915
 31
0.0
  0
LINE
  5
8E
330
1F
100
AcDbEntity
  8
0
  6
Continuous
 62
     7
100
AcDbLine
 10
316.539153153567
 20
231.785348568515
 30
0.0
 11
326.727681153567
 21
231.785348568515
 31
0.0
  0
LINE
  5
8F
330
1F
100
AcDbEntity
  8
0
  6
Continuous
 62
     7
100
AcDbLine
 10
315.086916153567
 20
235.285348568515
 30
0.0
 11
333.037888153567
 21
235.285348568515
 31
0.0
  0
LINE
  5
90
330
1F
100
AcDbEntity
  8
0
  6
DASHED
 62
     2
100
AcDbLine
 10
320.021304153567
 20
235.285348568515
 30
0.0
 11
317.187060037367
 21
231.785348568515
 31
0.0
  0
LINE
  5
91
330
1F
100
AcDbEntity
  8
0
  6
Continuous
 62
     7
100
AcDbLine
 10
313.641374232767
 20
229.561802132215
 30
0.0
 11
313.060562570367
 21
227.394184391815
 31
0.0
  0
LINE
  5
92
330
1F
100
AcDbEntity
  8
0
  6
Continuous
 62
     7
100
AcDbLine
 10
307.833228153567
 20
230.725818568515
 30
0.0
 11
311.8729846527671
 21
234.115575182915
 31
0.0
  0
LINE
  5
93
330
1F
100
AcDbEntity
  8
1
  6
DOT_CENTER
 62
     2
100
AcDbLine
 10
284.6713041535669
 20
205.985348568515
 30
0.0
 11
284.6713041535669
 21
202.985348568515
 31
0.0
  0
LINE
  5
94
330
1F
100
AcDbEntity
  8
1
  6
DOT_CENTER
 62
     2
100
AcDbLine
 10
284.6713041535669
 20
225.985348568515
 30
0.0
 11
284.6713041535669
 21
228.985348568515
 31
0.0
  0
LINE
  5
95
330
1F
100
AcDbEntity
  8
0
  6
Continuous
 62
     7
100
AcDbLine
 10
324.6713041535669
 20
237.9853485685152
 30
0.0
 11
331.8963072835552
 21
237.9853485685152
 31
0.0
  0
LINE
  5
96
330
1F
100
AcDbEntity
  8
1
  6
DOT_CENTER
 62
     2
100
AcDbLine
 10
324.6713041535669
 20
300.70810141156
 30
0.0
 11
319.7365699002124
 21
300.70810141156
 31
0.0
  0
LINE
  5
97
330
1F
100
AcDbEntity
  8
1
  6
Continuous
 62
     7
100
AcDbLine
 10
324.6713041535669
 20
300.70810141156
 30
0.0
 11
324.6713041535669
 21
237.9853485685152
 31
0.0
  0
LINE
  5
98
330
1F
100
AcDbEntity
  8
0
  6
Continuous
 62
     7
100
AcDbLine
 10
303.6713041535665
 20
225.985348568515
 30
0.0
 11
303.6713041535665
 21
237.2603455167581
 31
0.0
  0
LINE
  5
99
330
1F
100
AcDbEntity
  8
1
  6
DOT_CENTER
 62
     2
100
AcDbLine
 10
284.6713041535669
 20
225.985348568515
 30
0.0
 11
284.6713041535669
 21
205.985348568515
 31
0.0
  0
LINE
  5
9A
330
1F
100
AcDbEntity
  8
1
  6
Continuous
 62
     7
100
AcDbLine
 10
284.6713041535669
 20
225.985348568515
 30
0.0
 11
303.6713041535665
 21
225.985348568515
 31
0.0
  0
LINE
  5
9B
330
1F
100
AcDbEntity
  8
0
  6
Continuous
 62
     7
100
AcDbLine
 10
331.8963072835552
 20
237.9853485685152
 30
0.0
 11
334.6713041535669
 21
237.985348568515
 31
0.0
  0
LINE
  5
9C
330
1F
100
AcDbEntity
  8
1
  6
DASHED
 62
     2
100
AcDbLine
 10
308.9485138217117
 20
231.6616539267314
 30
0.0
 11
313.9201414057672
 21
230.2348068390155
 31
0.0
  0
LINE
  5
9D
330
1F
100
AcDbEntity
  8
1
  6
DASHED
 62
     2
100
AcDbLine
 10
307.9447043970856
 20
225.6555122160433
 30
0.0
 11
310.1769765335664
 21
225.0148546159151
 31
0.0
  0
LINE
  5
9E
330
1F
100
AcDbEntity
  8
0
  6
DASHED
 62
     2
100
AcDbLine
 10
324.4077499457137
 20
220.9306513533937
 30
0.0
 11
327.368217196836
 21
220.0810032242697
 31
0.0
  0
LINE
  5
9F
330
1F
100
AcDbEntity
  8
0
  6
Continuous
 62
     7
100
AcDbLine
 10
324.811567286388
 20
227.1089895819722
 30
0.0
 11
313.9201414057672
 21
230.2348068390155
 31
0.0
  0
LINE
  5
A0
330
1F
100
AcDbEntity
  8
0
  6
Continuous
 62
     7
100
AcDbLine
 10
321.671304153567
 20
209.9853485685152
 30
0.0
 11
308.6713259519326
 21
209.9853485685152
 31
0.0
  0
LINE
  5
A1
330
1F
100
AcDbEntity
  8
0
  6
Continuous
 62
     7
100
AcDbLine
 10
308.6713259519326
 20
209.9853485685152
 30
0.0
 11
303.6713041535665
 21
210.6853485685141
 31
0.0
  0
LINE
  5
A2
330
1F
100
AcDbEntity
  8
0
  6
Continuous
 62
     7
100
AcDbLine
 10
303.6713041535665
 20
237.2603455167581
 30
0.0
 11
308.6712831071375
 21
237.9853485685152
 31
0.0
  0
LINE
  5
A3
330
1F
100
AcDbEntity
  8
0
  6
Continuous
 62
     7
100
AcDbLine
 10
313.0713133088395
 20
236.9853516202719
 30
0.0
 11
330.9219448622336
 21
236.9853516202719
 31
0.0
  0
LINE
  5
A4
330
1F
100
AcDbEntity
  8
0
  6
Continuous
 62
     7
100
AcDbLine
 10
305.0713133088395
 20
235.8603516202719
 30
0.0
 11
313.0713133088395
 21
236.9853516202719
 31
0.0
  0
LINE
  5
A5
330
1F
100
AcDbEntity
  8
0
  6
Continuous
 62
     7
100
AcDbLine
 10
312.3713011018092
 20
211.4853516202719
 30
0.0
 11
307.6603348836804
 21
212.1368625301837
 31
0.0
  0
LINE
  5
A6
330
1F
100
AcDbEntity
  8
0
  6
Continuous
 62
     7
100
AcDbLine
 10
320.671304153567
 20
211.4853516202719
 30
0.0
 11
312.3713011018092
 21
211.4853516202719
 31
0.0
  0
LINE
  5
A7
330
1F
100
AcDbEntity
  8
0
  6
Continuous
 62
     7
100
AcDbLine
 10
333.171304153567
 20
211.1853485685141
 30
0.0
 11
333.171304153567
 21
209.9853485685152
 31
0.0
  0
LINE
  5
A8
330
1F
100
AcDbEntity
  8
0
  6
Continuous
 62
     7
100
AcDbLine
 10
333.171304153567
 20
237.9853516202719
 30
0.0
 11
333.171304153567
 21
235.2889110726145
 31
0.0
  0
LINE
  5
A9
330
1F
100
AcDbEntity
  8
0
  6
Continuous
 62
     7
100
AcDbLine
 10
321.671304153567
 20
209.9853485685152
 30
0.0
 11
321.671304153567
 21
210.4853516202719
 31
0.0
  0
LINE
  5
AA
330
1F
100
AcDbEntity
  8
0
  6
Continuous
 62
     7
100
AcDbLine
 10
305.0713133088395
 20
215.1085786562715
 30
0.0
 11
305.0713133088395
 21
235.8603516202719
 31
0.0
  0
LINE
  5
AB
330
1F
100
AcDbEntity
  8
0
  6
Continuous
 62
     7
100
AcDbLine
 10
331.8963072835552
 20
237.9853485685152
 30
0.0
 11
330.9219448622336
 21
236.9853516202719
 31
0.0
  0
LINE
  5
AC
330
1F
100
AcDbEntity
  8
1
  6
DOT_CENTER
 62
     2
100
AcDbLine
 10
304.9725194257896
 20
229.6556398023684
 30
0.0
 11
331.0362353911653
 21
222.1754058972573
 31
0.0
  0
LINE
  5
AD
330
1F
100
AcDbEntity
  8
1
  6
Continuous
 62
     7
100
AcDbLine
 10
334.671304153567
 20
209.985348568515
 30
0.0
 11
334.671304153567
 21
211.1853485685141
 31
0.0
  0
LINE
  5
AE
330
1F
100
AcDbEntity
  8
1
  6
Continuous
 62
     7
100
AcDbLine
 10
334.6713041535669
 20
237.985348568515
 30
0.0
 11
334.671304153567
 21
235.8322225333021
 31
0.0
  0
LINE
  5
AF
330
1F
100
AcDbEntity
  8
0
  6
Continuous
 62
     7
100
AcDbLine
 10
308.6712831071375
 20
237.9853485685152
 30
0.0
 11
324.6713041535669
 21
237.9853485685152
 31
0.0
  0
LINE
  5
B0
330
1F
100
AcDbEntity
  8
1
  6
Continuous
 62
     7
100
AcDbLine
 10
303.6713041535665
 20
209.9853485685152
 30
0.0
 11
303.6713041535665
 21
210.6853485685141
 31
0.0
  0
LINE
  5
B1
330
1F
100
AcDbEntity
  8
1
  6
DASHED
 62
     2
100
AcDbLine
 10
329.7225161067102
 20
224.6591880877721
 30
0.0
 11
328.6052762328302
 21
220.7663388657573
 31
0.0
  0
LINE
  5
B2
330
1F
100
AcDbEntity
  8
1
  6
DASHED
 62
     2
100
AcDbLine
 10
324.811567286388
 20
227.1089895819722
 30
0.0
 11
329.0371804652188
 21
225.8962471237545
 31
0.0
  0
LINE
  5
B3
330
1F
100
AcDbEntity
  8
1
  6
Continuous
 62
     7
100
AcDbLine
 10
306.2108868169537
 20
226.1531143640048
 30
0.0
 11
307.9447043970856
 21
225.6555122160433
 31
0.0
  0
LINE
  5
B4
330
1F
100
AcDbEntity
  8
1
  6
Continuous
 62
     7
100
AcDbLine
 10
307.8798500854634
 20
231.9683582632959
 30
0.0
 11
308.9485138217117
 21
231.6616539267314
 31
0.0
  0
LINE
  5
B5
330
1F
100
AcDbEntity
  8
0
  6
Continuous
 62
     7
100
AcDbLine
 10
303.6713041535665
 20
210.6853485685141
 30
0.0
 11
303.6713041535665
 21
225.985348568515
 31
0.0
  0
LINE
  5
B6
330
1F
100
AcDbEntity
  8
0
  6
Continuous
 62
     7
100
AcDbLine
 10
305.1713041535665
 20
233.6853485685141
 30
0.0
 11
305.1713041535665
 21
217.4853485685152
 31
0.0
  0
LINE
  5
B7
330
1F
100
AcDbEntity
  8
0
  6
Continuous
 62
     7
100
AcDbLine
 10
306.6427910494774
 20
231.283022621851
 30
0.0
 11
305.5255511754747
 21
227.3901734000272
 31
0.0
  0
LINE
  5
B8
330
1F
100
AcDbEntity
  8
0
  6
Continuous
 62
     7
100
AcDbLine
 10
308.1713041535665
 20
234.6853485685141
 30
0.0
 11
305.1713041535665
 21
233.6853485685141
 31
0.0
  0
LINE
  5
B9
330
1F
100
AcDbEntity
  8
0
  6
Continuous
 62
     7
100
AcDbLine
 10
323.171304153567
 20
215.4853485685152
 30
0.0
 11
323.171304153567
 21
211.1853485685141
 31
0.0
  0
LINE
  5
BA
330
1F
100
AcDbEntity
  8
0
  6
Continuous
 62
     7
100
AcDbLine
 10
305.1713041535665
 20
217.4853485685152
 30
0.0
 11
308.1713041535665
 21
216.4853485685152
 31
0.0
  0
LINE
  5
BB
330
1F
100
AcDbEntity
  8
0
  6
Continuous
 62
     7
100
AcDbLine
 10
334.671304153567
 20
209.985348568515
 30
0.0
 11
321.671304153567
 21
209.9853485685152
 31
0.0
  0
LINE
  5
BC
330
1F
100
AcDbEntity
  8
0
  6
Continuous
 62
     7
100
AcDbLine
 10
323.171304153567
 20
211.1853485685141
 30
0.0
 11
334.671304153567
 21
211.1853485685141
 31
0.0
  0
LINE
  5
BD
330
1F
100
AcDbEntity
  8
0
  6
Continuous
 62
     7
100
AcDbLine
 10
308.1713041535665
 20
216.4853485685152
 30
0.0
 11
322.171304153567
 21
216.4853485685152
 31
0.0
  0
LINE
  5
BE
330
1F
100
AcDbEntity
  8
0
  6
Continuous
 62
     7
100
AcDbLine
 10
310.1769765335664
 20
225.0148546159151
 30
0.0
 11
324.4077499457137
 21
220.9306513533937
 31
0.0
  0
LINE
  5
BF
330
1F
100
AcDbEntity
  8
0
  6
Continuous
 62
     7
100
AcDbLine
 10
334.671304153567
 20
211.1853485685141
 30
0.0
 11
334.671304153567
 21
226.8581625030282
 31
0.0
  0
LINE
  5
C0
330
1F
100
AcDbEntity
  8
0
  6
Continuous
 62
     7
100
AcDbLine
 10
312.7392834837667
 20
234.6853485685141
 30
0.0
 11
308.1713041535665
 21
234.6853485685141
 31
0.0
  0
LINE
  5
C1
330
1F
100
AcDbEntity
  8
0
  6
Continuous
 62
     7
100
AcDbLine
 10
308.6712831071375
 20
237.9853485685152
 30
0.0
 11
308.6713041535665
 21
237.9853516202719
 31
0.0
  0
LINE
  5
C2
330
1F
100
AcDbEntity
  8
1
  6
Continuous
 62
     7
100
AcDbLine
 10
308.6713259519326
 20
209.9853485685152
 30
0.0
 11
303.6713041535665
 21
209.9853485685152
 31
0.0
  0
LINE
  5
C3
330
1F
100
AcDbEntity
  8
1
  6
DOT_CENTER
 62
     2
100
AcDbLine
 10
347.6713041535669
 20
300.70810141156
 30
0.0
 11
324.6713041535669
 21
300.70810141156
 31
0.0
  0
LINE
  5
C4
330
1F
100
AcDbEntity
  8
1
  6
Continuous
 62
     7
100
AcDbLine
 10
334.6713041535669
 20
205.985348568515
 30
0.0
 11
334.671304153567
 21
209.985348568515
 31
0.0
  0
LINE
  5
C5
330
1F
100
AcDbEntity
  8
1
  6
Continuous
 62
     7
100
AcDbLine
 10
284.6713041535669
 20
205.985348568515
 30
0.0
 11
334.6713041535669
 21
205.985348568515
 31
0.0
  0
LINE
  5
C6
330
1F
100
AcDbEntity
  8
1
  6
DOT_CENTER
 62
     2
100
AcDbLine
 10
347.6713041535669
 20
300.70810141156
 30
0.0
 11
352.6857773706978
 21
300.70810141156
 31
0.0
  0
LINE
  5
C7
330
1F
100
AcDbEntity
  8
1
  6
Continuous
 62
     7
100
AcDbLine
 10
347.6713041535669
 20
250.985348568515
 30
0.0
 11
347.6713041535669
 21
300.70810141156
 31
0.0
  0
LINE
  5
C8
330
1F
100
AcDbEntity
  8
1
  6
Continuous
 62
     7
100
AcDbLine
 10
334.6713041535669
 20
250.985348568515
 30
0.0
 11
334.6713041535669
 21
237.985348568515
 31
0.0
  0
LINE
  5
C9
330
1F
100
AcDbEntity
  8
1
  6
Continuous
 62
     7
100
AcDbLine
 10
334.6713041535669
 20
250.985348568515
 30
0.0
 11
347.6713041535669
 21
250.985348568515
 31
0.0
  0
LINE
  5
CA
330
1F
100
AcDbEntity
  8
1
  6
Continuous
 62
     7
100
AcDbLine
 10
335.6713041535669
 20
249.2532977609461
 30
0.0
 11
335.6713041535669
 21
249.985348568515
 31
0.0
  0
LINE
  5
CB
330
1F
100
AcDbEntity
  8
1
  6
Continuous
 62
     7
100
AcDbLine
 10
336.9807052303253
 20
246.985348568515
 30
0.0
 11
335.6713041535669
 21
249.2532977609461
 31
0.0
  0
LINE
  5
CC
330
1F
100
AcDbEntity
  8
1
  6
Continuous
 62
     7
100
AcDbLine
 10
345.3619030768083
 20
246.985348568515
 30
0.0
 11
336.9807052303253
 21
246.985348568515
 31
0.0
  0
LINE
  5
CD
330
1F
100
AcDbEntity
  8
1
  6
Continuous
 62
     7
100
AcDbLine
 10
346.6713041535669
 20
249.2532977609461
 30
0.0
 11
345.3619030768083
 21
246.985348568515
 31
0.0
  0
LINE
  5
CE
330
1F
100
AcDbEntity
  8
1
  6
Continuous
 62
     7
100
AcDbLine
 10
346.6713041535669
 20
249.985348568515
 30
0.0
 11
346.6713041535669
 21
249.2532977609461
 31
0.0
  0
LINE
  5
CF
330
1F
100
AcDbEntity
  8
1
  6
Continuous
 62
     7
100
AcDbLine
 10
335.6713041535669
 20
249.985348568515
 30
0.0
 11
346.6713041535669
 21
249.985348568515
 31
0.0
  0
LINE
  5
D0
330
1F
100
AcDbEntity
  8
1
  6
Continuous
 62
     7
100
AcDbLine
 10
347.6713041535669
 20
248.985348568515
 30
0.0
 11
347.6713041535669
 21
250.985348568515
 31
0.0
  0
LINE
  5
D1
330
1F
100
AcDbEntity
  8
1
  6
Continuous
 62
     7
100
AcDbLine
 10
345.9392533459983
 20
245.985348568515
 30
0.0
 11
347.6713041535669
 21
248.985348568515
 31
0.0
  0
LINE
  5
D2
330
1F
100
AcDbEntity
  8
1
  6
Continuous
 62
     7
100
AcDbLine
 10
336.4033549611357
 20
245.985348568515
 30
0.0
 11
338.1713041535671
 21
245.985348568515
 31
0.0
  0
LINE
  5
D3
330
1F
100
AcDbEntity
  8
1
  6
Continuous
 62
     7
100
AcDbLine
 10
334.6713041535669
 20
248.985348568515
 30
0.0
 11
336.4033549611357
 21
245.985348568515
 31
0.0
  0
ARC
  5
D4
330
1F
100
AcDbEntity
  8
0
  6
Continuous
 62
     7
100
AcDbCircle
 10
362.921304153567
 20
228.235348568515
 30
0.0
 40
3.250000338900215
100
AcDbArc
 50
-164.9999588064005
 51
50.02264049929872
  0
ARC
  5
D5
330
1F
100
AcDbEntity
  8
0
  6
Continuous
 62
     7
100
AcDbCircle
 10
342.197476153567
 20
228.281130568515
 30
0.0
 40
1.999999855599592
100
AcDbArc
 50
111.9997859598062
 51
145.605467156219
  0
ARC
  5
D6
330
1F
100
AcDbEntity
  8
0
  6
Continuous
 62
     7
100
AcDbCircle
 10
336.421304153567
 20
232.235348568515
 30
0.0
 40
5.000000356199774
100
AcDbArc
 50
-93.27122968739705
 51
-34.39453284360197
  0
ARC
  5
D7
330
1F
100
AcDbEntity
  8
0
  6
Continuous
 62
     7
100
AcDbCircle
 10
346.114927153567
 20
228.785348568515
 30
0.0
 40
3.000000486899622
100
AcDbArc
 50
90.00014509489242
 51
111.9999959107503
  0
ARC
  5
D8
330
1F
100
AcDbEntity
  8
0
  6
Continuous
 62
     7
100
AcDbCircle
 10
336.021865153567
 20
225.246754568515
 30
0.0
 40
2.000000574300309
100
AcDbArc
 50
86.7287703126038
 51
112.0000087355966
  0
ARC
  5
D9
330
1F
100
AcDbEntity
  8
0
  6
Continuous
 62
     7
100
AcDbCircle
 10
332.365240153567
 20
223.230114568515
 30
0.0
 40
2.499999299699914
100
AcDbArc
 50
111.9998201300131
 51
-155.0000090626213
  0
ARC
  5
DA
330
1F
100
AcDbEntity
  8
0
  6
Continuous
 62
     7
100
AcDbCircle
 10
339.804720153567
 20
237.785348568515
 30
0.0
 40
2.499999999999905
100
AcDbArc
 50
-121.3677385060887
 51
-90.0
  0
ARC
  5
DB
330
1F
100
AcDbEntity
  8
0
  6
Continuous
 62
     7
100
AcDbCircle
 10
336.421304153567
 20
232.235348568515
 30
0.0
 40
4.000000436500215
100
AcDbArc
 50
58.63263509180265
 51
131.0000006202469
  0
ARC
  5
DC
330
1F
100
AcDbEntity
  8
0
  6
Continuous
 62
     7
100
AcDbCircle
 10
329.109800153567
 20
224.554542568515
 30
0.0
 40
5.000000532599891
100
AcDbArc
 50
131.0000676598961
 51
-174.9999979438434
  0
ARC
  5
DD
330
1F
100
AcDbEntity
  8
0
  6
Continuous
 62
     7
100
AcDbCircle
 10
356.303455153567
 20
228.785348568515
 30
0.0
 40
2.999999999999996
100
AcDbArc
 50
14.99992698430909
 51
90.0
  0
ARC
  5
DE
330
1F
100
AcDbEntity
  8
0
  6
Continuous
 62
     7
100
AcDbCircle
 10
357.755692153567
 20
230.285348568515
 30
0.0
 40
5.000000000000511
100
AcDbArc
 50
50.00008987780064
 51
90.0
  0
ARC
  5
DF
330
1F
100
AcDbEntity
  8
0
  6
Continuous
 62
     7
100
AcDbCircle
 10
328.921304153567
 20
215.2353485685152
 30
0.0
 40
3.999999845887616
100
AcDbArc
 50
-162.4999998374095
 51
25.00000028714544
  0
ARC
  5
E0
330
1F
100
AcDbEntity
  8
0
  6
Continuous
 62
     7
100
AcDbCircle
 10
366.3592087809896
 20
227.1152728554559
 30
0.0
 40
0.9999999998757731
100
AcDbArc
 50
-73.9866277330532
 51
16.01337226972924
  0
ARC
  5
E1
330
1F
100
AcDbEntity
  8
0
  6
Continuous
 62
     7
100
AcDbCircle
 10
349.171304153567
 20
216.235348568515
 30
0.0
 40
1.0
100
AcDbArc
 50
90.0
 51
180.0
  0
ARC
  5
E2
330
1F
100
AcDbEntity
  8
0
  6
Continuous
 62
     7
100
AcDbCircle
 10
367.4713072053248
 20
215.5853470426343
 30
0.0
 40
3.001770257948368
100
AcDbArc
 50
-82.34717225367733
 51
-1.96783430490567
  0
ARC
  5
E3
330
1F
100
AcDbEntity
  8
0
  6
Continuous
 62
     7
100
AcDbCircle
 10
355.9712919465357
 20
210.485348568515
 30
0.0
 40
1.5
100
AcDbArc
 50
90.0
 51
-179.9999899820546
  0
ARC
  5
E4
330
1F
100
AcDbEntity
  8
0
  6
DASHED
 62
     2
100
AcDbCircle
 10
336.421304153567
 20
232.235348568515
 30
0.0
 40
4.000000436482043
100
AcDbArc
 50
48.99999937975311
 51
63.6913044243188
  0
ARC
  5
E5
330
1F
100
AcDbEntity
  8
0
  6
Continuous
 62
     7
100
AcDbCircle
 10
343.921304153567
 20
215.235348568515
 30
0.0
 40
3.999999845886232
100
AcDbArc
 50
154.999999712852
 51
-17.50000016258783
  0
ARC
  5
E6
330
1F
100
AcDbEntity
  8
0
  6
Continuous
 62
     7
100
AcDbCircle
 10
315.086916153567
 20
230.285348568515
 30
0.0
 40
5.0
100
AcDbArc
 50
90.0
 51
129.9999101221984
  0
ARC
  5
E7
330
1F
100
AcDbEntity
  8
0
  6
Continuous
 62
     7
100
AcDbCircle
 10
316.539153153567
 20
228.785348568515
 30
0.0
 40
3.0
100
AcDbArc
 50
90.0
 51
165.0000730156906
  0
ARC
  5
E8
330
1F
100
AcDbEntity
  8
0
  6
Continuous
 62
     7
100
AcDbCircle
 10
343.732808153567
 20
224.554542568515
 30
0.0
 40
5.000000532506255
100
AcDbArc
 50
-5.00000205615658
 51
48.9999323401039
  0
ARC
  5
E9
330
1F
100
AcDbEntity
  8
0
  6
Continuous
 62
     7
100
AcDbCircle
 10
336.421304153567
 20
232.235348568515
 30
0.0
 40
4.000000436500254
100
AcDbArc
 50
63.6913044243188
 51
121.3673649081974
  0
ARC
  5
EA
330
1F
100
AcDbEntity
  8
0
  6
Continuous
 62
     7
100
AcDbCircle
 10
333.037888153567
 20
237.785348568515
 30
0.0
 40
2.5
100
AcDbArc
 50
-90.0
 51
-58.63226149390903
  0
ARC
  5
EB
330
1F
100
AcDbEntity
  8
0
  6
Continuous
 62
     7
100
AcDbCircle
 10
340.4773681535671
 20
223.230114568515
 30
0.0
 40
2.499999299676978
100
AcDbArc
 50
-24.99999093738036
 51
68.00017986998937
  0
ARC
  5
EC
330
1F
100
AcDbEntity
  8
0
  6
Continuous
 62
     7
100
AcDbCircle
 10
336.820743153567
 20
225.246754568515
 30
0.0
 40
2.000000574314599
100
AcDbArc
 50
67.99999126440191
 51
93.27122968739457
  0
ARC
  5
ED
330
1F
100
AcDbEntity
  8
0
  6
Continuous
 62
     7
100
AcDbCircle
 10
326.727681153567
 20
228.785348568515
 30
0.0
 40
3.000000486841576
100
AcDbArc
 50
68.00000408924973
 51
89.99985490510868
  0
ARC
  5
EE
330
1F
100
AcDbEntity
  8
0
  6
DASHED
 62
     2
100
AcDbCircle
 10
336.421304153567
 20
232.235348568515
 30
0.0
 40
5.000000356199863
100
AcDbArc
 50
-145.605467156398
 51
-86.72877031260295
  0
ARC
  5
EF
330
1F
100
AcDbEntity
  8
0
  6
DASHED
 62
     2
100
AcDbCircle
 10
330.645132153567
 20
228.281130568515
 30
0.0
 40
1.999999855593586
100
AcDbArc
 50
34.39453284378013
 51
68.00021404019233
  0
ARC
  5
F0
330
1F
100
AcDbEntity
  8
0
  6
Continuous
 62
     7
100
AcDbCircle
 10
309.921304153567
 20
228.235348568515
 30
0.0
 40
3.250000338873205
100
AcDbArc
 50
129.9773595007013
 51
-15.00004119359899
  0
ARC
  5
F1
330
1F
100
AcDbEntity
  8
0
  6
Continuous
 62
     7
100
AcDbCircle
 10
320.671304153567
 20
210.4853516202719
 30
0.0
 40
1.0
100
AcDbArc
 50
0.0
 51
90.0
  0
ARC
  5
F2
330
1F
100
AcDbEntity
  8
0
  6
Continuous
 62
     7
100
AcDbCircle
 10
322.171304153567
 20
215.4853485685152
 30
0.0
 40
1.0
100
AcDbArc
 50
0.0
 51
90.0
  0
CIRCLE
  5
F3
330
1F
100
AcDbEntity
  8
0
  6
Continuous
 62
     7
100
AcDbCircle
 10
328.921304153567
 20
215.2353485685152
 30
0.0
 40
2.024999999999977
  0
CIRCLE
  5
F4
330
1F
100
AcDbEntity
  8
0
  6
Continuous
 62
     7
100
AcDbCircle
 10
362.921304153567
 20
228.235348568515
 30
0.0
 40
2.024999999999977
  0
CIRCLE
  5
F5
330
1F
100
AcDbEntity
  8
0
  6
Continuous
 62
     7
100
AcDbCircle
 10
336.421304153567
 20
232.235348568515
 30
0.0
 40
2.024999999999977
  0
CIRCLE
  5
F6
330
1F
100
AcDbEntity
  8
0
  6
Continuous
 62
     7
100
AcDbCircle
 10
309.921304153567
 20
228.235348568515
 30
0.0
 40
2.025000000000034
  0
CIRCLE
  5
F7
330
1F
100
AcDbEntity
  8
0
  6
Continuous
 62
     7
100
AcDbCircle
 10
343.921304153567
 20
215.235348568515
 30
0.0
 40
2.025000000000034
  0
ARC
  5
F8
330
1F
100
AcDbEntity
  8
1
  6
Continuous
 62
     7
100
AcDbCircle
 10
365.2419689068072
 20
231.0081220773151
 30
0.0
 40
1.000000000000079
100
AcDbArc
 50
16.01337227060028
 51
106.0133722672501
  0
ARC
  5
F9
330
1F
100
AcDbEntity
  8
1
  6
Continuous
 62
     7
100
AcDbCircle
 10
345.1985294130747
 20
221.0422005629832
 30
0.0
 40
0.9999999999998319
100
AcDbArc
 50
-163.9866277330263
 51
-91.21244973795201
  0
ARC
  5
FA
330
1F
100
AcDbEntity
  8
1
  6
DASHED
 62
     2
100
AcDbCircle
 10
345.1985294130747
 20
221.0422005629832
 30
0.0
 40
1.00000000000025
100
AcDbArc
 50
-91.21244973795201
 51
-73.98662773309165
  0
ARC
  5
FB
330
1F
100
AcDbEntity
  8
1
  6
DASHED
 62
     2
100
AcDbCircle
 10
344.0812895391384
 20
224.9350497849816
 30
0.0
 40
1.000000000000216
100
AcDbArc
 50
106.0133722661
 51
-163.9866277330263
  0
ARC
  5
FC
330
1F
100
AcDbEntity
  8
1
  6
Continuous
 62
     7
100
AcDbCircle
 10
306.4867485141997
 20
227.114311702743
 30
0.0
 40
1.000000000000285
100
AcDbArc
 50
163.9866277315191
 51
-106.0133722661687
  0
ARC
  5
FD
330
1F
100
AcDbEntity
  8
1
  6
Continuous
 62
     7
100
AcDbCircle
 10
307.6039883882015
 20
231.007160924565
 30
0.0
 40
0.9999999999997772
100
AcDbArc
 50
73.98662773284242
 51
163.9866277314061
  0
ARC
  5
FE
330
1F
100
AcDbEntity
  8
1
  6
DASHED
 62
     2
100
AcDbCircle
 10
327.6440788940938
 20
221.0422005630015
 30
0.0
 40
0.999999999999538
100
AcDbArc
 50
-106.0133722669209
 51
-16.01337226609886
  0
ARC
  5
FF
330
1F
100
AcDbEntity
  8
1
  6
Continuous
 62
     7
100
AcDbCircle
 10
308.0713133088395
 20
215.1085786562715
 30
0.0
 40
3.0
100
AcDbArc
 50
180.0
 51
-97.87387017109803
  0
ARC
  5
100
330
1F
100
AcDbEntity
  8
1
  6
DASHED
 62
     2
100
AcDbCircle
 10
328.7613187679747
 20
224.9350497850181
 30
0.0
 40
0.9999999999998005
100
AcDbArc
 50
-16.01337226621184
 51
73.98662773390942
  0
DIMENSION
  5
10C
330
1F
100
AcDbEntity
  8
1
100
AcDbDimension
  2
*D1
 10
303.6713041535665
 20
185.895866267286
 30
0.0
 11
317.9862064040507
 21
189.645866267286
 31
0.0
 70
    32
  1
<>
 71
     5
 42
-1.0
 53
0.00013888888889
  3
ME10_DIM_10
100
AcDbAlignedDimension
 13
334.6713041535669
 23
205.985348568515
 33
0.0
 14
303.6713041535665
 24
209.9853485685152
 34
0.0
100
AcDbRotatedDimension
  0
DIMENSION
  5
117
330
1F
100
AcDbEntity
  8
1
100
AcDbDimension
  2
*D2
 10
338.171304153567
 20
185.895866267286
 30
0.0
 11
354.921304153567
 21
189.645866267286
 31
0.0
 70
    32
  1
<>
 71
     5
 42
-1.0
 53
0.00013888888889
  3
ME10_DIM_11
100
AcDbAlignedDimension
 13
371.671304153567
 23
209.985348568515
 33
0.0
 14
338.171304153567
 24
205.985348568515
 34
0.0
100
AcDbRotatedDimension
  0
DIMENSION
  5
124
330
1F
100
AcDbEntity
  8
1
100
AcDbDimension
  2
*D3
 10
334.6713041535669
 20
195.895866267286
 30
0.0
 11
327.419889971097
 21
199.645866267286
 31
0.0
 70
    32
  1
<>
 71
     5
 42
-1.0
 53
0.00013888888889
  3
ME10_DIM_12
100
AcDbAlignedDimension
 13
338.171304153567
 23
205.985348568515
 33
0.0
 14
334.6713041535669
 24
205.985348568515
 34
0.0
100
AcDbRotatedDimension
  0
DIMENSION
  5
131
330
1F
100
AcDbEntity
  8
1
100
AcDbDimension
  2
*D4
 10
401.405963712947
 20
205.985348568515
 30
0.0
 11
397.655963712947
 21
201.072838819559
 31
0.0
 70
    32
  1
<>
 71
     5
 42
-1.0
 53
90.0
  3
ME10_DIM_13
100
AcDbAlignedDimension
 13
371.671304153567
 23
209.985348568515
 33
0.0
 14
393.1713041535669
 24
205.985348568515
 34
0.0
 50
90.0
100
AcDbRotatedDimension
  0
DIMENSION
  5
13C
330
1F
100
AcDbEntity
  8
1
100
AcDbDimension
  2
*D5
 10
401.405963712947
 20
209.985348568515
 30
0.0
 11
397.655963712947
 21
223.985348568515
 31
0.0
 70
    32
  1
<>
 71
     5
 42
-1.0
 53
90.0
  3
ME10_DIM_14
100
AcDbAlignedDimension
 13
371.671304153567
 23
237.985348568515
 33
0.0
 14
371.671304153567
 24
209.985348568515
 34
0.0
 50
90.0
100
AcDbRotatedDimension
  0
ENDSEC
  0
SECTION
  2
OBJECTS
  0
DICTIONARY
  5
C
330
0
100
AcDbDictionary
281
     1
  3
ACAD_GROUP
350
D
  3
ACAD_LAYOUT
350
1A
  3
ACAD_MLINESTYLE
350
17
  3
ACAD_PLOTSETTINGS
350
19
  3
ACAD_PLOTSTYLENAME
350
E
  0
DICTIONARY
  5
D
102
{ACAD_REACTORS
330
C
102
}
330
C
100
AcDbDictionary
281
     1
  0
DICTIONARY
  5
1A
102
{ACAD_REACTORS
330
C
102
}
330
C
100
AcDbDictionary
281
     1
  3
Layout1
350
1E
  3
Layout2
350
26
  3
Model
350
22
  0
DICTIONARY
  5
17
102
{ACAD_REACTORS
330
C
102
}
330
C
100
AcDbDictionary
281
     1
  3
Standard
350
18
  0
DICTIONARY
  5
19
102
{ACAD_REACTORS
330
C
102
}
330
C
100
AcDbDictionary
281
     1
  0
ACDBDICTIONARYWDFLT
  5
E
102
{ACAD_REACTORS
330
C
102
}
330
C
100
AcDbDictionary
281
     1
  3
Normal
350
F
100
AcDbDictionaryWithDefault
340
F
  0
LAYOUT
  5
1E
102
{ACAD_REACTORS
330
1A
102
}
330
1A
100
AcDbPlotSettings
  1

  2

  4

  6

 40
0.0
 41
0.0
 42
0.0
 43
0.0
 44
0.0
 45
0.0
 46
0.0
 47
0.0
 48
0.0
 49
0.0
140
0.0
141
0.0
142
1.0
143
1.0
 70
   688
 72
     0
 73
     0
 74
     5
  7

 75
    16
 76
     0
 77
     2
 78
   300
147
1.0
148
0.0
149
0.0
100
AcDbLayout
  1
Layout1
 70
     1
 71
     1
 10
0.0
 20
0.0
 11
0.0
 21
0.0
 12
0.0
 22
0.0
 32
0.0
 14
0.0
 24
0.0
 34
0.0
 15
0.0
 25
0.0
 35
0.0
146
0.0
 13
0.0
 23
0.0
 33
0.0
 16
1.0
 26
0.0
 36
0.0
 17
0.0
 27
1.0
 37
0.0
 76
     0
330
1B
  0
LAYOUT
  5
26
102
{ACAD_REACTORS
330
1A
102
}
330
1A
100
AcDbPlotSettings
  1

  2

  4

  6

 40
0.0
 41
0.0
 42
0.0
 43
0.0
 44
0.0
 45
0.0
 46
0.0
 47
0.0
 48
0.0
 49
0.0
140
0.0
141
0.0
142
1.0
143
1.0
 70
   688
 72
     0
 73
     0
 74
     5
  7

 75
    16
 76
     0
 77
     2
 78
   300
147
1.0
148
0.0
149
0.0
100
AcDbLayout
  1
Layout2
 70
     1
 71
     2
 10
0.0
 20
0.0
 11
0.0
 21
0.0
 12
0.0
 22
0.0
 32
0.0
 14
0.0
 24
0.0
 34
0.0
 15
0.0
 25
0.0
 35
0.0
146
0.0
 13
0.0
 23
0.0
 33
0.0
 16
1.0
 26
0.0
 36
0.0
 17
0.0
 27
1.0
 37
0.0
 76
     0
330
23
  0
LAYOUT
  5
22
102
{ACAD_REACTORS
330
1A
102
}
330
1A
100
AcDbPlotSettings
  1

  2

  4

  6

 40
0.0
 41
0.0
 42
0.0
 43
0.0
 44
0.0
 45
0.0
 46
0.0
 47
0.0
 48
0.0
 49
0.0
140
0.0
141
0.0
142
1.0
143
1.0
 70
  1712
 72
     0
 73
     0
 74
     0
  7

 75
     0
 76
     0
 77
     2
 78
   300
147
1.0
148
0.0
149
0.0
100
AcDbLayout
  1
Model
 70
     1
 71
     0
 10
0.0
 20
0.0
 11
0.0
 21
0.0
 12
0.0
 22
0.0
 32
0.0
 14
284.6713041535669
 24
183.895866267286
 34
0.0
 15
403.405963712947
 25
300.70810141156
 35
0.0
146
0.0
 13
0.0
 23
0.0
 33
0.0
 16
1.0
 26
0.0
 36
0.0
 17
0.0
 27
1.0
 37
0.0
 76
     0
330
1F
  0
MLINESTYLE
  5
18
102
{ACAD_REACTORS
330
17
102
}
330
17
100
AcDbMlineStyle
  2
Standard
 70
     0
  3

 62
   256
 51
90.0
 52
90.0
 71
     2
 49
0.5
 62
   256
  6
BYLAYER
 49
-0.5
 62
   256
  6
BYLAYER
  0
ACDBPLACEHOLDER
  5
F
102
{ACAD_REACTORS
330
E
102
}
330
E
  0
ENDSEC
  0
EOF
