999
DXF file: d:\tmp\workingDir\0000086804\te_340_3d_sz_q01_01.dxf
999
Pro/ENGINEER 2016380 by Parametric Technology Corporation
  0
SECTION
  2
HEADER
  9
$ACADVER
  1
AC1014
  9
$DWGCODEPAGE
  3
ANSI_1252
  9
$EXTMAX
 10
130.048
 20
100.0
 30
0.0
  9
$EXTMIN
 10
0.0
 20
-0.0
 30
0.0
  9
$LIMMIN
 10
0.0
 20
-0.0
  9
$LIMMAX
 10
130.048
 20
100.0
  9
$VIEWCTR
 10
65.024
 20
50.0
  9
$VIEWSIZE
 40
100.0
  9
$CLAYER
  8
0
  9
$LTSCALE
 40
7.15264
  9
$CELTYPE
  6
BYLAYER
  9
$DIMSCALE
 40
1.0
  9
$DIMASZ
 40
3.5
  9
$DIMEXO
 40
0.0
  9
$DIMDLI
 40
4.941824
  9
$DIMEXE
 40
2.0
  9
$DIMCEN
 40
1.170432
  9
$DIMLFAC
 40
1.0
  9
$DIMBLK
  1
_ARROW_FILLED
  9
$DIMALT
 70
0
  9
$DIMALTF
 40
25.4
  9
$DIMTXT
 40
3.5
  9
$DIMTOL
 70
1
  9
$DIMLIM
 70
0
  9
$DIMTFAC
 40
1.0
  9
$DIMTP
 40
0.01
  9
$DIMTM
 40
0.01
  9
$DIMGAP
 40
0.625
  9
$AUNITS
 70
0
  9
$PDMODE
 70
0
  9
$PDSIZE
 40
0.04
  9
$HANDSEED
  5
3FE
  9
$TILEMODE
 70
1
  9
$MEASUREMENT
 70
1
  0
ENDSEC
  0
SECTION
  2
CLASSES
  0
ENDSEC
  0
SECTION
  2
TABLES
  0
TABLE
  2
VPORT
  5
8
100
AcDbSymbolTable
 70
2
  0
VPORT
  5
1F4
100
AcDbSymbolTableRecord
100
AcDbViewportTableRecord
  2
*ACTIVE
 70
0
 10
0.0
 20
0.0
 11
1.0
 21
1.0
 12
65.024
 22
50.0
 13
0.0
 23
0.0
 14
1.0
 24
1.0
 15
0.0
 25
0.0
 16
0.0
 26
0.0
 36
1.0
 17
0.0
 27
0.0
 37
0.0
 40
100.0
 41
1.30048
 42
50.0
 43
0.0
 44
0.0
 50
0.0
 51
0.0
 71
0
 72
100
 73
1
 74
1
 75
0
 76
0
 77
0
 78
0
  0
ENDTAB
  0
TABLE
  2
LTYPE
  5
5
100
AcDbSymbolTable
 70
6
  0
LTYPE
  5
14
100
AcDbSymbolTableRecord
100
AcDbLinetypeTableRecord
  2
BYBLOCK
 70
0
  3

 72
65
 73
0
 40
0.0
  0
LTYPE
  5
15
100
AcDbSymbolTableRecord
100
AcDbLinetypeTableRecord
  2
BYLAYER
 70
0
  3

 72
65
 73
0
 40
0.0
  0
LTYPE
  5
16
100
AcDbSymbolTableRecord
100
AcDbLinetypeTableRecord
  2
CONTINUOUS
 70
64
  3
Solid line
 72
65
 73
0
 40
0.0
  0
LTYPE
  5
1F5
100
AcDbSymbolTableRecord
100
AcDbLinetypeTableRecord
  2
CENTER
 70
64
  3
____ _ ____ _ ____ _ ____ _ ____ _ ____ _ ____
 72
65
 73
4
 40
0.6
 49
0.375
 74
0
 49
-0.075
 74
0
 49
0.075
 74
0
 49
-0.075
 74
0
  0
LTYPE
  5
1F6
100
AcDbSymbolTableRecord
100
AcDbLinetypeTableRecord
  2
HIDDEN
 70
64
  3
- - - - - - - - - - - - - - - - - - - -
 72
65
 73
2
 40
0.2
 49
0.1
 74
0
 49
-0.1
 74
0
  0
LTYPE
  5
1F7
100
AcDbSymbolTableRecord
100
AcDbLinetypeTableRecord
  2
PHANTOM
 70
64
  3
_____ _ _ _____ _ _ _____ _ _ _____
 72
65
 73
6
 40
0.8
 49
0.45
 74
0
 49
-0.05
 74
0
 49
0.1
 74
0
 49
-0.05
 74
0
 49
0.1
 74
0
 49
-0.05
 74
0
  0
LTYPE
  5
1F8
100
AcDbSymbolTableRecord
100
AcDbLinetypeTableRecord
  2
DOT
 70
64
  3
. . . . . . . . . . . . . . . . . . . .
 72
65
 73
2
 40
0.2
 49
0.1
 74
0
 49
-0.1
 74
0
  0
LTYPE
  5
1F9
100
AcDbSymbolTableRecord
100
AcDbLinetypeTableRecord
  2
DASHED
 70
64
  3
- - - - - - - - - - - - - - - - - - - -
 72
65
 73
2
 40
0.2
 49
0.1
 74
0
 49
-0.1
 74
0
  0
ENDTAB
  0
TABLE
  2
LAYER
  5
2
100
AcDbSymbolTable
 70
36
  0
LAYER
  5
10
100
AcDbSymbolTableRecord
100
AcDbLayerTableRecord
  2
0
 70
0
 62
7
  6
CONTINUOUS
  0
LAYER
  5
1FA
100
AcDbSymbolTableRecord
100
AcDbLayerTableRecord
  2
DEFAULT_1
 70
0
 62
7
  6
CENTER
  0
LAYER
  5
1FB
100
AcDbSymbolTableRecord
100
AcDbLayerTableRecord
  2
DEFAULT_2
 70
0
 62
8
  6
HIDDEN
  0
LAYER
  5
1FC
100
AcDbSymbolTableRecord
100
AcDbLayerTableRecord
  2
DEFAULT_3
 70
0
 62
7
  6
PHANTOM
  0
LAYER
  5
1FD
100
AcDbSymbolTableRecord
100
AcDbLayerTableRecord
  2
A_ACHSEN
 70
0
 62
7
  6
CONTINUOUS
  0
LAYER
  5
1FE
100
AcDbSymbolTableRecord
100
AcDbLayerTableRecord
  2
A_BASISEBENEN
 70
0
 62
7
  6
CONTINUOUS
  0
LAYER
  5
1FF
100
AcDbSymbolTableRecord
100
AcDbLayerTableRecord
  2
A_BEMASSUNGEN
 70
0
 62
7
  6
CONTINUOUS
  0
LAYER
  5
200
100
AcDbSymbolTableRecord
100
AcDbLayerTableRecord
  2
A_BOHRUNGEN
 70
0
 62
7
  6
CONTINUOUS
  0
LAYER
  5
201
100
AcDbSymbolTableRecord
100
AcDbLayerTableRecord
  2
A_EBENEN
 70
0
 62
7
  6
CONTINUOUS
  0
LAYER
  5
202
100
AcDbSymbolTableRecord
100
AcDbLayerTableRecord
  2
A_FASEN
 70
0
 62
7
  6
CONTINUOUS
  0
LAYER
  5
203
100
AcDbSymbolTableRecord
100
AcDbLayerTableRecord
  2
A_FLAECHEN
 70
0
 62
7
  6
CONTINUOUS
  0
LAYER
  5
204
100
AcDbSymbolTableRecord
100
AcDbLayerTableRecord
  2
A_FL_VERBAENDE
 70
0
 62
7
  6
CONTINUOUS
  0
LAYER
  5
205
100
AcDbSymbolTableRecord
100
AcDbLayerTableRecord
  2
A_KURVEN
 70
0
 62
7
  6
CONTINUOUS
  0
LAYER
  5
206
100
AcDbSymbolTableRecord
100
AcDbLayerTableRecord
  2
A_NOTIZEN_SYMB
 70
0
 62
7
  6
CONTINUOUS
  0
LAYER
  5
207
100
AcDbSymbolTableRecord
100
AcDbLayerTableRecord
  2
A_PUNKTE
 70
0
 62
7
  6
CONTINUOUS
  0
LAYER
  5
208
100
AcDbSymbolTableRecord
100
AcDbLayerTableRecord
  2
A_RUNDUNGEN
 70
0
 62
7
  6
CONTINUOUS
  0
LAYER
  5
209
100
AcDbSymbolTableRecord
100
AcDbLayerTableRecord
  2
BASISEBENEN
 70
0
 62
7
  6
CONTINUOUS
  0
LAYER
  5
20A
100
AcDbSymbolTableRecord
100
AcDbLayerTableRecord
  2
GRAVUR
 70
0
 62
7
  6
CONTINUOUS
  0
LAYER
  5
20B
100
AcDbSymbolTableRecord
100
AcDbLayerTableRecord
  2
IMPORT-KE
 70
0
 62
7
  6
CONTINUOUS
  0
LAYER
  5
20C
100
AcDbSymbolTableRecord
100
AcDbLayerTableRecord
  2
IMPORT_KE
 70
0
 62
7
  6
CONTINUOUS
  0
LAYER
  5
20D
100
AcDbSymbolTableRecord
100
AcDbLayerTableRecord
  2
INTF_2
 70
0
 62
7
  6
CONTINUOUS
  0
LAYER
  5
20E
100
AcDbSymbolTableRecord
100
AcDbLayerTableRecord
  2
KOSMETIK
 70
0
 62
7
  6
CONTINUOUS
  0
LAYER
  5
20F
100
AcDbSymbolTableRecord
100
AcDbLayerTableRecord
  2
WERKZEUGTRENNUNG
 70
0
 62
7
  6
CONTINUOUS
  0
LAYER
  5
210
100
AcDbSymbolTableRecord
100
AcDbLayerTableRecord
  2
XSEC_DATUMS
 70
0
 62
7
  6
CONTINUOUS
  0
ENDTAB
  0
TABLE
  2
STYLE
  5
3
100
AcDbSymbolTable
 70
1
  0
STYLE
  5
11
100
AcDbSymbolTableRecord
100
AcDbTextStyleTableRecord
  2
STANDARD
 70
0
 40
0.0
 41
1.0
 50
0.0
 71
0
 42
0.2
  3
txt
  4

  0
STYLE
  5
211
100
AcDbSymbolTableRecord
100
AcDbTextStyleTableRecord
  2
TEXTSTYLE_1
 70
0
 40
0.0
 41
0.8
 50
0.0
 71
0
 42
0.2
  3
gdt
  4

  0
STYLE
  5
212
100
AcDbSymbolTableRecord
100
AcDbTextStyleTableRecord
  2
TEXTSTYLE_2
 70
0
 40
0.0
 41
1.0
 50
0.0
 71
0
 42
0.2
  3
txt
  4

  0
ENDTAB
  0
TABLE
  2
VIEW
  5
6
100
AcDbSymbolTable
 70
0
  0
ENDTAB
  0
TABLE
  2
UCS
  5
7
100
AcDbSymbolTable
 70
0
  0
ENDTAB
  0
TABLE
  2
APPID
  5
9
100
AcDbSymbolTable
 70
1
  0
APPID
  5
213
100
AcDbSymbolTableRecord
100
AcDbRegAppTableRecord
  2
ACAD
 70
0
  0
ENDTAB
  0
TABLE
  2
BLOCK_RECORD
  5
1
100
AcDbSymbolTable
 70
0
  0
BLOCK_RECORD
  5
1F
100
AcDbSymbolTableRecord
100
AcDbBlockTableRecord
  2
*MODEL_SPACE
  0
BLOCK_RECORD
  5
1B
100
AcDbSymbolTableRecord
100
AcDbBlockTableRecord
  2
*PAPER_SPACE
  0
BLOCK_RECORD
  5
214
100
AcDbSymbolTableRecord
100
AcDbBlockTableRecord
  2
_ARROW_FILLED
  0
BLOCK_RECORD
  5
215
100
AcDbSymbolTableRecord
100
AcDbBlockTableRecord
  2
*D0
  0
BLOCK_RECORD
  5
216
100
AcDbSymbolTableRecord
100
AcDbBlockTableRecord
  2
*D1
  0
BLOCK_RECORD
  5
217
100
AcDbSymbolTableRecord
100
AcDbBlockTableRecord
  2
*D2
  0
BLOCK_RECORD
  5
218
100
AcDbSymbolTableRecord
100
AcDbBlockTableRecord
  2
*D3
  0
BLOCK_RECORD
  5
219
100
AcDbSymbolTableRecord
100
AcDbBlockTableRecord
  2
*D4
  0
BLOCK_RECORD
  5
21A
100
AcDbSymbolTableRecord
100
AcDbBlockTableRecord
  2
*D5
  0
BLOCK_RECORD
  5
21B
100
AcDbSymbolTableRecord
100
AcDbBlockTableRecord
  2
*D6
  0
BLOCK_RECORD
  5
21C
100
AcDbSymbolTableRecord
100
AcDbBlockTableRecord
  2
*D7
  0
ENDTAB
  0
TABLE
  2
DIMSTYLE
  5
A
100
AcDbSymbolTable
 70
1
  0
DIMSTYLE
105
21D
100
AcDbSymbolTableRecord
100
AcDbDimStyleTableRecord
  2
STANDARD
 70
0
  3

  4

  5
_ARROW_FILLED
  6
_ARROW_FILLED
  7
_ARROW_FILLED
 40
1.0
 41
3.5
 42
0.0
 43
0.38
 44
2.0
 45
0.0
 46
0.0
 47
0.01
 48
0.01
140
3.5
141
0.09
142
0.0
143
25.4
144
1.0
145
0.0
146
1.0
147
0.625
 71
1.0
 72
0.0
 73
0
 74
0
 75
0
 76
0
 77
1
 78
8
170
0
171
1
172
0
173
0
174
0
175
0
176
0
177
0
178
5
270
2
271
2
272
2
273
2
274
2
275
0
280
0
281
0
282
0
283
1
284
8
285
0
286
0
287
3
288
0
340
11
  0
DIMSTYLE
105
21E
100
AcDbSymbolTableRecord
100
AcDbDimStyleTableRecord
  2
DIMSTYLE_1
 70
0
  3

  4

  5
_ARROW_FILLED
  6
_ARROW_FILLED
  7
_ARROW_FILLED
 40
1.0
 41
3.5
 42
0.0
 43
0.38
 44
2.0
 45
0.0
 46
0.0
 47
0.1
 48
0.1
140
3.5
141
0.09
142
0.0
143
25.4
144
1.0
145
0.0
146
1.0
147
0.875
 71
0.0
 72
0.0
 73
0
 74
0
 75
0
 76
0
 77
1
 78
8
170
0
171
1
172
0
173
0
174
0
175
0
176
0
177
0
178
5
270
2
271
1
272
-1
273
2
274
2
275
0
280
0
281
0
282
0
283
1
284
8
285
0
286
0
287
3
288
0
340
212
  0
DIMSTYLE
105
21F
100
AcDbSymbolTableRecord
100
AcDbDimStyleTableRecord
  2
DIMSTYLE_2
 70
0
  3

  4

  5
_ARROW_FILLED
  6
_ARROW_FILLED
  7
_ARROW_FILLED
 40
1.0
 41
3.5
 42
0.0
 43
0.38
 44
2.0
 45
0.0
 46
0.0
 47
0.1
 48
0.1
140
3.5
141
0.09
142
0.0
143
25.4
144
1.0
145
0.0
146
1.0
147
0.875
 71
0.0
 72
0.0
 73
0
 74
0
 75
0
 76
0
 77
1
 78
8
170
0
171
1
172
0
173
0
174
0
175
0
176
0
177
0
178
5
270
2
271
4
272
-1
273
2
274
2
275
0
280
0
281
0
282
0
283
1
284
8
285
0
286
0
287
3
288
0
340
212
  0
DIMSTYLE
105
220
100
AcDbSymbolTableRecord
100
AcDbDimStyleTableRecord
  2
DIMSTYLE_3
 70
0
  3

  4

  5
_ARROW_FILLED
  6
_ARROW_FILLED
  7
_ARROW_FILLED
 40
1.0
 41
3.5
 42
0.0
 43
0.38
 44
2.0
 45
0.0
 46
0.0
 47
0.3
 48
0.3
140
3.5
141
0.09
142
0.0
143
25.4
144
1.0
145
0.0
146
1.0
147
0.875
 71
0.0
 72
0.0
 73
0
 74
0
 75
0
 76
0
 77
1
 78
8
170
0
171
1
172
0
173
0
174
0
175
0
176
0
177
0
178
5
270
2
271
4
272
-1
273
2
274
2
275
0
280
0
281
0
282
0
283
1
284
8
285
0
286
0
287
3
288
0
340
212
  0
DIMSTYLE
105
221
100
AcDbSymbolTableRecord
100
AcDbDimStyleTableRecord
  2
DIMSTYLE_4
 70
0
  3

  4

  5
_ARROW_FILLED
  6
_ARROW_FILLED
  7
_ARROW_FILLED
 40
1.0
 41
3.5
 42
0.0
 43
0.38
 44
2.0
 45
0.0
 46
0.0
 47
0.2
 48
0.2
140
3.5
141
0.09
142
0.0
143
25.4
144
1.0
145
0.0
146
1.0
147
0.875
 71
0.0
 72
0.0
 73
0
 74
0
 75
0
 76
0
 77
1
 78
8
170
0
171
1
172
0
173
0
174
0
175
0
176
0
177
0
178
5
270
2
271
0
272
-1
273
2
274
2
275
0
280
0
281
0
282
0
283
1
284
8
285
0
286
0
287
3
288
0
340
212
  0
DIMSTYLE
105
222
100
AcDbSymbolTableRecord
100
AcDbDimStyleTableRecord
  2
DIMSTYLE_5
 70
0
  3

  4

  5
_ARROW_FILLED
  6
_ARROW_FILLED
  7
_ARROW_FILLED
 40
1.0
 41
3.5
 42
0.0
 43
0.38
 44
2.0
 45
0.0
 46
0.0
 47
0.1
 48
0.1
140
3.5
141
0.09
142
0.0
143
25.4
144
1.0
145
0.0
146
1.0
147
0.875
 71
0.0
 72
0.0
 73
0
 74
0
 75
0
 76
0
 77
1
 78
8
170
0
171
1
172
0
173
0
174
0
175
0
176
0
177
0
178
5
270
2
271
0
272
-1
273
2
274
2
275
0
280
0
281
0
282
0
283
1
284
8
285
0
286
0
287
3
288
0
340
212
  0
DIMSTYLE
105
223
100
AcDbSymbolTableRecord
100
AcDbDimStyleTableRecord
  2
DIMSTYLE_6
 70
0
  3

  4

  5
_ARROW_FILLED
  6
_ARROW_FILLED
  7
_ARROW_FILLED
 40
1.0
 41
3.5
 42
0.0
 43
0.38
 44
2.0
 45
0.0
 46
0.0
 47
0.2
 48
0.2
140
3.5
141
0.09
142
0.0
143
25.4
144
1.0
145
0.0
146
1.0
147
0.875
 71
0.0
 72
0.0
 73
0
 74
0
 75
0
 76
0
 77
1
 78
8
170
0
171
1
172
0
173
0
174
0
175
0
176
0
177
0
178
5
270
2
271
4
272
-1
273
2
274
2
275
0
280
0
281
0
282
0
283
1
284
8
285
0
286
0
287
3
288
0
340
212
  0
ENDTAB
  0
ENDSEC
  0
SECTION
  2
BLOCKS
  0
BLOCK
  5
20
100
AcDbEntity
  8
0
100
AcDbBlockBegin
  2
*MODEL_SPACE
 70
0
 10
0.0
 20
0.0
 30
0.0
  3
*MODEL_SPACE
  1

  0
ENDBLK
  5
21
100
AcDbEntity
  8
0
100
AcDbBlockEnd
  0
BLOCK
  5
1C
100
AcDbEntity
  8
0
100
AcDbBlockBegin
  2
*PAPER_SPACE
 70
0
 10
0.0
 20
0.0
 30
0.0
  3
*PAPER_SPACE
  1

  0
ENDBLK
  5
1D
100
AcDbEntity
  8
0
100
AcDbBlockEnd
  0
BLOCK
  5
224
100
AcDbEntity
  8
0
100
AcDbBlockBegin
  2
_ARROW_FILLED
 70
64
 10
0.0
 20
0.0
  3
_ARROW_FILLED
  1

  0
SOLID
  5
225
100
AcDbEntity
  8
0
  6
BYBLOCK
 62
0
100
AcDbTrace
 10
0.0
 20
0.0
 11
-1.0
 21
0.1428571429
 12
-1.0
 22
-0.1428571429
 13
-1.0
 23
-0.1428571429
  0
ENDBLK
  5
226
100
AcDbEntity
  8
0
  6
BYBLOCK
 62
0
100
AcDbBlockEnd
  0
BLOCK
  5
227
100
AcDbEntity
  8
A_BEMASSUNGEN
100
AcDbBlockBegin
 62
2
  6
CONTINUOUS
  2
*D0
 70
65
 10
0.0
 20
0.0
  3
*D0
  1

  0
MTEXT
  5
228
100
AcDbEntity
  8
A_BEMASSUNGEN
100
AcDbMText
 62
5
  6
CONTINUOUS
  7
TEXTSTYLE_2
 71
3
 72
1
 10
48.5685209647
 20
18.6242401308
 30
0.0
 11
1.0
 21
0.0
 31
0.0
  1
3.5
 40
3.5
 41
10.5
  0
LINE
  5
229
100
AcDbEntity
  8
A_BEMASSUNGEN
100
AcDbLine
 62
2
  6
CONTINUOUS
 10
52.9705851067
 20
23.6495167632
 11
52.9705851067
 21
12.2492401308
  0
LINE
  5
22A
100
AcDbEntity
  8
A_BEMASSUNGEN
100
AcDbLine
 62
2
  6
CONTINUOUS
 10
56.4710327596
 20
22.3384198164
 11
56.4710327596
 21
12.2492401308
  0
LINE
  5
22B
100
AcDbEntity
  8
A_BEMASSUNGEN
100
AcDbLine
 62
2
  6
CONTINUOUS
 10
52.9705851067
 20
14.2492401308
 11
41.5685209647
 21
14.2492401308
  0
LINE
  5
22C
100
AcDbEntity
  8
A_BEMASSUNGEN
100
AcDbLine
 62
2
  6
CONTINUOUS
 10
41.5685209647
 20
14.2492401308
 11
54.7208089332
 21
14.2492401308
  0
LINE
  5
22D
100
AcDbEntity
  8
A_BEMASSUNGEN
100
AcDbLine
 62
2
  6
CONTINUOUS
 10
56.4710327596
 20
14.2492401308
 11
63.9710327596
 21
14.2492401308
  0
LINE
  5
22E
100
AcDbEntity
  8
A_BEMASSUNGEN
100
AcDbLine
 62
2
  6
CONTINUOUS
 10
63.9710327596
 20
14.2492401308
 11
54.7208089332
 21
14.2492401308
  0
INSERT
  5
22F
100
AcDbEntity
  8
A_BEMASSUNGEN
100
AcDbBlockReference
 62
2
  6
CONTINUOUS
  2
_ARROW_FILLED
 10
52.9705851067
 20
14.2492401308
 41
3.5
 42
3.5
 43
3.5
  0
INSERT
  5
230
100
AcDbEntity
  8
A_BEMASSUNGEN
100
AcDbBlockReference
 62
2
  6
CONTINUOUS
  2
_ARROW_FILLED
 10
56.4710327596
 20
14.2492401308
 41
3.5
 42
3.5
 43
3.5
 50
180.0
  0
ENDBLK
  5
231
100
AcDbEntity
  8
0
  6
BYBLOCK
 62
0
100
AcDbBlockEnd
  0
BLOCK
  5
232
100
AcDbEntity
  8
A_BEMASSUNGEN
100
AcDbBlockBegin
 62
2
  6
CONTINUOUS
  2
*D1
 70
65
 10
0.0
 20
0.0
  3
*D1
  1

  0
MTEXT
  5
233
100
AcDbEntity
  8
A_BEMASSUNGEN
100
AcDbMText
 62
5
  6
CONTINUOUS
  7
TEXTSTYLE_2
 71
2
 72
1
 10
120.6091420372
 20
24.3384198164
 30
0.0
 11
0.0
 21
1.0
 31
0.0
  1
4
 40
3.5
 41
4.125
  0
LINE
  5
234
100
AcDbEntity
  8
A_BEMASSUNGEN
100
AcDbLine
 62
2
  6
CONTINUOUS
 10
102.1194197431
 20
26.3384198164
 11
126.9841420372
 21
26.3384198164
  0
LINE
  5
235
100
AcDbEntity
  8
A_BEMASSUNGEN
100
AcDbLine
 62
2
  6
CONTINUOUS
 10
116.4710327596
 20
22.3384198164
 11
126.9841420372
 21
22.3384198164
  0
LINE
  5
236
100
AcDbEntity
  8
A_BEMASSUNGEN
100
AcDbLine
 62
2
  6
CONTINUOUS
 10
124.9841420372
 20
26.3384198164
 11
124.9841420372
 21
33.8384198164
  0
LINE
  5
237
100
AcDbEntity
  8
A_BEMASSUNGEN
100
AcDbLine
 62
2
  6
CONTINUOUS
 10
124.9841420372
 20
33.8384198164
 11
124.9841420372
 21
24.3384198164
  0
LINE
  5
238
100
AcDbEntity
  8
A_BEMASSUNGEN
100
AcDbLine
 62
2
  6
CONTINUOUS
 10
124.9841420372
 20
22.3384198164
 11
124.9841420372
 21
14.8384198164
  0
LINE
  5
239
100
AcDbEntity
  8
A_BEMASSUNGEN
100
AcDbLine
 62
2
  6
CONTINUOUS
 10
124.9841420372
 20
14.8384198164
 11
124.9841420372
 21
24.3384198164
  0
INSERT
  5
23A
100
AcDbEntity
  8
A_BEMASSUNGEN
100
AcDbBlockReference
 62
2
  6
CONTINUOUS
  2
_ARROW_FILLED
 10
124.9841420372
 20
26.3384198164
 41
3.5
 42
3.5
 43
3.5
 50
270.0
  0
INSERT
  5
23B
100
AcDbEntity
  8
A_BEMASSUNGEN
100
AcDbBlockReference
 62
2
  6
CONTINUOUS
  2
_ARROW_FILLED
 10
124.9841420372
 20
22.3384198164
 41
3.5
 42
3.5
 43
3.5
 50
90.0
  0
ENDBLK
  5
23C
100
AcDbEntity
  8
0
  6
BYBLOCK
 62
0
100
AcDbBlockEnd
  0
BLOCK
  5
23D
100
AcDbEntity
  8
A_BEMASSUNGEN
100
AcDbBlockBegin
 62
2
  6
CONTINUOUS
  2
*D2
 70
65
 10
0.0
 20
0.0
  3
*D2
  1

  0
MTEXT
  5
23E
100
AcDbEntity
  8
A_BEMASSUNGEN
100
AcDbMText
 62
5
  6
CONTINUOUS
  7
TEXTSTYLE_2
 71
2
 72
1
 10
74.6577544902
 20
9.6767211544
 30
0.0
 11
1.0
 21
0.0
 31
0.0
  1
34
 40
3.5
 41
7.875
  0
LINE
  5
23F
100
AcDbEntity
  8
A_BEMASSUNGEN
100
AcDbLine
 62
2
  6
CONTINUOUS
 10
56.4710327596
 20
22.3384198164
 11
56.4710327596
 21
3.3017211544
  0
LINE
  5
240
100
AcDbEntity
  8
A_BEMASSUNGEN
100
AcDbLine
 62
2
  6
CONTINUOUS
 10
90.4710327596
 20
26.3384198164
 11
90.4710327596
 21
3.3017211544
  0
LINE
  5
241
100
AcDbEntity
  8
A_BEMASSUNGEN
100
AcDbLine
 62
2
  6
CONTINUOUS
 10
56.4710327596
 20
5.3017211544
 11
73.4710327596
 21
5.3017211544
  0
LINE
  5
242
100
AcDbEntity
  8
A_BEMASSUNGEN
100
AcDbLine
 62
2
  6
CONTINUOUS
 10
90.4710327596
 20
5.3017211544
 11
73.4710327596
 21
5.3017211544
  0
INSERT
  5
243
100
AcDbEntity
  8
A_BEMASSUNGEN
100
AcDbBlockReference
 62
2
  6
CONTINUOUS
  2
_ARROW_FILLED
 10
56.4710327596
 20
5.3017211544
 41
3.5
 42
3.5
 43
3.5
 50
180.0
  0
INSERT
  5
244
100
AcDbEntity
  8
A_BEMASSUNGEN
100
AcDbBlockReference
 62
2
  6
CONTINUOUS
  2
_ARROW_FILLED
 10
90.4710327596
 20
5.3017211544
 41
3.5
 42
3.5
 43
3.5
  0
ENDBLK
  5
245
100
AcDbEntity
  8
0
  6
BYBLOCK
 62
0
100
AcDbBlockEnd
  0
BLOCK
  5
246
100
AcDbEntity
  8
A_BEMASSUNGEN
100
AcDbBlockBegin
 62
2
  6
CONTINUOUS
  2
*D3
 70
65
 10
0.0
 20
0.0
  3
*D3
  1

  0
MTEXT
  5
247
100
AcDbEntity
  8
A_BEMASSUNGEN
100
AcDbMText
 62
5
  6
CONTINUOUS
  7
TEXTSTYLE_2
 71
2
 72
1
 10
35.9705851067
 20
9.6767211544
 30
0.0
 11
1.0
 21
0.0
 31
0.0
  1
34
 40
3.5
 41
7.875
  0
LINE
  5
248
100
AcDbEntity
  8
A_BEMASSUNGEN
100
AcDbLine
 62
2
  6
CONTINUOUS
 10
52.9705851067
 20
23.6495167632
 11
52.9705851067
 21
3.3017211544
  0
LINE
  5
249
100
AcDbEntity
  8
A_BEMASSUNGEN
100
AcDbLine
 62
2
  6
CONTINUOUS
 10
18.9705851067
 20
28.0995167632
 11
18.9705851067
 21
3.3017211544
  0
LINE
  5
24A
100
AcDbEntity
  8
A_BEMASSUNGEN
100
AcDbLine
 62
2
  6
CONTINUOUS
 10
52.9705851067
 20
5.3017211544
 11
35.9705851067
 21
5.3017211544
  0
LINE
  5
24B
100
AcDbEntity
  8
A_BEMASSUNGEN
100
AcDbLine
 62
2
  6
CONTINUOUS
 10
18.9705851067
 20
5.3017211544
 11
35.9705851067
 21
5.3017211544
  0
INSERT
  5
24C
100
AcDbEntity
  8
A_BEMASSUNGEN
100
AcDbBlockReference
 62
2
  6
CONTINUOUS
  2
_ARROW_FILLED
 10
52.9705851067
 20
5.3017211544
 41
3.5
 42
3.5
 43
3.5
  0
INSERT
  5
24D
100
AcDbEntity
  8
A_BEMASSUNGEN
100
AcDbBlockReference
 62
2
  6
CONTINUOUS
  2
_ARROW_FILLED
 10
18.9705851067
 20
5.3017211544
 41
3.5
 42
3.5
 43
3.5
 50
180.0
  0
ENDBLK
  5
24E
100
AcDbEntity
  8
0
  6
BYBLOCK
 62
0
100
AcDbBlockEnd
  0
BLOCK
  5
24F
100
AcDbEntity
  8
A_BEMASSUNGEN
100
AcDbBlockBegin
 62
2
  6
CONTINUOUS
  2
*D4
 70
65
 10
0.0
 20
0.0
  3
*D4
  1

  0
MTEXT
  5
250
100
AcDbEntity
  8
A_BEMASSUNGEN
100
AcDbMText
 62
5
  6
CONTINUOUS
  7
TEXTSTYLE_2
 71
2
 72
1
 10
3.2556044278
 20
23.6495167632
 30
0.0
 11
0.0
 21
1.0
 31
0.0
  1
5
 40
3.5
 41
3.75
  0
LINE
  5
251
100
AcDbEntity
  8
A_BEMASSUNGEN
100
AcDbLine
 62
2
  6
CONTINUOUS
 10
15.9705851067
 20
21.1495167632
 11
5.6306044278
 21
21.1495167632
  0
LINE
  5
252
100
AcDbEntity
  8
A_BEMASSUNGEN
100
AcDbLine
 62
2
  6
CONTINUOUS
 10
51.4705851067
 20
26.1495167632
 11
19.3965528151
 21
26.1495167632
  0
LINE
  5
253
100
AcDbEntity
  8
A_BEMASSUNGEN
100
AcDbLine
 62
2
  6
CONTINUOUS
 10
18.6310533736
 20
26.1495167632
 11
5.6306044278
 21
26.1495167632
  0
LINE
  5
254
100
AcDbEntity
  8
A_BEMASSUNGEN
100
AcDbLine
 62
2
  6
CONTINUOUS
 10
7.6306044278
 20
21.1495167632
 11
7.6306044278
 21
13.6495167632
  0
LINE
  5
255
100
AcDbEntity
  8
A_BEMASSUNGEN
100
AcDbLine
 62
2
  6
CONTINUOUS
 10
7.6306044278
 20
13.6495167632
 11
7.6306044278
 21
23.6495167632
  0
LINE
  5
256
100
AcDbEntity
  8
A_BEMASSUNGEN
100
AcDbLine
 62
2
  6
CONTINUOUS
 10
7.6306044278
 20
26.1495167632
 11
7.6306044278
 21
33.6495167632
  0
LINE
  5
257
100
AcDbEntity
  8
A_BEMASSUNGEN
100
AcDbLine
 62
2
  6
CONTINUOUS
 10
7.6306044278
 20
33.6495167632
 11
7.6306044278
 21
23.6495167632
  0
INSERT
  5
258
100
AcDbEntity
  8
A_BEMASSUNGEN
100
AcDbBlockReference
 62
2
  6
CONTINUOUS
  2
_ARROW_FILLED
 10
7.6306044278
 20
21.1495167632
 41
3.5
 42
3.5
 43
3.5
 50
90.0
  0
INSERT
  5
259
100
AcDbEntity
  8
A_BEMASSUNGEN
100
AcDbBlockReference
 62
2
  6
CONTINUOUS
  2
_ARROW_FILLED
 10
7.6306044278
 20
26.1495167632
 41
3.5
 42
3.5
 43
3.5
 50
270.0
  0
ENDBLK
  5
25A
100
AcDbEntity
  8
0
  6
BYBLOCK
 62
0
100
AcDbBlockEnd
  0
BLOCK
  5
25B
100
AcDbEntity
  8
A_BEMASSUNGEN
100
AcDbBlockBegin
 62
2
  6
CONTINUOUS
  2
*D5
 70
65
 10
0.0
 20
0.0
  3
*D5
  1

  0
MTEXT
  5
25C
100
AcDbEntity
  8
A_BEMASSUNGEN
100
AcDbMText
 62
5
  6
CONTINUOUS
  7
TEXTSTYLE_2
 71
2
 72
1
 10
3.2556044278
 20
40.2495167632
 30
0.0
 11
0.0
 21
1.0
 31
0.0
  1
28
 40
3.5
 41
8.25
  0
LINE
  5
25D
100
AcDbEntity
  8
A_BEMASSUNGEN
100
AcDbLine
 62
2
  6
CONTINUOUS
 10
17.0823458843
 20
26.1495167632
 11
5.6306044278
 21
26.1495167632
  0
LINE
  5
25E
100
AcDbEntity
  8
A_BEMASSUNGEN
100
AcDbLine
 62
2
  6
CONTINUOUS
 10
51.4705851067
 20
54.3495167632
 11
5.6306044278
 21
54.3495167632
  0
LINE
  5
25F
100
AcDbEntity
  8
A_BEMASSUNGEN
100
AcDbLine
 62
2
  6
CONTINUOUS
 10
7.6306044278
 20
26.1495167632
 11
7.6306044278
 21
40.2495167632
  0
LINE
  5
260
100
AcDbEntity
  8
A_BEMASSUNGEN
100
AcDbLine
 62
2
  6
CONTINUOUS
 10
7.6306044278
 20
54.3495167632
 11
7.6306044278
 21
40.2495167632
  0
INSERT
  5
261
100
AcDbEntity
  8
A_BEMASSUNGEN
100
AcDbBlockReference
 62
2
  6
CONTINUOUS
  2
_ARROW_FILLED
 10
7.6306044278
 20
26.1495167632
 41
3.5
 42
3.5
 43
3.5
 50
270.0
  0
INSERT
  5
262
100
AcDbEntity
  8
A_BEMASSUNGEN
100
AcDbBlockReference
 62
2
  6
CONTINUOUS
  2
_ARROW_FILLED
 10
7.6306044278
 20
54.3495167632
 41
3.5
 42
3.5
 43
3.5
 50
90.0
  0
ENDBLK
  5
263
100
AcDbEntity
  8
0
  6
BYBLOCK
 62
0
100
AcDbBlockEnd
  0
BLOCK
  5
264
100
AcDbEntity
  8
A_BEMASSUNGEN
100
AcDbBlockBegin
 62
2
  6
CONTINUOUS
  2
*D6
 70
65
 10
0.0
 20
0.0
  3
*D6
  1

  0
MTEXT
  5
265
100
AcDbEntity
  8
A_BEMASSUNGEN
100
AcDbMText
 62
5
  6
CONTINUOUS
  7
TEXTSTYLE_2
 71
3
 72
1
 10
94.2369584507
 20
17.1747746811
 30
0.0
 11
0.0
 21
1.0
 31
0.0
  1
1
 40
3.5
 41
3.0
  0
LINE
  5
266
100
AcDbEntity
  8
A_BEMASSUNGEN
100
AcDbLine
 62
2
  6
CONTINUOUS
 10
50.4705851067
 20
21.1495167632
 11
52.5797523401
 21
21.1495167632
  0
LINE
  5
267
100
AcDbEntity
  8
A_BEMASSUNGEN
100
AcDbLine
 62
2
  6
CONTINUOUS
 10
53.7450634154
 20
21.1495167632
 11
55.9513215893
 21
21.1495167632
  0
LINE
  5
268
100
AcDbEntity
  8
A_BEMASSUNGEN
100
AcDbLine
 62
2
  6
CONTINUOUS
 10
57.5402259889
 20
21.1495167632
 11
88.907799594
 21
21.1495167632
  0
LINE
  5
269
100
AcDbEntity
  8
A_BEMASSUNGEN
100
AcDbLine
 62
2
  6
CONTINUOUS
 10
91.8601557419
 20
21.1495167632
 11
100.6119584507
 21
21.1495167632
  0
LINE
  5
26A
100
AcDbEntity
  8
A_BEMASSUNGEN
100
AcDbLine
 62
2
  6
CONTINUOUS
 10
98.6119584507
 20
22.3384198164
 11
98.6119584507
 21
29.8384198164
  0
LINE
  5
26B
100
AcDbEntity
  8
A_BEMASSUNGEN
100
AcDbLine
 62
2
  6
CONTINUOUS
 10
98.6119584507
 20
29.8384198164
 11
98.6119584507
 21
21.7439682898
  0
LINE
  5
26C
100
AcDbEntity
  8
A_BEMASSUNGEN
100
AcDbLine
 62
2
  6
CONTINUOUS
 10
98.6119584507
 20
21.1495167632
 11
98.6119584507
 21
15.1747746811
  0
LINE
  5
26D
100
AcDbEntity
  8
A_BEMASSUNGEN
100
AcDbLine
 62
2
  6
CONTINUOUS
 10
98.6119584507
 20
15.1747746811
 11
98.6119584507
 21
21.7439682898
  0
INSERT
  5
26E
100
AcDbEntity
  8
A_BEMASSUNGEN
100
AcDbBlockReference
 62
2
  6
CONTINUOUS
  2
_ARROW_FILLED
 10
98.6119584507
 20
22.3384198164
 41
3.5
 42
3.5
 43
3.5
 50
270.0
  0
INSERT
  5
26F
100
AcDbEntity
  8
A_BEMASSUNGEN
100
AcDbBlockReference
 62
2
  6
CONTINUOUS
  2
_ARROW_FILLED
 10
98.6119584507
 20
21.1495167632
 41
3.5
 42
3.5
 43
3.5
 50
90.0
  0
ENDBLK
  5
270
100
AcDbEntity
  8
0
  6
BYBLOCK
 62
0
100
AcDbBlockEnd
  0
BLOCK
  5
271
100
AcDbEntity
  8
A_BEMASSUNGEN
100
AcDbBlockBegin
 62
2
  6
CONTINUOUS
  2
*D7
 70
65
 10
0.0
 20
0.0
  3
*D7
  1

  0
MTEXT
  5
272
100
AcDbEntity
  8
A_BEMASSUNGEN
100
AcDbMText
 62
5
  6
CONTINUOUS
  7
TEXTSTYLE_2
 71
2
 72
1
 10
120.6091420372
 20
40.3384198164
 30
0.0
 11
0.0
 21
1.0
 31
0.0
  1
28
 40
3.5
 41
8.25
  0
LINE
  5
273
100
AcDbEntity
  8
A_BEMASSUNGEN
100
AcDbLine
 62
2
  6
CONTINUOUS
 10
90.4710327596
 20
26.3384198164
 11
97.0193712707
 21
26.3384198164
  0
LINE
  5
274
100
AcDbEntity
  8
A_BEMASSUNGEN
100
AcDbLine
 62
2
  6
CONTINUOUS
 10
100.1525189733
 20
26.3384198164
 11
126.9841420372
 21
26.3384198164
  0
LINE
  5
275
100
AcDbEntity
  8
A_BEMASSUNGEN
100
AcDbLine
 62
2
  6
CONTINUOUS
 10
90.4710327596
 20
54.3384198164
 11
126.9841420372
 21
54.3384198164
  0
LINE
  5
276
100
AcDbEntity
  8
A_BEMASSUNGEN
100
AcDbLine
 62
2
  6
CONTINUOUS
 10
124.9841420372
 20
26.3384198164
 11
124.9841420372
 21
40.3384198164
  0
LINE
  5
277
100
AcDbEntity
  8
A_BEMASSUNGEN
100
AcDbLine
 62
2
  6
CONTINUOUS
 10
124.9841420372
 20
54.3384198164
 11
124.9841420372
 21
40.3384198164
  0
INSERT
  5
278
100
AcDbEntity
  8
A_BEMASSUNGEN
100
AcDbBlockReference
 62
2
  6
CONTINUOUS
  2
_ARROW_FILLED
 10
124.9841420372
 20
26.3384198164
 41
3.5
 42
3.5
 43
3.5
 50
270.0
  0
INSERT
  5
279
100
AcDbEntity
  8
A_BEMASSUNGEN
100
AcDbBlockReference
 62
2
  6
CONTINUOUS
  2
_ARROW_FILLED
 10
124.9841420372
 20
54.3384198164
 41
3.5
 42
3.5
 43
3.5
 50
90.0
  0
ENDBLK
  5
27A
100
AcDbEntity
  8
0
  6
BYBLOCK
 62
0
100
AcDbBlockEnd
  0
ENDSEC
  0
SECTION
  2
ENTITIES
  0
DIMENSION
  5
27B
100
AcDbEntity
  8
A_BEMASSUNGEN
100
AcDbDimension
 62
2
  6
CONTINUOUS
  2
*D0
 10
56.4710327596
 20
14.2492401308
 11
44.5685207656
 21
14.2492401308
 70
160
  3
DIMSTYLE_1
100
AcDbAlignedDimension
 13
52.9705851067
 23
23.6495167632
 14
56.4710327596
 24
22.3384198164
100
AcDbRotatedDimension
  0
DIMENSION
  5
27C
100
AcDbEntity
  8
A_BEMASSUNGEN
100
AcDbDimension
 62
2
  6
CONTINUOUS
  2
*D1
 10
124.9841420372
 20
22.3384198164
 11
124.9841420372
 21
23.8384186854
 70
160
  3
DIMSTYLE_2
100
AcDbAlignedDimension
 13
102.1194197431
 23
26.3384198164
 14
116.4710327596
 24
22.3384198164
 50
270.0
100
AcDbRotatedDimension
  0
DIMENSION
  5
27D
100
AcDbEntity
  8
A_BEMASSUNGEN
100
AcDbDimension
 62
2
  6
CONTINUOUS
  2
*D2
 10
90.4710327596
 20
5.3017211544
 11
74.1577566563
 21
5.3017211544
 70
160
  3
DIMSTYLE_3
100
AcDbAlignedDimension
 13
56.4710327596
 23
22.3384198164
 14
90.4710327596
 24
26.3384198164
100
AcDbRotatedDimension
  0
DIMENSION
  5
27E
100
AcDbEntity
  8
A_BEMASSUNGEN
100
AcDbDimension
 62
2
  6
CONTINUOUS
  2
*D3
 10
18.9705851067
 20
5.3017211544
 11
35.4705840625
 21
5.3017211544
 70
160
  3
DIMSTYLE_3
100
AcDbAlignedDimension
 13
52.9705851067
 23
23.6495167632
 14
18.9705851067
 24
28.0995167632
 50
180.0
100
AcDbRotatedDimension
  0
DIMENSION
  5
27F
100
AcDbEntity
  8
A_BEMASSUNGEN
100
AcDbDimension
 62
2
  6
CONTINUOUS
  2
*D4
 10
7.6306044278
 20
26.1495167632
 11
7.6306044278
 21
23.1495165894
 70
160
  3
DIMSTYLE_2
100
AcDbAlignedDimension
 13
15.9705851067
 23
21.1495167632
 14
51.4705851067
 24
26.1495167632
 50
90.0
100
AcDbRotatedDimension
  0
DIMENSION
  5
280
100
AcDbEntity
  8
A_BEMASSUNGEN
100
AcDbDimension
 62
2
  6
CONTINUOUS
  2
*D5
 10
7.6306044278
 20
54.3495167632
 11
7.6306044278
 21
39.7495165659
 70
160
  3
DIMSTYLE_4
100
AcDbAlignedDimension
 13
17.0823458843
 23
26.1495167632
 14
51.4705851067
 24
54.3495167632
 50
90.0
100
AcDbRotatedDimension
  0
DIMENSION
  5
281
100
AcDbEntity
  8
A_BEMASSUNGEN
100
AcDbDimension
 62
2
  6
CONTINUOUS
  2
*D6
 10
98.6119584507
 20
21.1495167632
 11
98.6119584507
 21
15.6747768554
 70
160
  3
DIMSTYLE_5
100
AcDbAlignedDimension
 13
116.4710327596
 23
22.3384198164
 14
50.4705851067
 24
21.1495167632
 50
270.0
100
AcDbRotatedDimension
  0
DIMENSION
  5
282
100
AcDbEntity
  8
A_BEMASSUNGEN
100
AcDbDimension
 62
2
  6
CONTINUOUS
  2
*D7
 10
124.9841420372
 20
54.3384198164
 11
124.9841420372
 21
39.8384199041
 70
160
  3
DIMSTYLE_6
100
AcDbAlignedDimension
 13
90.4710327596
 23
26.3384198164
 14
90.4710327596
 24
54.3384198164
 50
90.0
100
AcDbRotatedDimension
  0
LINE
  5
283
100
AcDbEntity
  8
0
100
AcDbLine
 62
7
  6
CONTINUOUS
 10
20.9706020185
 20
25.0566066326
 11
22.2776749761
 21
23.7495336751
  0
LINE
  5
284
100
AcDbEntity
  8
0
100
AcDbLine
 62
7
  6
CONTINUOUS
 10
12.9705851067
 20
31.1495167632
 11
12.9705851067
 21
23.6495167632
  0
LINE
  5
285
100
AcDbEntity
  8
0
100
AcDbLine
 62
7
  6
CONTINUOUS
 10
14.4205851067
 20
24.1995167632
 11
14.4205851067
 21
31.1495167632
  0
LINE
  5
286
100
AcDbEntity
  8
0
100
AcDbLine
 62
7
  6
CONTINUOUS
 10
18.9705851067
 20
52.3995167632
 11
18.9705851067
 21
28.0995167632
  0
LINE
  5
287
100
AcDbEntity
  8
0
100
AcDbLine
 62
7
  6
CONTINUOUS
 10
19.9705851067
 20
52.3995167632
 11
19.9705851067
 21
28.0995167632
  0
LINE
  5
288
100
AcDbEntity
  8
0
100
AcDbLine
 62
7
  6
CONTINUOUS
 10
19.9705851067
 20
24.0495167632
 11
19.9705851067
 21
26.6853032009
  0
LINE
  5
289
100
AcDbEntity
  8
0
100
AcDbLine
 62
7
  6
CONTINUOUS
 10
19.9705851067
 20
53.8137303256
 11
19.9705851067
 21
56.4495167632
  0
LINE
  5
28A
100
AcDbEntity
  8
0
100
AcDbLine
 62
7
  6
CONTINUOUS
 10
20.9705851067
 20
24.0495167632
 11
20.9705851067
 21
56.4495167632
  0
LINE
  5
28B
100
AcDbEntity
  8
0
100
AcDbLine
 62
7
  6
CONTINUOUS
 10
21.9705851067
 20
53.4021813076
 11
21.9705851067
 21
50.5471937576
  0
LINE
  5
28C
100
AcDbEntity
  8
0
100
AcDbLine
 62
7
  6
CONTINUOUS
 10
21.9705851067
 20
27.0741722189
 11
21.9705851067
 21
50.5381767632
  0
LINE
  5
28D
100
AcDbEntity
  8
0
100
AcDbLine
 62
7
  6
CONTINUOUS
 10
22.2705851067
 20
46.2381767632
 11
22.2705851067
 21
47.5381767632
  0
LINE
  5
28E
100
AcDbEntity
  8
0
100
AcDbLine
 62
7
  6
CONTINUOUS
 10
22.2705851067
 20
49.5807298901
 11
22.2705851067
 21
51.2381767632
  0
LINE
  5
28F
100
AcDbEntity
  8
0
100
AcDbLine
 62
7
  6
CONTINUOUS
 10
23.3705851067
 20
31.0702870399
 11
23.3705851067
 21
52.417857729
  0
LINE
  5
290
100
AcDbEntity
  8
0
100
AcDbLine
 62
7
  6
CONTINUOUS
 10
23.5705851067
 20
50.1146293471
 11
23.5705851067
 21
33.7617241794
  0
LINE
  5
291
100
AcDbEntity
  8
0
100
AcDbLine
 62
7
  6
CONTINUOUS
 10
24.4705851067
 20
23.7495167632
 11
24.4705851067
 21
22.7495167632
  0
LINE
  5
292
100
AcDbEntity
  8
0
100
AcDbLine
 62
7
  6
CONTINUOUS
 10
15.9705851067
 20
21.1495167632
 11
50.4705851067
 21
21.1495167632
  0
LINE
  5
293
100
AcDbEntity
  8
0
100
AcDbLine
 62
7
  6
CONTINUOUS
 10
23.510598954
 20
26.4230940185
 11
22.4009985563
 21
26.5790381845
  0
LINE
  5
294
100
AcDbEntity
  8
0
100
AcDbLine
 62
7
  6
CONTINUOUS
 10
28.2205851067
 20
44.9132967632
 11
28.2205851067
 21
44.2630567632
  0
LINE
  5
295
100
AcDbEntity
  8
DEFAULT_1
100
AcDbLine
 62
7
  6
CENTER
 10
28.2205851067
 20
42.9625767632
 11
28.2205851067
 21
41.5880767632
  0
LINE
  5
296
100
AcDbEntity
  8
DEFAULT_1
100
AcDbLine
 62
7
  6
CENTER
 10
28.2205851067
 20
46.2137767632
 11
28.2205851067
 21
47.5882767632
  0
LINE
  5
297
100
AcDbEntity
  8
0
100
AcDbLine
 62
7
  6
CONTINUOUS
 10
24.9151792495
 20
47.6279634461
 11
23.8062152265
 21
43.7639501444
  0
LINE
  5
298
100
AcDbEntity
  8
A_RUNDUNGEN
100
AcDbLine
 62
7
  6
CONTINUOUS
 10
23.8186389296
 20
43.7603845667
 11
24.9276029526
 21
47.6243978684
  0
LINE
  5
299
100
AcDbEntity
  8
A_ACHSEN
100
AcDbLine
 62
7
  6
CONTINUOUS
 10
25.1160523129
 20
47.2730714822
 11
24.1643294573
 21
43.9569406636
  0
LINE
  5
29A
100
AcDbEntity
  8
0
100
AcDbLine
 62
7
  6
CONTINUOUS
 10
86.4746396369
 20
26.5716298152
 11
89.7406193102
 21
27.0306333246
  0
LINE
  5
29B
100
AcDbEntity
  8
0
100
AcDbLine
 62
7
  6
CONTINUOUS
 10
116.4710327596
 20
22.3384198164
 11
56.4710327596
 21
22.3384198164
  0
LINE
  5
29C
100
AcDbEntity
  8
0
100
AcDbLine
 62
7
  6
CONTINUOUS
 10
50.4705851067
 20
22.6495167632
 11
15.9705851067
 21
22.6495167632
  0
LINE
  5
29D
100
AcDbEntity
  8
0
100
AcDbLine
 62
7
  6
CONTINUOUS
 10
24.4705851067
 20
22.7495167632
 11
21.2705851067
 21
22.7495167632
  0
LINE
  5
29E
100
AcDbEntity
  8
0
100
AcDbLine
 62
7
  6
CONTINUOUS
 10
41.0393462087
 20
22.7495167632
 11
48.4705851067
 21
22.7495167632
  0
LINE
  5
29F
100
AcDbEntity
  8
0
100
AcDbLine
 62
7
  6
CONTINUOUS
 10
24.4705851067
 20
23.7495167632
 11
21.2705851067
 21
23.7495167632
  0
LINE
  5
2A0
100
AcDbEntity
  8
A_RUNDUNGEN
100
AcDbLine
 62
7
  6
CONTINUOUS
 10
22.1776918879
 20
23.8495167632
 11
39.4705851067
 21
23.8495167632
  0
LINE
  5
2A1
100
AcDbEntity
  8
0
100
AcDbLine
 62
7
  6
CONTINUOUS
 10
28.4857491444
 20
27.743537403
 11
25.9530658039
 21
28.0994828337
  0
LINE
  5
2A2
100
AcDbEntity
  8
0
100
AcDbLine
 62
7
  6
CONTINUOUS
 10
34.4705851067
 20
32.8381767632
 11
34.4705851067
 21
32.1338323685
  0
LINE
  5
2A3
100
AcDbEntity
  8
0
100
AcDbLine
 62
7
  6
CONTINUOUS
 10
50.7252557644
 20
26.7889437015
 11
48.5567039568
 21
26.3870263806
  0
LINE
  5
2A4
100
AcDbEntity
  8
0
100
AcDbLine
 62
7
  6
CONTINUOUS
 10
84.770337417
 20
28.3517609036
 11
87.2493789616
 21
28.7001674716
  0
LINE
  5
2A5
100
AcDbEntity
  8
0
100
AcDbLine
 62
7
  6
CONTINUOUS
 10
42.9734922324
 20
26.007853542
 11
41.1313395173
 21
25.7495167632
  0
LINE
  5
2A6
100
AcDbEntity
  8
0
100
AcDbLine
 62
7
  6
CONTINUOUS
 10
41.0411204775
 20
25.7368647741
 11
40.0025634888
 21
25.5912213295
  0
LINE
  5
2A7
100
AcDbEntity
  8
0
100
AcDbLine
 62
7
  6
CONTINUOUS
 10
86.4094163542
 20
26.566782888
 11
65.9710327597
 21
26.3884198165
  0
LINE
  5
2A8
100
AcDbEntity
  8
0
100
AcDbLine
 62
7
  6
CONTINUOUS
 10
38.9705851067
 20
26.2881767632
 11
48.3831949668
 21
26.3703193651
  0
LINE
  5
2A9
100
AcDbEntity
  8
0
100
AcDbLine
 62
7
  6
CONTINUOUS
 10
84.770337417
 20
28.3517609036
 11
74.4579429565
 21
28.2617660006
  0
LINE
  5
2AA
100
AcDbEntity
  8
0
100
AcDbLine
 62
7
  6
CONTINUOUS
 10
41.0393462087
 20
25.7495167632
 11
48.4705851067
 21
25.7495167632
  0
LINE
  5
2AB
100
AcDbEntity
  8
A_RUNDUNGEN
100
AcDbLine
 62
7
  6
CONTINUOUS
 10
47.9705851067
 20
25.9495167632
 11
43.0705851067
 21
25.9495167632
  0
LINE
  5
2AC
100
AcDbEntity
  8
0
100
AcDbLine
 62
7
  6
CONTINUOUS
 10
42.9705851067
 20
26.0495167632
 11
39.9705851067
 21
26.0495167632
  0
LINE
  5
2AD
100
AcDbEntity
  8
0
100
AcDbLine
 62
7
  6
CONTINUOUS
 10
51.4705851067
 20
26.1495167632
 11
52.9705851067
 21
26.1495167632
  0
LINE
  5
2AE
100
AcDbEntity
  8
0
100
AcDbLine
 62
7
  6
CONTINUOUS
 10
51.4705851067
 20
26.3381767632
 11
52.9705851067
 21
26.3381767632
  0
LINE
  5
2AF
100
AcDbEntity
  8
0
100
AcDbLine
 62
7
  6
CONTINUOUS
 10
90.4710327596
 20
26.3384198164
 11
56.4710327596
 21
26.3384198164
  0
LINE
  5
2B0
100
AcDbEntity
  8
0
100
AcDbLine
 62
7
  6
CONTINUOUS
 10
62.4711850675
 20
26.4384198164
 11
56.4710327596
 21
26.4384198164
  0
LINE
  5
2B1
100
AcDbEntity
  8
0
100
AcDbLine
 62
7
  6
CONTINUOUS
 10
45.4705851067
 20
27.5381767632
 11
52.4706041452
 21
27.5381767632
  0
LINE
  5
2B2
100
AcDbEntity
  8
0
100
AcDbLine
 62
7
  6
CONTINUOUS
 10
20.4705851067
 20
27.5995167632
 11
20.9705851067
 21
27.5995167632
  0
LINE
  5
2B3
100
AcDbEntity
  8
0
100
AcDbLine
 62
7
  6
CONTINUOUS
 10
20.4705851067
 20
27.9995167632
 11
20.9705851067
 21
27.9995167632
  0
LINE
  5
2B4
100
AcDbEntity
  8
0
100
AcDbLine
 62
7
  6
CONTINUOUS
 10
23.510598954
 20
26.4230940185
 11
38.9705851067
 21
26.2881767632
  0
LINE
  5
2B5
100
AcDbEntity
  8
0
100
AcDbLine
 62
7
  6
CONTINUOUS
 10
65.9710327597
 20
26.3884198165
 11
60.241600266
 21
26.4384198164
  0
LINE
  5
2B6
100
AcDbEntity
  8
0
100
AcDbLine
 62
7
  6
CONTINUOUS
 10
28.4857491444
 20
27.743537403
 11
38.9793116422
 21
27.6519614704
  0
LINE
  5
2B7
100
AcDbEntity
  8
0
100
AcDbLine
 62
7
  6
CONTINUOUS
 10
51.4705851067
 20
26.3381767632
 11
48.566627161
 21
26.3888655377
  0
LINE
  5
2B8
100
AcDbEntity
  8
0
100
AcDbLine
 62
7
  6
CONTINUOUS
 10
23.9883697045
 20
33.268545997
 11
26.5297684325
 21
32.8449795423
  0
LINE
  5
2B9
100
AcDbEntity
  8
0
100
AcDbLine
 62
7
  6
CONTINUOUS
 10
31.3599882121
 20
43.7463545049
 11
31.9407395161
 21
45.9139906231
  0
LINE
  5
2BA
100
AcDbEntity
  8
A_ACHSEN
100
AcDbLine
 62
7
  6
CONTINUOUS
 10
31.3252496309
 20
41.901771019
 11
32.2769724864
 21
45.2179018377
  0
LINE
  5
2BB
100
AcDbEntity
  8
0
100
AcDbLine
 62
7
  6
CONTINUOUS
 10
22.2776749732
 20
56.7494998485
 11
20.9706020215
 21
55.4424268968
  0
LINE
  5
2BC
100
AcDbEntity
  8
0
100
AcDbLine
 62
7
  6
CONTINUOUS
 10
72.4666881967
 20
33.4686178552
 11
67.7081551992
 21
33.4270891855
  0
LINE
  5
2BD
100
AcDbEntity
  8
0
100
AcDbLine
 62
7
  6
CONTINUOUS
 10
14.4205851067
 20
31.1495167632
 11
12.9705851067
 21
31.1495167632
  0
LINE
  5
2BE
100
AcDbEntity
  8
A_ACHSEN
100
AcDbLine
 62
7
  6
CONTINUOUS
 10
47.5457051067
 20
31.5881767632
 11
46.8954651067
 21
31.5881767632
  0
LINE
  5
2BF
100
AcDbEntity
  8
A_ACHSEN
100
AcDbLine
 62
7
  6
CENTER
 10
45.5949851067
 20
31.5881767632
 11
43.2205851067
 21
31.5881767632
  0
LINE
  5
2C0
100
AcDbEntity
  8
A_ACHSEN
100
AcDbLine
 62
7
  6
CENTER
 10
48.8461851067
 20
31.5881767632
 11
51.2205851067
 21
31.5881767632
  0
LINE
  5
2C1
100
AcDbEntity
  8
A_ACHSEN
100
AcDbLine
 62
7
  6
CONTINUOUS
 10
62.5461909261
 20
31.5883839337
 11
61.8959509261
 21
31.5883839337
  0
LINE
  5
2C2
100
AcDbEntity
  8
A_ACHSEN
100
AcDbLine
 62
7
  6
CENTER
 10
60.5954709261
 20
31.5883839337
 11
58.2210709261
 21
31.5883839337
  0
LINE
  5
2C3
100
AcDbEntity
  8
A_ACHSEN
100
AcDbLine
 62
7
  6
CENTER
 10
63.8466709261
 20
31.5883839337
 11
66.2210709261
 21
31.5883839337
  0
LINE
  5
2C4
100
AcDbEntity
  8
0
100
AcDbLine
 62
7
  6
CONTINUOUS
 10
26.6119647962
 20
32.8381767632
 11
39.5116260727
 21
32.8381767632
  0
LINE
  5
2C5
100
AcDbEntity
  8
0
100
AcDbLine
 62
7
  6
CONTINUOUS
 10
68.3342709959
 20
33.5730193711
 11
72.4622868527
 21
33.5730193711
  0
LINE
  5
2C6
100
AcDbEntity
  8
0
100
AcDbLine
 62
7
  6
CONTINUOUS
 10
82.7898970191
 20
33.5884198166
 11
68.4709566058
 21
33.5884198165
  0
LINE
  5
2C7
100
AcDbEntity
  8
0
100
AcDbLine
 62
7
  6
CONTINUOUS
 10
41.3601876989
 20
31.5780521123
 11
34.8928112757
 21
31.6344920513
  0
LINE
  5
2C8
100
AcDbEntity
  8
A_ACHSEN
100
AcDbLine
 62
7
  6
CONTINUOUS
 10
25.5350007403
 20
41.4828225916
 11
28.8511315589
 21
40.5310997361
  0
LINE
  5
2C9
100
AcDbEntity
  8
0
100
AcDbLine
 62
7
  6
CONTINUOUS
 10
30.5030094464
 20
40.7852724771
 11
42.7070780356
 21
37.2827294106
  0
LINE
  5
2CA
100
AcDbEntity
  8
A_RUNDUNGEN
100
AcDbLine
 62
7
  6
CONTINUOUS
 10
42.7058712296
 20
37.2965227782
 11
30.5189987273
 21
40.7941306025
  0
LINE
  5
2CB
100
AcDbEntity
  8
0
100
AcDbLine
 62
7
  6
CONTINUOUS
 10
43.3905993368
 20
30.4343969881
 11
43.2358068695
 21
31.239545045
  0
LINE
  5
2CC
100
AcDbEntity
  8
0
100
AcDbLine
 62
7
  6
CONTINUOUS
 10
43.235807177
 20
31.2395415305
 11
42.4280801251
 21
40.471577271
  0
LINE
  5
2CD
100
AcDbEntity
  8
0
100
AcDbLine
 62
7
  6
CONTINUOUS
 10
39.9705851067
 20
26.0495167632
 11
39.9705851067
 21
26.6519995473
  0
LINE
  5
2CE
100
AcDbEntity
  8
0
100
AcDbLine
 62
7
  6
CONTINUOUS
 10
39.9705851067
 20
54.1794498955
 11
39.9705851067
 21
54.4495167632
  0
LINE
  5
2CF
100
AcDbEntity
  8
0
100
AcDbLine
 62
7
  6
CONTINUOUS
 10
40.4705851067
 20
56.7495167632
 11
40.4705851067
 21
57.7495167632
  0
LINE
  5
2D0
100
AcDbEntity
  8
0
100
AcDbLine
 62
7
  6
CONTINUOUS
 10
41.0393462087
 20
25.7495167632
 11
41.0393462087
 21
22.7495167632
  0
LINE
  5
2D1
100
AcDbEntity
  8
0
100
AcDbLine
 62
7
  6
CONTINUOUS
 10
41.0393462087
 20
54.7495167632
 11
41.0393462087
 21
57.7495167632
  0
LINE
  5
2D2
100
AcDbEntity
  8
0
100
AcDbLine
 62
7
  6
CONTINUOUS
 10
42.0393462087
 20
57.7495167632
 11
42.0393462087
 21
54.7495167632
  0
LINE
  5
2D3
100
AcDbEntity
  8
0
100
AcDbLine
 62
7
  6
CONTINUOUS
 10
42.0393462087
 20
22.7495167632
 11
42.0393462087
 21
25.7495167632
  0
LINE
  5
2D4
100
AcDbEntity
  8
0
100
AcDbLine
 62
7
  6
CONTINUOUS
 10
42.9705851067
 20
26.0495167632
 11
42.9705851067
 21
26.3230842344
  0
LINE
  5
2D5
100
AcDbEntity
  8
0
100
AcDbLine
 62
7
  6
CONTINUOUS
 10
42.9705851067
 20
54.1532692921
 11
42.9705851067
 21
54.4495167632
  0
LINE
  5
2D6
100
AcDbEntity
  8
0
100
AcDbLine
 62
7
  6
CONTINUOUS
 10
43.0563715444
 20
25.9495167632
 11
43.0563715444
 21
26.3238328813
  0
LINE
  5
2D7
100
AcDbEntity
  8
0
100
AcDbLine
 62
7
  6
CONTINUOUS
 10
43.0563715444
 20
54.1525206452
 11
43.0563715444
 21
54.5495167632
  0
LINE
  5
2D8
100
AcDbEntity
  8
A_RUNDUNGEN
100
AcDbLine
 62
7
  6
CONTINUOUS
 10
43.0705851067
 20
26.3239569212
 11
43.0705851067
 21
25.9495167632
  0
LINE
  5
2D9
100
AcDbEntity
  8
A_RUNDUNGEN
100
AcDbLine
 62
7
  6
CONTINUOUS
 10
43.0705851067
 20
54.1523966053
 11
43.0705851067
 21
54.5495167632
  0
LINE
  5
2DA
100
AcDbEntity
  8
A_RUNDUNGEN
100
AcDbLine
 62
7
  6
CONTINUOUS
 10
32.2134492037
 20
46.57663891
 11
43.1228927007
 21
43.4456506334
  0
LINE
  5
2DB
100
AcDbEntity
  8
0
100
AcDbLine
 62
7
  6
CONTINUOUS
 10
43.1302060107
 20
43.4569987449
 11
32.2209880599
 21
46.5879222903
  0
LINE
  5
2DC
100
AcDbEntity
  8
0
100
AcDbLine
 62
7
  6
CONTINUOUS
 10
48.3987310258
 20
38.5264013658
 11
50.8458112676
 21
33.2786601407
  0
LINE
  5
2DD
100
AcDbEntity
  8
0
100
AcDbLine
 62
7
  6
CONTINUOUS
 10
44.6793790259
 20
57.6495167632
 11
44.6793790259
 21
57.7495167632
  0
LINE
  5
2DE
100
AcDbEntity
  8
0
100
AcDbLine
 62
7
  6
CONTINUOUS
 10
46.7733945163
 20
57.6495167632
 11
46.7733945163
 21
57.7495167632
  0
LINE
  5
2DF
100
AcDbEntity
  8
A_ACHSEN
100
AcDbLine
 62
7
  6
CONTINUOUS
 10
47.2205851067
 20
31.9132967632
 11
47.2205851067
 21
31.2630567632
  0
LINE
  5
2E0
100
AcDbEntity
  8
A_ACHSEN
100
AcDbLine
 62
7
  6
CENTER
 10
47.2205851067
 20
29.9625767632
 11
47.2205851067
 21
27.5881767632
  0
LINE
  5
2E1
100
AcDbEntity
  8
A_ACHSEN
100
AcDbLine
 62
7
  6
CENTER
 10
47.2205851067
 20
33.2137767632
 11
47.2205851067
 21
35.5881767632
  0
LINE
  5
2E2
100
AcDbEntity
  8
0
100
AcDbLine
 62
7
  6
CONTINUOUS
 10
47.9705851067
 20
54.5495167632
 11
47.9705851067
 21
54.1096349531
  0
LINE
  5
2E3
100
AcDbEntity
  8
A_RUNDUNGEN
100
AcDbLine
 62
7
  6
CONTINUOUS
 10
47.9705851067
 20
54.5495167632
 11
47.9705851067
 21
54.1096349531
  0
LINE
  5
2E4
100
AcDbEntity
  8
A_RUNDUNGEN
100
AcDbLine
 62
7
  6
CONTINUOUS
 10
47.9705851067
 20
26.3667185734
 11
47.9705851067
 21
25.9495167632
  0
LINE
  5
2E5
100
AcDbEntity
  8
A_ACHSEN
100
AcDbLine
 62
7
  6
CONTINUOUS
 10
27.8945299662
 20
48.5563921793
 11
27.5901703848
 21
48.6437427652
  0
LINE
  5
2E6
100
AcDbEntity
  8
0
100
AcDbLine
 62
7
  6
CONTINUOUS
 10
55.8693901874
 20
43.4539795847
 11
59.7133620369
 21
41.9010391098
  0
LINE
  5
2E7
100
AcDbEntity
  8
0
100
AcDbLine
 62
7
  6
CONTINUOUS
 10
46.1508087831
 20
47.9194844642
 11
49.6936935094
 21
46.4881822178
  0
LINE
  5
2E8
100
AcDbEntity
  8
0
100
AcDbLine
 62
7
  6
CONTINUOUS
 10
48.4705851067
 20
22.7495167632
 11
48.4705851067
 21
25.7495167632
  0
LINE
  5
2E9
100
AcDbEntity
  8
0
100
AcDbLine
 62
7
  6
CONTINUOUS
 10
49.4705851067
 20
57.7495167632
 11
49.4705851067
 21
54.7495167632
  0
LINE
  5
2EA
100
AcDbEntity
  8
0
100
AcDbLine
 62
7
  6
CONTINUOUS
 10
50.9705851067
 20
53.792560614
 11
50.9705851067
 21
51.6380678051
  0
LINE
  5
2EB
100
AcDbEntity
  8
0
100
AcDbLine
 62
7
  6
CONTINUOUS
 10
50.9705851067
 20
27.5381767632
 11
50.9705851067
 21
27.0839201737
  0
LINE
  5
2EC
100
AcDbEntity
  8
0
100
AcDbLine
 62
7
  6
CONTINUOUS
 10
51.4705851067
 20
23.6495167632
 11
51.4705851067
 21
27.5381767632
  0
LINE
  5
2ED
100
AcDbEntity
  8
0
100
AcDbLine
 62
7
  6
CONTINUOUS
 10
51.4705851067
 20
51.6502963418
 11
51.4705851067
 21
78.6495167632
  0
LINE
  5
2EE
100
AcDbEntity
  8
0
100
AcDbLine
 62
7
  6
CONTINUOUS
 10
30.1722157749
 20
50.4677056823
 11
26.1315764672
 21
47.0770148153
  0
LINE
  5
2EF
100
AcDbEntity
  8
0
100
AcDbLine
 62
7
  6
CONTINUOUS
 10
28.5457051067
 20
44.5881767632
 11
27.8954651067
 21
44.5881767632
  0
LINE
  5
2F0
100
AcDbEntity
  8
DEFAULT_1
100
AcDbLine
 62
7
  6
CENTER
 10
26.5949851067
 20
44.5881767632
 11
25.2204851067
 21
44.5881767632
  0
LINE
  5
2F1
100
AcDbEntity
  8
DEFAULT_1
100
AcDbLine
 62
7
  6
CENTER
 10
29.8461851067
 20
44.5881767632
 11
31.2206851067
 21
44.5881767632
  0
LINE
  5
2F2
100
AcDbEntity
  8
0
100
AcDbLine
 62
7
  6
CONTINUOUS
 10
81.5461527597
 20
44.5884198165
 11
80.8959127597
 21
44.5884198165
  0
LINE
  5
2F3
100
AcDbEntity
  8
DEFAULT_1
100
AcDbLine
 62
7
  6
CENTER
 10
79.5954327597
 20
44.5884198165
 11
78.2209327597
 21
44.5884198165
  0
LINE
  5
2F4
100
AcDbEntity
  8
DEFAULT_1
100
AcDbLine
 62
7
  6
CENTER
 10
82.8466327597
 20
44.5884198165
 11
84.2211327597
 21
44.5884198165
  0
LINE
  5
2F5
100
AcDbEntity
  8
0
100
AcDbLine
 62
7
  6
CONTINUOUS
 10
22.2705851067
 20
46.2381767632
 11
21.9705851067
 21
46.2381767632
  0
LINE
  5
2F6
100
AcDbEntity
  8
0
100
AcDbLine
 62
7
  6
CONTINUOUS
 10
52.9705851067
 20
23.6495167632
 11
52.9705851067
 21
43.211022419
  0
LINE
  5
2F7
100
AcDbEntity
  8
0
100
AcDbLine
 62
7
  6
CONTINUOUS
 10
52.9705851067
 20
47.5846929759
 11
52.9705851067
 21
47.6284422696
  0
LINE
  5
2F8
100
AcDbEntity
  8
0
100
AcDbLine
 62
7
  6
CONTINUOUS
 10
52.9705851067
 20
49.5479040872
 11
52.9705851067
 21
49.5917043025
  0
LINE
  5
2F9
100
AcDbEntity
  8
0
100
AcDbLine
 62
7
  6
CONTINUOUS
 10
52.9705851067
 20
52.1789106922
 11
52.9705851067
 21
78.1495167632
  0
LINE
  5
2FA
100
AcDbEntity
  8
0
100
AcDbLine
 62
7
  6
CONTINUOUS
 10
53.9705851067
 20
64.1495167632
 11
53.9705851067
 21
75.6495167632
  0
LINE
  5
2FB
100
AcDbEntity
  8
A_ACHSEN
100
AcDbLine
 62
7
  6
CONTINUOUS
 10
54.7205932324
 20
48.9132931784
 11
54.7205932324
 21
48.2630531784
  0
LINE
  5
2FC
100
AcDbEntity
  8
A_ACHSEN
100
AcDbLine
 62
7
  6
CENTER
 10
54.7205932324
 20
46.9625731784
 11
54.7205932324
 21
45.5880731784
  0
LINE
  5
2FD
100
AcDbEntity
  8
A_ACHSEN
100
AcDbLine
 62
7
  6
CENTER
 10
54.7205932324
 20
50.2137731784
 11
54.7205932324
 21
51.5882731784
  0
LINE
  5
2FE
100
AcDbEntity
  8
0
100
AcDbLine
 62
7
  6
CONTINUOUS
 10
56.4710327596
 20
22.3384198164
 11
56.4710327596
 21
43.2109197658
  0
LINE
  5
2FF
100
AcDbEntity
  8
0
100
AcDbLine
 62
7
  6
CONTINUOUS
 10
56.4710327595
 20
47.5854928971
 11
56.4710327595
 21
47.6290672626
  0
LINE
  5
300
100
AcDbEntity
  8
0
100
AcDbLine
 62
7
  6
CONTINUOUS
 10
56.4710327595
 20
49.5472790942
 11
56.4710327595
 21
49.5909079886
  0
LINE
  5
301
100
AcDbEntity
  8
0
100
AcDbLine
 62
7
  6
CONTINUOUS
 10
56.4710327595
 20
52.1787340189
 11
56.4710327596
 21
62.3384198164
  0
LINE
  5
302
100
AcDbEntity
  8
0
100
AcDbLine
 62
7
  6
CONTINUOUS
 10
22.2705851067
 20
47.5381767632
 11
21.9705851067
 21
47.5381767632
  0
LINE
  5
303
100
AcDbEntity
  8
0
100
AcDbLine
 62
7
  6
CONTINUOUS
 10
74.6026858492
 20
48.1382599146
 11
73.9547789654
 21
48.1382579471
  0
LINE
  5
304
100
AcDbEntity
  8
A_RUNDUNGEN
100
AcDbLine
 62
7
  6
CONTINUOUS
 10
64.4141578492
 20
48.1382289751
 11
73.9547789654
 21
48.1382579471
  0
LINE
  5
305
100
AcDbEntity
  8
0
100
AcDbLine
 62
7
  6
CONTINUOUS
 10
34.8384548851
 20
48.137614494
 11
45.0269828811
 21
48.1379007897
  0
LINE
  5
306
100
AcDbEntity
  8
A_ACHSEN
100
AcDbLine
 62
7
  6
CONTINUOUS
 10
55.0457132324
 20
48.5881731784
 11
54.3954732324
 21
48.5881731784
  0
LINE
  5
307
100
AcDbEntity
  8
A_ACHSEN
100
AcDbLine
 62
7
  6
CENTER
 10
53.0949932324
 20
48.5881731784
 11
51.7204932324
 21
48.5881731784
  0
LINE
  5
308
100
AcDbEntity
  8
A_ACHSEN
100
AcDbLine
 62
7
  6
CENTER
 10
56.3461932324
 20
48.5881731784
 11
57.7206932324
 21
48.5881731784
  0
LINE
  5
309
100
AcDbEntity
  8
0
100
AcDbLine
 62
7
  6
CONTINUOUS
 10
22.2705851067
 20
49.5807298901
 11
21.9705851067
 21
49.5807298901
  0
LINE
  5
30A
100
AcDbEntity
  8
0
100
AcDbLine
 62
7
  6
CONTINUOUS
 10
22.2705851067
 20
49.7722192289
 11
21.9705851067
 21
49.7722192289
  0
LINE
  5
30B
100
AcDbEntity
  8
0
100
AcDbLine
 62
7
  6
CONTINUOUS
 10
22.2705851067
 20
50.0913683059
 11
21.9705851067
 21
50.0913683059
  0
LINE
  5
30C
100
AcDbEntity
  8
0
100
AcDbLine
 62
7
  6
CONTINUOUS
 10
22.2705851067
 20
50.3466874244
 11
21.9705851067
 21
50.3466874244
  0
LINE
  5
30D
100
AcDbEntity
  8
0
100
AcDbLine
 62
7
  6
CONTINUOUS
 10
22.2705851067
 20
50.4743469836
 11
21.9705851067
 21
50.4743469836
  0
LINE
  5
30E
100
AcDbEntity
  8
0
100
AcDbLine
 62
7
  6
CONTINUOUS
 10
22.2705851067
 20
50.5381767632
 11
21.9705851067
 21
50.5381767632
  0
LINE
  5
30F
100
AcDbEntity
  8
0
100
AcDbLine
 62
7
  6
CONTINUOUS
 10
31.0374141896
 20
51.0381767632
 11
26.6119647962
 21
51.0381767632
  0
LINE
  5
310
100
AcDbEntity
  8
0
100
AcDbLine
 62
7
  6
CONTINUOUS
 10
22.2705851067
 20
51.2381767632
 11
21.9705851067
 21
51.2381767632
  0
LINE
  5
311
100
AcDbEntity
  8
0
100
AcDbLine
 62
7
  6
CONTINUOUS
 10
65.3125021937
 20
44.6812126576
 11
57.3447448375
 21
51.6070855396
  0
LINE
  5
312
100
AcDbEntity
  8
0
100
AcDbLine
 62
7
  6
CONTINUOUS
 10
57.9710327596
 20
53.2129571722
 11
57.9710327597
 21
53.7229492689
  0
LINE
  5
313
100
AcDbEntity
  8
0
100
AcDbLine
 62
7
  6
CONTINUOUS
 10
57.9710327596
 20
53.7600035417
 11
57.9710327596
 21
54.2384198164
  0
LINE
  5
314
100
AcDbEntity
  8
0
100
AcDbLine
 62
7
  6
CONTINUOUS
 10
62.9927610224
 20
75.1318784485
 11
61.0619442332
 21
67.9259742353
  0
LINE
  5
315
100
AcDbEntity
  8
0
100
AcDbLine
 62
7
  6
CONTINUOUS
 10
62.0278701067
 20
67.6671547632
 11
64.8019349749
 21
78.0201072712
  0
LINE
  5
316
100
AcDbEntity
  8
0
100
AcDbLine
 62
7
  6
CONTINUOUS
 10
51.4705851067
 20
54.1381767632
 11
49.2138438639
 21
54.0987851983
  0
LINE
  5
317
100
AcDbEntity
  8
0
100
AcDbLine
 62
7
  6
CONTINUOUS
 10
28.8183275211
 20
53.1791683878
 11
49.8830650826
 21
53.3629975675
  0
LINE
  5
318
100
AcDbEntity
  8
0
100
AcDbLine
 62
7
  6
CONTINUOUS
 10
58.466669492
 20
54.2229302304
 11
65.9710327597
 21
54.2884198165
  0
LINE
  5
319
100
AcDbEntity
  8
0
100
AcDbLine
 62
7
  6
CONTINUOUS
 10
23.510598954
 20
54.053259508
 11
38.9705851067
 21
54.1881767632
  0
LINE
  5
31A
100
AcDbEntity
  8
A_RUNDUNGEN
100
AcDbLine
 62
7
  6
CONTINUOUS
 10
58.1039402208
 20
51.6382098129
 11
71.1205242207
 21
51.6382493404
  0
LINE
  5
31B
100
AcDbEntity
  8
0
100
AcDbLine
 62
7
  6
CONTINUOUS
 10
71.1205242207
 20
51.6382493404
 11
76.0549122207
 21
51.6382643246
  0
LINE
  5
31C
100
AcDbEntity
  8
0
100
AcDbLine
 62
7
  6
CONTINUOUS
 10
51.3370915293
 20
51.6380781039
 11
33.3861195364
 21
51.6375736851
  0
LINE
  5
31D
100
AcDbEntity
  8
0
100
AcDbLine
 62
7
  6
CONTINUOUS
 10
20.4705851067
 20
52.4995167632
 11
20.9705851067
 21
52.4995167632
  0
LINE
  5
31E
100
AcDbEntity
  8
0
100
AcDbLine
 62
7
  6
CONTINUOUS
 10
20.4705851067
 20
52.8995167632
 11
20.9705851067
 21
52.8995167632
  0
LINE
  5
31F
100
AcDbEntity
  8
0
100
AcDbLine
 62
7
  6
CONTINUOUS
 10
51.4705851067
 20
54.1381767632
 11
52.9705851067
 21
54.1381767632
  0
LINE
  5
320
100
AcDbEntity
  8
0
100
AcDbLine
 62
7
  6
CONTINUOUS
 10
57.9710327596
 20
54.2384198164
 11
56.4710327596
 21
54.2384198164
  0
LINE
  5
321
100
AcDbEntity
  8
0
100
AcDbLine
 62
7
  6
CONTINUOUS
 10
90.4710327596
 20
54.3384198164
 11
56.4710327596
 21
54.3384198164
  0
LINE
  5
322
100
AcDbEntity
  8
0
100
AcDbLine
 62
7
  6
CONTINUOUS
 10
51.4705851067
 20
54.3495167632
 11
52.9705851067
 21
54.3495167632
  0
LINE
  5
323
100
AcDbEntity
  8
0
100
AcDbLine
 62
7
  6
CONTINUOUS
 10
42.9705851067
 20
54.4495167632
 11
39.9705851067
 21
54.4495167632
  0
LINE
  5
324
100
AcDbEntity
  8
A_RUNDUNGEN
100
AcDbLine
 62
7
  6
CONTINUOUS
 10
43.0705851067
 20
54.5495167632
 11
47.9705851067
 21
54.5495167632
  0
LINE
  5
325
100
AcDbEntity
  8
0
100
AcDbLine
 62
7
  6
CONTINUOUS
 10
41.0393462087
 20
54.7495167632
 11
49.4705851067
 21
54.7495167632
  0
LINE
  5
326
100
AcDbEntity
  8
0
100
AcDbLine
 62
7
  6
CONTINUOUS
 10
82.2518343993
 20
52.6747116383
 11
59.854257165
 21
52.8701723336
  0
LINE
  5
327
100
AcDbEntity
  8
0
100
AcDbLine
 62
7
  6
CONTINUOUS
 10
56.9753768226
 20
53.2216461299
 11
58.5316929019
 21
53.2080643653
  0
LINE
  5
328
100
AcDbEntity
  8
0
100
AcDbLine
 62
7
  6
CONTINUOUS
 10
38.9705851067
 20
54.1881767632
 11
50.6731463503
 21
54.0860500585
  0
LINE
  5
329
100
AcDbEntity
  8
0
100
AcDbLine
 62
7
  6
CONTINUOUS
 10
65.9710327597
 20
54.2884198165
 11
86.4094163542
 21
54.110056745
  0
LINE
  5
32A
100
AcDbEntity
  8
0
100
AcDbLine
 62
7
  6
CONTINUOUS
 10
42.9734922324
 20
54.4911799845
 11
41.1313395173
 21
54.7495167632
  0
LINE
  5
32B
100
AcDbEntity
  8
0
100
AcDbLine
 62
7
  6
CONTINUOUS
 10
41.0411204775
 20
54.7621687524
 11
40.0025634888
 21
54.907812197
  0
LINE
  5
32C
100
AcDbEntity
  8
0
100
AcDbLine
 62
7
  6
CONTINUOUS
 10
88.5406193102
 20
51.7952001651
 11
82.317057682
 21
52.6698647111
  0
LINE
  5
32D
100
AcDbEntity
  8
0
100
AcDbLine
 62
7
  6
CONTINUOUS
 10
59.7292109102
 20
52.887190382
 11
58.1933870462
 21
53.2987131461
  0
LINE
  5
32E
100
AcDbEntity
  8
A_ACHSEN
100
AcDbLine
 62
7
  6
CONTINUOUS
 10
62.2210709261
 20
31.9135039337
 11
62.2210709261
 21
31.2632639337
  0
LINE
  5
32F
100
AcDbEntity
  8
A_ACHSEN
100
AcDbLine
 62
7
  6
CENTER
 10
62.2210709261
 20
29.9627839337
 11
62.2210709261
 21
27.5883839337
  0
LINE
  5
330
100
AcDbEntity
  8
A_ACHSEN
100
AcDbLine
 62
7
  6
CENTER
 10
62.2210709261
 20
33.2139839337
 11
62.2210709261
 21
35.5883839337
  0
LINE
  5
331
100
AcDbEntity
  8
0
100
AcDbLine
 62
7
  6
CONTINUOUS
 10
63.6454086372
 20
67.9083356758
 11
66.2508237778
 21
77.6318787419
  0
LINE
  5
332
100
AcDbEntity
  8
0
100
AcDbLine
 62
7
  6
CONTINUOUS
 10
44.1287461756
 20
44.6809092245
 11
47.3137939589
 21
47.4496460632
  0
LINE
  5
333
100
AcDbEntity
  8
0
100
AcDbLine
 62
7
  6
CONTINUOUS
 10
50.0479867248
 20
53.3781517376
 11
50.72267956
 21
53.4971182881
  0
LINE
  5
334
100
AcDbEntity
  8
0
100
AcDbLine
 62
7
  6
CONTINUOUS
 10
26.5297684325
 20
51.0313739842
 11
23.9883697045
 21
50.6078075295
  0
LINE
  5
335
100
AcDbEntity
  8
0
100
AcDbLine
 62
7
  6
CONTINUOUS
 10
23.3705851067
 20
52.417857729
 11
28.7531042384
 21
53.1743214606
  0
LINE
  5
336
100
AcDbEntity
  8
0
100
AcDbLine
 62
7
  6
CONTINUOUS
 10
22.4009985563
 20
53.897315342
 11
23.510598954
 21
54.053259508
  0
LINE
  5
337
100
AcDbEntity
  8
A_RUNDUNGEN
100
AcDbLine
 62
7
  6
CONTINUOUS
 10
22.1776918879
 20
56.6495167632
 11
39.4705851067
 21
56.6495167632
  0
LINE
  5
338
100
AcDbEntity
  8
0
100
AcDbLine
 62
7
  6
CONTINUOUS
 10
21.2705851067
 20
56.7495167632
 11
40.4705851067
 21
56.7495167632
  0
LINE
  5
339
100
AcDbEntity
  8
0
100
AcDbLine
 62
7
  6
CONTINUOUS
 10
46.7733945163
 20
57.6495167632
 11
44.6793790259
 21
57.6495167632
  0
LINE
  5
33A
100
AcDbEntity
  8
0
100
AcDbLine
 62
7
  6
CONTINUOUS
 10
21.2705851067
 20
57.7495167632
 11
40.4705851067
 21
57.7495167632
  0
LINE
  5
33B
100
AcDbEntity
  8
0
100
AcDbLine
 62
7
  6
CONTINUOUS
 10
41.0393462087
 20
57.7495167632
 11
49.4705851067
 21
57.7495167632
  0
LINE
  5
33C
100
AcDbEntity
  8
0
100
AcDbLine
 62
7
  6
CONTINUOUS
 10
89.7406193102
 20
53.6462063085
 11
86.4746396369
 21
54.1052098179
  0
LINE
  5
33D
100
AcDbEntity
  8
0
100
AcDbLine
 62
7
  6
CONTINUOUS
 10
79.3759700499
 20
52.6998089263
 11
85.4808037163
 21
51.3262213514
  0
LINE
  5
33E
100
AcDbEntity
  8
0
100
AcDbLine
 62
7
  6
CONTINUOUS
 10
71.1205242207
 20
51.6382493404
 11
73.9547789654
 21
48.1382579471
  0
LINE
  5
33F
100
AcDbEntity
  8
0
100
AcDbLine
 62
7
  6
CONTINUOUS
 10
66.4705851067
 20
97.7422197632
 11
66.4705851067
 21
67.6495167632
  0
LINE
  5
340
100
AcDbEntity
  8
0
100
AcDbLine
 62
7
  6
CONTINUOUS
 10
66.4710327596
 20
54.3384198164
 11
66.4710327596
 21
54.2840563826
  0
LINE
  5
341
100
AcDbEntity
  8
0
100
AcDbLine
 62
7
  6
CONTINUOUS
 10
66.4710327597
 20
31.5884959703
 11
66.4710327597
 21
30.4382675087
  0
LINE
  5
342
100
AcDbEntity
  8
0
100
AcDbLine
 62
7
  6
CONTINUOUS
 10
66.4710327596
 20
26.3927832504
 11
66.4710327596
 21
26.3384198164
  0
LINE
  5
343
100
AcDbEntity
  8
0
100
AcDbLine
 62
7
  6
CONTINUOUS
 10
67.9705851067
 20
67.6495167632
 11
67.9705851067
 21
97.7422197632
  0
LINE
  5
344
100
AcDbEntity
  8
0
100
AcDbLine
 62
7
  6
CONTINUOUS
 10
66.2058597092
 20
31.2398727731
 11
67.0132993073
 21
40.471933659
  0
LINE
  5
345
100
AcDbEntity
  8
0
100
AcDbLine
 62
7
  6
CONTINUOUS
 10
54.9705851067
 20
62.3384167632
 11
116.4710327596
 21
62.3384198164
  0
LINE
  5
346
100
AcDbEntity
  8
0
100
AcDbLine
 62
7
  6
CONTINUOUS
 10
62.7765061067
 20
63.1495167632
 11
54.9705851067
 21
63.1495167632
  0
LINE
  5
347
100
AcDbEntity
  8
0
100
AcDbLine
 62
7
  6
CONTINUOUS
 10
79.2688524062
 20
50.4684963922
 11
83.3095972862
 21
47.0779313382
  0
LINE
  5
348
100
AcDbEntity
  8
0
100
AcDbLine
 62
7
  6
CONTINUOUS
 10
66.0510926069
 20
30.4347233721
 11
66.2058593471
 21
31.2398728048
  0
LINE
  5
349
100
AcDbEntity
  8
0
100
AcDbLine
 62
7
  6
CONTINUOUS
 10
61.0427089755
 20
38.5265718495
 11
58.5957921312
 21
33.2787544334
  0
LINE
  5
34A
100
AcDbEntity
  8
0
100
AcDbLine
 62
7
  6
CONTINUOUS
 10
64.6113342023
 20
65.1495167632
 11
65.4705851067
 21
65.1495167632
  0
LINE
  5
34B
100
AcDbEntity
  8
0
100
AcDbLine
 62
7
  6
CONTINUOUS
 10
65.4705846658
 20
66.6495167632
 11
64.6113336658
 21
66.6495171422
  0
LINE
  5
34C
100
AcDbEntity
  8
A_ACHSEN
100
AcDbLine
 62
7
  6
CONTINUOUS
 10
77.1642241149
 20
45.2187605981
 11
78.1159469704
 21
41.9026297795
  0
LINE
  5
34D
100
AcDbEntity
  8
0
100
AcDbLine
 62
7
  6
CONTINUOUS
 10
78.081289249
 20
43.7471082349
 11
77.5004704526
 21
45.9147262695
  0
LINE
  5
34E
100
AcDbEntity
  8
0
100
AcDbLine
 62
7
  6
CONTINUOUS
 10
63.2903387484
 20
47.9197776577
 11
62.1273267961
 21
47.4498863163
  0
LINE
  5
34F
100
AcDbEntity
  8
0
100
AcDbLine
 62
7
  6
CONTINUOUS
 10
53.5718963891
 20
43.4539701777
 11
49.7279728946
 21
41.9009100157
  0
LINE
  5
350
100
AcDbEntity
  8
0
100
AcDbLine
 62
7
  6
CONTINUOUS
 10
81.2210327597
 20
44.9135398165
 11
81.2210327597
 21
44.2632998165
  0
LINE
  5
351
100
AcDbEntity
  8
DEFAULT_1
100
AcDbLine
 62
7
  6
CENTER
 10
81.2210327597
 20
42.9628198165
 11
81.2210327597
 21
41.5883198165
  0
LINE
  5
352
100
AcDbEntity
  8
DEFAULT_1
100
AcDbLine
 62
7
  6
CENTER
 10
81.2210327597
 20
46.2140198165
 11
81.2210327597
 21
47.5885198165
  0
LINE
  5
353
100
AcDbEntity
  8
A_ACHSEN
100
AcDbLine
 62
7
  6
CONTINUOUS
 10
81.8510262164
 20
48.6446015256
 11
81.5466178361
 21
48.5572369345
  0
LINE
  5
354
100
AcDbEntity
  8
0
100
AcDbLine
 62
7
  6
CONTINUOUS
 10
77.2209542157
 20
46.5875218389
 11
66.3115825809
 21
43.4565541865
  0
LINE
  5
355
100
AcDbEntity
  8
A_RUNDUNGEN
100
AcDbLine
 62
7
  6
CONTINUOUS
 10
66.3188963128
 20
43.445206196
 11
77.2284934983
 21
46.5762385811
  0
LINE
  5
356
100
AcDbEntity
  8
A_ACHSEN
100
AcDbLine
 62
7
  6
CONTINUOUS
 10
85.276867144
 20
43.9577994241
 11
84.3251442884
 21
47.2739302427
  0
LINE
  5
357
100
AcDbEntity
  8
A_RUNDUNGEN
100
AcDbLine
 62
7
  6
CONTINUOUS
 10
84.4947784744
 20
47.6347256389
 11
85.6120183483
 21
43.741876417
  0
LINE
  5
358
100
AcDbEntity
  8
0
100
AcDbLine
 62
7
  6
CONTINUOUS
 10
85.6244420514
 20
43.7454419947
 11
84.5072021775
 21
47.6382912166
  0
LINE
  5
359
100
AcDbEntity
  8
0
100
AcDbLine
 62
7
  6
CONTINUOUS
 10
85.8710327595
 20
50.8384350474
 11
85.8710327596
 21
34.9487857045
  0
LINE
  5
35A
100
AcDbEntity
  8
A_RUNDUNGEN
100
AcDbLine
 62
7
  6
CONTINUOUS
 10
78.9221978739
 20
40.7949893631
 11
66.7356601606
 21
37.2974776224
  0
LINE
  5
35B
100
AcDbEntity
  8
0
100
AcDbLine
 62
7
  6
CONTINUOUS
 10
66.7344537985
 20
37.2836843822
 11
78.9381871547
 21
40.7861312377
  0
LINE
  5
35C
100
AcDbEntity
  8
0
100
AcDbLine
 62
7
  6
CONTINUOUS
 10
55.9705851067
 20
77.6495167632
 11
61.0609091067
 21
77.6495167632
  0
LINE
  5
35D
100
AcDbEntity
  8
0
100
AcDbLine
 62
7
  6
CONTINUOUS
 10
53.4705851067
 20
78.6495167632
 11
64.3189721067
 21
78.6495167632
  0
LINE
  5
35E
100
AcDbEntity
  8
0
100
AcDbLine
 62
7
  6
CONTINUOUS
 10
64.3189721067
 20
80.1495167632
 11
52.9705851067
 21
80.1495167632
  0
LINE
  5
35F
100
AcDbEntity
  8
0
100
AcDbLine
 62
7
  6
CONTINUOUS
 10
88.9710327597
 20
30.6807036091
 11
88.9710327597
 21
51.3000661307
  0
LINE
  5
360
100
AcDbEntity
  8
0
100
AcDbLine
 62
7
  6
CONTINUOUS
 10
90.1710327597
 20
53.1510722741
 11
90.1710327597
 21
27.5257673589
  0
LINE
  5
361
100
AcDbEntity
  8
0
100
AcDbLine
 62
7
  6
CONTINUOUS
 10
90.4710327596
 20
54.3384198164
 11
90.4710327596
 21
26.3384198164
  0
LINE
  5
362
100
AcDbEntity
  8
A_ACHSEN
100
AcDbLine
 62
7
  6
CONTINUOUS
 10
80.5900650424
 20
40.5319584965
 11
83.906195861
 21
41.4836813521
  0
LINE
  5
363
100
AcDbEntity
  8
0
100
AcDbLine
 62
7
  6
CONTINUOUS
 10
85.5291596606
 20
34.474462117
 11
82.9480048816
 21
33.6140771906
  0
LINE
  5
364
100
AcDbEntity
  8
0
100
AcDbLine
 62
7
  6
CONTINUOUS
 10
67.9705851067
 20
97.7422197632
 11
66.4705851067
 21
97.7422197632
  0
LINE
  5
365
100
AcDbEntity
  8
0
100
AcDbLine
 62
7
  6
CONTINUOUS
 10
116.4710327596
 20
62.3384198164
 11
116.4710327596
 21
22.3384198164
  0
ARC
  5
366
100
AcDbEntity
  8
0
100
AcDbCircle
 62
7
  6
CONTINUOUS
 10
15.9705851067
 20
24.1995167632
 40
3.05
100
AcDbArc
 50
190.3888578155
 51
270.0
  0
ARC
  5
367
100
AcDbEntity
  8
0
100
AcDbCircle
 62
7
  6
CONTINUOUS
 10
26.3705851067
 20
31.0702870399
 40
3.0
100
AcDbArc
 50
180.0
 51
262.0
  0
ARC
  5
368
100
AcDbEntity
  8
0
100
AcDbCircle
 62
7
  6
CONTINUOUS
 10
15.9705851067
 20
24.1995167632
 40
1.55
100
AcDbArc
 50
180.0
 51
270.0
  0
ARC
  5
369
100
AcDbEntity
  8
0
100
AcDbCircle
 62
7
  6
CONTINUOUS
 10
20.4705851067
 20
28.0995167632
 40
1.5
100
AcDbArc
 50
180.0
 51
250.5287793655
  0
ARC
  5
36A
100
AcDbEntity
  8
0
100
AcDbCircle
 62
7
  6
CONTINUOUS
 10
21.2705851067
 20
24.0495167632
 40
1.3
100
AcDbArc
 50
180.0
 51
270.0
  0
ARC
  5
36B
100
AcDbEntity
  8
0
100
AcDbCircle
 62
7
  6
CONTINUOUS
 10
22.4705851067
 20
27.0741722189
 40
0.5
100
AcDbArc
 50
180.0
 51
262.0
  0
ARC
  5
36C
100
AcDbEntity
  8
0
100
AcDbCircle
 62
7
  6
CONTINUOUS
 10
20.4705851067
 20
28.0995167632
 40
0.5
100
AcDbArc
 50
180.0
 51
270.0
  0
ARC
  5
36D
100
AcDbEntity
  8
0
100
AcDbCircle
 62
7
  6
CONTINUOUS
 10
20.4705851067
 20
28.4995167632
 40
0.5
100
AcDbArc
 50
180.0
 51
270.0
  0
ARC
  5
36E
100
AcDbEntity
  8
0
100
AcDbCircle
 62
7
  6
CONTINUOUS
 10
21.2705851067
 20
24.0495167632
 40
0.3
100
AcDbArc
 50
180.0
 51
270.0
  0
ARC
  5
36F
100
AcDbEntity
  8
0
100
AcDbCircle
 62
7
  6
CONTINUOUS
 10
28.220705642
 20
44.5874285352
 40
3.2500003389
100
AcDbArc
 50
130.0015968987
 51
345.0016040948
  0
CIRCLE
  5
370
100
AcDbEntity
  8
A_ACHSEN
100
AcDbCircle
 62
7
  6
CONTINUOUS
 10
28.220705642
 20
44.5874285352
 40
2.075
  0
ARC
  5
371
100
AcDbEntity
  8
A_ACHSEN
100
AcDbCircle
 62
7
  6
CONTINUOUS
 10
27.0384469903
 20
46.7213480877
 40
2.0
100
AcDbArc
 50
73.9866277334
 51
163.9866277334
  0
ARC
  5
372
100
AcDbEntity
  8
A_ACHSEN
100
AcDbCircle
 62
7
  6
CONTINUOUS
 10
30.354577809
 20
45.7696252322
 40
2.0
100
AcDbArc
 50
343.9866277334
 51
22.9228945213
  0
ARC
  5
373
100
AcDbEntity
  8
A_ACHSEN
100
AcDbCircle
 62
7
  6
CONTINUOUS
 10
29.4028549534
 20
42.4534944135
 40
2.0
100
AcDbArc
 50
253.9866277334
 51
343.9866277334
  0
ARC
  5
374
100
AcDbEntity
  8
A_ACHSEN
100
AcDbCircle
 62
7
  6
CONTINUOUS
 10
26.0867241348
 20
43.4052172691
 40
2.0
100
AcDbArc
 50
163.9866277334
 51
253.9866277334
  0
CIRCLE
  5
375
100
AcDbEntity
  8
A_ACHSEN
100
AcDbCircle
 62
7
  6
CONTINUOUS
 10
28.220705642
 20
44.5874285352
 40
1.95
  0
CIRCLE
  5
376
100
AcDbEntity
  8
A_ACHSEN
100
AcDbCircle
 62
7
  6
CONTINUOUS
 10
28.220705642
 20
44.5874285352
 40
1.3726497308
  0
ARC
  5
377
100
AcDbEntity
  8
0
100
AcDbCircle
 62
7
  6
CONTINUOUS
 10
24.7825110791
 20
43.4837552042
 40
1.0157080271
100
AcDbArc
 50
163.9866277334
 51
238.2977943933
  0
ARC
  5
378
100
AcDbEntity
  8
0
100
AcDbCircle
 62
7
  6
CONTINUOUS
 10
25.891475102
 20
47.3477685059
 40
1.0157080271
100
AcDbArc
 50
89.5906780325
 51
163.9866277334
  0
ARC
  5
379
100
AcDbEntity
  8
A_RUNDUNGEN
100
AcDbCircle
 62
7
  6
CONTINUOUS
 10
24.7825110791
 20
43.4837552042
 40
1.0027827903
100
AcDbArc
 50
163.9866277334
 51
237.0937346668
  0
ARC
  5
37A
100
AcDbEntity
  8
A_RUNDUNGEN
100
AcDbCircle
 62
7
  6
CONTINUOUS
 10
25.891475102
 20
47.3477685059
 40
1.0027827903
100
AcDbArc
 50
90.7998166801
 51
163.9866277334
  0
ARC
  5
37B
100
AcDbEntity
  8
0
100
AcDbCircle
 62
7
  6
CONTINUOUS
 10
45.4705851067
 20
31.5381767632
 40
4.0
100
AcDbArc
 50
186.6991183791
 51
270.0
  0
ARC
  5
37C
100
AcDbEntity
  8
0
100
AcDbCircle
 62
7
  6
CONTINUOUS
 10
47.2205851067
 20
31.5881767632
 40
3.9999998459
100
AcDbArc
 50
196.7648806239
 51
25.0001643005
  0
ARC
  5
37D
100
AcDbEntity
  8
0
100
AcDbCircle
 62
7
  6
CONTINUOUS
 10
43.2705851067
 20
26.0495167632
 40
3.3
100
AcDbArc
 50
180.0
 51
226.9404213442
  0
ARC
  5
37E
100
AcDbEntity
  8
0
100
AcDbCircle
 62
7
  6
CONTINUOUS
 10
50.4705851067
 20
23.6495167632
 40
2.5
100
AcDbArc
 50
270.0
 51
360.0
  0
CIRCLE
  5
37F
100
AcDbEntity
  8
A_ACHSEN
100
AcDbCircle
 62
7
  6
CONTINUOUS
 10
47.2205851067
 20
31.5881767632
 40
2.2
  0
CIRCLE
  5
380
100
AcDbEntity
  8
0
100
AcDbCircle
 62
7
  6
CONTINUOUS
 10
47.2205851067
 20
31.5881767632
 40
2.04
  0
ARC
  5
381
100
AcDbEntity
  8
0
100
AcDbCircle
 62
7
  6
CONTINUOUS
 10
39.5116325702
 20
30.8382602224
 40
1.9999140473
100
AcDbArc
 50
6.6989322331
 51
90.0001861459
  0
CIRCLE
  5
382
100
AcDbEntity
  8
A_ACHSEN
100
AcDbCircle
 62
7
  6
CONTINUOUS
 10
47.2205851067
 20
31.5881767632
 40
1.95
  0
CIRCLE
  5
383
100
AcDbEntity
  8
A_ACHSEN
100
AcDbCircle
 62
7
  6
CONTINUOUS
 10
47.2205851067
 20
31.5881767632
 40
1.9277623459
  0
ARC
  5
384
100
AcDbEntity
  8
0
100
AcDbCircle
 62
7
  6
CONTINUOUS
 10
48.3744684313
 20
27.3702812881
 40
1.0
100
AcDbArc
 50
270.5
 51
280.5
  0
ARC
  5
385
100
AcDbEntity
  8
0
100
AcDbCircle
 62
7
  6
CONTINUOUS
 10
38.9705851067
 20
26.6519995473
 40
1.0
100
AcDbArc
 50
0.0
 51
89.5
  0
ARC
  5
386
100
AcDbEntity
  8
A_RUNDUNGEN
100
AcDbCircle
 62
7
  6
CONTINUOUS
 10
39.4705851067
 20
24.8495167632
 40
1.0
100
AcDbArc
 50
270.0
 51
338.4788671419
  0
ARC
  5
387
100
AcDbEntity
  8
0
100
AcDbCircle
 62
7
  6
CONTINUOUS
 10
50.4705851067
 20
23.6495167632
 40
1.0
100
AcDbArc
 50
270.0
 51
360.0
  0
ARC
  5
388
100
AcDbEntity
  8
0
100
AcDbCircle
 62
7
  6
CONTINUOUS
 10
34.9705822294
 20
32.1338323937
 40
0.4999985613
100
AcDbArc
 50
180.0000028775
 51
261.1950082289
  0
ARC
  5
389
100
AcDbEntity
  8
0
100
AcDbCircle
 62
7
  6
CONTINUOUS
 10
43.2705851067
 20
26.0495167632
 40
0.3
100
AcDbArc
 50
187.9828916805
 51
270.0
  0
ARC
  5
38A
100
AcDbEntity
  8
0
100
AcDbCircle
 62
7
  6
CONTINUOUS
 10
50.6705851067
 20
27.0839201737
 40
0.3
100
AcDbArc
 50
280.5
 51
360.0
  0
ARC
  5
38B
100
AcDbEntity
  8
0
100
AcDbCircle
 62
7
  6
CONTINUOUS
 10
47.4090528071
 20
40.9073713356
 40
5.0000005326
100
AcDbArc
 50
131.0002416502
 51
185.0001760459
  0
ARC
  5
38C
100
AcDbEntity
  8
0
100
AcDbCircle
 62
7
  6
CONTINUOUS
 10
33.3862600354
 20
46.6375736871
 40
5.0
100
AcDbArc
 50
90.0016100002
 51
130.0015968987
  0
ARC
  5
38D
100
AcDbEntity
  8
0
100
AcDbCircle
 62
7
  6
CONTINUOUS
 10
45.0270671805
 20
45.1379007909
 40
3.0000004869
100
AcDbArc
 50
68.0016140886
 51
90.0016100002
  0
ARC
  5
38E
100
AcDbEntity
  8
0
100
AcDbCircle
 62
7
  6
CONTINUOUS
 10
34.8385391845
 20
45.1376144952
 40
3.0
100
AcDbArc
 50
90.0016100002
 51
165.0016040948
  0
ARC
  5
38F
100
AcDbEntity
  8
0
100
AcDbCircle
 62
7
  6
CONTINUOUS
 10
50.664496829
 20
39.5829532214
 40
2.4999992997
100
AcDbArc
 50
112.0000142184
 51
205.0001643005
  0
ARC
  5
390
100
AcDbEntity
  8
0
100
AcDbCircle
 62
7
  6
CONTINUOUS
 10
48.9445323474
 20
44.6337928707
 40
1.9999998556
100
AcDbArc
 50
34.3961428438
 51
68.0016140886
  0
ARC
  5
391
100
AcDbEntity
  8
0
100
AcDbCircle
 62
7
  6
CONTINUOUS
 10
43.2705851067
 20
54.4495167632
 40
3.3
100
AcDbArc
 50
133.0595786558
 51
180.0
  0
ARC
  5
392
100
AcDbEntity
  8
0
100
AcDbCircle
 62
7
  6
CONTINUOUS
 10
51.3370212798
 20
54.1380781029
 40
2.5
100
AcDbArc
 50
270.0016100002
 51
301.3691186
  0
ARC
  5
393
100
AcDbEntity
  8
0
100
AcDbCircle
 62
7
  6
CONTINUOUS
 10
20.4705851067
 20
52.3995167632
 40
1.5
100
AcDbArc
 50
109.4712206345
 51
180.0
  0
ARC
  5
394
100
AcDbEntity
  8
0
100
AcDbCircle
 62
7
  6
CONTINUOUS
 10
21.2705851067
 20
56.4495167632
 40
1.3
100
AcDbArc
 50
90.0
 51
180.0
  0
ARC
  5
395
100
AcDbEntity
  8
0
100
AcDbCircle
 62
7
  6
CONTINUOUS
 10
49.8743385471
 20
54.3629594906
 40
1.0
100
AcDbArc
 50
270.5
 51
280.0
  0
ARC
  5
396
100
AcDbEntity
  8
A_RUNDUNGEN
100
AcDbCircle
 62
7
  6
CONTINUOUS
 10
39.4705851067
 20
55.6495167632
 40
1.0
100
AcDbArc
 50
21.5211328581
 51
90.0
  0
ARC
  5
397
100
AcDbEntity
  8
0
100
AcDbCircle
 62
7
  6
CONTINUOUS
 10
28.8226907889
 20
52.6791874262
 40
0.5
100
AcDbArc
 50
90.5
 51
98.0
  0
ARC
  5
398
100
AcDbEntity
  8
0
100
AcDbCircle
 62
7
  6
CONTINUOUS
 10
22.4705851067
 20
53.4021813076
 40
0.5
100
AcDbArc
 50
98.0
 51
180.0
  0
ARC
  5
399
100
AcDbEntity
  8
0
100
AcDbCircle
 62
7
  6
CONTINUOUS
 10
20.4705851067
 20
52.3995167632
 40
0.5
100
AcDbArc
 50
90.0
 51
180.0
  0
ARC
  5
39A
100
AcDbEntity
  8
0
100
AcDbCircle
 62
7
  6
CONTINUOUS
 10
20.4705851067
 20
51.9995167632
 40
0.5
100
AcDbArc
 50
90.0
 51
180.0
  0
ARC
  5
39B
100
AcDbEntity
  8
0
100
AcDbCircle
 62
7
  6
CONTINUOUS
 10
43.2705851067
 20
54.4495167632
 40
0.3
100
AcDbArc
 50
90.0
 51
180.0
  0
ARC
  5
39C
100
AcDbEntity
  8
0
100
AcDbCircle
 62
7
  6
CONTINUOUS
 10
50.6705851067
 20
53.792560614
 40
0.3
100
AcDbArc
 50
280.0
 51
89.5
  0
ARC
  5
39D
100
AcDbEntity
  8
0
100
AcDbCircle
 62
7
  6
CONTINUOUS
 10
21.2705851067
 20
56.4495167632
 40
0.3
100
AcDbArc
 50
90.0
 51
180.0
  0
ARC
  5
39E
100
AcDbEntity
  8
0
100
AcDbCircle
 62
7
  6
CONTINUOUS
 10
62.2210709261
 20
31.5883839337
 40
3.9999998459
100
AcDbArc
 50
155.0016196899
 51
343.2369027778
  0
CIRCLE
  5
39F
100
AcDbEntity
  8
0
100
AcDbCircle
 62
7
  6
CONTINUOUS
 10
62.2210709261
 20
31.5883839337
 40
2.2
  0
CIRCLE
  5
3A0
100
AcDbEntity
  8
0
100
AcDbCircle
 62
7
  6
CONTINUOUS
 10
62.2210709261
 20
31.5883839337
 40
2.04
  0
CIRCLE
  5
3A1
100
AcDbEntity
  8
0
100
AcDbCircle
 62
7
  6
CONTINUOUS
 10
62.2210327597
 20
31.5884198164
 40
1.95
  0
CIRCLE
  5
3A2
100
AcDbEntity
  8
0
100
AcDbCircle
 62
7
  6
CONTINUOUS
 10
62.2210327597
 20
31.5884198164
 40
1.9277623459
  0
ARC
  5
3A3
100
AcDbEntity
  8
0
100
AcDbCircle
 62
7
  6
CONTINUOUS
 10
62.0323130586
 20
40.9075726333
 40
5.0000005326
100
AcDbArc
 50
355.0016079445
 51
49.0016093801
  0
ARC
  5
3A4
100
AcDbEntity
  8
0
100
AcDbCircle
 62
7
  6
CONTINUOUS
 10
54.7205932324
 20
48.5881731784
 40
5.0000003562
100
AcDbArc
 50
214.3961428438
 51
273.2728396876
  0
ARC
  5
3A5
100
AcDbEntity
  8
0
100
AcDbCircle
 62
7
  6
CONTINUOUS
 10
54.7205932324
 20
48.5881731784
 40
4.0000004365
100
AcDbArc
 50
49.0016093801
 51
121.3691186
  0
ARC
  5
3A6
100
AcDbEntity
  8
0
100
AcDbCircle
 62
7
  6
CONTINUOUS
 10
64.4141669593
 20
45.1382289751
 40
3.0000004869
100
AcDbArc
 50
90.0003190861
 51
112.0001699019
  0
ARC
  5
3A7
100
AcDbEntity
  8
0
100
AcDbCircle
 62
7
  6
CONTINUOUS
 10
61.4710327595
 20
48.0384198164
 40
2.5
100
AcDbArc
 50
318.6892591979
 51
1.4526909678
  0
ARC
  5
3A8
100
AcDbEntity
  8
0
100
AcDbCircle
 62
7
  6
CONTINUOUS
 10
58.7769102761
 20
39.5830531566
 40
2.4999992997
100
AcDbArc
 50
335.0016196899
 51
68.0016012637
  0
CIRCLE
  5
3A9
100
AcDbEntity
  8
0
100
AcDbCircle
 62
7
  6
CONTINUOUS
 10
54.7205932324
 20
48.5881731784
 40
2.2
  0
CIRCLE
  5
3AA
100
AcDbEntity
  8
0
100
AcDbCircle
 62
7
  6
CONTINUOUS
 10
54.7205932324
 20
48.5881731784
 40
2.04
  0
CIRCLE
  5
3AB
100
AcDbEntity
  8
A_ACHSEN
100
AcDbCircle
 62
7
  6
CONTINUOUS
 10
54.7205334827
 20
48.5881995384
 40
2.025
  0
ARC
  5
3AC
100
AcDbEntity
  8
0
100
AcDbCircle
 62
7
  6
CONTINUOUS
 10
54.321115705
 20
41.5996043255
 40
2.0000005743
100
AcDbArc
 50
86.7289443029
 51
112.0001827268
  0
ARC
  5
3AD
100
AcDbEntity
  8
0
100
AcDbCircle
 62
7
  6
CONTINUOUS
 10
55.1202286103
 20
41.5995904053
 40
2.0000005743
100
AcDbArc
 50
68.0016012637
 51
93.2728396876
  0
CIRCLE
  5
3AE
100
AcDbEntity
  8
0
100
AcDbCircle
 62
7
  6
CONTINUOUS
 10
54.7205932324
 20
48.5881731784
 40
2.0
  0
CIRCLE
  5
3AF
100
AcDbEntity
  8
0
100
AcDbCircle
 62
7
  6
CONTINUOUS
 10
54.7205932324
 20
48.5881731784
 40
1.7
  0
CIRCLE
  5
3B0
100
AcDbEntity
  8
0
100
AcDbCircle
 62
7
  6
CONTINUOUS
 10
54.7205932324
 20
48.5881731784
 40
1.5
  0
ARC
  5
3B1
100
AcDbEntity
  8
0
100
AcDbCircle
 62
7
  6
CONTINUOUS
 10
67.4710327595
 20
49.0384198165
 40
1.5
100
AcDbArc
 50
216.8830048802
 51
323.1173391539
  0
ARC
  5
3B2
100
AcDbEntity
  8
0
100
AcDbCircle
 62
7
  6
CONTINUOUS
 10
86.9710327597
 20
30.6807036091
 40
2.0
100
AcDbArc
 50
278.0
 51
360.0
  0
ARC
  5
3B3
100
AcDbEntity
  8
0
100
AcDbCircle
 62
7
  6
CONTINUOUS
 10
74.4710327597
 20
26.761823116
 40
1.5
100
AcDbArc
 50
90.5
 51
168.9170465636
  0
ARC
  5
3B4
100
AcDbEntity
  8
0
100
AcDbCircle
 62
7
  6
CONTINUOUS
 10
73.4896828603
 20
26.9540531211
 40
0.5
100
AcDbArc
 50
168.9170465636
 51
270.5
  0
ARC
  5
3B5
100
AcDbEntity
  8
0
100
AcDbCircle
 62
7
  6
CONTINUOUS
 10
89.6710327597
 20
27.5257673589
 40
0.5
100
AcDbArc
 50
278.0
 51
360.0
  0
ARC
  5
3B6
100
AcDbEntity
  8
0
100
AcDbCircle
 62
7
  6
CONTINUOUS
 10
86.4050530865
 20
27.0667638495
 40
0.5
100
AcDbArc
 50
270.5
 51
278.0
  0
ARC
  5
3B7
100
AcDbEntity
  8
0
100
AcDbCircle
 62
7
  6
CONTINUOUS
 10
76.0549274042
 20
46.6382643247
 40
5.0
100
AcDbArc
 50
50.0001870918
 51
90.0001739903
  0
ARC
  5
3B8
100
AcDbEntity
  8
0
100
AcDbCircle
 62
7
  6
CONTINUOUS
 10
81.2205456294
 20
44.5882800111
 40
3.2500003389
100
AcDbArc
 50
195.0001798956
 51
50.0001870918
  0
ARC
  5
3B9
100
AcDbEntity
  8
0
100
AcDbCircle
 62
7
  6
CONTINUOUS
 10
74.6026949593
 20
45.1382599147
 40
3.0
100
AcDbArc
 50
15.0001798956
 51
90.0001739903
  0
CIRCLE
  5
3BA
100
AcDbEntity
  8
0
100
AcDbCircle
 62
7
  6
CONTINUOUS
 10
81.2205456294
 20
44.5882800111
 40
2.025
  0
ARC
  5
3BB
100
AcDbEntity
  8
A_ACHSEN
100
AcDbCircle
 62
7
  6
CONTINUOUS
 10
82.402749611
 20
46.7222068482
 40
2.0
100
AcDbArc
 50
16.0133722672
 51
106.0133722672
  0
ARC
  5
3BC
100
AcDbEntity
  8
A_ACHSEN
100
AcDbCircle
 62
7
  6
CONTINUOUS
 10
83.3544724665
 20
43.4060760296
 40
2.0
100
AcDbArc
 50
286.0133722672
 51
16.0133722672
  0
ARC
  5
3BD
100
AcDbEntity
  8
A_ACHSEN
100
AcDbCircle
 62
7
  6
CONTINUOUS
 10
80.0383416479
 20
42.454353174
 40
2.0
100
AcDbArc
 50
196.0133722672
 51
286.0133722672
  0
ARC
  5
3BE
100
AcDbEntity
  8
A_ACHSEN
100
AcDbCircle
 62
7
  6
CONTINUOUS
 10
79.0866187923
 20
45.7704839926
 40
2.0
100
AcDbArc
 50
157.079912965
 51
196.0133722672
  0
CIRCLE
  5
3BF
100
AcDbEntity
  8
A_ACHSEN
100
AcDbCircle
 62
7
  6
CONTINUOUS
 10
81.2205456294
 20
44.5882800111
 40
1.95
  0
CIRCLE
  5
3C0
100
AcDbEntity
  8
A_ACHSEN
100
AcDbCircle
 62
7
  6
CONTINUOUS
 10
81.2205456294
 20
44.5882800111
 40
1.3726497308
  0
ARC
  5
3C1
100
AcDbEntity
  8
0
100
AcDbCircle
 62
7
  6
CONTINUOUS
 10
83.5460048388
 20
47.3624295193
 40
1.0
100
AcDbArc
 50
16.0133722672
 51
90.0133526903
  0
ARC
  5
3C2
100
AcDbEntity
  8
0
100
AcDbCircle
 62
7
  6
CONTINUOUS
 10
84.6632447127
 20
43.4695802975
 40
1.0
100
AcDbArc
 50
302.0133918642
 51
16.0133722672
  0
ARC
  5
3C3
100
AcDbEntity
  8
A_RUNDUNGEN
100
AcDbCircle
 62
7
  6
CONTINUOUS
 10
84.6632447127
 20
43.4695802975
 40
0.9870747633
100
AcDbArc
 50
303.2139848966
 51
16.0133722672
  0
ARC
  5
3C4
100
AcDbEntity
  8
A_RUNDUNGEN
100
AcDbCircle
 62
7
  6
CONTINUOUS
 10
83.5460048388
 20
47.3624295193
 40
0.9870747633
100
AcDbArc
 50
16.0133722672
 51
88.8126312632
  0
ARC
  5
3C5
100
AcDbEntity
  8
0
100
AcDbCircle
 62
7
  6
CONTINUOUS
 10
63.9597221067
 20
67.1495167632
 40
3.0000004684
100
AcDbArc
 50
164.9999957379
 51
250.8118628942
  0
ARC
  5
3C6
100
AcDbEntity
  8
0
100
AcDbCircle
 62
7
  6
CONTINUOUS
 10
55.9705851067
 20
75.6495167632
 40
3.0
100
AcDbArc
 50
90.0
 51
180.0
  0
ARC
  5
3C7
100
AcDbEntity
  8
0
100
AcDbCircle
 62
7
  6
CONTINUOUS
 10
61.0609091067
 20
75.6495167632
 40
2.9999995024
100
AcDbArc
 50
345.0000031565
 51
90.0
  0
ARC
  5
3C8
100
AcDbEntity
  8
0
100
AcDbCircle
 62
7
  6
CONTINUOUS
 10
64.4949633134
 20
67.2628638908
 40
2.5
100
AcDbArc
 50
170.6934666922
 51
243.9357017781
  0
ARC
  5
3C9
100
AcDbEntity
  8
0
100
AcDbCircle
 62
7
  6
CONTINUOUS
 10
58.103932629
 20
54.1382098128
 40
2.5
100
AcDbArc
 50
238.6324354841
 51
270.0001739903
  0
ARC
  5
3CA
100
AcDbEntity
  8
0
100
AcDbCircle
 62
7
  6
CONTINUOUS
 10
65.4705851067
 20
67.6495167632
 40
2.5
100
AcDbArc
 50
270.0
 51
360.0
  0
ARC
  5
3CB
100
AcDbEntity
  8
0
100
AcDbCircle
 62
7
  6
CONTINUOUS
 10
64.6113342023
 20
67.6495165764
 40
2.4999998131
100
AcDbArc
 50
165.0000020428
 51
270.0
  0
ARC
  5
3CC
100
AcDbEntity
  8
0
100
AcDbCircle
 62
7
  6
CONTINUOUS
 10
61.0609091067
 20
75.6495167632
 40
2.0000003122
100
AcDbArc
 50
344.9999957379
 51
90.0
  0
ARC
  5
3CD
100
AcDbEntity
  8
0
100
AcDbCircle
 62
7
  6
CONTINUOUS
 10
54.9705851067
 20
64.3384167632
 40
2.0
100
AcDbArc
 50
180.0
 51
270.0
  0
ARC
  5
3CE
100
AcDbEntity
  8
0
100
AcDbCircle
 62
7
  6
CONTINUOUS
 10
55.9705851067
 20
75.6495167632
 40
2.0
100
AcDbArc
 50
90.0
 51
180.0
  0
ARC
  5
3CF
100
AcDbEntity
  8
0
100
AcDbCircle
 62
7
  6
CONTINUOUS
 10
64.3189721067
 20
78.1495167632
 40
2.0
100
AcDbArc
 50
345.0000020428
 51
90.0
  0
ARC
  5
3D0
100
AcDbEntity
  8
0
100
AcDbCircle
 62
7
  6
CONTINUOUS
 10
52.9705851067
 20
78.6495167632
 40
1.5
100
AcDbArc
 50
90.0
 51
180.0
  0
ARC
  5
3D1
100
AcDbEntity
  8
0
100
AcDbCircle
 62
7
  6
CONTINUOUS
 10
62.7765061067
 20
63.7495167632
 40
1.4111
100
AcDbArc
 50
270.0
 51
63.9357017781
  0
ARC
  5
3D2
100
AcDbEntity
  8
0
100
AcDbCircle
 62
7
  6
CONTINUOUS
 10
54.9705851067
 20
64.1495167632
 40
1.0
100
AcDbArc
 50
180.0
 51
270.0
  0
ARC
  5
3D3
100
AcDbEntity
  8
0
100
AcDbCircle
 62
7
  6
CONTINUOUS
 10
65.4705851067
 20
67.6495167632
 40
1.0
100
AcDbArc
 50
269.9999747337
 51
360.0
  0
ARC
  5
3D4
100
AcDbEntity
  8
0
100
AcDbCircle
 62
7
  6
CONTINUOUS
 10
64.6113341067
 20
67.6495167632
 40
0.9999996211
100
AcDbArc
 50
165.0000020428
 51
269.9999747337
  0
ARC
  5
3D5
100
AcDbEntity
  8
0
100
AcDbCircle
 62
7
  6
CONTINUOUS
 10
62.7765061067
 20
63.7495167632
 40
0.6
100
AcDbArc
 50
270.0
 51
70.8118628942
  0
ARC
  5
3D6
100
AcDbEntity
  8
0
100
AcDbCircle
 62
7
  6
CONTINUOUS
 10
58.4710327597
 20
53.7229492689
 40
0.5
100
AcDbArc
 50
90.5
 51
180.0
  0
ARC
  5
3D7
100
AcDbEntity
  8
0
100
AcDbCircle
 62
7
  6
CONTINUOUS
 10
88.4710327597
 20
51.3000661307
 40
0.5
100
AcDbArc
 50
0.0
 51
82.0
  0
ARC
  5
3D8
100
AcDbEntity
  8
0
100
AcDbCircle
 62
7
  6
CONTINUOUS
 10
59.8586204327
 20
53.3701532952
 40
0.5
100
AcDbArc
 50
255.0
 51
269.5
  0
ARC
  5
3D9
100
AcDbEntity
  8
0
100
AcDbCircle
 62
7
  6
CONTINUOUS
 10
82.2474711315
 20
52.1747306768
 40
0.5
100
AcDbArc
 50
82.0
 51
89.5
  0
ARC
  5
3DA
100
AcDbEntity
  8
0
100
AcDbCircle
 62
7
  6
CONTINUOUS
 10
89.6710327597
 20
53.1510722741
 40
0.5
100
AcDbArc
 50
0.0
 51
82.0
  0
ARC
  5
3DB
100
AcDbEntity
  8
0
100
AcDbCircle
 62
7
  6
CONTINUOUS
 10
86.4050530865
 20
53.6100757835
 40
0.5
100
AcDbArc
 50
82.0
 51
89.5
  0
ARC
  5
3DC
100
AcDbEntity
  8
0
100
AcDbCircle
 62
7
  6
CONTINUOUS
 10
53.4705851067
 20
78.1495167632
 40
0.5
100
AcDbArc
 50
90.0
 51
180.0
  0
ARC
  5
3DD
100
AcDbEntity
  8
0
100
AcDbCircle
 62
7
  6
CONTINUOUS
 10
64.3189721067
 20
78.1495167632
 40
0.4999999486
100
AcDbArc
 50
345.0000020428
 51
90.0
  0
ARC
  5
3DE
100
AcDbEntity
  8
0
100
AcDbCircle
 62
7
  6
CONTINUOUS
 10
58.2710327597
 20
53.588490894
 40
0.3
100
AcDbArc
 50
180.0
 51
255.0
  0
SPLINE
  5
3DF
100
AcDbEntity
  8
0
100
AcDbSpline
 62
7
  6
CONTINUOUS
 70
0
 71
3
 72
10
 73
6
 74
0
 42
0.0000001
 43
0.0000001
 44
0.0000000001
 40
0.0
 40
0.0
 40
0.0
 40
0.0
 40
0.6551570136
 40
0.8994846822
 40
1.0
 40
1.0
 40
1.0
 40
1.0
 10
23.866221839
 20
51.9832143601
 30
0.0
 10
23.7575712337
 20
52.0776669873
 30
0.0
 10
23.6088438314
 20
52.2078436937
 30
0.0
 10
23.4431195428
 20
52.3521590007
 30
0.0
 10
23.3868708643
 20
52.4029346343
 30
0.0
 10
23.3705851067
 20
52.417857729
 30
0.0
  0
SPLINE
  5
3E0
100
AcDbEntity
  8
0
100
AcDbSpline
 62
7
  6
CONTINUOUS
 70
0
 71
3
 72
11
 73
7
 74
0
 42
0.0000001
 43
0.0000001
 44
0.0000000001
 40
0.0
 40
0.0
 40
0.0
 40
0.0
 40
0.3824603805
 40
0.7068876089
 40
0.9238375877
 40
1.0
 40
1.0
 40
1.0
 40
1.0
 10
28.518519628
 20
28.2432323808
 30
0.0
 10
28.5137885185
 20
28.179562785
 30
0.0
 10
28.5051083046
 20
28.0618752532
 30
0.0
 10
28.4949260575
 20
27.9080053954
 30
0.0
 10
28.487530134
 20
27.8051573319
 30
0.0
 10
28.4859722447
 20
27.7562528384
 30
0.0
 10
28.4857491444
 20
27.743537403
 30
0.0
  0
SPLINE
  5
3E1
100
AcDbEntity
  8
0
100
AcDbSpline
 62
7
  6
CONTINUOUS
 70
0
 71
3
 72
23
 73
19
 74
0
 42
0.0000001
 43
0.0000001
 44
0.0000000001
 40
0.0
 40
0.0
 40
0.0
 40
0.0
 40
0.1948232824
 40
0.3821916417
 40
0.5549452061
 40
0.7064611219
 40
0.7723945044
 40
0.8309053993
 40
0.8814258424
 40
0.9234646819
 40
0.9411720285
 40
0.9566124346
 40
0.9697490135
 40
0.9805485518
 40
0.9889820318
 40
0.9950415198
 40
0.9987358788
 40
1.0
 40
1.0
 40
1.0
 40
1.0
 10
84.7375669335
 20
28.8514558815
 30
0.0
 10
84.7399770779
 20
28.8190210112
 30
0.0
 10
84.744651828
 20
28.7553884176
 30
0.0
 10
84.751279087
 20
28.6629817496
 30
0.0
 10
84.7572228027
 20
28.5777746303
 30
0.0
 10
84.7616025741
 20
28.5127804775
 30
0.0
 10
84.7645818958
 20
28.466807396
 30
0.0
 10
84.7664099433
 20
28.4376555747
 30
0.0
 10
84.7679219266
 20
28.4124808659
 30
0.0
 10
84.7689567872
 20
28.394101713
 30
0.0
 10
84.769609796
 20
28.3815668507
 30
0.0
 10
84.7699844389
 20
28.3738490963
 30
0.0
 10
84.7702643839
 20
28.367281365
 30
0.0
 10
84.7704562114
 20
28.36188094
 30
0.0
 10
84.7705868086
 20
28.3576603886
 30
0.0
 10
84.7706332487
 20
28.3546245718
 30
0.0
 10
84.7705195999
 20
28.3527838677
 30
0.0
 10
84.7703800012
 20
28.3519678526
 30
0.0
 10
84.770337417
 20
28.3517609036
 30
0.0
  0
SPLINE
  5
3E2
100
AcDbEntity
  8
0
100
AcDbSpline
 62
7
  6
CONTINUOUS
 70
0
 71
3
 72
29
 73
25
 74
0
 42
0.0000001
 43
0.0000001
 44
0.0000000001
 40
0.0
 40
0.0
 40
0.0
 40
0.0
 40
0.1950583915
 40
0.3826204861
 40
0.4713196627
 40
0.5554802621
 40
0.6342916146
 40
0.7069948097
 40
0.7728897017
 40
0.8313417846
 40
0.8817883217
 40
0.9038547255
 40
0.9237439049
 40
0.9414081911
 40
0.9568053023
 40
0.9698981173
 40
0.9806561017
 40
0.9890534941
 40
0.9923614601
 40
0.9950730733
 40
0.9971873987
 40
0.9987054584
 40
0.9996320538
 40
1.0
 40
1.0
 40
1.0
 40
1.0
 10
65.966669492
 20
26.8884388557
 30
0.0
 10
65.9666684598
 20
26.8559215169
 30
0.0
 10
65.9667238331
 20
26.7921365022
 30
0.0
 10
65.9669268205
 20
26.7135650593
 30
0.0
 10
65.9671733285
 20
26.6534811872
 30
0.0
 10
65.9673913573
 20
26.6115267415
 30
0.0
 10
65.9676437499
 20
26.5722391589
 30
0.0
 10
65.9679279394
 20
26.535996874
 30
0.0
 10
65.9682408721
 20
26.5031489652
 30
0.0
 10
65.9685792975
 20
26.4740118383
 30
0.0
 10
65.9688913142
 20
26.4521814152
 30
0.0
 10
65.9691566721
 20
26.4367797289
 30
0.0
 10
65.9693509283
 20
26.4268426577
 30
0.0
 10
65.9695487685
 20
26.418017664
 30
0.0
 10
65.9697495817
 20
26.4103261994
 30
0.0
 10
65.9699524125
 20
26.403786151
 30
0.0
 10
65.9701565138
 20
26.3984148669
 30
0.0
 10
65.9703371495
 20
26.3946723915
 30
0.0
 10
65.9704883851
 20
26.3922766405
 30
0.0
 10
65.9705929803
 20
26.3909184869
 30
0.0
 10
65.9706942256
 20
26.3898816601
 30
0.0
 10
65.9707978207
 20
26.3890918333
 30
0.0
 10
65.9708845588
 20
26.3886974066
 30
0.0
 10
65.9709714233
 20
26.3884192813
 30
0.0
 10
65.9710327597
 20
26.3884198165
 30
0.0
  0
SPLINE
  5
3E3
100
AcDbEntity
  8
0
100
AcDbSpline
 62
7
  6
CONTINUOUS
 70
0
 71
3
 72
14
 73
10
 74
0
 42
0.0000001
 43
0.0000001
 44
0.0000000001
 40
0.0
 40
0.0
 40
0.0
 40
0.0
 40
0.0829335182
 40
0.1605354772
 40
0.2492026624
 40
0.3605140812
 40
0.4976246273
 40
0.6552667207
 40
1.0
 40
1.0
 40
1.0
 40
1.0
 10
20.9705851067
 20
48.7193546467
 30
0.0
 10
20.9705851067
 20
48.7096116422
 30
0.0
 10
20.9731291443
 20
48.6903368806
 30
0.0
 10
20.990952929
 20
48.6654309085
 30
0.0
 10
21.0217685204
 20
48.6517551591
 30
0.0
 10
21.0615319439
 20
48.6479799899
 30
0.0
 10
21.1091758164
 20
48.6535917109
 30
0.0
 10
21.181895424
 20
48.6730526843
 30
0.0
 10
21.2357829606
 20
48.698642509
 30
0.0
 10
21.2705851067
 20
48.7193546467
 30
0.0
  0
SPLINE
  5
3E4
100
AcDbEntity
  8
0
100
AcDbSpline
 62
7
  6
CONTINUOUS
 70
0
 71
3
 72
14
 73
10
 74
0
 42
0.0000001
 43
0.0000001
 44
0.0000000001
 40
0.0
 40
0.0
 40
0.0
 40
0.0
 40
0.3447295497
 40
0.5023705205
 40
0.6394779847
 40
0.7507918068
 40
0.8394629131
 40
0.917065907
 40
1.0
 40
1.0
 40
1.0
 40
1.0
 10
21.2705851067
 20
31.7796788798
 30
0.0
 10
21.235783348
 20
31.8003907869
 30
0.0
 10
21.1818962815
 20
31.8259801028
 30
0.0
 10
21.10917791
 20
31.8454417606
 30
0.0
 10
21.0615341383
 20
31.8510536522
 30
0.0
 10
21.0217706503
 20
31.8472779666
 30
0.0
 10
20.9909533492
 20
31.8336036152
 30
0.0
 10
20.9731292666
 20
31.80869682
 30
0.0
 10
20.9705851067
 20
31.7894219488
 30
0.0
 10
20.9705851067
 20
31.7796788798
 30
0.0
  0
SPLINE
  5
3E5
100
AcDbEntity
  8
0
100
AcDbSpline
 62
7
  6
CONTINUOUS
 70
0
 71
3
 72
14
 73
10
 74
0
 42
0.0000001
 43
0.0000001
 44
0.0000000001
 40
0.0
 40
0.0
 40
0.0
 40
0.0
 40
0.082933518
 40
0.1605354768
 40
0.2492026614
 40
0.3605140798
 40
0.4976246262
 40
0.6552667196
 40
1.0
 40
1.0
 40
1.0
 40
1.0
 10
20.9705851067
 20
28.7193546467
 30
0.0
 10
20.9705851067
 20
28.7096116422
 30
0.0
 10
20.9731291442
 20
28.6903368807
 30
0.0
 10
20.9909529289
 20
28.6654309088
 30
0.0
 10
21.02176852
 20
28.6517551591
 30
0.0
 10
21.0615319434
 20
28.6479799899
 30
0.0
 10
21.109175816
 20
28.6535917108
 30
0.0
 10
21.1818954238
 20
28.6730526841
 30
0.0
 10
21.2357829605
 20
28.6986425089
 30
0.0
 10
21.2705851067
 20
28.7193546467
 30
0.0
  0
SPLINE
  5
3E6
100
AcDbEntity
  8
0
100
AcDbSpline
 62
7
  6
CONTINUOUS
 70
0
 71
3
 72
14
 73
10
 74
0
 42
0.0000001
 43
0.0000001
 44
0.0000000001
 40
0.0
 40
0.0
 40
0.0
 40
0.0
 40
0.3447295477
 40
0.5023705185
 40
0.6394779821
 40
0.7507918052
 40
0.8394629123
 40
0.9170659067
 40
1.0
 40
1.0
 40
1.0
 40
1.0
 10
21.2705851067
 20
51.7796788798
 30
0.0
 10
21.2357833482
 20
51.8003907868
 30
0.0
 10
21.181896282
 20
51.8259801026
 30
0.0
 10
21.1091779108
 20
51.8454417605
 30
0.0
 10
21.0615341391
 20
51.8510536522
 30
0.0
 10
21.021770651
 20
51.8472779666
 30
0.0
 10
20.9909533494
 20
51.8336036156
 30
0.0
 10
20.9731292668
 20
51.80869682
 30
0.0
 10
20.9705851067
 20
51.7894219488
 30
0.0
 10
20.9705851067
 20
51.7796788798
 30
0.0
  0
ELLIPSE
  5
3E7
100
AcDbEntity
  8
0
100
AcDbEllipse
 62
7
  6
CONTINUOUS
 10
52.4705660675
 20
28.0381958024
 30
0.0
 11
-0.3535803156
 21
0.3535803156
 31
0.0
 40
0.9999238505
 41
2.3562325664
 42
3.9269527408
  0
ELLIPSE
  5
3E8
100
AcDbEntity
  8
0
100
AcDbEllipse
 62
7
  6
CONTINUOUS
 10
26.6119679476
 20
33.3381958024
 30
0.0
 11
0.0412418469
 21
0.4983154423
 31
0.0
 40
0.9999616623
 41
3.0590214662
 42
3.224163841
  0
ELLIPSE
  5
3E9
100
AcDbEntity
  8
0
100
AcDbEllipse
 62
7
  6
CONTINUOUS
 10
24.0706041459
 20
33.7617564361
 30
0.0
 11
0.3815349433
 21
0.3232085856
 31
0.0
 40
0.9999346008
 41
2.4388010845
 42
3.8443842227
  0
ELLIPSE
  5
3EA
100
AcDbEntity
  8
0
100
AcDbEllipse
 62
7
  6
CONTINUOUS
 10
24.0706041459
 20
50.1145970904
 30
0.0
 11
0.3815349433
 21
-0.3232085856
 31
0.0
 40
0.9999346008
 41
2.4388010845
 42
3.8443842227
  0
ELLIPSE
  5
3EB
100
AcDbEntity
  8
0
100
AcDbEllipse
 62
7
  6
CONTINUOUS
 10
26.6119679476
 20
50.5381577241
 30
0.0
 11
0.0412418469
 21
-0.4983154423
 31
0.0
 40
0.9999616623
 41
3.0590214662
 42
3.224163841
  0
ELLIPSE
  5
3EC
100
AcDbEntity
  8
0
100
AcDbEllipse
 62
7
  6
CONTINUOUS
 10
85.3710137203
 20
50.8384045853
 30
0.0
 11
-0.3904587865
 21
-0.3123670292
 31
0.0
 40
0.9999375561
 41
2.4668821725
 42
3.8163031346
  0
ELLIPSE
  5
3ED
100
AcDbEntity
  8
0
100
AcDbEllipse
 62
7
  6
CONTINUOUS
 10
85.3710137204
 20
34.9488131494
 30
0.0
 11
-0.4056445615
 21
0.2923720578
 31
0.0
 40
0.999942144
 41
2.5170972114
 42
3.7660880958
  0
ELLIPSE
  5
3EE
100
AcDbEntity
  8
0
100
AcDbEllipse
 62
7
  6
CONTINUOUS
 10
82.7898908399
 20
34.0884388558
 30
0.0
 11
-0.0800942516
 21
0.4935630171
 31
0.0
 40
0.9999609204
 41
-3.3024617518
 42
-2.9807235554
  0
ELLIPSE
  5
3EF
100
AcDbEntity
  8
0
100
AcDbEllipse
 62
7
  6
CONTINUOUS
 10
62.4708804461
 20
30.43857213
 30
0.0
 11
-2.8286425246
 21
2.8286425245
 31
0.0
 40
0.9999238505
 41
2.3562325664
 42
3.9269527408
  0
ELLIPSE
  5
3F0
100
AcDbEntity
  8
0
100
AcDbEllipse
 62
7
  6
CONTINUOUS
 10
56.9710517989
 20
26.9384388556
 30
0.0
 11
0.3535803156
 21
0.3535803156
 31
0.0
 40
0.9999238505
 41
2.3562325664
 42
3.9269527408
  0
ELLIPSE
  5
3F1
100
AcDbEntity
  8
0
100
AcDbEllipse
 62
7
  6
CONTINUOUS
 10
56.9710517987
 20
52.7216457947
 30
0.0
 11
0.3520344055
 21
-0.3551199681
 31
0.0
 40
0.9999231802
 41
2.351869577
 42
3.9313157302
  0
ELLIPSE
  5
3F2
100
AcDbEntity
  8
0
100
AcDbEllipse
 62
7
  6
CONTINUOUS
 10
68.4711089164
 20
31.5883436597
 30
0.0
 11
1.4143212623
 21
-1.4143212622
 31
0.0
 40
0.9999238505
 41
2.3562325664
 42
3.9269527408
  0
ELLIPSE
  5
3F3
100
AcDbEntity
  8
0
100
AcDbEllipse
 62
7
  6
CONTINUOUS
 10
72.4299974419
 20
34.0730193711
 30
0.0
 11
-0.5000190392
 21
0.0
 31
0.0
 40
0.9999619231
 41
1.6353241911
 42
1.814811735
  0
ELLIPSE
  5
3F4
100
AcDbEntity
  8
0
100
AcDbEllipse
 62
7
  6
CONTINUOUS
 10
72.4622868527
 20
33.9686175229
 30
0.0
 11
0.355126315
 21
-0.3520270566
 31
0.0
 40
0.9999245121
 41
-0.7810161374
 42
-0.0841802169
  0
ELLIPSE
  5
3F5
100
AcDbEntity
  8
0
100
AcDbEllipse
 62
7
  6
CONTINUOUS
 10
72.4622868527
 20
34.0730193711
 30
0.0
 11
0.5000190392
 21
0.0
 31
0.0
 40
0.9999619231
 41
-1.5707963268
 42
-1.3267809186
  0
ELLIPSE
  5
3F6
100
AcDbEntity
  8
0
100
AcDbEllipse
 62
7
  6
CONTINUOUS
 10
19.4492647632
 20
50.2495167632
 30
0.0
 11
-2.8284271247
 21
0.0
 31
0.0
 40
0.7071067812
 41
8.5536107599
 42
8.9548127157
  0
ELLIPSE
  5
3F7
100
AcDbEntity
  8
0
100
AcDbEllipse
 62
7
  6
CONTINUOUS
 10
19.4492647632
 20
50.2495167632
 30
0.0
 11
-2.8284271247
 21
0.0
 31
0.0
 40
0.7071067812
 41
9.8947654302
 42
10.2959451616
  0
ELLIPSE
  5
3F8
100
AcDbEntity
  8
0
100
AcDbEllipse
 62
7
  6
CONTINUOUS
 10
19.4492647632
 20
30.2495167632
 30
0.0
 11
-2.8284271247
 21
0.0
 31
0.0
 40
0.7071067812
 41
2.2704254527
 42
2.6716274296
  0
ELLIPSE
  5
3F9
100
AcDbEntity
  8
0
100
AcDbEllipse
 62
7
  6
CONTINUOUS
 10
19.4492647632
 20
30.2495167632
 30
0.0
 11
-2.8284271247
 21
0.0
 31
0.0
 40
0.7071067812
 41
3.6115801146
 42
4.0127598544
  0
ENDSEC
  0
SECTION
  2
OBJECTS
  0
DICTIONARY
  5
3FA
100
AcDbDictionary
  3
ACAD_GROUP
350
3FB
  3
ACAD_MLINESTYLE
350
3FC
  0
DICTIONARY
  5
3FB
102
{ACAD_REACTORS
330
3FA
102
}
100
AcDbDictionary
  0
DICTIONARY
  5
3FC
102
{ACAD_REACTORS
330
3FA
102
}
100
AcDbDictionary
  3
STANDARD
350
3FD
  0
MLINESTYLE
  5
3FD
102
{ACAD_REACTORS
330
3FC
102
}
100
AcDbMlineStyle
  2
STANDARD
 70
0
  3

 62
256
 51
90.0
 52
90.0
 71
2
 49
0.5
 62
256
  6
BYLAYER
 49
-0.5
 62
256
  6
BYLAYER
  0
ENDSEC
  0
EOF
