999
DXF file: d:\tmp\workingDir\0000103931\5_400695_0_00000_mkt_q_01_01.dxf
999
Pro/ENGINEER 2016380 by Parametric Technology Corporation
  0
SECTION
  2
HEADER
  9
$ACADVER
  1
AC1014
  9
$DWGCODEPAGE
  3
ANSI_1252
  9
$EXTMAX
 10
160.02
 20
100.0
 30
0.0
  9
$EXTMIN
 10
0.0
 20
-0.0
 30
0.0
  9
$LIMMIN
 10
0.0
 20
-0.0
  9
$LIMMAX
 10
160.02
 20
100.0
  9
$VIEWCTR
 10
80.01
 20
50.0
  9
$VIEWSIZE
 40
100.0
  9
$CLAYER
  8
0
  9
$LTSCALE
 40
8.8011
  9
$CELTYPE
  6
BYLAYER
  9
$DIMSCALE
 40
1.0
  9
$DIMASZ
 40
3.5
  9
$DIMEXO
 40
0.0
  9
$DIMDLI
 40
6.08076
  9
$DIMEXE
 40
2.0
  9
$DIMCEN
 40
1.44018
  9
$DIMLFAC
 40
1.0
  9
$DIMBLK
  1
_ARROW_FILLED
  9
$DIMALT
 70
0
  9
$DIMALTF
 40
25.4
  9
$DIMTXT
 40
3.5
  9
$DIMTOL
 70
1
  9
$DIMLIM
 70
0
  9
$DIMTFAC
 40
1.0
  9
$DIMTP
 40
0.01
  9
$DIMTM
 40
0.01
  9
$DIMGAP
 40
0.625
  9
$AUNITS
 70
0
  9
$PDMODE
 70
0
  9
$PDSIZE
 40
0.04
  9
$HANDSEED
  5
4AA
  9
$TILEMODE
 70
1
  9
$MEASUREMENT
 70
1
  0
ENDSEC
  0
SECTION
  2
CLASSES
  0
ENDSEC
  0
SECTION
  2
TABLES
  0
TABLE
  2
VPORT
  5
8
100
AcDbSymbolTable
 70
2
  0
VPORT
  5
1F4
100
AcDbSymbolTableRecord
100
AcDbViewportTableRecord
  2
*ACTIVE
 70
0
 10
0.0
 20
0.0
 11
1.0
 21
1.0
 12
80.01
 22
50.0
 13
0.0
 23
0.0
 14
1.0
 24
1.0
 15
0.0
 25
0.0
 16
0.0
 26
0.0
 36
1.0
 17
0.0
 27
0.0
 37
0.0
 40
100.0
 41
1.6002
 42
50.0
 43
0.0
 44
0.0
 50
0.0
 51
0.0
 71
0
 72
100
 73
1
 74
1
 75
0
 76
0
 77
0
 78
0
  0
ENDTAB
  0
TABLE
  2
LTYPE
  5
5
100
AcDbSymbolTable
 70
6
  0
LTYPE
  5
14
100
AcDbSymbolTableRecord
100
AcDbLinetypeTableRecord
  2
BYBLOCK
 70
0
  3

 72
65
 73
0
 40
0.0
  0
LTYPE
  5
15
100
AcDbSymbolTableRecord
100
AcDbLinetypeTableRecord
  2
BYLAYER
 70
0
  3

 72
65
 73
0
 40
0.0
  0
LTYPE
  5
16
100
AcDbSymbolTableRecord
100
AcDbLinetypeTableRecord
  2
CONTINUOUS
 70
64
  3
Solid line
 72
65
 73
0
 40
0.0
  0
LTYPE
  5
1F5
100
AcDbSymbolTableRecord
100
AcDbLinetypeTableRecord
  2
CENTER
 70
64
  3
____ _ ____ _ ____ _ ____ _ ____ _ ____ _ ____
 72
65
 73
4
 40
0.6
 49
0.375
 74
0
 49
-0.075
 74
0
 49
0.075
 74
0
 49
-0.075
 74
0
  0
LTYPE
  5
1F6
100
AcDbSymbolTableRecord
100
AcDbLinetypeTableRecord
  2
HIDDEN
 70
64
  3
- - - - - - - - - - - - - - - - - - - -
 72
65
 73
2
 40
0.2
 49
0.1
 74
0
 49
-0.1
 74
0
  0
LTYPE
  5
1F7
100
AcDbSymbolTableRecord
100
AcDbLinetypeTableRecord
  2
PHANTOM
 70
64
  3
_____ _ _ _____ _ _ _____ _ _ _____
 72
65
 73
6
 40
0.8
 49
0.45
 74
0
 49
-0.05
 74
0
 49
0.1
 74
0
 49
-0.05
 74
0
 49
0.1
 74
0
 49
-0.05
 74
0
  0
LTYPE
  5
1F8
100
AcDbSymbolTableRecord
100
AcDbLinetypeTableRecord
  2
DOT
 70
64
  3
. . . . . . . . . . . . . . . . . . . .
 72
65
 73
2
 40
0.2
 49
0.1
 74
0
 49
-0.1
 74
0
  0
LTYPE
  5
1F9
100
AcDbSymbolTableRecord
100
AcDbLinetypeTableRecord
  2
DASHED
 70
64
  3
- - - - - - - - - - - - - - - - - - - -
 72
65
 73
2
 40
0.2
 49
0.1
 74
0
 49
-0.1
 74
0
  0
ENDTAB
  0
TABLE
  2
LAYER
  5
2
100
AcDbSymbolTable
 70
36
  0
LAYER
  5
10
100
AcDbSymbolTableRecord
100
AcDbLayerTableRecord
  2
0
 70
0
 62
7
  6
CONTINUOUS
  0
LAYER
  5
1FA
100
AcDbSymbolTableRecord
100
AcDbLayerTableRecord
  2
DEFAULT_1
 70
0
 62
7
  6
CENTER
  0
LAYER
  5
1FB
100
AcDbSymbolTableRecord
100
AcDbLayerTableRecord
  2
DEFAULT_2
 70
0
 62
8
  6
HIDDEN
  0
LAYER
  5
1FC
100
AcDbSymbolTableRecord
100
AcDbLayerTableRecord
  2
DEFAULT_3
 70
0
 62
7
  6
PHANTOM
  0
LAYER
  5
1FD
100
AcDbSymbolTableRecord
100
AcDbLayerTableRecord
  2
A_ACHSEN
 70
0
 62
7
  6
CONTINUOUS
  0
LAYER
  5
1FE
100
AcDbSymbolTableRecord
100
AcDbLayerTableRecord
  2
A_BASISEBENEN
 70
0
 62
7
  6
CONTINUOUS
  0
LAYER
  5
1FF
100
AcDbSymbolTableRecord
100
AcDbLayerTableRecord
  2
A_BEMASSUNGEN
 70
0
 62
7
  6
CONTINUOUS
  0
LAYER
  5
200
100
AcDbSymbolTableRecord
100
AcDbLayerTableRecord
  2
A_BOHRUNGEN
 70
0
 62
7
  6
CONTINUOUS
  0
LAYER
  5
201
100
AcDbSymbolTableRecord
100
AcDbLayerTableRecord
  2
A_EBENEN
 70
0
 62
7
  6
CONTINUOUS
  0
LAYER
  5
202
100
AcDbSymbolTableRecord
100
AcDbLayerTableRecord
  2
A_FASEN
 70
0
 62
7
  6
CONTINUOUS
  0
LAYER
  5
203
100
AcDbSymbolTableRecord
100
AcDbLayerTableRecord
  2
A_FLAECHEN
 70
0
 62
7
  6
CONTINUOUS
  0
LAYER
  5
204
100
AcDbSymbolTableRecord
100
AcDbLayerTableRecord
  2
A_FL_VERBAENDE
 70
0
 62
7
  6
CONTINUOUS
  0
LAYER
  5
205
100
AcDbSymbolTableRecord
100
AcDbLayerTableRecord
  2
A_KURVEN
 70
0
 62
7
  6
CONTINUOUS
  0
LAYER
  5
206
100
AcDbSymbolTableRecord
100
AcDbLayerTableRecord
  2
A_NOTIZEN_SYMB
 70
0
 62
7
  6
CONTINUOUS
  0
LAYER
  5
207
100
AcDbSymbolTableRecord
100
AcDbLayerTableRecord
  2
A_PUNKTE
 70
0
 62
7
  6
CONTINUOUS
  0
LAYER
  5
208
100
AcDbSymbolTableRecord
100
AcDbLayerTableRecord
  2
A_RUNDUNGEN
 70
0
 62
7
  6
CONTINUOUS
  0
LAYER
  5
209
100
AcDbSymbolTableRecord
100
AcDbLayerTableRecord
  2
BASISEBENEN
 70
0
 62
7
  6
CONTINUOUS
  0
LAYER
  5
20A
100
AcDbSymbolTableRecord
100
AcDbLayerTableRecord
  2
XSEC_DATUMS
 70
0
 62
7
  6
CONTINUOUS
  0
ENDTAB
  0
TABLE
  2
STYLE
  5
3
100
AcDbSymbolTable
 70
1
  0
STYLE
  5
11
100
AcDbSymbolTableRecord
100
AcDbTextStyleTableRecord
  2
STANDARD
 70
0
 40
0.0
 41
1.0
 50
0.0
 71
0
 42
0.2
  3
txt
  4

  0
STYLE
  5
20B
100
AcDbSymbolTableRecord
100
AcDbTextStyleTableRecord
  2
TEXTSTYLE_1
 70
0
 40
0.0
 41
0.8
 50
0.0
 71
0
 42
0.2
  3
gdt
  4

  0
STYLE
  5
20C
100
AcDbSymbolTableRecord
100
AcDbTextStyleTableRecord
  2
TEXTSTYLE_2
 70
0
 40
0.0
 41
1.0
 50
0.0
 71
0
 42
0.2
  3
txt
  4

  0
ENDTAB
  0
TABLE
  2
VIEW
  5
6
100
AcDbSymbolTable
 70
0
  0
ENDTAB
  0
TABLE
  2
UCS
  5
7
100
AcDbSymbolTable
 70
0
  0
ENDTAB
  0
TABLE
  2
APPID
  5
9
100
AcDbSymbolTable
 70
1
  0
APPID
  5
20D
100
AcDbSymbolTableRecord
100
AcDbRegAppTableRecord
  2
ACAD
 70
0
  0
ENDTAB
  0
TABLE
  2
BLOCK_RECORD
  5
1
100
AcDbSymbolTable
 70
0
  0
BLOCK_RECORD
  5
1F
100
AcDbSymbolTableRecord
100
AcDbBlockTableRecord
  2
*MODEL_SPACE
  0
BLOCK_RECORD
  5
1B
100
AcDbSymbolTableRecord
100
AcDbBlockTableRecord
  2
*PAPER_SPACE
  0
BLOCK_RECORD
  5
20E
100
AcDbSymbolTableRecord
100
AcDbBlockTableRecord
  2
_ARROW_FILLED
  0
BLOCK_RECORD
  5
20F
100
AcDbSymbolTableRecord
100
AcDbBlockTableRecord
  2
*D0
  0
BLOCK_RECORD
  5
210
100
AcDbSymbolTableRecord
100
AcDbBlockTableRecord
  2
*D1
  0
BLOCK_RECORD
  5
211
100
AcDbSymbolTableRecord
100
AcDbBlockTableRecord
  2
*D2
  0
BLOCK_RECORD
  5
212
100
AcDbSymbolTableRecord
100
AcDbBlockTableRecord
  2
*D3
  0
BLOCK_RECORD
  5
213
100
AcDbSymbolTableRecord
100
AcDbBlockTableRecord
  2
*D4
  0
BLOCK_RECORD
  5
214
100
AcDbSymbolTableRecord
100
AcDbBlockTableRecord
  2
*D5
  0
BLOCK_RECORD
  5
215
100
AcDbSymbolTableRecord
100
AcDbBlockTableRecord
  2
*D6
  0
BLOCK_RECORD
  5
216
100
AcDbSymbolTableRecord
100
AcDbBlockTableRecord
  2
*D7
  0
BLOCK_RECORD
  5
217
100
AcDbSymbolTableRecord
100
AcDbBlockTableRecord
  2
*D8
  0
ENDTAB
  0
TABLE
  2
DIMSTYLE
  5
A
100
AcDbSymbolTable
 70
1
  0
DIMSTYLE
105
218
100
AcDbSymbolTableRecord
100
AcDbDimStyleTableRecord
  2
STANDARD
 70
0
  3

  4

  5
_ARROW_FILLED
  6
_ARROW_FILLED
  7
_ARROW_FILLED
 40
1.0
 41
3.5
 42
0.0
 43
0.38
 44
2.0
 45
0.0
 46
0.0
 47
0.01
 48
0.01
140
3.5
141
0.09
142
0.0
143
25.4
144
1.0
145
0.0
146
1.0
147
0.625
 71
1.0
 72
0.0
 73
0
 74
0
 75
0
 76
0
 77
1
 78
8
170
0
171
1
172
0
173
0
174
0
175
0
176
0
177
0
178
5
270
2
271
2
272
2
273
2
274
2
275
0
280
0
281
0
282
0
283
1
284
8
285
0
286
0
287
3
288
0
340
11
  0
DIMSTYLE
105
219
100
AcDbSymbolTableRecord
100
AcDbDimStyleTableRecord
  2
DIMSTYLE_1
 70
0
  3

  4

  5
_ARROW_FILLED
  6
_ARROW_FILLED
  7
_ARROW_FILLED
 40
1.0
 41
3.5
 42
0.0
 43
0.38
 44
2.0
 45
0.0
 46
0.0
 47
0.3
 48
0.3
140
3.5
141
0.09
142
0.0
143
25.4
144
1.0
145
0.0
146
1.0
147
0.875
 71
0.0
 72
0.0
 73
0
 74
0
 75
0
 76
0
 77
1
 78
8
170
0
171
1
172
0
173
0
174
0
175
0
176
0
177
0
178
5
270
2
271
4
272
-1
273
2
274
2
275
0
280
0
281
0
282
0
283
1
284
8
285
0
286
0
287
3
288
0
340
20C
  0
DIMSTYLE
105
21A
100
AcDbSymbolTableRecord
100
AcDbDimStyleTableRecord
  2
DIMSTYLE_2
 70
0
  3

  4

  5
_ARROW_FILLED
  6
_ARROW_FILLED
  7
_ARROW_FILLED
 40
1.0
 41
3.5
 42
0.0
 43
0.38
 44
2.0
 45
0.0
 46
0.0
 47
0.2
 48
0.2
140
3.5
141
0.09
142
0.0
143
25.4
144
1.0
145
0.0
146
1.0
147
0.875
 71
0.0
 72
0.0
 73
0
 74
0
 75
0
 76
0
 77
1
 78
8
170
0
171
1
172
0
173
0
174
0
175
0
176
0
177
0
178
5
270
2
271
4
272
-1
273
2
274
2
275
0
280
0
281
0
282
0
283
1
284
8
285
0
286
0
287
3
288
0
340
20C
  0
DIMSTYLE
105
21B
100
AcDbSymbolTableRecord
100
AcDbDimStyleTableRecord
  2
DIMSTYLE_3
 70
0
  3

  4

  5
_ARROW_FILLED
  6
_ARROW_FILLED
  7
_ARROW_FILLED
 40
1.0
 41
3.5
 42
0.0
 43
0.38
 44
2.0
 45
0.0
 46
0.0
 47
0.1
 48
0.1
140
3.5
141
0.09
142
0.0
143
25.4
144
1.0
145
0.0
146
1.0
147
0.875
 71
0.0
 72
0.0
 73
0
 74
0
 75
0
 76
0
 77
1
 78
8
170
0
171
1
172
0
173
0
174
0
175
0
176
0
177
0
178
5
270
2
271
4
272
-1
273
2
274
2
275
0
280
0
281
0
282
0
283
1
284
8
285
0
286
0
287
3
288
0
340
20C
  0
ENDTAB
  0
ENDSEC
  0
SECTION
  2
BLOCKS
  0
BLOCK
  5
20
100
AcDbEntity
  8
0
100
AcDbBlockBegin
  2
*MODEL_SPACE
 70
0
 10
0.0
 20
0.0
 30
0.0
  3
*MODEL_SPACE
  1

  0
ENDBLK
  5
21
100
AcDbEntity
  8
0
100
AcDbBlockEnd
  0
BLOCK
  5
1C
100
AcDbEntity
  8
0
100
AcDbBlockBegin
  2
*PAPER_SPACE
 70
0
 10
0.0
 20
0.0
 30
0.0
  3
*PAPER_SPACE
  1

  0
ENDBLK
  5
1D
100
AcDbEntity
  8
0
100
AcDbBlockEnd
  0
BLOCK
  5
21C
100
AcDbEntity
  8
0
100
AcDbBlockBegin
  2
_ARROW_FILLED
 70
64
 10
0.0
 20
0.0
  3
_ARROW_FILLED
  1

  0
SOLID
  5
21D
100
AcDbEntity
  8
0
  6
BYBLOCK
 62
0
100
AcDbTrace
 10
0.0
 20
0.0
 11
-1.0
 21
0.1428571429
 12
-1.0
 22
-0.1428571429
 13
-1.0
 23
-0.1428571429
  0
ENDBLK
  5
21E
100
AcDbEntity
  8
0
  6
BYBLOCK
 62
0
100
AcDbBlockEnd
  0
BLOCK
  5
21F
100
AcDbEntity
  8
A_BEMASSUNGEN
100
AcDbBlockBegin
 62
2
  6
CONTINUOUS
  2
*D0
 70
65
 10
0.0
 20
0.0
  3
*D0
  1

  0
MTEXT
  5
220
100
AcDbEntity
  8
A_BEMASSUNGEN
100
AcDbMText
 62
5
  6
CONTINUOUS
  7
TEXTSTYLE_2
 71
2
 72
1
 10
15.3907994035
 20
51.908380776
 30
0.0
 11
0.0
 21
1.0
 31
0.0
  1
32
 40
3.5
 41
7.875
  0
LINE
  5
221
100
AcDbEntity
  8
A_BEMASSUNGEN
100
AcDbLine
 62
2
  6
CONTINUOUS
 10
32.2855622253
 20
67.908380776
 11
17.7657994035
 21
67.908380776
  0
LINE
  5
222
100
AcDbEntity
  8
A_BEMASSUNGEN
100
AcDbLine
 62
2
  6
CONTINUOUS
 10
32.2855622253
 20
35.908380776
 11
17.7657994035
 21
35.908380776
  0
LINE
  5
223
100
AcDbEntity
  8
A_BEMASSUNGEN
100
AcDbLine
 62
2
  6
CONTINUOUS
 10
19.7657994035
 20
67.908380776
 11
19.7657994035
 21
51.908380776
  0
LINE
  5
224
100
AcDbEntity
  8
A_BEMASSUNGEN
100
AcDbLine
 62
2
  6
CONTINUOUS
 10
19.7657994035
 20
35.908380776
 11
19.7657994035
 21
51.908380776
  0
INSERT
  5
225
100
AcDbEntity
  8
A_BEMASSUNGEN
100
AcDbBlockReference
 62
2
  6
CONTINUOUS
  2
_ARROW_FILLED
 10
19.7657994035
 20
67.908380776
 41
3.5
 42
3.5
 43
3.5
 50
90.0
  0
INSERT
  5
226
100
AcDbEntity
  8
A_BEMASSUNGEN
100
AcDbBlockReference
 62
2
  6
CONTINUOUS
  2
_ARROW_FILLED
 10
19.7657994035
 20
35.908380776
 41
3.5
 42
3.5
 43
3.5
 50
270.0
  0
ENDBLK
  5
227
100
AcDbEntity
  8
0
  6
BYBLOCK
 62
0
100
AcDbBlockEnd
  0
BLOCK
  5
228
100
AcDbEntity
  8
A_BEMASSUNGEN
100
AcDbBlockBegin
 62
2
  6
CONTINUOUS
  2
*D1
 70
65
 10
0.0
 20
0.0
  3
*D1
  1

  0
MTEXT
  5
229
100
AcDbEntity
  8
A_BEMASSUNGEN
100
AcDbMText
 62
5
  6
CONTINUOUS
  7
TEXTSTYLE_2
 71
2
 72
1
 10
6.0548123765
 20
26.908380776
 30
0.0
 11
0.0
 21
1.0
 31
0.0
  1
8
 40
3.5
 41
4.125
  0
LINE
  5
22A
100
AcDbEntity
  8
A_BEMASSUNGEN
100
AcDbLine
 62
2
  6
CONTINUOUS
 10
28.2855622253
 20
22.908380776
 11
8.4298123765
 21
22.908380776
  0
LINE
  5
22B
100
AcDbEntity
  8
A_BEMASSUNGEN
100
AcDbLine
 62
2
  6
CONTINUOUS
 10
28.2855622253
 20
30.908380776
 11
8.4298123765
 21
30.908380776
  0
LINE
  5
22C
100
AcDbEntity
  8
A_BEMASSUNGEN
100
AcDbLine
 62
2
  6
CONTINUOUS
 10
10.4298123765
 20
22.908380776
 11
10.4298123765
 21
15.408380776
  0
LINE
  5
22D
100
AcDbEntity
  8
A_BEMASSUNGEN
100
AcDbLine
 62
2
  6
CONTINUOUS
 10
10.4298123765
 20
15.408380776
 11
10.4298123765
 21
26.908380776
  0
LINE
  5
22E
100
AcDbEntity
  8
A_BEMASSUNGEN
100
AcDbLine
 62
2
  6
CONTINUOUS
 10
10.4298123765
 20
30.908380776
 11
10.4298123765
 21
38.408380776
  0
LINE
  5
22F
100
AcDbEntity
  8
A_BEMASSUNGEN
100
AcDbLine
 62
2
  6
CONTINUOUS
 10
10.4298123765
 20
38.408380776
 11
10.4298123765
 21
26.908380776
  0
INSERT
  5
230
100
AcDbEntity
  8
A_BEMASSUNGEN
100
AcDbBlockReference
 62
2
  6
CONTINUOUS
  2
_ARROW_FILLED
 10
10.4298123765
 20
22.908380776
 41
3.5
 42
3.5
 43
3.5
 50
90.0
  0
INSERT
  5
231
100
AcDbEntity
  8
A_BEMASSUNGEN
100
AcDbBlockReference
 62
2
  6
CONTINUOUS
  2
_ARROW_FILLED
 10
10.4298123765
 20
30.908380776
 41
3.5
 42
3.5
 43
3.5
 50
270.0
  0
ENDBLK
  5
232
100
AcDbEntity
  8
0
  6
BYBLOCK
 62
0
100
AcDbBlockEnd
  0
BLOCK
  5
233
100
AcDbEntity
  8
A_BEMASSUNGEN
100
AcDbBlockBegin
 62
2
  6
CONTINUOUS
  2
*D2
 70
65
 10
0.0
 20
0.0
  3
*D2
  1

  0
MTEXT
  5
234
100
AcDbEntity
  8
A_BEMASSUNGEN
100
AcDbMText
 62
5
  6
CONTINUOUS
  7
TEXTSTYLE_2
 71
2
 72
1
 10
6.0548123765
 20
49.408380776
 30
0.0
 11
0.0
 21
1.0
 31
0.0
  1
37
 40
3.5
 41
7.875
  0
LINE
  5
235
100
AcDbEntity
  8
A_BEMASSUNGEN
100
AcDbLine
 62
2
  6
CONTINUOUS
 10
28.2855622253
 20
30.908380776
 11
8.4298123765
 21
30.908380776
  0
LINE
  5
236
100
AcDbEntity
  8
A_BEMASSUNGEN
100
AcDbLine
 62
2
  6
CONTINUOUS
 10
32.2855622253
 20
67.908380776
 11
8.4298123765
 21
67.908380776
  0
LINE
  5
237
100
AcDbEntity
  8
A_BEMASSUNGEN
100
AcDbLine
 62
2
  6
CONTINUOUS
 10
10.4298123765
 20
30.908380776
 11
10.4298123765
 21
49.408380776
  0
LINE
  5
238
100
AcDbEntity
  8
A_BEMASSUNGEN
100
AcDbLine
 62
2
  6
CONTINUOUS
 10
10.4298123765
 20
67.908380776
 11
10.4298123765
 21
49.408380776
  0
INSERT
  5
239
100
AcDbEntity
  8
A_BEMASSUNGEN
100
AcDbBlockReference
 62
2
  6
CONTINUOUS
  2
_ARROW_FILLED
 10
10.4298123765
 20
30.908380776
 41
3.5
 42
3.5
 43
3.5
 50
270.0
  0
INSERT
  5
23A
100
AcDbEntity
  8
A_BEMASSUNGEN
100
AcDbBlockReference
 62
2
  6
CONTINUOUS
  2
_ARROW_FILLED
 10
10.4298123765
 20
67.908380776
 41
3.5
 42
3.5
 43
3.5
 50
90.0
  0
ENDBLK
  5
23B
100
AcDbEntity
  8
0
  6
BYBLOCK
 62
0
100
AcDbBlockEnd
  0
BLOCK
  5
23C
100
AcDbEntity
  8
A_BEMASSUNGEN
100
AcDbBlockBegin
 62
2
  6
CONTINUOUS
  2
*D3
 70
65
 10
0.0
 20
0.0
  3
*D3
  1

  0
MTEXT
  5
23D
100
AcDbEntity
  8
A_BEMASSUNGEN
100
AcDbMText
 62
5
  6
CONTINUOUS
  7
TEXTSTYLE_2
 71
2
 72
1
 10
53.2855622253
 20
11.4140404733
 30
0.0
 11
1.0
 21
0.0
 31
0.0
  1
42
 40
3.5
 41
8.25
  0
LINE
  5
23E
100
AcDbEntity
  8
A_BEMASSUNGEN
100
AcDbLine
 62
2
  6
CONTINUOUS
 10
74.2855622253
 20
24.908380776
 11
74.2855622253
 21
5.0390404733
  0
LINE
  5
23F
100
AcDbEntity
  8
A_BEMASSUNGEN
100
AcDbLine
 62
2
  6
CONTINUOUS
 10
32.2855622253
 20
35.908380776
 11
32.2855622253
 21
5.0390404733
  0
LINE
  5
240
100
AcDbEntity
  8
A_BEMASSUNGEN
100
AcDbLine
 62
2
  6
CONTINUOUS
 10
74.2855622253
 20
7.0390404733
 11
53.2855622253
 21
7.0390404733
  0
LINE
  5
241
100
AcDbEntity
  8
A_BEMASSUNGEN
100
AcDbLine
 62
2
  6
CONTINUOUS
 10
32.2855622253
 20
7.0390404733
 11
53.2855622253
 21
7.0390404733
  0
INSERT
  5
242
100
AcDbEntity
  8
A_BEMASSUNGEN
100
AcDbBlockReference
 62
2
  6
CONTINUOUS
  2
_ARROW_FILLED
 10
74.2855622253
 20
7.0390404733
 41
3.5
 42
3.5
 43
3.5
  0
INSERT
  5
243
100
AcDbEntity
  8
A_BEMASSUNGEN
100
AcDbBlockReference
 62
2
  6
CONTINUOUS
  2
_ARROW_FILLED
 10
32.2855622253
 20
7.0390404733
 41
3.5
 42
3.5
 43
3.5
 50
180.0
  0
ENDBLK
  5
244
100
AcDbEntity
  8
0
  6
BYBLOCK
 62
0
100
AcDbBlockEnd
  0
BLOCK
  5
245
100
AcDbEntity
  8
A_BEMASSUNGEN
100
AcDbBlockBegin
 62
2
  6
CONTINUOUS
  2
*D4
 70
65
 10
0.0
 20
0.0
  3
*D4
  1

  0
MTEXT
  5
246
100
AcDbEntity
  8
A_BEMASSUNGEN
100
AcDbMText
 62
5
  6
CONTINUOUS
  7
TEXTSTYLE_2
 71
2
 72
1
 10
100.2855624621
 20
11.4140404733
 30
0.0
 11
1.0
 21
0.0
 31
0.0
  1
44
 40
3.5
 41
8.25
  0
LINE
  5
247
100
AcDbEntity
  8
A_BEMASSUNGEN
100
AcDbLine
 62
2
  6
CONTINUOUS
 10
78.2855624621
 20
25.0091627314
 11
78.2855624621
 21
5.0390404733
  0
LINE
  5
248
100
AcDbEntity
  8
A_BEMASSUNGEN
100
AcDbLine
 62
2
  6
CONTINUOUS
 10
122.2855624621
 20
36.0091627314
 11
122.2855624621
 21
5.0390404733
  0
LINE
  5
249
100
AcDbEntity
  8
A_BEMASSUNGEN
100
AcDbLine
 62
2
  6
CONTINUOUS
 10
78.2855624621
 20
7.0390404733
 11
100.2855624621
 21
7.0390404733
  0
LINE
  5
24A
100
AcDbEntity
  8
A_BEMASSUNGEN
100
AcDbLine
 62
2
  6
CONTINUOUS
 10
122.2855624621
 20
7.0390404733
 11
100.2855624621
 21
7.0390404733
  0
INSERT
  5
24B
100
AcDbEntity
  8
A_BEMASSUNGEN
100
AcDbBlockReference
 62
2
  6
CONTINUOUS
  2
_ARROW_FILLED
 10
78.2855624621
 20
7.0390404733
 41
3.5
 42
3.5
 43
3.5
 50
180.0
  0
INSERT
  5
24C
100
AcDbEntity
  8
A_BEMASSUNGEN
100
AcDbBlockReference
 62
2
  6
CONTINUOUS
  2
_ARROW_FILLED
 10
122.2855624621
 20
7.0390404733
 41
3.5
 42
3.5
 43
3.5
  0
ENDBLK
  5
24D
100
AcDbEntity
  8
0
  6
BYBLOCK
 62
0
100
AcDbBlockEnd
  0
BLOCK
  5
24E
100
AcDbEntity
  8
A_BEMASSUNGEN
100
AcDbBlockBegin
 62
2
  6
CONTINUOUS
  2
*D5
 70
65
 10
0.0
 20
0.0
  3
*D5
  1

  0
MTEXT
  5
24F
100
AcDbEntity
  8
A_BEMASSUNGEN
100
AcDbMText
 62
5
  6
CONTINUOUS
  7
TEXTSTYLE_2
 71
2
 72
1
 10
150.009907517
 20
27.0091627314
 30
0.0
 11
0.0
 21
1.0
 31
0.0
  1
8
 40
3.5
 41
4.125
  0
LINE
  5
250
100
AcDbEntity
  8
A_BEMASSUNGEN
100
AcDbLine
 62
2
  6
CONTINUOUS
 10
133.2855624621
 20
23.0091627314
 11
156.384907517
 21
23.0091627314
  0
LINE
  5
251
100
AcDbEntity
  8
A_BEMASSUNGEN
100
AcDbLine
 62
2
  6
CONTINUOUS
 10
133.2855624621
 20
31.0091627314
 11
156.384907517
 21
31.0091627314
  0
LINE
  5
252
100
AcDbEntity
  8
A_BEMASSUNGEN
100
AcDbLine
 62
2
  6
CONTINUOUS
 10
154.384907517
 20
23.0091627314
 11
154.384907517
 21
15.5091627314
  0
LINE
  5
253
100
AcDbEntity
  8
A_BEMASSUNGEN
100
AcDbLine
 62
2
  6
CONTINUOUS
 10
154.384907517
 20
15.5091627314
 11
154.384907517
 21
27.0091627314
  0
LINE
  5
254
100
AcDbEntity
  8
A_BEMASSUNGEN
100
AcDbLine
 62
2
  6
CONTINUOUS
 10
154.384907517
 20
31.0091627314
 11
154.384907517
 21
38.5091627314
  0
LINE
  5
255
100
AcDbEntity
  8
A_BEMASSUNGEN
100
AcDbLine
 62
2
  6
CONTINUOUS
 10
154.384907517
 20
38.5091627314
 11
154.384907517
 21
27.0091627314
  0
INSERT
  5
256
100
AcDbEntity
  8
A_BEMASSUNGEN
100
AcDbBlockReference
 62
2
  6
CONTINUOUS
  2
_ARROW_FILLED
 10
154.384907517
 20
23.0091627314
 41
3.5
 42
3.5
 43
3.5
 50
90.0
  0
INSERT
  5
257
100
AcDbEntity
  8
A_BEMASSUNGEN
100
AcDbBlockReference
 62
2
  6
CONTINUOUS
  2
_ARROW_FILLED
 10
154.384907517
 20
31.0091627314
 41
3.5
 42
3.5
 43
3.5
 50
270.0
  0
ENDBLK
  5
258
100
AcDbEntity
  8
0
  6
BYBLOCK
 62
0
100
AcDbBlockEnd
  0
BLOCK
  5
259
100
AcDbEntity
  8
A_BEMASSUNGEN
100
AcDbBlockBegin
 62
2
  6
CONTINUOUS
  2
*D6
 70
65
 10
0.0
 20
0.0
  3
*D6
  1

  0
MTEXT
  5
25A
100
AcDbEntity
  8
A_BEMASSUNGEN
100
AcDbMText
 62
5
  6
CONTINUOUS
  7
TEXTSTYLE_2
 71
2
 72
1
 10
150.009907517
 20
53.0689858038
 30
0.0
 11
0.0
 21
1.0
 31
0.0
  1
37
 40
3.5
 41
7.875
  0
LINE
  5
25B
100
AcDbEntity
  8
A_BEMASSUNGEN
100
AcDbLine
 62
2
  6
CONTINUOUS
 10
133.2855624621
 20
31.0091627314
 11
156.384907517
 21
31.0091627314
  0
LINE
  5
25C
100
AcDbEntity
  8
A_BEMASSUNGEN
100
AcDbLine
 62
2
  6
CONTINUOUS
 10
122.2855624621
 20
68.0091627314
 11
156.384907517
 21
68.0091627314
  0
LINE
  5
25D
100
AcDbEntity
  8
A_BEMASSUNGEN
100
AcDbLine
 62
2
  6
CONTINUOUS
 10
154.384907517
 20
31.0091627314
 11
154.384907517
 21
49.5091627314
  0
LINE
  5
25E
100
AcDbEntity
  8
A_BEMASSUNGEN
100
AcDbLine
 62
2
  6
CONTINUOUS
 10
154.384907517
 20
68.0091627314
 11
154.384907517
 21
49.5091627314
  0
INSERT
  5
25F
100
AcDbEntity
  8
A_BEMASSUNGEN
100
AcDbBlockReference
 62
2
  6
CONTINUOUS
  2
_ARROW_FILLED
 10
154.384907517
 20
31.0091627314
 41
3.5
 42
3.5
 43
3.5
 50
270.0
  0
INSERT
  5
260
100
AcDbEntity
  8
A_BEMASSUNGEN
100
AcDbBlockReference
 62
2
  6
CONTINUOUS
  2
_ARROW_FILLED
 10
154.384907517
 20
68.0091627314
 41
3.5
 42
3.5
 43
3.5
 50
90.0
  0
ENDBLK
  5
261
100
AcDbEntity
  8
0
  6
BYBLOCK
 62
0
100
AcDbBlockEnd
  0
BLOCK
  5
262
100
AcDbEntity
  8
A_BEMASSUNGEN
100
AcDbBlockBegin
 62
2
  6
CONTINUOUS
  2
*D7
 70
65
 10
0.0
 20
0.0
  3
*D7
  1

  0
MTEXT
  5
263
100
AcDbEntity
  8
A_BEMASSUNGEN
100
AcDbMText
 62
5
  6
CONTINUOUS
  7
TEXTSTYLE_2
 71
2
 72
1
 10
138.6971730862
 20
52.0091627314
 30
0.0
 11
0.0
 21
1.0
 31
0.0
  1
32
 40
3.5
 41
7.875
  0
LINE
  5
264
100
AcDbEntity
  8
A_BEMASSUNGEN
100
AcDbLine
 62
2
  6
CONTINUOUS
 10
122.2855624621
 20
36.0091627314
 11
145.0721730862
 21
36.0091627314
  0
LINE
  5
265
100
AcDbEntity
  8
A_BEMASSUNGEN
100
AcDbLine
 62
2
  6
CONTINUOUS
 10
122.2855624621
 20
68.0091627314
 11
145.0721730862
 21
68.0091627314
  0
LINE
  5
266
100
AcDbEntity
  8
A_BEMASSUNGEN
100
AcDbLine
 62
2
  6
CONTINUOUS
 10
143.0721730862
 20
36.0091627314
 11
143.0721730862
 21
52.0091627314
  0
LINE
  5
267
100
AcDbEntity
  8
A_BEMASSUNGEN
100
AcDbLine
 62
2
  6
CONTINUOUS
 10
143.0721730862
 20
68.0091627314
 11
143.0721730862
 21
52.0091627314
  0
INSERT
  5
268
100
AcDbEntity
  8
A_BEMASSUNGEN
100
AcDbBlockReference
 62
2
  6
CONTINUOUS
  2
_ARROW_FILLED
 10
143.0721730862
 20
36.0091627314
 41
3.5
 42
3.5
 43
3.5
 50
270.0
  0
INSERT
  5
269
100
AcDbEntity
  8
A_BEMASSUNGEN
100
AcDbBlockReference
 62
2
  6
CONTINUOUS
  2
_ARROW_FILLED
 10
143.0721730862
 20
68.0091627314
 41
3.5
 42
3.5
 43
3.5
 50
90.0
  0
ENDBLK
  5
26A
100
AcDbEntity
  8
0
  6
BYBLOCK
 62
0
100
AcDbBlockEnd
  0
BLOCK
  5
26B
100
AcDbEntity
  8
A_BEMASSUNGEN
100
AcDbBlockBegin
 62
2
  6
CONTINUOUS
  2
*D8
 70
65
 10
0.0
 20
0.0
  3
*D8
  1

  0
MTEXT
  5
26C
100
AcDbEntity
  8
A_BEMASSUNGEN
100
AcDbMText
 62
5
  6
CONTINUOUS
  7
TEXTSTYLE_2
 71
2
 72
1
 10
76.2855623437
 20
20.5797098332
 30
0.0
 11
1.0
 21
0.0
 31
0.0
  1
4
 40
3.5
 41
4.125
  0
LINE
  5
26D
100
AcDbEntity
  8
A_BEMASSUNGEN
100
AcDbLine
 62
2
  6
CONTINUOUS
 10
74.2855622253
 20
24.908380776
 11
74.2855622253
 21
14.2047098332
  0
LINE
  5
26E
100
AcDbEntity
  8
A_BEMASSUNGEN
100
AcDbLine
 62
2
  6
CONTINUOUS
 10
78.2855624621
 20
25.0091627314
 11
78.2855624621
 21
14.2047098332
  0
LINE
  5
26F
100
AcDbEntity
  8
A_BEMASSUNGEN
100
AcDbLine
 62
2
  6
CONTINUOUS
 10
74.2855622253
 20
16.2047098332
 11
66.7855622253
 21
16.2047098332
  0
LINE
  5
270
100
AcDbEntity
  8
A_BEMASSUNGEN
100
AcDbLine
 62
2
  6
CONTINUOUS
 10
66.7855622253
 20
16.2047098332
 11
76.2855623437
 21
16.2047098332
  0
LINE
  5
271
100
AcDbEntity
  8
A_BEMASSUNGEN
100
AcDbLine
 62
2
  6
CONTINUOUS
 10
78.2855624621
 20
16.2047098332
 11
85.7855624621
 21
16.2047098332
  0
LINE
  5
272
100
AcDbEntity
  8
A_BEMASSUNGEN
100
AcDbLine
 62
2
  6
CONTINUOUS
 10
85.7855624621
 20
16.2047098332
 11
76.2855623437
 21
16.2047098332
  0
INSERT
  5
273
100
AcDbEntity
  8
A_BEMASSUNGEN
100
AcDbBlockReference
 62
2
  6
CONTINUOUS
  2
_ARROW_FILLED
 10
74.2855622253
 20
16.2047098332
 41
3.5
 42
3.5
 43
3.5
  0
INSERT
  5
274
100
AcDbEntity
  8
A_BEMASSUNGEN
100
AcDbBlockReference
 62
2
  6
CONTINUOUS
  2
_ARROW_FILLED
 10
78.2855624621
 20
16.2047098332
 41
3.5
 42
3.5
 43
3.5
 50
180.0
  0
ENDBLK
  5
275
100
AcDbEntity
  8
0
  6
BYBLOCK
 62
0
100
AcDbBlockEnd
  0
ENDSEC
  0
SECTION
  2
ENTITIES
  0
DIMENSION
  5
276
100
AcDbEntity
  8
A_BEMASSUNGEN
100
AcDbDimension
 62
2
  6
CONTINUOUS
  2
*D0
 10
19.7657994035
 20
35.908380776
 11
19.7657994035
 21
51.4083812369
 70
160
  3
DIMSTYLE_1
100
AcDbAlignedDimension
 13
32.2855622253
 23
67.908380776
 14
32.2855622253
 24
35.908380776
 50
270.0
100
AcDbRotatedDimension
  0
DIMENSION
  5
277
100
AcDbEntity
  8
A_BEMASSUNGEN
100
AcDbDimension
 62
2
  6
CONTINUOUS
  2
*D1
 10
10.4298123765
 20
30.908380776
 11
10.4298123765
 21
26.4083808742
 70
160
  3
DIMSTYLE_2
100
AcDbAlignedDimension
 13
28.2855622253
 23
22.908380776
 14
28.2855622253
 24
30.908380776
 50
90.0
100
AcDbRotatedDimension
  0
DIMENSION
  5
278
100
AcDbEntity
  8
A_BEMASSUNGEN
100
AcDbDimension
 62
2
  6
CONTINUOUS
  2
*D2
 10
10.4298123765
 20
67.908380776
 11
10.4298123765
 21
48.9083808547
 70
160
  3
DIMSTYLE_1
100
AcDbAlignedDimension
 13
28.2855622253
 23
30.908380776
 14
32.2855622253
 24
67.908380776
 50
90.0
100
AcDbRotatedDimension
  0
DIMENSION
  5
279
100
AcDbEntity
  8
A_BEMASSUNGEN
100
AcDbDimension
 62
2
  6
CONTINUOUS
  2
*D3
 10
32.2855622253
 20
7.0390404733
 11
52.7855622144
 21
7.0390404733
 70
160
  3
DIMSTYLE_1
100
AcDbAlignedDimension
 13
74.2855622253
 23
24.908380776
 14
32.2855622253
 24
35.908380776
 50
180.0
100
AcDbRotatedDimension
  0
DIMENSION
  5
27A
100
AcDbEntity
  8
A_BEMASSUNGEN
100
AcDbDimension
 62
2
  6
CONTINUOUS
  2
*D4
 10
122.2855624621
 20
7.0390404733
 11
99.7855624567
 21
7.0390404733
 70
160
  3
DIMSTYLE_1
100
AcDbAlignedDimension
 13
78.2855624621
 23
25.0091627314
 14
122.2855624621
 24
36.0091627314
100
AcDbRotatedDimension
  0
DIMENSION
  5
27B
100
AcDbEntity
  8
A_BEMASSUNGEN
100
AcDbDimension
 62
2
  6
CONTINUOUS
  2
*D5
 10
154.384907517
 20
31.0091627314
 11
154.384907517
 21
26.5091612673
 70
160
  3
DIMSTYLE_2
100
AcDbAlignedDimension
 13
133.2855624621
 23
23.0091627314
 14
133.2855624621
 24
31.0091627314
 50
90.0
100
AcDbRotatedDimension
  0
DIMENSION
  5
27C
100
AcDbEntity
  8
A_BEMASSUNGEN
100
AcDbDimension
 62
2
  6
CONTINUOUS
  2
*D6
 10
154.384907517
 20
68.0091627314
 11
154.384907517
 21
52.5689843202
 70
160
  3
DIMSTYLE_1
100
AcDbAlignedDimension
 13
133.2855624621
 23
31.0091627314
 14
122.2855624621
 24
68.0091627314
 50
90.0
100
AcDbRotatedDimension
  0
DIMENSION
  5
27D
100
AcDbEntity
  8
A_BEMASSUNGEN
100
AcDbDimension
 62
2
  6
CONTINUOUS
  2
*D7
 10
143.0721730862
 20
68.0091627314
 11
143.0721730862
 21
51.5091634043
 70
160
  3
DIMSTYLE_1
100
AcDbAlignedDimension
 13
122.2855624621
 23
36.0091627314
 14
122.2855624621
 24
68.0091627314
 50
90.0
100
AcDbRotatedDimension
  0
DIMENSION
  5
27E
100
AcDbEntity
  8
A_BEMASSUNGEN
100
AcDbDimension
 62
2
  6
CONTINUOUS
  2
*D8
 10
78.2855624621
 20
16.2047098332
 11
75.78556332
 21
16.2047098332
 70
160
  3
DIMSTYLE_3
100
AcDbAlignedDimension
 13
74.2855622253
 23
24.908380776
 14
78.2855624621
 24
25.0091627314
100
AcDbRotatedDimension
  0
LINE
  5
27F
100
AcDbEntity
  8
0
100
AcDbLine
 62
7
  6
CONTINUOUS
 10
28.2855622253
 20
90.908380776
 11
28.2855622253
 21
22.908380776
  0
LINE
  5
280
100
AcDbEntity
  8
0
100
AcDbLine
 62
7
  6
CONTINUOUS
 10
32.2855622253
 20
35.908380776
 11
32.2855622253
 21
67.908380776
  0
LINE
  5
281
100
AcDbEntity
  8
0
100
AcDbLine
 62
7
  6
CONTINUOUS
 10
33.1855622253
 20
37.5585827981
 11
33.1855622253
 21
44.808380776
  0
LINE
  5
282
100
AcDbEntity
  8
A_RUNDUNGEN
100
AcDbLine
 62
7
  6
CONTINUOUS
 10
33.1855622253
 20
44.808380776
 11
33.1855622253
 21
56.608380776
  0
LINE
  5
283
100
AcDbEntity
  8
0
100
AcDbLine
 62
7
  6
CONTINUOUS
 10
33.1855622253
 20
56.608380776
 11
33.1855622253
 21
66.2581787538
  0
LINE
  5
284
100
AcDbEntity
  8
0
100
AcDbLine
 62
7
  6
CONTINUOUS
 10
33.6855622253
 20
54.958380776
 11
33.6855622253
 21
54.6128892732
  0
LINE
  5
285
100
AcDbEntity
  8
0
100
AcDbLine
 62
7
  6
CONTINUOUS
 10
33.6855622253
 20
46.8038722788
 11
33.6855622253
 21
46.458380776
  0
LINE
  5
286
100
AcDbEntity
  8
A_RUNDUNGEN
100
AcDbLine
 62
7
  6
CONTINUOUS
 10
33.6855622253
 20
46.8038722788
 11
33.6855622253
 21
54.6128892732
  0
LINE
  5
287
100
AcDbEntity
  8
0
100
AcDbLine
 62
7
  6
CONTINUOUS
 10
33.8855622253
 20
43.6001232065
 11
33.8855622253
 21
43.4413669048
  0
LINE
  5
288
100
AcDbEntity
  8
0
100
AcDbLine
 62
7
  6
CONTINUOUS
 10
33.8855622253
 20
40.8148227573
 11
33.8855622253
 21
40.0166383455
  0
LINE
  5
289
100
AcDbEntity
  8
0
100
AcDbLine
 62
7
  6
CONTINUOUS
 10
34.1855622253
 20
38.7334326605
 11
34.1855622253
 21
45.958380776
  0
LINE
  5
28A
100
AcDbEntity
  8
0
100
AcDbLine
 62
7
  6
CONTINUOUS
 10
34.1855622253
 20
47.3628892732
 11
34.1855622253
 21
54.0538722788
  0
LINE
  5
28B
100
AcDbEntity
  8
0
100
AcDbLine
 62
7
  6
CONTINUOUS
 10
34.1855622253
 20
55.458380776
 11
34.1855622253
 21
64.5126775727
  0
LINE
  5
28C
100
AcDbEntity
  8
0
100
AcDbLine
 62
7
  6
CONTINUOUS
 10
35.1855622253
 20
40.3870847441
 11
35.1855622253
 21
62.1296768078
  0
LINE
  5
28D
100
AcDbEntity
  8
A_RUNDUNGEN
100
AcDbLine
 62
7
  6
CONTINUOUS
 10
35.7855622253
 20
46.3220457037
 11
35.7855622253
 21
49.0425915113
  0
LINE
  5
28E
100
AcDbEntity
  8
A_RUNDUNGEN
100
AcDbLine
 62
7
  6
CONTINUOUS
 10
35.7855622253
 20
49.0504967393
 11
35.7855622253
 21
49.1860291654
  0
LINE
  5
28F
100
AcDbEntity
  8
A_RUNDUNGEN
100
AcDbLine
 62
7
  6
CONTINUOUS
 10
35.7855622253
 20
60.5994727424
 11
35.7855622253
 21
60.6714562168
  0
LINE
  5
290
100
AcDbEntity
  8
A_RUNDUNGEN
100
AcDbLine
 62
7
  6
CONTINUOUS
 10
35.7855622253
 20
54.5867339887
 11
35.7855622253
 21
60.5915675143
  0
LINE
  5
291
100
AcDbEntity
  8
0
100
AcDbLine
 62
7
  6
CONTINUOUS
 10
39.1855622253
 20
66.0541873123
 11
39.1855622253
 21
65.5476231222
  0
LINE
  5
292
100
AcDbEntity
  8
A_RUNDUNGEN
100
AcDbLine
 62
7
  6
CONTINUOUS
 10
39.1855622253
 20
65.5476231222
 11
39.1855622253
 21
64.9612310405
  0
LINE
  5
293
100
AcDbEntity
  8
0
100
AcDbLine
 62
7
  6
CONTINUOUS
 10
39.1855622253
 20
63.8389438524
 11
39.1855622253
 21
64.9612310405
  0
LINE
  5
294
100
AcDbEntity
  8
0
100
AcDbLine
 62
7
  6
CONTINUOUS
 10
36.76529602
 20
58.2431502884
 11
35.1855622253
 21
52.3475035042
  0
LINE
  5
295
100
AcDbEntity
  8
0
100
AcDbLine
 62
7
  6
CONTINUOUS
 10
43.1866124286
 20
39.0169422258
 11
43.1855981927
 21
39.0369441135
  0
LINE
  5
296
100
AcDbEntity
  8
0
100
AcDbLine
 62
7
  6
CONTINUOUS
 10
43.1855981927
 20
39.0369441135
 11
43.1855688229
 21
39.041871043
  0
LINE
  5
297
100
AcDbEntity
  8
A_ACHSEN
100
AcDbLine
 62
7
  6
CENTER
 10
40.6762113718
 20
48.292492701
 11
40.6762113718
 21
58.7464584983
  0
LINE
  5
298
100
AcDbEntity
  8
A_RUNDUNGEN
100
AcDbLine
 62
7
  6
CONTINUOUS
 10
43.1855622253
 20
43.9633258452
 11
43.1855622253
 21
38.6429102283
  0
LINE
  5
299
100
AcDbEntity
  8
0
100
AcDbLine
 62
7
  6
CONTINUOUS
 10
43.1855622253
 20
37.5845692341
 11
43.1855622253
 21
38.6429102283
  0
LINE
  5
29A
100
AcDbEntity
  8
0
100
AcDbLine
 62
7
  6
CONTINUOUS
 10
44.5871267237
 20
48.7958009109
 11
46.425000763
 21
55.6548402034
  0
LWPOLYLINE
  5
29B
100
AcDbEntity
  8
0
100
AcDbPolyline
 62
7
  6
CONTINUOUS
 90
3
 70
0
 10
43.8299933157
 20
66.235566582
 10
43.841035894
 20
66.2505550671
 10
43.8670195409
 20
66.2739976966
  0
LINE
  5
29C
100
AcDbEntity
  8
0
100
AcDbLine
 62
7
  6
CONTINUOUS
 10
28.2855622253
 20
22.908380776
 11
72.2855622253
 21
22.908380776
  0
LINE
  5
29D
100
AcDbEntity
  8
0
100
AcDbLine
 62
7
  6
CONTINUOUS
 10
133.2855624621
 20
23.0091627314
 11
80.2855624621
 21
23.0091627314
  0
LINE
  5
29E
100
AcDbEntity
  8
0
100
AcDbLine
 62
7
  6
CONTINUOUS
 10
36.9601666789
 20
37.548507343
 11
34.3500571895
 21
38.4985095053
  0
LINE
  5
29F
100
AcDbEntity
  8
0
100
AcDbLine
 62
7
  6
CONTINUOUS
 10
34.8344387837
 20
38.4150520666
 11
36.7949056953
 21
37.6798769747
  0
LWPOLYLINE
  5
2A0
100
AcDbEntity
  8
0
100
AcDbPolyline
 62
7
  6
CONTINUOUS
 90
4
 70
0
 10
43.945664366
 20
37.4965485139
 10
43.8768659043
 20
37.5352872642
 10
43.8472297283
 20
37.5599214917
 10
43.8380385586
 20
37.5695942637
  0
LINE
  5
2A1
100
AcDbEntity
  8
0
100
AcDbLine
 62
7
  6
CONTINUOUS
 10
37.8484344846
 20
56.3485528124
 11
44.6177401119
 21
63.1147470715
  0
LINE
  5
2A2
100
AcDbEntity
  8
0
100
AcDbLine
 62
7
  6
CONTINUOUS
 10
38.1471693218
 20
39.1952952658
 11
35.3546471601
 21
40.150541403
  0
LINE
  5
2A3
100
AcDbEntity
  8
A_RUNDUNGEN
100
AcDbLine
 62
7
  6
CONTINUOUS
 10
52.1855622253
 20
40.3447767671
 11
52.1855622253
 21
39.3078518262
  0
LINE
  5
2A4
100
AcDbEntity
  8
A_RUNDUNGEN
100
AcDbLine
 62
7
  6
CONTINUOUS
 10
53.1855622253
 20
37.532208878
 11
53.1855622253
 21
38.5556415504
  0
LINE
  5
2A5
100
AcDbEntity
  8
0
100
AcDbLine
 62
7
  6
CONTINUOUS
 10
46.6271436916
 20
58.7607284027
 11
44.8873820908
 21
57.0217664465
  0
LINE
  5
2A6
100
AcDbEntity
  8
0
100
AcDbLine
 62
7
  6
CONTINUOUS
 10
43.8670195409
 20
66.2739976966
 11
43.9394959398
 21
66.3175705201
  0
LINE
  5
2A7
100
AcDbEntity
  8
0
100
AcDbLine
 62
7
  6
CONTINUOUS
 10
114.8717742836
 20
36.2118198474
 11
120.4943221135
 21
37.0020174126
  0
LINE
  5
2A8
100
AcDbEntity
  8
0
100
AcDbLine
 62
7
  6
CONTINUOUS
 10
74.2855622253
 20
30.908380776
 11
28.2855622253
 21
30.908380776
  0
LINE
  5
2A9
100
AcDbEntity
  8
0
100
AcDbLine
 62
7
  6
CONTINUOUS
 10
78.2855624621
 20
31.0091627314
 11
133.2855624621
 21
31.0091627314
  0
LINE
  5
2AA
100
AcDbEntity
  8
A_RUNDUNGEN
100
AcDbLine
 62
7
  6
CONTINUOUS
 10
89.3725167437
 20
31.159156179
 11
78.6725091283
 21
31.159156179
  0
LINE
  5
2AB
100
AcDbEntity
  8
A_RUNDUNGEN
100
AcDbLine
 62
7
  6
CONTINUOUS
 10
73.6855622253
 20
32.058380776
 11
68.8408778448
 21
32.058380776
  0
LINE
  5
2AC
100
AcDbEntity
  8
A_RUNDUNGEN
100
AcDbLine
 62
7
  6
CONTINUOUS
 10
67.5304170519
 20
32.058380776
 11
63.8550991614
 21
32.058380776
  0
LINE
  5
2AD
100
AcDbEntity
  8
0
100
AcDbLine
 62
7
  6
CONTINUOUS
 10
33.6332979937
 20
37.0613218504
 11
42.8401936919
 21
36.0936381189
  0
LINE
  5
2AE
100
AcDbEntity
  8
0
100
AcDbLine
 62
7
  6
CONTINUOUS
 10
44.0634370531
 20
37.4721772721
 11
43.945664366
 21
37.4965485139
  0
LINE
  5
2AF
100
AcDbEntity
  8
A_RUNDUNGEN
100
AcDbLine
 62
7
  6
CONTINUOUS
 10
53.6706762776
 20
40.2669751819
 11
60.2689925998
 21
36.4574354771
  0
LINE
  5
2B0
100
AcDbEntity
  8
0
100
AcDbLine
 62
7
  6
CONTINUOUS
 10
56.6855622253
 20
36.8762837575
 11
56.6855622253
 21
36.0281943891
  0
LINE
  5
2B1
100
AcDbEntity
  8
0
100
AcDbLine
 62
7
  6
CONTINUOUS
 10
58.2855622253
 20
30.908380776
 11
58.2855622253
 21
35.908380776
  0
LINE
  5
2B2
100
AcDbEntity
  8
0
100
AcDbLine
 62
7
  6
CONTINUOUS
 10
96.1037297492
 20
38.5773699758
 11
95.9924180995
 21
38.5546517648
  0
LINE
  5
2B3
100
AcDbEntity
  8
A_RUNDUNGEN
100
AcDbLine
 62
7
  6
CONTINUOUS
 10
90.4881058316
 20
36.1054253477
 11
94.8855624621
 21
36.1246129937
  0
LINE
  5
2B4
100
AcDbEntity
  8
0
100
AcDbLine
 62
7
  6
CONTINUOUS
 10
94.8855624621
 20
36.1246129937
 11
114.8717742836
 21
36.2118198474
  0
LINE
  5
2B5
100
AcDbEntity
  8
0
100
AcDbLine
 62
7
  6
CONTINUOUS
 10
74.2855622253
 20
35.908380776
 11
74.1855622253
 21
35.908380776
  0
LINE
  5
2B6
100
AcDbEntity
  8
0
100
AcDbLine
 62
7
  6
CONTINUOUS
 10
32.2855622253
 20
35.908380776
 11
61.0522805226
 21
35.908380776
  0
LINE
  5
2B7
100
AcDbEntity
  8
0
100
AcDbLine
 62
7
  6
CONTINUOUS
 10
90.4568035362
 20
36.0091627314
 11
122.2855624621
 21
36.0091627314
  0
LINE
  5
2B8
100
AcDbEntity
  8
A_RUNDUNGEN
100
AcDbLine
 62
7
  6
CONTINUOUS
 10
60.9260151669
 20
36.0096918053
 11
56.6855622253
 21
36.0281943891
  0
LINE
  5
2B9
100
AcDbEntity
  8
0
100
AcDbLine
 62
7
  6
CONTINUOUS
 10
42.9403588459
 20
36.0881695335
 11
56.6855622253
 21
36.0281943891
  0
LINE
  5
2BA
100
AcDbEntity
  8
A_RUNDUNGEN
100
AcDbLine
 62
7
  6
CONTINUOUS
 10
36.1561576303
 20
45.8390617594
 11
38.4149858588
 21
45.2338105597
  0
LINE
  5
2BB
100
AcDbEntity
  8
0
100
AcDbLine
 62
7
  6
CONTINUOUS
 10
33.8237588264
 20
54.3892824754
 11
34.0473656242
 21
54.2774790765
  0
LINE
  5
2BC
100
AcDbEntity
  8
0
100
AcDbLine
 62
7
  6
CONTINUOUS
 10
78.2855624621
 20
25.0091627314
 11
80.2855624621
 21
23.0091627314
  0
LINE
  5
2BD
100
AcDbEntity
  8
0
100
AcDbLine
 62
7
  6
CONTINUOUS
 10
62.9347626232
 20
39.9780956086
 11
62.9355625003
 21
37.5066816053
  0
LINE
  5
2BE
100
AcDbEntity
  8
A_RUNDUNGEN
100
AcDbLine
 62
7
  6
CONTINUOUS
 10
62.9347626232
 20
39.9780956086
 11
62.9309897204
 21
51.6353932968
  0
LINE
  5
2BF
100
AcDbEntity
  8
0
100
AcDbLine
 62
7
  6
CONTINUOUS
 10
64.2855622253
 20
67.8217286291
 11
64.2855622253
 21
67.908380776
  0
LINE
  5
2C0
100
AcDbEntity
  8
0
100
AcDbLine
 62
7
  6
CONTINUOUS
 10
38.1471693218
 20
63.3214662861
 11
35.3546471601
 21
62.3662201489
  0
LINE
  5
2C1
100
AcDbEntity
  8
A_RUNDUNGEN
100
AcDbLine
 62
7
  6
CONTINUOUS
 10
38.7088906492
 20
62.0288555669
 11
36.1237320948
 21
61.144542899
  0
LINE
  5
2C2
100
AcDbEntity
  8
A_RUNDUNGEN
100
AcDbLine
 62
7
  6
CONTINUOUS
 10
116.7076738008
 20
47.2860246063
 11
114.4488477002
 21
46.6807739768
  0
LINE
  5
2C3
100
AcDbEntity
  8
A_RUNDUNGEN
100
AcDbLine
 62
7
  6
CONTINUOUS
 10
90.4234824437
 20
41.7429252345
 11
116.4488381809
 21
48.716398287
  0
LINE
  5
2C4
100
AcDbEntity
  8
A_RUNDUNGEN
100
AcDbLine
 62
7
  6
CONTINUOUS
 10
90.4234840147
 20
41.7497015652
 11
116.4422931546
 21
48.7214204623
  0
LINE
  5
2C5
100
AcDbEntity
  8
0
100
AcDbLine
 62
7
  6
CONTINUOUS
 10
111.2186265451
 20
47.3850843118
 11
111.5037507155
 21
47.461483103
  0
LINE
  5
2C6
100
AcDbEntity
  8
0
100
AcDbLine
 62
7
  6
CONTINUOUS
 10
112.8663199532
 20
47.8265824299
 11
115.3674540206
 21
48.4967592835
  0
LINE
  5
2C7
100
AcDbEntity
  8
0
100
AcDbLine
 62
7
  6
CONTINUOUS
 10
116.7300232583
 20
48.8618586104
 11
117.0151474287
 21
48.9382574015
  0
LINE
  5
2C8
100
AcDbEntity
  8
A_RUNDUNGEN
100
AcDbLine
 62
7
  6
CONTINUOUS
 10
90.4237243078
 20
42.7861665227
 11
109.3431509237
 21
47.8556116057
  0
LINE
  5
2C9
100
AcDbEntity
  8
0
100
AcDbLine
 62
7
  6
CONTINUOUS
 10
96.1553888931
 20
38.5813130799
 11
96.1037297492
 21
38.5773699758
  0
LINE
  5
2CA
100
AcDbEntity
  8
A_RUNDUNGEN
100
AcDbLine
 62
7
  6
CONTINUOUS
 10
96.161847673
 20
38.5814403726
 11
105.281667919
 21
38.7406274271
  0
LINE
  5
2CB
100
AcDbEntity
  8
A_RUNDUNGEN
100
AcDbLine
 62
7
  6
CONTINUOUS
 10
105.9148515599
 20
38.961419481
 11
118.3030148685
 21
39.1776556758
  0
LINE
  5
2CC
100
AcDbEntity
  8
0
100
AcDbLine
 62
7
  6
CONTINUOUS
 10
120.0377440959
 20
38.5570000532
 11
95.2820718479
 21
38.3409605745
  0
LINE
  5
2CD
100
AcDbEntity
  8
A_RUNDUNGEN
100
AcDbLine
 62
7
  6
CONTINUOUS
 10
94.8855624621
 20
37.3495377818
 11
90.6682567857
 21
37.313403762
  0
LINE
  5
2CE
100
AcDbEntity
  8
DEFAULT_1
100
AcDbLine
 62
7
  6
CENTER
 10
64.3996772249
 20
37.508380776
 11
71.9714472257
 21
37.508380776
  0
LINE
  5
2CF
100
AcDbEntity
  8
A_ACHSEN
100
AcDbLine
 62
7
  6
CENTER
 10
79.893923055
 20
37.5091591886
 11
90.4510784449
 21
37.5091591886
  0
LINE
  5
2D0
100
AcDbEntity
  8
0
100
AcDbLine
 62
7
  6
CONTINUOUS
 10
121.5566624621
 20
38.5591627314
 11
121.5792201437
 21
38.5591627314
  0
LINE
  5
2D1
100
AcDbEntity
  8
A_RUNDUNGEN
100
AcDbLine
 62
7
  6
CONTINUOUS
 10
104.6211473054
 20
39.6034045568
 11
102.6769377808
 21
39.6034045568
  0
LINE
  5
2D2
100
AcDbEntity
  8
0
100
AcDbLine
 62
7
  6
CONTINUOUS
 10
34.1855622253
 20
40.3457068496
 11
33.8855622253
 21
40.3457068496
  0
LINE
  5
2D3
100
AcDbEntity
  8
0
100
AcDbLine
 62
7
  6
CONTINUOUS
 10
34.1855622253
 20
40.4125591212
 11
33.8855622253
 21
40.4125591212
  0
LINE
  5
2D4
100
AcDbEntity
  8
0
100
AcDbLine
 62
7
  6
CONTINUOUS
 10
37.140793173
 20
37.6162198601
 11
43.1855622253
 21
37.5845692341
  0
LINE
  5
2D5
100
AcDbEntity
  8
A_RUNDUNGEN
100
AcDbLine
 62
7
  6
CONTINUOUS
 10
43.1855622253
 20
37.5845692341
 11
58.455221422
 21
37.5046167548
  0
LINE
  5
2D6
100
AcDbEntity
  8
0
100
AcDbLine
 62
7
  6
CONTINUOUS
 10
37.0434900809
 20
37.5334400174
 11
56.1998382277
 21
37.3662650998
  0
LINE
  5
2D7
100
AcDbEntity
  8
A_RUNDUNGEN
100
AcDbLine
 62
7
  6
CONTINUOUS
 10
56.1998382277
 20
37.3662650998
 11
58.7331454146
 21
37.3441572629
  0
LINE
  5
2D8
100
AcDbEntity
  8
A_RUNDUNGEN
100
AcDbLine
 62
7
  6
CONTINUOUS
 10
55.8160532518
 20
39.0283412083
 11
43.1855622253
 21
39.1385658336
  0
LINE
  5
2D9
100
AcDbEntity
  8
0
100
AcDbLine
 62
7
  6
CONTINUOUS
 10
38.2259027532
 20
39.1818481261
 11
42.689925493
 21
39.1428911899
  0
LINE
  5
2DA
100
AcDbEntity
  8
A_RUNDUNGEN
100
AcDbLine
 62
7
  6
CONTINUOUS
 10
43.1855622253
 20
40.4233185772
 11
53.4249717405
 21
40.3339606041
  0
LINE
  5
2DB
100
AcDbEntity
  8
0
100
AcDbLine
 62
7
  6
CONTINUOUS
 10
35.7855622253
 20
49.0425915113
 11
62.9341832724
 21
41.7681404261
  0
LINE
  5
2DC
100
AcDbEntity
  8
A_RUNDUNGEN
100
AcDbLine
 62
7
  6
CONTINUOUS
 10
36.0355622253
 20
48.9823801229
 11
36.9583562572
 21
48.7351182073
  0
LINE
  5
2DD
100
AcDbEntity
  8
A_RUNDUNGEN
100
AcDbLine
 62
7
  6
CONTINUOUS
 10
37.6400863473
 20
48.5524491802
 11
40.8220595624
 21
47.6998420269
  0
LINE
  5
2DE
100
AcDbEntity
  8
A_RUNDUNGEN
100
AcDbLine
 62
7
  6
CONTINUOUS
 10
41.5037896525
 20
47.5171729998
 11
62.9341810791
 21
41.7749169235
  0
LINE
  5
2DF
100
AcDbEntity
  8
0
100
AcDbLine
 62
7
  6
CONTINUOUS
 10
36.3414454127
 20
48.9349505685
 11
36.6265695831
 21
48.8585517773
  0
LINE
  5
2E0
100
AcDbEntity
  8
0
100
AcDbLine
 62
7
  6
CONTINUOUS
 10
37.9891388208
 20
48.4934524504
 11
40.4902728882
 21
47.8232755969
  0
LINE
  5
2E1
100
AcDbEntity
  8
0
100
AcDbLine
 62
7
  6
CONTINUOUS
 10
41.852842126
 20
47.45817627
 11
42.1379662963
 21
47.3817774788
  0
LINE
  5
2E2
100
AcDbEntity
  8
A_RUNDUNGEN
100
AcDbLine
 62
7
  6
CONTINUOUS
 10
44.0347906644
 20
47.8702175128
 11
62.9338472929
 21
42.8062305515
  0
LINE
  5
2E3
100
AcDbEntity
  8
A_RUNDUNGEN
100
AcDbLine
 62
7
  6
CONTINUOUS
 10
44.0525547779
 20
47.885122554
 11
62.9338409277
 21
42.825897178
  0
LINE
  5
2E4
100
AcDbEntity
  8
0
100
AcDbLine
 62
7
  6
CONTINUOUS
 10
67.2855622253
 20
67.8348186815
 11
67.2855622253
 21
67.032982593
  0
LINE
  5
2E5
100
AcDbEntity
  8
A_RUNDUNGEN
100
AcDbLine
 62
7
  6
CONTINUOUS
 10
67.2855622253
 20
66.358380776
 11
67.2855622253
 21
65.0133068199
  0
LINE
  5
2E6
100
AcDbEntity
  8
0
100
AcDbLine
 62
7
  6
CONTINUOUS
 10
67.6855622253
 20
66.6191098709
 11
67.6855622253
 21
65.0132140843
  0
LINE
  5
2E7
100
AcDbEntity
  8
DEFAULT_1
100
AcDbLine
 62
7
  6
CENTER
 10
68.1855622253
 20
33.7224957756
 11
68.1855622253
 21
41.2942657764
  0
LINE
  5
2E8
100
AcDbEntity
  8
0
100
AcDbLine
 62
7
  6
CONTINUOUS
 10
33.8237588264
 20
47.0274790765
 11
34.0473656242
 21
47.1392824754
  0
LINE
  5
2E9
100
AcDbEntity
  8
A_RUNDUNGEN
100
AcDbLine
 62
7
  6
CONTINUOUS
 10
109.3253868102
 20
47.8705166468
 11
90.4237288672
 21
42.8058326654
  0
LINE
  5
2EA
100
AcDbEntity
  8
A_RUNDUNGEN
100
AcDbLine
 62
7
  6
CONTINUOUS
 10
105.1124211022
 20
42.9617696287
 11
118.7966199226
 21
43.2006282076
  0
LINE
  5
2EB
100
AcDbEntity
  8
0
100
AcDbLine
 62
7
  6
CONTINUOUS
 10
33.8855622253
 20
40.8148227573
 11
34.1855622253
 21
40.8148227573
  0
LINE
  5
2EC
100
AcDbEntity
  8
0
100
AcDbLine
 62
7
  6
CONTINUOUS
 10
33.8855622253
 20
43.4413669048
 11
34.1855622253
 21
43.4413669048
  0
LINE
  5
2ED
100
AcDbEntity
  8
0
100
AcDbLine
 62
7
  6
CONTINUOUS
 10
34.1855622253
 20
43.473144009
 11
33.8855622253
 21
43.473144009
  0
LINE
  5
2EE
100
AcDbEntity
  8
A_RUNDUNGEN
100
AcDbLine
 62
7
  6
CONTINUOUS
 10
35.4268373511
 20
45.1999552629
 11
42.220461722
 21
44.9627166722
  0
LINE
  5
2EF
100
AcDbEntity
  8
0
100
AcDbLine
 62
7
  6
CONTINUOUS
 10
72.9034858538
 20
39.8113563806
 11
69.5001214414
 21
46.7835593624
  0
LINE
  5
2F0
100
AcDbEntity
  8
A_RUNDUNGEN
100
AcDbLine
 62
7
  6
CONTINUOUS
 10
72.6855622253
 20
66.5750586831
 11
72.6855622253
 21
67.858380776
  0
LINE
  5
2F1
100
AcDbEntity
  8
0
100
AcDbLine
 62
7
  6
CONTINUOUS
 10
67.9131964535
 20
59.3140738923
 11
64.8333170377
 21
56.2322123696
  0
LINE
  5
2F2
100
AcDbEntity
  8
0
100
AcDbLine
 62
7
  6
CONTINUOUS
 10
86.2855622253
 20
73.4887033114
 11
83.5199977882
 21
71.908380776
  0
LINE
  5
2F3
100
AcDbEntity
  8
0
100
AcDbLine
 62
7
  6
CONTINUOUS
 10
87.2855622253
 20
72.908380776
 11
83.7855622253
 21
70.908380776
  0
LINE
  5
2F4
100
AcDbEntity
  8
0
100
AcDbLine
 62
7
  6
CONTINUOUS
 10
33.7855622253
 20
45.208380776
 11
33.5855622253
 21
45.208380776
  0
LINE
  5
2F5
100
AcDbEntity
  8
0
100
AcDbLine
 62
7
  6
CONTINUOUS
 10
120.0377440959
 20
45.5613254095
 11
119.6820718479
 21
45.5644293142
  0
LINE
  5
2F6
100
AcDbEntity
  8
A_RUNDUNGEN
100
AcDbLine
 62
7
  6
CONTINUOUS
 10
36.1561539346
 20
59.4425079721
 11
37.2838084524
 21
59.1403538548
  0
LINE
  5
2F7
100
AcDbEntity
  8
A_RUNDUNGEN
100
AcDbLine
 62
7
  6
CONTINUOUS
 10
46.4245576075
 20
56.6910975004
 11
62.9915182277
 21
52.2519937812
  0
LINE
  5
2F8
100
AcDbEntity
  8
A_RUNDUNGEN
100
AcDbLine
 62
7
  6
CONTINUOUS
 10
62.9933991576
 20
52.2711547086
 11
46.4166259545
 21
56.7128877014
  0
LINE
  5
2F9
100
AcDbEntity
  8
A_RUNDUNGEN
100
AcDbLine
 62
7
  6
CONTINUOUS
 10
37.3015725659
 20
59.1552588959
 11
36.1561539346
 21
59.4621728931
  0
LINE
  5
2FA
100
AcDbEntity
  8
0
100
AcDbLine
 62
7
  6
CONTINUOUS
 10
39.4995806177
 20
59.5807749292
 11
39.2144564474
 21
59.6571737204
  0
LINE
  5
2FB
100
AcDbEntity
  8
A_RUNDUNGEN
100
AcDbLine
 62
7
  6
CONTINUOUS
 10
63.1625901921
 20
53.2570442977
 11
45.780569014
 21
57.9145428352
  0
LINE
  5
2FC
100
AcDbEntity
  8
A_RUNDUNGEN
100
AcDbLine
 62
7
  6
CONTINUOUS
 10
39.6689301916
 20
59.5521515221
 11
36.0355622253
 21
60.5257095345
  0
LINE
  5
2FD
100
AcDbEntity
  8
0
100
AcDbLine
 62
7
  6
CONTINUOUS
 10
35.7855622253
 20
60.5994727424
 11
40.7661507958
 21
59.2649280571
  0
LINE
  5
2FE
100
AcDbEntity
  8
0
100
AcDbLine
 62
7
  6
CONTINUOUS
 10
45.7859149434
 20
57.9198863075
 11
63.1644890871
 21
53.2633114001
  0
LINE
  5
2FF
100
AcDbEntity
  8
A_RUNDUNGEN
100
AcDbLine
 62
7
  6
CONTINUOUS
 10
74.1855622253
 20
32.5583998152
 11
74.1855622253
 21
54.9894257068
  0
LINE
  5
300
100
AcDbEntity
  8
A_RUNDUNGEN
100
AcDbLine
 62
7
  6
CONTINUOUS
 10
74.1855622253
 20
60.5738349763
 11
74.1855622253
 21
60.9533553258
  0
LINE
  5
301
100
AcDbEntity
  8
A_RUNDUNGEN
100
AcDbLine
 62
7
  6
CONTINUOUS
 10
74.1855622253
 20
61.0689058412
 11
74.1855622253
 21
61.4489642547
  0
LINE
  5
302
100
AcDbEntity
  8
A_RUNDUNGEN
100
AcDbLine
 62
7
  6
CONTINUOUS
 10
74.1855622253
 20
65.335085785
 11
74.1855622253
 21
67.808380776
  0
LINE
  5
303
100
AcDbEntity
  8
0
100
AcDbLine
 62
7
  6
CONTINUOUS
 10
74.2855622253
 20
24.908380776
 11
74.2855622253
 21
35.908380776
  0
LINE
  5
304
100
AcDbEntity
  8
0
100
AcDbLine
 62
7
  6
CONTINUOUS
 10
74.2855622253
 20
67.908380776
 11
74.2855622253
 21
75.908380776
  0
LINE
  5
305
100
AcDbEntity
  8
0
100
AcDbLine
 62
7
  6
CONTINUOUS
 10
75.2855622253
 20
73.4887033114
 11
75.2855622253
 21
74.908380776
  0
LINE
  5
306
100
AcDbEntity
  8
A_ACHSEN
100
AcDbLine
 62
7
  6
CENTER
 10
76.6779491978
 20
55.6131625745
 11
76.6779491978
 21
66.4090958047
  0
LINE
  5
307
100
AcDbEntity
  8
0
100
AcDbLine
 62
7
  6
CONTINUOUS
 10
62.9347626232
 20
39.9780956086
 11
69.0090747797
 21
48.3443619063
  0
LINE
  5
308
100
AcDbEntity
  8
A_RUNDUNGEN
100
AcDbLine
 62
7
  6
CONTINUOUS
 10
90.3632896709
 20
52.2726002679
 11
106.9392057866
 21
56.7141036049
  0
LINE
  5
309
100
AcDbEntity
  8
A_RUNDUNGEN
100
AcDbLine
 62
7
  6
CONTINUOUS
 10
116.0567248725
 20
59.1571354809
 11
116.6810288029
 21
59.3244172149
  0
LINE
  5
30A
100
AcDbEntity
  8
A_RUNDUNGEN
100
AcDbLine
 62
7
  6
CONTINUOUS
 10
90.3614070103
 20
52.2917607315
 11
106.9471374395
 21
56.7358938058
  0
LINE
  5
30B
100
AcDbEntity
  8
A_RUNDUNGEN
100
AcDbLine
 62
7
  6
CONTINUOUS
 10
116.038960759
 20
59.172040522
 11
116.7000236579
 21
59.3491717919
  0
LINE
  5
30C
100
AcDbEntity
  8
0
100
AcDbLine
 62
7
  6
CONTINUOUS
 10
114.142136394
 20
59.6604805534
 11
113.8570122236
 21
59.5840817622
  0
LINE
  5
30D
100
AcDbEntity
  8
A_RUNDUNGEN
100
AcDbLine
 62
7
  6
CONTINUOUS
 10
116.701109736
 20
60.3858633768
 11
113.455635797
 21
59.5162412558
  0
LINE
  5
30E
100
AcDbEntity
  8
A_RUNDUNGEN
100
AcDbLine
 62
7
  6
CONTINUOUS
 10
112.8759654211
 20
59.3609190467
 11
112.577253562
 21
59.2808794453
  0
LINE
  5
30F
100
AcDbEntity
  8
A_RUNDUNGEN
100
AcDbLine
 62
7
  6
CONTINUOUS
 10
116.7076547622
 20
60.394393021
 11
112.5719068584
 21
59.2862227101
  0
LINE
  5
310
100
AcDbEntity
  8
A_RUNDUNGEN
100
AcDbLine
 62
7
  6
CONTINUOUS
 10
107.5518764468
 20
57.9411096154
 11
90.1851112882
 21
53.287698916
  0
LINE
  5
311
100
AcDbEntity
  8
0
100
AcDbLine
 62
7
  6
CONTINUOUS
 10
120.7855624621
 20
52.0091627314
 11
120.6864771507
 21
52.0039698902
  0
LINE
  5
312
100
AcDbEntity
  8
A_RUNDUNGEN
100
AcDbLine
 62
7
  6
CONTINUOUS
 10
78.1725091283
 20
35.2312390406
 11
78.1725091283
 21
31.6591609387
  0
LINE
  5
313
100
AcDbEntity
  8
A_RUNDUNGEN
100
AcDbLine
 62
7
  6
CONTINUOUS
 10
78.1725091283
 20
35.4400198489
 11
78.1725091283
 21
55.373163502
  0
LINE
  5
314
100
AcDbEntity
  8
A_RUNDUNGEN
100
AcDbLine
 62
7
  6
CONTINUOUS
 10
78.1725091283
 20
58.9712118094
 11
78.1725091283
 21
59.0337193136
  0
LINE
  5
315
100
AcDbEntity
  8
A_RUNDUNGEN
100
AcDbLine
 62
7
  6
CONTINUOUS
 10
78.1725091283
 20
62.9885418533
 11
78.1725091283
 21
63.0510035841
  0
LINE
  5
316
100
AcDbEntity
  8
A_RUNDUNGEN
100
AcDbLine
 62
7
  6
CONTINUOUS
 10
78.1725091283
 20
65.7740700176
 11
78.1725091283
 21
66.1149030417
  0
LINE
  5
317
100
AcDbEntity
  8
0
100
AcDbLine
 62
7
  6
CONTINUOUS
 10
78.2855624621
 20
71.0091627314
 11
78.2855624621
 21
68.0091627314
  0
LINE
  5
318
100
AcDbEntity
  8
0
100
AcDbLine
 62
7
  6
CONTINUOUS
 10
78.2855624621
 20
25.0091627314
 11
78.2855624621
 21
31.3555814491
  0
LINE
  5
319
100
AcDbEntity
  8
A_RUNDUNGEN
100
AcDbLine
 62
7
  6
CONTINUOUS
 10
78.3855624621
 20
66.5129655058
 11
78.3855624621
 21
67.9091627314
  0
LINE
  5
31A
100
AcDbEntity
  8
0
100
AcDbLine
 62
7
  6
CONTINUOUS
 10
79.8855624621
 20
67.9591627314
 11
79.8855624621
 21
67.2064636471
  0
LINE
  5
31B
100
AcDbEntity
  8
A_RUNDUNGEN
100
AcDbLine
 62
7
  6
CONTINUOUS
 10
79.8855624621
 20
66.6149078014
 11
79.8855624621
 21
67.2064636471
  0
LINE
  5
31C
100
AcDbEntity
  8
A_RUNDUNGEN
100
AcDbLine
 62
7
  6
CONTINUOUS
 10
78.1750337077
 20
35.5270161081
 11
78.1725091283
 21
35.4400198489
  0
LINE
  5
31D
100
AcDbEntity
  8
0
100
AcDbLine
 62
7
  6
CONTINUOUS
 10
72.4700226294
 20
54.3302546239
 11
76.6781832363
 21
55.9471789961
  0
LINE
  5
31E
100
AcDbEntity
  8
0
100
AcDbLine
 62
7
  6
CONTINUOUS
 10
85.4428624738
 20
59.3148792334
 11
87.5281609636
 21
60.1161247814
  0
LINE
  5
31F
100
AcDbEntity
  8
A_ACHSEN
100
AcDbLine
 62
7
  6
CENTER
 10
35.4492284732
 20
53.5194755996
 11
45.9031942705
 21
53.5194755996
  0
LINE
  5
320
100
AcDbEntity
  8
A_ACHSEN
100
AcDbLine
 62
7
  6
CENTER
 10
105.2946614995
 20
53.5227824326
 11
120.0661014396
 21
53.5227824326
  0
LINE
  5
321
100
AcDbEntity
  8
0
100
AcDbLine
 62
7
  6
CONTINUOUS
 10
120.7855624621
 20
54.4891627314
 11
120.4855624621
 21
54.4891627314
  0
LINE
  5
322
100
AcDbEntity
  8
0
100
AcDbLine
 62
7
  6
CONTINUOUS
 10
120.7855624621
 20
56.0650123314
 11
120.4855624621
 21
56.0650123314
  0
LINE
  5
323
100
AcDbEntity
  8
0
100
AcDbLine
 62
7
  6
CONTINUOUS
 10
33.7855622253
 20
56.208380776
 11
33.5855622253
 21
56.208380776
  0
LINE
  5
324
100
AcDbEntity
  8
0
100
AcDbLine
 62
7
  6
CONTINUOUS
 10
120.7855624621
 20
56.4595426043
 11
120.4855624621
 21
56.4595426043
  0
LINE
  5
325
100
AcDbEntity
  8
0
100
AcDbLine
 62
7
  6
CONTINUOUS
 10
120.7855624621
 20
56.483615966
 11
120.4855624621
 21
56.483615966
  0
LINE
  5
326
100
AcDbEntity
  8
0
100
AcDbLine
 62
7
  6
CONTINUOUS
 10
120.7855624621
 20
57.0523499826
 11
120.4855624621
 21
57.0523499826
  0
LINE
  5
327
100
AcDbEntity
  8
0
100
AcDbLine
 62
7
  6
CONTINUOUS
 10
80.8864959065
 20
54.3306395989
 11
65.8278264209
 21
60.1151272075
  0
LINE
  5
328
100
AcDbEntity
  8
A_ACHSEN
100
AcDbLine
 62
7
  6
CENTER
 10
85.1725007499
 20
32.2305814937
 11
85.1725007499
 21
42.7877368836
  0
LINE
  5
329
100
AcDbEntity
  8
A_RUNDUNGEN
100
AcDbLine
 62
7
  6
CONTINUOUS
 10
89.6782395675
 20
60.5153381196
 11
102.0776301541
 21
60.519351202
  0
LINE
  5
32A
100
AcDbEntity
  8
0
100
AcDbLine
 62
7
  6
CONTINUOUS
 10
102.0776301541
 20
60.519351202
 11
102.4857503569
 21
60.5194832908
  0
LINE
  5
32B
100
AcDbEntity
  8
0
100
AcDbLine
 62
7
  6
CONTINUOUS
 10
120.7855624621
 20
57.8689826043
 11
120.4855624621
 21
57.8689826043
  0
LINE
  5
32C
100
AcDbEntity
  8
0
100
AcDbLine
 62
7
  6
CONTINUOUS
 10
120.7855624621
 20
60.2609826043
 11
120.4855624621
 21
60.2609826043
  0
LINE
  5
32D
100
AcDbEntity
  8
A_ACHSEN
100
AcDbLine
 62
7
  6
CENTER
 10
71.2799825827
 20
61.0111291896
 11
82.0759158129
 21
61.0111291896
  0
LINE
  5
32E
100
AcDbEntity
  8
A_ACHSEN
100
AcDbLine
 62
7
  6
CONTINUOUS
 10
120.7855624621
 20
61.1331426043
 11
120.4855624621
 21
61.1331426043
  0
LINE
  5
32F
100
AcDbEntity
  8
0
100
AcDbLine
 62
7
  6
CONTINUOUS
 10
63.6777111733
 20
60.51414314
 11
50.8702000573
 21
60.5171124223
  0
LINE
  5
330
100
AcDbEntity
  8
0
100
AcDbLine
 62
7
  6
CONTINUOUS
 10
67.3433003991
 20
65.9814570233
 11
67.6855622253
 21
65.8218577127
  0
LINE
  5
331
100
AcDbEntity
  8
0
100
AcDbLine
 62
7
  6
CONTINUOUS
 10
86.2855622253
 20
74.908380776
 11
86.2855622253
 21
73.4887033114
  0
LINE
  5
332
100
AcDbEntity
  8
0
100
AcDbLine
 62
7
  6
CONTINUOUS
 10
87.2855622253
 20
72.908380776
 11
87.2855622253
 21
90.908380776
  0
LINE
  5
333
100
AcDbEntity
  8
0
100
AcDbLine
 62
7
  6
CONTINUOUS
 10
88.2855624621
 20
68.0091627314
 11
88.2855624621
 21
67.9225105845
  0
LINE
  5
334
100
AcDbEntity
  8
0
100
AcDbLine
 62
7
  6
CONTINUOUS
 10
80.4543656995
 20
39.8117016194
 11
83.8570899625
 21
46.7842170431
  0
LINE
  5
335
100
AcDbEntity
  8
A_RUNDUNGEN
100
AcDbLine
 62
7
  6
CONTINUOUS
 10
81.1273606394
 20
41.7197808982
 11
78.3301203646
 21
36.1093848674
  0
LINE
  5
336
100
AcDbEntity
  8
A_RUNDUNGEN
100
AcDbLine
 62
7
  6
CONTINUOUS
 10
81.1850112197
 20
41.6266185984
 11
80.7759782587
 21
40.8062253981
  0
LINE
  5
337
100
AcDbEntity
  8
A_RUNDUNGEN
100
AcDbLine
 62
7
  6
CONTINUOUS
 10
79.9035854434
 20
39.0564761069
 11
78.3301203646
 21
35.900593392
  0
LINE
  5
338
100
AcDbEntity
  8
A_RUNDUNGEN
100
AcDbLine
 62
7
  6
CONTINUOUS
 10
43.5995811281
 20
62.097056063
 11
38.8663575119
 21
62.0557498462
  0
LINE
  5
339
100
AcDbEntity
  8
A_RUNDUNGEN
100
AcDbLine
 62
7
  6
CONTINUOUS
 10
44.9577577676
 20
63.3936614345
 11
38.689925493
 21
63.3389628909
  0
LINE
  5
33A
100
AcDbEntity
  8
0
100
AcDbLine
 62
7
  6
CONTINUOUS
 10
38.2259027532
 20
63.3349134258
 11
38.689925493
 21
63.3389628909
  0
LINE
  5
33B
100
AcDbEntity
  8
0
100
AcDbLine
 62
7
  6
CONTINUOUS
 10
38.689925493
 20
65.0476421607
 11
34.6811989575
 21
65.0126585342
  0
LINE
  5
33C
100
AcDbEntity
  8
0
100
AcDbLine
 62
7
  6
CONTINUOUS
 10
34.6829442434
 20
64.9376551725
 11
39.1855622253
 21
64.9612310405
  0
LINE
  5
33D
100
AcDbEntity
  8
0
100
AcDbLine
 62
7
  6
CONTINUOUS
 10
104.141152708
 20
65.0200193
 11
95.8824554044
 21
65.0173463596
  0
LINE
  5
33E
100
AcDbEntity
  8
A_RUNDUNGEN
100
AcDbLine
 62
7
  6
CONTINUOUS
 10
80.2822124487
 20
65.0122973163
 11
95.8824554044
 21
65.0173463596
  0
LINE
  5
33F
100
AcDbEntity
  8
0
100
AcDbLine
 62
7
  6
CONTINUOUS
 10
120.7855624621
 20
61.946735226
 11
120.4855624621
 21
61.946735226
  0
LINE
  5
340
100
AcDbEntity
  8
0
100
AcDbLine
 62
7
  6
CONTINUOUS
 10
120.7855624621
 20
62.5154692426
 11
120.4855624621
 21
62.5154692426
  0
LINE
  5
341
100
AcDbEntity
  8
0
100
AcDbLine
 62
7
  6
CONTINUOUS
 10
120.7855624621
 20
62.5395426043
 11
120.4855624621
 21
62.5395426043
  0
LINE
  5
342
100
AcDbEntity
  8
0
100
AcDbLine
 62
7
  6
CONTINUOUS
 10
49.214384508
 20
65.0174964261
 11
73.0733253757
 21
65.01196499
  0
LINE
  5
343
100
AcDbEntity
  8
0
100
AcDbLine
 62
7
  6
CONTINUOUS
 10
118.3030148685
 20
64.9803103063
 11
113.9148515599
 21
65.0569059818
  0
LINE
  5
344
100
AcDbEntity
  8
0
100
AcDbLine
 62
7
  6
CONTINUOUS
 10
80.2142957137
 20
64.5458502987
 11
88.5230268426
 21
56.2332984812
  0
LINE
  5
345
100
AcDbEntity
  8
A_RUNDUNGEN
100
AcDbLine
 62
7
  6
CONTINUOUS
 10
90.1725091283
 20
35.2426740831
 11
90.1725091283
 21
31.9591485636
  0
LINE
  5
346
100
AcDbEntity
  8
0
100
AcDbLine
 62
7
  6
CONTINUOUS
 10
90.4257761971
 20
51.6366540851
 11
90.4225006088
 21
37.5079420332
  0
LINE
  5
347
100
AcDbEntity
  8
A_RUNDUNGEN
100
AcDbLine
 62
7
  6
CONTINUOUS
 10
72.1998382277
 20
66.5901263368
 11
71.9934463701
 21
66.5883251824
  0
LINE
  5
348
100
AcDbEntity
  8
A_RUNDUNGEN
100
AcDbLine
 62
7
  6
CONTINUOUS
 10
67.6861589146
 20
66.5507360542
 11
66.7998382277
 21
66.5430012507
  0
LINE
  5
349
100
AcDbEntity
  8
0
100
AcDbLine
 62
7
  6
CONTINUOUS
 10
39.4333805914
 20
66.304177793
 11
66.7998382277
 21
66.5430012507
  0
LINE
  5
34A
100
AcDbEntity
  8
A_RUNDUNGEN
100
AcDbLine
 62
7
  6
CONTINUOUS
 10
39.2514422694
 20
66.2115931257
 11
67.2855622253
 21
66.358380776
  0
LINE
  5
34B
100
AcDbEntity
  8
0
100
AcDbLine
 62
7
  6
CONTINUOUS
 10
42.9403588459
 20
67.7285920184
 11
67.2855622253
 21
67.8348186815
  0
LINE
  5
34C
100
AcDbEntity
  8
A_RUNDUNGEN
100
AcDbLine
 62
7
  6
CONTINUOUS
 10
67.2855622253
 20
67.8348186815
 11
72.6855622253
 21
67.858380776
  0
LINE
  5
34D
100
AcDbEntity
  8
A_RUNDUNGEN
100
AcDbLine
 62
7
  6
CONTINUOUS
 10
78.6725091283
 20
66.6149078014
 11
81.6566005446
 21
66.6149078014
  0
LINE
  5
34E
100
AcDbEntity
  8
A_RUNDUNGEN
100
AcDbLine
 62
7
  6
CONTINUOUS
 10
74.1855622253
 20
67.808380776
 11
72.6855622253
 21
67.808380776
  0
LINE
  5
34F
100
AcDbEntity
  8
0
100
AcDbLine
 62
7
  6
CONTINUOUS
 10
32.2855622253
 20
67.908380776
 11
74.2855622253
 21
67.908380776
  0
LINE
  5
350
100
AcDbEntity
  8
A_RUNDUNGEN
100
AcDbLine
 62
7
  6
CONTINUOUS
 10
78.3855624621
 20
67.9091627314
 11
79.8855624621
 21
67.9091627314
  0
LINE
  5
351
100
AcDbEntity
  8
0
100
AcDbLine
 62
7
  6
CONTINUOUS
 10
122.2855624621
 20
68.0091627314
 11
78.2855624621
 21
68.0091627314
  0
LINE
  5
352
100
AcDbEntity
  8
0
100
AcDbLine
 62
7
  6
CONTINUOUS
 10
79.8855624621
 20
67.9591627314
 11
114.8717742836
 21
67.8065056153
  0
LINE
  5
353
100
AcDbEntity
  8
A_RUNDUNGEN
100
AcDbLine
 62
7
  6
CONTINUOUS
 10
67.6855622253
 20
66.6191098709
 11
73.689925493
 21
66.5667105865
  0
LINE
  5
354
100
AcDbEntity
  8
0
100
AcDbLine
 62
7
  6
CONTINUOUS
 10
112.945297774
 20
65.4719014294
 11
85.0738541473
 21
65.9583992875
  0
LINE
  5
355
100
AcDbEntity
  8
0
100
AcDbLine
 62
7
  6
CONTINUOUS
 10
120.7855624621
 20
64.0091627314
 11
119.508327002
 21
64.0760998054
  0
LINE
  5
356
100
AcDbEntity
  8
0
100
AcDbLine
 62
7
  6
CONTINUOUS
 10
84.9871758529
 20
65.9675095434
 11
80.1283197635
 21
66.9119754921
  0
LINE
  5
357
100
AcDbEntity
  8
0
100
AcDbLine
 62
7
  6
CONTINUOUS
 10
77.7855622253
 20
70.908380776
 11
74.2855622253
 21
72.908380776
  0
LINE
  5
358
100
AcDbEntity
  8
0
100
AcDbLine
 62
7
  6
CONTINUOUS
 10
78.0511266624
 20
71.908380776
 11
75.2855622253
 21
73.4887033114
  0
LINE
  5
359
100
AcDbEntity
  8
0
100
AcDbLine
 62
7
  6
CONTINUOUS
 10
94.2855624621
 20
36.0091627314
 11
94.2855624621
 21
31.0091627314
  0
LINE
  5
35A
100
AcDbEntity
  8
0
100
AcDbLine
 62
7
  6
CONTINUOUS
 10
94.8855624621
 20
36.1246129937
 11
94.8855624621
 21
37.9409758052
  0
LINE
  5
35B
100
AcDbEntity
  8
0
100
AcDbLine
 62
7
  6
CONTINUOUS
 10
42.8401936919
 20
67.723123433
 11
33.6332979937
 21
66.7554397015
  0
LINE
  5
35C
100
AcDbEntity
  8
0
100
AcDbLine
 62
7
  6
CONTINUOUS
 10
83.7855622253
 20
70.908380776
 11
77.7855622253
 21
70.908380776
  0
LINE
  5
35D
100
AcDbEntity
  8
0
100
AcDbLine
 62
7
  6
CONTINUOUS
 10
133.2855624621
 20
71.0091627314
 11
78.2855624621
 21
71.0091627314
  0
LINE
  5
35E
100
AcDbEntity
  8
0
100
AcDbLine
 62
7
  6
CONTINUOUS
 10
83.5199977882
 20
71.908380776
 11
78.0511266624
 21
71.908380776
  0
LINE
  5
35F
100
AcDbEntity
  8
0
100
AcDbLine
 62
7
  6
CONTINUOUS
 10
120.4943221135
 20
67.0163080501
 11
114.8717742836
 21
67.8065056153
  0
LINE
  5
360
100
AcDbEntity
  8
A_RUNDUNGEN
100
AcDbLine
 62
7
  6
CONTINUOUS
 10
103.2973616177
 20
65.6403067814
 11
116.7076738008
 21
62.0470244617
  0
LINE
  5
361
100
AcDbEntity
  8
0
100
AcDbLine
 62
7
  6
CONTINUOUS
 10
95.8824554044
 20
65.0173463596
 11
102.0776301541
 21
60.519351202
  0
LINE
  5
362
100
AcDbEntity
  8
0
100
AcDbLine
 62
7
  6
CONTINUOUS
 10
74.2855622253
 20
24.908380776
 11
72.2855622253
 21
22.908380776
  0
LINE
  5
363
100
AcDbEntity
  8
0
100
AcDbLine
 62
7
  6
CONTINUOUS
 10
75.2855622253
 20
74.908380776
 11
86.2855622253
 21
74.908380776
  0
LINE
  5
364
100
AcDbEntity
  8
0
100
AcDbLine
 62
7
  6
CONTINUOUS
 10
74.2855622253
 20
75.908380776
 11
87.2855622253
 21
75.908380776
  0
LINE
  5
365
100
AcDbEntity
  8
0
100
AcDbLine
 62
7
  6
CONTINUOUS
 10
106.7289679626
 20
58.763488844
 11
108.4688892145
 21
57.0246866268
  0
LINE
  5
366
100
AcDbEntity
  8
0
100
AcDbLine
 62
7
  6
CONTINUOUS
 10
121.7161175852
 20
38.4080217438
 11
121.5792201437
 21
38.5591627314
  0
LINE
  5
367
100
AcDbEntity
  8
0
100
AcDbLine
 62
7
  6
CONTINUOUS
 10
104.6211473054
 20
38.9876351367
 11
104.6211473054
 21
42.4618457811
  0
LWPOLYLINE
  5
368
100
AcDbEntity
  8
0
100
AcDbPolyline
 62
7
  6
CONTINUOUS
 90
3
 70
0
 10
104.621147335
 20
38.9876351367
 10
104.6207530717
 20
38.9601279926
 10
104.6117133976
 20
38.8570741583
  0
LINE
  5
369
100
AcDbEntity
  8
A_RUNDUNGEN
100
AcDbLine
 62
7
  6
CONTINUOUS
 10
116.9454022448
 20
59.4992587575
 11
116.8858135472
 21
59.4354688435
  0
LINE
  5
36A
100
AcDbEntity
  8
A_RUNDUNGEN
100
AcDbLine
 62
7
  6
CONTINUOUS
 10
95.7034200131
 20
38.4362028041
 11
95.7034412268
 21
38.4362133477
  0
LINE
  5
36B
100
AcDbEntity
  8
0
100
AcDbLine
 62
7
  6
CONTINUOUS
 10
95.7131888673
 20
38.4410435161
 11
95.7034200131
 21
38.4362028041
  0
LWPOLYLINE
  5
36C
100
AcDbEntity
  8
0
100
AcDbPolyline
 62
7
  6
CONTINUOUS
 90
3
 70
0
 10
95.7034409861
 20
38.4362138318
 10
95.6036578765
 20
38.3931066109
 10
95.4443988742
 20
38.3511276087
  0
LWPOLYLINE
  5
36D
100
AcDbEntity
  8
0
100
AcDbPolyline
 62
7
  6
CONTINUOUS
 90
4
 70
0
 10
95.9924180995
 20
38.5546517648
 10
95.888832057
 20
38.5198015862
 10
95.7960923951
 20
38.4805436876
 10
95.7131888673
 20
38.4410435161
  0
LINE
  5
36E
100
AcDbEntity
  8
0
100
AcDbLine
 62
7
  6
CONTINUOUS
 10
113.6735777631
 20
65.1238171274
 11
113.1865715708
 21
65.4049902837
  0
LINE
  5
36F
100
AcDbEntity
  8
0
100
AcDbLine
 62
7
  6
CONTINUOUS
 10
115.5078986004
 20
56.3521192586
 11
108.7379717808
 21
63.1176919827
  0
LINE
  5
370
100
AcDbEntity
  8
0
100
AcDbLine
 62
7
  6
CONTINUOUS
 10
106.9315920784
 20
55.6581470363
 11
108.7694661177
 21
48.7991077438
  0
LWPOLYLINE
  5
371
100
AcDbEntity
  8
0
100
AcDbPolyline
 62
7
  6
CONTINUOUS
 90
3
 70
0
 10
104.6117133976
 20
38.8570741583
 10
104.5931846252
 20
38.7687146739
 10
104.5790667051
 20
38.7283634773
  0
LINE
  5
372
100
AcDbEntity
  8
A_RUNDUNGEN
100
AcDbLine
 62
7
  6
CONTINUOUS
 10
102.2439292009
 20
39.3534069367
 11
101.8556140899
 21
38.6808254351
  0
LINE
  5
373
100
AcDbEntity
  8
A_RUNDUNGEN
100
AcDbLine
 62
7
  6
CONTINUOUS
 10
116.9672968013
 20
59.5277556016
 11
116.9482971834
 21
59.5029948174
  0
LINE
  5
374
100
AcDbEntity
  8
A_RUNDUNGEN
100
AcDbLine
 62
7
  6
CONTINUOUS
 10
116.9482971834
 20
59.5029948174
 11
116.9454022448
 21
59.4992587575
  0
LINE
  5
375
100
AcDbEntity
  8
A_RUNDUNGEN
100
AcDbLine
 62
7
  6
CONTINUOUS
 10
105.5229417158
 20
38.8075385728
 11
106.0388914166
 21
39.1054222714
  0
LINE
  5
376
100
AcDbEntity
  8
A_ACHSEN
100
AcDbLine
 62
7
  6
CENTER
 10
112.6803814696
 20
46.1370624625
 11
112.6803814696
 21
60.9085024027
  0
LINE
  5
377
100
AcDbEntity
  8
A_RUNDUNGEN
100
AcDbLine
 62
7
  6
CONTINUOUS
 10
114.0782607505
 20
46.1978156611
 11
114.0782607505
 21
43.1182689419
  0
LINE
  5
378
100
AcDbEntity
  8
A_RUNDUNGEN
100
AcDbLine
 62
7
  6
CONTINUOUS
 10
117.0429831648
 20
58.7709451503
 11
117.0429831648
 21
59.5029948174
  0
LINE
  5
379
100
AcDbEntity
  8
A_RUNDUNGEN
100
AcDbLine
 62
7
  6
CONTINUOUS
 10
117.0429831648
 20
59.5277556001
 11
117.0429831648
 21
59.6693576355
  0
LINE
  5
37A
100
AcDbEntity
  8
A_RUNDUNGEN
100
AcDbLine
 62
7
  6
CONTINUOUS
 10
117.0472714404
 20
58.7709451503
 11
117.0472714404
 21
56.5447366763
  0
LINE
  5
37B
100
AcDbEntity
  8
A_RUNDUNGEN
100
AcDbLine
 62
7
  6
CONTINUOUS
 10
117.0706201269
 20
48.9584455915
 11
117.0706201269
 21
48.2746502468
  0
LINE
  5
37C
100
AcDbEntity
  8
A_RUNDUNGEN
100
AcDbLine
 62
7
  6
CONTINUOUS
 10
117.0706201269
 20
59.8321425134
 11
117.0706201269
 21
60.8429117197
  0
LINE
  5
37D
100
AcDbEntity
  8
A_RUNDUNGEN
100
AcDbLine
 62
7
  6
CONTINUOUS
 10
117.0782607505
 20
61.564066146
 11
117.0782607505
 21
60.8773761484
  0
LINE
  5
37E
100
AcDbEntity
  8
A_RUNDUNGEN
100
AcDbLine
 62
7
  6
CONTINUOUS
 10
117.0782607505
 20
48.2334253624
 11
117.0782607505
 21
47.768982922
  0
LINE
  5
37F
100
AcDbEntity
  8
0
100
AcDbLine
 62
7
  6
CONTINUOUS
 10
121.7269838183
 20
45.7005840876
 11
121.6587857668
 21
45.6323860361
  0
LINE
  5
380
100
AcDbEntity
  8
0
100
AcDbLine
 62
7
  6
CONTINUOUS
 10
87.2855622253
 20
90.908380776
 11
28.2855622253
 21
90.908380776
  0
LINE
  5
381
100
AcDbEntity
  8
0
100
AcDbLine
 62
7
  6
CONTINUOUS
 10
118.4291708607
 20
51.3874178289
 11
116.5912968214
 21
58.2464571214
  0
LINE
  5
382
100
AcDbEntity
  8
A_RUNDUNGEN
100
AcDbLine
 62
7
  6
CONTINUOUS
 10
119.2855624621
 20
40.177503371
 11
119.2855624621
 21
45.9644140834
  0
LINE
  5
383
100
AcDbEntity
  8
0
100
AcDbLine
 62
7
  6
CONTINUOUS
 10
119.2855624621
 20
45.9644140834
 11
119.2855624621
 21
49.2113476609
  0
LINE
  5
384
100
AcDbEntity
  8
A_RUNDUNGEN
100
AcDbLine
 62
7
  6
CONTINUOUS
 10
119.2855624621
 20
59.5069778018
 11
119.2855624621
 21
63.9804626111
  0
LINE
  5
385
100
AcDbEntity
  8
0
100
AcDbLine
 62
7
  6
CONTINUOUS
 10
120.2855624621
 20
38.806990534
 11
120.2855624621
 21
45.3113349287
  0
LINE
  5
386
100
AcDbEntity
  8
0
100
AcDbLine
 62
7
  6
CONTINUOUS
 10
120.4855624621
 20
54.4891627314
 11
120.4855624621
 21
56.0650123314
  0
LINE
  5
387
100
AcDbEntity
  8
0
100
AcDbLine
 62
7
  6
CONTINUOUS
 10
120.4855624621
 20
56.4596477867
 11
120.4855624621
 21
60.2609826043
  0
LINE
  5
388
100
AcDbEntity
  8
A_ACHSEN
100
AcDbLine
 62
7
  6
CONTINUOUS
 10
120.4855624621
 20
60.2609826043
 11
120.4855624621
 21
61.1331426043
  0
LINE
  5
389
100
AcDbEntity
  8
0
100
AcDbLine
 62
7
  6
CONTINUOUS
 10
120.4855624621
 20
61.1331426043
 11
120.4855624621
 21
62.5394374219
  0
LINE
  5
38A
100
AcDbEntity
  8
0
100
AcDbLine
 62
7
  6
CONTINUOUS
 10
120.7855624621
 20
54.4891627314
 11
120.7855624621
 21
52.0091627314
  0
LINE
  5
38B
100
AcDbEntity
  8
0
100
AcDbLine
 62
7
  6
CONTINUOUS
 10
120.7855624621
 20
56.0650123314
 11
120.7855624621
 21
56.483615966
  0
LINE
  5
38C
100
AcDbEntity
  8
0
100
AcDbLine
 62
7
  6
CONTINUOUS
 10
120.7855624621
 20
57.0523499826
 11
120.7855624621
 21
57.8689826043
  0
LINE
  5
38D
100
AcDbEntity
  8
0
100
AcDbLine
 62
7
  6
CONTINUOUS
 10
120.7855624621
 20
60.2609826043
 11
120.7855624621
 21
61.946735226
  0
LINE
  5
38E
100
AcDbEntity
  8
0
100
AcDbLine
 62
7
  6
CONTINUOUS
 10
120.7855624621
 20
62.5154692426
 11
120.7855624621
 21
64.0091627314
  0
LINE
  5
38F
100
AcDbEntity
  8
0
100
AcDbLine
 62
7
  6
CONTINUOUS
 10
121.2855624621
 20
38.8302627314
 11
121.2855624621
 21
45.2934379198
  0
LINE
  5
390
100
AcDbEntity
  8
A_RUNDUNGEN
100
AcDbLine
 62
7
  6
CONTINUOUS
 10
121.7855624621
 20
45.8420054438
 11
121.7855624621
 21
38.4874195157
  0
LINE
  5
391
100
AcDbEntity
  8
0
100
AcDbLine
 62
7
  6
CONTINUOUS
 10
121.7855624621
 20
45.8420054438
 11
121.7855624621
 21
65.530905947
  0
LINE
  5
392
100
AcDbEntity
  8
0
100
AcDbLine
 62
7
  6
CONTINUOUS
 10
122.2855624621
 20
36.0091627314
 11
122.2855624621
 21
68.0091627314
  0
LINE
  5
393
100
AcDbEntity
  8
0
100
AcDbLine
 62
7
  6
CONTINUOUS
 10
120.7629359899
 20
56.1961599902
 11
120.7611638257
 21
56.0644985509
  0
LWPOLYLINE
  5
394
100
AcDbEntity
  8
0
100
AcDbPolyline
 62
7
  6
CONTINUOUS
 90
4
 70
0
 10
120.7509011272
 20
54.489782176
 10
120.7468819986
 20
54.2648897601
 10
120.7341185177
 20
53.8650823122
 10
120.7146849059
 20
53.4857643468
  0
LWPOLYLINE
  5
395
100
AcDbEntity
  8
0
100
AcDbPolyline
 62
7
  6
CONTINUOUS
 90
4
 70
0
 10
120.7146849059
 20
53.4857643468
 10
120.6863227662
 20
53.128458306
 10
120.6442195223
 20
52.7810179232
 10
120.6100122529
 20
52.5819840239
  0
LINE
  5
396
100
AcDbEntity
  8
A_RUNDUNGEN
100
AcDbLine
 62
7
  6
CONTINUOUS
 10
120.6100122529
 20
52.5819840239
 11
120.6081685329
 21
52.5727731395
  0
LINE
  5
397
100
AcDbEntity
  8
0
100
AcDbLine
 62
7
  6
CONTINUOUS
 10
133.2855624621
 20
23.0091627314
 11
133.2855624621
 21
71.0091627314
  0
CIRCLE
  5
398
100
AcDbEntity
  8
A_KURVEN
100
AcDbCircle
 62
2
  6
CONTINUOUS
 10
36.48059833
 20
25.2125893477
 40
0.5
  0
CIRCLE
  5
399
100
AcDbEntity
  8
A_KURVEN
100
AcDbCircle
 62
2
  6
CONTINUOUS
 10
34.4622970909
 20
27.402660905
 40
0.5
  0
CIRCLE
  5
39A
100
AcDbEntity
  8
A_KURVEN
100
AcDbCircle
 62
2
  6
CONTINUOUS
 10
31.7998571586
 20
25.2125893477
 40
0.5
  0
CIRCLE
  5
39B
100
AcDbEntity
  8
A_KURVEN
100
AcDbCircle
 62
2
  6
CONTINUOUS
 10
29.775373214
 20
26.8067987095
 40
0.5
  0
CIRCLE
  5
39C
100
AcDbEntity
  8
A_KURVEN
100
AcDbCircle
 62
2
  6
CONTINUOUS
 10
40.7446743792
 20
23.7643698957
 40
0.5
  0
CIRCLE
  5
39D
100
AcDbEntity
  8
A_KURVEN
100
AcDbCircle
 62
2
  6
CONTINUOUS
 10
39.689137852
 20
26.8067987095
 40
0.5
  0
CIRCLE
  5
39E
100
AcDbEntity
  8
A_KURVEN
100
AcDbCircle
 62
2
  6
CONTINUOUS
 10
37.7726012713
 20
27.9119772876
 40
0.5
  0
CIRCLE
  5
39F
100
AcDbEntity
  8
A_KURVEN
100
AcDbCircle
 62
2
  6
CONTINUOUS
 10
43.0098277832
 20
26.8067987095
 40
0.5
  0
CIRCLE
  5
3A0
100
AcDbEntity
  8
A_KURVEN
100
AcDbCircle
 62
2
  6
CONTINUOUS
 10
46.2611261211
 20
26.4181375107
 40
0.5
  0
CIRCLE
  5
3A1
100
AcDbEntity
  8
A_KURVEN
100
AcDbCircle
 62
2
  6
CONTINUOUS
 10
44.2224741903
 20
24.8539993914
 40
0.5
  0
CIRCLE
  5
3A2
100
AcDbEntity
  8
A_KURVEN
100
AcDbCircle
 62
2
  6
CONTINUOUS
 10
46.9289603743
 20
23.7643698957
 40
0.5
  0
CIRCLE
  5
3A3
100
AcDbEntity
  8
A_KURVEN
100
AcDbCircle
 62
2
  6
CONTINUOUS
 10
34.4622970909
 20
23.7643698957
 40
0.5
  0
CIRCLE
  5
3A4
100
AcDbEntity
  8
A_KURVEN
100
AcDbCircle
 62
2
  6
CONTINUOUS
 10
49.2663802605
 20
26.8067987095
 40
0.5
  0
CIRCLE
  5
3A5
100
AcDbEntity
  8
A_KURVEN
100
AcDbCircle
 62
2
  6
CONTINUOUS
 10
53.6862117692
 20
25.2125893477
 40
0.5
  0
CIRCLE
  5
3A6
100
AcDbEntity
  8
A_KURVEN
100
AcDbCircle
 62
2
  6
CONTINUOUS
 10
50.3840733862
 20
23.7643698957
 40
0.5
  0
CIRCLE
  5
3A7
100
AcDbEntity
  8
A_KURVEN
100
AcDbCircle
 62
2
  6
CONTINUOUS
 10
51.3380244746
 20
25.2125893477
 40
0.5
  0
CIRCLE
  5
3A8
100
AcDbEntity
  8
A_KURVEN
100
AcDbCircle
 62
2
  6
CONTINUOUS
 10
54.3099490193
 20
27.9119772876
 40
0.5
  0
CIRCLE
  5
3A9
100
AcDbEntity
  8
A_KURVEN
100
AcDbCircle
 62
2
  6
CONTINUOUS
 10
55.1538288283
 20
23.7643698957
 40
0.5
  0
CIRCLE
  5
3AA
100
AcDbEntity
  8
A_KURVEN
100
AcDbCircle
 62
2
  6
CONTINUOUS
 10
36.48059833
 20
29.5068473032
 40
0.5
  0
CIRCLE
  5
3AB
100
AcDbEntity
  8
A_KURVEN
100
AcDbCircle
 62
2
  6
CONTINUOUS
 10
30.7692352493
 20
29.5068473032
 40
0.5
  0
CIRCLE
  5
3AC
100
AcDbEntity
  8
A_KURVEN
100
AcDbCircle
 62
2
  6
CONTINUOUS
 10
40.7446743792
 20
28.908380776
 40
0.5
  0
CIRCLE
  5
3AD
100
AcDbEntity
  8
A_KURVEN
100
AcDbCircle
 62
2
  6
CONTINUOUS
 10
45.5405681111
 20
30.1263750745
 40
0.5
  0
CIRCLE
  5
3AE
100
AcDbEntity
  8
A_KURVEN
100
AcDbCircle
 62
2
  6
CONTINUOUS
 10
43.8358333069
 20
28.908380776
 40
0.5
  0
CIRCLE
  5
3AF
100
AcDbEntity
  8
A_KURVEN
100
AcDbCircle
 62
2
  6
CONTINUOUS
 10
46.9289603743
 20
28.5270877839
 40
0.5
  0
CIRCLE
  5
3B0
100
AcDbEntity
  8
A_KURVEN
100
AcDbCircle
 62
2
  6
CONTINUOUS
 10
49.2663802605
 20
30.1263750745
 40
0.5
  0
CIRCLE
  5
3B1
100
AcDbEntity
  8
A_KURVEN
100
AcDbCircle
 62
2
  6
CONTINUOUS
 10
51.3380244746
 20
28.5270877839
 40
0.5
  0
CIRCLE
  5
3B2
100
AcDbEntity
  8
A_KURVEN
100
AcDbCircle
 62
2
  6
CONTINUOUS
 10
55.1538288283
 20
29.5068473032
 40
0.5
  0
CIRCLE
  5
3B3
100
AcDbEntity
  8
A_KURVEN
100
AcDbCircle
 62
2
  6
CONTINUOUS
 10
56.8048980198
 20
25.2125893477
 40
0.5
  0
CIRCLE
  5
3B4
100
AcDbEntity
  8
A_KURVEN
100
AcDbCircle
 62
2
  6
CONTINUOUS
 10
57.6120874023
 20
27.9119772876
 40
0.5
  0
CIRCLE
  5
3B5
100
AcDbEntity
  8
A_KURVEN
100
AcDbCircle
 62
2
  6
CONTINUOUS
 10
70.8577456981
 20
27.9119772876
 40
0.5
  0
CIRCLE
  5
3B6
100
AcDbEntity
  8
A_KURVEN
100
AcDbCircle
 62
2
  6
CONTINUOUS
 10
72.2062776111
 20
26.4181375107
 40
0.5
  0
CIRCLE
  5
3B7
100
AcDbEntity
  8
A_KURVEN
100
AcDbCircle
 62
2
  6
CONTINUOUS
 10
70.0100970671
 20
23.7643698957
 40
0.5
  0
CIRCLE
  5
3B8
100
AcDbEntity
  8
A_KURVEN
100
AcDbCircle
 62
2
  6
CONTINUOUS
 10
69.2395074026
 20
25.2125893477
 40
0.5
  0
CIRCLE
  5
3B9
100
AcDbEntity
  8
A_KURVEN
100
AcDbCircle
 62
2
  6
CONTINUOUS
 10
66.9662678922
 20
27.402660905
 40
0.5
  0
CIRCLE
  5
3BA
100
AcDbEntity
  8
A_KURVEN
100
AcDbCircle
 62
2
  6
CONTINUOUS
 10
65.4250885631
 20
25.2125893477
 40
0.5
  0
CIRCLE
  5
3BB
100
AcDbEntity
  8
A_KURVEN
100
AcDbCircle
 62
2
  6
CONTINUOUS
 10
62.6509657707
 20
24.8539993914
 40
0.5
  0
CIRCLE
  5
3BC
100
AcDbEntity
  8
A_KURVEN
100
AcDbCircle
 62
2
  6
CONTINUOUS
 10
59.5300776293
 20
23.7643698957
 40
0.5
  0
CIRCLE
  5
3BD
100
AcDbEntity
  8
A_KURVEN
100
AcDbCircle
 62
2
  6
CONTINUOUS
 10
60.8786095423
 20
26.8067987095
 40
0.5
  0
CIRCLE
  5
3BE
100
AcDbEntity
  8
A_KURVEN
100
AcDbCircle
 62
2
  6
CONTINUOUS
 10
80.5700259566
 20
24.8539993914
 40
0.5
  0
CIRCLE
  5
3BF
100
AcDbEntity
  8
A_KURVEN
100
AcDbCircle
 62
2
  6
CONTINUOUS
 10
79.430259496
 20
27.402660905
 40
0.5
  0
ARC
  5
3C0
100
AcDbEntity
  8
A_RUNDUNGEN
100
AcDbCircle
 62
7
  6
CONTINUOUS
 10
57.2689925998
 20
31.2612830544
 40
6.0
100
AcDbArc
 50
13.3838348475
 51
60.0
  0
ARC
  5
3C1
100
AcDbEntity
  8
A_RUNDUNGEN
100
AcDbCircle
 62
7
  6
CONTINUOUS
 10
63.8551367507
 20
32.8283990393
 40
0.7700233135
100
AcDbArc
 50
193.3866318106
 51
269.9972030413
  0
CIRCLE
  5
3C2
100
AcDbEntity
  8
A_KURVEN
100
AcDbCircle
 62
2
  6
CONTINUOUS
 10
73.0924557253
 20
29.5068473032
 40
0.5
  0
CIRCLE
  5
3C3
100
AcDbEntity
  8
A_KURVEN
100
AcDbCircle
 62
2
  6
CONTINUOUS
 10
68.0065639393
 20
29.5068473032
 40
0.5
  0
CIRCLE
  5
3C4
100
AcDbEntity
  8
A_KURVEN
100
AcDbCircle
 62
2
  6
CONTINUOUS
 10
59.5300776293
 20
28.908380776
 40
0.5
  0
CIRCLE
  5
3C5
100
AcDbEntity
  8
A_KURVEN
100
AcDbCircle
 62
2
  6
CONTINUOUS
 10
62.6509657707
 20
30.1263750745
 40
0.5
  0
CIRCLE
  5
3C6
100
AcDbEntity
  8
A_KURVEN
100
AcDbCircle
 62
2
  6
CONTINUOUS
 10
64.4618514824
 20
28.5270877839
 40
0.5
  0
CIRCLE
  5
3C7
100
AcDbEntity
  8
A_KURVEN
100
AcDbCircle
 62
2
  6
CONTINUOUS
 10
80.5700259566
 20
29.5068473032
 40
0.5
  0
ARC
  5
3C8
100
AcDbEntity
  8
0
100
AcDbCircle
 62
7
  6
CONTINUOUS
 10
35.1855622253
 20
39.3513812441
 40
1.0
100
AcDbArc
 50
180.0
 51
249.4439547804
  0
ARC
  5
3C9
100
AcDbEntity
  8
0
100
AcDbCircle
 62
7
  6
CONTINUOUS
 10
37.1460291369
 20
38.6162061523
 40
1.0
100
AcDbArc
 50
249.4439547804
 51
269.7
  0
ARC
  5
3CA
100
AcDbEntity
  8
0
100
AcDbCircle
 62
7
  6
CONTINUOUS
 10
42.9447221552
 20
37.0881600143
 40
1.0
100
AcDbArc
 50
264.0
 51
269.75
  0
ARC
  5
3CB
100
AcDbEntity
  8
0
100
AcDbCircle
 62
7
  6
CONTINUOUS
 10
42.6855622253
 20
38.6429102283
 40
0.5
100
AcDbArc
 50
0.0
 51
89.5
  0
ARC
  5
3CC
100
AcDbEntity
  8
0
100
AcDbCircle
 62
7
  6
CONTINUOUS
 10
33.6855622253
 20
37.5585827981
 40
0.5
100
AcDbArc
 50
180.0
 51
264.0
  0
ARC
  5
3CD
100
AcDbEntity
  8
0
100
AcDbCircle
 62
7
  6
CONTINUOUS
 10
38.228084387
 20
39.4318386069
 40
0.25
100
AcDbArc
 50
251.115572952
 51
269.5
  0
ARC
  5
3CE
100
AcDbEntity
  8
0
100
AcDbCircle
 62
7
  6
CONTINUOUS
 10
35.4355622253
 20
40.3870847441
 40
0.25
100
AcDbArc
 50
180.0
 51
251.115572952
  0
ARC
  5
3CF
100
AcDbEntity
  8
A_RUNDUNGEN
100
AcDbCircle
 62
7
  6
CONTINUOUS
 10
44.0355622253
 20
37.7224306478
 40
0.25
100
AcDbArc
 50
211.9242518067
 51
239.6652202598
  0
ARC
  5
3D0
100
AcDbEntity
  8
0
100
AcDbCircle
 62
7
  6
CONTINUOUS
 10
34.1355622253
 20
40.0166383455
 40
0.25
100
AcDbArc
 50
180.0
 51
246.4218215218
  0
ARC
  5
3D1
100
AcDbEntity
  8
0
100
AcDbCircle
 62
7
  6
CONTINUOUS
 10
33.9355622253
 20
39.558380776
 40
0.25
100
AcDbArc
 50
0.0
 51
66.4218215218
  0
ARC
  5
3D2
100
AcDbEntity
  8
0
100
AcDbCircle
 62
7
  6
CONTINUOUS
 10
34.4355622253
 20
38.7334326605
 40
0.25
100
AcDbArc
 50
180.0
 51
250.0
  0
ARC
  5
3D3
100
AcDbEntity
  8
0
100
AcDbCircle
 62
7
  6
CONTINUOUS
 10
37.0456717147
 20
37.7834304982
 40
0.25
100
AcDbArc
 50
250.0
 51
269.5
  0
ARC
  5
3D4
100
AcDbEntity
  8
A_RUNDUNGEN
100
AcDbCircle
 62
7
  6
CONTINUOUS
 10
42.1855622253
 20
43.9633258452
 40
1.0
100
AcDbArc
 50
0.0
 51
88.0
  0
ARC
  5
3D5
100
AcDbEntity
  8
0
100
AcDbCircle
 62
7
  6
CONTINUOUS
 10
33.7855622253
 20
44.808380776
 40
0.4
100
AcDbArc
 50
0.0
 51
90.0
  0
ARC
  5
3D6
100
AcDbEntity
  8
0
100
AcDbCircle
 62
7
  6
CONTINUOUS
 10
33.5855622253
 20
44.808380776
 40
0.4
100
AcDbArc
 50
90.0
 51
180.0
  0
ARC
  5
3D7
100
AcDbEntity
  8
A_RUNDUNGEN
100
AcDbCircle
 62
7
  6
CONTINUOUS
 10
35.4355622253
 20
45.4498051078
 40
0.2500007123
100
AcDbArc
 50
180.0004900315
 51
268.0000171017
  0
ARC
  5
3D8
100
AcDbEntity
  8
0
100
AcDbCircle
 62
7
  6
CONTINUOUS
 10
34.1355622253
 20
43.6001232065
 40
0.25
100
AcDbArc
 50
113.5781784782
 51
180.0
  0
ARC
  5
3D9
100
AcDbEntity
  8
0
100
AcDbCircle
 62
7
  6
CONTINUOUS
 10
33.9355622253
 20
44.058380776
 40
0.25
100
AcDbArc
 50
293.5781784782
 51
360.0
  0
ARC
  5
3DA
100
AcDbEntity
  8
0
100
AcDbCircle
 62
7
  6
CONTINUOUS
 10
56.1955622253
 20
36.8762837575
 40
0.49
100
AcDbArc
 50
0.0
 51
89.5
  0
ARC
  5
3DB
100
AcDbEntity
  8
A_RUNDUNGEN
100
AcDbCircle
 62
7
  6
CONTINUOUS
 10
52.6855622253
 20
38.5556415504
 40
0.5
100
AcDbArc
 50
0.0
 51
89.5
  0
ARC
  5
3DC
100
AcDbEntity
  8
A_RUNDUNGEN
100
AcDbCircle
 62
7
  6
CONTINUOUS
 10
52.4355602131
 20
39.3078518437
 40
0.2499993293
100
AcDbArc
 50
180.0000040245
 51
269.5
  0
ARC
  5
3DD
100
AcDbEntity
  8
0
100
AcDbCircle
 62
7
  6
CONTINUOUS
 10
68.1855622253
 20
37.508380776
 40
5.5
100
AcDbArc
 50
163.0152682664
 51
43.3365787863
  0
ARC
  5
3DE
100
AcDbEntity
  8
0
100
AcDbCircle
 62
7
  6
CONTINUOUS
 10
68.1855622253
 20
37.508380776
 40
5.25
100
AcDbArc
 50
180.0185438691
 51
26.0185438691
  0
CIRCLE
  5
3DF
100
AcDbEntity
  8
0
100
AcDbCircle
 62
7
  6
CONTINUOUS
 10
68.1855622253
 20
37.508380776
 40
2.75
  0
CIRCLE
  5
3E0
100
AcDbEntity
  8
A_RUNDUNGEN
100
AcDbCircle
 62
7
  6
CONTINUOUS
 10
68.1855622253
 20
37.508380776
 40
2.5465909091
  0
CIRCLE
  5
3E1
100
AcDbEntity
  8
A_RUNDUNGEN
100
AcDbCircle
 62
7
  6
CONTINUOUS
 10
68.1855622253
 20
37.508380776
 40
2.4269683804
  0
CIRCLE
  5
3E2
100
AcDbEntity
  8
A_KURVEN
100
AcDbCircle
 62
2
  6
CONTINUOUS
 10
83.4943710272
 20
23.7643698957
 40
0.5
  0
CIRCLE
  5
3E3
100
AcDbEntity
  8
A_KURVEN
100
AcDbCircle
 62
2
  6
CONTINUOUS
 10
82.6200781624
 20
26.4181375107
 40
0.5
  0
CIRCLE
  5
3E4
100
AcDbEntity
  8
A_KURVEN
100
AcDbCircle
 62
2
  6
CONTINUOUS
 10
84.5899135151
 20
25.2125893477
 40
0.5
  0
CIRCLE
  5
3E5
100
AcDbEntity
  8
A_KURVEN
100
AcDbCircle
 62
2
  6
CONTINUOUS
 10
87.1307156367
 20
23.7643698957
 40
0.5
  0
CIRCLE
  5
3E6
100
AcDbEntity
  8
A_KURVEN
100
AcDbCircle
 62
2
  6
CONTINUOUS
 10
88.1013591438
 20
25.2125893477
 40
0.5
  0
CIRCLE
  5
3E7
100
AcDbEntity
  8
A_KURVEN
100
AcDbCircle
 62
2
  6
CONTINUOUS
 10
90.4708712347
 20
23.7643698957
 40
0.5
  0
CIRCLE
  5
3E8
100
AcDbEntity
  8
A_KURVEN
100
AcDbCircle
 62
2
  6
CONTINUOUS
 10
90.4708712347
 20
26.8067987095
 40
0.5
  0
CIRCLE
  5
3E9
100
AcDbEntity
  8
A_KURVEN
100
AcDbCircle
 62
2
  6
CONTINUOUS
 10
93.0402216947
 20
24.8539993914
 40
0.5
  0
CIRCLE
  5
3EA
100
AcDbEntity
  8
A_KURVEN
100
AcDbCircle
 62
2
  6
CONTINUOUS
 10
96.3803772928
 20
23.7643698957
 40
0.5
  0
CIRCLE
  5
3EB
100
AcDbEntity
  8
A_KURVEN
100
AcDbCircle
 62
2
  6
CONTINUOUS
 10
95.1527987397
 20
25.7005281538
 40
0.5
  0
CIRCLE
  5
3EC
100
AcDbEntity
  8
A_KURVEN
100
AcDbCircle
 62
2
  6
CONTINUOUS
 10
99.2066627988
 20
23.7643698957
 40
0.5
  0
CIRCLE
  5
3ED
100
AcDbEntity
  8
A_KURVEN
100
AcDbCircle
 62
2
  6
CONTINUOUS
 10
98.0076325841
 20
26.4181375107
 40
0.5
  0
CIRCLE
  5
3EE
100
AcDbEntity
  8
A_KURVEN
100
AcDbCircle
 62
2
  6
CONTINUOUS
 10
101.8045615973
 20
24.3587562469
 40
0.5
  0
CIRCLE
  5
3EF
100
AcDbEntity
  8
A_KURVEN
100
AcDbCircle
 62
2
  6
CONTINUOUS
 10
100.2629513213
 20
25.7005281538
 40
0.5
  0
CIRCLE
  5
3F0
100
AcDbEntity
  8
A_KURVEN
100
AcDbCircle
 62
2
  6
CONTINUOUS
 10
106.1760259217
 20
24.8539993914
 40
0.5
  0
CIRCLE
  5
3F1
100
AcDbEntity
  8
A_KURVEN
100
AcDbCircle
 62
2
  6
CONTINUOUS
 10
104.3917547689
 20
24.3587562469
 40
0.5
  0
CIRCLE
  5
3F2
100
AcDbEntity
  8
A_KURVEN
100
AcDbCircle
 62
2
  6
CONTINUOUS
 10
104.3917547689
 20
26.8067987095
 40
0.5
  0
CIRCLE
  5
3F3
100
AcDbEntity
  8
A_KURVEN
100
AcDbCircle
 62
2
  6
CONTINUOUS
 10
83.4943710272
 20
29.5068473032
 40
0.5
  0
CIRCLE
  5
3F4
100
AcDbEntity
  8
A_KURVEN
100
AcDbCircle
 62
2
  6
CONTINUOUS
 10
87.1307156367
 20
27.9119772876
 40
0.5
  0
CIRCLE
  5
3F5
100
AcDbEntity
  8
A_KURVEN
100
AcDbCircle
 62
2
  6
CONTINUOUS
 10
85.3036219762
 20
28.5270877839
 40
0.5
  0
CIRCLE
  5
3F6
100
AcDbEntity
  8
A_KURVEN
100
AcDbCircle
 62
2
  6
CONTINUOUS
 10
88.1013591438
 20
30.1263750745
 40
0.5
  0
CIRCLE
  5
3F7
100
AcDbEntity
  8
A_KURVEN
100
AcDbCircle
 62
2
  6
CONTINUOUS
 10
90.4708712347
 20
29.5068473032
 40
0.5
  0
CIRCLE
  5
3F8
100
AcDbEntity
  8
A_KURVEN
100
AcDbCircle
 62
2
  6
CONTINUOUS
 10
93.0402216947
 20
29.5068473032
 40
0.5
  0
CIRCLE
  5
3F9
100
AcDbEntity
  8
A_KURVEN
100
AcDbCircle
 62
2
  6
CONTINUOUS
 10
93.0402216947
 20
27.402660905
 40
0.5
  0
CIRCLE
  5
3FA
100
AcDbEntity
  8
A_KURVEN
100
AcDbCircle
 62
2
  6
CONTINUOUS
 10
96.3803772928
 20
30.1263750745
 40
0.5
  0
CIRCLE
  5
3FB
100
AcDbEntity
  8
A_KURVEN
100
AcDbCircle
 62
2
  6
CONTINUOUS
 10
95.1527987397
 20
28.5270877839
 40
0.5
  0
CIRCLE
  5
3FC
100
AcDbEntity
  8
A_KURVEN
100
AcDbCircle
 62
2
  6
CONTINUOUS
 10
98.5215026761
 20
30.1263750745
 40
0.5
  0
CIRCLE
  5
3FD
100
AcDbEntity
  8
A_KURVEN
100
AcDbCircle
 62
2
  6
CONTINUOUS
 10
97.2653757846
 20
27.9119772876
 40
0.5
  0
CIRCLE
  5
3FE
100
AcDbEntity
  8
A_KURVEN
100
AcDbCircle
 62
2
  6
CONTINUOUS
 10
101.0052081208
 20
29.5068473032
 40
0.5
  0
CIRCLE
  5
3FF
100
AcDbEntity
  8
A_KURVEN
100
AcDbCircle
 62
2
  6
CONTINUOUS
 10
99.2066627988
 20
28.5270877839
 40
0.5
  0
CIRCLE
  5
400
100
AcDbEntity
  8
A_KURVEN
100
AcDbCircle
 62
2
  6
CONTINUOUS
 10
101.8045615973
 20
27.402660905
 40
0.5
  0
CIRCLE
  5
401
100
AcDbEntity
  8
A_KURVEN
100
AcDbCircle
 62
2
  6
CONTINUOUS
 10
103.5442259713
 20
29.5068473032
 40
0.5
  0
CIRCLE
  5
402
100
AcDbEntity
  8
A_KURVEN
100
AcDbCircle
 62
2
  6
CONTINUOUS
 10
106.1760259217
 20
30.1263750745
 40
0.5
  0
CIRCLE
  5
403
100
AcDbEntity
  8
A_KURVEN
100
AcDbCircle
 62
2
  6
CONTINUOUS
 10
106.1760259217
 20
27.9119772876
 40
0.5
  0
CIRCLE
  5
404
100
AcDbEntity
  8
A_KURVEN
100
AcDbCircle
 62
2
  6
CONTINUOUS
 10
131.4614699735
 20
23.7643698957
 40
0.5
  0
CIRCLE
  5
405
100
AcDbEntity
  8
A_KURVEN
100
AcDbCircle
 62
2
  6
CONTINUOUS
 10
132.3357628383
 20
26.4181375107
 40
0.5
  0
CIRCLE
  5
406
100
AcDbEntity
  8
A_KURVEN
100
AcDbCircle
 62
2
  6
CONTINUOUS
 10
130.3659274857
 20
25.2125893477
 40
0.5
  0
CIRCLE
  5
407
100
AcDbEntity
  8
A_KURVEN
100
AcDbCircle
 62
2
  6
CONTINUOUS
 10
127.8251253641
 20
23.7643698957
 40
0.5
  0
CIRCLE
  5
408
100
AcDbEntity
  8
A_KURVEN
100
AcDbCircle
 62
2
  6
CONTINUOUS
 10
126.8544818569
 20
25.2125893477
 40
0.5
  0
CIRCLE
  5
409
100
AcDbEntity
  8
A_KURVEN
100
AcDbCircle
 62
2
  6
CONTINUOUS
 10
124.484969766
 20
23.7643698957
 40
0.5
  0
CIRCLE
  5
40A
100
AcDbEntity
  8
A_KURVEN
100
AcDbCircle
 62
2
  6
CONTINUOUS
 10
124.484969766
 20
26.8067987095
 40
0.5
  0
CIRCLE
  5
40B
100
AcDbEntity
  8
A_KURVEN
100
AcDbCircle
 62
2
  6
CONTINUOUS
 10
121.915619306
 20
24.8539993914
 40
0.5
  0
CIRCLE
  5
40C
100
AcDbEntity
  8
A_KURVEN
100
AcDbCircle
 62
2
  6
CONTINUOUS
 10
118.5754637079
 20
23.7643698957
 40
0.5
  0
CIRCLE
  5
40D
100
AcDbEntity
  8
A_KURVEN
100
AcDbCircle
 62
2
  6
CONTINUOUS
 10
119.8030422611
 20
25.7005281538
 40
0.5
  0
CIRCLE
  5
40E
100
AcDbEntity
  8
A_KURVEN
100
AcDbCircle
 62
2
  6
CONTINUOUS
 10
115.7491782019
 20
23.7643698957
 40
0.5
  0
CIRCLE
  5
40F
100
AcDbEntity
  8
A_KURVEN
100
AcDbCircle
 62
2
  6
CONTINUOUS
 10
116.9482084166
 20
26.4181375107
 40
0.5
  0
CIRCLE
  5
410
100
AcDbEntity
  8
A_KURVEN
100
AcDbCircle
 62
2
  6
CONTINUOUS
 10
113.1512794034
 20
24.3587562469
 40
0.5
  0
CIRCLE
  5
411
100
AcDbEntity
  8
A_KURVEN
100
AcDbCircle
 62
2
  6
CONTINUOUS
 10
114.6928896794
 20
25.7005281538
 40
0.5
  0
CIRCLE
  5
412
100
AcDbEntity
  8
A_KURVEN
100
AcDbCircle
 62
2
  6
CONTINUOUS
 10
108.779815079
 20
24.8539993914
 40
0.5
  0
CIRCLE
  5
413
100
AcDbEntity
  8
A_KURVEN
100
AcDbCircle
 62
2
  6
CONTINUOUS
 10
110.5640862318
 20
24.3587562469
 40
0.5
  0
CIRCLE
  5
414
100
AcDbEntity
  8
A_KURVEN
100
AcDbCircle
 62
2
  6
CONTINUOUS
 10
110.5640862318
 20
26.8067987095
 40
0.5
  0
CIRCLE
  5
415
100
AcDbEntity
  8
A_KURVEN
100
AcDbCircle
 62
2
  6
CONTINUOUS
 10
131.4614699735
 20
29.5068473032
 40
0.5
  0
CIRCLE
  5
416
100
AcDbEntity
  8
A_KURVEN
100
AcDbCircle
 62
2
  6
CONTINUOUS
 10
127.8251253641
 20
27.9119772876
 40
0.5
  0
CIRCLE
  5
417
100
AcDbEntity
  8
A_KURVEN
100
AcDbCircle
 62
2
  6
CONTINUOUS
 10
129.6522190245
 20
28.5270877839
 40
0.5
  0
CIRCLE
  5
418
100
AcDbEntity
  8
A_KURVEN
100
AcDbCircle
 62
2
  6
CONTINUOUS
 10
126.8544818569
 20
30.1263750745
 40
0.5
  0
CIRCLE
  5
419
100
AcDbEntity
  8
A_KURVEN
100
AcDbCircle
 62
2
  6
CONTINUOUS
 10
124.484969766
 20
29.5068473032
 40
0.5
  0
CIRCLE
  5
41A
100
AcDbEntity
  8
A_KURVEN
100
AcDbCircle
 62
2
  6
CONTINUOUS
 10
121.915619306
 20
29.5068473032
 40
0.5
  0
CIRCLE
  5
41B
100
AcDbEntity
  8
A_KURVEN
100
AcDbCircle
 62
2
  6
CONTINUOUS
 10
121.915619306
 20
27.402660905
 40
0.5
  0
CIRCLE
  5
41C
100
AcDbEntity
  8
A_KURVEN
100
AcDbCircle
 62
2
  6
CONTINUOUS
 10
118.5754637079
 20
30.1263750745
 40
0.5
  0
CIRCLE
  5
41D
100
AcDbEntity
  8
A_KURVEN
100
AcDbCircle
 62
2
  6
CONTINUOUS
 10
119.8030422611
 20
28.5270877839
 40
0.5
  0
CIRCLE
  5
41E
100
AcDbEntity
  8
A_KURVEN
100
AcDbCircle
 62
2
  6
CONTINUOUS
 10
116.4343383246
 20
30.1263750745
 40
0.5
  0
CIRCLE
  5
41F
100
AcDbEntity
  8
A_KURVEN
100
AcDbCircle
 62
2
  6
CONTINUOUS
 10
117.6904652161
 20
27.9119772876
 40
0.5
  0
CIRCLE
  5
420
100
AcDbEntity
  8
A_KURVEN
100
AcDbCircle
 62
2
  6
CONTINUOUS
 10
113.9506328799
 20
29.5068473032
 40
0.5
  0
CIRCLE
  5
421
100
AcDbEntity
  8
A_KURVEN
100
AcDbCircle
 62
2
  6
CONTINUOUS
 10
115.7491782019
 20
28.5270877839
 40
0.5
  0
CIRCLE
  5
422
100
AcDbEntity
  8
A_KURVEN
100
AcDbCircle
 62
2
  6
CONTINUOUS
 10
113.1512794034
 20
27.402660905
 40
0.5
  0
CIRCLE
  5
423
100
AcDbEntity
  8
A_KURVEN
100
AcDbCircle
 62
2
  6
CONTINUOUS
 10
111.4116150294
 20
29.5068473032
 40
0.5
  0
CIRCLE
  5
424
100
AcDbEntity
  8
A_KURVEN
100
AcDbCircle
 62
2
  6
CONTINUOUS
 10
109.3812105142
 20
28.908380776
 40
0.5
  0
ARC
  5
425
100
AcDbEntity
  8
0
100
AcDbCircle
 62
7
  6
CONTINUOUS
 10
85.1725007499
 20
37.5091591886
 40
5.5
100
AcDbArc
 50
136.6686816793
 51
16.9899921993
  0
ARC
  5
426
100
AcDbEntity
  8
0
100
AcDbCircle
 62
7
  6
CONTINUOUS
 10
85.1725007499
 20
37.5091591886
 40
5.25
100
AcDbArc
 50
153.9867165966
 51
359.9867165966
  0
CIRCLE
  5
427
100
AcDbEntity
  8
0
100
AcDbCircle
 62
7
  6
CONTINUOUS
 10
85.1725007499
 20
37.5091591886
 40
2.75
  0
CIRCLE
  5
428
100
AcDbEntity
  8
A_RUNDUNGEN
100
AcDbCircle
 62
7
  6
CONTINUOUS
 10
85.1725091283
 20
37.5091561791
 40
2.5502018671
  0
ARC
  5
429
100
AcDbEntity
  8
A_RUNDUNGEN
100
AcDbCircle
 62
7
  6
CONTINUOUS
 10
85.1725091283
 20
37.5091561791
 40
2.4744860185
100
AcDbArc
 50
261.8439840705
 51
163.5480922787
  0
ARC
  5
42A
100
AcDbEntity
  8
0
100
AcDbCircle
 62
7
  6
CONTINUOUS
 10
95.2855624621
 20
37.9409758052
 40
0.4
100
AcDbArc
 50
90.5
 51
180.0
  0
ARC
  5
42B
100
AcDbEntity
  8
A_RUNDUNGEN
100
AcDbCircle
 62
7
  6
CONTINUOUS
 10
105.9235777631
 20
38.4614956334
 40
0.5
100
AcDbArc
 50
91.0
 51
120.0
  0
ARC
  5
42C
100
AcDbEntity
  8
A_RUNDUNGEN
100
AcDbCircle
 62
7
  6
CONTINUOUS
 10
105.2729417158
 20
39.2405512747
 40
0.5
100
AcDbArc
 50
271.0
 51
300.0
  0
ARC
  5
42D
100
AcDbEntity
  8
0
100
AcDbCircle
 62
7
  6
CONTINUOUS
 10
120.2855624621
 20
38.4874195157
 40
1.5
100
AcDbArc
 50
278.0
 51
350.5402211819
  0
ARC
  5
42E
100
AcDbEntity
  8
A_RUNDUNGEN
100
AcDbCircle
 62
7
  6
CONTINUOUS
 10
120.2855624621
 20
38.4874195157
 40
1.5
100
AcDbArc
 50
354.1998339716
 51
360.0
  0
ARC
  5
42F
100
AcDbEntity
  8
0
100
AcDbCircle
 62
7
  6
CONTINUOUS
 10
121.5566624621
 20
38.8302627314
 40
0.2711
100
AcDbArc
 50
180.0
 51
270.0
  0
ARC
  5
430
100
AcDbEntity
  8
0
100
AcDbCircle
 62
7
  6
CONTINUOUS
 10
120.0355624621
 20
38.806990534
 40
0.25
100
AcDbArc
 50
270.5
 51
360.0
  0
ARC
  5
431
100
AcDbEntity
  8
0
100
AcDbCircle
 62
7
  6
CONTINUOUS
 10
121.5678840489
 20
38.2737577549
 40
0.2
100
AcDbArc
 50
350.5402211819
 51
42.1690206477
  0
ARC
  5
432
100
AcDbEntity
  8
A_RUNDUNGEN
100
AcDbCircle
 62
7
  6
CONTINUOUS
 10
118.2855624621
 20
40.177503371
 40
1.0
100
AcDbArc
 50
271.0
 51
360.0
  0
ARC
  5
433
100
AcDbEntity
  8
0
100
AcDbCircle
 62
7
  6
CONTINUOUS
 10
105.1211767579
 20
42.4618168382
 40
0.5000319337
100
AcDbArc
 50
91.0033164129
 51
179.9966835837
  0
ARC
  5
434
100
AcDbEntity
  8
A_RUNDUNGEN
100
AcDbCircle
 62
7
  6
CONTINUOUS
 10
118.7855624629
 20
43.7005115259
 40
0.4999998371
100
AcDbArc
 50
271.0001264324
 51
359.9999999966
  0
ARC
  5
435
100
AcDbEntity
  8
0
100
AcDbCircle
 62
7
  6
CONTINUOUS
 10
121.5566624621
 20
45.2934379198
 40
0.2711
100
AcDbArc
 50
98.2365997686
 51
180.0
  0
ARC
  5
436
100
AcDbEntity
  8
0
100
AcDbCircle
 62
7
  6
CONTINUOUS
 10
120.0355624621
 20
45.3113349287
 40
0.25
100
AcDbArc
 50
0.0
 51
89.5
  0
ARC
  5
437
100
AcDbEntity
  8
0
100
AcDbCircle
 62
7
  6
CONTINUOUS
 10
83.9257763718
 20
51.6381610394
 40
6.5
100
AcDbArc
 50
359.9867165966
 51
44.9868295767
  0
ARC
  5
438
100
AcDbEntity
  8
0
100
AcDbCircle
 62
7
  6
CONTINUOUS
 10
69.4309893799
 20
51.637497032
 40
6.5
100
AcDbArc
 50
135.0184308889
 51
180.0185438691
  0
ARC
  5
439
100
AcDbEntity
  8
0
100
AcDbCircle
 62
7
  6
CONTINUOUS
 10
50.8688090225
 20
54.5171125835
 40
6.0
100
AcDbArc
 50
89.9867165966
 51
134.9868295767
  0
ARC
  5
43A
100
AcDbEntity
  8
0
100
AcDbCircle
 62
7
  6
CONTINUOUS
 10
63.6763201386
 20
54.5141433013
 40
6.0
100
AcDbArc
 50
68.9867165966
 51
89.9867165966
  0
ARC
  5
43B
100
AcDbEntity
  8
0
100
AcDbCircle
 62
7
  6
CONTINUOUS
 10
78.9142818144
 20
49.1964043515
 40
5.5
100
AcDbArc
 50
333.9867165966
 51
68.9867165966
  0
ARC
  5
43C
100
AcDbEntity
  8
0
100
AcDbCircle
 62
7
  6
CONTINUOUS
 10
74.4427080999
 20
49.196200472
 40
5.5
100
AcDbArc
 50
188.9098215914
 51
206.0185438691
  0
ARC
  5
43D
100
AcDbEntity
  8
A_RUNDUNGEN
100
AcDbCircle
 62
7
  6
CONTINUOUS
 10
74.4427080999
 20
49.196200472
 40
5.5
100
AcDbArc
 50
111.0185438691
 51
188.9098215914
  0
ARC
  5
43E
100
AcDbEntity
  8
0
100
AcDbCircle
 62
7
  6
CONTINUOUS
 10
38.5889388827
 20
53.4570752311
 40
4.9997311151
100
AcDbArc
 50
246.8901671151
 51
263.1098328849
  0
ARC
  5
43F
100
AcDbEntity
  8
0
100
AcDbCircle
 62
7
  6
CONTINUOUS
 10
38.8997805558
 20
54.6171521485
 40
4.9997311151
100
AcDbArc
 50
68.1876966476
 51
83.1098328849
  0
ARC
  5
440
100
AcDbEntity
  8
0
100
AcDbCircle
 62
7
  6
CONTINUOUS
 10
42.4526421878
 20
52.4217990507
 40
4.9997311151
100
AcDbArc
 50
246.8901671151
 51
263.1098328849
  0
ARC
  5
441
100
AcDbEntity
  8
A_ACHSEN
100
AcDbCircle
 62
7
  6
CONTINUOUS
 10
40.6762113718
 20
53.5194755996
 40
4.75
100
AcDbArc
 50
102.5283182866
 51
36.868774225
  0
ARC
  5
442
100
AcDbEntity
  8
0
100
AcDbCircle
 62
7
  6
CONTINUOUS
 10
40.6762113718
 20
53.5194755996
 40
4.0
100
AcDbArc
 50
134.9868295767
 51
20.3625112245
  0
CIRCLE
  5
443
100
AcDbEntity
  8
0
100
AcDbCircle
 62
7
  6
CONTINUOUS
 10
40.6762113718
 20
53.5194755996
 40
2.55
  0
CIRCLE
  5
444
100
AcDbEntity
  8
A_ACHSEN
100
AcDbCircle
 62
7
  6
CONTINUOUS
 10
40.6762113718
 20
53.5194755996
 40
2.0357864376
  0
ARC
  5
445
100
AcDbEntity
  8
0
100
AcDbCircle
 62
7
  6
CONTINUOUS
 10
46.3012705344
 20
55.6072278401
 40
2.0
100
AcDbArc
 50
134.9868295767
 51
200.3625112245
  0
ARC
  5
446
100
AcDbEntity
  8
0
100
AcDbCircle
 62
7
  6
CONTINUOUS
 10
36.8590139104
 20
50.8665424982
 40
1.9997311151
100
AcDbArc
 50
212.9751505783
 51
255.0
  0
ARC
  5
447
100
AcDbEntity
  8
0
100
AcDbCircle
 62
7
  6
CONTINUOUS
 10
44.4934088332
 20
56.172408701
 40
1.9997311151
100
AcDbArc
 50
345.0
 51
54.2675551158
  0
ARC
  5
448
100
AcDbEntity
  8
0
100
AcDbCircle
 62
7
  6
CONTINUOUS
 10
42.655534794
 20
49.3133694086
 40
1.9997311151
100
AcDbArc
 50
255.0
 51
345.0
  0
ARC
  5
449
100
AcDbEntity
  8
0
100
AcDbCircle
 62
7
  6
CONTINUOUS
 10
33.9355622253
 20
54.6128892732
 40
0.25
100
AcDbArc
 50
180.0
 51
243.4349488229
  0
ARC
  5
44A
100
AcDbEntity
  8
0
100
AcDbCircle
 62
7
  6
CONTINUOUS
 10
33.9355622253
 20
46.8038722788
 40
0.25
100
AcDbArc
 50
116.5650511771
 51
180.0
  0
ARC
  5
44B
100
AcDbEntity
  8
0
100
AcDbCircle
 62
7
  6
CONTINUOUS
 10
33.9355622253
 20
46.458380776
 40
0.25
100
AcDbArc
 50
180.0
 51
270.0
  0
ARC
  5
44C
100
AcDbEntity
  8
0
100
AcDbCircle
 62
7
  6
CONTINUOUS
 10
33.9355622253
 20
54.958380776
 40
0.25
100
AcDbArc
 50
90.0
 51
180.0
  0
ARC
  5
44D
100
AcDbEntity
  8
0
100
AcDbCircle
 62
7
  6
CONTINUOUS
 10
33.9355622253
 20
54.0538722788
 40
0.25
100
AcDbArc
 50
0.0
 51
63.4349488229
  0
ARC
  5
44E
100
AcDbEntity
  8
0
100
AcDbCircle
 62
7
  6
CONTINUOUS
 10
33.9355622253
 20
47.3628892732
 40
0.25
100
AcDbArc
 50
296.5650511771
 51
360.0
  0
ARC
  5
44F
100
AcDbEntity
  8
0
100
AcDbCircle
 62
7
  6
CONTINUOUS
 10
33.9355622253
 20
45.958380776
 40
0.25
100
AcDbArc
 50
0.0
 51
90.0
  0
ARC
  5
450
100
AcDbEntity
  8
0
100
AcDbCircle
 62
7
  6
CONTINUOUS
 10
33.9355622253
 20
55.458380776
 40
0.25
100
AcDbArc
 50
270.0
 51
360.0
  0
ARC
  5
451
100
AcDbEntity
  8
0
100
AcDbCircle
 62
7
  6
CONTINUOUS
 10
49.2128775537
 20
58.5174966007
 40
6.5
100
AcDbArc
 50
89.9867165966
 51
134.9868295767
  0
ARC
  5
452
100
AcDbEntity
  8
0
100
AcDbCircle
 62
7
  6
CONTINUOUS
 10
38.6968879497
 20
57.7255817907
 40
1.9997311151
100
AcDbArc
 50
75.0
 51
165.0
  0
ARC
  5
453
100
AcDbEntity
  8
A_RUNDUNGEN
100
AcDbCircle
 62
7
  6
CONTINUOUS
 10
36.2855622262
 20
59.945136137
 40
0.5000000009
100
AcDbArc
 50
180.0000000749
 51
255.0001460656
  0
ARC
  5
454
100
AcDbEntity
  8
A_RUNDUNGEN
100
AcDbCircle
 62
7
  6
CONTINUOUS
 10
36.2855622253
 20
60.6714562168
 40
0.5
100
AcDbArc
 50
108.884427048
 51
180.0
  0
ARC
  5
455
100
AcDbEntity
  8
A_RUNDUNGEN
100
AcDbCircle
 62
7
  6
CONTINUOUS
 10
38.8707207796
 20
61.5557688847
 40
0.5
100
AcDbArc
 50
90.5
 51
108.884427048
  0
ARC
  5
456
100
AcDbEntity
  8
0
100
AcDbCircle
 62
7
  6
CONTINUOUS
 10
33.7855622253
 20
56.608380776
 40
0.4
100
AcDbArc
 50
270.0
 51
360.0
  0
ARC
  5
457
100
AcDbEntity
  8
0
100
AcDbCircle
 62
7
  6
CONTINUOUS
 10
33.5855622253
 20
56.608380776
 40
0.4
100
AcDbArc
 50
180.0
 51
270.0
  0
ARC
  5
458
100
AcDbEntity
  8
0
100
AcDbCircle
 62
7
  6
CONTINUOUS
 10
42.9447221552
 20
66.7286015377
 40
1.0
100
AcDbArc
 50
90.25
 51
96.0
  0
ARC
  5
459
100
AcDbEntity
  8
0
100
AcDbCircle
 62
7
  6
CONTINUOUS
 10
38.6855622253
 20
63.8389438524
 40
0.5
100
AcDbArc
 50
270.5
 51
360.0
  0
ARC
  5
45A
100
AcDbEntity
  8
0
100
AcDbCircle
 62
7
  6
CONTINUOUS
 10
34.6855622253
 20
64.4376620263
 40
0.5
100
AcDbArc
 50
90.3
 51
180.0
  0
ARC
  5
45B
100
AcDbEntity
  8
0
100
AcDbCircle
 62
7
  6
CONTINUOUS
 10
34.6855622253
 20
64.5126775727
 40
0.5
100
AcDbArc
 50
90.5
 51
180.0
  0
ARC
  5
45C
100
AcDbEntity
  8
0
100
AcDbCircle
 62
7
  6
CONTINUOUS
 10
38.6855622253
 20
65.5476231222
 40
0.5
100
AcDbArc
 50
270.5
 51
360.0
  0
ARC
  5
45D
100
AcDbEntity
  8
0
100
AcDbCircle
 62
7
  6
CONTINUOUS
 10
33.6855622253
 20
66.2581787538
 40
0.5
100
AcDbArc
 50
96.0
 51
180.0
  0
ARC
  5
45E
100
AcDbEntity
  8
0
100
AcDbCircle
 62
7
  6
CONTINUOUS
 10
35.4355622253
 20
62.1296768078
 40
0.25
100
AcDbArc
 50
108.884427048
 51
180.0
  0
ARC
  5
45F
100
AcDbEntity
  8
0
100
AcDbCircle
 62
7
  6
CONTINUOUS
 10
38.228084387
 20
63.084922945
 40
0.25
100
AcDbArc
 50
90.5
 51
108.884427048
  0
ARC
  5
460
100
AcDbEntity
  8
A_RUNDUNGEN
100
AcDbCircle
 62
7
  6
CONTINUOUS
 10
44.0355622253
 20
66.0943309041
 40
0.25
100
AcDbArc
 50
120.3346845765
 51
148.027806792
  0
ARC
  5
461
100
AcDbEntity
  8
0
100
AcDbCircle
 62
7
  6
CONTINUOUS
 10
39.4355622253
 20
66.0541873123
 40
0.25
100
AcDbArc
 50
90.5
 51
180.0
  0
ARC
  5
462
100
AcDbEntity
  8
0
100
AcDbCircle
 62
7
  6
CONTINUOUS
 10
76.6779491978
 20
61.0111291896
 40
5.0
100
AcDbArc
 50
44.9868295767
 51
120.9894357305
  0
CIRCLE
  5
463
100
AcDbEntity
  8
0
100
AcDbCircle
 62
7
  6
CONTINUOUS
 10
76.6779491978
 20
61.0111291896
 40
2.75
  0
CIRCLE
  5
464
100
AcDbEntity
  8
A_ACHSEN
100
AcDbCircle
 62
7
  6
CONTINUOUS
 10
76.6779559683
 20
61.0111305835
 40
1.75
  0
ARC
  5
465
100
AcDbEntity
  8
0
100
AcDbCircle
 62
7
  6
CONTINUOUS
 10
73.0737890539
 20
67.0119649362
 40
2.0
100
AcDbArc
 50
269.9867165966
 51
300.9894357305
  0
ARC
  5
466
100
AcDbEntity
  8
0
100
AcDbCircle
 62
7
  6
CONTINUOUS
 10
80.2815651455
 20
67.0122972115
 40
2.0
100
AcDbArc
 50
239.0158247352
 51
270.0185438691
  0
ARC
  5
467
100
AcDbEntity
  8
A_RUNDUNGEN
100
AcDbCircle
 62
7
  6
CONTINUOUS
 10
73.6855622253
 20
66.066729625
 40
0.5
100
AcDbArc
 50
0.0
 51
89.5
  0
ARC
  5
468
100
AcDbEntity
  8
A_RUNDUNGEN
100
AcDbCircle
 62
7
  6
CONTINUOUS
 10
67.7855622253
 20
66.0515844945
 40
0.5
100
AcDbArc
 50
101.6333011576
 51
179.995348501
  0
ARC
  5
469
100
AcDbEntity
  8
0
100
AcDbCircle
 62
7
  6
CONTINUOUS
 10
85.0825803506
 20
66.4583231351
 40
0.5
100
AcDbArc
 50
259.0
 51
269.0
  0
ARC
  5
46A
100
AcDbEntity
  8
A_RUNDUNGEN
100
AcDbCircle
 62
7
  6
CONTINUOUS
 10
72.1955622253
 20
67.0801076791
 40
0.49
100
AcDbArc
 50
270.5
 51
360.0
  0
ARC
  5
46B
100
AcDbEntity
  8
0
100
AcDbCircle
 62
7
  6
CONTINUOUS
 10
66.7955622253
 20
67.032982593
 40
0.49
100
AcDbArc
 50
270.5
 51
360.0
  0
ARC
  5
46C
100
AcDbEntity
  8
0
100
AcDbCircle
 62
7
  6
CONTINUOUS
 10
80.1855624621
 20
67.2064636471
 40
0.3
100
AcDbArc
 50
180.0
 51
259.0
  0
ARC
  5
46D
100
AcDbEntity
  8
0
100
AcDbCircle
 62
7
  6
CONTINUOUS
 10
67.3855622253
 20
66.0720878021
 40
0.1
100
AcDbArc
 50
180.0
 51
245.0
  0
ARC
  5
46E
100
AcDbEntity
  8
0
100
AcDbCircle
 62
7
  6
CONTINUOUS
 10
111.7022291287
 20
54.3591627314
 40
9.0833333333
100
AcDbArc
 50
327.5092588329
 51
343.5651308196
  0
ARC
  5
46F
100
AcDbEntity
  8
A_RUNDUNGEN
100
AcDbCircle
 62
7
  6
CONTINUOUS
 10
111.7022291287
 20
54.3591627314
 40
9.0833333333
100
AcDbArc
 50
10.8216861144
 51
13.4178796396
  0
ARC
  5
470
100
AcDbEntity
  8
A_RUNDUNGEN
100
AcDbCircle
 62
7
  6
CONTINUOUS
 10
111.7022291287
 20
54.3591627314
 40
9.0833333333
100
AcDbArc
 50
14.3268409936
 51
32.4907411671
  0
ARC
  5
471
100
AcDbEntity
  8
A_RUNDUNGEN
100
AcDbCircle
 62
7
  6
CONTINUOUS
 10
111.7022291287
 20
54.3591627314
 40
9.0833333333
100
AcDbArc
 50
343.5060409363
 51
348.6854761495
  0
ARC
  5
472
100
AcDbEntity
  8
A_RUNDUNGEN
100
AcDbCircle
 62
7
  6
CONTINUOUS
 10
127.8719277981
 20
56.080526207
 40
7.1099321868
100
AcDbArc
 50
176.9406018253
 51
179.0681177141
  0
ARC
  5
473
100
AcDbEntity
  8
0
100
AcDbCircle
 62
7
  6
CONTINUOUS
 10
89.6801814769
 20
54.5153384339
 40
6.0
100
AcDbArc
 50
90.0185438691
 51
111.0185438691
  0
ARC
  5
474
100
AcDbEntity
  8
0
100
AcDbCircle
 62
7
  6
CONTINUOUS
 10
102.4876922663
 20
54.519483605
 40
6.0
100
AcDbArc
 50
45.0184308889
 51
90.0185438691
  0
ARC
  5
475
100
AcDbEntity
  8
0
100
AcDbCircle
 62
7
  6
CONTINUOUS
 10
114.7676539587
 20
53.4603820642
 40
4.9997311151
100
AcDbArc
 50
276.8901671157
 51
293.1098328854
  0
ARC
  5
476
100
AcDbEntity
  8
0
100
AcDbCircle
 62
7
  6
CONTINUOUS
 10
110.9039506536
 20
52.4251058837
 40
4.9997311151
100
AcDbArc
 50
276.8901671157
 51
293.1098328854
  0
ARC
  5
477
100
AcDbEntity
  8
A_ACHSEN
100
AcDbCircle
 62
7
  6
CONTINUOUS
 10
112.6803814696
 20
53.5227824326
 40
4.75
100
AcDbArc
 50
143.1364862407
 51
77.4769421791
  0
ARC
  5
478
100
AcDbEntity
  8
0
100
AcDbCircle
 62
7
  6
CONTINUOUS
 10
112.6803814696
 20
53.5227824326
 40
4.0
100
AcDbArc
 50
159.6427492411
 51
45.0184308889
  0
CIRCLE
  5
479
100
AcDbEntity
  8
0
100
AcDbCircle
 62
7
  6
CONTINUOUS
 10
112.6803814696
 20
53.5227824326
 40
2.55
  0
ARC
  5
47A
100
AcDbEntity
  8
0
100
AcDbCircle
 62
7
  6
CONTINUOUS
 10
107.055130649
 20
55.6100182138
 40
2.0
100
AcDbArc
 50
339.6427492411
 51
45.0184308889
  0
ARC
  5
47B
100
AcDbEntity
  8
0
100
AcDbCircle
 62
7
  6
CONTINUOUS
 10
116.497578931
 20
50.8698493313
 40
1.9997311151
100
AcDbArc
 50
285.0000000005
 51
15.0000000005
  0
ARC
  5
47C
100
AcDbEntity
  8
0
100
AcDbCircle
 62
7
  6
CONTINUOUS
 10
110.7010580474
 20
49.3166762415
 40
1.9997311151
100
AcDbArc
 50
195.0000000005
 51
285.0000000005
  0
ARC
  5
47D
100
AcDbEntity
  8
0
100
AcDbCircle
 62
7
  6
CONTINUOUS
 10
108.8631840081
 20
56.175715534
 40
1.9997311151
100
AcDbArc
 50
125.7497208794
 51
195.0000000005
  0
ARC
  5
47E
100
AcDbEntity
  8
0
100
AcDbCircle
 62
7
  6
CONTINUOUS
 10
119.7855624621
 20
49.2113476609
 40
0.5
100
AcDbArc
 50
147.5092588329
 51
180.0
  0
ARC
  5
47F
100
AcDbEntity
  8
0
100
AcDbCircle
 62
7
  6
CONTINUOUS
 10
119.6855624621
 20
45.9644140834
 40
0.4
100
AcDbArc
 50
180.0
 51
269.5
  0
ARC
  5
480
100
AcDbEntity
  8
0
100
AcDbCircle
 62
7
  6
CONTINUOUS
 10
120.7021779376
 20
51.7043810298
 40
0.3
100
AcDbArc
 50
93.0
 51
163.5651308196
  0
ARC
  5
481
100
AcDbEntity
  8
0
100
AcDbCircle
 62
7
  6
CONTINUOUS
 10
121.4820090715
 20
45.8091627314
 40
0.25
100
AcDbArc
 50
278.2365997686
 51
315.0
  0
ARC
  5
482
100
AcDbEntity
  8
0
100
AcDbCircle
 62
7
  6
CONTINUOUS
 10
121.5855624621
 20
45.8420054438
 40
0.2
100
AcDbArc
 50
315.0
 51
360.0
  0
ARC
  5
483
100
AcDbEntity
  8
A_RUNDUNGEN
100
AcDbCircle
 62
7
  6
CONTINUOUS
 10
145.0071852415
 20
59.4594860533
 40
27.9585128474
100
AcDbArc
 50
179.4754875139
 51
179.6839290815
  0
ARC
  5
484
100
AcDbEntity
  8
0
100
AcDbCircle
 62
7
  6
CONTINUOUS
 10
104.1432564432
 20
58.5200196405
 40
6.5
100
AcDbArc
 50
45.0184308889
 51
90.0185438691
  0
ARC
  5
485
100
AcDbEntity
  8
0
100
AcDbCircle
 62
7
  6
CONTINUOUS
 10
114.6597048917
 20
57.7288886237
 40
1.9997311151
100
AcDbArc
 50
15.0000000005
 51
105.0000000005
  0
ARC
  5
486
100
AcDbEntity
  8
0
100
AcDbCircle
 62
7
  6
CONTINUOUS
 10
120.2855624621
 20
65.530905947
 40
1.5
100
AcDbArc
 50
0.0
 51
82.0
  0
ARC
  5
487
100
AcDbEntity
  8
0
100
AcDbCircle
 62
7
  6
CONTINUOUS
 10
118.2855624621
 20
63.9804626111
 40
1.0
100
AcDbArc
 50
17.6992170125
 51
89.0
  0
ARC
  5
488
100
AcDbEntity
  8
A_RUNDUNGEN
100
AcDbCircle
 62
7
  6
CONTINUOUS
 10
118.2855624621
 20
63.9804626111
 40
1.0
100
AcDbArc
 50
0.0
 51
17.6992170125
  0
ARC
  5
489
100
AcDbEntity
  8
A_RUNDUNGEN
100
AcDbCircle
 62
7
  6
CONTINUOUS
 10
119.7855624621
 20
59.5069778018
 40
0.5
100
AcDbArc
 50
180.0
 51
212.4907411671
  0
ARC
  5
48A
100
AcDbEntity
  8
0
100
AcDbCircle
 62
7
  6
CONTINUOUS
 10
112.9365715708
 20
64.9719775818
 40
0.5
100
AcDbArc
 50
60.0
 51
89.0
  0
ARC
  5
48B
100
AcDbEntity
  8
0
100
AcDbCircle
 62
7
  6
CONTINUOUS
 10
113.9235777631
 20
65.5568298293
 40
0.5
100
AcDbArc
 50
240.0
 51
269.0
  0
ARC
  5
48C
100
AcDbEntity
  8
A_RUNDUNGEN
100
AcDbCircle
 62
7
  6
CONTINUOUS
 10
116.5706201442
 20
59.8321362846
 40
0.4999999705
100
AcDbArc
 50
284.9992880503
 51
0.0007113692
  0
ARC
  5
48D
100
AcDbEntity
  8
0
100
AcDbCircle
 62
7
  6
CONTINUOUS
 10
119.5240277889
 20
64.3756886659
 40
0.3
100
AcDbArc
 50
197.6992170125
 51
267.0
  0
ARC
  5
48E
100
AcDbEntity
  8
A_RUNDUNGEN
100
AcDbCircle
 62
7
  6
CONTINUOUS
 10
306.987240075
 20
58.8150591241
 40
189.9399737574
100
AcDbArc
 50
179.827418096
 51
180.0133070701
  0
LINE
  5
48F
100
AcDbEntity
  8
A_RUNDUNGEN
100
AcDbLine
 62
7
  6
CONTINUOUS
 10
117.0490978031
 20
59.6137177976
 11
117.0485835432
 21
59.5112594643
  0
LINE
  5
490
100
AcDbEntity
  8
A_RUNDUNGEN
100
AcDbLine
 62
7
  6
CONTINUOUS
 10
117.0485835432
 20
59.5112594643
 11
117.0481279684
 21
59.387180719
  0
SPLINE
  5
491
100
AcDbEntity
  8
A_RUNDUNGEN
100
AcDbSpline
 62
7
  6
CONTINUOUS
 70
0
 71
3
 72
9
 73
5
 74
0
 42
0.0000001
 43
0.0000001
 44
0.0000000001
 40
0.0
 40
0.0
 40
0.0
 40
0.0
 40
0.2744245492
 40
1.0
 40
1.0
 40
1.0
 40
1.0
 10
120.6081685329
 20
52.5727731395
 30
0.0
 10
120.6072420425
 20
52.5681560698
 30
0.0
 10
120.6046155805
 20
52.5512041054
 30
0.0
 10
120.605793641
 20
52.5335615863
 30
0.0
 10
120.6091581835
 20
52.5215739622
 30
0.0
  0
SPLINE
  5
492
100
AcDbEntity
  8
A_RUNDUNGEN
100
AcDbSpline
 62
7
  6
CONTINUOUS
 70
0
 71
3
 72
11
 73
7
 74
0
 42
0.0000001
 43
0.0000001
 44
0.0000000001
 40
0.0
 40
0.0
 40
0.0
 40
0.0
 40
0.1823508427
 40
0.4198640045
 40
0.7064322154
 40
1.0
 40
1.0
 40
1.0
 40
1.0
 10
120.6091581835
 20
52.5215739622
 30
0.0
 10
120.6146204566
 20
52.502112274
 30
0.0
 10
120.6420704508
 20
52.4622798482
 30
0.0
 10
120.7007493118
 20
52.411038809
 30
0.0
 10
120.762069868
 20
52.3435600092
 30
0.0
 10
120.7855624621
 20
52.2794745587
 30
0.0
 10
120.7855624621
 20
52.2469323914
 30
0.0
  0
SPLINE
  5
493
100
AcDbEntity
  8
A_RUNDUNGEN
100
AcDbSpline
 62
7
  6
CONTINUOUS
 70
0
 71
3
 72
23
 73
19
 74
0
 42
0.0000001
 43
0.0000001
 44
0.0000000001
 40
0.0
 40
0.0
 40
0.0
 40
0.0
 40
0.0524573043
 40
0.0700761495
 40
0.0829860531
 40
0.0950042415
 40
0.1187280155
 40
0.1425487377
 40
0.189857763
 40
0.2368828079
 40
0.3286306519
 40
0.4160606449
 40
0.5751009626
 40
0.7108346121
 40
0.8218670041
 40
0.9073870133
 40
0.9668927701
 40
1.0
 40
1.0
 40
1.0
 40
1.0
 10
121.6587446283
 20
38.6099999365
 30
0.0
 10
121.6574857282
 20
38.6113761131
 30
0.0
 10
121.6560112997
 20
38.6130959284
 30
0.0
 10
121.6522746949
 20
38.6140655474
 30
0.0
 10
121.6520218776
 20
38.612186803
 30
0.0
 10
121.6504651906
 20
38.6113091092
 30
0.0
 10
121.6488349688
 20
38.6099409919
 30
0.0
 10
121.6470147578
 20
38.6070685875
 30
0.0
 10
121.644757701
 20
38.6035366578
 30
0.0
 10
121.6418051545
 20
38.5976016641
 30
0.0
 10
121.6385444965
 20
38.5902519947
 30
0.0
 10
121.6340268636
 20
38.5791045682
 30
0.0
 10
121.6291716589
 20
38.5664136109
 30
0.0
 10
121.6240112395
 20
38.5529358057
 30
0.0
 10
121.619832993
 20
38.5418946961
 30
0.0
 10
121.616240083
 20
38.5334971102
 30
0.0
 10
121.6142980983
 20
38.5275158301
 30
0.0
 10
121.612342226
 20
38.5246593386
 30
0.0
 10
121.6122298117
 20
38.5234875874
 30
0.0
  0
ELLIPSE
  5
494
100
AcDbEntity
  8
A_RUNDUNGEN
100
AcDbEllipse
 62
7
  6
CONTINUOUS
 10
73.6855622253
 20
32.5583998152
 30
0.0
 11
-0.0
 21
-0.5000190392
 31
0.0
 40
0.9999619231
 41
0.0
 42
1.5707963268
  0
ELLIPSE
  5
495
100
AcDbEntity
  8
A_RUNDUNGEN
100
AcDbEllipse
 62
7
  6
CONTINUOUS
 10
36.2855622253
 20
46.3220457037
 30
0.0
 11
0.0
 21
0.5000204061
 31
0.0
 40
0.9999591894
 41
1.5707963268
 42
2.8798034685
  0
ELLIPSE
  5
496
100
AcDbEntity
  8
A_RUNDUNGEN
100
AcDbEllipse
 62
7
  6
CONTINUOUS
 10
38.2855431861
 20
44.7508368183
 30
0.0
 11
0.3967006683
 21
0.3043991289
 31
0.0
 40
0.9999395058
 41
0.0942380594
 42
0.6544692524
  0
ELLIPSE
  5
497
100
AcDbEntity
  8
A_RUNDUNGEN
100
AcDbEllipse
 62
7
  6
CONTINUOUS
 10
53.4206084727
 20
39.8339796426
 30
0.0
 11
0.5000594722
 21
-0.0043639529
 31
0.0
 40
0.9998429974
 41
1.0558569007
 42
1.5707963268
  0
ELLIPSE
  5
498
100
AcDbEntity
  8
A_RUNDUNGEN
100
AcDbEllipse
 62
7
  6
CONTINUOUS
 10
36.0355622253
 20
48.9835094412
 30
0.0
 11
0.2499998406
 21
-0.0669885308
 31
0.0
 40
0.0042146679
 41
-3.1404633157
 42
-1.5696669889
  0
ELLIPSE
  5
499
100
AcDbEntity
  8
A_RUNDUNGEN
100
AcDbEllipse
 62
7
  6
CONTINUOUS
 10
36.0355622253
 20
60.5245802162
 30
0.0
 11
0.2499998406
 21
-0.0669885308
 31
0.0
 40
0.0042146679
 41
1.5719256647
 42
3.1427219915
  0
ELLIPSE
  5
49A
100
AcDbEntity
  8
A_RUNDUNGEN
100
AcDbEllipse
 62
7
  6
CONTINUOUS
 10
102.6769432768
 20
39.1033997971
 30
0.0
 11
-0.2500031731
 21
0.4330181979
 31
0.0
 40
0.9999873077
 41
-0.5235932796
 42
0.5235932796
  0
ELLIPSE
  5
49B
100
AcDbEntity
  8
A_RUNDUNGEN
100
AcDbEllipse
 62
7
  6
CONTINUOUS
 10
114.5782655102
 20
46.1978083567
 30
0.0
 11
0.3966826696
 21
-0.304385318
 31
0.0
 40
0.999984876
 41
2.4871014885
 42
3.7960838187
  0
ELLIPSE
  5
49C
100
AcDbEntity
  8
A_RUNDUNGEN
100
AcDbEllipse
 62
7
  6
CONTINUOUS
 10
116.5782559909
 20
47.7689902264
 30
0.0
 11
0.3966826696
 21
-0.304385318
 31
0.0
 40
0.999984876
 41
-0.6544911651
 42
0.6544911651
  0
ELLIPSE
  5
49D
100
AcDbEntity
  8
A_RUNDUNGEN
100
AcDbEllipse
 62
7
  6
CONTINUOUS
 10
116.5782559909
 20
61.5640588415
 30
0.0
 11
0.3966826696
 21
0.304385318
 31
0.0
 40
0.999984876
 41
-0.6544911651
 42
0.6544911651
  0
ELLIPSE
  5
49E
100
AcDbEntity
  8
A_RUNDUNGEN
100
AcDbEllipse
 62
7
  6
CONTINUOUS
 10
78.6725091283
 20
66.1149030417
 30
0.0
 11
-0.0
 21
0.5000047597
 31
0.0
 40
0.9999904807
 41
0.0
 42
1.5707963268
  0
ELLIPSE
  5
49F
100
AcDbEntity
  8
A_RUNDUNGEN
100
AcDbEllipse
 62
7
  6
CONTINUOUS
 10
78.6725091283
 20
31.6591609387
 30
0.0
 11
-0.0
 21
0.5000047597
 31
0.0
 40
0.9999904807
 41
1.5707963268
 42
3.1415926536
  0
ELLIPSE
  5
4A0
100
AcDbEntity
  8
A_RUNDUNGEN
100
AcDbEllipse
 62
7
  6
CONTINUOUS
 10
89.3725015128
 20
31.9591637945
 30
0.0
 11
0.5656961948
 21
-0.5656961948
 31
0.0
 40
0.9999809617
 41
-0.7853886442
 42
0.7853886442
  0
ELLIPSE
  5
4A1
100
AcDbEntity
  8
A_RUNDUNGEN
100
AcDbEllipse
 62
7
  6
CONTINUOUS
 10
116.5717109646
 20
60.8688340983
 30
0.0
 11
0.3043885331
 21
0.3966868595
 31
0.0
 40
0.9999743138
 41
-2.225307202
 42
-1.966000334
  0
ELLIPSE
  5
4A2
100
AcDbEntity
  8
A_RUNDUNGEN
100
AcDbEllipse
 62
7
  6
CONTINUOUS
 10
116.5782559909
 20
48.2334326669
 30
0.0
 11
0.3966826696
 21
-0.304385318
 31
0.0
 40
0.999984876
 41
6.9376764723
 42
8.7702867957
  0
ELLIPSE
  5
4A3
100
AcDbEntity
  8
A_RUNDUNGEN
100
AcDbEllipse
 62
7
  6
CONTINUOUS
 10
116.5782559909
 20
60.8773637426
 30
0.0
 11
-0.3043885331
 21
-0.3966868595
 31
0.0
 40
0.9999743138
 41
0.9162854516
 42
2.225307202
  0
ELLIPSE
  5
4A4
100
AcDbEntity
  8
A_RUNDUNGEN
100
AcDbEllipse
 62
7
  6
CONTINUOUS
 10
84.3172929036
 20
40.0648744835
 30
0.0
 11
1.8417729788
 21
-2.9762719686
 31
0.0
 40
0.9999868355
 41
3.43383832
 42
3.6957288004
  0
ELLIPSE
  5
4A5
100
AcDbEntity
  8
A_RUNDUNGEN
100
AcDbEllipse
 62
7
  6
CONTINUOUS
 10
79.6725091283
 20
35.2312390406
 30
0.0
 11
0.0
 21
-1.5000717193
 31
0.0
 40
0.9999521894
 41
-2.0333276709
 42
-1.5707963268
  0
ENDSEC
  0
SECTION
  2
OBJECTS
  0
DICTIONARY
  5
4A6
100
AcDbDictionary
  3
ACAD_GROUP
350
4A7
  3
ACAD_MLINESTYLE
350
4A8
  0
DICTIONARY
  5
4A7
102
{ACAD_REACTORS
330
4A6
102
}
100
AcDbDictionary
  0
DICTIONARY
  5
4A8
102
{ACAD_REACTORS
330
4A6
102
}
100
AcDbDictionary
  3
STANDARD
350
4A9
  0
MLINESTYLE
  5
4A9
102
{ACAD_REACTORS
330
4A8
102
}
100
AcDbMlineStyle
  2
STANDARD
 70
0
  3

 62
256
 51
90.0
 52
90.0
 71
2
 49
0.5
 62
256
  6
BYLAYER
 49
-0.5
 62
256
  6
BYLAYER
  0
ENDSEC
  0
EOF
