999
DXF file: d:\tmp\workingDir\0000079389\te_540_640_3d_fr_bz_q01_01.dxf
999
Pro/ENGINEER 2016380 by Parametric Technology Corporation
  0
SECTION
  2
HEADER
  9
$ACADVER
  1
AC1014
  9
$DWGCODEPAGE
  3
ANSI_1252
  9
$EXTMAX
 10
130.048
 20
90.0
 30
0.0
  9
$EXTMIN
 10
0.0
 20
0.0
 30
0.0
  9
$LIMMIN
 10
0.0
 20
0.0
  9
$LIMMAX
 10
130.048
 20
90.0
  9
$VIEWCTR
 10
65.024
 20
45.0
  9
$VIEWSIZE
 40
90.0
  9
$CLAYER
  8
0
  9
$LTSCALE
 40
7.15264
  9
$CELTYPE
  6
BYLAYER
  9
$DIMSCALE
 40
1.0
  9
$DIMASZ
 40
3.5
  9
$DIMEXO
 40
0.0
  9
$DIMDLI
 40
4.941824
  9
$DIMEXE
 40
2.0
  9
$DIMCEN
 40
1.170432
  9
$DIMLFAC
 40
1.0
  9
$DIMBLK
  1
_ARROW_FILLED
  9
$DIMALT
 70
0
  9
$DIMALTF
 40
25.4
  9
$DIMTXT
 40
3.5
  9
$DIMTOL
 70
1
  9
$DIMLIM
 70
0
  9
$DIMTFAC
 40
1.0
  9
$DIMTP
 40
0.01
  9
$DIMTM
 40
0.01
  9
$DIMGAP
 40
0.625
  9
$AUNITS
 70
0
  9
$PDMODE
 70
0
  9
$PDSIZE
 40
0.04
  9
$HANDSEED
  5
427
  9
$TILEMODE
 70
1
  9
$MEASUREMENT
 70
1
  0
ENDSEC
  0
SECTION
  2
CLASSES
  0
ENDSEC
  0
SECTION
  2
TABLES
  0
TABLE
  2
VPORT
  5
8
100
AcDbSymbolTable
 70
2
  0
VPORT
  5
1F4
100
AcDbSymbolTableRecord
100
AcDbViewportTableRecord
  2
*ACTIVE
 70
0
 10
0.0
 20
0.0
 11
1.0
 21
1.0
 12
65.024
 22
45.0
 13
0.0
 23
0.0
 14
1.0
 24
1.0
 15
0.0
 25
0.0
 16
0.0
 26
0.0
 36
1.0
 17
0.0
 27
0.0
 37
0.0
 40
90.0
 41
1.4449777778
 42
50.0
 43
0.0
 44
0.0
 50
0.0
 51
0.0
 71
0
 72
100
 73
1
 74
1
 75
0
 76
0
 77
0
 78
0
  0
ENDTAB
  0
TABLE
  2
LTYPE
  5
5
100
AcDbSymbolTable
 70
6
  0
LTYPE
  5
14
100
AcDbSymbolTableRecord
100
AcDbLinetypeTableRecord
  2
BYBLOCK
 70
0
  3

 72
65
 73
0
 40
0.0
  0
LTYPE
  5
15
100
AcDbSymbolTableRecord
100
AcDbLinetypeTableRecord
  2
BYLAYER
 70
0
  3

 72
65
 73
0
 40
0.0
  0
LTYPE
  5
16
100
AcDbSymbolTableRecord
100
AcDbLinetypeTableRecord
  2
CONTINUOUS
 70
64
  3
Solid line
 72
65
 73
0
 40
0.0
  0
LTYPE
  5
1F5
100
AcDbSymbolTableRecord
100
AcDbLinetypeTableRecord
  2
CENTER
 70
64
  3
____ _ ____ _ ____ _ ____ _ ____ _ ____ _ ____
 72
65
 73
4
 40
0.6
 49
0.375
 74
0
 49
-0.075
 74
0
 49
0.075
 74
0
 49
-0.075
 74
0
  0
LTYPE
  5
1F6
100
AcDbSymbolTableRecord
100
AcDbLinetypeTableRecord
  2
HIDDEN
 70
64
  3
- - - - - - - - - - - - - - - - - - - -
 72
65
 73
2
 40
0.2
 49
0.1
 74
0
 49
-0.1
 74
0
  0
LTYPE
  5
1F7
100
AcDbSymbolTableRecord
100
AcDbLinetypeTableRecord
  2
PHANTOM
 70
64
  3
_____ _ _ _____ _ _ _____ _ _ _____
 72
65
 73
6
 40
0.8
 49
0.45
 74
0
 49
-0.05
 74
0
 49
0.1
 74
0
 49
-0.05
 74
0
 49
0.1
 74
0
 49
-0.05
 74
0
  0
LTYPE
  5
1F8
100
AcDbSymbolTableRecord
100
AcDbLinetypeTableRecord
  2
DOT
 70
64
  3
. . . . . . . . . . . . . . . . . . . .
 72
65
 73
2
 40
0.2
 49
0.1
 74
0
 49
-0.1
 74
0
  0
LTYPE
  5
1F9
100
AcDbSymbolTableRecord
100
AcDbLinetypeTableRecord
  2
DASHED
 70
64
  3
- - - - - - - - - - - - - - - - - - - -
 72
65
 73
2
 40
0.2
 49
0.1
 74
0
 49
-0.1
 74
0
  0
ENDTAB
  0
TABLE
  2
LAYER
  5
2
100
AcDbSymbolTable
 70
36
  0
LAYER
  5
10
100
AcDbSymbolTableRecord
100
AcDbLayerTableRecord
  2
0
 70
0
 62
7
  6
CONTINUOUS
  0
LAYER
  5
1FA
100
AcDbSymbolTableRecord
100
AcDbLayerTableRecord
  2
DEFAULT_1
 70
0
 62
7
  6
CENTER
  0
LAYER
  5
1FB
100
AcDbSymbolTableRecord
100
AcDbLayerTableRecord
  2
DEFAULT_2
 70
0
 62
8
  6
HIDDEN
  0
LAYER
  5
1FC
100
AcDbSymbolTableRecord
100
AcDbLayerTableRecord
  2
DEFAULT_3
 70
0
 62
7
  6
PHANTOM
  0
LAYER
  5
1FD
100
AcDbSymbolTableRecord
100
AcDbLayerTableRecord
  2
A_ACHSEN
 70
0
 62
7
  6
CONTINUOUS
  0
LAYER
  5
1FE
100
AcDbSymbolTableRecord
100
AcDbLayerTableRecord
  2
A_BASISEBENEN
 70
0
 62
7
  6
CONTINUOUS
  0
LAYER
  5
1FF
100
AcDbSymbolTableRecord
100
AcDbLayerTableRecord
  2
A_BEMASSUNGEN
 70
0
 62
7
  6
CONTINUOUS
  0
LAYER
  5
200
100
AcDbSymbolTableRecord
100
AcDbLayerTableRecord
  2
A_BOHRUNGEN
 70
0
 62
7
  6
CONTINUOUS
  0
LAYER
  5
201
100
AcDbSymbolTableRecord
100
AcDbLayerTableRecord
  2
A_EBENEN
 70
0
 62
7
  6
CONTINUOUS
  0
LAYER
  5
202
100
AcDbSymbolTableRecord
100
AcDbLayerTableRecord
  2
A_FASEN
 70
0
 62
7
  6
CONTINUOUS
  0
LAYER
  5
203
100
AcDbSymbolTableRecord
100
AcDbLayerTableRecord
  2
A_FLAECHEN
 70
0
 62
7
  6
CONTINUOUS
  0
LAYER
  5
204
100
AcDbSymbolTableRecord
100
AcDbLayerTableRecord
  2
A_FL_VERBAENDE
 70
0
 62
7
  6
CONTINUOUS
  0
LAYER
  5
205
100
AcDbSymbolTableRecord
100
AcDbLayerTableRecord
  2
A_KURVEN
 70
0
 62
7
  6
CONTINUOUS
  0
LAYER
  5
206
100
AcDbSymbolTableRecord
100
AcDbLayerTableRecord
  2
A_NOTIZEN_SYMB
 70
0
 62
7
  6
CONTINUOUS
  0
LAYER
  5
207
100
AcDbSymbolTableRecord
100
AcDbLayerTableRecord
  2
A_PUNKTE
 70
0
 62
7
  6
CONTINUOUS
  0
LAYER
  5
208
100
AcDbSymbolTableRecord
100
AcDbLayerTableRecord
  2
A_RUNDUNGEN
 70
0
 62
7
  6
CONTINUOUS
  0
LAYER
  5
209
100
AcDbSymbolTableRecord
100
AcDbLayerTableRecord
  2
BASISEBENEN
 70
0
 62
7
  6
CONTINUOUS
  0
LAYER
  5
20A
100
AcDbSymbolTableRecord
100
AcDbLayerTableRecord
  2
XSEC_DATUMS
 70
0
 62
7
  6
CONTINUOUS
  0
ENDTAB
  0
TABLE
  2
STYLE
  5
3
100
AcDbSymbolTable
 70
1
  0
STYLE
  5
11
100
AcDbSymbolTableRecord
100
AcDbTextStyleTableRecord
  2
STANDARD
 70
0
 40
0.0
 41
1.0
 50
0.0
 71
0
 42
0.2
  3
txt
  4

  0
STYLE
  5
20B
100
AcDbSymbolTableRecord
100
AcDbTextStyleTableRecord
  2
TEXTSTYLE_1
 70
0
 40
0.0
 41
0.8
 50
0.0
 71
0
 42
0.2
  3
gdt
  4

  0
STYLE
  5
20C
100
AcDbSymbolTableRecord
100
AcDbTextStyleTableRecord
  2
TEXTSTYLE_2
 70
0
 40
0.0
 41
1.0
 50
0.0
 71
0
 42
0.2
  3
txt
  4

  0
ENDTAB
  0
TABLE
  2
VIEW
  5
6
100
AcDbSymbolTable
 70
0
  0
ENDTAB
  0
TABLE
  2
UCS
  5
7
100
AcDbSymbolTable
 70
0
  0
ENDTAB
  0
TABLE
  2
APPID
  5
9
100
AcDbSymbolTable
 70
1
  0
APPID
  5
20D
100
AcDbSymbolTableRecord
100
AcDbRegAppTableRecord
  2
ACAD
 70
0
  0
ENDTAB
  0
TABLE
  2
BLOCK_RECORD
  5
1
100
AcDbSymbolTable
 70
0
  0
BLOCK_RECORD
  5
1F
100
AcDbSymbolTableRecord
100
AcDbBlockTableRecord
  2
*MODEL_SPACE
  0
BLOCK_RECORD
  5
1B
100
AcDbSymbolTableRecord
100
AcDbBlockTableRecord
  2
*PAPER_SPACE
  0
BLOCK_RECORD
  5
20E
100
AcDbSymbolTableRecord
100
AcDbBlockTableRecord
  2
_ARROW_FILLED
  0
BLOCK_RECORD
  5
20F
100
AcDbSymbolTableRecord
100
AcDbBlockTableRecord
  2
*D0
  0
BLOCK_RECORD
  5
210
100
AcDbSymbolTableRecord
100
AcDbBlockTableRecord
  2
*D1
  0
BLOCK_RECORD
  5
211
100
AcDbSymbolTableRecord
100
AcDbBlockTableRecord
  2
*D2
  0
BLOCK_RECORD
  5
212
100
AcDbSymbolTableRecord
100
AcDbBlockTableRecord
  2
*D3
  0
BLOCK_RECORD
  5
213
100
AcDbSymbolTableRecord
100
AcDbBlockTableRecord
  2
*D4
  0
BLOCK_RECORD
  5
214
100
AcDbSymbolTableRecord
100
AcDbBlockTableRecord
  2
*D5
  0
BLOCK_RECORD
  5
215
100
AcDbSymbolTableRecord
100
AcDbBlockTableRecord
  2
*D6
  0
ENDTAB
  0
TABLE
  2
DIMSTYLE
  5
A
100
AcDbSymbolTable
 70
1
  0
DIMSTYLE
105
216
100
AcDbSymbolTableRecord
100
AcDbDimStyleTableRecord
  2
STANDARD
 70
0
  3

  4

  5
_ARROW_FILLED
  6
_ARROW_FILLED
  7
_ARROW_FILLED
 40
1.0
 41
3.5
 42
0.0
 43
0.38
 44
2.0
 45
0.0
 46
0.0
 47
0.01
 48
0.01
140
3.5
141
0.09
142
0.0
143
25.4
144
1.0
145
0.0
146
1.0
147
0.625
 71
1.0
 72
0.0
 73
0
 74
0
 75
0
 76
0
 77
1
 78
8
170
0
171
1
172
0
173
0
174
0
175
0
176
0
177
0
178
5
270
2
271
2
272
2
273
2
274
2
275
0
280
0
281
0
282
0
283
1
284
8
285
0
286
0
287
3
288
0
340
11
  0
DIMSTYLE
105
217
100
AcDbSymbolTableRecord
100
AcDbDimStyleTableRecord
  2
DIMSTYLE_1
 70
0
  3

  4

  5
_ARROW_FILLED
  6
_ARROW_FILLED
  7
_ARROW_FILLED
 40
1.0
 41
3.5
 42
0.0
 43
0.38
 44
2.0
 45
0.0
 46
0.0
 47
0.1
 48
0.1
140
3.5
141
0.09
142
0.0
143
25.4
144
1.0
145
0.0
146
1.0
147
0.875
 71
0.0
 72
0.0
 73
0
 74
0
 75
0
 76
0
 77
1
 78
8
170
0
171
1
172
0
173
0
174
0
175
0
176
0
177
0
178
5
270
2
271
1
272
-1
273
2
274
2
275
0
280
0
281
0
282
0
283
1
284
8
285
0
286
0
287
3
288
0
340
20C
  0
DIMSTYLE
105
218
100
AcDbSymbolTableRecord
100
AcDbDimStyleTableRecord
  2
DIMSTYLE_2
 70
0
  3

  4

  5
_ARROW_FILLED
  6
_ARROW_FILLED
  7
_ARROW_FILLED
 40
1.0
 41
3.5
 42
0.0
 43
0.38
 44
2.0
 45
0.0
 46
0.0
 47
0.3
 48
0.3
140
3.5
141
0.09
142
0.0
143
25.4
144
1.0
145
0.0
146
1.0
147
0.875
 71
0.0
 72
0.0
 73
0
 74
0
 75
0
 76
0
 77
1
 78
8
170
0
171
1
172
0
173
0
174
0
175
0
176
0
177
0
178
5
270
2
271
4
272
-1
273
2
274
2
275
0
280
0
281
0
282
0
283
1
284
8
285
0
286
0
287
3
288
0
340
20C
  0
DIMSTYLE
105
219
100
AcDbSymbolTableRecord
100
AcDbDimStyleTableRecord
  2
DIMSTYLE_3
 70
0
  3

  4

  5
_ARROW_FILLED
  6
_ARROW_FILLED
  7
_ARROW_FILLED
 40
1.0
 41
3.5
 42
0.0
 43
0.38
 44
2.0
 45
0.0
 46
0.0
 47
0.1
 48
0.1
140
3.5
141
0.09
142
0.0
143
25.4
144
1.0
145
0.0
146
1.0
147
0.875
 71
0.0
 72
0.0
 73
0
 74
0
 75
0
 76
0
 77
1
 78
8
170
0
171
1
172
0
173
0
174
0
175
0
176
0
177
0
178
5
270
2
271
4
272
-1
273
2
274
2
275
0
280
0
281
0
282
0
283
1
284
8
285
0
286
0
287
3
288
0
340
20C
  0
DIMSTYLE
105
21A
100
AcDbSymbolTableRecord
100
AcDbDimStyleTableRecord
  2
DIMSTYLE_4
 70
0
  3

  4

  5
_ARROW_FILLED
  6
_ARROW_FILLED
  7
_ARROW_FILLED
 40
1.0
 41
3.5
 42
0.0
 43
0.38
 44
2.0
 45
0.0
 46
0.0
 47
0.1
 48
0.1
140
3.5
141
0.09
142
0.0
143
25.4
144
1.0
145
0.0
146
1.0
147
0.875
 71
0.0
 72
0.0
 73
0
 74
0
 75
0
 76
0
 77
1
 78
8
170
0
171
1
172
0
173
0
174
0
175
0
176
0
177
0
178
5
270
2
271
0
272
-1
273
2
274
2
275
0
280
0
281
0
282
0
283
1
284
8
285
0
286
0
287
3
288
0
340
20C
  0
ENDTAB
  0
ENDSEC
  0
SECTION
  2
BLOCKS
  0
BLOCK
  5
20
100
AcDbEntity
  8
0
100
AcDbBlockBegin
  2
*MODEL_SPACE
 70
0
 10
0.0
 20
0.0
 30
0.0
  3
*MODEL_SPACE
  1

  0
ENDBLK
  5
21
100
AcDbEntity
  8
0
100
AcDbBlockEnd
  0
BLOCK
  5
1C
100
AcDbEntity
  8
0
100
AcDbBlockBegin
  2
*PAPER_SPACE
 70
0
 10
0.0
 20
0.0
 30
0.0
  3
*PAPER_SPACE
  1

  0
ENDBLK
  5
1D
100
AcDbEntity
  8
0
100
AcDbBlockEnd
  0
BLOCK
  5
21B
100
AcDbEntity
  8
0
100
AcDbBlockBegin
  2
_ARROW_FILLED
 70
64
 10
0.0
 20
0.0
  3
_ARROW_FILLED
  1

  0
SOLID
  5
21C
100
AcDbEntity
  8
0
  6
BYBLOCK
 62
0
100
AcDbTrace
 10
0.0
 20
0.0
 11
-1.0
 21
0.1428571429
 12
-1.0
 22
-0.1428571429
 13
-1.0
 23
-0.1428571429
  0
ENDBLK
  5
21D
100
AcDbEntity
  8
0
  6
BYBLOCK
 62
0
100
AcDbBlockEnd
  0
BLOCK
  5
21E
100
AcDbEntity
  8
A_BEMASSUNGEN
100
AcDbBlockBegin
 62
2
  6
CONTINUOUS
  2
*D0
 70
65
 10
0.0
 20
0.0
  3
*D0
  1

  0
MTEXT
  5
21F
100
AcDbEntity
  8
A_BEMASSUNGEN
100
AcDbMText
 62
5
  6
CONTINUOUS
  7
TEXTSTYLE_2
 71
1
 72
1
 10
65.9909899446
 20
18.6683914361
 30
0.0
 11
1.0
 21
0.0
 31
0.0
  1
3.5
 40
3.5
 41
10.5
  0
LINE
  5
220
100
AcDbEntity
  8
A_BEMASSUNGEN
100
AcDbLine
 62
2
  6
CONTINUOUS
 10
59.44545078
 20
22.3891235306
 11
59.44545078
 21
12.2933914361
  0
LINE
  5
221
100
AcDbEntity
  8
A_BEMASSUNGEN
100
AcDbLine
 62
2
  6
CONTINUOUS
 10
62.9618800401
 20
22.5477394847
 11
62.9618800401
 21
12.2933914361
  0
LINE
  5
222
100
AcDbEntity
  8
A_BEMASSUNGEN
100
AcDbLine
 62
2
  6
CONTINUOUS
 10
59.44545078
 20
14.2933914361
 11
51.94545078
 21
14.2933914361
  0
LINE
  5
223
100
AcDbEntity
  8
A_BEMASSUNGEN
100
AcDbLine
 62
2
  6
CONTINUOUS
 10
51.94545078
 20
14.2933914361
 11
61.20366541
 21
14.2933914361
  0
LINE
  5
224
100
AcDbEntity
  8
A_BEMASSUNGEN
100
AcDbLine
 62
2
  6
CONTINUOUS
 10
62.9618800401
 20
14.2933914361
 11
72.9909899446
 21
14.2933914361
  0
LINE
  5
225
100
AcDbEntity
  8
A_BEMASSUNGEN
100
AcDbLine
 62
2
  6
CONTINUOUS
 10
72.9909899446
 20
14.2933914361
 11
61.20366541
 21
14.2933914361
  0
INSERT
  5
226
100
AcDbEntity
  8
A_BEMASSUNGEN
100
AcDbBlockReference
 62
2
  6
CONTINUOUS
  2
_ARROW_FILLED
 10
59.44545078
 20
14.2933914361
 41
3.5
 42
3.5
 43
3.5
  0
INSERT
  5
227
100
AcDbEntity
  8
A_BEMASSUNGEN
100
AcDbBlockReference
 62
2
  6
CONTINUOUS
  2
_ARROW_FILLED
 10
62.9618800401
 20
14.2933914361
 41
3.5
 42
3.5
 43
3.5
 50
180.0
  0
ENDBLK
  5
228
100
AcDbEntity
  8
0
  6
BYBLOCK
 62
0
100
AcDbBlockEnd
  0
BLOCK
  5
229
100
AcDbEntity
  8
A_BEMASSUNGEN
100
AcDbBlockBegin
 62
2
  6
CONTINUOUS
  2
*D1
 70
65
 10
0.0
 20
0.0
  3
*D1
  1

  0
MTEXT
  5
22A
100
AcDbEntity
  8
A_BEMASSUNGEN
100
AcDbMText
 62
5
  6
CONTINUOUS
  7
TEXTSTYLE_2
 71
2
 72
1
 10
41.0592036235
 20
10.3661169127
 30
0.0
 11
1.0
 21
0.0
 31
0.0
  1
36
 40
3.5
 41
7.875
  0
LINE
  5
22B
100
AcDbEntity
  8
A_BEMASSUNGEN
100
AcDbLine
 62
2
  6
CONTINUOUS
 10
59.44545078
 20
22.3891235306
 11
59.44545078
 21
3.9911169127
  0
LINE
  5
22C
100
AcDbEntity
  8
A_BEMASSUNGEN
100
AcDbLine
 62
2
  6
CONTINUOUS
 10
23.44545078
 20
26.3891235306
 11
23.44545078
 21
3.9911169127
  0
LINE
  5
22D
100
AcDbEntity
  8
A_BEMASSUNGEN
100
AcDbLine
 62
2
  6
CONTINUOUS
 10
59.44545078
 20
5.9911169127
 11
41.44545078
 21
5.9911169127
  0
LINE
  5
22E
100
AcDbEntity
  8
A_BEMASSUNGEN
100
AcDbLine
 62
2
  6
CONTINUOUS
 10
23.44545078
 20
5.9911169127
 11
41.44545078
 21
5.9911169127
  0
INSERT
  5
22F
100
AcDbEntity
  8
A_BEMASSUNGEN
100
AcDbBlockReference
 62
2
  6
CONTINUOUS
  2
_ARROW_FILLED
 10
59.44545078
 20
5.9911169127
 41
3.5
 42
3.5
 43
3.5
 50
360.0
  0
INSERT
  5
230
100
AcDbEntity
  8
A_BEMASSUNGEN
100
AcDbBlockReference
 62
2
  6
CONTINUOUS
  2
_ARROW_FILLED
 10
23.44545078
 20
5.9911169127
 41
3.5
 42
3.5
 43
3.5
 50
180.0
  0
ENDBLK
  5
231
100
AcDbEntity
  8
0
  6
BYBLOCK
 62
0
100
AcDbBlockEnd
  0
BLOCK
  5
232
100
AcDbEntity
  8
A_BEMASSUNGEN
100
AcDbBlockBegin
 62
2
  6
CONTINUOUS
  2
*D2
 70
65
 10
0.0
 20
0.0
  3
*D2
  1

  0
MTEXT
  5
233
100
AcDbEntity
  8
A_BEMASSUNGEN
100
AcDbMText
 62
5
  6
CONTINUOUS
  7
TEXTSTYLE_2
 71
2
 72
1
 10
78.7225352435
 20
10.3661169127
 30
0.0
 11
1.0
 21
0.0
 31
0.0
  1
36.5
 40
3.5
 41
14.625
  0
LINE
  5
234
100
AcDbEntity
  8
A_BEMASSUNGEN
100
AcDbLine
 62
2
  6
CONTINUOUS
 10
62.9618800401
 20
22.5477394847
 11
62.9618800401
 21
3.9911169127
  0
LINE
  5
235
100
AcDbEntity
  8
A_BEMASSUNGEN
100
AcDbLine
 62
2
  6
CONTINUOUS
 10
99.4618800401
 20
26.7477394847
 11
99.4618800401
 21
3.9911169127
  0
LINE
  5
236
100
AcDbEntity
  8
A_BEMASSUNGEN
100
AcDbLine
 62
2
  6
CONTINUOUS
 10
62.9618800401
 20
5.9911169127
 11
81.2118800401
 21
5.9911169127
  0
LINE
  5
237
100
AcDbEntity
  8
A_BEMASSUNGEN
100
AcDbLine
 62
2
  6
CONTINUOUS
 10
99.4618800401
 20
5.9911169127
 11
81.2118800401
 21
5.9911169127
  0
INSERT
  5
238
100
AcDbEntity
  8
A_BEMASSUNGEN
100
AcDbBlockReference
 62
2
  6
CONTINUOUS
  2
_ARROW_FILLED
 10
62.9618800401
 20
5.9911169127
 41
3.5
 42
3.5
 43
3.5
 50
180.0
  0
INSERT
  5
239
100
AcDbEntity
  8
A_BEMASSUNGEN
100
AcDbBlockReference
 62
2
  6
CONTINUOUS
  2
_ARROW_FILLED
 10
99.4618800401
 20
5.9911169127
 41
3.5
 42
3.5
 43
3.5
  0
ENDBLK
  5
23A
100
AcDbEntity
  8
0
  6
BYBLOCK
 62
0
100
AcDbBlockEnd
  0
BLOCK
  5
23B
100
AcDbEntity
  8
A_BEMASSUNGEN
100
AcDbBlockBegin
 62
2
  6
CONTINUOUS
  2
*D3
 70
65
 10
0.0
 20
0.0
  3
*D3
  1

  0
MTEXT
  5
23C
100
AcDbEntity
  8
A_BEMASSUNGEN
100
AcDbMText
 62
5
  6
CONTINUOUS
  7
TEXTSTYLE_2
 71
2
 72
1
 10
1.2303744078
 20
42.3891235306
 30
0.0
 11
0.0
 21
1.0
 31
0.0
  1
32
 40
3.5
 41
7.875
  0
LINE
  5
23D
100
AcDbEntity
  8
A_BEMASSUNGEN
100
AcDbLine
 62
2
  6
CONTINUOUS
 10
23.44545078
 20
58.3891235306
 11
3.6053744078
 21
58.3891235306
  0
LINE
  5
23E
100
AcDbEntity
  8
A_BEMASSUNGEN
100
AcDbLine
 62
2
  6
CONTINUOUS
 10
23.44545078
 20
26.3891235306
 11
3.6053744078
 21
26.3891235306
  0
LINE
  5
23F
100
AcDbEntity
  8
A_BEMASSUNGEN
100
AcDbLine
 62
2
  6
CONTINUOUS
 10
5.6053744078
 20
58.3891235306
 11
5.6053744078
 21
42.3891235306
  0
LINE
  5
240
100
AcDbEntity
  8
A_BEMASSUNGEN
100
AcDbLine
 62
2
  6
CONTINUOUS
 10
5.6053744078
 20
26.3891235306
 11
5.6053744078
 21
42.3891235306
  0
INSERT
  5
241
100
AcDbEntity
  8
A_BEMASSUNGEN
100
AcDbBlockReference
 62
2
  6
CONTINUOUS
  2
_ARROW_FILLED
 10
5.6053744078
 20
58.3891235306
 41
3.5
 42
3.5
 43
3.5
 50
90.0
  0
INSERT
  5
242
100
AcDbEntity
  8
A_BEMASSUNGEN
100
AcDbBlockReference
 62
2
  6
CONTINUOUS
  2
_ARROW_FILLED
 10
5.6053744078
 20
26.3891235306
 41
3.5
 42
3.5
 43
3.5
 50
270.0
  0
ENDBLK
  5
243
100
AcDbEntity
  8
0
  6
BYBLOCK
 62
0
100
AcDbBlockEnd
  0
BLOCK
  5
244
100
AcDbEntity
  8
A_BEMASSUNGEN
100
AcDbBlockBegin
 62
2
  6
CONTINUOUS
  2
*D4
 70
65
 10
0.0
 20
0.0
  3
*D4
  1

  0
MTEXT
  5
245
100
AcDbEntity
  8
A_BEMASSUNGEN
100
AcDbMText
 62
5
  6
CONTINUOUS
  7
TEXTSTYLE_2
 71
2
 72
1
 10
1.2303744078
 20
24.4377716082
 30
0.0
 11
0.0
 21
1.0
 31
0.0
  1
4
 40
3.5
 41
4.125
  0
LINE
  5
246
100
AcDbEntity
  8
A_BEMASSUNGEN
100
AcDbLine
 62
2
  6
CONTINUOUS
 10
23.44545078
 20
26.3891235306
 11
3.6053744078
 21
26.3891235306
  0
LINE
  5
247
100
AcDbEntity
  8
A_BEMASSUNGEN
100
AcDbLine
 62
2
  6
CONTINUOUS
 10
13.44545078
 20
22.3891235306
 11
3.6053744078
 21
22.3891235306
  0
LINE
  5
248
100
AcDbEntity
  8
A_BEMASSUNGEN
100
AcDbLine
 62
2
  6
CONTINUOUS
 10
5.6053744078
 20
26.3891235306
 11
5.6053744078
 21
33.8891235306
  0
LINE
  5
249
100
AcDbEntity
  8
A_BEMASSUNGEN
100
AcDbLine
 62
2
  6
CONTINUOUS
 10
5.6053744078
 20
33.8891235306
 11
5.6053744078
 21
24.3891235306
  0
LINE
  5
24A
100
AcDbEntity
  8
A_BEMASSUNGEN
100
AcDbLine
 62
2
  6
CONTINUOUS
 10
5.6053744078
 20
22.3891235306
 11
5.6053744078
 21
14.8891235306
  0
LINE
  5
24B
100
AcDbEntity
  8
A_BEMASSUNGEN
100
AcDbLine
 62
2
  6
CONTINUOUS
 10
5.6053744078
 20
14.8891235306
 11
5.6053744078
 21
24.3891235306
  0
INSERT
  5
24C
100
AcDbEntity
  8
A_BEMASSUNGEN
100
AcDbBlockReference
 62
2
  6
CONTINUOUS
  2
_ARROW_FILLED
 10
5.6053744078
 20
26.3891235306
 41
3.5
 42
3.5
 43
3.5
 50
270.0
  0
INSERT
  5
24D
100
AcDbEntity
  8
A_BEMASSUNGEN
100
AcDbBlockReference
 62
2
  6
CONTINUOUS
  2
_ARROW_FILLED
 10
5.6053744078
 20
22.3891235306
 41
3.5
 42
3.5
 43
3.5
 50
90.0
  0
ENDBLK
  5
24E
100
AcDbEntity
  8
0
  6
BYBLOCK
 62
0
100
AcDbBlockEnd
  0
BLOCK
  5
24F
100
AcDbEntity
  8
A_BEMASSUNGEN
100
AcDbBlockBegin
 62
2
  6
CONTINUOUS
  2
*D5
 70
65
 10
0.0
 20
0.0
  3
*D5
  1

  0
MTEXT
  5
250
100
AcDbEntity
  8
A_BEMASSUNGEN
100
AcDbMText
 62
5
  6
CONTINUOUS
  7
TEXTSTYLE_2
 71
2
 72
1
 10
122.5836665823
 20
24.6477394847
 30
0.0
 11
0.0
 21
1.0
 31
0.0
  1
4
 40
3.5
 41
4.125
  0
LINE
  5
251
100
AcDbEntity
  8
A_BEMASSUNGEN
100
AcDbLine
 62
2
  6
CONTINUOUS
 10
99.4618800401
 20
26.7477394847
 11
128.9586665823
 21
26.7477394847
  0
LINE
  5
252
100
AcDbEntity
  8
A_BEMASSUNGEN
100
AcDbLine
 62
2
  6
CONTINUOUS
 10
117.9618800401
 20
22.5477394847
 11
128.9586665823
 21
22.5477394847
  0
LINE
  5
253
100
AcDbEntity
  8
A_BEMASSUNGEN
100
AcDbLine
 62
2
  6
CONTINUOUS
 10
126.9586665823
 20
26.7477394847
 11
126.9586665823
 21
34.2477394847
  0
LINE
  5
254
100
AcDbEntity
  8
A_BEMASSUNGEN
100
AcDbLine
 62
2
  6
CONTINUOUS
 10
126.9586665823
 20
34.2477394847
 11
126.9586665823
 21
24.6477394847
  0
LINE
  5
255
100
AcDbEntity
  8
A_BEMASSUNGEN
100
AcDbLine
 62
2
  6
CONTINUOUS
 10
126.9586665823
 20
22.5477394847
 11
126.9586665823
 21
15.0477394847
  0
LINE
  5
256
100
AcDbEntity
  8
A_BEMASSUNGEN
100
AcDbLine
 62
2
  6
CONTINUOUS
 10
126.9586665823
 20
15.0477394847
 11
126.9586665823
 21
24.6477394847
  0
INSERT
  5
257
100
AcDbEntity
  8
A_BEMASSUNGEN
100
AcDbBlockReference
 62
2
  6
CONTINUOUS
  2
_ARROW_FILLED
 10
126.9586665823
 20
26.7477394847
 41
3.5
 42
3.5
 43
3.5
 50
270.0
  0
INSERT
  5
258
100
AcDbEntity
  8
A_BEMASSUNGEN
100
AcDbBlockReference
 62
2
  6
CONTINUOUS
  2
_ARROW_FILLED
 10
126.9586665823
 20
22.5477394847
 41
3.5
 42
3.5
 43
3.5
 50
90.0
  0
ENDBLK
  5
259
100
AcDbEntity
  8
0
  6
BYBLOCK
 62
0
100
AcDbBlockEnd
  0
BLOCK
  5
25A
100
AcDbEntity
  8
A_BEMASSUNGEN
100
AcDbBlockBegin
 62
2
  6
CONTINUOUS
  2
*D6
 70
65
 10
0.0
 20
0.0
  3
*D6
  1

  0
MTEXT
  5
25B
100
AcDbEntity
  8
A_BEMASSUNGEN
100
AcDbMText
 62
5
  6
CONTINUOUS
  7
TEXTSTYLE_2
 71
2
 72
1
 10
122.5836665823
 20
42.7477394847
 30
0.0
 11
0.0
 21
1.0
 31
0.0
  1
32
 40
3.5
 41
7.875
  0
LINE
  5
25C
100
AcDbEntity
  8
A_BEMASSUNGEN
100
AcDbLine
 62
2
  6
CONTINUOUS
 10
99.4618800401
 20
26.7477394847
 11
128.9586665823
 21
26.7477394847
  0
LINE
  5
25D
100
AcDbEntity
  8
A_BEMASSUNGEN
100
AcDbLine
 62
2
  6
CONTINUOUS
 10
99.4618800401
 20
58.7477394847
 11
128.9586665823
 21
58.7477394847
  0
LINE
  5
25E
100
AcDbEntity
  8
A_BEMASSUNGEN
100
AcDbLine
 62
2
  6
CONTINUOUS
 10
126.9586665823
 20
26.7477394847
 11
126.9586665823
 21
42.7477394847
  0
LINE
  5
25F
100
AcDbEntity
  8
A_BEMASSUNGEN
100
AcDbLine
 62
2
  6
CONTINUOUS
 10
126.9586665823
 20
58.7477394847
 11
126.9586665823
 21
42.7477394847
  0
INSERT
  5
260
100
AcDbEntity
  8
A_BEMASSUNGEN
100
AcDbBlockReference
 62
2
  6
CONTINUOUS
  2
_ARROW_FILLED
 10
126.9586665823
 20
26.7477394847
 41
3.5
 42
3.5
 43
3.5
 50
270.0
  0
INSERT
  5
261
100
AcDbEntity
  8
A_BEMASSUNGEN
100
AcDbBlockReference
 62
2
  6
CONTINUOUS
  2
_ARROW_FILLED
 10
126.9586665823
 20
58.7477394847
 41
3.5
 42
3.5
 43
3.5
 50
90.0
  0
ENDBLK
  5
262
100
AcDbEntity
  8
0
  6
BYBLOCK
 62
0
100
AcDbBlockEnd
  0
ENDSEC
  0
SECTION
  2
ENTITIES
  0
DIMENSION
  5
263
100
AcDbEntity
  8
A_BEMASSUNGEN
100
AcDbDimension
 62
2
  6
CONTINUOUS
  2
*D0
 10
62.9618800401
 20
14.2933914361
 11
68.9909898594
 21
14.2933914361
 70
160
  3
DIMSTYLE_1
100
AcDbAlignedDimension
 13
59.44545078
 23
22.3891235306
 14
62.9618800401
 24
22.5477394847
100
AcDbRotatedDimension
  0
DIMENSION
  5
264
100
AcDbEntity
  8
A_BEMASSUNGEN
100
AcDbDimension
 62
2
  6
CONTINUOUS
  2
*D1
 10
23.44545078
 20
5.9911169127
 11
40.5592041875
 21
5.9911169127
 70
160
  3
DIMSTYLE_2
100
AcDbAlignedDimension
 13
59.44545078
 23
22.3891235306
 14
23.44545078
 24
26.3891235306
 50
180.0
100
AcDbRotatedDimension
  0
DIMENSION
  5
265
100
AcDbEntity
  8
A_BEMASSUNGEN
100
AcDbDimension
 62
2
  6
CONTINUOUS
  2
*D2
 10
99.4618800401
 20
5.9911169127
 11
78.2225345313
 21
5.9911169127
 70
160
  3
DIMSTYLE_2
100
AcDbAlignedDimension
 13
62.9618800401
 23
22.5477394847
 14
99.4618800401
 24
26.7477394847
100
AcDbRotatedDimension
  0
DIMENSION
  5
266
100
AcDbEntity
  8
A_BEMASSUNGEN
100
AcDbDimension
 62
2
  6
CONTINUOUS
  2
*D3
 10
5.6053744078
 20
26.3891235306
 11
5.6053744078
 21
41.8891235467
 70
160
  3
DIMSTYLE_2
100
AcDbAlignedDimension
 13
23.44545078
 23
58.3891235306
 14
23.44545078
 24
26.3891235306
 50
270.0
100
AcDbRotatedDimension
  0
DIMENSION
  5
267
100
AcDbEntity
  8
A_BEMASSUNGEN
100
AcDbDimension
 62
2
  6
CONTINUOUS
  2
*D4
 10
5.6053744078
 20
22.3891235306
 11
5.6053744078
 21
23.9377716437
 70
160
  3
DIMSTYLE_3
100
AcDbAlignedDimension
 13
23.44545078
 23
26.3891235306
 14
13.44545078
 24
22.3891235306
 50
270.0
100
AcDbRotatedDimension
  0
DIMENSION
  5
268
100
AcDbEntity
  8
A_BEMASSUNGEN
100
AcDbDimension
 62
2
  6
CONTINUOUS
  2
*D5
 10
126.9586665823
 20
22.5477394847
 11
126.9586665823
 21
24.1477383712
 70
160
  3
DIMSTYLE_4
100
AcDbAlignedDimension
 13
99.4618800401
 23
26.7477394847
 14
117.9618800401
 24
22.5477394847
 50
270.0
100
AcDbRotatedDimension
  0
DIMENSION
  5
269
100
AcDbEntity
  8
A_BEMASSUNGEN
100
AcDbDimension
 62
2
  6
CONTINUOUS
  2
*D6
 10
126.9586665823
 20
58.7477394847
 11
126.9586665823
 21
42.2477358712
 70
160
  3
DIMSTYLE_2
100
AcDbAlignedDimension
 13
99.4618800401
 23
26.7477394847
 14
99.4618800401
 24
58.7477394847
 50
90.0
100
AcDbRotatedDimension
  0
LINE
  5
26A
100
AcDbEntity
  8
0
100
AcDbLine
 62
7
  6
CONTINUOUS
 10
13.44545078
 20
82.3891235306
 11
13.44545078
 21
22.3891235306
  0
LINE
  5
26B
100
AcDbEntity
  8
0
100
AcDbLine
 62
7
  6
CONTINUOUS
 10
23.44545078
 20
26.3891235306
 11
23.44545078
 21
58.3891235306
  0
LINE
  5
26C
100
AcDbEntity
  8
0
100
AcDbLine
 62
7
  6
CONTINUOUS
 10
23.94545078
 20
56.7389215085
 11
23.94545078
 21
45.7891235306
  0
LINE
  5
26D
100
AcDbEntity
  8
0
100
AcDbLine
 62
7
  6
CONTINUOUS
 10
23.94545078
 20
33.9891235306
 11
23.94545078
 21
28.0393255528
  0
LINE
  5
26E
100
AcDbEntity
  8
A_RUNDUNGEN
100
AcDbLine
 62
7
  6
CONTINUOUS
 10
23.94545078
 20
33.9891235306
 11
23.94545078
 21
45.7891235306
  0
LINE
  5
26F
100
AcDbEntity
  8
0
100
AcDbLine
 62
7
  6
CONTINUOUS
 10
24.44545078
 20
35.6391235306
 11
24.44545078
 21
35.9846150334
  0
LINE
  5
270
100
AcDbEntity
  8
A_RUNDUNGEN
100
AcDbLine
 62
7
  6
CONTINUOUS
 10
24.44545078
 20
35.9846150334
 11
24.44545078
 21
43.7936320278
  0
LINE
  5
271
100
AcDbEntity
  8
0
100
AcDbLine
 62
7
  6
CONTINUOUS
 10
24.44545078
 20
43.7936320278
 11
24.44545078
 21
44.1391235306
  0
LINE
  5
272
100
AcDbEntity
  8
0
100
AcDbLine
 62
7
  6
CONTINUOUS
 10
24.64545078
 20
29.7891235306
 11
24.64545078
 21
30.495565512
  0
LINE
  5
273
100
AcDbEntity
  8
0
100
AcDbLine
 62
7
  6
CONTINUOUS
 10
24.64545078
 20
33.1221096594
 11
24.64545078
 21
33.2891235306
  0
LINE
  5
274
100
AcDbEntity
  8
0
100
AcDbLine
 62
7
  6
CONTINUOUS
 10
24.94545078
 20
55.170764424
 11
24.94545078
 21
44.6391235306
  0
LINE
  5
275
100
AcDbEntity
  8
0
100
AcDbLine
 62
7
  6
CONTINUOUS
 10
24.94545078
 20
35.1391235306
 11
24.94545078
 21
29.3922488275
  0
LINE
  5
276
100
AcDbEntity
  8
0
100
AcDbLine
 62
7
  6
CONTINUOUS
 10
24.94545078
 20
29.1141754152
 11
24.94545078
 21
29.3308659611
  0
LINE
  5
277
100
AcDbEntity
  8
0
100
AcDbLine
 62
7
  6
CONTINUOUS
 10
24.94545078
 20
36.5436320278
 11
24.94545078
 21
43.2346150334
  0
LINE
  5
278
100
AcDbEntity
  8
0
100
AcDbLine
 62
7
  6
CONTINUOUS
 10
25.94545078
 20
30.7892542745
 11
25.94545078
 21
52.6104195625
  0
LINE
  5
279
100
AcDbEntity
  8
0
100
AcDbLine
 62
7
  6
CONTINUOUS
 10
25.94545078
 20
42.4892544527
 11
25.9472484691
 21
52.7892542959
  0
LINE
  5
27A
100
AcDbEntity
  8
0
100
AcDbLine
 62
7
  6
CONTINUOUS
 10
26.4454508333
 20
42.4895162521
 11
26.4454507724
 21
30.7891670081
  0
LINE
  5
27B
100
AcDbEntity
  8
0
100
AcDbLine
 62
7
  6
CONTINUOUS
 10
26.9454508866
 20
42.4894289818
 11
26.9454507647
 21
30.7890797377
  0
LINE
  5
27C
100
AcDbEntity
  8
A_RUNDUNGEN
100
AcDbLine
 62
7
  6
CONTINUOUS
 10
28.1746555799
 20
52.5488584639
 11
28.1746555799
 21
52.0882912548
  0
LINE
  5
27D
100
AcDbEntity
  8
A_RUNDUNGEN
100
AcDbLine
 62
7
  6
CONTINUOUS
 10
28.193650435
 20
52.5551900823
 11
28.193650435
 21
52.0934905314
  0
LINE
  5
27E
100
AcDbEntity
  8
A_RUNDUNGEN
100
AcDbLine
 62
7
  6
CONTINUOUS
 10
29.94545078
 20
56.1283658769
 11
29.94545078
 21
55.4456390201
  0
LINE
  5
27F
100
AcDbEntity
  8
0
100
AcDbLine
 62
7
  6
CONTINUOUS
 10
29.94545078
 20
55.4456390201
 11
29.94545078
 21
54.3196866071
  0
LINE
  5
280
100
AcDbEntity
  8
0
100
AcDbLine
 62
7
  6
CONTINUOUS
 10
29.94545078
 20
56.1283658769
 11
29.94545078
 21
56.3871022643
  0
LINE
  5
281
100
AcDbEntity
  8
0
100
AcDbLine
 62
7
  6
CONTINUOUS
 10
26.4472484615
 20
52.7891670294
 11
26.4454508333
 21
42.4895162521
  0
LINE
  5
282
100
AcDbEntity
  8
0
100
AcDbLine
 62
7
  6
CONTINUOUS
 10
26.9472485684
 20
52.789079759
 11
26.9454508866
 21
42.4894289818
  0
LINE
  5
283
100
AcDbEntity
  8
0
100
AcDbLine
 62
7
  6
CONTINUOUS
 10
27.5267667223
 20
28.1231727124
 11
25.2782458574
 21
28.9210349548
  0
LINE
  5
284
100
AcDbEntity
  8
0
100
AcDbLine
 62
7
  6
CONTINUOUS
 10
25.1099457441
 20
28.87925226
 11
27.7200552336
 21
27.9292500977
  0
LINE
  5
285
100
AcDbEntity
  8
A_ACHSEN
100
AcDbLine
 62
7
  6
CONTINUOUS
 10
31.1910319122
 20
46.5122935555
 11
31.1910319122
 21
45.8620535555
  0
LINE
  5
286
100
AcDbEntity
  8
A_ACHSEN
100
AcDbLine
 62
7
  6
CENTER
 10
31.1910319122
 20
44.5615735555
 11
31.1910319122
 21
41.581959675
  0
LINE
  5
287
100
AcDbEntity
  8
A_ACHSEN
100
AcDbLine
 62
7
  6
CENTER
 10
31.1910319122
 20
47.8127735555
 11
31.1910319122
 21
50.7923874361
  0
LINE
  5
288
100
AcDbEntity
  8
A_RUNDUNGEN
100
AcDbLine
 62
7
  6
CONTINUOUS
 10
31.5455390034
 20
52.6776772464
 11
31.5455390034
 21
52.2464531278
  0
LINE
  5
289
100
AcDbEntity
  8
A_RUNDUNGEN
100
AcDbLine
 62
7
  6
CONTINUOUS
 10
31.5520840297
 20
52.677734364
 11
31.5520840297
 21
52.2517938568
  0
LINE
  5
28A
100
AcDbEntity
  8
A_RUNDUNGEN
100
AcDbLine
 62
7
  6
CONTINUOUS
 10
33.94545078
 20
34.4440685999
 11
33.94545078
 21
29.123652983
  0
LINE
  5
28B
100
AcDbEntity
  8
0
100
AcDbLine
 62
7
  6
CONTINUOUS
 10
33.94545078
 20
29.123652983
 11
33.94545078
 21
28.0616467638
  0
LINE
  5
28C
100
AcDbEntity
  8
0
100
AcDbLine
 62
7
  6
CONTINUOUS
 10
26.1145357147
 20
30.6312841577
 11
28.9070578765
 21
29.6760380205
  0
LINE
  5
28D
100
AcDbEntity
  8
0
100
AcDbLine
 62
7
  6
CONTINUOUS
 10
33.9786023875
 20
31.8604447244
 11
33.9436962455
 21
27.8605970321
  0
LWPOLYLINE
  5
28E
100
AcDbEntity
  8
0
100
AcDbPolyline
 62
7
  6
CONTINUOUS
 90
3
 70
0
 10
33.9472720649
 20
29.5230935044
 10
33.9473064236
 20
29.5248333822
 10
33.945443069
 20
29.5582826165
  0
LINE
  5
28F
100
AcDbEntity
  8
A_RUNDUNGEN
100
AcDbLine
 62
7
  6
CONTINUOUS
 10
35.5230747379
 20
41.8572219613
 11
36.7183647858
 21
48.8558848123
  0
LINE
  5
290
100
AcDbEntity
  8
0
100
AcDbLine
 62
7
  6
CONTINUOUS
 10
97.5706396915
 20
27.7405941659
 11
91.7480248855
 21
26.922279021
  0
LINE
  5
291
100
AcDbEntity
  8
0
100
AcDbLine
 62
7
  6
CONTINUOUS
 10
13.44545078
 20
22.3891235306
 11
59.44545078
 21
22.3891235306
  0
LINE
  5
292
100
AcDbEntity
  8
0
100
AcDbLine
 62
7
  6
CONTINUOUS
 10
62.9618800401
 20
22.5477394847
 11
117.9618800401
 21
22.5477394847
  0
LINE
  5
293
100
AcDbEntity
  8
0
100
AcDbLine
 62
7
  6
CONTINUOUS
 10
33.8426328727
 20
26.5488877755
 11
24.3931865483
 21
27.5420646051
  0
LINE
  5
294
100
AcDbEntity
  8
0
100
AcDbLine
 62
7
  6
CONTINUOUS
 10
28.3580699869
 20
49.0110585974
 11
33.2643919671
 21
53.9331510894
  0
LINE
  5
295
100
AcDbEntity
  8
A_RUNDUNGEN
100
AcDbLine
 62
7
  6
CONTINUOUS
 10
51.14545078
 20
27.5391235306
 11
59.0498140477
 21
27.6081038638
  0
LINE
  5
296
100
AcDbEntity
  8
A_RUNDUNGEN
100
AcDbLine
 62
7
  6
CONTINUOUS
 10
78.2618800401
 20
28.1759944184
 11
75.4575905907
 21
28.1519671752
  0
LINE
  5
297
100
AcDbEntity
  8
0
100
AcDbLine
 62
7
  6
CONTINUOUS
 10
91.6671390105
 20
26.9164455738
 11
78.2618800401
 21
26.857953726
  0
LINE
  5
298
100
AcDbEntity
  8
A_RUNDUNGEN
100
AcDbLine
 62
7
  6
CONTINUOUS
 10
64.4618800401
 20
26.7977394847
 11
78.2618800401
 21
26.857953726
  0
LINE
  5
299
100
AcDbEntity
  8
0
100
AcDbLine
 62
7
  6
CONTINUOUS
 10
23.44545078
 20
26.3891235306
 11
59.44545078
 21
26.3891235306
  0
LINE
  5
29A
100
AcDbEntity
  8
A_RUNDUNGEN
100
AcDbLine
 62
7
  6
CONTINUOUS
 10
59.34545078
 20
26.4891235306
 11
57.84545078
 21
26.4891235306
  0
LINE
  5
29B
100
AcDbEntity
  8
0
100
AcDbLine
 62
7
  6
CONTINUOUS
 10
99.4618800401
 20
26.7477394847
 11
62.9618800401
 21
26.7477394847
  0
LINE
  5
29C
100
AcDbEntity
  8
A_RUNDUNGEN
100
AcDbLine
 62
7
  6
CONTINUOUS
 10
62.9618800401
 20
26.8477394847
 11
74.1618505462
 21
26.8477195948
  0
LINE
  5
29D
100
AcDbEntity
  8
A_RUNDUNGEN
100
AcDbLine
 62
7
  6
CONTINUOUS
 10
57.84545078
 20
26.4391235306
 11
45.94545078
 21
26.4910474054
  0
LINE
  5
29E
100
AcDbEntity
  8
0
100
AcDbLine
 62
7
  6
CONTINUOUS
 10
45.94545078
 20
26.4910474054
 11
33.9427980267
 21
26.5434191901
  0
LINE
  5
29F
100
AcDbEntity
  8
A_RUNDUNGEN
100
AcDbLine
 62
7
  6
CONTINUOUS
 10
46.14545078
 20
27.9977671294
 11
45.94545078
 21
27.9988143365
  0
LINE
  5
2A0
100
AcDbEntity
  8
0
100
AcDbLine
 62
7
  6
CONTINUOUS
 10
33.94545078
 20
28.0616467638
 11
27.691353663
 21
28.094393439
  0
LINE
  5
2A1
100
AcDbEntity
  8
0
100
AcDbLine
 62
7
  6
CONTINUOUS
 10
46.14545078
 20
27.5827578696
 11
51.14545078
 21
27.5391235306
  0
LINE
  5
2A2
100
AcDbEntity
  8
A_RUNDUNGEN
100
AcDbLine
 62
7
  6
CONTINUOUS
 10
46.1469460678
 20
27.7541008843
 11
45.9432393223
 21
27.7558786061
  0
LINE
  5
2A3
100
AcDbEntity
  8
0
100
AcDbLine
 62
7
  6
CONTINUOUS
 10
27.8033786356
 20
27.9141827721
 11
45.9432367331
 21
27.7555819114
  0
LINE
  5
2A4
100
AcDbEntity
  8
0
100
AcDbLine
 62
7
  6
CONTINUOUS
 10
24.8072541789
 20
43.4582218312
 11
24.5836473811
 21
43.5700252301
  0
LINE
  5
2A5
100
AcDbEntity
  8
0
100
AcDbLine
 62
7
  6
CONTINUOUS
 10
45.94545078
 20
26.4910474054
 11
45.94545078
 21
27.2602037017
  0
LINE
  5
2A6
100
AcDbEntity
  8
0
100
AcDbLine
 62
7
  6
CONTINUOUS
 10
46.14545078
 20
27.5827578696
 11
46.14545078
 21
30.673158315
  0
LINE
  5
2A7
100
AcDbEntity
  8
0
100
AcDbLine
 62
7
  6
CONTINUOUS
 10
36.3052626977
 20
50.6095990109
 11
35.3957707737
 21
49.6971836846
  0
LINE
  5
2A8
100
AcDbEntity
  8
A_RUNDUNGEN
100
AcDbLine
 62
7
  6
CONTINUOUS
 10
80.6688301442
 20
29.3397529551
 11
81.8536853124
 21
29.360434679
  0
LINE
  5
2A9
100
AcDbEntity
  8
0
100
AcDbLine
 62
7
  6
CONTINUOUS
 10
96.4003731195
 20
30.0343515116
 11
84.4022059559
 21
29.8246259736
  0
LINE
  5
2AA
100
AcDbEntity
  8
A_RUNDUNGEN
100
AcDbLine
 62
7
  6
CONTINUOUS
 10
83.1204582357
 20
29.8022529839
 11
84.4022059559
 21
29.8246259736
  0
LINE
  5
2AB
100
AcDbEntity
  8
0
100
AcDbLine
 62
7
  6
CONTINUOUS
 10
78.7575167723
 20
29.1353816661
 11
97.1140616739
 21
29.2955768066
  0
LINE
  5
2AC
100
AcDbEntity
  8
0
100
AcDbLine
 62
7
  6
CONTINUOUS
 10
98.3618800401
 20
29.2977394847
 11
98.6555377217
 21
29.2977394847
  0
LINE
  5
2AD
100
AcDbEntity
  8
0
100
AcDbLine
 62
7
  6
CONTINUOUS
 10
24.64545078
 20
30.0264496043
 11
24.94545078
 21
30.0264496043
  0
LINE
  5
2AE
100
AcDbEntity
  8
0
100
AcDbLine
 62
7
  6
CONTINUOUS
 10
24.64545078
 20
30.0933018758
 11
24.94545078
 21
30.0933018758
  0
LINE
  5
2AF
100
AcDbEntity
  8
0
100
AcDbLine
 62
7
  6
CONTINUOUS
 10
24.94545078
 20
30.495565512
 11
24.64545078
 21
30.495565512
  0
LINE
  5
2B0
100
AcDbEntity
  8
0
100
AcDbLine
 62
7
  6
CONTINUOUS
 10
26.9454507647
 20
30.7890797377
 11
25.94545078
 21
30.7892542745
  0
LINE
  5
2B1
100
AcDbEntity
  8
A_RUNDUNGEN
100
AcDbLine
 62
7
  6
CONTINUOUS
 10
46.14545078
 20
29.5128408013
 11
45.9585863304
 21
29.5144715426
  0
LINE
  5
2B2
100
AcDbEntity
  8
A_RUNDUNGEN
100
AcDbLine
 62
7
  6
CONTINUOUS
 10
33.9590432536
 20
29.6191899686
 11
33.94545078
 21
29.6193085883
  0
LINE
  5
2B3
100
AcDbEntity
  8
0
100
AcDbLine
 62
7
  6
CONTINUOUS
 10
33.4498140477
 20
29.6236339445
 11
28.9857913079
 21
29.6625908808
  0
LINE
  5
2B4
100
AcDbEntity
  8
A_RUNDUNGEN
100
AcDbLine
 62
7
  6
CONTINUOUS
 10
33.94545078
 20
30.7796261021
 11
33.96916842
 21
30.7794191214
  0
LINE
  5
2B5
100
AcDbEntity
  8
A_RUNDUNGEN
100
AcDbLine
 62
7
  6
CONTINUOUS
 10
45.9687114968
 20
30.6747006954
 11
46.14545078
 21
30.673158315
  0
LINE
  5
2B6
100
AcDbEntity
  8
0
100
AcDbLine
 62
7
  6
CONTINUOUS
 10
45.9781428751
 20
31.7554296037
 11
33.9786023875
 21
31.8604447244
  0
LINE
  5
2B7
100
AcDbEntity
  8
0
100
AcDbLine
 62
7
  6
CONTINUOUS
 10
48.2790634453
 20
35.9058596255
 11
48.2955451906
 21
33.1576385791
  0
LINE
  5
2B8
100
AcDbEntity
  8
A_RUNDUNGEN
100
AcDbLine
 62
7
  6
CONTINUOUS
 10
48.2790634453
 20
35.9058596255
 11
48.2270926267
 21
44.5716468801
  0
LINE
  5
2B9
100
AcDbEntity
  8
0
100
AcDbLine
 62
7
  6
CONTINUOUS
 10
49.44545078
 20
26.3891235306
 11
49.44545078
 21
26.4757756775
  0
LINE
  5
2BA
100
AcDbEntity
  8
0
100
AcDbLine
 62
7
  6
CONTINUOUS
 10
49.44545078
 20
58.3024713837
 11
49.44545078
 21
58.3891235306
  0
LINE
  5
2BB
100
AcDbEntity
  8
0
100
AcDbLine
 62
7
  6
CONTINUOUS
 10
45.9432367331
 20
27.7555819114
 11
45.9781428751
 21
31.7554296037
  0
LINE
  5
2BC
100
AcDbEntity
  8
0
100
AcDbLine
 62
7
  6
CONTINUOUS
 10
95.2766032937
 20
41.5861876097
 11
95.0049910051
 21
41.5301355592
  0
LINE
  5
2BD
100
AcDbEntity
  8
0
100
AcDbLine
 62
7
  6
CONTINUOUS
 10
93.5894895411
 20
41.2380215314
 11
91.0875389228
 21
40.7216993014
  0
LINE
  5
2BE
100
AcDbEntity
  8
0
100
AcDbLine
 62
7
  6
CONTINUOUS
 10
89.6720374588
 20
40.4295852736
 11
89.4004251702
 21
40.373533223
  0
LINE
  5
2BF
100
AcDbEntity
  8
0
100
AcDbLine
 62
7
  6
CONTINUOUS
 10
84.3323963301
 20
33.8240167542
 11
96.3305634938
 21
34.0337422922
  0
LINE
  5
2C0
100
AcDbEntity
  8
0
100
AcDbLine
 62
7
  6
CONTINUOUS
 10
24.94545078
 20
33.1221096594
 11
24.64545078
 21
33.1221096594
  0
LINE
  5
2C1
100
AcDbEntity
  8
0
100
AcDbLine
 62
7
  6
CONTINUOUS
 10
24.94545078
 20
33.1538867637
 11
24.64545078
 21
33.1538867637
  0
LINE
  5
2C2
100
AcDbEntity
  8
A_ACHSEN
100
AcDbLine
 62
7
  6
CONTINUOUS
 10
53.87057078
 20
33.1891235306
 11
53.22033078
 21
33.1891235306
  0
LINE
  5
2C3
100
AcDbEntity
  8
A_ACHSEN
100
AcDbLine
 62
7
  6
CENTER
 10
51.91985078
 20
33.1891235306
 11
47.99545078
 21
33.1891235306
  0
LINE
  5
2C4
100
AcDbEntity
  8
A_ACHSEN
100
AcDbLine
 62
7
  6
CENTER
 10
55.17105078
 20
33.1891235306
 11
59.09545078
 21
33.1891235306
  0
LINE
  5
2C5
100
AcDbEntity
  8
A_ACHSEN
100
AcDbLine
 62
7
  6
CONTINUOUS
 10
69.2869629439
 20
33.2477196055
 11
68.6367229439
 21
33.2477196055
  0
LINE
  5
2C6
100
AcDbEntity
  8
A_ACHSEN
100
AcDbLine
 62
7
  6
CENTER
 10
67.3362429439
 20
33.2477196055
 11
63.111184327
 21
33.2477196055
  0
LINE
  5
2C7
100
AcDbEntity
  8
A_ACHSEN
100
AcDbLine
 62
7
  6
CENTER
 10
70.5874429439
 20
33.2477196055
 11
74.8125015608
 21
33.2477196055
  0
LINE
  5
2C8
100
AcDbEntity
  8
0
100
AcDbLine
 62
7
  6
CONTINUOUS
 10
24.34545078
 20
34.3891235306
 11
24.54545078
 21
34.3891235306
  0
LINE
  5
2C9
100
AcDbEntity
  8
0
100
AcDbLine
 62
7
  6
CONTINUOUS
 10
98.3618800401
 20
36.2977394847
 11
98.6618800401
 21
36.2977394847
  0
LINE
  5
2CA
100
AcDbEntity
  8
0
100
AcDbLine
 62
7
  6
CONTINUOUS
 10
96.8575167723
 20
36.3021409963
 11
97.1140616739
 21
36.2999021628
  0
LINE
  5
2CB
100
AcDbEntity
  8
A_RUNDUNGEN
100
AcDbLine
 62
7
  6
CONTINUOUS
 10
26.9454508154
 20
35.6542027599
 11
32.9803502767
 21
35.4434594269
  0
LINE
  5
2CC
100
AcDbEntity
  8
0
100
AcDbLine
 62
7
  6
CONTINUOUS
 10
33.2149189917
 20
40.222469059
 11
32.9415416998
 21
40.2691587144
  0
LINE
  5
2CD
100
AcDbEntity
  8
0
100
AcDbLine
 62
7
  6
CONTINUOUS
 10
31.5168419594
 20
40.5124808257
 11
28.9986330514
 21
40.9425615583
  0
LINE
  5
2CE
100
AcDbEntity
  8
A_RUNDUNGEN
100
AcDbLine
 62
7
  6
CONTINUOUS
 10
54.1411053469
 20
42.1578299946
 11
54.0728591704
 21
44.2780522611
  0
LINE
  5
2CF
100
AcDbEntity
  8
A_RUNDUNGEN
100
AcDbLine
 62
7
  6
CONTINUOUS
 10
52.44545078
 20
55.7212902754
 11
52.44545078
 21
56.8312845922
  0
LINE
  5
2D0
100
AcDbEntity
  8
0
100
AcDbLine
 62
7
  6
CONTINUOUS
 10
52.44545078
 20
57.5747680002
 11
52.44545078
 21
58.3155614362
  0
LINE
  5
2D1
100
AcDbEntity
  8
0
100
AcDbLine
 62
7
  6
CONTINUOUS
 10
52.74545078
 20
55.7217716505
 11
52.74545078
 21
57.3251605422
  0
LINE
  5
2D2
100
AcDbEntity
  8
A_ACHSEN
100
AcDbLine
 62
7
  6
CONTINUOUS
 10
53.54545078
 20
33.5142435306
 11
53.54545078
 21
32.8640035306
  0
LINE
  5
2D3
100
AcDbEntity
  8
A_ACHSEN
100
AcDbLine
 62
7
  6
CENTER
 10
53.54545078
 20
31.5635235306
 11
53.54545078
 21
27.6391235306
  0
LINE
  5
2D4
100
AcDbEntity
  8
A_ACHSEN
100
AcDbLine
 62
7
  6
CENTER
 10
53.54545078
 20
34.8147235306
 11
53.54545078
 21
38.7391235306
  0
LINE
  5
2D5
100
AcDbEntity
  8
0
100
AcDbLine
 62
7
  6
CONTINUOUS
 10
26.1145357147
 20
52.8469629036
 11
28.9070578765
 21
53.8022090408
  0
LINE
  5
2D6
100
AcDbEntity
  8
A_RUNDUNGEN
100
AcDbLine
 62
7
  6
CONTINUOUS
 10
26.9471352243
 20
52.1396850121
 11
28.4060249002
 21
52.6259815707
  0
LINE
  5
2D7
100
AcDbEntity
  8
0
100
AcDbLine
 62
7
  6
CONTINUOUS
 10
55.6748556034
 20
40.7197380429
 11
54.1411053469
 21
42.1578299946
  0
LINE
  5
2D8
100
AcDbEntity
  8
A_RUNDUNGEN
100
AcDbLine
 62
7
  6
CONTINUOUS
 10
55.1548256558
 20
41.7699254174
 11
55.6748556034
 21
40.7197380429
  0
LINE
  5
2D9
100
AcDbEntity
  8
0
100
AcDbLine
 62
7
  6
CONTINUOUS
 10
58.2502325731
 20
35.5188291513
 11
55.6748556034
 21
40.7197380429
  0
LINE
  5
2DA
100
AcDbEntity
  8
A_RUNDUNGEN
100
AcDbLine
 62
7
  6
CONTINUOUS
 10
57.84545078
 20
26.4391235306
 11
57.84545078
 21
27.5975935448
  0
LINE
  5
2DB
100
AcDbEntity
  8
A_RUNDUNGEN
100
AcDbLine
 62
7
  6
CONTINUOUS
 10
57.84545078
 20
57.2806535164
 11
57.84545078
 21
58.3391235306
  0
LINE
  5
2DC
100
AcDbEntity
  8
A_RUNDUNGEN
100
AcDbLine
 62
7
  6
CONTINUOUS
 10
55.9761791639
 20
44.3882679942
 11
55.9280779075
 21
40.4513224796
  0
LINE
  5
2DD
100
AcDbEntity
  8
0
100
AcDbLine
 62
7
  6
CONTINUOUS
 10
56.0030114785
 20
44.4049949116
 11
55.9511676724
 21
40.1617327824
  0
LINE
  5
2DE
100
AcDbEntity
  8
0
100
AcDbLine
 62
7
  6
CONTINUOUS
 10
52.549760369
 20
50.6133563403
 11
49.3816819782
 21
47.4070492204
  0
LINE
  5
2DF
100
AcDbEntity
  8
0
100
AcDbLine
 62
7
  6
CONTINUOUS
 10
71.44545078
 20
64.999333168
 11
68.7033764851
 21
63.5891235306
  0
LINE
  5
2E0
100
AcDbEntity
  8
0
100
AcDbLine
 62
7
  6
CONTINUOUS
 10
72.44545078
 20
64.3891235306
 11
68.94545078
 21
62.5891235306
  0
LINE
  5
2E1
100
AcDbEntity
  8
0
100
AcDbLine
 62
7
  6
CONTINUOUS
 10
97.3970238736
 20
42.7233774053
 11
97.5775808269
 21
42.7328399943
  0
LINE
  5
2E2
100
AcDbEntity
  8
A_RUNDUNGEN
100
AcDbLine
 62
7
  6
CONTINUOUS
 10
59.34545078
 20
58.2891235306
 11
59.34545078
 21
57.1690979644
  0
LINE
  5
2E3
100
AcDbEntity
  8
A_RUNDUNGEN
100
AcDbLine
 62
7
  6
CONTINUOUS
 10
59.34545078
 20
27.7091490969
 11
59.34545078
 21
26.4891235306
  0
LINE
  5
2E4
100
AcDbEntity
  8
0
100
AcDbLine
 62
7
  6
CONTINUOUS
 10
59.44545078
 20
22.3891235306
 11
59.44545078
 21
27.8100255915
  0
LINE
  5
2E5
100
AcDbEntity
  8
0
100
AcDbLine
 62
7
  6
CONTINUOUS
 10
59.44545078
 20
57.0682214698
 11
59.44545078
 21
67.3891235306
  0
LINE
  5
2E6
100
AcDbEntity
  8
A_RUNDUNGEN
100
AcDbLine
 62
7
  6
CONTINUOUS
 10
59.54545078
 20
46.0281772652
 11
59.54545078
 21
28.1080848254
  0
LINE
  5
2E7
100
AcDbEntity
  8
0
100
AcDbLine
 62
7
  6
CONTINUOUS
 10
60.44545078
 20
64.999333168
 11
60.44545078
 21
66.3891235306
  0
LINE
  5
2E8
100
AcDbEntity
  8
A_ACHSEN
100
AcDbLine
 62
7
  6
CENTER
 10
61.1813658733
 20
48.4679414431
 11
61.1813658733
 21
56.0025778365
  0
LINE
  5
2E9
100
AcDbEntity
  8
0
100
AcDbLine
 62
7
  6
CONTINUOUS
 10
24.8072541789
 20
36.3200252301
 11
24.5836473811
 21
36.2082218312
  0
LINE
  5
2EA
100
AcDbEntity
  8
0
100
AcDbLine
 62
7
  6
CONTINUOUS
 10
93.0331926783
 20
52.4571171381
 11
92.7615803897
 21
52.4010650876
  0
LINE
  5
2EB
100
AcDbEntity
  8
0
100
AcDbLine
 62
7
  6
CONTINUOUS
 10
24.34545078
 20
45.3891235306
 11
24.54545078
 21
45.3891235306
  0
LINE
  5
2EC
100
AcDbEntity
  8
0
100
AcDbLine
 62
7
  6
CONTINUOUS
 10
97.8618800401
 20
45.7477394847
 11
97.5618800401
 21
45.7477394847
  0
LINE
  5
2ED
100
AcDbEntity
  8
A_ACHSEN
100
AcDbLine
 62
7
  6
CONTINUOUS
 10
31.5161519122
 20
46.1871735555
 11
30.8659119122
 21
46.1871735555
  0
LINE
  5
2EE
100
AcDbEntity
  8
A_ACHSEN
100
AcDbLine
 62
7
  6
CENTER
 10
29.5654319122
 20
46.1871735555
 11
26.5858180316
 21
46.1871735555
  0
LINE
  5
2EF
100
AcDbEntity
  8
A_ACHSEN
100
AcDbLine
 62
7
  6
CENTER
 10
32.8166319122
 20
46.1871735555
 11
35.7962457928
 21
46.1871735555
  0
LINE
  5
2F0
100
AcDbEntity
  8
A_ACHSEN
100
AcDbLine
 62
7
  6
CENTER
 10
87.1608987902
 20
46.3389744094
 11
95.1556490311
 21
46.3389744094
  0
LINE
  5
2F1
100
AcDbEntity
  8
0
100
AcDbLine
 62
7
  6
CONTINUOUS
 10
97.8618800401
 20
47.4220796847
 11
97.5618800401
 21
47.4220796847
  0
LINE
  5
2F2
100
AcDbEntity
  8
0
100
AcDbLine
 62
7
  6
CONTINUOUS
 10
97.8618800401
 20
47.8412680997
 11
97.5618800401
 21
47.8412680997
  0
LINE
  5
2F3
100
AcDbEntity
  8
0
100
AcDbLine
 62
7
  6
CONTINUOUS
 10
97.8618800401
 20
47.8564152029
 11
97.5618800401
 21
47.8564152029
  0
LINE
  5
2F4
100
AcDbEntity
  8
0
100
AcDbLine
 62
7
  6
CONTINUOUS
 10
97.8618800401
 20
48.4582817416
 11
97.5618800401
 21
48.4582817416
  0
LINE
  5
2F5
100
AcDbEntity
  8
0
100
AcDbLine
 62
7
  6
CONTINUOUS
 10
31.1703516089
 20
51.8323798056
 11
30.8673259432
 21
51.8841330577
  0
LINE
  5
2F6
100
AcDbEntity
  8
0
100
AcDbLine
 62
7
  6
CONTINUOUS
 10
29.4426262028
 20
52.1274551689
 11
29.1692489109
 21
52.1741448243
  0
LINE
  5
2F7
100
AcDbEntity
  8
0
100
AcDbLine
 62
7
  6
CONTINUOUS
 10
66.2988340107
 20
44.518290251
 11
52.3488945868
 21
50.702401628
  0
LINE
  5
2F8
100
AcDbEntity
  8
0
100
AcDbLine
 62
7
  6
CONTINUOUS
 10
62.9618800401
 20
62.5477394847
 11
62.9618800401
 21
58.6215747057
  0
LINE
  5
2F9
100
AcDbEntity
  8
0
100
AcDbLine
 62
7
  6
CONTINUOUS
 10
62.9618800401
 20
26.8739042637
 11
62.9618800401
 21
22.5477394847
  0
LINE
  5
2FA
100
AcDbEntity
  8
A_RUNDUNGEN
100
AcDbLine
 62
7
  6
CONTINUOUS
 10
62.9618800401
 20
26.8477394847
 11
62.9618429701
 21
45.9976030733
  0
LINE
  5
2FB
100
AcDbEntity
  8
A_RUNDUNGEN
100
AcDbLine
 62
7
  6
CONTINUOUS
 10
62.9618429927
 20
57.0087966378
 11
62.9618800401
 21
58.6477394847
  0
LINE
  5
2FC
100
AcDbEntity
  8
A_RUNDUNGEN
100
AcDbLine
 62
7
  6
CONTINUOUS
 10
64.4618800401
 20
26.7977394847
 11
64.4618800401
 21
26.8477196148
  0
LINE
  5
2FD
100
AcDbEntity
  8
A_RUNDUNGEN
100
AcDbLine
 62
7
  6
CONTINUOUS
 10
64.4618800401
 20
57.553471237
 11
64.4618800401
 21
58.1099076776
  0
LINE
  5
2FE
100
AcDbEntity
  8
0
100
AcDbLine
 62
7
  6
CONTINUOUS
 10
64.4618800401
 20
58.1099076776
 11
64.4618800401
 21
58.6977394847
  0
LINE
  5
2FF
100
AcDbEntity
  8
A_RUNDUNGEN
100
AcDbLine
 62
7
  6
CONTINUOUS
 10
62.970894417
 20
34.3137402386
 11
62.9618429457
 21
34.1359238707
  0
LINE
  5
300
100
AcDbEntity
  8
0
100
AcDbLine
 62
7
  6
CONTINUOUS
 10
54.1411053469
 20
42.1578299946
 11
48.2790634453
 21
35.9058596255
  0
LINE
  5
301
100
AcDbEntity
  8
A_RUNDUNGEN
100
AcDbLine
 62
7
  6
CONTINUOUS
 10
72.4624993511
 20
51.302940974
 11
82.2289949112
 21
51.3615130061
  0
LINE
  5
302
100
AcDbEntity
  8
0
100
AcDbLine
 62
7
  6
CONTINUOUS
 10
82.2289949112
 20
51.3615130061
 11
84.6514068785
 21
51.3760407956
  0
LINE
  5
303
100
AcDbEntity
  8
0
100
AcDbLine
 62
7
  6
CONTINUOUS
 10
49.9076455299
 20
51.2172123619
 11
37.7185344974
 21
51.1976539153
  0
LINE
  5
304
100
AcDbEntity
  8
0
100
AcDbLine
 62
7
  6
CONTINUOUS
 10
97.8618800401
 20
49.3387980997
 11
97.5618800401
 21
49.3387980997
  0
LINE
  5
305
100
AcDbEntity
  8
0
100
AcDbLine
 62
7
  6
CONTINUOUS
 10
97.8618800401
 20
51.8802980997
 11
97.5618800401
 21
51.8802980997
  0
LINE
  5
306
100
AcDbEntity
  8
A_ACHSEN
100
AcDbLine
 62
7
  6
CENTER
 10
57.4140476766
 20
52.2352596398
 11
64.9486840699
 21
52.2352596398
  0
LINE
  5
307
100
AcDbEntity
  8
A_ACHSEN
100
AcDbLine
 62
7
  6
CONTINUOUS
 10
97.8618800401
 20
52.8069680997
 11
97.5618800401
 21
52.8069680997
  0
LINE
  5
308
100
AcDbEntity
  8
0
100
AcDbLine
 62
7
  6
CONTINUOUS
 10
25.9472484691
 20
52.7892542959
 11
26.9472485684
 21
52.789079759
  0
LINE
  5
309
100
AcDbEntity
  8
0
100
AcDbLine
 62
7
  6
CONTINUOUS
 10
66.5506075896
 20
40.2994534407
 11
66.5005771243
 21
44.3942996756
  0
LINE
  5
30A
100
AcDbEntity
  8
A_RUNDUNGEN
100
AcDbLine
 62
7
  6
CONTINUOUS
 10
66.5745737832
 20
40.5173100857
 11
66.5274065352
 21
44.3778104184
  0
LINE
  5
30B
100
AcDbEntity
  8
A_ACHSEN
100
AcDbLine
 62
7
  6
CONTINUOUS
 10
68.9618429439
 20
33.5728396055
 11
68.9618429439
 21
32.9225996055
  0
LINE
  5
30C
100
AcDbEntity
  8
A_ACHSEN
100
AcDbLine
 62
7
  6
CENTER
 10
68.9618429439
 20
31.6221196055
 11
68.9618429439
 21
27.3970609886
  0
LINE
  5
30D
100
AcDbEntity
  8
A_ACHSEN
100
AcDbLine
 62
7
  6
CENTER
 10
68.9618429439
 20
34.8733196055
 11
68.9618429439
 21
39.0983782224
  0
LINE
  5
30E
100
AcDbEntity
  8
0
100
AcDbLine
 62
7
  6
CONTINUOUS
 10
69.5545777667
 20
56.2003663316
 11
69.5633912204
 21
56.7002886486
  0
LINE
  5
30F
100
AcDbEntity
  8
0
100
AcDbLine
 62
7
  6
CONTINUOUS
 10
56.1227075159
 20
44.4796118713
 11
61.2021094571
 21
46.7777059617
  0
LINE
  5
310
100
AcDbEntity
  8
0
100
AcDbLine
 62
7
  6
CONTINUOUS
 10
69.8250511704
 20
50.6790178922
 11
70.0252342553
 21
50.7695875241
  0
LINE
  5
311
100
AcDbEntity
  8
0
100
AcDbLine
 62
7
  6
CONTINUOUS
 10
32.0170422576
 20
52.681791993
 11
31.5520840297
 21
52.677734364
  0
LINE
  5
312
100
AcDbEntity
  8
A_RUNDUNGEN
100
AcDbLine
 62
7
  6
CONTINUOUS
 10
28.5597755154
 20
52.6516208832
 11
31.5455390034
 21
52.6776772464
  0
LINE
  5
313
100
AcDbEntity
  8
A_RUNDUNGEN
100
AcDbLine
 62
7
  6
CONTINUOUS
 10
33.183791527
 20
53.8522915734
 11
29.4498140477
 21
53.8197056456
  0
LINE
  5
314
100
AcDbEntity
  8
0
100
AcDbLine
 62
7
  6
CONTINUOUS
 10
29.4498140477
 20
53.8197056456
 11
28.9857913079
 21
53.8156561805
  0
LINE
  5
315
100
AcDbEntity
  8
0
100
AcDbLine
 62
7
  6
CONTINUOUS
 10
25.4410875122
 20
55.5934012889
 11
29.4498140477
 21
55.6283849154
  0
LINE
  5
316
100
AcDbEntity
  8
0
100
AcDbLine
 62
7
  6
CONTINUOUS
 10
84.831522834
 20
55.8772019193
 11
77.4600825215
 21
55.8329936118
  0
LINE
  5
317
100
AcDbEntity
  8
A_RUNDUNGEN
100
AcDbLine
 62
7
  6
CONTINUOUS
 10
65.4903693705
 20
55.7612083518
 11
77.4600825215
 21
55.8329936118
  0
LINE
  5
318
100
AcDbEntity
  8
0
100
AcDbLine
 62
7
  6
CONTINUOUS
 10
29.94545078
 20
55.4456390201
 11
25.194141789
 21
55.4207609971
  0
LINE
  5
319
100
AcDbEntity
  8
A_RUNDUNGEN
100
AcDbLine
 62
7
  6
CONTINUOUS
 10
30.0716626119
 20
56.6963170047
 11
52.74545078
 21
56.8150377668
  0
LINE
  5
31A
100
AcDbEntity
  8
0
100
AcDbLine
 62
7
  6
CONTINUOUS
 10
37.5042073663
 20
55.6973158026
 11
56.8456837483
 21
55.7283508167
  0
LINE
  5
31B
100
AcDbEntity
  8
0
100
AcDbLine
 62
7
  6
CONTINUOUS
 10
97.8618800401
 20
53.6842544579
 11
97.5618800401
 21
53.6842544579
  0
LINE
  5
31C
100
AcDbEntity
  8
0
100
AcDbLine
 62
7
  6
CONTINUOUS
 10
97.8618800401
 20
54.2861209965
 11
97.5618800401
 21
54.2861209965
  0
LINE
  5
31D
100
AcDbEntity
  8
0
100
AcDbLine
 62
7
  6
CONTINUOUS
 10
97.8618800401
 20
54.3012680997
 11
97.5618800401
 21
54.3012680997
  0
LINE
  5
31E
100
AcDbEntity
  8
A_RUNDUNGEN
100
AcDbLine
 62
7
  6
CONTINUOUS
 10
89.3251880218
 20
55.8534711859
 11
87.5299088438
 21
55.8534711896
  0
LINE
  5
31F
100
AcDbEntity
  8
0
100
AcDbLine
 62
7
  6
CONTINUOUS
 10
90.9911691379
 20
55.6954827351
 11
95.3793324465
 21
55.6188870596
  0
LINE
  5
320
100
AcDbEntity
  8
0
100
AcDbLine
 62
7
  6
CONTINUOUS
 10
91.5511957095
 20
55.8146160888
 11
79.8529774969
 21
56.0188091863
  0
LINE
  5
321
100
AcDbEntity
  8
0
100
AcDbLine
 62
7
  6
CONTINUOUS
 10
69.6501717253
 20
56.6969760409
 11
91.5600091631
 21
56.3145384058
  0
LINE
  5
322
100
AcDbEntity
  8
0
100
AcDbLine
 62
7
  6
CONTINUOUS
 10
79.8529774969
 20
56.0188091863
 11
69.5545777667
 21
56.2003663316
  0
LINE
  5
323
100
AcDbEntity
  8
0
100
AcDbLine
 62
7
  6
CONTINUOUS
 10
69.5633912204
 20
56.7002886486
 11
79.8614419389
 21
56.5187376563
  0
LINE
  5
324
100
AcDbEntity
  8
0
100
AcDbLine
 62
7
  6
CONTINUOUS
 10
96.5473501306
 20
54.8166310781
 11
97.5775808269
 21
54.7626389751
  0
LINE
  5
325
100
AcDbEntity
  8
0
100
AcDbLine
 62
7
  6
CONTINUOUS
 10
64.7112221756
 20
55.7764620464
 11
73.0174113413
 21
47.496886126
  0
LINE
  5
326
100
AcDbEntity
  8
0
100
AcDbLine
 62
7
  6
CONTINUOUS
 10
74.19352115
 20
44.6703425265
 11
74.2118361854
 21
33.2561436581
  0
LINE
  5
327
100
AcDbEntity
  8
0
100
AcDbLine
 62
7
  6
CONTINUOUS
 10
71.44545078
 20
66.3891235306
 11
71.44545078
 21
64.999333168
  0
LINE
  5
328
100
AcDbEntity
  8
0
100
AcDbLine
 62
7
  6
CONTINUOUS
 10
72.44545078
 20
64.3891235306
 11
72.44545078
 21
82.3891235306
  0
LINE
  5
329
100
AcDbEntity
  8
0
100
AcDbLine
 62
7
  6
CONTINUOUS
 10
72.9618800401
 20
58.7477394847
 11
72.9618800401
 21
58.6606510027
  0
LINE
  5
32A
100
AcDbEntity
  8
0
100
AcDbLine
 62
7
  6
CONTINUOUS
 10
72.9618800401
 20
26.8348279667
 11
72.9618800401
 21
26.7477394847
  0
LINE
  5
32B
100
AcDbEntity
  8
A_RUNDUNGEN
100
AcDbLine
 62
7
  6
CONTINUOUS
 10
63.1010207901
 20
34.34317226
 11
63.9864379582
 21
36.4290843782
  0
LINE
  5
32C
100
AcDbEntity
  8
0
100
AcDbLine
 62
7
  6
CONTINUOUS
 10
64.2394874138
 20
35.5415936751
 11
67.2872860709
 21
41.8160396153
  0
LINE
  5
32D
100
AcDbEntity
  8
A_RUNDUNGEN
100
AcDbLine
 62
7
  6
CONTINUOUS
 10
52.7475750004
 20
57.081748993
 11
51.9498140477
 21
57.0747870386
  0
LINE
  5
32E
100
AcDbEntity
  8
0
100
AcDbLine
 62
7
  6
CONTINUOUS
 10
51.9498140477
 20
57.0747870386
 11
30.4410875122
 21
56.8870832258
  0
LINE
  5
32F
100
AcDbEntity
  8
0
100
AcDbLine
 62
7
  6
CONTINUOUS
 10
52.44545078
 20
58.3155614362
 11
33.9427980267
 21
58.2348278711
  0
LINE
  5
330
100
AcDbEntity
  8
A_RUNDUNGEN
100
AcDbLine
 62
7
  6
CONTINUOUS
 10
52.44545078
 20
58.3155614362
 11
57.84545078
 21
58.3391235306
  0
LINE
  5
331
100
AcDbEntity
  8
A_RUNDUNGEN
100
AcDbLine
 62
7
  6
CONTINUOUS
 10
67.1738209435
 20
57.0534712315
 11
67.776352876
 21
57.0534712302
  0
LINE
  5
332
100
AcDbEntity
  8
A_RUNDUNGEN
100
AcDbLine
 62
7
  6
CONTINUOUS
 10
63.4618429939
 20
57.5534712391
 11
65.2040758409
 21
57.5534712355
  0
LINE
  5
333
100
AcDbEntity
  8
A_RUNDUNGEN
100
AcDbLine
 62
7
  6
CONTINUOUS
 10
59.34545078
 20
58.2891235306
 11
57.84545078
 21
58.2891235306
  0
LINE
  5
334
100
AcDbEntity
  8
0
100
AcDbLine
 62
7
  6
CONTINUOUS
 10
23.44545078
 20
58.3891235306
 11
59.44545078
 21
58.3891235306
  0
LINE
  5
335
100
AcDbEntity
  8
A_RUNDUNGEN
100
AcDbLine
 62
7
  6
CONTINUOUS
 10
62.9618800401
 20
58.6477394847
 11
64.4618800401
 21
58.6477394847
  0
LINE
  5
336
100
AcDbEntity
  8
0
100
AcDbLine
 62
7
  6
CONTINUOUS
 10
99.4618800401
 20
58.7477394847
 11
62.9618800401
 21
58.7477394847
  0
LINE
  5
337
100
AcDbEntity
  8
0
100
AcDbLine
 62
7
  6
CONTINUOUS
 10
91.6671390105
 20
58.5790333957
 11
64.4618800401
 21
58.6977394847
  0
LINE
  5
338
100
AcDbEntity
  8
A_RUNDUNGEN
100
AcDbLine
 62
7
  6
CONTINUOUS
 10
59.0498140477
 20
57.2701431974
 11
52.74545078
 21
57.3251605422
  0
LINE
  5
339
100
AcDbEntity
  8
0
100
AcDbLine
 62
7
  6
CONTINUOUS
 10
64.8664755424
 20
57.6190940859
 11
69.5634934308
 21
56.7060862967
  0
LINE
  5
33A
100
AcDbEntity
  8
0
100
AcDbLine
 62
7
  6
CONTINUOUS
 10
62.94545078
 20
62.5891235306
 11
59.44545078
 21
64.3891235306
  0
LINE
  5
33B
100
AcDbEntity
  8
A_FASEN
100
AcDbLine
 62
7
  6
CONTINUOUS
 10
98.8618800397
 20
29.2259962721
 11
98.6618800397
 21
29.4190634728
  0
LINE
  5
33C
100
AcDbEntity
  8
A_RUNDUNGEN
100
AcDbLine
 62
7
  6
CONTINUOUS
 10
74.6790942168
 20
30.7440382717
 11
74.6790942281
 21
36.2851668485
  0
LINE
  5
33D
100
AcDbEntity
  8
A_RUNDUNGEN
100
AcDbLine
 62
7
  6
CONTINUOUS
 10
74.9618470449
 20
29.4789162948
 11
74.9618429324
 21
27.6477119778
  0
LINE
  5
33E
100
AcDbEntity
  8
0
100
AcDbLine
 62
7
  6
CONTINUOUS
 10
78.2618800401
 20
28.6354007046
 11
78.2618800401
 21
26.857953726
  0
LINE
  5
33F
100
AcDbEntity
  8
0
100
AcDbLine
 62
7
  6
CONTINUOUS
 10
24.3931865483
 20
57.2361824562
 11
33.8426328727
 21
58.2293592858
  0
LINE
  5
340
100
AcDbEntity
  8
0
100
AcDbLine
 62
7
  6
CONTINUOUS
 10
117.9618800401
 20
62.5477394847
 11
62.9618800401
 21
62.5477394847
  0
LINE
  5
341
100
AcDbEntity
  8
0
100
AcDbLine
 62
7
  6
CONTINUOUS
 10
68.94545078
 20
62.5891235306
 11
62.94545078
 21
62.5891235306
  0
LINE
  5
342
100
AcDbEntity
  8
0
100
AcDbLine
 62
7
  6
CONTINUOUS
 10
68.7033764851
 20
63.5891235306
 11
63.1875250749
 21
63.5891235306
  0
LINE
  5
343
100
AcDbEntity
  8
0
100
AcDbLine
 62
7
  6
CONTINUOUS
 10
91.7480248855
 20
58.5731999485
 11
97.5706396915
 21
57.7548848035
  0
LINE
  5
344
100
AcDbEntity
  8
0
100
AcDbLine
 62
7
  6
CONTINUOUS
 10
63.1875250749
 20
63.5891235306
 11
60.44545078
 21
64.999333168
  0
LINE
  5
345
100
AcDbEntity
  8
0
100
AcDbLine
 62
7
  6
CONTINUOUS
 10
82.2289949112
 20
51.3615130061
 11
77.4600825215
 21
55.8329936118
  0
LINE
  5
346
100
AcDbEntity
  8
0
100
AcDbLine
 62
7
  6
CONTINUOUS
 10
98.6555377217
 20
29.2977394847
 11
98.8545619804
 21
29.0780076717
  0
LINE
  5
347
100
AcDbEntity
  8
0
100
AcDbLine
 62
7
  6
CONTINUOUS
 10
60.44545078
 20
66.3891235306
 11
71.44545078
 21
66.3891235306
  0
LINE
  5
348
100
AcDbEntity
  8
0
100
AcDbLine
 62
7
  6
CONTINUOUS
 10
59.44545078
 20
67.3891235306
 11
72.44545078
 21
67.3891235306
  0
LINE
  5
349
100
AcDbEntity
  8
0
100
AcDbLine
 62
7
  6
CONTINUOUS
 10
89.8504673506
 20
56.2816788732
 11
90.7498953411
 21
55.7623938808
  0
LINE
  5
34A
100
AcDbEntity
  8
0
100
AcDbLine
 62
7
  6
CONTINUOUS
 10
86.0691080487
 20
50.7987461199
 11
86.9855095825
 21
49.8932708214
  0
LINE
  5
34B
100
AcDbEntity
  8
0
100
AcDbLine
 62
7
  6
CONTINUOUS
 10
84.4022059559
 20
29.8246259736
 11
84.3323963301
 21
33.8240167542
  0
LINE
  5
34C
100
AcDbEntity
  8
0
100
AcDbLine
 62
7
  6
CONTINUOUS
 10
94.0282227301
 20
49.2606638972
 11
89.0846263445
 21
54.1453178921
  0
LINE
  5
34D
100
AcDbEntity
  8
A_RUNDUNGEN
100
AcDbLine
 62
7
  6
CONTINUOUS
 10
87.0374810002
 20
41.9280411353
 11
85.6025066426
 21
48.8815185813
  0
LINE
  5
34E
100
AcDbEntity
  8
A_RUNDUNGEN
100
AcDbLine
 62
7
  6
CONTINUOUS
 10
95.634797293
 20
52.1721560034
 11
95.6538257144
 21
52.1964871501
  0
LINE
  5
34F
100
AcDbEntity
  8
A_RUNDUNGEN
100
AcDbLine
 62
7
  6
CONTINUOUS
 10
95.6347956764
 20
52.1721571072
 11
95.5512796744
 21
52.0881433133
  0
LINE
  5
350
100
AcDbEntity
  8
A_RUNDUNGEN
100
AcDbLine
 62
7
  6
CONTINUOUS
 10
94.5427861798
 20
55.633489029
 11
95.6211493946
 21
54.5551258098
  0
LINE
  5
351
100
AcDbEntity
  8
A_ACHSEN
100
AcDbLine
 62
7
  6
CENTER
 10
91.1582739106
 20
42.3415992889
 11
91.1582739106
 21
50.3363495298
  0
LINE
  5
352
100
AcDbEntity
  8
A_RUNDUNGEN
100
AcDbLine
 62
7
  6
CONTINUOUS
 10
92.767594574
 20
37.0750506748
 11
92.7675945677
 21
33.9712536871
  0
LINE
  5
353
100
AcDbEntity
  8
0
100
AcDbLine
 62
7
  6
CONTINUOUS
 10
91.5600091631
 20
56.3145384058
 11
91.5511957095
 21
55.8146160888
  0
LINE
  5
354
100
AcDbEntity
  8
A_RUNDUNGEN
100
AcDbLine
 62
7
  6
CONTINUOUS
 10
80.421764444
 20
29.2694457995
 11
80.4217774834
 21
29.2694535629
  0
LINE
  5
355
100
AcDbEntity
  8
A_RUNDUNGEN
100
AcDbLine
 62
7
  6
CONTINUOUS
 10
82.3362329059
 20
29.4942569703
 11
82.6379106421
 21
29.6684306925
  0
LWPOLYLINE
  5
356
100
AcDbEntity
  8
0
100
AcDbPolyline
 62
7
  6
CONTINUOUS
 90
4
 70
0
 10
80.4217770912
 20
29.2694498241
 10
80.3097448162
 20
29.2117229188
 10
80.1435760387
 20
29.159269574
 10
80.0169914052
 20
29.146384497
  0
LINE
  5
357
100
AcDbEntity
  8
0
100
AcDbLine
 62
7
  6
CONTINUOUS
 10
96.3305634938
 20
34.0337422922
 11
96.4003731195
 21
30.0343515116
  0
LINE
  5
358
100
AcDbEntity
  8
A_RUNDUNGEN
100
AcDbLine
 62
7
  6
CONTINUOUS
 10
95.7317253933
 20
51.449034037
 11
95.7317253948
 21
52.1775974989
  0
LINE
  5
359
100
AcDbEntity
  8
A_RUNDUNGEN
100
AcDbLine
 62
7
  6
CONTINUOUS
 10
95.7317253949
 20
52.1964871485
 11
95.7317253952
 21
52.3398184297
  0
LINE
  5
35A
100
AcDbEntity
  8
A_RUNDUNGEN
100
AcDbLine
 62
7
  6
CONTINUOUS
 10
95.7366052934
 20
51.449034037
 11
95.7366052889
 21
49.2527960356
  0
LINE
  5
35B
100
AcDbEntity
  8
A_RUNDUNGEN
100
AcDbLine
 62
7
  6
CONTINUOUS
 10
95.7599539586
 20
41.0300034051
 11
95.7599539601
 21
41.7611287165
  0
LINE
  5
35C
100
AcDbEntity
  8
A_RUNDUNGEN
100
AcDbLine
 62
7
  6
CONTINUOUS
 10
95.7599539822
 20
52.5044949541
 11
95.7599539842
 21
53.4993107319
  0
LINE
  5
35D
100
AcDbEntity
  8
A_RUNDUNGEN
100
AcDbLine
 62
7
  6
CONTINUOUS
 10
95.7675945821
 20
40.9883639192
 11
95.767594579
 21
39.467459699
  0
LINE
  5
35E
100
AcDbEntity
  8
A_RUNDUNGEN
100
AcDbLine
 62
7
  6
CONTINUOUS
 10
95.7675946079
 20
53.5449233353
 11
95.7675946092
 21
54.2015757845
  0
LINE
  5
35F
100
AcDbEntity
  8
A_RUNDUNGEN
100
AcDbLine
 62
7
  6
CONTINUOUS
 10
96.3618800401
 20
54.6190393645
 11
96.3618800401
 21
51.2455545552
  0
LINE
  5
360
100
AcDbEntity
  8
0
100
AcDbLine
 62
7
  6
CONTINUOUS
 10
96.3618800401
 20
40.9499244142
 11
96.3618800401
 21
36.8021219578
  0
LINE
  5
361
100
AcDbEntity
  8
A_RUNDUNGEN
100
AcDbLine
 62
7
  6
CONTINUOUS
 10
96.3618800401
 20
32.2396185582
 11
96.3618800401
 21
36.8021219578
  0
LINE
  5
362
100
AcDbEntity
  8
0
100
AcDbLine
 62
7
  6
CONTINUOUS
 10
97.3618800401
 20
36.0499116821
 11
97.3618800401
 21
29.5455672874
  0
LINE
  5
363
100
AcDbEntity
  8
0
100
AcDbLine
 62
7
  6
CONTINUOUS
 10
97.5618800401
 20
45.7477394847
 11
97.5618800401
 21
47.4220796847
  0
LINE
  5
364
100
AcDbEntity
  8
0
100
AcDbLine
 62
7
  6
CONTINUOUS
 10
97.5618800401
 20
47.8414235172
 11
97.5618800401
 21
51.8802980997
  0
LINE
  5
365
100
AcDbEntity
  8
A_ACHSEN
100
AcDbLine
 62
7
  6
CONTINUOUS
 10
97.5618800401
 20
51.8802980997
 11
97.5618800401
 21
52.8069680997
  0
LINE
  5
366
100
AcDbEntity
  8
0
100
AcDbLine
 62
7
  6
CONTINUOUS
 10
97.5618800401
 20
52.8069680997
 11
97.5618800401
 21
54.3011126822
  0
LINE
  5
367
100
AcDbEntity
  8
0
100
AcDbLine
 62
7
  6
CONTINUOUS
 10
97.8618800401
 20
45.7477394847
 11
97.8618800401
 21
43.0324288547
  0
LINE
  5
368
100
AcDbEntity
  8
0
100
AcDbLine
 62
7
  6
CONTINUOUS
 10
97.8618800401
 20
47.4220796847
 11
97.8618800401
 21
47.8564152029
  0
LINE
  5
369
100
AcDbEntity
  8
0
100
AcDbLine
 62
7
  6
CONTINUOUS
 10
97.8618800401
 20
48.4582817416
 11
97.8618800401
 21
49.3387980997
  0
LINE
  5
36A
100
AcDbEntity
  8
0
100
AcDbLine
 62
7
  6
CONTINUOUS
 10
97.8618800401
 20
51.8802980997
 11
97.8618800401
 21
53.6842544579
  0
LINE
  5
36B
100
AcDbEntity
  8
0
100
AcDbLine
 62
7
  6
CONTINUOUS
 10
97.8618800401
 20
54.2861209965
 11
97.8618800401
 21
54.4630501147
  0
LINE
  5
36C
100
AcDbEntity
  8
0
100
AcDbLine
 62
7
  6
CONTINUOUS
 10
98.3618800401
 20
29.2977394847
 11
98.3618800401
 21
36.2977394847
  0
LINE
  5
36D
100
AcDbEntity
  8
A_RUNDUNGEN
100
AcDbLine
 62
7
  6
CONTINUOUS
 10
95.6211493629
 20
39.1139096743
 11
94.4190622798
 21
37.9118225962
  0
LINE
  5
36E
100
AcDbEntity
  8
0
100
AcDbLine
 62
7
  6
CONTINUOUS
 10
72.44545078
 20
82.3891235306
 11
13.44545078
 21
82.3891235306
  0
LINE
  5
36F
100
AcDbEntity
  8
A_RUNDUNGEN
100
AcDbLine
 62
7
  6
CONTINUOUS
 10
96.8311112059
 20
43.9491317798
 11
95.3961368483
 21
50.9026092259
  0
LINE
  5
370
100
AcDbEntity
  8
A_FASEN
100
AcDbLine
 62
7
  6
CONTINUOUS
 10
98.6618800401
 20
36.2977394847
 11
98.6618800401
 21
29.4190634699
  0
LINE
  5
371
100
AcDbEntity
  8
0
100
AcDbLine
 62
7
  6
CONTINUOUS
 10
98.8618800401
 20
56.2694827004
 11
98.8618800401
 21
36.4977394847
  0
LINE
  5
372
100
AcDbEntity
  8
A_FASEN
100
AcDbLine
 62
7
  6
CONTINUOUS
 10
98.8618800401
 20
36.4977394847
 11
98.8618800401
 21
29.2259962691
  0
LINE
  5
373
100
AcDbEntity
  8
0
100
AcDbLine
 62
7
  6
CONTINUOUS
 10
99.4618800401
 20
26.7477394847
 11
99.4618800401
 21
58.7477394847
  0
LINE
  5
374
100
AcDbEntity
  8
0
100
AcDbLine
 62
7
  6
CONTINUOUS
 10
98.6618800401
 20
36.2977394847
 11
98.8618800401
 21
36.4977394847
  0
LINE
  5
375
100
AcDbEntity
  8
0
100
AcDbLine
 62
7
  6
CONTINUOUS
 10
117.9618800401
 20
22.5477394847
 11
117.9618800401
 21
62.5477394847
  0
ARC
  5
376
100
AcDbEntity
  8
A_RUNDUNGEN
100
AcDbCircle
 62
7
  6
CONTINUOUS
 10
32.94545078
 20
34.4440685999
 40
1.0
100
AcDbArc
 50
0.0
 51
88.0
  0
ARC
  5
377
100
AcDbEntity
  8
0
100
AcDbCircle
 62
7
  6
CONTINUOUS
 10
33.947161336
 20
27.5434096709
 40
1.0
100
AcDbArc
 50
264.0
 51
269.75
  0
ARC
  5
378
100
AcDbEntity
  8
0
100
AcDbCircle
 62
7
  6
CONTINUOUS
 10
33.44545078
 20
29.123652983
 40
0.5
100
AcDbArc
 50
0.0
 51
89.5
  0
ARC
  5
379
100
AcDbEntity
  8
0
100
AcDbCircle
 62
7
  6
CONTINUOUS
 10
25.44545078
 20
29.3922488275
 40
0.5
100
AcDbArc
 50
180.0
 51
250.4633450619
  0
ARC
  5
37A
100
AcDbEntity
  8
0
100
AcDbCircle
 62
7
  6
CONTINUOUS
 10
27.6939716449
 20
28.5943865851
 40
0.5
100
AcDbArc
 50
250.4633450619
 51
269.7
  0
ARC
  5
37B
100
AcDbEntity
  8
0
100
AcDbCircle
 62
7
  6
CONTINUOUS
 10
45.44545078
 20
27.2602037017
 40
0.5
100
AcDbArc
 50
0.0
 51
89.5
  0
ARC
  5
37C
100
AcDbEntity
  8
0
100
AcDbCircle
 62
7
  6
CONTINUOUS
 10
24.44545078
 20
28.0393255528
 40
0.5
100
AcDbArc
 50
180.0
 51
264.0
  0
ARC
  5
37D
100
AcDbEntity
  8
0
100
AcDbCircle
 62
7
  6
CONTINUOUS
 10
24.34545078
 20
33.9891235306
 40
0.4
100
AcDbArc
 50
90.0
 51
180.0
  0
ARC
  5
37E
100
AcDbEntity
  8
0
100
AcDbCircle
 62
7
  6
CONTINUOUS
 10
24.54545078
 20
33.9891235306
 40
0.4
100
AcDbArc
 50
0.0
 51
90.0
  0
ARC
  5
37F
100
AcDbEntity
  8
0
100
AcDbCircle
 62
7
  6
CONTINUOUS
 10
26.19545078
 20
30.8678274988
 40
0.25
100
AcDbArc
 50
180.0
 51
251.115572952
  0
ARC
  5
380
100
AcDbEntity
  8
0
100
AcDbCircle
 62
7
  6
CONTINUOUS
 10
28.9879729417
 20
29.9125813616
 40
0.25
100
AcDbArc
 50
251.115572952
 51
269.5
  0
ARC
  5
381
100
AcDbEntity
  8
0
100
AcDbCircle
 62
7
  6
CONTINUOUS
 10
24.69545078
 20
33.7473811001
 40
0.25
100
AcDbArc
 50
293.5781784782
 51
360.0
  0
ARC
  5
382
100
AcDbEntity
  8
0
100
AcDbCircle
 62
7
  6
CONTINUOUS
 10
24.69545078
 20
29.3308659611
 40
0.25
100
AcDbArc
 50
0.0
 51
66.4218215218
  0
ARC
  5
383
100
AcDbEntity
  8
0
100
AcDbCircle
 62
7
  6
CONTINUOUS
 10
24.89545078
 20
33.2891235306
 40
0.25
100
AcDbArc
 50
113.5781784782
 51
180.0
  0
ARC
  5
384
100
AcDbEntity
  8
0
100
AcDbCircle
 62
7
  6
CONTINUOUS
 10
24.89545078
 20
29.7891235306
 40
0.25
100
AcDbArc
 50
180.0
 51
246.4218215218
  0
ARC
  5
385
100
AcDbEntity
  8
0
100
AcDbCircle
 62
7
  6
CONTINUOUS
 10
25.19545078
 20
29.1141754152
 40
0.25
100
AcDbArc
 50
180.0
 51
250.0
  0
ARC
  5
386
100
AcDbEntity
  8
0
100
AcDbCircle
 62
7
  6
CONTINUOUS
 10
27.8055602694
 20
28.1641732528
 40
0.25
100
AcDbArc
 50
250.0
 51
269.5
  0
ARC
  5
387
100
AcDbEntity
  8
A_RUNDUNGEN
100
AcDbCircle
 62
7
  6
CONTINUOUS
 10
31.99545078
 20
28.1276086323
 40
0.25
100
AcDbArc
 50
192.5885465679
 51
269.5
  0
ARC
  5
388
100
AcDbEntity
  8
A_RUNDUNGEN
100
AcDbCircle
 62
7
  6
CONTINUOUS
 10
33.5516204137
 20
42.1939233833
 40
2.0
100
AcDbArc
 50
260.3080602633
 51
350.3080602633
  0
ARC
  5
389
100
AcDbEntity
  8
0
100
AcDbCircle
 62
7
  6
CONTINUOUS
 10
24.69545078
 20
35.1391235306
 40
0.25
100
AcDbArc
 50
0.0
 51
90.0
  0
ARC
  5
38A
100
AcDbEntity
  8
0
100
AcDbCircle
 62
7
  6
CONTINUOUS
 10
24.69545078
 20
36.5436320278
 40
0.25
100
AcDbArc
 50
296.5650511771
 51
360.0
  0
ARC
  5
38B
100
AcDbEntity
  8
0
100
AcDbCircle
 62
7
  6
CONTINUOUS
 10
24.69545078
 20
35.9846150334
 40
0.25
100
AcDbArc
 50
116.5650511771
 51
180.0
  0
ARC
  5
38C
100
AcDbEntity
  8
0
100
AcDbCircle
 62
7
  6
CONTINUOUS
 10
24.69545078
 20
35.6391235306
 40
0.25
100
AcDbArc
 50
180.0
 51
270.0
  0
ARC
  5
38D
100
AcDbEntity
  8
0
100
AcDbCircle
 62
7
  6
CONTINUOUS
 10
53.54545078
 20
33.1891235306
 40
5.5
100
AcDbArc
 50
163.3403369025
 51
43.6616474225
  0
ARC
  5
38E
100
AcDbEntity
  8
0
100
AcDbCircle
 62
7
  6
CONTINUOUS
 10
68.9618429439
 20
33.2477196055
 40
5.5
100
AcDbArc
 50
136.7739008671
 51
17.0952113871
  0
ARC
  5
38F
100
AcDbEntity
  8
0
100
AcDbCircle
 62
7
  6
CONTINUOUS
 10
68.9618429439
 20
33.2477196055
 40
5.25
100
AcDbArc
 50
154.0919357844
 51
0.0919357844
  0
ARC
  5
390
100
AcDbEntity
  8
0
100
AcDbCircle
 62
7
  6
CONTINUOUS
 10
53.54545078
 20
33.1891235306
 40
5.25
100
AcDbArc
 50
180.3436125052
 51
26.3436125052
  0
CIRCLE
  5
391
100
AcDbEntity
  8
0
100
AcDbCircle
 62
7
  6
CONTINUOUS
 10
68.9618429439
 20
33.2477196055
 40
2.75
  0
CIRCLE
  5
392
100
AcDbEntity
  8
0
100
AcDbCircle
 62
7
  6
CONTINUOUS
 10
53.54545078
 20
33.1891235306
 40
2.75
  0
CIRCLE
  5
393
100
AcDbEntity
  8
A_RUNDUNGEN
100
AcDbCircle
 62
7
  6
CONTINUOUS
 10
53.54545078
 20
33.1891235306
 40
2.4272122138
  0
CIRCLE
  5
394
100
AcDbEntity
  8
A_RUNDUNGEN
100
AcDbCircle
 62
7
  6
CONTINUOUS
 10
68.9618429439
 20
33.2477196055
 40
2.4267240551
  0
ARC
  5
395
100
AcDbEntity
  8
A_RUNDUNGEN
100
AcDbCircle
 62
7
  6
CONTINUOUS
 10
59.04545078
 20
28.1080848254
 40
0.5
100
AcDbArc
 50
270.5
 51
360.0
  0
ARC
  5
396
100
AcDbEntity
  8
A_RUNDUNGEN
100
AcDbCircle
 62
7
  6
CONTINUOUS
 10
57.34545078
 20
27.1564466737
 40
0.4999735156
100
AcDbArc
 50
359.9893785284
 51
62.7700833321
  0
ARC
  5
397
100
AcDbEntity
  8
A_RUNDUNGEN
100
AcDbCircle
 62
7
  6
CONTINUOUS
 10
65.59725392
 20
35.7453433927
 40
1.7499227977
100
AcDbArc
 50
104.4717101389
 51
157.0002960809
  0
ARC
  5
398
100
AcDbEntity
  8
A_RUNDUNGEN
100
AcDbCircle
 62
7
  6
CONTINUOUS
 10
73.1790619825
 20
36.2851528285
 40
1.500022581
100
AcDbArc
 50
0.000535513
 51
46.8305421629
  0
ARC
  5
399
100
AcDbEntity
  8
A_RUNDUNGEN
100
AcDbCircle
 62
7
  6
CONTINUOUS
 10
54.4482692875
 20
40.4694026521
 40
1.498913922
100
AcDbArc
 50
350.4600219365
 51
359.3
  0
ARC
  5
39A
100
AcDbEntity
  8
A_RUNDUNGEN
100
AcDbCircle
 62
7
  6
CONTINUOUS
 10
68.0543824032
 20
40.5353902551
 40
1.498913922
100
AcDbArc
 50
180.6999998822
 51
186.8260095271
  0
ARC
  5
39B
100
AcDbEntity
  8
A_RUNDUNGEN
100
AcDbCircle
 62
7
  6
CONTINUOUS
 10
54.4482692875
 20
40.4694026521
 40
1.4799190669
100
AcDbArc
 50
351.7261348727
 51
359.3
  0
ARC
  5
39C
100
AcDbEntity
  8
A_RUNDUNGEN
100
AcDbCircle
 62
7
  6
CONTINUOUS
 10
68.0543824032
 20
40.5353902551
 40
1.4799190669
100
AcDbArc
 50
180.6999998822
 51
185.6046259585
  0
ARC
  5
39D
100
AcDbEntity
  8
0
100
AcDbCircle
 62
7
  6
CONTINUOUS
 10
37.513834855
 20
49.6973235266
 40
6.0
100
AcDbArc
 50
90.0919357844
 51
135.0919357844
  0
ARC
  5
39E
100
AcDbEntity
  8
0
100
AcDbCircle
 62
7
  6
CONTINUOUS
 10
29.3220609305
 20
47.1289089788
 40
5.0
100
AcDbArc
 50
71.997830698
 51
88.6182898287
  0
ARC
  5
39F
100
AcDbEntity
  8
0
100
AcDbCircle
 62
7
  6
CONTINUOUS
 10
33.0621069722
 20
45.2677049045
 40
5.0
100
AcDbArc
 50
251.997830698
 51
268.6182898287
  0
ARC
  5
3A0
100
AcDbEntity
  8
A_ACHSEN
100
AcDbCircle
 62
7
  6
CONTINUOUS
 10
31.1910319122
 20
46.1871735555
 40
4.75
100
AcDbArc
 50
102.6334332745
 51
153.5810613997
  0
ARC
  5
3A1
100
AcDbEntity
  8
A_ACHSEN
100
AcDbCircle
 62
7
  6
CONTINUOUS
 10
31.1910319122
 20
46.1871735555
 40
4.75
100
AcDbArc
 50
206.3774123676
 51
36.9738755188
  0
ARC
  5
3A2
100
AcDbEntity
  8
0
100
AcDbCircle
 62
7
  6
CONTINUOUS
 10
31.1910319122
 20
46.1871735555
 40
4.0
100
AcDbArc
 50
135.0919357844
 51
20.4676174323
  0
CIRCLE
  5
3A3
100
AcDbEntity
  8
0
100
AcDbCircle
 62
7
  6
CONTINUOUS
 10
31.1910319122
 20
46.1871735555
 40
2.55
  0
ARC
  5
3A4
100
AcDbEntity
  8
A_RUNDUNGEN
100
AcDbCircle
 62
7
  6
CONTINUOUS
 10
34.7469104616
 20
49.1925862342
 40
2.0
100
AcDbArc
 50
350.3080602633
 51
42.1120536392
  0
ARC
  5
3A5
100
AcDbEntity
  8
A_RUNDUNGEN
100
AcDbCircle
 62
7
  6
CONTINUOUS
 10
28.832547489
 20
50.2026905001
 40
2.0
100
AcDbArc
 50
80.3080602633
 51
160.6004622924
  0
ARC
  5
3A6
100
AcDbEntity
  8
A_RUNDUNGEN
100
AcDbCircle
 62
7
  6
CONTINUOUS
 10
27.637257441
 20
43.2040276491
 40
2.0
100
AcDbArc
 50
249.745940205
 51
260.3080602633
  0
ARC
  5
3A7
100
AcDbEntity
  8
0
100
AcDbCircle
 62
7
  6
CONTINUOUS
 10
36.8122517364
 20
48.2852411637
 40
2.0
100
AcDbArc
 50
135.0919357844
 51
200.4676174323
  0
ARC
  5
3A8
100
AcDbEntity
  8
0
100
AcDbCircle
 62
7
  6
CONTINUOUS
 10
37.7217436603
 20
49.19765649
 40
2.0
100
AcDbArc
 50
90.0919357844
 51
135.0919357844
  0
ARC
  5
3A9
100
AcDbEntity
  8
0
100
AcDbCircle
 62
7
  6
CONTINUOUS
 10
24.34545078
 20
45.7891235306
 40
0.4
100
AcDbArc
 50
180.0
 51
270.0
  0
ARC
  5
3AA
100
AcDbEntity
  8
0
100
AcDbCircle
 62
7
  6
CONTINUOUS
 10
24.54545078
 20
45.7891235306
 40
0.4
100
AcDbArc
 50
270.0
 51
360.0
  0
ARC
  5
3AB
100
AcDbEntity
  8
0
100
AcDbCircle
 62
7
  6
CONTINUOUS
 10
24.69545078
 20
44.6391235306
 40
0.25
100
AcDbArc
 50
270.0
 51
360.0
  0
ARC
  5
3AC
100
AcDbEntity
  8
0
100
AcDbCircle
 62
7
  6
CONTINUOUS
 10
24.69545078
 20
43.2346150334
 40
0.25
100
AcDbArc
 50
0.0
 51
63.4349488229
  0
ARC
  5
3AD
100
AcDbEntity
  8
0
100
AcDbCircle
 62
7
  6
CONTINUOUS
 10
24.69545078
 20
43.7936320278
 40
0.25
100
AcDbArc
 50
180.0
 51
243.4349488229
  0
ARC
  5
3AE
100
AcDbEntity
  8
0
100
AcDbCircle
 62
7
  6
CONTINUOUS
 10
24.69545078
 20
44.1391235306
 40
0.25
100
AcDbArc
 50
90.0
 51
180.0
  0
ARC
  5
3AF
100
AcDbEntity
  8
0
100
AcDbCircle
 62
7
  6
CONTINUOUS
 10
33.947161336
 20
57.2348373904
 40
1.0
100
AcDbArc
 50
90.25
 51
96.0
  0
ARC
  5
3B0
100
AcDbEntity
  8
A_RUNDUNGEN
100
AcDbCircle
 62
7
  6
CONTINUOUS
 10
28.5641387832
 20
52.1516399217
 40
0.5
100
AcDbArc
 50
90.5
 51
108.4349488229
  0
ARC
  5
3B1
100
AcDbEntity
  8
0
100
AcDbCircle
 62
7
  6
CONTINUOUS
 10
29.44545078
 20
54.3196866071
 40
0.5
100
AcDbArc
 50
270.5
 51
360.0
  0
ARC
  5
3B2
100
AcDbEntity
  8
0
100
AcDbCircle
 62
7
  6
CONTINUOUS
 10
25.44545078
 20
55.0934203274
 40
0.5
100
AcDbArc
 50
90.5
 51
180.0
  0
ARC
  5
3B3
100
AcDbEntity
  8
0
100
AcDbCircle
 62
7
  6
CONTINUOUS
 10
30.44545078
 20
56.3871022643
 40
0.5
100
AcDbArc
 50
90.5
 51
180.0
  0
ARC
  5
3B4
100
AcDbEntity
  8
0
100
AcDbCircle
 62
7
  6
CONTINUOUS
 10
29.44545078
 20
56.1283658769
 40
0.5
100
AcDbArc
 50
270.5
 51
360.0
  0
ARC
  5
3B5
100
AcDbEntity
  8
0
100
AcDbCircle
 62
7
  6
CONTINUOUS
 10
24.44545078
 20
56.7389215085
 40
0.5
100
AcDbArc
 50
96.0
 51
180.0
  0
ARC
  5
3B6
100
AcDbEntity
  8
A_RUNDUNGEN
100
AcDbCircle
 62
7
  6
CONTINUOUS
 10
32.0432224616
 20
52.2464933829
 40
0.4976834598
100
AcDbArc
 50
180.0046343618
 51
183.8502724423
  0
ARC
  5
3B7
100
AcDbEntity
  8
A_RUNDUNGEN
100
AcDbCircle
 62
7
  6
CONTINUOUS
 10
32.0496641178
 20
52.2518317007
 40
0.4975800895
100
AcDbArc
 50
180.0043576749
 51
183.7249552878
  0
ARC
  5
3B8
100
AcDbEntity
  8
0
100
AcDbCircle
 62
7
  6
CONTINUOUS
 10
26.19545078
 20
52.6104195625
 40
0.25
100
AcDbArc
 50
108.884427048
 51
180.0
  0
ARC
  5
3B9
100
AcDbEntity
  8
0
100
AcDbCircle
 62
7
  6
CONTINUOUS
 10
28.9879729417
 20
53.5656656997
 40
0.25
100
AcDbArc
 50
90.5
 51
108.884427048
  0
ARC
  5
3BA
100
AcDbEntity
  8
0
100
AcDbCircle
 62
7
  6
CONTINUOUS
 10
25.19545078
 20
55.170764424
 40
0.25
100
AcDbArc
 50
90.3
 51
180.0
  0
ARC
  5
3BB
100
AcDbEntity
  8
A_RUNDUNGEN
100
AcDbCircle
 62
7
  6
CONTINUOUS
 10
31.99545078
 20
56.650638429
 40
0.25
100
AcDbArc
 50
90.5
 51
167.3933052569
  0
ARC
  5
3BC
100
AcDbEntity
  8
0
100
AcDbCircle
 62
7
  6
CONTINUOUS
 10
49.9172730186
 20
45.217220086
 40
6.0
100
AcDbArc
 50
66.0919357844
 51
90.0919357844
  0
ARC
  5
3BD
100
AcDbEntity
  8
0
100
AcDbCircle
 62
7
  6
CONTINUOUS
 10
72.4984821528
 20
45.3030488718
 40
6.0
100
AcDbArc
 50
90.3436125052
 51
114.3436125052
  0
ARC
  5
3BE
100
AcDbEntity
  8
0
100
AcDbCircle
 62
7
  6
CONTINUOUS
 10
70.1935262994
 20
44.6639242007
 40
4.0
100
AcDbArc
 50
0.0919357844
 51
45.0919357844
  0
ARC
  5
3BF
100
AcDbEntity
  8
0
100
AcDbCircle
 62
7
  6
CONTINUOUS
 10
52.2270206948
 20
44.5956354146
 40
4.0
100
AcDbArc
 50
135.3436125052
 51
180.3436125052
  0
ARC
  5
3C0
100
AcDbEntity
  8
0
100
AcDbCircle
 62
7
  6
CONTINUOUS
 10
65.488293488
 20
42.6898964037
 40
2.0
100
AcDbArc
 50
334.0919357844
 51
66.0919357844
  0
ARC
  5
3C1
100
AcDbEntity
  8
A_RUNDUNGEN
100
AcDbCircle
 62
7
  6
CONTINUOUS
 10
56.9471234818
 20
42.6574323205
 40
2.0
100
AcDbArc
 50
114.3436125052
 51
206.3436125052
  0
ARC
  5
3C2
100
AcDbEntity
  8
A_ACHSEN
100
AcDbCircle
 62
7
  6
CONTINUOUS
 10
61.1813658733
 20
52.2352596398
 40
5.1
100
AcDbArc
 50
34.3731419922
 51
133.966824126
  0
ARC
  5
3C3
100
AcDbEntity
  8
A_ACHSEN
100
AcDbCircle
 62
7
  6
CONTINUOUS
 10
61.1813658733
 20
52.2352596398
 40
5.1
100
AcDbArc
 50
233.9418458906
 51
258.4655349897
  0
ARC
  5
3C4
100
AcDbEntity
  8
0
100
AcDbCircle
 62
7
  6
CONTINUOUS
 10
61.1813658733
 20
52.2352596398
 40
5.0
100
AcDbArc
 50
45.0919357844
 51
128.3045691055
  0
CIRCLE
  5
3C5
100
AcDbEntity
  8
0
100
AcDbCircle
 62
7
  6
CONTINUOUS
 10
61.1813658733
 20
52.2352596398
 40
2.75
  0
CIRCLE
  5
3C6
100
AcDbEntity
  8
0
100
AcDbCircle
 62
7
  6
CONTINUOUS
 10
61.1813658733
 20
52.2352596398
 40
2.5
  0
ARC
  5
3C7
100
AcDbEntity
  8
0
100
AcDbCircle
 62
7
  6
CONTINUOUS
 10
56.8424745854
 20
57.728348242
 40
2.0
100
AcDbArc
 50
270.0919357844
 51
308.3045691055
  0
ARC
  5
3C8
100
AcDbEntity
  8
0
100
AcDbCircle
 62
7
  6
CONTINUOUS
 10
65.4783751033
 20
57.7611723859
 40
2.0
100
AcDbArc
 50
246.8120137509
 51
270.3436125052
  0
ARC
  5
3C9
100
AcDbEntity
  8
A_RUNDUNGEN
100
AcDbCircle
 62
7
  6
CONTINUOUS
 10
59.04545078
 20
56.7701622359
 40
0.5
100
AcDbArc
 50
32.547912301
 51
89.5
  0
ARC
  5
3CA
100
AcDbEntity
  8
A_RUNDUNGEN
100
AcDbCircle
 62
7
  6
CONTINUOUS
 10
57.34545078
 20
57.6218930862
 40
0.5
100
AcDbArc
 50
316.9056456382
 51
360.0
  0
ARC
  5
3CB
100
AcDbEntity
  8
0
100
AcDbCircle
 62
7
  6
CONTINUOUS
 10
51.94545078
 20
57.5747680002
 40
0.5
100
AcDbArc
 50
270.5
 51
360.0
  0
ARC
  5
3CC
100
AcDbEntity
  8
0
100
AcDbCircle
 62
7
  6
CONTINUOUS
 10
69.6588979285
 20
57.1968998884
 40
0.5
100
AcDbArc
 50
259.0
 51
269.0
  0
ARC
  5
3CD
100
AcDbEntity
  8
0
100
AcDbCircle
 62
7
  6
CONTINUOUS
 10
64.9618800401
 20
58.1099076776
 40
0.5
100
AcDbArc
 50
180.0
 51
259.0
  0
ARC
  5
3CE
100
AcDbEntity
  8
A_RUNDUNGEN
100
AcDbCircle
 62
7
  6
CONTINUOUS
 10
52.69545078
 20
56.8312845922
 40
0.25
100
AcDbArc
 50
90.5
 51
180.0
  0
ARC
  5
3CF
100
AcDbEntity
  8
A_RUNDUNGEN
100
AcDbCircle
 62
7
  6
CONTINUOUS
 10
88.9962070413
 20
42.3322592642
 40
2.0
100
AcDbArc
 50
191.660318546
 51
281.660318546
  0
ARC
  5
3D0
100
AcDbEntity
  8
0
100
AcDbCircle
 62
7
  6
CONTINUOUS
 10
97.3618800401
 20
29.2259962691
 40
1.5
100
AcDbArc
 50
278.0
 51
354.3380412953
  0
ARC
  5
3D1
100
AcDbEntity
  8
A_FASEN
100
AcDbCircle
 62
7
  6
CONTINUOUS
 10
97.3618800401
 20
29.2259962691
 40
1.5
100
AcDbArc
 50
354.3380412953
 51
360.0
  0
ARC
  5
3D2
100
AcDbEntity
  8
A_RUNDUNGEN
100
AcDbCircle
 62
7
  6
CONTINUOUS
 10
83.1379106421
 20
28.8024052888
 40
1.0
100
AcDbArc
 50
91.0
 51
120.0
  0
ARC
  5
3D3
100
AcDbEntity
  8
A_RUNDUNGEN
100
AcDbCircle
 62
7
  6
CONTINUOUS
 10
81.8362329059
 20
30.3602823741
 40
1.0
100
AcDbArc
 50
271.0
 51
300.0
  0
ARC
  5
3D4
100
AcDbEntity
  8
0
100
AcDbCircle
 62
7
  6
CONTINUOUS
 10
91.6645210249
 20
27.5164398622
 40
0.6
100
AcDbArc
 50
270.25
 51
278.0
  0
ARC
  5
3D5
100
AcDbEntity
  8
0
100
AcDbCircle
 62
7
  6
CONTINUOUS
 10
80.6779250957
 20
28.8373504612
 40
0.5024848097
100
AcDbArc
 50
91.0371089782
 51
105.8865531454
  0
ARC
  5
3D6
100
AcDbEntity
  8
0
100
AcDbCircle
 62
7
  6
CONTINUOUS
 10
80.6782252488
 20
28.838279617
 40
0.5016735983
100
AcDbArc
 50
105.9485722155
 51
120.7502863314
  0
ARC
  5
3D7
100
AcDbEntity
  8
0
100
AcDbCircle
 62
7
  6
CONTINUOUS
 10
96.8618800401
 20
40.9499244142
 40
0.5
100
AcDbArc
 50
147.5092588329
 51
180.0
  0
ARC
  5
3D8
100
AcDbEntity
  8
0
100
AcDbCircle
 62
7
  6
CONTINUOUS
 10
78.7618800401
 20
28.6354007046
 40
0.5
100
AcDbArc
 50
90.5
 51
180.0
  0
ARC
  5
3D9
100
AcDbEntity
  8
0
100
AcDbCircle
 62
7
  6
CONTINUOUS
 10
96.8618800401
 20
36.8021219578
 40
0.5
100
AcDbArc
 50
180.0
 51
269.5
  0
ARC
  5
3DA
100
AcDbEntity
  8
A_RUNDUNGEN
100
AcDbCircle
 62
7
  6
CONTINUOUS
 10
94.0655123344
 20
38.2653724771
 40
0.4999950822
100
AcDbArc
 50
282.1165640773
 51
315.0000052306
  0
ARC
  5
3DB
100
AcDbEntity
  8
A_RUNDUNGEN
100
AcDbCircle
 62
7
  6
CONTINUOUS
 10
93.2675884395
 20
37.0750517929
 40
0.4999938654
100
AcDbArc
 50
101.7080492695
 51
180.0001281358
  0
ARC
  5
3DC
100
AcDbEntity
  8
A_RUNDUNGEN
100
AcDbCircle
 62
7
  6
CONTINUOUS
 10
95.2675946459
 20
40.9886130007
 40
0.4997703752
100
AcDbArc
 50
359.9927165807
 51
102.8334458268
  0
ARC
  5
3DD
100
AcDbEntity
  8
0
100
AcDbCircle
 62
7
  6
CONTINUOUS
 10
97.4127246604
 20
42.4237885449
 40
0.3
100
AcDbArc
 50
93.0
 51
156.949639287
  0
ARC
  5
3DE
100
AcDbEntity
  8
A_RUNDUNGEN
100
AcDbCircle
 62
7
  6
CONTINUOUS
 10
96.1118800401
 20
32.9891616784
 40
0.25
100
AcDbArc
 50
345.4913051168
 51
360.0
  0
ARC
  5
3DF
100
AcDbEntity
  8
0
100
AcDbCircle
 62
7
  6
CONTINUOUS
 10
97.1118800401
 20
29.5455672874
 40
0.25
100
AcDbArc
 50
270.5
 51
360.0
  0
ARC
  5
3E0
100
AcDbEntity
  8
0
100
AcDbCircle
 62
7
  6
CONTINUOUS
 10
97.1118800401
 20
36.0499116821
 40
0.25
100
AcDbArc
 50
0.0
 51
89.5
  0
ARC
  5
3E1
100
AcDbEntity
  8
0
100
AcDbCircle
 62
7
  6
CONTINUOUS
 10
88.7785467067
 20
46.0977394847
 40
9.0833333333
100
AcDbArc
 50
327.5092588329
 51
336.949639287
  0
ARC
  5
3E2
100
AcDbEntity
  8
A_RUNDUNGEN
100
AcDbCircle
 62
7
  6
CONTINUOUS
 10
88.7785467067
 20
46.0977394847
 40
9.0833333333
100
AcDbArc
 50
15.0544617741
 51
32.4907411671
  0
ARC
  5
3E3
100
AcDbEntity
  8
A_RUNDUNGEN
100
AcDbCircle
 62
7
  6
CONTINUOUS
 10
88.7785467067
 20
46.0977394847
 40
9.0833333333
100
AcDbArc
 50
8.3999539101
 51
11.0844939828
  0
ARC
  5
3E4
100
AcDbEntity
  8
A_RUNDUNGEN
100
AcDbCircle
 62
7
  6
CONTINUOUS
 10
88.7785467067
 20
46.0977394847
 40
9.0833333333
100
AcDbArc
 50
336.8897769963
 51
357.7241061738
  0
ARC
  5
3E5
100
AcDbEntity
  8
0
100
AcDbCircle
 62
7
  6
CONTINUOUS
 10
84.8675056357
 20
49.8773098171
 40
6.0
100
AcDbArc
 50
45.3436125052
 51
90.3436125052
  0
ARC
  5
3E6
100
AcDbEntity
  8
0
100
AcDbCircle
 62
7
  6
CONTINUOUS
 10
89.3798535944
 20
45.4210408318
 40
5.0
100
AcDbArc
 50
273.3500889806
 51
289.9705481113
  0
ARC
  5
3E7
100
AcDbEntity
  8
0
100
AcDbCircle
 62
7
  6
CONTINUOUS
 10
93.2973056767
 20
46.2294770896
 40
5.0
100
AcDbArc
 50
273.3500889806
 51
289.9705481113
  0
ARC
  5
3E8
100
AcDbEntity
  8
A_ACHSEN
100
AcDbCircle
 62
7
  6
CONTINUOUS
 10
91.2168089242
 20
46.4153251806
 40
4.75
100
AcDbArc
 50
143.4616727708
 51
77.8021150151
  0
ARC
  5
3E9
100
AcDbEntity
  8
0
100
AcDbCircle
 62
7
  6
CONTINUOUS
 10
91.2168089242
 20
46.4153251806
 40
4.0
100
AcDbArc
 50
159.9679308573
 51
45.3436125052
  0
CIRCLE
  5
3EA
100
AcDbEntity
  8
0
100
AcDbCircle
 62
7
  6
CONTINUOUS
 10
91.2168089242
 20
46.4153251806
 40
2.55
  0
ARC
  5
3EB
100
AcDbEntity
  8
A_RUNDUNGEN
100
AcDbCircle
 62
7
  6
CONTINUOUS
 10
94.8723851648
 20
43.5449136509
 40
2.0
100
AcDbArc
 50
281.660318546
 51
11.660318546
  0
ARC
  5
3EC
100
AcDbEntity
  8
A_RUNDUNGEN
100
AcDbCircle
 62
7
  6
CONTINUOUS
 10
93.4374108072
 20
50.498391097
 40
2.0
100
AcDbArc
 50
11.660318546
 51
101.660318546
  0
ARC
  5
3ED
100
AcDbEntity
  8
A_RUNDUNGEN
100
AcDbCircle
 62
7
  6
CONTINUOUS
 10
87.5612326837
 20
49.2857367103
 40
2.0
100
AcDbArc
 50
134.552976586
 51
191.660318546
  0
ARC
  5
3EE
100
AcDbEntity
  8
0
100
AcDbCircle
 62
7
  6
CONTINUOUS
 10
84.6634011458
 20
49.3760767616
 40
2.0
100
AcDbArc
 50
45.3436125052
 51
90.3436125052
  0
ARC
  5
3EF
100
AcDbEntity
  8
0
100
AcDbCircle
 62
7
  6
CONTINUOUS
 10
85.5798026796
 20
48.4706014631
 40
2.0
100
AcDbArc
 50
339.9679308573
 51
45.3436125052
  0
ARC
  5
3F0
100
AcDbEntity
  8
0
100
AcDbCircle
 62
7
  6
CONTINUOUS
 10
97.5618800401
 20
43.0324288547
 40
0.3
100
AcDbArc
 50
273.0
 51
360.0
  0
ARC
  5
3F1
100
AcDbEntity
  8
0
100
AcDbCircle
 62
7
  6
CONTINUOUS
 10
97.3618800401
 20
56.2694827004
 40
1.5
100
AcDbArc
 50
0.0
 51
82.0
  0
ARC
  5
3F2
100
AcDbEntity
  8
0
100
AcDbCircle
 62
7
  6
CONTINUOUS
 10
95.3618800401
 20
54.6190393645
 40
1.0
100
AcDbArc
 50
22.4853129779
 51
89.0
  0
ARC
  5
3F3
100
AcDbEntity
  8
A_RUNDUNGEN
100
AcDbCircle
 62
7
  6
CONTINUOUS
 10
95.3618800401
 20
54.6190393645
 40
1.0
100
AcDbArc
 50
0.0
 51
22.4853129779
  0
ARC
  5
3F4
100
AcDbEntity
  8
0
100
AcDbCircle
 62
7
  6
CONTINUOUS
 10
91.6645210249
 20
57.9790391072
 40
0.6
100
AcDbArc
 50
82.0
 51
89.75
  0
ARC
  5
3F5
100
AcDbEntity
  8
A_RUNDUNGEN
100
AcDbCircle
 62
7
  6
CONTINUOUS
 10
95.2601391843
 20
53.5387416105
 40
0.5023757159
100
AcDbArc
 50
284.0986824273
 51
299.8196544614
  0
ARC
  5
3F6
100
AcDbEntity
  8
A_RUNDUNGEN
100
AcDbCircle
 62
7
  6
CONTINUOUS
 10
95.2675730581
 20
53.5449235277
 40
0.5000208585
100
AcDbArc
 50
284.0651712407
 51
359.9998162908
  0
ARC
  5
3F7
100
AcDbEntity
  8
A_RUNDUNGEN
100
AcDbCircle
 62
7
  6
CONTINUOUS
 10
96.8618800401
 20
51.2455545552
 40
0.5
100
AcDbArc
 50
180.0
 51
212.4907411671
  0
ARC
  5
3F8
100
AcDbEntity
  8
0
100
AcDbCircle
 62
7
  6
CONTINUOUS
 10
89.6004673506
 20
55.8486661714
 40
0.5
100
AcDbArc
 50
60.0
 51
89.0
  0
ARC
  5
3F9
100
AcDbEntity
  8
0
100
AcDbCircle
 62
7
  6
CONTINUOUS
 10
90.9998953411
 20
56.1954065827
 40
0.5
100
AcDbArc
 50
240.0
 51
269.0
  0
ARC
  5
3FA
100
AcDbEntity
  8
A_RUNDUNGEN
100
AcDbCircle
 62
7
  6
CONTINUOUS
 10
95.2599540488
 20
52.5044887635
 40
0.4999998821
100
AcDbArc
 50
283.9495576608
 51
0.0006845109
  0
ARC
  5
3FB
100
AcDbEntity
  8
0
100
AcDbCircle
 62
7
  6
CONTINUOUS
 10
97.5618800401
 20
54.4630501147
 40
0.3
100
AcDbArc
 50
0.0
 51
87.0
  0
ARC
  5
3FC
100
AcDbEntity
  8
0
100
AcDbCircle
 62
7
  6
CONTINUOUS
 10
96.5630509175
 20
55.1162199385
 40
0.3
100
AcDbArc
 50
202.4853129779
 51
267.0
  0
ARC
  5
3FD
100
AcDbEntity
  8
A_RUNDUNGEN
100
AcDbCircle
 62
7
  6
CONTINUOUS
 10
123.6799286844
 20
52.1343007586
 40
27.9419172586
100
AcDbArc
 50
179.4861694537
 51
179.6874873801
  0
ARC
  5
3FE
100
AcDbEntity
  8
A_RUNDUNGEN
100
AcDbCircle
 62
7
  6
CONTINUOUS
 10
63.9434645235
 20
178.5741904317
 40
144.0057516223
100
AcDbArc
 50
281.7081775231
 51
282.1165694256
  0
ARC
  5
3FF
100
AcDbEntity
  8
0
100
AcDbCircle
 62
7
  6
CONTINUOUS
 10
57.9037115231
 20
178.5261660465
 40
140.6065450262
100
AcDbArc
 50
257.2798683246
 51
266.0689565088
  0
ARC
  5
400
100
AcDbEntity
  8
A_RUNDUNGEN
100
AcDbCircle
 62
7
  6
CONTINUOUS
 10
63.9434645235
 20
178.5741904317
 40
140.6065450262
100
AcDbArc
 50
274.1833069945
 51
282.8258901118
  0
ARC
  5
401
100
AcDbEntity
  8
0
100
AcDbCircle
 62
7
  6
CONTINUOUS
 10
57.9037115231
 20
178.5261660465
 40
140.6
100
AcDbArc
 50
258.135213568
 51
266.068756773
  0
ARC
  5
402
100
AcDbEntity
  8
A_RUNDUNGEN
100
AcDbCircle
 62
7
  6
CONTINUOUS
 10
63.9434645235
 20
178.5741904317
 40
140.6
100
AcDbArc
 50
274.1833358575
 51
280.5979330976
  0
ARC
  5
403
100
AcDbEntity
  8
A_RUNDUNGEN
100
AcDbCircle
 62
7
  6
CONTINUOUS
 10
63.9434645235
 20
178.5741904317
 40
140.6
100
AcDbArc
 50
281.0357048757
 51
282.8237694845
  0
ARC
  5
404
100
AcDbEntity
  8
A_RUNDUNGEN
100
AcDbCircle
 62
7
  6
CONTINUOUS
 10
57.9037115231
 20
178.5261660465
 40
139.598913922
100
AcDbArc
 50
260.5585849644
 51
266.0371545446
  0
ARC
  5
405
100
AcDbEntity
  8
A_RUNDUNGEN
100
AcDbCircle
 62
7
  6
CONTINUOUS
 10
63.9434645235
 20
178.5741904317
 40
139.598913922
100
AcDbArc
 50
274.2159827487
 51
279.7152548303
  0
ARC
  5
406
100
AcDbEntity
  8
A_RUNDUNGEN
100
AcDbCircle
 62
7
  6
CONTINUOUS
 10
57.9037115231
 20
178.5261660465
 40
139.5799190669
100
AcDbArc
 50
260.5649849581
 51
266.0365160458
  0
ARC
  5
407
100
AcDbEntity
  8
A_RUNDUNGEN
100
AcDbCircle
 62
7
  6
CONTINUOUS
 10
63.9434645235
 20
178.5741904317
 40
139.5799190669
100
AcDbArc
 50
274.2332698374
 51
279.7387170946
  0
ARC
  5
408
100
AcDbEntity
  8
A_RUNDUNGEN
100
AcDbCircle
 62
7
  6
CONTINUOUS
 10
57.9037115231
 20
178.5261660465
 40
130.4200809331
100
AcDbArc
 50
260.6027488736
 51
266.656977827
  0
ARC
  5
409
100
AcDbEntity
  8
A_RUNDUNGEN
100
AcDbCircle
 62
7
  6
CONTINUOUS
 10
63.9434645235
 20
178.5741904317
 40
130.4200809331
100
AcDbArc
 50
273.5790367097
 51
279.6141318649
  0
ARC
  5
40A
100
AcDbEntity
  8
A_RUNDUNGEN
100
AcDbCircle
 62
7
  6
CONTINUOUS
 10
63.9434645235
 20
178.5741904317
 40
130.4200809331
100
AcDbArc
 50
283.7183152646
 51
283.9395475713
  0
ARC
  5
40B
100
AcDbEntity
  8
A_RUNDUNGEN
100
AcDbCircle
 62
7
  6
CONTINUOUS
 10
57.9037115231
 20
178.5261660465
 40
130.401086078
100
AcDbArc
 50
260.5970979401
 51
266.6638130994
  0
ARC
  5
40C
100
AcDbEntity
  8
A_RUNDUNGEN
100
AcDbCircle
 62
7
  6
CONTINUOUS
 10
63.9434645235
 20
178.5741904317
 40
130.401086078
100
AcDbArc
 50
273.5476602347
 51
279.6099582887
  0
ARC
  5
40D
100
AcDbEntity
  8
A_RUNDUNGEN
100
AcDbCircle
 62
7
  6
CONTINUOUS
 10
63.9434645235
 20
178.5741904317
 40
130.401086078
100
AcDbArc
 50
283.7110368307
 51
283.950259653
  0
ARC
  5
40E
100
AcDbEntity
  8
A_RUNDUNGEN
100
AcDbCircle
 62
7
  6
CONTINUOUS
 10
57.9037115231
 20
178.5261660465
 40
129.4
100
AcDbArc
 50
260.5574094617
 51
267.0641563552
  0
ARC
  5
40F
100
AcDbEntity
  8
A_RUNDUNGEN
100
AcDbCircle
 62
7
  6
CONTINUOUS
 10
63.9434645235
 20
178.5741904317
 40
129.4
100
AcDbArc
 50
282.8648496365
 51
284.0613197998
  0
ARC
  5
410
100
AcDbEntity
  8
A_RUNDUNGEN
100
AcDbCircle
 62
7
  6
CONTINUOUS
 10
57.9037115231
 20
178.5261660465
 40
129.3934549738
100
AcDbArc
 50
260.5600939503
 51
267.0667411834
  0
ARC
  5
411
100
AcDbEntity
  8
A_RUNDUNGEN
100
AcDbCircle
 62
7
  6
CONTINUOUS
 10
63.9434645235
 20
178.5741904317
 40
129.3934549738
100
AcDbArc
 50
273.1549159459
 51
279.6983691767
  0
ARC
  5
412
100
AcDbEntity
  8
A_RUNDUNGEN
100
AcDbCircle
 62
7
  6
CONTINUOUS
 10
63.9434645235
 20
178.5741904317
 40
129.3934549738
100
AcDbArc
 50
282.1241961349
 51
284.0650478001
  0
ARC
  5
413
100
AcDbEntity
  8
A_RUNDUNGEN
100
AcDbCircle
 62
7
  6
CONTINUOUS
 10
286.4960986646
 20
51.4891036614
 40
190.7594975796
100
AcDbArc
 50
179.828296764
 51
180.0120351564
  0
LINE
  5
414
100
AcDbEntity
  8
A_RUNDUNGEN
100
AcDbLine
 62
7
  6
CONTINUOUS
 10
55.947071345
 20
40.4510904194
 11
55.9441846512
 21
40.1759098826
  0
LINE
  5
415
100
AcDbEntity
  8
A_RUNDUNGEN
100
AcDbLine
 62
7
  6
CONTINUOUS
 10
95.7384270635
 20
52.2867056747
 11
95.737920074
 21
52.1858815194
  0
LINE
  5
416
100
AcDbEntity
  8
A_RUNDUNGEN
100
AcDbLine
 62
7
  6
CONTINUOUS
 10
95.737920074
 20
52.1858815194
 11
95.7374576643
 21
52.060768351
  0
SPLINE
  5
417
100
AcDbEntity
  8
A_RUNDUNGEN
100
AcDbSpline
 62
7
  6
CONTINUOUS
 70
0
 71
3
 72
14
 73
10
 74
0
 42
0.0000001
 43
0.0000001
 44
0.0000000001
 40
0.0
 40
0.0
 40
0.0
 40
0.0
 40
0.1023210518
 40
0.1975280799
 40
0.3573074538
 40
0.4897757271
 40
0.6058163224
 40
0.810669253
 40
1.0
 40
1.0
 40
1.0
 40
1.0
 10
74.9618429324
 20
27.6477243528
 30
0.0
 10
74.9618422778
 20
27.6744018657
 30
0.0
 10
74.9662396345
 20
27.7259671093
 30
0.0
 10
74.9871599791
 20
27.8170186315
 30
0.0
 10
75.0300497483
 20
27.9097886281
 30
0.0
 10
75.0952722872
 20
27.9948081798
 30
0.0
 10
75.1843923148
 20
28.0733283953
 30
0.0
 10
75.3049854741
 20
28.1350084528
 30
0.0
 10
75.4082294088
 20
28.151544247
 30
0.0
 10
75.4575905907
 20
28.1519671752
 30
0.0
  0
SPLINE
  5
418
100
AcDbEntity
  8
A_RUNDUNGEN
100
AcDbSpline
 62
7
  6
CONTINUOUS
 70
0
 71
3
 72
9
 73
5
 74
0
 42
0.0000001
 43
0.0000001
 44
0.0000000001
 40
0.0
 40
0.0
 40
0.0
 40
0.0
 40
0.4998865856
 40
1.0
 40
1.0
 40
1.0
 40
1.0
 10
74.9618470449
 20
29.4789162948
 30
0.0
 10
74.9618330563
 20
29.5719160456
 30
0.0
 10
74.9358072904
 20
29.7584854772
 30
0.0
 10
74.8705652559
 20
29.9336964559
 30
0.0
 10
74.8325489691
 20
30.0186173996
 30
0.0
  0
SPLINE
  5
419
100
AcDbEntity
  8
A_RUNDUNGEN
100
AcDbSpline
 62
7
  6
CONTINUOUS
 70
0
 71
3
 72
9
 73
5
 74
0
 42
0.0000001
 43
0.0000001
 44
0.0000000001
 40
0.0
 40
0.0
 40
0.0
 40
0.0
 40
0.4999685997
 40
1.0
 40
1.0
 40
1.0
 40
1.0
 10
74.8325489691
 20
30.0186173996
 30
0.0
 10
74.7817815042
 20
30.1320287301
 30
0.0
 10
74.7047546915
 20
30.3705693821
 30
0.0
 10
74.6790942165
 20
30.6197670189
 30
0.0
 10
74.6790942168
 20
30.7440382717
 30
0.0
  0
SPLINE
  5
41A
100
AcDbEntity
  8
A_FASEN
100
AcDbSpline
 62
7
  6
CONTINUOUS
 70
0
 71
3
 72
18
 73
14
 74
0
 42
0.0000001
 43
0.0000001
 44
0.0000000001
 40
0.0
 40
0.0
 40
0.0
 40
0.0
 40
0.2327819796
 40
0.4352341519
 40
0.607149031
 40
0.7482396525
 40
0.8582107891
 40
0.9014792055
 40
0.9369155868
 40
0.9645034098
 40
0.9842252511
 40
0.9960629896
 40
1.0
 40
1.0
 40
1.0
 40
1.0
 10
98.6618800401
 20
29.4190634699
 30
0.0
 10
98.6619127099
 20
29.4096317982
 30
0.0
 10
98.6617591944
 20
29.3919954872
 30
0.0
 10
98.6609482933
 20
29.3674072978
 30
0.0
 10
98.6597993523
 20
29.3465504802
 30
0.0
 10
98.658548339
 20
29.3294630139
 30
0.0
 10
98.6575194654
 20
29.3175692631
 30
0.0
 10
98.6568155047
 20
29.309976193
 30
0.0
 10
98.6563478722
 20
29.3056542906
 30
0.0
 10
98.6560947793
 20
29.3024148298
 30
0.0
 10
98.6556140948
 20
29.2998177347
 30
0.0
 10
98.6558445961
 20
29.2987647574
 30
0.0
 10
98.6553782041
 20
29.2977394847
 30
0.0
 10
98.6555377217
 20
29.2977394847
 30
0.0
  0
ELLIPSE
  5
41B
100
AcDbEntity
  8
A_RUNDUNGEN
100
AcDbEllipse
 62
7
  6
CONTINUOUS
 10
74.1618353169
 20
27.6477272103
 30
0.0
 11
-0.5656961937
 21
0.565696196
 31
0.0
 40
0.9999809617
 41
2.3562040094
 42
3.9269812978
  0
ELLIPSE
  5
41C
100
AcDbEntity
  8
A_RUNDUNGEN
100
AcDbEllipse
 62
7
  6
CONTINUOUS
 10
63.4618429318
 20
27.3477243765
 30
0.0
 11
-0.000000001
 21
-0.5000047597
 31
0.0
 40
0.9999904807
 41
-1.5707963268
 42
0.0
  0
ELLIPSE
  5
41D
100
AcDbEntity
  8
A_RUNDUNGEN
100
AcDbEllipse
 62
7
  6
CONTINUOUS
 10
67.1738285598
 20
57.4534750392
 30
0.0
 11
0.282848098
 21
0.2828480968
 31
0.0
 40
0.9999809617
 41
2.9469093116
 42
3.9269812978
  0
ELLIPSE
  5
41E
100
AcDbEntity
  8
A_RUNDUNGEN
100
AcDbEllipse
 62
7
  6
CONTINUOUS
 10
95.2675898496
 20
54.2015718425
 30
0.0
 11
0.4619449185
 21
0.1913438492
 31
0.0
 40
0.9999888475
 41
-0.3926951387
 42
0.3926951387
  0
ELLIPSE
  5
41F
100
AcDbEntity
  8
A_RUNDUNGEN
100
AcDbEllipse
 62
7
  6
CONTINUOUS
 10
95.2675898193
 20
39.4674636431
 30
0.0
 11
-0.4619449177
 21
0.1913438511
 31
0.0
 40
0.9999888475
 41
2.7488975149
 42
3.5342877923
  0
ELLIPSE
  5
420
100
AcDbEntity
  8
A_RUNDUNGEN
100
AcDbEllipse
 62
7
  6
CONTINUOUS
 10
63.4618429928
 20
57.0534664794
 30
0.0
 11
0.000000001
 21
0.5000047597
 31
0.0
 40
0.9999904807
 41
-0.0
 42
1.5707963268
  0
ELLIPSE
  5
421
100
AcDbEntity
  8
A_RUNDUNGEN
100
AcDbEllipse
 62
7
  6
CONTINUOUS
 10
87.5299127878
 20
56.3534759493
 30
0.0
 11
0.1913438511
 21
0.4619449177
 31
0.0
 40
0.9999888475
 41
-3.1010900235
 42
-2.7488975149
  0
ELLIPSE
  5
422
100
AcDbEntity
  8
A_RUNDUNGEN
100
AcDbEllipse
 62
7
  6
CONTINUOUS
 10
64.7118429448
 20
33.6590777349
 30
0.0
 11
-0.0000000036
 21
-1.7504364301
 31
0.0
 40
0.9997506736
 41
-1.9723117489
 42
-1.5707963268
  0
ENDSEC
  0
SECTION
  2
OBJECTS
  0
DICTIONARY
  5
423
100
AcDbDictionary
  3
ACAD_GROUP
350
424
  3
ACAD_MLINESTYLE
350
425
  0
DICTIONARY
  5
424
102
{ACAD_REACTORS
330
423
102
}
100
AcDbDictionary
  0
DICTIONARY
  5
425
102
{ACAD_REACTORS
330
423
102
}
100
AcDbDictionary
  3
STANDARD
350
426
  0
MLINESTYLE
  5
426
102
{ACAD_REACTORS
330
425
102
}
100
AcDbMlineStyle
  2
STANDARD
 70
0
  3

 62
256
 51
90.0
 52
90.0
 71
2
 49
0.5
 62
256
  6
BYLAYER
 49
-0.5
 62
256
  6
BYLAYER
  0
ENDSEC
  0
EOF
