999
DXF file: d:\tmp\workingDir\0000079396\te_540_640_3d_fr_fz_q01_01.dxf
999
Pro/ENGINEER 2016380 by Parametric Technology Corporation
  0
SECTION
  2
HEADER
  9
$ACADVER
  1
AC1014
  9
$DWGCODEPAGE
  3
ANSI_1252
  9
$EXTMAX
 10
134.874
 20
150.0
 30
0.0
  9
$EXTMIN
 10
0.0
 20
0.0
 30
0.0
  9
$LIMMIN
 10
0.0
 20
0.0
  9
$LIMMAX
 10
134.874
 20
150.0
  9
$VIEWCTR
 10
67.437
 20
75.0
  9
$VIEWSIZE
 40
150.0
  9
$CLAYER
  8
0
  9
$LTSCALE
 40
9.7777777778
  9
$CELTYPE
  6
BYLAYER
  9
$DIMSCALE
 40
1.0
  9
$DIMASZ
 40
3.5
  9
$DIMEXO
 40
0.0
  9
$DIMDLI
 40
6.7555555556
  9
$DIMEXE
 40
2.0
  9
$DIMCEN
 40
1.6
  9
$DIMLFAC
 40
1.0
  9
$DIMBLK
  1
_ARROW_FILLED
  9
$DIMALT
 70
0
  9
$DIMALTF
 40
25.4
  9
$DIMTXT
 40
3.5
  9
$DIMTOL
 70
1
  9
$DIMLIM
 70
0
  9
$DIMTFAC
 40
1.0
  9
$DIMTP
 40
0.01
  9
$DIMTM
 40
0.01
  9
$DIMGAP
 40
0.625
  9
$AUNITS
 70
0
  9
$PDMODE
 70
0
  9
$PDSIZE
 40
0.04
  9
$HANDSEED
  5
43F
  9
$TILEMODE
 70
1
  9
$MEASUREMENT
 70
1
  0
ENDSEC
  0
SECTION
  2
CLASSES
  0
ENDSEC
  0
SECTION
  2
TABLES
  0
TABLE
  2
VPORT
  5
8
100
AcDbSymbolTable
 70
2
  0
VPORT
  5
1F4
100
AcDbSymbolTableRecord
100
AcDbViewportTableRecord
  2
*ACTIVE
 70
0
 10
0.0
 20
0.0
 11
1.0
 21
1.0
 12
67.437
 22
75.0
 13
0.0
 23
0.0
 14
1.0
 24
1.0
 15
0.0
 25
0.0
 16
0.0
 26
0.0
 36
1.0
 17
0.0
 27
0.0
 37
0.0
 40
150.0
 41
0.89916
 42
50.0
 43
0.0
 44
0.0
 50
0.0
 51
0.0
 71
0
 72
100
 73
1
 74
1
 75
0
 76
0
 77
0
 78
0
  0
ENDTAB
  0
TABLE
  2
LTYPE
  5
5
100
AcDbSymbolTable
 70
6
  0
LTYPE
  5
14
100
AcDbSymbolTableRecord
100
AcDbLinetypeTableRecord
  2
BYBLOCK
 70
0
  3

 72
65
 73
0
 40
0.0
  0
LTYPE
  5
15
100
AcDbSymbolTableRecord
100
AcDbLinetypeTableRecord
  2
BYLAYER
 70
0
  3

 72
65
 73
0
 40
0.0
  0
LTYPE
  5
16
100
AcDbSymbolTableRecord
100
AcDbLinetypeTableRecord
  2
CONTINUOUS
 70
64
  3
Solid line
 72
65
 73
0
 40
0.0
  0
LTYPE
  5
1F5
100
AcDbSymbolTableRecord
100
AcDbLinetypeTableRecord
  2
CENTER
 70
64
  3
____ _ ____ _ ____ _ ____ _ ____ _ ____ _ ____
 72
65
 73
4
 40
0.6
 49
0.375
 74
0
 49
-0.075
 74
0
 49
0.075
 74
0
 49
-0.075
 74
0
  0
LTYPE
  5
1F6
100
AcDbSymbolTableRecord
100
AcDbLinetypeTableRecord
  2
HIDDEN
 70
64
  3
- - - - - - - - - - - - - - - - - - - -
 72
65
 73
2
 40
0.2
 49
0.1
 74
0
 49
-0.1
 74
0
  0
LTYPE
  5
1F7
100
AcDbSymbolTableRecord
100
AcDbLinetypeTableRecord
  2
PHANTOM
 70
64
  3
_____ _ _ _____ _ _ _____ _ _ _____
 72
65
 73
6
 40
0.8
 49
0.45
 74
0
 49
-0.05
 74
0
 49
0.1
 74
0
 49
-0.05
 74
0
 49
0.1
 74
0
 49
-0.05
 74
0
  0
LTYPE
  5
1F8
100
AcDbSymbolTableRecord
100
AcDbLinetypeTableRecord
  2
DOT
 70
64
  3
. . . . . . . . . . . . . . . . . . . .
 72
65
 73
2
 40
0.2
 49
0.1
 74
0
 49
-0.1
 74
0
  0
LTYPE
  5
1F9
100
AcDbSymbolTableRecord
100
AcDbLinetypeTableRecord
  2
DASHED
 70
64
  3
- - - - - - - - - - - - - - - - - - - -
 72
65
 73
2
 40
0.2
 49
0.1
 74
0
 49
-0.1
 74
0
  0
ENDTAB
  0
TABLE
  2
LAYER
  5
2
100
AcDbSymbolTable
 70
36
  0
LAYER
  5
10
100
AcDbSymbolTableRecord
100
AcDbLayerTableRecord
  2
0
 70
0
 62
7
  6
CONTINUOUS
  0
LAYER
  5
1FA
100
AcDbSymbolTableRecord
100
AcDbLayerTableRecord
  2
DEFAULT_1
 70
0
 62
7
  6
CENTER
  0
LAYER
  5
1FB
100
AcDbSymbolTableRecord
100
AcDbLayerTableRecord
  2
DEFAULT_2
 70
0
 62
8
  6
HIDDEN
  0
LAYER
  5
1FC
100
AcDbSymbolTableRecord
100
AcDbLayerTableRecord
  2
DEFAULT_3
 70
0
 62
7
  6
PHANTOM
  0
LAYER
  5
1FD
100
AcDbSymbolTableRecord
100
AcDbLayerTableRecord
  2
A_ACHSEN
 70
0
 62
7
  6
CONTINUOUS
  0
LAYER
  5
1FE
100
AcDbSymbolTableRecord
100
AcDbLayerTableRecord
  2
A_BASISEBENEN
 70
0
 62
7
  6
CONTINUOUS
  0
LAYER
  5
1FF
100
AcDbSymbolTableRecord
100
AcDbLayerTableRecord
  2
A_BEMASSUNGEN
 70
0
 62
7
  6
CONTINUOUS
  0
LAYER
  5
200
100
AcDbSymbolTableRecord
100
AcDbLayerTableRecord
  2
A_BOHRUNGEN
 70
0
 62
7
  6
CONTINUOUS
  0
LAYER
  5
201
100
AcDbSymbolTableRecord
100
AcDbLayerTableRecord
  2
A_EBENEN
 70
0
 62
7
  6
CONTINUOUS
  0
LAYER
  5
202
100
AcDbSymbolTableRecord
100
AcDbLayerTableRecord
  2
A_FASEN
 70
0
 62
7
  6
CONTINUOUS
  0
LAYER
  5
203
100
AcDbSymbolTableRecord
100
AcDbLayerTableRecord
  2
A_FLAECHEN
 70
0
 62
7
  6
CONTINUOUS
  0
LAYER
  5
204
100
AcDbSymbolTableRecord
100
AcDbLayerTableRecord
  2
A_FL_VERBAENDE
 70
0
 62
7
  6
CONTINUOUS
  0
LAYER
  5
205
100
AcDbSymbolTableRecord
100
AcDbLayerTableRecord
  2
A_KURVEN
 70
0
 62
7
  6
CONTINUOUS
  0
LAYER
  5
206
100
AcDbSymbolTableRecord
100
AcDbLayerTableRecord
  2
A_NOTIZEN_SYMB
 70
0
 62
7
  6
CONTINUOUS
  0
LAYER
  5
207
100
AcDbSymbolTableRecord
100
AcDbLayerTableRecord
  2
A_PUNKTE
 70
0
 62
7
  6
CONTINUOUS
  0
LAYER
  5
208
100
AcDbSymbolTableRecord
100
AcDbLayerTableRecord
  2
A_RUNDUNGEN
 70
0
 62
7
  6
CONTINUOUS
  0
LAYER
  5
209
100
AcDbSymbolTableRecord
100
AcDbLayerTableRecord
  2
BASISEBENEN
 70
0
 62
7
  6
CONTINUOUS
  0
LAYER
  5
20A
100
AcDbSymbolTableRecord
100
AcDbLayerTableRecord
  2
XSEC_DATUMS
 70
0
 62
7
  6
CONTINUOUS
  0
ENDTAB
  0
TABLE
  2
STYLE
  5
3
100
AcDbSymbolTable
 70
1
  0
STYLE
  5
11
100
AcDbSymbolTableRecord
100
AcDbTextStyleTableRecord
  2
STANDARD
 70
0
 40
0.0
 41
1.0
 50
0.0
 71
0
 42
0.2
  3
txt
  4

  0
STYLE
  5
20B
100
AcDbSymbolTableRecord
100
AcDbTextStyleTableRecord
  2
TEXTSTYLE_1
 70
0
 40
0.0
 41
0.8
 50
0.0
 71
0
 42
0.2
  3
gdt
  4

  0
STYLE
  5
20C
100
AcDbSymbolTableRecord
100
AcDbTextStyleTableRecord
  2
TEXTSTYLE_2
 70
0
 40
0.0
 41
1.0
 50
0.0
 71
0
 42
0.2
  3
txt
  4

  0
ENDTAB
  0
TABLE
  2
VIEW
  5
6
100
AcDbSymbolTable
 70
0
  0
ENDTAB
  0
TABLE
  2
UCS
  5
7
100
AcDbSymbolTable
 70
0
  0
ENDTAB
  0
TABLE
  2
APPID
  5
9
100
AcDbSymbolTable
 70
1
  0
APPID
  5
20D
100
AcDbSymbolTableRecord
100
AcDbRegAppTableRecord
  2
ACAD
 70
0
  0
ENDTAB
  0
TABLE
  2
BLOCK_RECORD
  5
1
100
AcDbSymbolTable
 70
0
  0
BLOCK_RECORD
  5
1F
100
AcDbSymbolTableRecord
100
AcDbBlockTableRecord
  2
*MODEL_SPACE
  0
BLOCK_RECORD
  5
1B
100
AcDbSymbolTableRecord
100
AcDbBlockTableRecord
  2
*PAPER_SPACE
  0
BLOCK_RECORD
  5
20E
100
AcDbSymbolTableRecord
100
AcDbBlockTableRecord
  2
_ARROW_FILLED
  0
BLOCK_RECORD
  5
20F
100
AcDbSymbolTableRecord
100
AcDbBlockTableRecord
  2
*D0
  0
BLOCK_RECORD
  5
210
100
AcDbSymbolTableRecord
100
AcDbBlockTableRecord
  2
*D1
  0
BLOCK_RECORD
  5
211
100
AcDbSymbolTableRecord
100
AcDbBlockTableRecord
  2
*D2
  0
BLOCK_RECORD
  5
212
100
AcDbSymbolTableRecord
100
AcDbBlockTableRecord
  2
*D3
  0
BLOCK_RECORD
  5
213
100
AcDbSymbolTableRecord
100
AcDbBlockTableRecord
  2
*D4
  0
ENDTAB
  0
TABLE
  2
DIMSTYLE
  5
A
100
AcDbSymbolTable
 70
1
  0
DIMSTYLE
105
214
100
AcDbSymbolTableRecord
100
AcDbDimStyleTableRecord
  2
STANDARD
 70
0
  3

  4

  5
_ARROW_FILLED
  6
_ARROW_FILLED
  7
_ARROW_FILLED
 40
1.0
 41
3.5
 42
0.0
 43
0.38
 44
2.0
 45
0.0
 46
0.0
 47
0.01
 48
0.01
140
3.5
141
0.09
142
0.0
143
25.4
144
1.0
145
0.0
146
1.0
147
0.625
 71
1.0
 72
0.0
 73
0
 74
0
 75
0
 76
0
 77
1
 78
8
170
0
171
1
172
0
173
0
174
0
175
0
176
0
177
0
178
5
270
2
271
2
272
2
273
2
274
2
275
0
280
0
281
0
282
0
283
1
284
8
285
0
286
0
287
3
288
0
340
11
  0
DIMSTYLE
105
215
100
AcDbSymbolTableRecord
100
AcDbDimStyleTableRecord
  2
DIMSTYLE_1
 70
0
  3

  4

  5
_ARROW_FILLED
  6
_ARROW_FILLED
  7
_ARROW_FILLED
 40
1.0
 41
3.5
 42
0.0
 43
0.38
 44
2.0
 45
0.0
 46
0.0
 47
0.1
 48
0.1
140
3.5
141
0.09
142
0.0
143
25.4
144
1.0
145
0.0
146
1.0
147
0.875
 71
0.0
 72
0.0
 73
0
 74
0
 75
0
 76
0
 77
1
 78
8
170
0
171
1
172
0
173
0
174
0
175
0
176
0
177
0
178
5
270
2
271
0
272
-1
273
2
274
2
275
0
280
0
281
0
282
0
283
1
284
8
285
0
286
0
287
3
288
0
340
20C
  0
DIMSTYLE
105
216
100
AcDbSymbolTableRecord
100
AcDbDimStyleTableRecord
  2
DIMSTYLE_2
 70
0
  3

  4

  5
_ARROW_FILLED
  6
_ARROW_FILLED
  7
_ARROW_FILLED
 40
1.0
 41
3.5
 42
0.0
 43
0.38
 44
2.0
 45
0.0
 46
0.0
 47
0.3
 48
0.3
140
3.5
141
0.09
142
0.0
143
25.4
144
1.0
145
0.0
146
1.0
147
0.875
 71
0.0
 72
0.0
 73
0
 74
0
 75
0
 76
0
 77
1
 78
8
170
0
171
1
172
0
173
0
174
0
175
0
176
0
177
0
178
5
270
2
271
4
272
-1
273
2
274
2
275
0
280
0
281
0
282
0
283
1
284
8
285
0
286
0
287
3
288
0
340
20C
  0
DIMSTYLE
105
217
100
AcDbSymbolTableRecord
100
AcDbDimStyleTableRecord
  2
DIMSTYLE_3
 70
0
  3

  4

  5
_ARROW_FILLED
  6
_ARROW_FILLED
  7
_ARROW_FILLED
 40
1.0
 41
3.5
 42
0.0
 43
0.38
 44
2.0
 45
0.0
 46
0.0
 47
0.1
 48
0.1
140
3.5
141
0.09
142
0.0
143
25.4
144
1.0
145
0.0
146
1.0
147
0.875
 71
0.0
 72
0.0
 73
0
 74
0
 75
0
 76
0
 77
1
 78
8
170
0
171
1
172
0
173
0
174
0
175
0
176
0
177
0
178
5
270
2
271
1
272
-1
273
2
274
2
275
0
280
0
281
0
282
0
283
1
284
8
285
0
286
0
287
3
288
0
340
20C
  0
ENDTAB
  0
ENDSEC
  0
SECTION
  2
BLOCKS
  0
BLOCK
  5
20
100
AcDbEntity
  8
0
100
AcDbBlockBegin
  2
*MODEL_SPACE
 70
0
 10
0.0
 20
0.0
 30
0.0
  3
*MODEL_SPACE
  1

  0
ENDBLK
  5
21
100
AcDbEntity
  8
0
100
AcDbBlockEnd
  0
BLOCK
  5
1C
100
AcDbEntity
  8
0
100
AcDbBlockBegin
  2
*PAPER_SPACE
 70
0
 10
0.0
 20
0.0
 30
0.0
  3
*PAPER_SPACE
  1

  0
ENDBLK
  5
1D
100
AcDbEntity
  8
0
100
AcDbBlockEnd
  0
BLOCK
  5
218
100
AcDbEntity
  8
0
100
AcDbBlockBegin
  2
_ARROW_FILLED
 70
64
 10
0.0
 20
0.0
  3
_ARROW_FILLED
  1

  0
SOLID
  5
219
100
AcDbEntity
  8
0
  6
BYBLOCK
 62
0
100
AcDbTrace
 10
0.0
 20
0.0
 11
-1.0
 21
0.1428571429
 12
-1.0
 22
-0.1428571429
 13
-1.0
 23
-0.1428571429
  0
ENDBLK
  5
21A
100
AcDbEntity
  8
0
  6
BYBLOCK
 62
0
100
AcDbBlockEnd
  0
BLOCK
  5
21B
100
AcDbEntity
  8
A_BEMASSUNGEN
100
AcDbBlockBegin
 62
2
  6
CONTINUOUS
  2
*D0
 70
65
 10
0.0
 20
0.0
  3
*D0
  1

  0
MTEXT
  5
21C
100
AcDbEntity
  8
A_BEMASSUNGEN
100
AcDbMText
 62
5
  6
CONTINUOUS
  7
TEXTSTYLE_2
 71
3
 72
1
 10
124.0985428022
 20
12.9256061713
 30
0.0
 11
0.0
 21
1.0
 31
0.0
  1
4
 40
3.5
 41
4.125
  0
LINE
  5
21D
100
AcDbEntity
  8
A_BEMASSUNGEN
100
AcDbLine
 62
2
  6
CONTINUOUS
 10
119.0420970936
 20
16.9798654082
 11
130.4735428022
 21
16.9798654082
  0
LINE
  5
21E
100
AcDbEntity
  8
A_BEMASSUNGEN
100
AcDbLine
 62
2
  6
CONTINUOUS
 10
100.5420970936
 20
21.1798654082
 11
130.4735428022
 21
21.1798654082
  0
LINE
  5
21F
100
AcDbEntity
  8
A_BEMASSUNGEN
100
AcDbLine
 62
2
  6
CONTINUOUS
 10
128.4735428022
 20
16.9798654082
 11
128.4735428022
 21
10.1756061713
  0
LINE
  5
220
100
AcDbEntity
  8
A_BEMASSUNGEN
100
AcDbLine
 62
2
  6
CONTINUOUS
 10
128.4735428022
 20
10.1756061713
 11
128.4735428022
 21
19.0798654082
  0
LINE
  5
221
100
AcDbEntity
  8
A_BEMASSUNGEN
100
AcDbLine
 62
2
  6
CONTINUOUS
 10
128.4735428022
 20
21.1798654082
 11
128.4735428022
 21
28.6798654082
  0
LINE
  5
222
100
AcDbEntity
  8
A_BEMASSUNGEN
100
AcDbLine
 62
2
  6
CONTINUOUS
 10
128.4735428022
 20
28.6798654082
 11
128.4735428022
 21
19.0798654082
  0
INSERT
  5
223
100
AcDbEntity
  8
A_BEMASSUNGEN
100
AcDbBlockReference
 62
2
  6
CONTINUOUS
  2
_ARROW_FILLED
 10
128.4735428022
 20
16.9798654082
 41
3.5
 42
3.5
 43
3.5
 50
90.0
  0
INSERT
  5
224
100
AcDbEntity
  8
A_BEMASSUNGEN
100
AcDbBlockReference
 62
2
  6
CONTINUOUS
  2
_ARROW_FILLED
 10
128.4735428022
 20
21.1798654082
 41
3.5
 42
3.5
 43
3.5
 50
270.0
  0
ENDBLK
  5
225
100
AcDbEntity
  8
0
  6
BYBLOCK
 62
0
100
AcDbBlockEnd
  0
BLOCK
  5
226
100
AcDbEntity
  8
A_BEMASSUNGEN
100
AcDbBlockBegin
 62
2
  6
CONTINUOUS
  2
*D1
 70
65
 10
0.0
 20
0.0
  3
*D1
  1

  0
MTEXT
  5
227
100
AcDbEntity
  8
A_BEMASSUNGEN
100
AcDbMText
 62
5
  6
CONTINUOUS
  7
TEXTSTYLE_2
 71
2
 72
1
 10
124.0985428022
 20
37.1798654082
 30
0.0
 11
0.0
 21
1.0
 31
0.0
  1
32
 40
3.5
 41
7.875
  0
LINE
  5
228
100
AcDbEntity
  8
A_BEMASSUNGEN
100
AcDbLine
 62
2
  6
CONTINUOUS
 10
100.5420970936
 20
53.1798654082
 11
130.4735428022
 21
53.1798654082
  0
LINE
  5
229
100
AcDbEntity
  8
A_BEMASSUNGEN
100
AcDbLine
 62
2
  6
CONTINUOUS
 10
100.5420970936
 20
21.1798654082
 11
130.4735428022
 21
21.1798654082
  0
LINE
  5
22A
100
AcDbEntity
  8
A_BEMASSUNGEN
100
AcDbLine
 62
2
  6
CONTINUOUS
 10
128.4735428022
 20
53.1798654082
 11
128.4735428022
 21
37.1798654082
  0
LINE
  5
22B
100
AcDbEntity
  8
A_BEMASSUNGEN
100
AcDbLine
 62
2
  6
CONTINUOUS
 10
128.4735428022
 20
21.1798654082
 11
128.4735428022
 21
37.1798654082
  0
INSERT
  5
22C
100
AcDbEntity
  8
A_BEMASSUNGEN
100
AcDbBlockReference
 62
2
  6
CONTINUOUS
  2
_ARROW_FILLED
 10
128.4735428022
 20
53.1798654082
 41
3.5
 42
3.5
 43
3.5
 50
90.0
  0
INSERT
  5
22D
100
AcDbEntity
  8
A_BEMASSUNGEN
100
AcDbBlockReference
 62
2
  6
CONTINUOUS
  2
_ARROW_FILLED
 10
128.4735428022
 20
21.1798654082
 41
3.5
 42
3.5
 43
3.5
 50
270.0
  0
ENDBLK
  5
22E
100
AcDbEntity
  8
0
  6
BYBLOCK
 62
0
100
AcDbBlockEnd
  0
BLOCK
  5
22F
100
AcDbEntity
  8
A_BEMASSUNGEN
100
AcDbBlockBegin
 62
2
  6
CONTINUOUS
  2
*D2
 70
65
 10
0.0
 20
0.0
  3
*D2
  1

  0
MTEXT
  5
230
100
AcDbEntity
  8
A_BEMASSUNGEN
100
AcDbMText
 62
5
  6
CONTINUOUS
  7
TEXTSTYLE_2
 71
3
 72
1
 10
57.7495906819
 20
14.3141968326
 30
0.0
 11
1.0
 21
0.0
 31
0.0
  1
3.5
 40
3.5
 41
10.5
  0
LINE
  5
231
100
AcDbEntity
  8
A_BEMASSUNGEN
100
AcDbLine
 62
2
  6
CONTINUOUS
 10
60.5513904007
 20
16.8450765849
 11
60.5513904007
 21
7.9391968326
  0
LINE
  5
232
100
AcDbEntity
  8
A_BEMASSUNGEN
100
AcDbLine
 62
2
  6
CONTINUOUS
 10
64.0420970936
 20
16.9798654082
 11
64.0420970936
 21
7.9391968326
  0
LINE
  5
233
100
AcDbEntity
  8
A_BEMASSUNGEN
100
AcDbLine
 62
2
  6
CONTINUOUS
 10
60.5513904007
 20
9.9391968326
 11
50.7495906819
 21
9.9391968326
  0
LINE
  5
234
100
AcDbEntity
  8
A_BEMASSUNGEN
100
AcDbLine
 62
2
  6
CONTINUOUS
 10
50.7495906819
 20
9.9391968326
 11
62.2967437471
 21
9.9391968326
  0
LINE
  5
235
100
AcDbEntity
  8
A_BEMASSUNGEN
100
AcDbLine
 62
2
  6
CONTINUOUS
 10
64.0420970936
 20
9.9391968326
 11
71.5420970936
 21
9.9391968326
  0
LINE
  5
236
100
AcDbEntity
  8
A_BEMASSUNGEN
100
AcDbLine
 62
2
  6
CONTINUOUS
 10
71.5420970936
 20
9.9391968326
 11
62.2967437471
 21
9.9391968326
  0
INSERT
  5
237
100
AcDbEntity
  8
A_BEMASSUNGEN
100
AcDbBlockReference
 62
2
  6
CONTINUOUS
  2
_ARROW_FILLED
 10
60.5513904007
 20
9.9391968326
 41
3.5
 42
3.5
 43
3.5
  0
INSERT
  5
238
100
AcDbEntity
  8
A_BEMASSUNGEN
100
AcDbBlockReference
 62
2
  6
CONTINUOUS
  2
_ARROW_FILLED
 10
64.0420970936
 20
9.9391968326
 41
3.5
 42
3.5
 43
3.5
 50
180.0
  0
ENDBLK
  5
239
100
AcDbEntity
  8
0
  6
BYBLOCK
 62
0
100
AcDbBlockEnd
  0
BLOCK
  5
23A
100
AcDbEntity
  8
A_BEMASSUNGEN
100
AcDbBlockBegin
 62
2
  6
CONTINUOUS
  2
*D3
 70
65
 10
0.0
 20
0.0
  3
*D3
  1

  0
MTEXT
  5
23B
100
AcDbEntity
  8
A_BEMASSUNGEN
100
AcDbMText
 62
5
  6
CONTINUOUS
  7
TEXTSTYLE_2
 71
2
 72
1
 10
42.5513904007
 20
7.9612556561
 30
0.0
 11
1.0
 21
0.0
 31
0.0
  1
36
 40
3.5
 41
7.875
  0
LINE
  5
23C
100
AcDbEntity
  8
A_BEMASSUNGEN
100
AcDbLine
 62
2
  6
CONTINUOUS
 10
24.5513904007
 20
20.8450765849
 11
24.5513904007
 21
1.5862556561
  0
LINE
  5
23D
100
AcDbEntity
  8
A_BEMASSUNGEN
100
AcDbLine
 62
2
  6
CONTINUOUS
 10
60.5513904007
 20
16.8450765849
 11
60.5513904007
 21
1.5862556561
  0
LINE
  5
23E
100
AcDbEntity
  8
A_BEMASSUNGEN
100
AcDbLine
 62
2
  6
CONTINUOUS
 10
24.5513904007
 20
3.5862556561
 11
42.5513904007
 21
3.5862556561
  0
LINE
  5
23F
100
AcDbEntity
  8
A_BEMASSUNGEN
100
AcDbLine
 62
2
  6
CONTINUOUS
 10
60.5513904007
 20
3.5862556561
 11
42.5513904007
 21
3.5862556561
  0
INSERT
  5
240
100
AcDbEntity
  8
A_BEMASSUNGEN
100
AcDbBlockReference
 62
2
  6
CONTINUOUS
  2
_ARROW_FILLED
 10
24.5513904007
 20
3.5862556561
 41
3.5
 42
3.5
 43
3.5
 50
180.0
  0
INSERT
  5
241
100
AcDbEntity
  8
A_BEMASSUNGEN
100
AcDbBlockReference
 62
2
  6
CONTINUOUS
  2
_ARROW_FILLED
 10
60.5513904007
 20
3.5862556561
 41
3.5
 42
3.5
 43
3.5
  0
ENDBLK
  5
242
100
AcDbEntity
  8
0
  6
BYBLOCK
 62
0
100
AcDbBlockEnd
  0
BLOCK
  5
243
100
AcDbEntity
  8
A_BEMASSUNGEN
100
AcDbBlockBegin
 62
2
  6
CONTINUOUS
  2
*D4
 70
65
 10
0.0
 20
0.0
  3
*D4
  1

  0
MTEXT
  5
244
100
AcDbEntity
  8
A_BEMASSUNGEN
100
AcDbMText
 62
5
  6
CONTINUOUS
  7
TEXTSTYLE_2
 71
2
 72
1
 10
82.2920970936
 20
7.9612556561
 30
0.0
 11
1.0
 21
0.0
 31
0.0
  1
36.5
 40
3.5
 41
14.625
  0
LINE
  5
245
100
AcDbEntity
  8
A_BEMASSUNGEN
100
AcDbLine
 62
2
  6
CONTINUOUS
 10
64.0420970936
 20
16.9798654082
 11
64.0420970936
 21
1.5862556561
  0
LINE
  5
246
100
AcDbEntity
  8
A_BEMASSUNGEN
100
AcDbLine
 62
2
  6
CONTINUOUS
 10
100.5420970936
 20
21.1798654082
 11
100.5420970936
 21
1.5862556561
  0
LINE
  5
247
100
AcDbEntity
  8
A_BEMASSUNGEN
100
AcDbLine
 62
2
  6
CONTINUOUS
 10
64.0420970936
 20
3.5862556561
 11
82.2920970936
 21
3.5862556561
  0
LINE
  5
248
100
AcDbEntity
  8
A_BEMASSUNGEN
100
AcDbLine
 62
2
  6
CONTINUOUS
 10
100.5420970936
 20
3.5862556561
 11
82.2920970936
 21
3.5862556561
  0
INSERT
  5
249
100
AcDbEntity
  8
A_BEMASSUNGEN
100
AcDbBlockReference
 62
2
  6
CONTINUOUS
  2
_ARROW_FILLED
 10
64.0420970936
 20
3.5862556561
 41
3.5
 42
3.5
 43
3.5
 50
180.0
  0
INSERT
  5
24A
100
AcDbEntity
  8
A_BEMASSUNGEN
100
AcDbBlockReference
 62
2
  6
CONTINUOUS
  2
_ARROW_FILLED
 10
100.5420970936
 20
3.5862556561
 41
3.5
 42
3.5
 43
3.5
  0
ENDBLK
  5
24B
100
AcDbEntity
  8
0
  6
BYBLOCK
 62
0
100
AcDbBlockEnd
  0
ENDSEC
  0
SECTION
  2
ENTITIES
  0
DIMENSION
  5
24C
100
AcDbEntity
  8
A_BEMASSUNGEN
100
AcDbDimension
 62
2
  6
CONTINUOUS
  2
*D0
 10
128.4735428022
 20
21.1798654082
 11
128.4735428022
 21
11.0506085079
 70
160
  3
DIMSTYLE_1
100
AcDbAlignedDimension
 13
119.0420970936
 23
16.9798654082
 14
100.5420970936
 24
21.1798654082
 50
90.0
100
AcDbRotatedDimension
  0
DIMENSION
  5
24D
100
AcDbEntity
  8
A_BEMASSUNGEN
100
AcDbDimension
 62
2
  6
CONTINUOUS
  2
*D1
 10
128.4735428022
 20
21.1798654082
 11
128.4735428022
 21
36.6798677449
 70
160
  3
DIMSTYLE_2
100
AcDbAlignedDimension
 13
100.5420970936
 23
53.1798654082
 14
100.5420970936
 24
21.1798654082
 50
270.0
100
AcDbRotatedDimension
  0
DIMENSION
  5
24E
100
AcDbEntity
  8
A_BEMASSUNGEN
100
AcDbDimension
 62
2
  6
CONTINUOUS
  2
*D2
 10
64.0420970936
 20
9.9391968326
 11
53.7495922309
 21
9.9391968326
 70
160
  3
DIMSTYLE_3
100
AcDbAlignedDimension
 13
60.5513904007
 23
16.8450765849
 14
64.0420970936
 24
16.9798654082
100
AcDbRotatedDimension
  0
DIMENSION
  5
24F
100
AcDbEntity
  8
A_BEMASSUNGEN
100
AcDbDimension
 62
2
  6
CONTINUOUS
  2
*D3
 10
60.5513904007
 20
3.5862556561
 11
42.0513880208
 21
3.5862556561
 70
160
  3
DIMSTYLE_2
100
AcDbAlignedDimension
 13
24.5513904007
 23
20.8450765849
 14
60.5513904007
 24
16.8450765849
100
AcDbRotatedDimension
  0
DIMENSION
  5
250
100
AcDbEntity
  8
A_BEMASSUNGEN
100
AcDbDimension
 62
2
  6
CONTINUOUS
  2
*D4
 10
100.5420970936
 20
3.5862556561
 11
81.7920998264
 21
3.5862556561
 70
160
  3
DIMSTYLE_2
100
AcDbAlignedDimension
 13
64.0420970936
 23
16.9798654082
 14
100.5420970936
 24
21.1798654082
100
AcDbRotatedDimension
  0
LINE
  5
251
100
AcDbEntity
  8
0
100
AcDbLine
 62
7
  6
CONTINUOUS
 10
92.828241939
 20
21.3544049445
 11
98.650856745
 21
22.1727200895
  0
LINE
  5
252
100
AcDbEntity
  8
A_RUNDUNGEN
100
AcDbLine
 62
7
  6
CONTINUOUS
 10
92.828241939
 20
21.3544049445
 11
98.650856745
 21
22.1727200895
  0
LINE
  5
253
100
AcDbEntity
  8
0
100
AcDbLine
 62
7
  6
CONTINUOUS
 10
60.5513904007
 20
16.8450765849
 11
5.5513904007
 21
16.8450765849
  0
LINE
  5
254
100
AcDbEntity
  8
0
100
AcDbLine
 62
7
  6
CONTINUOUS
 10
64.0420970936
 20
16.9798654082
 11
119.0420970936
 21
16.9798654082
  0
LINE
  5
255
100
AcDbEntity
  8
0
100
AcDbLine
 62
7
  6
CONTINUOUS
 10
25.3991261691
 20
21.9980176594
 11
34.8485724934
 21
21.0048408298
  0
LINE
  5
256
100
AcDbEntity
  8
0
100
AcDbLine
 62
7
  6
CONTINUOUS
 10
29.9129974972
 20
24.1319910748
 11
27.1204753355
 21
25.087237212
  0
LINE
  5
257
100
AcDbEntity
  8
0
100
AcDbLine
 62
7
  6
CONTINUOUS
 10
26.2841854781
 20
23.3769880091
 11
28.532706343
 21
22.5791257667
  0
LINE
  5
258
100
AcDbEntity
  8
0
100
AcDbLine
 62
7
  6
CONTINUOUS
 10
28.7259948543
 20
22.385203152
 11
26.1158853649
 21
23.3352053143
  0
LINE
  5
259
100
AcDbEntity
  8
A_RUNDUNGEN
100
AcDbLine
 62
7
  6
CONTINUOUS
 10
81.7490471977
 20
23.7718788786
 11
82.9339023659
 21
23.7925606025
  0
LINE
  5
25A
100
AcDbEntity
  8
0
100
AcDbLine
 62
7
  6
CONTINUOUS
 10
96.4595494994
 20
24.4483583527
 11
84.4613823358
 21
24.2386328147
  0
LINE
  5
25B
100
AcDbEntity
  8
A_RUNDUNGEN
100
AcDbLine
 62
7
  6
CONTINUOUS
 10
84.2006752892
 20
24.2343789074
 11
84.4613771575
 21
24.2389294755
  0
LINE
  5
25C
100
AcDbEntity
  8
A_RUNDUNGEN
100
AcDbLine
 62
7
  6
CONTINUOUS
 10
52.1513904007
 20
21.9950765849
 11
60.0557536684
 21
22.0640569181
  0
LINE
  5
25D
100
AcDbEntity
  8
0
100
AcDbLine
 62
7
  6
CONTINUOUS
 10
98.1942787274
 20
23.7277027301
 11
79.8377338258
 21
23.5675075897
  0
LINE
  5
25E
100
AcDbEntity
  8
A_RUNDUNGEN
100
AcDbLine
 62
7
  6
CONTINUOUS
 10
79.8377338258
 20
23.5675075897
 11
98.1942787274
 21
23.7277027301
  0
LINE
  5
25F
100
AcDbEntity
  8
A_RUNDUNGEN
100
AcDbLine
 62
7
  6
CONTINUOUS
 10
79.3420970936
 20
22.60813992
 11
76.5378447484
 21
22.5841129894
  0
LINE
  5
260
100
AcDbEntity
  8
A_RUNDUNGEN
100
AcDbLine
 62
7
  6
CONTINUOUS
 10
65.5420970936
 20
21.2298654082
 11
92.747356064
 21
21.3485714973
  0
LINE
  5
261
100
AcDbEntity
  8
0
100
AcDbLine
 62
7
  6
CONTINUOUS
 10
79.3420970936
 20
21.2900796496
 11
92.747356064
 21
21.3485714973
  0
LINE
  5
262
100
AcDbEntity
  8
0
100
AcDbLine
 62
7
  6
CONTINUOUS
 10
24.5513904007
 20
20.8450765849
 11
60.5513904007
 21
20.8450765849
  0
LINE
  5
263
100
AcDbEntity
  8
A_RUNDUNGEN
100
AcDbLine
 62
7
  6
CONTINUOUS
 10
60.3513904007
 20
20.9450765849
 11
58.8513904007
 21
20.9450765849
  0
LINE
  5
264
100
AcDbEntity
  8
0
100
AcDbLine
 62
7
  6
CONTINUOUS
 10
100.5420970936
 20
21.1798654082
 11
64.0420970936
 21
21.1798654082
  0
LINE
  5
265
100
AcDbEntity
  8
A_RUNDUNGEN
100
AcDbLine
 62
7
  6
CONTINUOUS
 10
64.0420970936
 20
21.2798654082
 11
75.2421047063
 21
21.2798654066
  0
LINE
  5
266
100
AcDbEntity
  8
A_FASEN
100
AcDbLine
 62
7
  6
CONTINUOUS
 10
99.7357547752
 20
23.7298654082
 11
99.4420970936
 21
23.7298654082
  0
LINE
  5
267
100
AcDbEntity
  8
0
100
AcDbLine
 62
7
  6
CONTINUOUS
 10
99.4420970936
 20
23.7298654082
 11
99.7357547752
 21
23.7298654082
  0
LINE
  5
268
100
AcDbEntity
  8
0
100
AcDbLine
 62
7
  6
CONTINUOUS
 10
25.6513904007
 20
24.4824026586
 11
25.9513904007
 21
24.4824026586
  0
LINE
  5
269
100
AcDbEntity
  8
0
100
AcDbLine
 62
7
  6
CONTINUOUS
 10
25.6513904007
 20
24.5492549301
 11
25.9513904007
 21
24.5492549301
  0
LINE
  5
26A
100
AcDbEntity
  8
0
100
AcDbLine
 62
7
  6
CONTINUOUS
 10
25.6513904007
 20
24.9515185663
 11
25.9513904007
 21
24.9515185663
  0
LINE
  5
26B
100
AcDbEntity
  8
A_RUNDUNGEN
100
AcDbLine
 62
7
  6
CONTINUOUS
 10
58.8513904007
 20
20.8950765849
 11
46.9513904007
 21
20.9470004597
  0
LINE
  5
26C
100
AcDbEntity
  8
0
100
AcDbLine
 62
7
  6
CONTINUOUS
 10
34.9487376474
 20
20.9993722444
 11
46.9513904007
 21
20.9470004597
  0
LINE
  5
26D
100
AcDbEntity
  8
A_RUNDUNGEN
100
AcDbLine
 62
7
  6
CONTINUOUS
 10
47.1513904007
 20
22.4537201837
 11
46.9513904007
 21
22.4547673908
  0
LINE
  5
26E
100
AcDbEntity
  8
0
100
AcDbLine
 62
7
  6
CONTINUOUS
 10
28.6972932837
 20
22.5503464933
 11
34.9513904007
 21
22.5175998181
  0
LINE
  5
26F
100
AcDbEntity
  8
0
100
AcDbLine
 62
7
  6
CONTINUOUS
 10
47.1513904007
 20
22.0387109239
 11
52.1513904007
 21
21.9950765849
  0
LINE
  5
270
100
AcDbEntity
  8
A_RUNDUNGEN
100
AcDbLine
 62
7
  6
CONTINUOUS
 10
47.1528856885
 20
22.2100539386
 11
46.949178943
 21
22.2118316604
  0
LINE
  5
271
100
AcDbEntity
  8
0
100
AcDbLine
 62
7
  6
CONTINUOUS
 10
28.8093182563
 20
22.3701358264
 11
46.949178943
 21
22.2118316604
  0
LINE
  5
272
100
AcDbEntity
  8
A_RUNDUNGEN
100
AcDbLine
 62
7
  6
CONTINUOUS
 10
47.1513904007
 20
23.9687938556
 11
46.9645259511
 21
23.9704245969
  0
LINE
  5
273
100
AcDbEntity
  8
A_RUNDUNGEN
100
AcDbLine
 62
7
  6
CONTINUOUS
 10
34.9649828743
 20
24.0751430229
 11
34.9513904007
 21
24.0752616426
  0
LINE
  5
274
100
AcDbEntity
  8
0
100
AcDbLine
 62
7
  6
CONTINUOUS
 10
29.9917309286
 20
24.1185439351
 11
34.4557536684
 21
24.0795869988
  0
LINE
  5
275
100
AcDbEntity
  8
A_RUNDUNGEN
100
AcDbLine
 62
7
  6
CONTINUOUS
 10
34.9513904007
 20
25.2355791564
 11
34.9751080407
 21
25.2353721757
  0
LINE
  5
276
100
AcDbEntity
  8
A_RUNDUNGEN
100
AcDbLine
 62
7
  6
CONTINUOUS
 10
46.9746511175
 20
25.1306537497
 11
47.1513904007
 21
25.1291113693
  0
LINE
  5
277
100
AcDbEntity
  8
0
100
AcDbLine
 62
7
  6
CONTINUOUS
 10
24.9513904007
 20
26.4927391428
 11
24.5801842892
 21
26.5750335565
  0
LINE
  5
278
100
AcDbEntity
  8
0
100
AcDbLine
 62
7
  6
CONTINUOUS
 10
5.5513904007
 20
16.8450765849
 11
5.5513904007
 21
31.8450765849
  0
LINE
  5
279
100
AcDbEntity
  8
0
100
AcDbLine
 62
7
  6
CONTINUOUS
 10
92.1375562141
 20
35.0454729231
 11
94.6396958509
 21
35.5608783745
  0
LINE
  5
27A
100
AcDbEntity
  8
A_RUNDUNGEN
100
AcDbLine
 62
7
  6
CONTINUOUS
 10
96.4124984524
 20
27.1439110314
 11
97.2008219677
 21
27.1714398952
  0
LINE
  5
27B
100
AcDbEntity
  8
0
100
AcDbLine
 62
7
  6
CONTINUOUS
 10
84.39157271
 20
28.2380235953
 11
96.3897398737
 21
28.4477491333
  0
LINE
  5
27C
100
AcDbEntity
  8
0
100
AcDbLine
 62
7
  6
CONTINUOUS
 10
26.9513904007
 20
25.2450765823
 11
27.9513905152
 21
25.2450765862
  0
LINE
  5
27D
100
AcDbEntity
  8
0
100
AcDbLine
 62
7
  6
CONTINUOUS
 10
25.6513904007
 20
27.5780627137
 11
25.9513904007
 21
27.5780627137
  0
LINE
  5
27E
100
AcDbEntity
  8
0
100
AcDbLine
 62
7
  6
CONTINUOUS
 10
25.9513904007
 20
27.609839818
 11
25.6513904007
 21
27.609839818
  0
LINE
  5
27F
100
AcDbEntity
  8
A_ACHSEN
100
AcDbLine
 62
7
  6
CONTINUOUS
 10
54.9958348451
 20
27.6450765849
 11
54.1069459562
 21
27.6450765849
  0
LINE
  5
280
100
AcDbEntity
  8
A_ACHSEN
100
AcDbLine
 62
7
  6
CENTER
 10
52.3291681785
 20
27.6450765849
 11
49.0013904007
 21
27.6450765849
  0
LINE
  5
281
100
AcDbEntity
  8
A_ACHSEN
100
AcDbLine
 62
7
  6
CENTER
 10
56.7736126229
 20
27.6450765849
 11
60.1013904007
 21
27.6450765849
  0
LINE
  5
282
100
AcDbEntity
  8
A_ACHSEN
100
AcDbLine
 62
7
  6
CONTINUOUS
 10
70.4865415364
 20
27.6798654075
 11
69.5976526475
 21
27.6798654075
  0
LINE
  5
283
100
AcDbEntity
  8
A_ACHSEN
100
AcDbLine
 62
7
  6
CENTER
 10
67.8198748697
 20
27.6798654075
 11
64.191438475
 21
27.6798654075
  0
LINE
  5
284
100
AcDbEntity
  8
A_ACHSEN
100
AcDbLine
 62
7
  6
CENTER
 10
72.2643193142
 20
27.6798654075
 11
75.8927557089
 21
27.6798654075
  0
LINE
  5
285
100
AcDbEntity
  8
0
100
AcDbLine
 62
7
  6
CONTINUOUS
 10
25.5513904007
 20
28.8450765849
 11
25.3513904007
 21
28.8450765849
  0
LINE
  5
286
100
AcDbEntity
  8
A_FASEN
100
AcDbLine
 62
7
  6
CONTINUOUS
 10
99.7420970936
 20
30.7298654082
 11
99.4420970936
 21
30.7298654082
  0
LINE
  5
287
100
AcDbEntity
  8
0
100
AcDbLine
 62
7
  6
CONTINUOUS
 10
99.4420970936
 20
30.7298654082
 11
99.7420970936
 21
30.7298654082
  0
LINE
  5
288
100
AcDbEntity
  8
0
100
AcDbLine
 62
7
  6
CONTINUOUS
 10
46.984085085
 20
26.2116793527
 11
34.9845445975
 21
26.3166944733
  0
LINE
  5
289
100
AcDbEntity
  8
A_RUNDUNGEN
100
AcDbLine
 62
7
  6
CONTINUOUS
 10
27.9513904899
 20
30.1101558123
 11
33.9862898974
 21
29.8994124812
  0
LINE
  5
28A
100
AcDbEntity
  8
0
100
AcDbLine
 62
7
  6
CONTINUOUS
 10
29.8982692739
 20
35.4182706623
 11
32.4007723735
 21
34.9046328739
  0
LINE
  5
28B
100
AcDbEntity
  8
0
100
AcDbLine
 62
7
  6
CONTINUOUS
 10
25.5895870018
 20
38.0259782844
 11
25.8131937996
 21
37.9141748855
  0
LINE
  5
28C
100
AcDbEntity
  8
0
100
AcDbLine
 62
7
  6
CONTINUOUS
 10
98.6577978804
 20
37.1649659178
 11
98.4772409271
 21
37.1555033289
  0
LINE
  5
28D
100
AcDbEntity
  8
A_RUNDUNGEN
100
AcDbLine
 62
7
  6
CONTINUOUS
 10
98.4772409271
 20
37.1555033289
 11
98.6577978804
 21
37.1649659178
  0
LINE
  5
28E
100
AcDbEntity
  8
0
100
AcDbLine
 62
7
  6
CONTINUOUS
 10
5.5513904007
 20
31.8450765849
 11
24.5513904007
 21
31.8450765849
  0
LINE
  5
28F
100
AcDbEntity
  8
A_RUNDUNGEN
100
AcDbLine
 62
7
  6
CONTINUOUS
 10
24.5513904007
 20
31.8450765849
 11
24.9513904007
 21
31.8450765849
  0
LINE
  5
290
100
AcDbEntity
  8
A_RUNDUNGEN
100
AcDbLine
 62
7
  6
CONTINUOUS
 10
98.1942787274
 20
30.7320280864
 11
97.9377338258
 21
30.7342669198
  0
LINE
  5
291
100
AcDbEntity
  8
0
100
AcDbLine
 62
7
  6
CONTINUOUS
 10
98.1942787274
 20
30.7320280864
 11
97.9377338258
 21
30.7342669198
  0
LINE
  5
292
100
AcDbEntity
  8
0
100
AcDbLine
 62
7
  6
CONTINUOUS
 10
24.9249376531
 20
29.1915495941
 11
24.5513904007
 21
29.108736162
  0
LINE
  5
293
100
AcDbEntity
  8
0
100
AcDbLine
 62
7
  6
CONTINUOUS
 10
92.2491828786
 20
46.4015076542
 11
92.4002686218
 21
46.432629185
  0
LINE
  5
294
100
AcDbEntity
  8
0
100
AcDbLine
 62
7
  6
CONTINUOUS
 10
93.8158770248
 20
46.7242245369
 11
94.0875098332
 21
46.7801770618
  0
LINE
  5
295
100
AcDbEntity
  8
0
100
AcDbLine
 62
7
  6
CONTINUOUS
 10
25.5513904007
 20
39.8450765849
 11
25.3513904007
 21
39.8450765849
  0
LINE
  5
296
100
AcDbEntity
  8
0
100
AcDbLine
 62
7
  6
CONTINUOUS
 10
98.9420970936
 20
40.1798654084
 11
98.6420970936
 21
40.1798654084
  0
LINE
  5
297
100
AcDbEntity
  8
A_ACHSEN
100
AcDbLine
 62
7
  6
CENTER
 10
25.6196103939
 20
40.6042976351
 11
38.9126761739
 21
40.6042976351
  0
LINE
  5
298
100
AcDbEntity
  8
A_ACHSEN
100
AcDbLine
 62
7
  6
CENTER
 10
86.2729951033
 20
40.6798653908
 11
98.3111991001
 21
40.6798653908
  0
LINE
  5
299
100
AcDbEntity
  8
0
100
AcDbLine
 62
7
  6
CONTINUOUS
 10
98.9420970936
 20
41.8536597165
 11
98.6420970936
 21
41.8536597165
  0
LINE
  5
29A
100
AcDbEntity
  8
0
100
AcDbLine
 62
7
  6
CONTINUOUS
 10
98.9420970936
 20
42.2733940233
 11
98.6420970936
 21
42.2733940233
  0
LINE
  5
29B
100
AcDbEntity
  8
0
100
AcDbLine
 62
7
  6
CONTINUOUS
 10
98.9420970936
 20
42.2885411265
 11
98.6420970936
 21
42.2885411265
  0
LINE
  5
29C
100
AcDbEntity
  8
0
100
AcDbLine
 62
7
  6
CONTINUOUS
 10
30.4425297384
 20
46.6379566196
 11
30.7142020045
 21
46.5821959926
  0
LINE
  5
29D
100
AcDbEntity
  8
0
100
AcDbLine
 62
7
  6
CONTINUOUS
 10
32.1300160399
 20
46.2916007121
 11
32.2588232472
 21
46.2651630829
  0
LINE
  5
29E
100
AcDbEntity
  8
0
100
AcDbLine
 62
7
  6
CONTINUOUS
 10
24.5513904007
 20
20.8450765849
 11
24.5513904007
 21
31.8450765849
  0
LINE
  5
29F
100
AcDbEntity
  8
0
100
AcDbLine
 62
7
  6
CONTINUOUS
 10
24.9513904007
 20
22.4952786071
 11
24.9513904007
 21
28.4450765849
  0
LINE
  5
2A0
100
AcDbEntity
  8
A_RUNDUNGEN
100
AcDbLine
 62
7
  6
CONTINUOUS
 10
24.9513904007
 20
28.4450765849
 11
24.9513904007
 21
40.2450765849
  0
LINE
  5
2A1
100
AcDbEntity
  8
0
100
AcDbLine
 62
7
  6
CONTINUOUS
 10
24.9513904007
 20
40.2450765849
 11
24.9513904007
 21
51.1948745628
  0
LINE
  5
2A2
100
AcDbEntity
  8
0
100
AcDbLine
 62
7
  6
CONTINUOUS
 10
25.4513904007
 20
38.5950765849
 11
25.4513904007
 21
38.2495850821
  0
LINE
  5
2A3
100
AcDbEntity
  8
0
100
AcDbLine
 62
7
  6
CONTINUOUS
 10
25.4513904007
 20
30.4405680877
 11
25.4513904007
 21
30.0950765849
  0
LINE
  5
2A4
100
AcDbEntity
  8
A_RUNDUNGEN
100
AcDbLine
 62
7
  6
CONTINUOUS
 10
25.4513904007
 20
30.4405680877
 11
25.4513904007
 21
38.2495850821
  0
LINE
  5
2A5
100
AcDbEntity
  8
0
100
AcDbLine
 62
7
  6
CONTINUOUS
 10
25.6513904007
 20
27.7450765849
 11
25.6513904007
 21
27.5780627137
  0
LINE
  5
2A6
100
AcDbEntity
  8
0
100
AcDbLine
 62
7
  6
CONTINUOUS
 10
25.6513904007
 20
24.9515185663
 11
25.6513904007
 21
24.2450765849
  0
LINE
  5
2A7
100
AcDbEntity
  8
0
100
AcDbLine
 62
7
  6
CONTINUOUS
 10
25.9513904007
 20
37.6905680877
 11
25.9513904007
 21
30.9995850821
  0
LINE
  5
2A8
100
AcDbEntity
  8
0
100
AcDbLine
 62
7
  6
CONTINUOUS
 10
25.9513904007
 20
23.7868190154
 11
25.9513904007
 21
23.5701284695
  0
LINE
  5
2A9
100
AcDbEntity
  8
0
100
AcDbLine
 62
7
  6
CONTINUOUS
 10
25.9513904007
 20
23.8482018818
 11
25.9513904007
 21
29.5950765849
  0
LINE
  5
2AA
100
AcDbEntity
  8
0
100
AcDbLine
 62
7
  6
CONTINUOUS
 10
25.9513904007
 20
39.0950765849
 11
25.9513904007
 21
49.6267174783
  0
LINE
  5
2AB
100
AcDbEntity
  8
0
100
AcDbLine
 62
7
  6
CONTINUOUS
 10
26.9513904007
 20
25.2450765823
 11
26.9513904007
 21
47.0663726168
  0
LINE
  5
2AC
100
AcDbEntity
  8
0
100
AcDbLine
 62
7
  6
CONTINUOUS
 10
27.4513904616
 20
35.5450765836
 11
27.4513905152
 21
25.2450765836
  0
LINE
  5
2AD
100
AcDbEntity
  8
0
100
AcDbLine
 62
7
  6
CONTINUOUS
 10
27.9513905152
 20
25.2450765862
 11
27.9513904616
 21
35.5447275204
  0
LINE
  5
2AE
100
AcDbEntity
  8
0
100
AcDbLine
 62
7
  6
CONTINUOUS
 10
26.9534324359
 20
47.2450765823
 11
26.9513904007
 21
35.5450765823
  0
LINE
  5
2AF
100
AcDbEntity
  8
0
100
AcDbLine
 62
7
  6
CONTINUOUS
 10
27.4534324359
 20
47.2450765836
 11
27.4513904616
 21
35.5450765836
  0
LINE
  5
2B0
100
AcDbEntity
  8
0
100
AcDbLine
 62
7
  6
CONTINUOUS
 10
27.9513904616
 20
35.5447275204
 11
27.9534324359
 21
47.2450765862
  0
LINE
  5
2B1
100
AcDbEntity
  8
0
100
AcDbLine
 62
7
  6
CONTINUOUS
 10
33.1288380141
 20
47.1386688398
 11
32.5580236504
 21
47.1336874183
  0
LINE
  5
2B2
100
AcDbEntity
  8
A_RUNDUNGEN
100
AcDbLine
 62
7
  6
CONTINUOUS
 10
29.5657151361
 20
47.1075739375
 11
32.5514786242
 21
47.1336303007
  0
LINE
  5
2B3
100
AcDbEntity
  8
A_RUNDUNGEN
100
AcDbLine
 62
7
  6
CONTINUOUS
 10
73.5318632979
 20
45.6924242464
 11
83.2985042314
 21
45.7167364306
  0
LINE
  5
2B4
100
AcDbEntity
  8
0
100
AcDbLine
 62
7
  6
CONTINUOUS
 10
83.2985042314
 20
45.7167364306
 11
85.7209522562
 21
45.7227666515
  0
LINE
  5
2B5
100
AcDbEntity
  8
0
100
AcDbLine
 62
7
  6
CONTINUOUS
 10
50.9807550753
 20
45.6417792682
 11
38.7916527847
 21
45.6173734565
  0
LINE
  5
2B6
100
AcDbEntity
  8
0
100
AcDbLine
 62
7
  6
CONTINUOUS
 10
98.9420970936
 20
42.8904076651
 11
98.6420970936
 21
42.8904076651
  0
LINE
  5
2B7
100
AcDbEntity
  8
0
100
AcDbLine
 62
7
  6
CONTINUOUS
 10
98.9420970936
 20
43.7709240233
 11
98.6420970936
 21
43.7709240233
  0
LINE
  5
2B8
100
AcDbEntity
  8
0
100
AcDbLine
 62
7
  6
CONTINUOUS
 10
98.9420970936
 20
46.3124240233
 11
98.6420970936
 21
46.3124240233
  0
LINE
  5
2B9
100
AcDbEntity
  8
A_ACHSEN
100
AcDbLine
 62
7
  6
CENTER
 10
57.8076907699
 20
46.6643097996
 11
66.7004485703
 21
46.6643097996
  0
LINE
  5
2BA
100
AcDbEntity
  8
A_ACHSEN
100
AcDbLine
 62
7
  6
CONTINUOUS
 10
98.9420970936
 20
47.2390940233
 11
98.6420970936
 21
47.2390940233
  0
LINE
  5
2BB
100
AcDbEntity
  8
0
100
AcDbLine
 62
7
  6
CONTINUOUS
 10
27.9534324359
 20
47.2450765862
 11
26.9534324359
 21
47.2450765823
  0
LINE
  5
2BC
100
AcDbEntity
  8
0
100
AcDbLine
 62
7
  6
CONTINUOUS
 10
67.3746062879
 20
38.9493761362
 11
53.4222086692
 21
45.1279394111
  0
LINE
  5
2BD
100
AcDbEntity
  8
0
100
AcDbLine
 62
7
  6
CONTINUOUS
 10
56.7071984553
 20
35.1681751132
 11
55.1785022589
 21
36.6116383963
  0
LINE
  5
2BE
100
AcDbEntity
  8
A_RUNDUNGEN
100
AcDbLine
 62
7
  6
CONTINUOUS
 10
29.1805952006
 20
47.0048115182
 11
29.1805952006
 21
46.4776590389
  0
LINE
  5
2BF
100
AcDbEntity
  8
A_RUNDUNGEN
100
AcDbLine
 62
7
  6
CONTINUOUS
 10
29.1995900557
 20
47.0111431366
 11
29.1995900557
 21
46.4858792992
  0
LINE
  5
2C0
100
AcDbEntity
  8
0
100
AcDbLine
 62
7
  6
CONTINUOUS
 10
30.9513904007
 20
50.8430553186
 11
30.9513904007
 21
50.5843189312
  0
LINE
  5
2C1
100
AcDbEntity
  8
A_RUNDUNGEN
100
AcDbLine
 62
7
  6
CONTINUOUS
 10
30.9513904007
 20
50.5843189312
 11
30.9513904007
 21
49.9015920744
  0
LINE
  5
2C2
100
AcDbEntity
  8
0
100
AcDbLine
 62
7
  6
CONTINUOUS
 10
30.9513904007
 20
48.7756396614
 11
30.9513904007
 21
49.9015920744
  0
LINE
  5
2C3
100
AcDbEntity
  8
A_ACHSEN
100
AcDbLine
 62
7
  6
CENTER
 10
32.2661432839
 20
33.9577647452
 11
32.2661432839
 21
47.2508305251
  0
LINE
  5
2C4
100
AcDbEntity
  8
A_RUNDUNGEN
100
AcDbLine
 62
7
  6
CONTINUOUS
 10
32.5514786242
 20
47.1336303007
 11
32.5514786242
 21
46.7024061821
  0
LINE
  5
2C5
100
AcDbEntity
  8
A_RUNDUNGEN
100
AcDbLine
 62
7
  6
CONTINUOUS
 10
32.5580236504
 20
47.1336874183
 11
32.5580236504
 21
46.7077469111
  0
LINE
  5
2C6
100
AcDbEntity
  8
A_RUNDUNGEN
100
AcDbLine
 62
7
  6
CONTINUOUS
 10
34.2946515269
 20
48.3091602539
 11
30.4557536684
 21
48.2756586999
  0
LINE
  5
2C7
100
AcDbEntity
  8
0
100
AcDbLine
 62
7
  6
CONTINUOUS
 10
29.9917309286
 20
48.2716092348
 11
30.4557536684
 21
48.2756586999
  0
LINE
  5
2C8
100
AcDbEntity
  8
0
100
AcDbLine
 62
7
  6
CONTINUOUS
 10
30.4557536684
 20
50.0843379697
 11
26.4470271329
 21
50.0493543432
  0
LINE
  5
2C9
100
AcDbEntity
  8
A_RUNDUNGEN
100
AcDbLine
 62
7
  6
CONTINUOUS
 10
53.7535146211
 20
51.5377020473
 11
52.9557536684
 21
51.5307400929
  0
LINE
  5
2CA
100
AcDbEntity
  8
0
100
AcDbLine
 62
7
  6
CONTINUOUS
 10
31.4470271329
 20
51.3430362801
 11
52.9557536684
 21
51.5307400929
  0
LINE
  5
2CB
100
AcDbEntity
  8
0
100
AcDbLine
 62
7
  6
CONTINUOUS
 10
26.2000814097
 20
49.8767140514
 11
30.9513904007
 21
49.9015920744
  0
LINE
  5
2CC
100
AcDbEntity
  8
A_RUNDUNGEN
100
AcDbLine
 62
7
  6
CONTINUOUS
 10
31.0776022327
 20
51.152270059
 11
53.7513904007
 21
51.2709908211
  0
LINE
  5
2CD
100
AcDbEntity
  8
0
100
AcDbLine
 62
7
  6
CONTINUOUS
 10
34.9487376474
 20
52.6907809254
 11
53.4513904007
 21
52.7715144905
  0
LINE
  5
2CE
100
AcDbEntity
  8
A_RUNDUNGEN
100
AcDbLine
 62
7
  6
CONTINUOUS
 10
53.4513904007
 20
52.7715144905
 11
58.8513904007
 21
52.7950765849
  0
LINE
  5
2CF
100
AcDbEntity
  8
0
100
AcDbLine
 62
7
  6
CONTINUOUS
 10
85.9168565413
 20
50.2232682602
 11
78.5453065055
 21
50.2049181966
  0
LINE
  5
2D0
100
AcDbEntity
  8
A_RUNDUNGEN
100
AcDbLine
 62
7
  6
CONTINUOUS
 10
66.5754151862
 20
50.1751214421
 11
78.5453065055
 21
50.2049181966
  0
LINE
  5
2D1
100
AcDbEntity
  8
0
100
AcDbLine
 62
7
  6
CONTINUOUS
 10
38.5755362446
 20
50.1169497543
 11
57.9169987552
 21
50.1556764859
  0
LINE
  5
2D2
100
AcDbEntity
  8
0
100
AcDbLine
 62
7
  6
CONTINUOUS
 10
98.9420970936
 20
48.1163803814
 11
98.6420970936
 21
48.1163803814
  0
LINE
  5
2D3
100
AcDbEntity
  8
0
100
AcDbLine
 62
7
  6
CONTINUOUS
 10
98.9420970936
 20
48.7182469201
 11
98.6420970936
 21
48.7182469201
  0
LINE
  5
2D4
100
AcDbEntity
  8
0
100
AcDbLine
 62
7
  6
CONTINUOUS
 10
98.9420970936
 20
48.7333940233
 11
98.6420970936
 21
48.7333940233
  0
LINE
  5
2D5
100
AcDbEntity
  8
A_RUNDUNGEN
100
AcDbLine
 62
7
  6
CONTINUOUS
 10
90.4858015226
 20
50.2856170263
 11
88.6101629492
 21
50.2856170266
  0
LINE
  5
2D6
100
AcDbEntity
  8
A_RUNDUNGEN
100
AcDbLine
 62
7
  6
CONTINUOUS
 10
68.2540750466
 20
51.4856170301
 11
68.8564676753
 21
51.48561703
  0
LINE
  5
2D7
100
AcDbEntity
  8
A_RUNDUNGEN
100
AcDbLine
 62
7
  6
CONTINUOUS
 10
64.5420970961
 20
51.9856170307
 11
66.2841906651
 21
51.9856170304
  0
LINE
  5
2D8
100
AcDbEntity
  8
A_RUNDUNGEN
100
AcDbLine
 62
7
  6
CONTINUOUS
 10
60.3513904007
 20
52.7450765849
 11
58.8513904007
 21
52.7450765849
  0
LINE
  5
2D9
100
AcDbEntity
  8
0
100
AcDbLine
 62
7
  6
CONTINUOUS
 10
50.5513904007
 20
52.8450765849
 11
60.5513904007
 21
52.8450765849
  0
LINE
  5
2DA
100
AcDbEntity
  8
A_RUNDUNGEN
100
AcDbLine
 62
7
  6
CONTINUOUS
 10
64.0420970936
 20
53.0798654082
 11
65.5420970936
 21
53.0798654082
  0
LINE
  5
2DB
100
AcDbEntity
  8
0
100
AcDbLine
 62
7
  6
CONTINUOUS
 10
100.5420970936
 20
53.1798654082
 11
64.0420970936
 21
53.1798654082
  0
LINE
  5
2DC
100
AcDbEntity
  8
0
100
AcDbLine
 62
7
  6
CONTINUOUS
 10
50.5513904007
 20
53.3450765849
 11
46.5513904007
 21
53.3450765849
  0
LINE
  5
2DD
100
AcDbEntity
  8
0
100
AcDbLine
 62
7
  6
CONTINUOUS
 10
65.5420970936
 20
53.1298654082
 11
92.747356064
 21
53.0111593192
  0
LINE
  5
2DE
100
AcDbEntity
  8
A_RUNDUNGEN
100
AcDbLine
 62
7
  6
CONTINUOUS
 10
65.5420970936
 20
53.1298654082
 11
92.747356064
 21
53.0111593192
  0
LINE
  5
2DF
100
AcDbEntity
  8
A_RUNDUNGEN
100
AcDbLine
 62
7
  6
CONTINUOUS
 10
60.0557536684
 20
51.7260962517
 11
53.7513904007
 21
51.7811135965
  0
LINE
  5
2E0
100
AcDbEntity
  8
0
100
AcDbLine
 62
7
  6
CONTINUOUS
 10
82.3331584972
 20
50.4264986483
 11
92.6316209735
 21
50.2485362264
  0
LINE
  5
2E1
100
AcDbEntity
  8
0
100
AcDbLine
 62
7
  6
CONTINUOUS
 10
92.640259926
 20
50.7484615893
 11
82.3421464634
 21
50.9264179801
  0
LINE
  5
2E2
100
AcDbEntity
  8
A_RUNDUNGEN
100
AcDbLine
 62
7
  6
CONTINUOUS
 10
96.4595495
 20
50.0510129832
 11
95.6230612245
 21
50.0656139403
  0
LINE
  5
2E3
100
AcDbEntity
  8
0
100
AcDbLine
 62
7
  6
CONTINUOUS
 10
96.4595495
 20
50.0510129832
 11
92.0713861914
 21
50.1276086586
  0
LINE
  5
2E4
100
AcDbEntity
  8
A_RUNDUNGEN
100
AcDbLine
 62
7
  6
CONTINUOUS
 10
93.7148006874
 20
50.0989227519
 11
92.0713861914
 21
50.1276086586
  0
LINE
  5
2E5
100
AcDbEntity
  8
0
100
AcDbLine
 62
7
  6
CONTINUOUS
 10
70.6349402867
 20
50.6306918676
 11
82.3331584972
 21
50.4264986483
  0
LINE
  5
2E6
100
AcDbEntity
  8
0
100
AcDbLine
 62
7
  6
CONTINUOUS
 10
90.6894106073
 20
50.7807159425
 11
70.6435792392
 21
51.1306172305
  0
LINE
  5
2E7
100
AcDbEntity
  8
0
100
AcDbLine
 62
7
  6
CONTINUOUS
 10
98.6577978804
 20
49.1947648987
 11
97.6275671841
 21
49.2487570016
  0
LINE
  5
2E8
100
AcDbEntity
  8
A_RUNDUNGEN
100
AcDbLine
 62
7
  6
CONTINUOUS
 10
97.6275671841
 20
49.2487570016
 11
98.6577978804
 21
49.1947648987
  0
LINE
  5
2E9
100
AcDbEntity
  8
0
100
AcDbLine
 62
7
  6
CONTINUOUS
 10
70.6437104843
 20
51.1382122202
 11
65.9466925959
 21
52.0512200094
  0
LINE
  5
2EA
100
AcDbEntity
  8
A_RUNDUNGEN
100
AcDbLine
 62
7
  6
CONTINUOUS
 10
70.6437104843
 20
51.1382122202
 11
65.9466925959
 21
52.0512200094
  0
LINE
  5
2EB
100
AcDbEntity
  8
A_RUNDUNGEN
100
AcDbLine
 62
7
  6
CONTINUOUS
 10
34.9513904161
 20
24.0141830993
 11
34.9513904007
 21
24.0144082999
  0
LINE
  5
2EC
100
AcDbEntity
  8
A_RUNDUNGEN
100
AcDbLine
 62
7
  6
CONTINUOUS
 10
34.9513904007
 20
28.9000216542
 11
34.9513904007
 21
23.5796060373
  0
LINE
  5
2ED
100
AcDbEntity
  8
0
100
AcDbLine
 62
7
  6
CONTINUOUS
 10
34.9513904007
 20
22.5175998181
 11
34.9513904007
 21
23.5796060373
  0
LINE
  5
2EE
100
AcDbEntity
  8
0
100
AcDbLine
 62
7
  6
CONTINUOUS
 10
34.9845445975
 20
26.3166944733
 11
34.9496384555
 21
22.3168467811
  0
LWPOLYLINE
  5
2EF
100
AcDbEntity
  8
0
100
AcDbPolyline
 62
7
  6
CONTINUOUS
 90
3
 70
0
 10
34.9532116856
 20
23.9790465587
 10
34.9532460443
 20
23.9807864365
 10
34.9513826898
 20
24.0142356708
  0
LINE
  5
2F0
100
AcDbEntity
  8
A_RUNDUNGEN
100
AcDbLine
 62
7
  6
CONTINUOUS
 10
28.0812546365
 20
45.0809145864
 11
27.9529456406
 21
44.4557782214
  0
LINE
  5
2F1
100
AcDbEntity
  8
0
100
AcDbLine
 62
7
  6
CONTINUOUS
 10
34.8485724934
 20
52.6853123401
 11
25.3991261691
 21
51.6921355105
  0
LINE
  5
2F2
100
AcDbEntity
  8
0
100
AcDbLine
 62
7
  6
CONTINUOUS
 10
119.0420970936
 20
56.9798654082
 11
64.0420970936
 21
56.9798654082
  0
LINE
  5
2F3
100
AcDbEntity
  8
0
100
AcDbLine
 62
7
  6
CONTINUOUS
 10
64.0513904007
 20
57.0450765849
 11
70.0513904007
 21
57.0450765849
  0
LINE
  5
2F4
100
AcDbEntity
  8
0
100
AcDbLine
 62
7
  6
CONTINUOUS
 10
64.2934646956
 20
58.0450765849
 11
69.8093161058
 21
58.0450765849
  0
LINE
  5
2F5
100
AcDbEntity
  8
0
100
AcDbLine
 62
7
  6
CONTINUOUS
 10
98.650856745
 20
52.187010727
 11
92.828241939
 21
53.005325872
  0
LINE
  5
2F6
100
AcDbEntity
  8
A_RUNDUNGEN
100
AcDbLine
 62
7
  6
CONTINUOUS
 10
98.650856745
 20
52.187010727
 11
92.828241939
 21
53.005325872
  0
LINE
  5
2F7
100
AcDbEntity
  8
0
100
AcDbLine
 62
7
  6
CONTINUOUS
 10
59.2643155258
 20
29.9582641617
 11
56.7071984553
 21
35.1681751132
  0
LINE
  5
2F8
100
AcDbEntity
  8
A_RUNDUNGEN
100
AcDbLine
 62
7
  6
CONTINUOUS
 10
56.1908556163
 20
36.220180218
 11
56.7071984553
 21
35.1681751132
  0
LINE
  5
2F9
100
AcDbEntity
  8
0
100
AcDbLine
 62
7
  6
CONTINUOUS
 10
72.5513904007
 20
60.8450765849
 11
61.5513904007
 21
60.8450765849
  0
LINE
  5
2FA
100
AcDbEntity
  8
0
100
AcDbLine
 62
7
  6
CONTINUOUS
 10
73.5513904007
 20
61.8450765849
 11
60.5513904007
 21
61.8450765849
  0
LINE
  5
2FB
100
AcDbEntity
  8
0
100
AcDbLine
 62
7
  6
CONTINUOUS
 10
60.5513904007
 20
58.8450765849
 11
64.0513904007
 21
57.0450765849
  0
LINE
  5
2FC
100
AcDbEntity
  8
0
100
AcDbLine
 62
7
  6
CONTINUOUS
 10
61.5513904007
 20
59.4552862223
 11
64.2934646956
 21
58.0450765849
  0
LINE
  5
2FD
100
AcDbEntity
  8
0
100
AcDbLine
 62
7
  6
CONTINUOUS
 10
65.7825174277
 20
50.2069156797
 11
74.0919985589
 21
41.93064362
  0
LINE
  5
2FE
100
AcDbEntity
  8
0
100
AcDbLine
 62
7
  6
CONTINUOUS
 10
49.2945653945
 20
30.3802697082
 11
49.3014066668
 21
27.6320077548
  0
LINE
  5
2FF
100
AcDbEntity
  8
A_RUNDUNGEN
100
AcDbLine
 62
7
  6
CONTINUOUS
 10
49.2945653945
 20
30.3802697082
 11
49.2729932538
 21
39.0461859523
  0
LINE
  5
300
100
AcDbEntity
  8
0
100
AcDbLine
 62
7
  6
CONTINUOUS
 10
46.5513904007
 20
105.8450765849
 11
46.5513904007
 21
52.7414073698
  0
LINE
  5
301
100
AcDbEntity
  8
A_RUNDUNGEN
100
AcDbLine
 62
7
  6
CONTINUOUS
 10
46.5513904007
 20
20.8450765849
 11
46.5513904007
 21
20.9487458
  0
LINE
  5
302
100
AcDbEntity
  8
0
100
AcDbLine
 62
7
  6
CONTINUOUS
 10
46.9513904007
 20
21.716156756
 11
46.9513904007
 21
20.9470004597
  0
LINE
  5
303
100
AcDbEntity
  8
0
100
AcDbLine
 62
7
  6
CONTINUOUS
 10
47.1513904007
 20
22.0387109239
 11
47.1513904007
 21
25.1291113693
  0
LINE
  5
304
100
AcDbEntity
  8
0
100
AcDbLine
 62
7
  6
CONTINUOUS
 10
50.5513904007
 20
146.8450765849
 11
50.5513904007
 21
52.7588607731
  0
LINE
  5
305
100
AcDbEntity
  8
A_RUNDUNGEN
100
AcDbLine
 62
7
  6
CONTINUOUS
 10
50.5513904007
 20
20.9312923967
 11
50.5513904007
 21
20.8450765849
  0
LINE
  5
306
100
AcDbEntity
  8
0
100
AcDbLine
 62
7
  6
CONTINUOUS
 10
46.949178943
 20
22.2118316604
 11
46.984085085
 21
26.2116793527
  0
LINE
  5
307
100
AcDbEntity
  8
A_RUNDUNGEN
100
AcDbLine
 62
7
  6
CONTINUOUS
 10
37.8770474742
 20
43.0703319143
 11
36.449533777
 21
36.1153189996
  0
LINE
  5
308
100
AcDbEntity
  8
0
100
AcDbLine
 62
7
  6
CONTINUOUS
 10
24.5513904007
 20
26.1872605026
 11
24.610794004
 21
26.3235554589
  0
LINE
  5
309
100
AcDbEntity
  8
A_RUNDUNGEN
100
AcDbLine
 62
7
  6
CONTINUOUS
 10
91.8301123946
 20
50.1945198043
 11
91.7089366401
 21
50.2644806588
  0
LINE
  5
30A
100
AcDbEntity
  8
0
100
AcDbLine
 62
7
  6
CONTINUOUS
 10
91.8301123946
 20
50.1945198043
 11
90.9306844041
 21
50.7138047968
  0
LINE
  5
30B
100
AcDbEntity
  8
0
100
AcDbLine
 62
7
  6
CONTINUOUS
 10
83.2985042314
 20
45.7167364306
 11
78.5453065055
 21
50.2049181966
  0
LINE
  5
30C
100
AcDbEntity
  8
A_FASEN
100
AcDbLine
 62
7
  6
CONTINUOUS
 10
99.9420970932
 20
23.6581221957
 11
99.7420970932
 21
23.8511893964
  0
LINE
  5
30D
100
AcDbEntity
  8
A_FASEN
100
AcDbLine
 62
7
  6
CONTINUOUS
 10
99.9347790339
 20
23.5101335953
 11
99.7357547752
 21
23.7298654082
  0
LINE
  5
30E
100
AcDbEntity
  8
0
100
AcDbLine
 62
7
  6
CONTINUOUS
 10
99.9347790339
 20
23.5101335953
 11
99.7357547752
 21
23.7298654082
  0
LINE
  5
30F
100
AcDbEntity
  8
A_RUNDUNGEN
100
AcDbLine
 62
7
  6
CONTINUOUS
 10
55.1785022589
 20
36.6116383963
 11
55.1176939426
 21
38.732087016
  0
LINE
  5
310
100
AcDbEntity
  8
0
100
AcDbLine
 62
7
  6
CONTINUOUS
 10
53.4513904007
 20
52.7715144905
 11
53.4513904007
 21
52.0307210545
  0
LINE
  5
311
100
AcDbEntity
  8
A_RUNDUNGEN
100
AcDbLine
 62
7
  6
CONTINUOUS
 10
53.4513904007
 20
50.146735155
 11
53.4513904007
 21
51.2872376465
  0
LINE
  5
312
100
AcDbEntity
  8
0
100
AcDbLine
 62
7
  6
CONTINUOUS
 10
53.7513904007
 20
50.1473358345
 11
53.7513904007
 21
51.7811135965
  0
LINE
  5
313
100
AcDbEntity
  8
A_ACHSEN
100
AcDbLine
 62
7
  6
CONTINUOUS
 10
54.5513904007
 20
28.0895210294
 11
54.5513904007
 21
27.2006321405
  0
LINE
  5
314
100
AcDbEntity
  8
A_ACHSEN
100
AcDbLine
 62
7
  6
CENTER
 10
54.5513904007
 20
25.4228543627
 11
54.5513904007
 21
22.0950765849
  0
LINE
  5
315
100
AcDbEntity
  8
A_ACHSEN
100
AcDbLine
 62
7
  6
CENTER
 10
54.5513904007
 20
29.8672988072
 11
54.5513904007
 21
33.1950765849
  0
LINE
  5
316
100
AcDbEntity
  8
0
100
AcDbLine
 62
7
  6
CONTINUOUS
 10
24.610794004
 20
26.3235554589
 11
24.716445561
 21
26.5448251598
  0
LINE
  5
317
100
AcDbEntity
  8
0
100
AcDbLine
 62
7
  6
CONTINUOUS
 10
87.1366196357
 20
45.140502432
 11
88.0498392517
 21
44.2318180973
  0
LINE
  5
318
100
AcDbEntity
  8
A_RUNDUNGEN
100
AcDbLine
 62
7
  6
CONTINUOUS
 10
58.8513904007
 20
20.8950765849
 11
58.8513904007
 21
22.0535465991
  0
LINE
  5
319
100
AcDbEntity
  8
A_RUNDUNGEN
100
AcDbLine
 62
7
  6
CONTINUOUS
 10
58.8513904007
 20
51.7366065707
 11
58.8513904007
 21
52.7950765849
  0
LINE
  5
31A
100
AcDbEntity
  8
A_RUNDUNGEN
100
AcDbLine
 62
7
  6
CONTINUOUS
 10
60.3513904007
 20
52.7450765849
 11
60.3513904007
 21
51.6250510187
  0
LINE
  5
31B
100
AcDbEntity
  8
A_RUNDUNGEN
100
AcDbLine
 62
7
  6
CONTINUOUS
 10
60.3513904007
 20
22.1651021512
 11
60.3513904007
 21
20.9450765849
  0
LINE
  5
31C
100
AcDbEntity
  8
0
100
AcDbLine
 62
7
  6
CONTINUOUS
 10
60.5513904007
 20
61.8450765849
 11
60.5513904007
 21
52.8450765849
  0
LINE
  5
31D
100
AcDbEntity
  8
0
100
AcDbLine
 62
7
  6
CONTINUOUS
 10
60.5513904007
 20
16.8450765849
 11
60.5513904007
 21
20.8450765849
  0
LINE
  5
31E
100
AcDbEntity
  8
A_RUNDUNGEN
100
AcDbLine
 62
7
  6
CONTINUOUS
 10
60.5513904007
 20
20.8450765849
 11
60.5513904007
 21
40.4428342082
  0
LINE
  5
31F
100
AcDbEntity
  8
A_RUNDUNGEN
100
AcDbLine
 62
7
  6
CONTINUOUS
 10
60.5513904007
 20
51.4705971103
 11
60.5513904007
 21
52.8450765849
  0
LINE
  5
320
100
AcDbEntity
  8
0
100
AcDbLine
 62
7
  6
CONTINUOUS
 10
61.5513904007
 20
60.8450765849
 11
61.5513904007
 21
59.4552862223
  0
LINE
  5
321
100
AcDbEntity
  8
A_ACHSEN
100
AcDbLine
 62
7
  6
CENTER
 10
62.2540696701
 20
42.2179308994
 11
62.2540696701
 21
51.1106886998
  0
LINE
  5
322
100
AcDbEntity
  8
A_RUNDUNGEN
100
AcDbLine
 62
7
  6
CONTINUOUS
 10
56.9817139375
 20
38.8110855063
 11
56.9340175282
 21
34.9072755339
  0
LINE
  5
323
100
AcDbEntity
  8
0
100
AcDbLine
 62
7
  6
CONTINUOUS
 10
57.0085446465
 20
38.8276810134
 11
56.9575998879
 21
34.6580032557
  0
LINE
  5
324
100
AcDbEntity
  8
0
100
AcDbLine
 62
7
  6
CONTINUOUS
 10
95.0902899729
 20
43.5745102219
 11
90.1638586797
 21
48.4764756018
  0
LINE
  5
325
100
AcDbEntity
  8
0
100
AcDbLine
 62
7
  6
CONTINUOUS
 10
67.6308042898
 20
34.7363000819
 11
67.5808768175
 21
38.8227160145
  0
LINE
  5
326
100
AcDbEntity
  8
A_RUNDUNGEN
100
AcDbLine
 62
7
  6
CONTINUOUS
 10
67.6548279175
 20
34.9494558832
 11
67.6077060475
 21
38.8062415645
  0
LINE
  5
327
100
AcDbEntity
  8
0
100
AcDbLine
 62
7
  6
CONTINUOUS
 10
64.0420970936
 20
56.9798654082
 11
64.0420970936
 21
53.0537006293
  0
LINE
  5
328
100
AcDbEntity
  8
0
100
AcDbLine
 62
7
  6
CONTINUOUS
 10
64.0420970936
 20
16.9798654082
 11
64.0420970936
 21
21.3060301872
  0
LINE
  5
329
100
AcDbEntity
  8
A_RUNDUNGEN
100
AcDbLine
 62
7
  6
CONTINUOUS
 10
64.0420970936
 20
21.2798654082
 11
64.0420970941
 21
40.4251166849
  0
LINE
  5
32A
100
AcDbEntity
  8
A_RUNDUNGEN
100
AcDbLine
 62
7
  6
CONTINUOUS
 10
64.042097096
 20
51.4344727616
 11
64.0420970936
 21
53.0798654082
  0
LINE
  5
32B
100
AcDbEntity
  8
A_RUNDUNGEN
100
AcDbLine
 62
7
  6
CONTINUOUS
 10
65.5420970936
 20
21.2298654082
 11
65.5420970936
 21
21.2798654082
  0
LINE
  5
32C
100
AcDbEntity
  8
A_RUNDUNGEN
100
AcDbLine
 62
7
  6
CONTINUOUS
 10
65.5420970936
 20
51.9856170305
 11
65.5420970936
 21
53.0798654082
  0
LINE
  5
32D
100
AcDbEntity
  8
0
100
AcDbLine
 62
7
  6
CONTINUOUS
 10
65.5420970936
 20
52.5420336011
 11
65.5420970936
 21
53.1298654082
  0
LINE
  5
32E
100
AcDbEntity
  8
A_RUNDUNGEN
100
AcDbLine
 62
7
  6
CONTINUOUS
 10
64.051148563
 20
28.7458860293
 11
64.0420970921
 21
28.5680696613
  0
LINE
  5
32F
100
AcDbEntity
  8
0
100
AcDbLine
 62
7
  6
CONTINUOUS
 10
29.4320585797
 20
43.4270558412
 11
34.3364227538
 21
48.3510990906
  0
LINE
  5
330
100
AcDbEntity
  8
A_RUNDUNGEN
100
AcDbLine
 62
7
  6
CONTINUOUS
 10
95.6230612245
 20
50.0656139403
 11
96.7014035025
 21
48.987271662
  0
LINE
  5
331
100
AcDbEntity
  8
A_ACHSEN
100
AcDbLine
 62
7
  6
CONTINUOUS
 10
70.0420970919
 20
28.1243098519
 11
70.0420970919
 21
27.235420963
  0
LINE
  5
332
100
AcDbEntity
  8
A_ACHSEN
100
AcDbLine
 62
7
  6
CENTER
 10
70.0420970919
 20
25.4576431853
 11
70.0420970919
 21
21.8292067906
  0
LINE
  5
333
100
AcDbEntity
  8
A_ACHSEN
100
AcDbLine
 62
7
  6
CENTER
 10
70.0420970919
 20
29.9020876297
 11
70.0420970919
 21
33.5305240244
  0
LINE
  5
334
100
AcDbEntity
  8
0
100
AcDbLine
 62
7
  6
CONTINUOUS
 10
72.5513904007
 20
59.4552862223
 11
72.5513904007
 21
60.8450765849
  0
LINE
  5
335
100
AcDbEntity
  8
0
100
AcDbLine
 62
7
  6
CONTINUOUS
 10
73.5513904007
 20
58.8450765849
 11
73.5513904007
 21
146.8450765849
  0
LINE
  5
336
100
AcDbEntity
  8
0
100
AcDbLine
 62
7
  6
CONTINUOUS
 10
74.0420970936
 20
53.1798654082
 11
74.0420970936
 21
53.0927769263
  0
LINE
  5
337
100
AcDbEntity
  8
0
100
AcDbLine
 62
7
  6
CONTINUOUS
 10
74.0420970936
 20
21.2669538902
 11
74.0420970936
 21
21.1798654082
  0
LINE
  5
338
100
AcDbEntity
  8
0
100
AcDbLine
 62
7
  6
CONTINUOUS
 10
70.6435792392
 20
51.1306172305
 11
70.6349402867
 21
50.6306918676
  0
LINE
  5
339
100
AcDbEntity
  8
0
100
AcDbLine
 62
7
  6
CONTINUOUS
 10
37.3786149544
 20
45.0287565685
 11
36.4694859518
 21
44.1159796276
  0
LINE
  5
33A
100
AcDbEntity
  8
0
100
AcDbLine
 62
7
  6
CONTINUOUS
 10
75.2692323348
 20
39.1045679594
 11
75.2920865682
 21
27.6903772772
  0
LINE
  5
33B
100
AcDbEntity
  8
A_RUNDUNGEN
100
AcDbLine
 62
7
  6
CONTINUOUS
 10
75.7593483695
 20
25.1761840845
 11
75.7593483705
 21
30.7173126612
  0
LINE
  5
33C
100
AcDbEntity
  8
A_RUNDUNGEN
100
AcDbLine
 62
7
  6
CONTINUOUS
 10
76.0421012001
 20
23.911062108
 11
76.042097091
 21
22.079857791
  0
LINE
  5
33D
100
AcDbEntity
  8
A_RUNDUNGEN
100
AcDbLine
 62
7
  6
CONTINUOUS
 10
79.3420970936
 20
23.0675266281
 11
79.3420970936
 21
21.2900796496
  0
LINE
  5
33E
100
AcDbEntity
  8
0
100
AcDbLine
 62
7
  6
CONTINUOUS
 10
79.3420970936
 20
21.2900796496
 11
79.3420970936
 21
23.0675266281
  0
LINE
  5
33F
100
AcDbEntity
  8
A_RUNDUNGEN
100
AcDbLine
 62
7
  6
CONTINUOUS
 10
86.6555141552
 20
43.2073014353
 11
88.0879405811
 21
36.2532986646
  0
LINE
  5
340
100
AcDbEntity
  8
0
100
AcDbLine
 62
7
  6
CONTINUOUS
 10
84.4613823358
 20
24.2386328147
 11
84.39157271
 21
28.2380235953
  0
LINE
  5
341
100
AcDbEntity
  8
A_RUNDUNGEN
100
AcDbLine
 62
7
  6
CONTINUOUS
 10
64.1812749361
 20
28.7753180509
 11
65.0666921002
 21
30.8612301708
  0
LINE
  5
342
100
AcDbEntity
  8
0
100
AcDbLine
 62
7
  6
CONTINUOUS
 10
53.595458493
 20
45.0512189055
 11
50.4375216927
 21
41.8775207112
  0
LINE
  5
343
100
AcDbEntity
  8
0
100
AcDbLine
 62
7
  6
CONTINUOUS
 10
29.9129974972
 20
48.2581620951
 11
27.1204753355
 21
47.3029159579
  0
LINE
  5
344
100
AcDbEntity
  8
A_RUNDUNGEN
100
AcDbLine
 62
7
  6
CONTINUOUS
 10
27.9533191085
 20
46.5957194875
 11
29.4119645209
 21
47.081934625
  0
LINE
  5
345
100
AcDbEntity
  8
0
100
AcDbLine
 62
7
  6
CONTINUOUS
 10
65.3188297072
 20
29.9718613089
 11
68.3641329011
 21
36.2475188018
  0
LINE
  5
346
100
AcDbEntity
  8
0
100
AcDbLine
 62
7
  6
CONTINUOUS
 10
55.1785022589
 20
36.6116383963
 11
49.2945653945
 21
30.3802697082
  0
LINE
  5
347
100
AcDbEntity
  8
0
100
AcDbLine
 62
7
  6
CONTINUOUS
 10
69.8093161058
 20
58.0450765849
 11
72.5513904007
 21
59.4552862223
  0
LINE
  5
348
100
AcDbEntity
  8
0
100
AcDbLine
 62
7
  6
CONTINUOUS
 10
70.0513904007
 20
57.0450765849
 11
73.5513904007
 21
58.8450765849
  0
LINE
  5
349
100
AcDbEntity
  8
0
100
AcDbLine
 62
7
  6
CONTINUOUS
 10
25.5895870018
 20
30.6641748855
 11
25.8131937996
 21
30.7759782844
  0
LINE
  5
34A
100
AcDbEntity
  8
0
100
AcDbLine
 62
7
  6
CONTINUOUS
 10
50.5513904007
 20
105.8450765849
 11
46.5513904007
 21
105.8450765849
  0
LINE
  5
34B
100
AcDbEntity
  8
A_RUNDUNGEN
100
AcDbLine
 62
7
  6
CONTINUOUS
 10
96.4498842548
 20
45.2248034435
 11
97.8823106806
 21
38.2708006728
  0
LINE
  5
34C
100
AcDbEntity
  8
0
100
AcDbLine
 62
7
  6
CONTINUOUS
 10
96.3897398737
 20
28.4477491333
 11
96.4595494994
 21
24.4483583527
  0
LINE
  5
34D
100
AcDbEntity
  8
A_ACHSEN
100
AcDbLine
 62
7
  6
CENTER
 10
92.2920971017
 20
34.6607633924
 11
92.2920971017
 21
46.6989673891
  0
LINE
  5
34E
100
AcDbEntity
  8
A_RUNDUNGEN
100
AcDbLine
 62
7
  6
CONTINUOUS
 10
93.8478487149
 20
31.5071965216
 11
93.8478487143
 21
28.4033802581
  0
LINE
  5
34F
100
AcDbEntity
  8
A_RUNDUNGEN
100
AcDbLine
 62
7
  6
CONTINUOUS
 10
96.811979507
 20
45.8811798894
 11
96.8119795072
 21
46.6097433513
  0
LINE
  5
350
100
AcDbEntity
  8
A_RUNDUNGEN
100
AcDbLine
 62
7
  6
CONTINUOUS
 10
96.8119795072
 20
46.6286330009
 11
96.8119795072
 21
46.7719642821
  0
LINE
  5
351
100
AcDbEntity
  8
A_RUNDUNGEN
100
AcDbLine
 62
7
  6
CONTINUOUS
 10
96.8168594071
 20
45.8811798894
 11
96.8168594067
 21
43.4432486094
  0
LINE
  5
352
100
AcDbEntity
  8
A_RUNDUNGEN
100
AcDbLine
 62
7
  6
CONTINUOUS
 10
96.8402080919
 20
35.4621492576
 11
96.840208092
 21
36.098166799
  0
LINE
  5
353
100
AcDbEntity
  8
A_RUNDUNGEN
100
AcDbLine
 62
7
  6
CONTINUOUS
 10
96.8402080939
 20
46.9366408066
 11
96.840208094
 21
47.9314565844
  0
LINE
  5
354
100
AcDbEntity
  8
A_RUNDUNGEN
100
AcDbLine
 62
7
  6
CONTINUOUS
 10
96.8478487155
 20
35.4205097717
 11
96.8478487153
 21
33.8996055516
  0
LINE
  5
355
100
AcDbEntity
  8
A_RUNDUNGEN
100
AcDbLine
 62
7
  6
CONTINUOUS
 10
96.8478487176
 20
47.9770691878
 11
96.8478487178
 21
48.633721637
  0
LINE
  5
356
100
AcDbEntity
  8
A_RUNDUNGEN
100
AcDbLine
 62
7
  6
CONTINUOUS
 10
97.4420970936
 20
49.051165288
 11
97.4420970936
 21
45.6776804787
  0
LINE
  5
357
100
AcDbEntity
  8
A_RUNDUNGEN
100
AcDbLine
 62
7
  6
CONTINUOUS
 10
97.4420970936
 20
25.4482060479
 11
97.4420970936
 21
35.3820503377
  0
LINE
  5
358
100
AcDbEntity
  8
0
100
AcDbLine
 62
7
  6
CONTINUOUS
 10
97.4420970936
 20
31.2342478813
 11
97.4420970936
 21
35.3820503377
  0
LINE
  5
359
100
AcDbEntity
  8
0
100
AcDbLine
 62
7
  6
CONTINUOUS
 10
92.6316209735
 20
50.2485362264
 11
92.640259926
 21
50.7484615893
  0
LINE
  5
35A
100
AcDbEntity
  8
0
100
AcDbLine
 62
7
  6
CONTINUOUS
 10
98.4420970936
 20
23.9776932109
 11
98.4420970936
 21
30.4820376056
  0
LINE
  5
35B
100
AcDbEntity
  8
A_RUNDUNGEN
100
AcDbLine
 62
7
  6
CONTINUOUS
 10
98.4420970936
 20
23.9776932109
 11
98.4420970936
 21
30.4820376056
  0
LINE
  5
35C
100
AcDbEntity
  8
0
100
AcDbLine
 62
7
  6
CONTINUOUS
 10
98.6420970936
 20
40.1798654082
 11
98.6420970936
 21
41.8542056082
  0
LINE
  5
35D
100
AcDbEntity
  8
A_ACHSEN
100
AcDbLine
 62
7
  6
CONTINUOUS
 10
98.6420970936
 20
40.1798684326
 11
98.6420970936
 21
41.8536566923
  0
LINE
  5
35E
100
AcDbEntity
  8
0
100
AcDbLine
 62
7
  6
CONTINUOUS
 10
98.6420970936
 20
42.2735494408
 11
98.6420970936
 21
46.3124240233
  0
LINE
  5
35F
100
AcDbEntity
  8
A_ACHSEN
100
AcDbLine
 62
7
  6
CONTINUOUS
 10
98.6420970936
 20
44.6380940233
 11
98.6420970936
 21
47.2390940233
  0
LINE
  5
360
100
AcDbEntity
  8
0
100
AcDbLine
 62
7
  6
CONTINUOUS
 10
98.6420970936
 20
47.2390940233
 11
98.6420970936
 21
48.7332386058
  0
LINE
  5
361
100
AcDbEntity
  8
A_RUNDUNGEN
100
AcDbLine
 62
7
  6
CONTINUOUS
 10
98.9420970936
 20
37.4645547783
 11
98.9420970936
 21
40.1798654084
  0
LINE
  5
362
100
AcDbEntity
  8
0
100
AcDbLine
 62
7
  6
CONTINUOUS
 10
98.9420970936
 20
37.4645547783
 11
98.9420970936
 21
40.1798654082
  0
LINE
  5
363
100
AcDbEntity
  8
0
100
AcDbLine
 62
7
  6
CONTINUOUS
 10
98.9420970936
 20
41.8542056082
 11
98.9420970936
 21
42.2885411265
  0
LINE
  5
364
100
AcDbEntity
  8
A_RUNDUNGEN
100
AcDbLine
 62
7
  6
CONTINUOUS
 10
98.9420970936
 20
41.8536597165
 11
98.9420970936
 21
42.2733940233
  0
LINE
  5
365
100
AcDbEntity
  8
0
100
AcDbLine
 62
7
  6
CONTINUOUS
 10
98.9420970936
 20
42.8904076651
 11
98.9420970936
 21
43.7709240233
  0
LINE
  5
366
100
AcDbEntity
  8
0
100
AcDbLine
 62
7
  6
CONTINUOUS
 10
98.9420970936
 20
46.3124240233
 11
98.9420970936
 21
48.1163803814
  0
LINE
  5
367
100
AcDbEntity
  8
0
100
AcDbLine
 62
7
  6
CONTINUOUS
 10
98.9420970936
 20
48.7182469201
 11
98.9420970936
 21
48.8951760382
  0
LINE
  5
368
100
AcDbEntity
  8
A_RUNDUNGEN
100
AcDbLine
 62
7
  6
CONTINUOUS
 10
98.9420970936
 20
48.6798654082
 11
98.9420970936
 21
48.8951760382
  0
LINE
  5
369
100
AcDbEntity
  8
0
100
AcDbLine
 62
7
  6
CONTINUOUS
 10
99.4420970936
 20
30.7298654082
 11
99.4420970936
 21
23.7298654082
  0
LINE
  5
36A
100
AcDbEntity
  8
A_FASEN
100
AcDbLine
 62
7
  6
CONTINUOUS
 10
99.7420970936
 20
30.7298654082
 11
99.7420970936
 21
23.8511893934
  0
LINE
  5
36B
100
AcDbEntity
  8
A_FASEN
100
AcDbLine
 62
7
  6
CONTINUOUS
 10
99.9420970936
 20
30.9298654082
 11
99.9420970936
 21
23.6581221926
  0
LINE
  5
36C
100
AcDbEntity
  8
0
100
AcDbLine
 62
7
  6
CONTINUOUS
 10
99.9420970936
 20
30.9298654082
 11
99.9420970936
 21
50.7016086239
  0
LINE
  5
36D
100
AcDbEntity
  8
A_RUNDUNGEN
100
AcDbLine
 62
7
  6
CONTINUOUS
 10
99.9420970936
 20
30.9298654082
 11
99.9420970936
 21
50.7016086239
  0
LINE
  5
36E
100
AcDbEntity
  8
0
100
AcDbLine
 62
7
  6
CONTINUOUS
 10
100.5420970936
 20
21.1798654082
 11
100.5420970936
 21
53.1798654082
  0
LINE
  5
36F
100
AcDbEntity
  8
0
100
AcDbLine
 62
7
  6
CONTINUOUS
 10
57.168236719
 20
38.9264548075
 11
62.2663155424
 21
41.2114889615
  0
LINE
  5
370
100
AcDbEntity
  8
0
100
AcDbLine
 62
7
  6
CONTINUOUS
 10
70.9198387867
 20
45.0901257678
 11
71.0927422689
 21
45.1676236599
  0
LINE
  5
371
100
AcDbEntity
  8
A_RUNDUNGEN
100
AcDbLine
 62
7
  6
CONTINUOUS
 10
96.7150514053
 20
46.6043018557
 11
96.7340798267
 21
46.6286330024
  0
LINE
  5
372
100
AcDbEntity
  8
A_RUNDUNGEN
100
AcDbLine
 62
7
  6
CONTINUOUS
 10
96.7150497888
 20
46.6043029595
 11
96.6315337869
 21
46.5202891654
  0
LINE
  5
373
100
AcDbEntity
  8
0
100
AcDbLine
 62
7
  6
CONTINUOUS
 10
119.0420970936
 20
16.9798654082
 11
119.0420970936
 21
56.9798654082
  0
LINE
  5
374
100
AcDbEntity
  8
A_RUNDUNGEN
100
AcDbLine
 62
7
  6
CONTINUOUS
 10
96.7014034999
 20
33.5460555266
 11
95.4993164191
 21
32.3439684462
  0
LINE
  5
375
100
AcDbEntity
  8
A_FASEN
100
AcDbLine
 62
7
  6
CONTINUOUS
 10
99.9420970936
 20
30.9298654082
 11
99.7420970936
 21
30.7298654082
  0
LINE
  5
376
100
AcDbEntity
  8
0
100
AcDbLine
 62
7
  6
CONTINUOUS
 10
99.9420970936
 20
30.9298654082
 11
99.7420970936
 21
30.7298654082
  0
LINE
  5
377
100
AcDbEntity
  8
A_RUNDUNGEN
100
AcDbLine
 62
7
  6
CONTINUOUS
 10
83.4164499594
 20
23.9263828939
 11
83.7181276956
 21
24.1005566161
  0
LWPOLYLINE
  5
378
100
AcDbEntity
  8
0
100
AcDbPolyline
 62
7
  6
CONTINUOUS
 90
4
 70
0
 10
81.5019941447
 20
23.7015757477
 10
81.3899618697
 20
23.6438488423
 10
81.2237930922
 20
23.5913954975
 10
81.0972084587
 20
23.5785104205
  0
LINE
  5
379
100
AcDbEntity
  8
0
100
AcDbLine
 62
7
  6
CONTINUOUS
 10
50.5513904007
 20
146.8450765849
 11
73.5513904007
 21
146.8450765849
  0
ARC
  5
37A
100
AcDbEntity
  8
0
100
AcDbCircle
 62
7
  6
CONTINUOUS
 10
34.9531009567
 20
21.9993627252
 40
1.0
100
AcDbArc
 50
264.0
 51
269.75
  0
ARC
  5
37B
100
AcDbEntity
  8
0
100
AcDbCircle
 62
7
  6
CONTINUOUS
 10
34.4513904007
 20
23.5796060373
 40
0.5
100
AcDbArc
 50
0.0
 51
89.5
  0
ARC
  5
37C
100
AcDbEntity
  8
0
100
AcDbCircle
 62
7
  6
CONTINUOUS
 10
26.4513904007
 20
23.8482018818
 40
0.5
100
AcDbArc
 50
180.0
 51
250.4633450619
  0
ARC
  5
37D
100
AcDbEntity
  8
0
100
AcDbCircle
 62
7
  6
CONTINUOUS
 10
28.6999112656
 20
23.0503396394
 40
0.5
100
AcDbArc
 50
250.4633450619
 51
269.7
  0
ARC
  5
37E
100
AcDbEntity
  8
0
100
AcDbCircle
 62
7
  6
CONTINUOUS
 10
25.4513904007
 20
22.4952786071
 40
0.5
100
AcDbArc
 50
180.0
 51
264.0
  0
ARC
  5
37F
100
AcDbEntity
  8
0
100
AcDbCircle
 62
7
  6
CONTINUOUS
 10
29.9939125624
 20
24.3685344159
 40
0.25
100
AcDbArc
 50
251.115572952
 51
269.5
  0
ARC
  5
380
100
AcDbEntity
  8
0
100
AcDbCircle
 62
7
  6
CONTINUOUS
 10
25.7013904007
 20
23.7868190154
 40
0.25
100
AcDbArc
 50
0.0
 51
66.4218215218
  0
ARC
  5
381
100
AcDbEntity
  8
0
100
AcDbCircle
 62
7
  6
CONTINUOUS
 10
25.9013904007
 20
24.2450765849
 40
0.25
100
AcDbArc
 50
180.0
 51
246.4218215218
  0
ARC
  5
382
100
AcDbEntity
  8
0
100
AcDbCircle
 62
7
  6
CONTINUOUS
 10
26.2013904007
 20
23.5701284695
 40
0.25
100
AcDbArc
 50
180.0
 51
250.0
  0
ARC
  5
383
100
AcDbEntity
  8
0
100
AcDbCircle
 62
7
  6
CONTINUOUS
 10
28.8114998901
 20
22.6201263071
 40
0.25
100
AcDbArc
 50
250.0
 51
269.5
  0
ARC
  5
384
100
AcDbEntity
  8
A_RUNDUNGEN
100
AcDbCircle
 62
7
  6
CONTINUOUS
 10
33.0013904007
 20
22.5835616866
 40
0.25
100
AcDbArc
 50
192.588546568
 51
269.5
  0
ARC
  5
385
100
AcDbEntity
  8
A_RUNDUNGEN
100
AcDbCircle
 62
7
  6
CONTINUOUS
 10
33.9513904007
 20
28.9000216542
 40
1.0
100
AcDbArc
 50
0.0
 51
88.0
  0
ARC
  5
386
100
AcDbEntity
  8
0
100
AcDbCircle
 62
7
  6
CONTINUOUS
 10
25.3513904007
 20
28.4450765849
 40
0.4
100
AcDbArc
 50
90.0
 51
180.0
  0
ARC
  5
387
100
AcDbEntity
  8
0
100
AcDbCircle
 62
7
  6
CONTINUOUS
 10
25.5513904007
 20
28.4450765849
 40
0.4
100
AcDbArc
 50
0.0
 51
90.0
  0
ARC
  5
388
100
AcDbEntity
  8
0
100
AcDbCircle
 62
7
  6
CONTINUOUS
 10
27.2013904007
 20
25.3237805531
 40
0.25
100
AcDbArc
 50
180.0
 51
251.115572952
  0
ARC
  5
389
100
AcDbEntity
  8
0
100
AcDbCircle
 62
7
  6
CONTINUOUS
 10
25.7013904007
 20
28.2033341544
 40
0.25
100
AcDbArc
 50
293.5781784782
 51
360.0
  0
ARC
  5
38A
100
AcDbEntity
  8
0
100
AcDbCircle
 62
7
  6
CONTINUOUS
 10
25.9013904007
 20
27.7450765849
 40
0.25
100
AcDbArc
 50
113.5781784782
 51
180.0
  0
ARC
  5
38B
100
AcDbEntity
  8
0
100
AcDbCircle
 62
7
  6
CONTINUOUS
 10
46.4513904007
 20
21.716156756
 40
0.5
100
AcDbArc
 50
0.0
 51
89.5
  0
ARC
  5
38C
100
AcDbEntity
  8
A_RUNDUNGEN
100
AcDbCircle
 62
7
  6
CONTINUOUS
 10
34.4903752094
 20
36.517435534
 40
2.0
100
AcDbArc
 50
258.4011495648
 51
348.4011495648
  0
ARC
  5
38D
100
AcDbEntity
  8
0
100
AcDbCircle
 62
7
  6
CONTINUOUS
 10
25.7013904007
 20
29.5950765849
 40
0.25
100
AcDbArc
 50
0.0
 51
90.0
  0
ARC
  5
38E
100
AcDbEntity
  8
0
100
AcDbCircle
 62
7
  6
CONTINUOUS
 10
25.7013904007
 20
30.9995850821
 40
0.25
100
AcDbArc
 50
296.5650511771
 51
360.0
  0
ARC
  5
38F
100
AcDbEntity
  8
0
100
AcDbCircle
 62
7
  6
CONTINUOUS
 10
25.7013904007
 20
30.4405680877
 40
0.25
100
AcDbArc
 50
116.5650511771
 51
180.0
  0
ARC
  5
390
100
AcDbEntity
  8
0
100
AcDbCircle
 62
7
  6
CONTINUOUS
 10
25.7013904007
 20
30.0950765849
 40
0.25
100
AcDbArc
 50
180.0
 51
270.0
  0
ARC
  5
391
100
AcDbEntity
  8
0
100
AcDbCircle
 62
7
  6
CONTINUOUS
 10
54.5513904007
 20
27.6450765849
 40
5.5
100
AcDbArc
 50
163.1393509849
 51
43.4606615048
  0
ARC
  5
392
100
AcDbEntity
  8
0
100
AcDbCircle
 62
7
  6
CONTINUOUS
 10
70.0420970919
 20
27.6798654075
 40
5.5
100
AcDbArc
 50
136.7966862579
 51
17.1179967779
  0
ARC
  5
393
100
AcDbEntity
  8
0
100
AcDbCircle
 62
7
  6
CONTINUOUS
 10
70.0420970919
 20
27.6798654075
 40
5.25
100
AcDbArc
 50
154.1147211752
 51
0.1147211752
  0
ARC
  5
394
100
AcDbEntity
  8
0
100
AcDbCircle
 62
7
  6
CONTINUOUS
 10
54.5513904007
 20
27.6450765849
 40
5.25
100
AcDbArc
 50
180.1426265875
 51
26.1426265875
  0
CIRCLE
  5
395
100
AcDbEntity
  8
0
100
AcDbCircle
 62
7
  6
CONTINUOUS
 10
70.0420970919
 20
27.6798654075
 40
2.75
  0
CIRCLE
  5
396
100
AcDbEntity
  8
0
100
AcDbCircle
 62
7
  6
CONTINUOUS
 10
54.5513904007
 20
27.6450765849
 40
2.75
  0
CIRCLE
  5
397
100
AcDbEntity
  8
A_RUNDUNGEN
100
AcDbCircle
 62
7
  6
CONTINUOUS
 10
54.5513904007
 20
27.6450765849
 40
2.4272122138
  0
CIRCLE
  5
398
100
AcDbEntity
  8
A_RUNDUNGEN
100
AcDbCircle
 62
7
  6
CONTINUOUS
 10
70.0420970919
 20
27.6798654075
 40
2.4267240551
  0
ARC
  5
399
100
AcDbEntity
  8
A_RUNDUNGEN
100
AcDbCircle
 62
7
  6
CONTINUOUS
 10
60.0513904007
 20
22.5640378797
 40
0.5
100
AcDbArc
 50
270.5
 51
360.0
  0
ARC
  5
39A
100
AcDbEntity
  8
A_RUNDUNGEN
100
AcDbCircle
 62
7
  6
CONTINUOUS
 10
58.3513904007
 20
21.612399728
 40
0.4999735156
100
AcDbArc
 50
359.9893785284
 51
62.7700833321
  0
ARC
  5
39B
100
AcDbEntity
  8
0
100
AcDbCircle
 62
7
  6
CONTINUOUS
 10
66.564792945
 20
37.1206600976
 40
2.0
100
AcDbArc
 50
334.1147211752
 51
66.1147211752
  0
ARC
  5
39C
100
AcDbEntity
  8
A_RUNDUNGEN
100
AcDbCircle
 62
7
  6
CONTINUOUS
 10
57.986255664
 20
37.101394533
 40
2.0
100
AcDbArc
 50
114.1426265875
 51
206.1426265875
  0
ARC
  5
39D
100
AcDbEntity
  8
A_RUNDUNGEN
100
AcDbCircle
 62
7
  6
CONTINUOUS
 10
66.6775082012
 20
30.1774891885
 40
1.7499229247
100
AcDbArc
 50
104.5113745082
 51
157.0002979584
  0
ARC
  5
39E
100
AcDbEntity
  8
A_RUNDUNGEN
100
AcDbCircle
 62
7
  6
CONTINUOUS
 10
74.2593259753
 20
30.7172948694
 40
1.5000223953
100
AcDbArc
 50
0.0006795877
 51
46.916124966
  0
ARC
  5
39F
100
AcDbEntity
  8
A_RUNDUNGEN
100
AcDbCircle
 62
7
  6
CONTINUOUS
 10
55.4542089082
 20
34.9253557064
 40
1.498913922
100
AcDbArc
 50
351.7617208591
 51
359.3
  0
ARC
  5
3A0
100
AcDbEntity
  8
A_RUNDUNGEN
100
AcDbCircle
 62
7
  6
CONTINUOUS
 10
69.1346365375
 20
34.9675360554
 40
1.498913922
100
AcDbArc
 50
180.6999999903
 51
186.6794516731
  0
ARC
  5
3A1
100
AcDbEntity
  8
A_RUNDUNGEN
100
AcDbCircle
 62
7
  6
CONTINUOUS
 10
55.4542089082
 20
34.9253557064
 40
1.4799190669
100
AcDbArc
 50
353.0384421273
 51
359.3
  0
ARC
  5
3A2
100
AcDbEntity
  8
A_RUNDUNGEN
100
AcDbCircle
 62
7
  6
CONTINUOUS
 10
69.1346365375
 20
34.9675360554
 40
1.4799190669
100
AcDbArc
 50
180.6999999903
 51
185.4616464846
  0
ARC
  5
3A3
100
AcDbEntity
  8
0
100
AcDbCircle
 62
7
  6
CONTINUOUS
 10
38.58754981
 20
44.1169617814
 40
6.0
100
AcDbArc
 50
90.1147211752
 51
135.1147211752
  0
ARC
  5
3A4
100
AcDbEntity
  8
0
100
AcDbCircle
 62
7
  6
CONTINUOUS
 10
30.4273732452
 20
41.5904298459
 40
5.0
100
AcDbArc
 50
70.0909199994
 51
86.7113791301
  0
ARC
  5
3A5
100
AcDbEntity
  8
A_ACHSEN
100
AcDbCircle
 62
7
  6
CONTINUOUS
 10
32.2661432839
 20
40.6042976351
 40
4.75
100
AcDbArc
 50
102.6562186653
 51
155.6636637487
  0
ARC
  5
3A6
100
AcDbEntity
  8
A_ACHSEN
100
AcDbCircle
 62
7
  6
CONTINUOUS
 10
32.2661432839
 20
40.6042976351
 40
4.75
100
AcDbArc
 50
204.3100271042
 51
36.9966609096
  0
ARC
  5
3A7
100
AcDbEntity
  8
0
100
AcDbCircle
 62
7
  6
CONTINUOUS
 10
32.2661432839
 20
40.6042976351
 40
4.0
100
AcDbArc
 50
135.1147211752
 51
20.4904028231
  0
CIRCLE
  5
3A8
100
AcDbEntity
  8
0
100
AcDbCircle
 62
7
  6
CONTINUOUS
 10
32.2661432839
 20
40.6042976351
 40
2.55
  0
ARC
  5
3A9
100
AcDbEntity
  8
A_RUNDUNGEN
100
AcDbCircle
 62
7
  6
CONTINUOUS
 10
30.040413204
 20
44.678798052
 40
2.0
100
AcDbArc
 50
78.4011495648
 51
168.4011495648
  0
ARC
  5
3AA
100
AcDbEntity
  8
A_RUNDUNGEN
100
AcDbCircle
 62
7
  6
CONTINUOUS
 10
28.6128995068
 20
37.7237851373
 40
2.0
100
AcDbArc
 50
250.6279038681
 51
258.4011495648
  0
ARC
  5
3AB
100
AcDbEntity
  8
A_RUNDUNGEN
100
AcDbCircle
 62
7
  6
CONTINUOUS
 10
35.9178889066
 20
43.4724484488
 40
2.0
100
AcDbArc
 50
348.4011495648
 51
46.9323400655
  0
ARC
  5
3AC
100
AcDbEntity
  8
0
100
AcDbCircle
 62
7
  6
CONTINUOUS
 10
37.8865283038
 20
42.7046005245
 40
2.0
100
AcDbArc
 50
135.1147211752
 51
200.4904028231
  0
ARC
  5
3AD
100
AcDbEntity
  8
0
100
AcDbCircle
 62
7
  6
CONTINUOUS
 10
38.7956573065
 20
43.6173774655
 40
2.0
100
AcDbArc
 50
90.1147211752
 51
135.1147211752
  0
ARC
  5
3AE
100
AcDbEntity
  8
0
100
AcDbCircle
 62
7
  6
CONTINUOUS
 10
25.3513904007
 20
40.2450765849
 40
0.4
100
AcDbArc
 50
180.0
 51
270.0
  0
ARC
  5
3AF
100
AcDbEntity
  8
0
100
AcDbCircle
 62
7
  6
CONTINUOUS
 10
25.5513904007
 20
40.2450765849
 40
0.4
100
AcDbArc
 50
270.0
 51
360.0
  0
ARC
  5
3B0
100
AcDbEntity
  8
0
100
AcDbCircle
 62
7
  6
CONTINUOUS
 10
25.7013904007
 20
39.0950765849
 40
0.25
100
AcDbArc
 50
270.0
 51
360.0
  0
ARC
  5
3B1
100
AcDbEntity
  8
0
100
AcDbCircle
 62
7
  6
CONTINUOUS
 10
25.7013904007
 20
37.6905680877
 40
0.25
100
AcDbArc
 50
0.0
 51
63.4349488229
  0
ARC
  5
3B2
100
AcDbEntity
  8
0
100
AcDbCircle
 62
7
  6
CONTINUOUS
 10
25.7013904007
 20
38.2495850821
 40
0.25
100
AcDbArc
 50
180.0
 51
243.4349488229
  0
ARC
  5
3B3
100
AcDbEntity
  8
0
100
AcDbCircle
 62
7
  6
CONTINUOUS
 10
25.7013904007
 20
38.5950765849
 40
0.25
100
AcDbArc
 50
90.0
 51
180.0
  0
ARC
  5
3B4
100
AcDbEntity
  8
0
100
AcDbCircle
 62
7
  6
CONTINUOUS
 10
34.9531009567
 20
51.6907904447
 40
1.0
100
AcDbArc
 50
90.25
 51
96.0
  0
ARC
  5
3B5
100
AcDbEntity
  8
A_RUNDUNGEN
100
AcDbCircle
 62
7
  6
CONTINUOUS
 10
33.0540662001
 20
46.7027461487
 40
0.5025876909
100
AcDbArc
 50
180.038756722
 51
194.6071428531
  0
ARC
  5
3B6
100
AcDbEntity
  8
A_RUNDUNGEN
100
AcDbCircle
 62
7
  6
CONTINUOUS
 10
33.0605999956
 20
46.7080839305
 40
0.5025764582
100
AcDbArc
 50
180.0384215991
 51
194.4831709102
  0
ARC
  5
3B7
100
AcDbEntity
  8
A_RUNDUNGEN
100
AcDbCircle
 62
7
  6
CONTINUOUS
 10
29.5700784039
 20
46.607592976
 40
0.5
100
AcDbArc
 50
90.5
 51
108.4349488229
  0
ARC
  5
3B8
100
AcDbEntity
  8
0
100
AcDbCircle
 62
7
  6
CONTINUOUS
 10
30.4513904007
 20
48.7756396614
 40
0.5
100
AcDbArc
 50
270.5
 51
360.0
  0
ARC
  5
3B9
100
AcDbEntity
  8
0
100
AcDbCircle
 62
7
  6
CONTINUOUS
 10
26.4513904007
 20
49.5493733817
 40
0.5
100
AcDbArc
 50
90.5
 51
180.0
  0
ARC
  5
3BA
100
AcDbEntity
  8
0
100
AcDbCircle
 62
7
  6
CONTINUOUS
 10
31.4513904007
 20
50.8430553186
 40
0.5
100
AcDbArc
 50
90.5
 51
180.0
  0
ARC
  5
3BB
100
AcDbEntity
  8
0
100
AcDbCircle
 62
7
  6
CONTINUOUS
 10
30.4513904007
 20
50.5843189312
 40
0.5
100
AcDbArc
 50
270.5
 51
360.0
  0
ARC
  5
3BC
100
AcDbEntity
  8
0
100
AcDbCircle
 62
7
  6
CONTINUOUS
 10
25.4513904007
 20
51.1948745628
 40
0.5
100
AcDbArc
 50
96.0
 51
180.0
  0
ARC
  5
3BD
100
AcDbEntity
  8
0
100
AcDbCircle
 62
7
  6
CONTINUOUS
 10
27.2013904007
 20
47.0663726168
 40
0.25
100
AcDbArc
 50
108.884427048
 51
180.0
  0
ARC
  5
3BE
100
AcDbEntity
  8
0
100
AcDbCircle
 62
7
  6
CONTINUOUS
 10
29.9939125624
 20
48.021618754
 40
0.25
100
AcDbArc
 50
90.5
 51
108.884427048
  0
ARC
  5
3BF
100
AcDbEntity
  8
0
100
AcDbCircle
 62
7
  6
CONTINUOUS
 10
26.2013904007
 20
49.6267174783
 40
0.25
100
AcDbArc
 50
90.3
 51
180.0
  0
ARC
  5
3C0
100
AcDbEntity
  8
A_RUNDUNGEN
100
AcDbCircle
 62
7
  6
CONTINUOUS
 10
33.0013904007
 20
51.1065914833
 40
0.25
100
AcDbArc
 50
90.5
 51
167.3933052569
  0
ARC
  5
3C1
100
AcDbEntity
  8
0
100
AcDbCircle
 62
7
  6
CONTINUOUS
 10
50.9927686407
 20
39.6417912954
 40
6.0
100
AcDbArc
 50
66.1147211752
 51
90.1147211752
  0
ARC
  5
3C2
100
AcDbEntity
  8
0
100
AcDbCircle
 62
7
  6
CONTINUOUS
 10
73.5467991038
 20
39.6924428363
 40
6.0
100
AcDbArc
 50
90.1426265875
 51
114.1426265875
  0
ARC
  5
3C3
100
AcDbEntity
  8
0
100
AcDbCircle
 62
7
  6
CONTINUOUS
 10
71.2692403529
 20
39.0965589159
 40
4.0
100
AcDbArc
 50
0.1147211752
 51
45.1147211752
  0
ARC
  5
3C4
100
AcDbEntity
  8
0
100
AcDbCircle
 62
7
  6
CONTINUOUS
 10
53.2729808605
 20
39.0561431563
 40
4.0
100
AcDbArc
 50
135.1426265875
 51
180.1426265875
  0
ARC
  5
3C5
100
AcDbEntity
  8
A_ACHSEN
100
AcDbCircle
 62
7
  6
CONTINUOUS
 10
62.2540696701
 20
46.6643097996
 40
5.1
100
AcDbArc
 50
34.395927383
 51
133.9896095168
  0
ARC
  5
3C6
100
AcDbEntity
  8
A_ACHSEN
100
AcDbCircle
 62
7
  6
CONTINUOUS
 10
62.2540696701
 20
46.6643097996
 40
5.1
100
AcDbArc
 50
233.9646312814
 51
258.4883203805
  0
ARC
  5
3C7
100
AcDbEntity
  8
0
100
AcDbCircle
 62
7
  6
CONTINUOUS
 10
62.2540696701
 20
46.6643097996
 40
5.0
100
AcDbArc
 50
45.1147211752
 51
128.3273544963
  0
CIRCLE
  5
3C8
100
AcDbEntity
  8
0
100
AcDbCircle
 62
7
  6
CONTINUOUS
 10
62.2540696701
 20
46.6643097996
 40
2.75
  0
CIRCLE
  5
3C9
100
AcDbEntity
  8
0
100
AcDbCircle
 62
7
  6
CONTINUOUS
 10
62.2540696701
 20
46.6643097996
 40
2.5
  0
ARC
  5
3CA
100
AcDbEntity
  8
0
100
AcDbCircle
 62
7
  6
CONTINUOUS
 10
57.9129942334
 20
52.1556724768
 40
2.0
100
AcDbArc
 50
270.1147211752
 51
308.3273544963
  0
ARC
  5
3CB
100
AcDbEntity
  8
0
100
AcDbCircle
 62
7
  6
CONTINUOUS
 10
66.5704365843
 20
52.1751152454
 40
2.0
100
AcDbArc
 50
247.9965746879
 51
270.1426265875
  0
ARC
  5
3CC
100
AcDbEntity
  8
A_RUNDUNGEN
100
AcDbCircle
 62
7
  6
CONTINUOUS
 10
60.0513904007
 20
51.2261152902
 40
0.5
100
AcDbArc
 50
26.6133872597
 51
89.5
  0
ARC
  5
3CD
100
AcDbEntity
  8
A_RUNDUNGEN
100
AcDbCircle
 62
7
  6
CONTINUOUS
 10
58.3513904007
 20
52.0778461405
 40
0.5
100
AcDbArc
 50
316.9056456382
 51
360.0
  0
ARC
  5
3CE
100
AcDbEntity
  8
0
100
AcDbCircle
 62
7
  6
CONTINUOUS
 10
52.9513904007
 20
52.0307210545
 40
0.5
100
AcDbArc
 50
270.5
 51
360.0
  0
ARC
  5
3CF
100
AcDbEntity
  8
A_RUNDUNGEN
100
AcDbCircle
 62
7
  6
CONTINUOUS
 10
72.9834564681
 20
52.597391387
 40
0.5
100
AcDbArc
 50
74.497064339
 51
89.75
  0
ARC
  5
3D0
100
AcDbEntity
  8
0
100
AcDbCircle
 62
7
  6
CONTINUOUS
 10
70.739114982
 20
51.629025812
 40
0.5
100
AcDbArc
 50
259.0
 51
269.0
  0
ARC
  5
3D1
100
AcDbEntity
  8
0
100
AcDbCircle
 62
7
  6
CONTINUOUS
 10
66.0420970936
 20
52.5420336011
 40
0.5
100
AcDbArc
 50
180.0
 51
259.0
  0
ARC
  5
3D2
100
AcDbEntity
  8
A_RUNDUNGEN
100
AcDbCircle
 62
7
  6
CONTINUOUS
 10
66.0420970936
 20
52.5420336011
 40
0.5
100
AcDbArc
 50
180.0
 51
259.0
  0
ARC
  5
3D3
100
AcDbEntity
  8
A_RUNDUNGEN
100
AcDbCircle
 62
7
  6
CONTINUOUS
 10
66.0420970936
 20
52.8212140398
 40
0.5
100
AcDbArc
 50
180.0
 51
197.8
  0
ARC
  5
3D4
100
AcDbEntity
  8
A_RUNDUNGEN
100
AcDbCircle
 62
7
  6
CONTINUOUS
 10
53.7013904007
 20
51.2872376465
 40
0.25
100
AcDbArc
 50
90.5
 51
180.0
  0
ARC
  5
3D5
100
AcDbEntity
  8
A_RUNDUNGEN
100
AcDbCircle
 62
7
  6
CONTINUOUS
 10
84.2181276956
 20
23.2345312123
 40
1.0
100
AcDbArc
 50
91.0
 51
120.0
  0
ARC
  5
3D6
100
AcDbEntity
  8
A_RUNDUNGEN
100
AcDbCircle
 62
7
  6
CONTINUOUS
 10
82.9164499594
 20
24.7924082976
 40
1.0
100
AcDbArc
 50
271.0
 51
300.0
  0
ARC
  5
3D7
100
AcDbEntity
  8
0
100
AcDbCircle
 62
7
  6
CONTINUOUS
 10
81.7581421492
 20
23.2694763847
 40
0.5024848097
100
AcDbArc
 50
91.0371089782
 51
105.8865531454
  0
ARC
  5
3D8
100
AcDbEntity
  8
0
100
AcDbCircle
 62
7
  6
CONTINUOUS
 10
81.7584423022
 20
23.2704055406
 40
0.5016735983
100
AcDbArc
 50
105.9485722155
 51
120.7502863314
  0
ARC
  5
3D9
100
AcDbEntity
  8
A_RUNDUNGEN
100
AcDbCircle
 62
7
  6
CONTINUOUS
 10
79.8420970936
 20
23.0675266281
 40
0.5
100
AcDbArc
 50
90.5
 51
180.0
  0
ARC
  5
3DA
100
AcDbEntity
  8
0
100
AcDbCircle
 62
7
  6
CONTINUOUS
 10
79.8420970936
 20
23.0675266281
 40
0.5
100
AcDbArc
 50
90.5
 51
180.0
  0
ARC
  5
3DB
100
AcDbEntity
  8
0
100
AcDbCircle
 62
7
  6
CONTINUOUS
 10
92.7447380784
 20
21.9485657857
 40
0.6
100
AcDbArc
 50
270.25
 51
278.0
  0
ARC
  5
3DC
100
AcDbEntity
  8
A_RUNDUNGEN
100
AcDbCircle
 62
7
  6
CONTINUOUS
 10
92.7447380784
 20
21.9485657857
 40
0.6
100
AcDbArc
 50
270.25
 51
278.0
  0
ARC
  5
3DD
100
AcDbEntity
  8
0
100
AcDbCircle
 62
7
  6
CONTINUOUS
 10
98.4420970936
 20
23.6581221926
 40
1.5
100
AcDbArc
 50
278.0
 51
354.3380412953
  0
ARC
  5
3DE
100
AcDbEntity
  8
A_FASEN
100
AcDbCircle
 62
7
  6
CONTINUOUS
 10
98.4420970936
 20
23.6581221926
 40
1.5
100
AcDbArc
 50
354.3380412953
 51
360.0
  0
ARC
  5
3DF
100
AcDbEntity
  8
A_RUNDUNGEN
100
AcDbCircle
 62
7
  6
CONTINUOUS
 10
98.4420970936
 20
23.6581221926
 40
1.5
100
AcDbArc
 50
278.0
 51
354.3383882684
  0
ARC
  5
3E0
100
AcDbEntity
  8
0
100
AcDbCircle
 62
7
  6
CONTINUOUS
 10
98.1920970936
 20
23.9776932109
 40
0.25
100
AcDbArc
 50
270.5
 51
360.0
  0
ARC
  5
3E1
100
AcDbEntity
  8
A_RUNDUNGEN
100
AcDbCircle
 62
7
  6
CONTINUOUS
 10
98.1920970936
 20
23.9776932109
 40
0.25
100
AcDbArc
 50
270.5
 51
360.0
  0
ARC
  5
3E2
100
AcDbEntity
  8
A_RUNDUNGEN
100
AcDbCircle
 62
7
  6
CONTINUOUS
 10
96.4420970936
 20
25.4482060479
 40
1.0
100
AcDbArc
 50
271.0
 51
360.0
  0
ARC
  5
3E3
100
AcDbEntity
  8
A_RUNDUNGEN
100
AcDbCircle
 62
7
  6
CONTINUOUS
 10
97.1920970936
 20
27.4212876019
 40
0.25
100
AcDbArc
 50
272.0
 51
360.0
  0
ARC
  5
3E4
100
AcDbEntity
  8
A_RUNDUNGEN
100
AcDbCircle
 62
7
  6
CONTINUOUS
 10
90.046814601
 20
36.6567990662
 40
2.0
100
AcDbArc
 50
191.6393247018
 51
281.6393247018
  0
ARC
  5
3E5
100
AcDbEntity
  8
A_RUNDUNGEN
100
AcDbCircle
 62
7
  6
CONTINUOUS
 10
96.348071984
 20
35.4190002958
 40
0.5014770468
100
AcDbArc
 50
82.6098895233
 51
102.7769076129
  0
ARC
  5
3E6
100
AcDbEntity
  8
0
100
AcDbCircle
 62
7
  6
CONTINUOUS
 10
97.9420970936
 20
35.3820503377
 40
0.5
100
AcDbArc
 50
147.5092588329
 51
180.0
  0
ARC
  5
3E7
100
AcDbEntity
  8
A_RUNDUNGEN
100
AcDbCircle
 62
7
  6
CONTINUOUS
 10
97.9420970936
 20
35.3820503377
 40
0.5
100
AcDbArc
 50
147.5092588329
 51
180.0
  0
ARC
  5
3E8
100
AcDbEntity
  8
A_RUNDUNGEN
100
AcDbCircle
 62
7
  6
CONTINUOUS
 10
97.9420970936
 20
31.2342478813
 40
0.5
100
AcDbArc
 50
180.0
 51
269.5
  0
ARC
  5
3E9
100
AcDbEntity
  8
0
100
AcDbCircle
 62
7
  6
CONTINUOUS
 10
97.9420970936
 20
31.2342478813
 40
0.5
100
AcDbArc
 50
180.0
 51
269.5
  0
ARC
  5
3EA
100
AcDbEntity
  8
A_RUNDUNGEN
100
AcDbCircle
 62
7
  6
CONTINUOUS
 10
95.1457664729
 20
32.6975183264
 40
0.4999950822
100
AcDbArc
 50
282.1165641854
 51
315.0000053386
  0
ARC
  5
3EB
100
AcDbEntity
  8
A_RUNDUNGEN
100
AcDbCircle
 62
7
  6
CONTINUOUS
 10
94.3478425803
 20
31.5071976407
 40
0.4999938654
100
AcDbArc
 50
101.7080493776
 51
180.0001282439
  0
ARC
  5
3EC
100
AcDbEntity
  8
A_RUNDUNGEN
100
AcDbCircle
 62
7
  6
CONTINUOUS
 10
96.3480044598
 20
35.4210854117
 40
0.4994180488
100
AcDbArc
 50
359.9927166887
 51
82.5714382453
  0
ARC
  5
3ED
100
AcDbEntity
  8
0
100
AcDbCircle
 62
7
  6
CONTINUOUS
 10
98.4929417139
 20
36.8559144684
 40
0.3
100
AcDbArc
 50
93.0
 51
156.949639287
  0
ARC
  5
3EE
100
AcDbEntity
  8
A_RUNDUNGEN
100
AcDbCircle
 62
7
  6
CONTINUOUS
 10
98.4929417139
 20
36.8559144684
 40
0.3
100
AcDbArc
 50
93.0
 51
156.949639287
  0
ARC
  5
3EF
100
AcDbEntity
  8
A_RUNDUNGEN
100
AcDbCircle
 62
7
  6
CONTINUOUS
 10
97.6920999358
 20
32.7341911421
 40
0.2500009474
100
AcDbArc
 50
157.7502136827
 51
180.0000113699
  0
ARC
  5
3F0
100
AcDbEntity
  8
A_RUNDUNGEN
100
AcDbCircle
 62
7
  6
CONTINUOUS
 10
98.1920970936
 20
30.4820376056
 40
0.25
100
AcDbArc
 50
0.0
 51
89.5
  0
ARC
  5
3F1
100
AcDbEntity
  8
0
100
AcDbCircle
 62
7
  6
CONTINUOUS
 10
98.1920970936
 20
30.4820376056
 40
0.25
100
AcDbArc
 50
0.0
 51
89.5
  0
ARC
  5
3F2
100
AcDbEntity
  8
0
100
AcDbCircle
 62
7
  6
CONTINUOUS
 10
89.8587637602
 20
40.5298654082
 40
9.0833333333
100
AcDbArc
 50
327.5092588329
 51
336.949639287
  0
ARC
  5
3F3
100
AcDbEntity
  8
A_RUNDUNGEN
100
AcDbCircle
 62
7
  6
CONTINUOUS
 10
89.8587637602
 20
40.5298654082
 40
9.0833333333
100
AcDbArc
 50
15.0544617741
 51
32.4907411671
  0
ARC
  5
3F4
100
AcDbEntity
  8
A_RUNDUNGEN
100
AcDbCircle
 62
7
  6
CONTINUOUS
 10
89.8587637602
 20
40.5298654082
 40
9.0833333333
100
AcDbArc
 50
8.3999539101
 51
11.0844939828
  0
ARC
  5
3F5
100
AcDbEntity
  8
A_RUNDUNGEN
100
AcDbCircle
 62
7
  6
CONTINUOUS
 10
89.8587637602
 20
40.5298654082
 40
9.0833333333
100
AcDbArc
 50
327.5092588329
 51
357.7875689397
  0
ARC
  5
3F6
100
AcDbEntity
  8
0
100
AcDbCircle
 62
7
  6
CONTINUOUS
 10
85.9317923472
 20
44.2232868501
 40
6.0
100
AcDbArc
 50
45.1426265875
 51
90.1426265875
  0
ARC
  5
3F7
100
AcDbEntity
  8
A_RUNDUNGEN
100
AcDbCircle
 62
7
  6
CONTINUOUS
 10
88.6143881751
 20
43.6108018369
 40
2.0
100
AcDbArc
 50
133.9356392561
 51
191.6393247018
  0
ARC
  5
3F8
100
AcDbEntity
  8
0
100
AcDbCircle
 62
7
  6
CONTINUOUS
 10
85.7259308582
 20
43.7227728481
 40
2.0
100
AcDbArc
 50
45.1426265875
 51
90.1426265875
  0
ARC
  5
3F9
100
AcDbEntity
  8
0
100
AcDbCircle
 62
7
  6
CONTINUOUS
 10
86.6391504743
 20
42.8140885134
 40
2.0
100
AcDbArc
 50
339.7669449397
 51
45.1426265875
  0
ARC
  5
3FA
100
AcDbEntity
  8
A_ACHSEN
100
AcDbCircle
 62
7
  6
CONTINUOUS
 10
92.2689124179
 20
40.739051054
 40
4.75
100
AcDbArc
 50
143.2606868532
 51
77.6011290975
  0
ARC
  5
3FB
100
AcDbEntity
  8
0
100
AcDbCircle
 62
7
  6
CONTINUOUS
 10
92.2689124179
 20
40.739051054
 40
4.0
100
AcDbArc
 50
159.7669449397
 51
45.1426265875
  0
CIRCLE
  5
3FC
100
AcDbEntity
  8
0
100
AcDbCircle
 62
7
  6
CONTINUOUS
 10
92.2689124179
 20
40.739051054
 40
2.55
  0
ARC
  5
3FD
100
AcDbEntity
  8
A_RUNDUNGEN
100
AcDbCircle
 62
7
  6
CONTINUOUS
 10
95.9234366607
 20
37.8673002712
 40
2.0
100
AcDbArc
 50
281.6393247018
 51
11.6393247018
  0
ARC
  5
3FE
100
AcDbEntity
  8
0
100
AcDbCircle
 62
7
  6
CONTINUOUS
 10
98.6420970936
 20
37.4645547783
 40
0.3
100
AcDbArc
 50
273.0
 51
360.0
  0
ARC
  5
3FF
100
AcDbEntity
  8
A_RUNDUNGEN
100
AcDbCircle
 62
7
  6
CONTINUOUS
 10
98.6420970936
 20
37.4645547783
 40
0.3
100
AcDbArc
 50
273.0
 51
360.0
  0
ARC
  5
400
100
AcDbEntity
  8
0
100
AcDbCircle
 62
7
  6
CONTINUOUS
 10
94.1062319418
 20
41.7326622542
 40
5.0
100
AcDbArc
 50
93.3290951365
 51
109.9495542671
  0
ARC
  5
401
100
AcDbEntity
  8
A_RUNDUNGEN
100
AcDbCircle
 62
7
  6
CONTINUOUS
 10
94.4910102349
 20
44.8213030418
 40
2.0
100
AcDbArc
 50
11.6393247018
 51
101.6393247018
  0
ARC
  5
402
100
AcDbEntity
  8
0
100
AcDbCircle
 62
7
  6
CONTINUOUS
 10
92.7447380784
 20
52.4111650308
 40
0.6
100
AcDbArc
 50
82.0
 51
89.75
  0
ARC
  5
403
100
AcDbEntity
  8
A_RUNDUNGEN
100
AcDbCircle
 62
7
  6
CONTINUOUS
 10
92.7447380784
 20
52.4111650308
 40
0.6
100
AcDbArc
 50
82.0
 51
89.75
  0
ARC
  5
404
100
AcDbEntity
  8
0
100
AcDbCircle
 62
7
  6
CONTINUOUS
 10
90.6806844041
 20
50.2807920949
 40
0.5
100
AcDbArc
 50
60.0
 51
89.0
  0
ARC
  5
405
100
AcDbEntity
  8
0
100
AcDbCircle
 62
7
  6
CONTINUOUS
 10
92.0801123946
 20
50.6275325062
 40
0.5
100
AcDbArc
 50
240.0
 51
269.0
  0
ARC
  5
406
100
AcDbEntity
  8
A_RUNDUNGEN
100
AcDbCircle
 62
7
  6
CONTINUOUS
 10
92.0801123946
 20
50.6275325062
 40
0.5
100
AcDbArc
 50
240.0
 51
269.0
  0
ARC
  5
407
100
AcDbEntity
  8
A_RUNDUNGEN
100
AcDbCircle
 62
7
  6
CONTINUOUS
 10
96.340393294
 20
47.9708874621
 40
0.5023757159
100
AcDbArc
 50
284.0986825354
 51
299.8196545695
  0
ARC
  5
408
100
AcDbEntity
  8
A_RUNDUNGEN
100
AcDbCircle
 62
7
  6
CONTINUOUS
 10
96.3478271679
 20
47.9770693793
 40
0.5000208585
100
AcDbArc
 50
284.0651713487
 51
359.9998163989
  0
ARC
  5
409
100
AcDbEntity
  8
A_RUNDUNGEN
100
AcDbCircle
 62
7
  6
CONTINUOUS
 10
97.9420970936
 20
45.6776804787
 40
0.5
100
AcDbArc
 50
180.0
 51
212.4907411671
  0
ARC
  5
40A
100
AcDbEntity
  8
A_RUNDUNGEN
100
AcDbCircle
 62
7
  6
CONTINUOUS
 10
96.3402081605
 20
46.9366346151
 40
0.4999998821
100
AcDbArc
 50
283.9495577689
 51
0.0006846189
  0
ARC
  5
40B
100
AcDbEntity
  8
0
100
AcDbCircle
 62
7
  6
CONTINUOUS
 10
98.6420970936
 20
48.8951760382
 40
0.3
100
AcDbArc
 50
0.0
 51
87.0
  0
ARC
  5
40C
100
AcDbEntity
  8
A_RUNDUNGEN
100
AcDbCircle
 62
7
  6
CONTINUOUS
 10
98.6420970936
 20
48.8951760382
 40
0.3
100
AcDbArc
 50
0.0
 51
87.0
  0
ARC
  5
40D
100
AcDbEntity
  8
0
100
AcDbCircle
 62
7
  6
CONTINUOUS
 10
98.4420970936
 20
50.7016086239
 40
1.5
100
AcDbArc
 50
0.0
 51
82.0
  0
ARC
  5
40E
100
AcDbEntity
  8
A_RUNDUNGEN
100
AcDbCircle
 62
7
  6
CONTINUOUS
 10
98.4420970936
 20
50.7016086239
 40
1.5
100
AcDbArc
 50
0.0
 51
82.0
  0
ARC
  5
40F
100
AcDbEntity
  8
0
100
AcDbCircle
 62
7
  6
CONTINUOUS
 10
96.4420970936
 20
49.051165288
 40
1.0
100
AcDbArc
 50
22.4853129779
 51
89.0
  0
ARC
  5
410
100
AcDbEntity
  8
A_RUNDUNGEN
100
AcDbCircle
 62
7
  6
CONTINUOUS
 10
96.4420970936
 20
49.051165288
 40
1.0
100
AcDbArc
 50
24.3874784643
 51
89.0
  0
ARC
  5
411
100
AcDbEntity
  8
A_RUNDUNGEN
100
AcDbCircle
 62
7
  6
CONTINUOUS
 10
96.4420970936
 20
49.051165288
 40
1.0
100
AcDbArc
 50
0.0
 51
22.4853129779
  0
ARC
  5
412
100
AcDbEntity
  8
A_RUNDUNGEN
100
AcDbCircle
 62
7
  6
CONTINUOUS
 10
97.6432697936
 20
49.5483470174
 40
0.3000004909
100
AcDbArc
 50
202.4853837483
 51
266.9996639394
  0
ARC
  5
413
100
AcDbEntity
  8
0
100
AcDbCircle
 62
7
  6
CONTINUOUS
 10
97.643267971
 20
49.548345862
 40
0.3
100
AcDbArc
 50
202.4853129779
 51
267.0
  0
ARC
  5
414
100
AcDbEntity
  8
A_RUNDUNGEN
100
AcDbCircle
 62
7
  6
CONTINUOUS
 10
124.7601827844
 20
46.5664466638
 40
27.9419172462
100
AcDbArc
 50
179.4861695617
 51
179.6874874882
  0
ARC
  5
415
100
AcDbEntity
  8
A_RUNDUNGEN
100
AcDbCircle
 62
7
  6
CONTINUOUS
 10
65.0237183974
 20
173.0063362242
 40
144.0057516223
100
AcDbArc
 50
281.7081776312
 51
282.1165695337
  0
ARC
  5
416
100
AcDbEntity
  8
0
100
AcDbCircle
 62
7
  6
CONTINUOUS
 10
58.9096511438
 20
172.9821191008
 40
140.6065450262
100
AcDbArc
 50
257.2798894436
 51
266.0762524798
  0
ARC
  5
417
100
AcDbEntity
  8
A_RUNDUNGEN
100
AcDbCircle
 62
7
  6
CONTINUOUS
 10
65.0237183974
 20
173.0063362242
 40
140.6065450262
100
AcDbArc
 50
274.1825502881
 51
282.8258902199
  0
ARC
  5
418
100
AcDbEntity
  8
0
100
AcDbCircle
 62
7
  6
CONTINUOUS
 10
58.9096511438
 20
172.9821191008
 40
140.6
100
AcDbArc
 50
258.091178304
 51
258.7780405368
  0
ARC
  5
419
100
AcDbEntity
  8
0
100
AcDbCircle
 62
7
  6
CONTINUOUS
 10
58.9096511438
 20
172.9821191008
 40
140.6
100
AcDbArc
 50
260.0020948072
 51
266.0760624744
  0
ARC
  5
41A
100
AcDbEntity
  8
A_RUNDUNGEN
100
AcDbCircle
 62
7
  6
CONTINUOUS
 10
65.0237183974
 20
173.0063362242
 40
140.6
100
AcDbArc
 50
274.1825791103
 51
280.1676345675
  0
ARC
  5
41B
100
AcDbEntity
  8
A_RUNDUNGEN
100
AcDbCircle
 62
7
  6
CONTINUOUS
 10
65.0237183974
 20
173.0063362242
 40
140.6
100
AcDbArc
 50
281.1178883134
 51
282.1593236221
  0
ARC
  5
41C
100
AcDbEntity
  8
A_RUNDUNGEN
100
AcDbCircle
 62
7
  6
CONTINUOUS
 10
58.9096511438
 20
172.9821191008
 40
139.598913922
100
AcDbArc
 50
260.5746678312
 51
266.0460396434
  0
ARC
  5
41D
100
AcDbEntity
  8
A_RUNDUNGEN
100
AcDbCircle
 62
7
  6
CONTINUOUS
 10
65.0237183974
 20
173.0063362242
 40
139.598913922
100
AcDbArc
 50
274.2149752178
 51
279.6751718364
  0
ARC
  5
41E
100
AcDbEntity
  8
A_RUNDUNGEN
100
AcDbCircle
 62
7
  6
CONTINUOUS
 10
58.9096511438
 20
172.9821191008
 40
139.5799190669
100
AcDbArc
 50
260.5795407969
 51
266.0454311078
  0
ARC
  5
41F
100
AcDbEntity
  8
A_RUNDUNGEN
100
AcDbCircle
 62
7
  6
CONTINUOUS
 10
65.0237183974
 20
173.0063362242
 40
139.5799190669
100
AcDbArc
 50
274.2322848962
 51
279.6987435851
  0
ARC
  5
420
100
AcDbEntity
  8
A_RUNDUNGEN
100
AcDbCircle
 62
7
  6
CONTINUOUS
 10
58.9096511438
 20
172.9821191008
 40
130.4200809331
100
AcDbArc
 50
260.6424504175
 51
266.6745322697
  0
ARC
  5
421
100
AcDbEntity
  8
A_RUNDUNGEN
100
AcDbCircle
 62
7
  6
CONTINUOUS
 10
65.0237183974
 20
173.0063362242
 40
130.4200809331
100
AcDbArc
 50
273.5770397104
 51
279.6232917056
  0
ARC
  5
422
100
AcDbEntity
  8
A_RUNDUNGEN
100
AcDbCircle
 62
7
  6
CONTINUOUS
 10
65.0237183974
 20
173.0063362242
 40
130.4200809331
100
AcDbArc
 50
283.6664054859
 51
283.9395476794
  0
ARC
  5
423
100
AcDbEntity
  8
A_RUNDUNGEN
100
AcDbCircle
 62
7
  6
CONTINUOUS
 10
58.9096511438
 20
172.9821191008
 40
130.401086078
100
AcDbArc
 50
260.6371905941
 51
266.681421766
  0
ARC
  5
424
100
AcDbEntity
  8
A_RUNDUNGEN
100
AcDbCircle
 62
7
  6
CONTINUOUS
 10
65.0237183974
 20
173.0063362242
 40
130.401086078
100
AcDbArc
 50
273.5456562909
 51
279.6189823677
  0
ARC
  5
425
100
AcDbEntity
  8
A_RUNDUNGEN
100
AcDbCircle
 62
7
  6
CONTINUOUS
 10
65.0237183974
 20
173.0063362242
 40
130.401086078
100
AcDbArc
 50
283.6587763796
 51
283.9502597611
  0
ARC
  5
426
100
AcDbEntity
  8
A_RUNDUNGEN
100
AcDbCircle
 62
7
  6
CONTINUOUS
 10
58.9096511438
 20
172.9821191008
 40
129.4
100
AcDbArc
 50
260.599220258
 51
267.0848082089
  0
ARC
  5
427
100
AcDbEntity
  8
A_RUNDUNGEN
100
AcDbCircle
 62
7
  6
CONTINUOUS
 10
65.0237183974
 20
173.0063362242
 40
129.4
100
AcDbArc
 50
282.0825941288
 51
284.0613199079
  0
ARC
  5
428
100
AcDbEntity
  8
A_RUNDUNGEN
100
AcDbCircle
 62
7
  6
CONTINUOUS
 10
58.9096511438
 20
172.9821191008
 40
129.3934549738
100
AcDbArc
 50
260.6019061212
 51
267.0874125618
  0
ARC
  5
429
100
AcDbEntity
  8
A_RUNDUNGEN
100
AcDbCircle
 62
7
  6
CONTINUOUS
 10
65.0237183974
 20
173.0063362242
 40
129.3934549738
100
AcDbArc
 50
273.1525820345
 51
279.6461398838
  0
ARC
  5
42A
100
AcDbEntity
  8
A_RUNDUNGEN
100
AcDbCircle
 62
7
  6
CONTINUOUS
 10
65.0237183974
 20
173.0063362242
 40
129.3934549738
100
AcDbArc
 50
282.0806911358
 51
284.0650479082
  0
ARC
  5
42B
100
AcDbEntity
  8
A_RUNDUNGEN
100
AcDbCircle
 62
7
  6
CONTINUOUS
 10
287.5763527911
 20
45.9212498737
 40
190.7594975924
100
AcDbArc
 50
179.828296872
 51
180.0120352644
  0
LINE
  5
42C
100
AcDbEntity
  8
A_RUNDUNGEN
100
AcDbLine
 62
7
  6
CONTINUOUS
 10
56.9530109657
 20
34.9070434737
 11
56.9505560094
 21
34.6726927146
  0
LINE
  5
42D
100
AcDbEntity
  8
A_RUNDUNGEN
100
AcDbLine
 62
7
  6
CONTINUOUS
 10
96.8186811756
 20
46.7188515271
 11
96.8181741864
 21
46.6180273718
  0
LINE
  5
42E
100
AcDbEntity
  8
A_RUNDUNGEN
100
AcDbLine
 62
7
  6
CONTINUOUS
 10
96.8181741864
 20
46.6180273718
 11
96.8177117769
 21
46.4929142035
  0
SPLINE
  5
42F
100
AcDbEntity
  8
A_RUNDUNGEN
100
AcDbSpline
 62
7
  6
CONTINUOUS
 70
0
 71
3
 72
13
 73
9
 74
0
 42
0.0000001
 43
0.0000001
 44
0.0000000001
 40
0.0
 40
0.0
 40
0.0
 40
0.0
 40
0.1970942483
 40
0.3569600019
 40
0.4894998901
 40
0.6056032192
 40
0.8105668972
 40
1.0
 40
1.0
 40
1.0
 40
1.0
 10
76.042097091
 20
22.0798701661
 30
0.0
 10
76.0420958307
 20
22.1312295219
 30
0.0
 10
76.0563689925
 20
22.2249674636
 30
0.0
 10
76.110259951
 20
22.3419001593
 30
0.0
 10
76.1755356029
 20
22.4269611358
 30
0.0
 10
76.2646420899
 20
22.5054707908
 30
0.0
 10
76.3852410477
 20
22.567155371
 30
0.0
 10
76.4884835665
 20
22.5836900611
 30
0.0
 10
76.5378447484
 20
22.5841129894
 30
0.0
  0
SPLINE
  5
430
100
AcDbEntity
  8
A_RUNDUNGEN
100
AcDbSpline
 62
7
  6
CONTINUOUS
 70
0
 71
3
 72
9
 73
5
 74
0
 42
0.0000001
 43
0.0000001
 44
0.0000000001
 40
0.0
 40
0.0
 40
0.0
 40
0.0
 40
0.4998865856
 40
1.0
 40
1.0
 40
1.0
 40
1.0
 10
76.0421012001
 20
23.911062108
 30
0.0
 10
76.0420872113
 20
24.0040618589
 30
0.0
 10
76.016061445
 20
24.1906312904
 30
0.0
 10
75.9508194102
 20
24.365842269
 30
0.0
 10
75.9128031233
 20
24.4507632127
 30
0.0
  0
SPLINE
  5
431
100
AcDbEntity
  8
A_RUNDUNGEN
100
AcDbSpline
 62
7
  6
CONTINUOUS
 70
0
 71
3
 72
9
 73
5
 74
0
 42
0.0000001
 43
0.0000001
 44
0.0000000001
 40
0.0
 40
0.0
 40
0.0
 40
0.0
 40
0.4999685997
 40
1.0
 40
1.0
 40
1.0
 40
1.0
 10
75.9128031233
 20
24.4507632127
 30
0.0
 10
75.8620356581
 20
24.564174543
 30
0.0
 10
75.785008845
 20
24.8027151949
 30
0.0
 10
75.7593483695
 20
25.0519128316
 30
0.0
 10
75.7593483695
 20
25.1761840845
 30
0.0
  0
SPLINE
  5
432
100
AcDbEntity
  8
A_FASEN
100
AcDbSpline
 62
7
  6
CONTINUOUS
 70
0
 71
3
 72
18
 73
14
 74
0
 42
0.0000001
 43
0.0000001
 44
0.0000000001
 40
0.0
 40
0.0
 40
0.0
 40
0.0
 40
0.2327819796
 40
0.4352341519
 40
0.607149031
 40
0.7482396525
 40
0.8582107891
 40
0.9014792055
 40
0.9369155868
 40
0.9645034098
 40
0.9842252511
 40
0.9960629896
 40
1.0
 40
1.0
 40
1.0
 40
1.0
 10
99.7420970936
 20
23.8511893934
 30
0.0
 10
99.7421297634
 20
23.8417577217
 30
0.0
 10
99.7419762479
 20
23.8241214107
 30
0.0
 10
99.7411653468
 20
23.7995332213
 30
0.0
 10
99.7400164058
 20
23.7786764037
 30
0.0
 10
99.7387653925
 20
23.7615889374
 30
0.0
 10
99.7377365189
 20
23.7496951867
 30
0.0
 10
99.7370325582
 20
23.7421021165
 30
0.0
 10
99.7365649257
 20
23.7377802141
 30
0.0
 10
99.7363118328
 20
23.7345407534
 30
0.0
 10
99.7358311483
 20
23.7319436583
 30
0.0
 10
99.7360616496
 20
23.730890681
 30
0.0
 10
99.7355952576
 20
23.7298654082
 30
0.0
 10
99.7357547752
 20
23.7298654082
 30
0.0
  0
ELLIPSE
  5
433
100
AcDbEntity
  8
A_RUNDUNGEN
100
AcDbEllipse
 62
7
  6
CONTINUOUS
 10
75.2420894755
 20
22.0798730221
 30
0.0
 11
-0.5656961947
 21
0.5656961949
 31
0.0
 40
0.9999809617
 41
2.3562040094
 42
3.9269812978
  0
ELLIPSE
  5
434
100
AcDbEntity
  8
A_RUNDUNGEN
100
AcDbEllipse
 62
7
  6
CONTINUOUS
 10
64.5420970909
 20
21.7798701681
 30
0.0
 11
-0.0000000001
 21
-0.5000047597
 31
0.0
 40
0.9999904807
 41
-1.5707963268
 42
0.0
  0
ELLIPSE
  5
435
100
AcDbEntity
  8
A_RUNDUNGEN
100
AcDbEllipse
 62
7
  6
CONTINUOUS
 10
68.2540826621
 20
51.8856208378
 30
0.0
 11
0.2828480975
 21
0.2828480974
 31
0.0
 40
0.9999809617
 41
2.9470100151
 42
3.9269812978
  0
ELLIPSE
  5
436
100
AcDbEntity
  8
A_RUNDUNGEN
100
AcDbEllipse
 62
7
  6
CONTINUOUS
 10
96.3478439581
 20
48.633717694
 30
0.0
 11
0.4619449181
 21
0.1913438501
 31
0.0
 40
0.9999888475
 41
-0.3926951387
 42
0.3926951387
  0
ELLIPSE
  5
437
100
AcDbEntity
  8
A_RUNDUNGEN
100
AcDbEllipse
 62
7
  6
CONTINUOUS
 10
96.3478439556
 20
33.8996094947
 30
0.0
 11
-0.4619449181
 21
0.1913438502
 31
0.0
 40
0.9999888475
 41
2.7488975149
 42
3.5342877923
  0
ELLIPSE
  5
438
100
AcDbEntity
  8
A_RUNDUNGEN
100
AcDbEllipse
 62
7
  6
CONTINUOUS
 10
64.542097096
 20
51.485612271
 30
0.0
 11
0.0000000001
 21
0.5000047597
 31
0.0
 40
0.9999904807
 41
-0.0
 42
1.5707963268
  0
ELLIPSE
  5
439
100
AcDbEntity
  8
A_RUNDUNGEN
100
AcDbEllipse
 62
7
  6
CONTINUOUS
 10
88.6101668923
 20
50.7856217863
 30
0.0
 11
0.1913438502
 21
0.4619449181
 31
0.0
 40
0.9999888475
 41
-3.106832248
 42
-2.7488975149
  0
ELLIPSE
  5
43A
100
AcDbEntity
  8
A_RUNDUNGEN
100
AcDbEllipse
 62
7
  6
CONTINUOUS
 10
65.792097092
 20
28.0912235289
 30
0.0
 11
-0.0000000003
 21
-1.7504364301
 31
0.0
 40
0.9997506736
 41
-1.9723117489
 42
-1.5707963268
  0
ENDSEC
  0
SECTION
  2
OBJECTS
  0
DICTIONARY
  5
43B
100
AcDbDictionary
  3
ACAD_GROUP
350
43C
  3
ACAD_MLINESTYLE
350
43D
  0
DICTIONARY
  5
43C
102
{ACAD_REACTORS
330
43B
102
}
100
AcDbDictionary
  0
DICTIONARY
  5
43D
102
{ACAD_REACTORS
330
43B
102
}
100
AcDbDictionary
  3
STANDARD
350
43E
  0
MLINESTYLE
  5
43E
102
{ACAD_REACTORS
330
43D
102
}
100
AcDbMlineStyle
  2
STANDARD
 70
0
  3

 62
256
 51
90.0
 52
90.0
 71
2
 49
0.5
 62
256
  6
BYLAYER
 49
-0.5
 62
256
  6
BYLAYER
  0
ENDSEC
  0
EOF
