999
DXF file: d:\tmp\workingDir\0000087153\te_540_640_3d_fr_sz_q01_01.dxf
999
Pro/ENGINEER 2016380 by Parametric Technology Corporation
  0
SECTION
  2
HEADER
  9
$ACADVER
  1
AC1014
  9
$DWGCODEPAGE
  3
ANSI_1252
  9
$EXTMAX
 10
139.954
 20
100.0
 30
0.0
  9
$EXTMIN
 10
0.0
 20
-0.0
 30
0.0
  9
$LIMMIN
 10
0.0
 20
-0.0
  9
$LIMMAX
 10
139.954
 20
100.0
  9
$VIEWCTR
 10
69.977
 20
50.0
  9
$VIEWSIZE
 40
100.0
  9
$CLAYER
  8
0
  9
$LTSCALE
 40
7.69747
  9
$CELTYPE
  6
BYLAYER
  9
$DIMSCALE
 40
1.0
  9
$DIMASZ
 40
3.5
  9
$DIMEXO
 40
0.0
  9
$DIMDLI
 40
5.318252
  9
$DIMEXE
 40
2.0
  9
$DIMCEN
 40
1.259586
  9
$DIMLFAC
 40
1.0
  9
$DIMBLK
  1
_ARROW_FILLED
  9
$DIMALT
 70
0
  9
$DIMALTF
 40
25.4
  9
$DIMTXT
 40
3.5
  9
$DIMTOL
 70
1
  9
$DIMLIM
 70
0
  9
$DIMTFAC
 40
1.0
  9
$DIMTP
 40
0.01
  9
$DIMTM
 40
0.01
  9
$DIMGAP
 40
0.625
  9
$AUNITS
 70
0
  9
$PDMODE
 70
0
  9
$PDSIZE
 40
0.04
  9
$HANDSEED
  5
4A3
  9
$TILEMODE
 70
1
  9
$MEASUREMENT
 70
1
  0
ENDSEC
  0
SECTION
  2
CLASSES
  0
ENDSEC
  0
SECTION
  2
TABLES
  0
TABLE
  2
VPORT
  5
8
100
AcDbSymbolTable
 70
2
  0
VPORT
  5
1F4
100
AcDbSymbolTableRecord
100
AcDbViewportTableRecord
  2
*ACTIVE
 70
0
 10
0.0
 20
0.0
 11
1.0
 21
1.0
 12
69.977
 22
50.0
 13
0.0
 23
0.0
 14
1.0
 24
1.0
 15
0.0
 25
0.0
 16
0.0
 26
0.0
 36
1.0
 17
0.0
 27
0.0
 37
0.0
 40
100.0
 41
1.39954
 42
50.0
 43
0.0
 44
0.0
 50
0.0
 51
0.0
 71
0
 72
100
 73
1
 74
1
 75
0
 76
0
 77
0
 78
0
  0
ENDTAB
  0
TABLE
  2
LTYPE
  5
5
100
AcDbSymbolTable
 70
6
  0
LTYPE
  5
14
100
AcDbSymbolTableRecord
100
AcDbLinetypeTableRecord
  2
BYBLOCK
 70
0
  3

 72
65
 73
0
 40
0.0
  0
LTYPE
  5
15
100
AcDbSymbolTableRecord
100
AcDbLinetypeTableRecord
  2
BYLAYER
 70
0
  3

 72
65
 73
0
 40
0.0
  0
LTYPE
  5
16
100
AcDbSymbolTableRecord
100
AcDbLinetypeTableRecord
  2
CONTINUOUS
 70
64
  3
Solid line
 72
65
 73
0
 40
0.0
  0
LTYPE
  5
1F5
100
AcDbSymbolTableRecord
100
AcDbLinetypeTableRecord
  2
CENTER
 70
64
  3
____ _ ____ _ ____ _ ____ _ ____ _ ____ _ ____
 72
65
 73
4
 40
0.6
 49
0.375
 74
0
 49
-0.075
 74
0
 49
0.075
 74
0
 49
-0.075
 74
0
  0
LTYPE
  5
1F6
100
AcDbSymbolTableRecord
100
AcDbLinetypeTableRecord
  2
HIDDEN
 70
64
  3
- - - - - - - - - - - - - - - - - - - -
 72
65
 73
2
 40
0.2
 49
0.1
 74
0
 49
-0.1
 74
0
  0
LTYPE
  5
1F7
100
AcDbSymbolTableRecord
100
AcDbLinetypeTableRecord
  2
PHANTOM
 70
64
  3
_____ _ _ _____ _ _ _____ _ _ _____
 72
65
 73
6
 40
0.8
 49
0.45
 74
0
 49
-0.05
 74
0
 49
0.1
 74
0
 49
-0.05
 74
0
 49
0.1
 74
0
 49
-0.05
 74
0
  0
LTYPE
  5
1F8
100
AcDbSymbolTableRecord
100
AcDbLinetypeTableRecord
  2
DOT
 70
64
  3
. . . . . . . . . . . . . . . . . . . .
 72
65
 73
2
 40
0.2
 49
0.1
 74
0
 49
-0.1
 74
0
  0
LTYPE
  5
1F9
100
AcDbSymbolTableRecord
100
AcDbLinetypeTableRecord
  2
DASHED
 70
64
  3
- - - - - - - - - - - - - - - - - - - -
 72
65
 73
2
 40
0.2
 49
0.1
 74
0
 49
-0.1
 74
0
  0
ENDTAB
  0
TABLE
  2
LAYER
  5
2
100
AcDbSymbolTable
 70
36
  0
LAYER
  5
10
100
AcDbSymbolTableRecord
100
AcDbLayerTableRecord
  2
0
 70
0
 62
7
  6
CONTINUOUS
  0
LAYER
  5
1FA
100
AcDbSymbolTableRecord
100
AcDbLayerTableRecord
  2
DEFAULT_1
 70
0
 62
7
  6
CENTER
  0
LAYER
  5
1FB
100
AcDbSymbolTableRecord
100
AcDbLayerTableRecord
  2
DEFAULT_2
 70
0
 62
8
  6
HIDDEN
  0
LAYER
  5
1FC
100
AcDbSymbolTableRecord
100
AcDbLayerTableRecord
  2
DEFAULT_3
 70
0
 62
7
  6
PHANTOM
  0
LAYER
  5
1FD
100
AcDbSymbolTableRecord
100
AcDbLayerTableRecord
  2
A_ACHSEN
 70
0
 62
7
  6
CONTINUOUS
  0
LAYER
  5
1FE
100
AcDbSymbolTableRecord
100
AcDbLayerTableRecord
  2
A_BASISEBENEN
 70
0
 62
7
  6
CONTINUOUS
  0
LAYER
  5
1FF
100
AcDbSymbolTableRecord
100
AcDbLayerTableRecord
  2
A_BEMASSUNGEN
 70
0
 62
7
  6
CONTINUOUS
  0
LAYER
  5
200
100
AcDbSymbolTableRecord
100
AcDbLayerTableRecord
  2
A_BOHRUNGEN
 70
0
 62
7
  6
CONTINUOUS
  0
LAYER
  5
201
100
AcDbSymbolTableRecord
100
AcDbLayerTableRecord
  2
A_EBENEN
 70
0
 62
7
  6
CONTINUOUS
  0
LAYER
  5
202
100
AcDbSymbolTableRecord
100
AcDbLayerTableRecord
  2
A_FASEN
 70
0
 62
7
  6
CONTINUOUS
  0
LAYER
  5
203
100
AcDbSymbolTableRecord
100
AcDbLayerTableRecord
  2
A_FLAECHEN
 70
0
 62
7
  6
CONTINUOUS
  0
LAYER
  5
204
100
AcDbSymbolTableRecord
100
AcDbLayerTableRecord
  2
A_FL_VERBAENDE
 70
0
 62
7
  6
CONTINUOUS
  0
LAYER
  5
205
100
AcDbSymbolTableRecord
100
AcDbLayerTableRecord
  2
A_KURVEN
 70
0
 62
7
  6
CONTINUOUS
  0
LAYER
  5
206
100
AcDbSymbolTableRecord
100
AcDbLayerTableRecord
  2
A_NOTIZEN_SYMB
 70
0
 62
7
  6
CONTINUOUS
  0
LAYER
  5
207
100
AcDbSymbolTableRecord
100
AcDbLayerTableRecord
  2
A_PUNKTE
 70
0
 62
7
  6
CONTINUOUS
  0
LAYER
  5
208
100
AcDbSymbolTableRecord
100
AcDbLayerTableRecord
  2
A_RUNDUNGEN
 70
0
 62
7
  6
CONTINUOUS
  0
LAYER
  5
209
100
AcDbSymbolTableRecord
100
AcDbLayerTableRecord
  2
BASISEBENEN
 70
0
 62
7
  6
CONTINUOUS
  0
LAYER
  5
20A
100
AcDbSymbolTableRecord
100
AcDbLayerTableRecord
  2
XSEC_DATUMS
 70
0
 62
7
  6
CONTINUOUS
  0
ENDTAB
  0
TABLE
  2
STYLE
  5
3
100
AcDbSymbolTable
 70
1
  0
STYLE
  5
11
100
AcDbSymbolTableRecord
100
AcDbTextStyleTableRecord
  2
STANDARD
 70
0
 40
0.0
 41
1.0
 50
0.0
 71
0
 42
0.2
  3
txt
  4

  0
STYLE
  5
20B
100
AcDbSymbolTableRecord
100
AcDbTextStyleTableRecord
  2
TEXTSTYLE_1
 70
0
 40
0.0
 41
0.8
 50
0.0
 71
0
 42
0.2
  3
gdt
  4

  0
STYLE
  5
20C
100
AcDbSymbolTableRecord
100
AcDbTextStyleTableRecord
  2
TEXTSTYLE_2
 70
0
 40
0.0
 41
1.0
 50
0.0
 71
0
 42
0.2
  3
txt
  4

  0
ENDTAB
  0
TABLE
  2
VIEW
  5
6
100
AcDbSymbolTable
 70
0
  0
ENDTAB
  0
TABLE
  2
UCS
  5
7
100
AcDbSymbolTable
 70
0
  0
ENDTAB
  0
TABLE
  2
APPID
  5
9
100
AcDbSymbolTable
 70
1
  0
APPID
  5
20D
100
AcDbSymbolTableRecord
100
AcDbRegAppTableRecord
  2
ACAD
 70
0
  0
ENDTAB
  0
TABLE
  2
BLOCK_RECORD
  5
1
100
AcDbSymbolTable
 70
0
  0
BLOCK_RECORD
  5
1F
100
AcDbSymbolTableRecord
100
AcDbBlockTableRecord
  2
*MODEL_SPACE
  0
BLOCK_RECORD
  5
1B
100
AcDbSymbolTableRecord
100
AcDbBlockTableRecord
  2
*PAPER_SPACE
  0
BLOCK_RECORD
  5
20E
100
AcDbSymbolTableRecord
100
AcDbBlockTableRecord
  2
_ARROW_FILLED
  0
BLOCK_RECORD
  5
20F
100
AcDbSymbolTableRecord
100
AcDbBlockTableRecord
  2
*D0
  0
BLOCK_RECORD
  5
210
100
AcDbSymbolTableRecord
100
AcDbBlockTableRecord
  2
*D1
  0
BLOCK_RECORD
  5
211
100
AcDbSymbolTableRecord
100
AcDbBlockTableRecord
  2
*D2
  0
BLOCK_RECORD
  5
212
100
AcDbSymbolTableRecord
100
AcDbBlockTableRecord
  2
*D3
  0
BLOCK_RECORD
  5
213
100
AcDbSymbolTableRecord
100
AcDbBlockTableRecord
  2
*D4
  0
BLOCK_RECORD
  5
214
100
AcDbSymbolTableRecord
100
AcDbBlockTableRecord
  2
*D5
  0
BLOCK_RECORD
  5
215
100
AcDbSymbolTableRecord
100
AcDbBlockTableRecord
  2
*D6
  0
BLOCK_RECORD
  5
216
100
AcDbSymbolTableRecord
100
AcDbBlockTableRecord
  2
*D7
  0
ENDTAB
  0
TABLE
  2
DIMSTYLE
  5
A
100
AcDbSymbolTable
 70
1
  0
DIMSTYLE
105
217
100
AcDbSymbolTableRecord
100
AcDbDimStyleTableRecord
  2
STANDARD
 70
0
  3

  4

  5
_ARROW_FILLED
  6
_ARROW_FILLED
  7
_ARROW_FILLED
 40
1.0
 41
3.5
 42
0.0
 43
0.38
 44
2.0
 45
0.0
 46
0.0
 47
0.01
 48
0.01
140
3.5
141
0.09
142
0.0
143
25.4
144
1.0
145
0.0
146
1.0
147
0.625
 71
1.0
 72
0.0
 73
0
 74
0
 75
0
 76
0
 77
1
 78
8
170
0
171
1
172
0
173
0
174
0
175
0
176
0
177
0
178
5
270
2
271
2
272
2
273
2
274
2
275
0
280
0
281
0
282
0
283
1
284
8
285
0
286
0
287
3
288
0
340
11
  0
DIMSTYLE
105
218
100
AcDbSymbolTableRecord
100
AcDbDimStyleTableRecord
  2
DIMSTYLE_1
 70
0
  3

  4

  5
_ARROW_FILLED
  6
_ARROW_FILLED
  7
_ARROW_FILLED
 40
1.0
 41
3.5
 42
0.0
 43
0.38
 44
2.0
 45
0.0
 46
0.0
 47
0.1
 48
0.1
140
3.5
141
0.09
142
0.0
143
25.4
144
1.0
145
0.0
146
1.0
147
0.875
 71
0.0
 72
0.0
 73
0
 74
0
 75
0
 76
0
 77
1
 78
8
170
0
171
1
172
0
173
0
174
0
175
0
176
0
177
0
178
5
270
2
271
0
272
-1
273
2
274
2
275
0
280
0
281
0
282
0
283
1
284
8
285
0
286
0
287
3
288
0
340
20C
  0
DIMSTYLE
105
219
100
AcDbSymbolTableRecord
100
AcDbDimStyleTableRecord
  2
DIMSTYLE_2
 70
0
  3

  4

  5
_ARROW_FILLED
  6
_ARROW_FILLED
  7
_ARROW_FILLED
 40
1.0
 41
3.5
 42
0.0
 43
0.38
 44
2.0
 45
0.0
 46
0.0
 47
0.3
 48
0.3
140
3.5
141
0.09
142
0.0
143
25.4
144
1.0
145
0.0
146
1.0
147
0.875
 71
0.0
 72
0.0
 73
0
 74
0
 75
0
 76
0
 77
1
 78
8
170
0
171
1
172
0
173
0
174
0
175
0
176
0
177
0
178
5
270
2
271
4
272
-1
273
2
274
2
275
0
280
0
281
0
282
0
283
1
284
8
285
0
286
0
287
3
288
0
340
20C
  0
DIMSTYLE
105
21A
100
AcDbSymbolTableRecord
100
AcDbDimStyleTableRecord
  2
DIMSTYLE_3
 70
0
  3

  4

  5
_ARROW_FILLED
  6
_ARROW_FILLED
  7
_ARROW_FILLED
 40
1.0
 41
3.5
 42
0.0
 43
0.38
 44
2.0
 45
0.0
 46
0.0
 47
0.1
 48
0.1
140
3.5
141
0.09
142
0.0
143
25.4
144
1.0
145
0.0
146
1.0
147
0.875
 71
0.0
 72
0.0
 73
0
 74
0
 75
0
 76
0
 77
1
 78
8
170
0
171
1
172
0
173
0
174
0
175
0
176
0
177
0
178
5
270
2
271
1
272
-1
273
2
274
2
275
0
280
0
281
0
282
0
283
1
284
8
285
0
286
0
287
3
288
0
340
20C
  0
DIMSTYLE
105
21B
100
AcDbSymbolTableRecord
100
AcDbDimStyleTableRecord
  2
DIMSTYLE_4
 70
0
  3

  4

  5
_ARROW_FILLED
  6
_ARROW_FILLED
  7
_ARROW_FILLED
 40
1.0
 41
3.5
 42
0.0
 43
0.38
 44
2.0
 45
0.0
 46
0.0
 47
0.1
 48
0.1
140
3.5
141
0.09
142
0.0
143
25.4
144
1.0
145
0.0
146
1.0
147
0.875
 71
0.0
 72
0.0
 73
0
 74
0
 75
0
 76
0
 77
1
 78
8
170
0
171
1
172
0
173
0
174
0
175
0
176
0
177
0
178
5
270
2
271
2
272
-1
273
2
274
2
275
0
280
0
281
0
282
0
283
1
284
8
285
0
286
0
287
3
288
0
340
20C
  0
DIMSTYLE
105
21C
100
AcDbSymbolTableRecord
100
AcDbDimStyleTableRecord
  2
DIMSTYLE_5
 70
0
  3

  4

  5
_ARROW_FILLED
  6
_ARROW_FILLED
  7
_ARROW_FILLED
 40
1.0
 41
3.5
 42
0.0
 43
0.38
 44
2.0
 45
0.0
 46
0.0
 47
0.3
 48
0.3
140
3.5
141
0.09
142
0.0
143
25.4
144
1.0
145
0.0
146
1.0
147
0.875
 71
0.0
 72
0.0
 73
0
 74
0
 75
0
 76
0
 77
1
 78
8
170
0
171
1
172
0
173
0
174
0
175
0
176
0
177
0
178
5
270
2
271
0
272
-1
273
2
274
2
275
0
280
0
281
0
282
0
283
1
284
8
285
0
286
0
287
3
288
0
340
20C
  0
ENDTAB
  0
ENDSEC
  0
SECTION
  2
BLOCKS
  0
BLOCK
  5
20
100
AcDbEntity
  8
0
100
AcDbBlockBegin
  2
*MODEL_SPACE
 70
0
 10
0.0
 20
0.0
 30
0.0
  3
*MODEL_SPACE
  1

  0
ENDBLK
  5
21
100
AcDbEntity
  8
0
100
AcDbBlockEnd
  0
BLOCK
  5
1C
100
AcDbEntity
  8
0
100
AcDbBlockBegin
  2
*PAPER_SPACE
 70
0
 10
0.0
 20
0.0
 30
0.0
  3
*PAPER_SPACE
  1

  0
ENDBLK
  5
1D
100
AcDbEntity
  8
0
100
AcDbBlockEnd
  0
BLOCK
  5
21D
100
AcDbEntity
  8
0
100
AcDbBlockBegin
  2
_ARROW_FILLED
 70
64
 10
0.0
 20
0.0
  3
_ARROW_FILLED
  1

  0
SOLID
  5
21E
100
AcDbEntity
  8
0
  6
BYBLOCK
 62
0
100
AcDbTrace
 10
0.0
 20
0.0
 11
-1.0
 21
0.1428571429
 12
-1.0
 22
-0.1428571429
 13
-1.0
 23
-0.1428571429
  0
ENDBLK
  5
21F
100
AcDbEntity
  8
0
  6
BYBLOCK
 62
0
100
AcDbBlockEnd
  0
BLOCK
  5
220
100
AcDbEntity
  8
A_BEMASSUNGEN
100
AcDbBlockBegin
 62
2
  6
CONTINUOUS
  2
*D0
 70
65
 10
0.0
 20
0.0
  3
*D0
  1

  0
MTEXT
  5
221
100
AcDbEntity
  8
A_BEMASSUNGEN
100
AcDbMText
 62
5
  6
CONTINUOUS
  7
TEXTSTYLE_2
 71
3
 72
1
 10
129.5565844774
 20
18.5908663594
 30
0.0
 11
0.0
 21
1.0
 31
0.0
  1
4
 40
3.5
 41
4.125
  0
LINE
  5
222
100
AcDbEntity
  8
A_BEMASSUNGEN
100
AcDbLine
 62
2
  6
CONTINUOUS
 10
100.3185854896
 20
25.7898721282
 11
123.9149287817
 21
25.7898721282
  0
LINE
  5
223
100
AcDbEntity
  8
A_BEMASSUNGEN
100
AcDbLine
 62
2
  6
CONTINUOUS
 10
127.2834556796
 20
25.7898721282
 11
135.9315844774
 21
25.7898721282
  0
LINE
  5
224
100
AcDbEntity
  8
A_BEMASSUNGEN
100
AcDbLine
 62
2
  6
CONTINUOUS
 10
118.8185854896
 20
21.5898721282
 11
135.9315844774
 21
21.5898721282
  0
LINE
  5
225
100
AcDbEntity
  8
A_BEMASSUNGEN
100
AcDbLine
 62
2
  6
CONTINUOUS
 10
133.9315844774
 20
25.7898721282
 11
133.9315844774
 21
33.2898721282
  0
LINE
  5
226
100
AcDbEntity
  8
A_BEMASSUNGEN
100
AcDbLine
 62
2
  6
CONTINUOUS
 10
133.9315844774
 20
33.2898721282
 11
133.9315844774
 21
23.6898721282
  0
LINE
  5
227
100
AcDbEntity
  8
A_BEMASSUNGEN
100
AcDbLine
 62
2
  6
CONTINUOUS
 10
133.9315844774
 20
21.5898721282
 11
133.9315844774
 21
15.8408663594
  0
LINE
  5
228
100
AcDbEntity
  8
A_BEMASSUNGEN
100
AcDbLine
 62
2
  6
CONTINUOUS
 10
133.9315844774
 20
15.8408663594
 11
133.9315844774
 21
23.6898721282
  0
INSERT
  5
229
100
AcDbEntity
  8
A_BEMASSUNGEN
100
AcDbBlockReference
 62
2
  6
CONTINUOUS
  2
_ARROW_FILLED
 10
133.9315844774
 20
25.7898721282
 41
3.5
 42
3.5
 43
3.5
 50
270.0
  0
INSERT
  5
22A
100
AcDbEntity
  8
A_BEMASSUNGEN
100
AcDbBlockReference
 62
2
  6
CONTINUOUS
  2
_ARROW_FILLED
 10
133.9315844774
 20
21.5898721282
 41
3.5
 42
3.5
 43
3.5
 50
90.0
  0
ENDBLK
  5
22B
100
AcDbEntity
  8
0
  6
BYBLOCK
 62
0
100
AcDbBlockEnd
  0
BLOCK
  5
22C
100
AcDbEntity
  8
A_BEMASSUNGEN
100
AcDbBlockBegin
 62
2
  6
CONTINUOUS
  2
*D1
 70
65
 10
0.0
 20
0.0
  3
*D1
  1

  0
MTEXT
  5
22D
100
AcDbEntity
  8
A_BEMASSUNGEN
100
AcDbMText
 62
5
  6
CONTINUOUS
  7
TEXTSTYLE_2
 71
2
 72
1
 10
129.5565844774
 20
41.7898721282
 30
0.0
 11
0.0
 21
1.0
 31
0.0
  1
32
 40
3.5
 41
7.875
  0
LINE
  5
22E
100
AcDbEntity
  8
A_BEMASSUNGEN
100
AcDbLine
 62
2
  6
CONTINUOUS
 10
100.3185854896
 20
57.7898721282
 11
135.9315844774
 21
57.7898721282
  0
LINE
  5
22F
100
AcDbEntity
  8
A_BEMASSUNGEN
100
AcDbLine
 62
2
  6
CONTINUOUS
 10
128.0209484861
 20
25.7898721282
 11
135.9315844774
 21
25.7898721282
  0
LINE
  5
230
100
AcDbEntity
  8
A_BEMASSUNGEN
100
AcDbLine
 62
2
  6
CONTINUOUS
 10
133.9315844774
 20
57.7898721282
 11
133.9315844774
 21
41.7898721282
  0
LINE
  5
231
100
AcDbEntity
  8
A_BEMASSUNGEN
100
AcDbLine
 62
2
  6
CONTINUOUS
 10
133.9315844774
 20
25.7898721282
 11
133.9315844774
 21
41.7898721282
  0
INSERT
  5
232
100
AcDbEntity
  8
A_BEMASSUNGEN
100
AcDbBlockReference
 62
2
  6
CONTINUOUS
  2
_ARROW_FILLED
 10
133.9315844774
 20
57.7898721282
 41
3.5
 42
3.5
 43
3.5
 50
90.0
  0
INSERT
  5
233
100
AcDbEntity
  8
A_BEMASSUNGEN
100
AcDbBlockReference
 62
2
  6
CONTINUOUS
  2
_ARROW_FILLED
 10
133.9315844774
 20
25.7898721282
 41
3.5
 42
3.5
 43
3.5
 50
270.0
  0
ENDBLK
  5
234
100
AcDbEntity
  8
0
  6
BYBLOCK
 62
0
100
AcDbBlockEnd
  0
BLOCK
  5
235
100
AcDbEntity
  8
A_BEMASSUNGEN
100
AcDbBlockBegin
 62
2
  6
CONTINUOUS
  2
*D2
 70
65
 10
0.0
 20
0.0
  3
*D2
  1

  0
MTEXT
  5
236
100
AcDbEntity
  8
A_BEMASSUNGEN
100
AcDbMText
 62
5
  6
CONTINUOUS
  7
TEXTSTYLE_2
 71
1
 72
1
 10
69.9436032674
 20
15.7717951678
 30
0.0
 11
1.0
 21
0.0
 31
0.0
  1
3.5
 40
3.5
 41
10.5
  0
LINE
  5
237
100
AcDbEntity
  8
A_BEMASSUNGEN
100
AcDbLine
 62
2
  6
CONTINUOUS
 10
63.8185854896
 20
21.5898721282
 11
63.8185854896
 21
9.3967951678
  0
LINE
  5
238
100
AcDbEntity
  8
A_BEMASSUNGEN
100
AcDbLine
 62
2
  6
CONTINUOUS
 10
60.344589266
 20
22.8640436985
 11
60.344589266
 21
9.3967951678
  0
LINE
  5
239
100
AcDbEntity
  8
A_BEMASSUNGEN
100
AcDbLine
 62
2
  6
CONTINUOUS
 10
63.8185854896
 20
11.3967951678
 11
76.9436032674
 21
11.3967951678
  0
LINE
  5
23A
100
AcDbEntity
  8
A_BEMASSUNGEN
100
AcDbLine
 62
2
  6
CONTINUOUS
 10
76.9436032674
 20
11.3967951678
 11
62.0815873778
 21
11.3967951678
  0
LINE
  5
23B
100
AcDbEntity
  8
A_BEMASSUNGEN
100
AcDbLine
 62
2
  6
CONTINUOUS
 10
60.344589266
 20
11.3967951678
 11
52.844589266
 21
11.3967951678
  0
LINE
  5
23C
100
AcDbEntity
  8
A_BEMASSUNGEN
100
AcDbLine
 62
2
  6
CONTINUOUS
 10
52.844589266
 20
11.3967951678
 11
62.0815873778
 21
11.3967951678
  0
INSERT
  5
23D
100
AcDbEntity
  8
A_BEMASSUNGEN
100
AcDbBlockReference
 62
2
  6
CONTINUOUS
  2
_ARROW_FILLED
 10
63.8185854896
 20
11.3967951678
 41
3.5
 42
3.5
 43
3.5
 50
180.0
  0
INSERT
  5
23E
100
AcDbEntity
  8
A_BEMASSUNGEN
100
AcDbBlockReference
 62
2
  6
CONTINUOUS
  2
_ARROW_FILLED
 10
60.344589266
 20
11.3967951678
 41
3.5
 42
3.5
 43
3.5
  0
ENDBLK
  5
23F
100
AcDbEntity
  8
0
  6
BYBLOCK
 62
0
100
AcDbBlockEnd
  0
BLOCK
  5
240
100
AcDbEntity
  8
A_BEMASSUNGEN
100
AcDbBlockBegin
 62
2
  6
CONTINUOUS
  2
*D3
 70
65
 10
0.0
 20
0.0
  3
*D3
  1

  0
MTEXT
  5
241
100
AcDbEntity
  8
A_BEMASSUNGEN
100
AcDbMText
 62
5
  6
CONTINUOUS
  7
TEXTSTYLE_2
 71
2
 72
1
 10
41.344589266
 20
7.2197589687
 30
0.0
 11
1.0
 21
0.0
 31
0.0
  1
38
 40
3.5
 41
7.875
  0
LINE
  5
242
100
AcDbEntity
  8
A_BEMASSUNGEN
100
AcDbLine
 62
2
  6
CONTINUOUS
 10
60.344589266
 20
22.8640436985
 11
60.344589266
 21
0.8447589687
  0
LINE
  5
243
100
AcDbEntity
  8
A_BEMASSUNGEN
100
AcDbLine
 62
2
  6
CONTINUOUS
 10
22.344589266
 20
29.3140436985
 11
22.344589266
 21
0.8447589687
  0
LINE
  5
244
100
AcDbEntity
  8
A_BEMASSUNGEN
100
AcDbLine
 62
2
  6
CONTINUOUS
 10
60.344589266
 20
2.8447589687
 11
41.344589266
 21
2.8447589687
  0
LINE
  5
245
100
AcDbEntity
  8
A_BEMASSUNGEN
100
AcDbLine
 62
2
  6
CONTINUOUS
 10
22.344589266
 20
2.8447589687
 11
41.344589266
 21
2.8447589687
  0
INSERT
  5
246
100
AcDbEntity
  8
A_BEMASSUNGEN
100
AcDbBlockReference
 62
2
  6
CONTINUOUS
  2
_ARROW_FILLED
 10
60.344589266
 20
2.8447589687
 41
3.5
 42
3.5
 43
3.5
 50
0.0
  0
INSERT
  5
247
100
AcDbEntity
  8
A_BEMASSUNGEN
100
AcDbBlockReference
 62
2
  6
CONTINUOUS
  2
_ARROW_FILLED
 10
22.344589266
 20
2.8447589687
 41
3.5
 42
3.5
 43
3.5
 50
180.0
  0
ENDBLK
  5
248
100
AcDbEntity
  8
0
  6
BYBLOCK
 62
0
100
AcDbBlockEnd
  0
BLOCK
  5
249
100
AcDbEntity
  8
A_BEMASSUNGEN
100
AcDbBlockBegin
 62
2
  6
CONTINUOUS
  2
*D4
 70
65
 10
0.0
 20
0.0
  3
*D4
  1

  0
MTEXT
  5
24A
100
AcDbEntity
  8
A_BEMASSUNGEN
100
AcDbMText
 62
5
  6
CONTINUOUS
  7
TEXTSTYLE_2
 71
2
 72
1
 10
82.0685854896
 20
7.2197589687
 30
0.0
 11
1.0
 21
0.0
 31
0.0
  1
36.5
 40
3.5
 41
14.625
  0
LINE
  5
24B
100
AcDbEntity
  8
A_BEMASSUNGEN
100
AcDbLine
 62
2
  6
CONTINUOUS
 10
63.8185854896
 20
21.5898721282
 11
63.8185854896
 21
0.8447589687
  0
LINE
  5
24C
100
AcDbEntity
  8
A_BEMASSUNGEN
100
AcDbLine
 62
2
  6
CONTINUOUS
 10
100.3185854896
 20
25.7898721282
 11
100.3185854896
 21
0.8447589687
  0
LINE
  5
24D
100
AcDbEntity
  8
A_BEMASSUNGEN
100
AcDbLine
 62
2
  6
CONTINUOUS
 10
63.8185854896
 20
2.8447589687
 11
82.0685854896
 21
2.8447589687
  0
LINE
  5
24E
100
AcDbEntity
  8
A_BEMASSUNGEN
100
AcDbLine
 62
2
  6
CONTINUOUS
 10
100.3185854896
 20
2.8447589687
 11
82.0685854896
 21
2.8447589687
  0
INSERT
  5
24F
100
AcDbEntity
  8
A_BEMASSUNGEN
100
AcDbBlockReference
 62
2
  6
CONTINUOUS
  2
_ARROW_FILLED
 10
63.8185854896
 20
2.8447589687
 41
3.5
 42
3.5
 43
3.5
 50
180.0
  0
INSERT
  5
250
100
AcDbEntity
  8
A_BEMASSUNGEN
100
AcDbBlockReference
 62
2
  6
CONTINUOUS
  2
_ARROW_FILLED
 10
100.3185854896
 20
2.8447589687
 41
3.5
 42
3.5
 43
3.5
 50
0.0
  0
ENDBLK
  5
251
100
AcDbEntity
  8
0
  6
BYBLOCK
 62
0
100
AcDbBlockEnd
  0
BLOCK
  5
252
100
AcDbEntity
  8
A_BEMASSUNGEN
100
AcDbBlockBegin
 62
2
  6
CONTINUOUS
  2
*D5
 70
65
 10
0.0
 20
0.0
  3
*D5
  1

  0
MTEXT
  5
253
100
AcDbEntity
  8
A_BEMASSUNGEN
100
AcDbMText
 62
5
  6
CONTINUOUS
  7
TEXTSTYLE_2
 71
2
 72
1
 10
4.0239772155
 20
22.8640436985
 30
0.0
 11
0.0
 21
1.0
 31
0.0
  1
5
 40
3.5
 41
3.75
  0
LINE
  5
254
100
AcDbEntity
  8
A_BEMASSUNGEN
100
AcDbLine
 62
2
  6
CONTINUOUS
 10
21.0426412502
 20
20.3640436985
 11
6.3989772155
 21
20.3640436985
  0
LINE
  5
255
100
AcDbEntity
  8
A_BEMASSUNGEN
100
AcDbLine
 62
2
  6
CONTINUOUS
 10
58.844589266
 20
25.3640436985
 11
6.3989772155
 21
25.3640436985
  0
LINE
  5
256
100
AcDbEntity
  8
A_BEMASSUNGEN
100
AcDbLine
 62
2
  6
CONTINUOUS
 10
8.3989772155
 20
20.3640436985
 11
8.3989772155
 21
12.8640436985
  0
LINE
  5
257
100
AcDbEntity
  8
A_BEMASSUNGEN
100
AcDbLine
 62
2
  6
CONTINUOUS
 10
8.3989772155
 20
12.8640436985
 11
8.3989772155
 21
22.8640436985
  0
LINE
  5
258
100
AcDbEntity
  8
A_BEMASSUNGEN
100
AcDbLine
 62
2
  6
CONTINUOUS
 10
8.3989772155
 20
25.3640436985
 11
8.3989772155
 21
32.8640436985
  0
LINE
  5
259
100
AcDbEntity
  8
A_BEMASSUNGEN
100
AcDbLine
 62
2
  6
CONTINUOUS
 10
8.3989772155
 20
32.8640436985
 11
8.3989772155
 21
22.8640436985
  0
INSERT
  5
25A
100
AcDbEntity
  8
A_BEMASSUNGEN
100
AcDbBlockReference
 62
2
  6
CONTINUOUS
  2
_ARROW_FILLED
 10
8.3989772155
 20
20.3640436985
 41
3.5
 42
3.5
 43
3.5
 50
90.0
  0
INSERT
  5
25B
100
AcDbEntity
  8
A_BEMASSUNGEN
100
AcDbBlockReference
 62
2
  6
CONTINUOUS
  2
_ARROW_FILLED
 10
8.3989772155
 20
25.3640436985
 41
3.5
 42
3.5
 43
3.5
 50
270.0
  0
ENDBLK
  5
25C
100
AcDbEntity
  8
0
  6
BYBLOCK
 62
0
100
AcDbBlockEnd
  0
BLOCK
  5
25D
100
AcDbEntity
  8
A_BEMASSUNGEN
100
AcDbBlockBegin
 62
2
  6
CONTINUOUS
  2
*D6
 70
65
 10
0.0
 20
0.0
  3
*D6
  1

  0
MTEXT
  5
25E
100
AcDbEntity
  8
A_BEMASSUNGEN
100
AcDbMText
 62
5
  6
CONTINUOUS
  7
TEXTSTYLE_2
 71
3
 72
1
 10
121.584932794
 20
16.240835838
 30
0.0
 11
0.0
 21
1.0
 31
0.0
  1
1
 40
3.5
 41
3.0
  0
LINE
  5
25F
100
AcDbEntity
  8
A_BEMASSUNGEN
100
AcDbLine
 62
2
  6
CONTINUOUS
 10
118.8185854896
 20
21.5898721282
 11
127.959932794
 21
21.5898721282
  0
LINE
  5
260
100
AcDbEntity
  8
A_BEMASSUNGEN
100
AcDbLine
 62
2
  6
CONTINUOUS
 10
57.844589266
 20
20.3640436985
 11
127.959932794
 21
20.3640436985
  0
LINE
  5
261
100
AcDbEntity
  8
A_BEMASSUNGEN
100
AcDbLine
 62
2
  6
CONTINUOUS
 10
125.959932794
 20
21.5898721282
 11
125.959932794
 21
29.0898721282
  0
LINE
  5
262
100
AcDbEntity
  8
A_BEMASSUNGEN
100
AcDbLine
 62
2
  6
CONTINUOUS
 10
125.959932794
 20
29.0898721282
 11
125.959932794
 21
20.9769579133
  0
LINE
  5
263
100
AcDbEntity
  8
A_BEMASSUNGEN
100
AcDbLine
 62
2
  6
CONTINUOUS
 10
125.959932794
 20
20.3640436985
 11
125.959932794
 21
14.240835838
  0
LINE
  5
264
100
AcDbEntity
  8
A_BEMASSUNGEN
100
AcDbLine
 62
2
  6
CONTINUOUS
 10
125.959932794
 20
14.240835838
 11
125.959932794
 21
20.9769579133
  0
INSERT
  5
265
100
AcDbEntity
  8
A_BEMASSUNGEN
100
AcDbBlockReference
 62
2
  6
CONTINUOUS
  2
_ARROW_FILLED
 10
125.959932794
 20
21.5898721282
 41
3.5
 42
3.5
 43
3.5
 50
270.0
  0
INSERT
  5
266
100
AcDbEntity
  8
A_BEMASSUNGEN
100
AcDbBlockReference
 62
2
  6
CONTINUOUS
  2
_ARROW_FILLED
 10
125.959932794
 20
20.3640436985
 41
3.5
 42
3.5
 43
3.5
 50
90.0
  0
ENDBLK
  5
267
100
AcDbEntity
  8
0
  6
BYBLOCK
 62
0
100
AcDbBlockEnd
  0
BLOCK
  5
268
100
AcDbEntity
  8
A_BEMASSUNGEN
100
AcDbBlockBegin
 62
2
  6
CONTINUOUS
  2
*D7
 70
65
 10
0.0
 20
0.0
  3
*D7
  1

  0
MTEXT
  5
269
100
AcDbEntity
  8
A_BEMASSUNGEN
100
AcDbMText
 62
5
  6
CONTINUOUS
  7
TEXTSTYLE_2
 71
2
 72
1
 10
4.0239772173
 20
41.3890436985
 30
0.0
 11
0.0
 21
1.0
 31
0.0
  1
32
 40
3.5
 41
7.875
  0
LINE
  5
26A
100
AcDbEntity
  8
A_BEMASSUNGEN
100
AcDbLine
 62
2
  6
CONTINUOUS
 10
60.344589266
 20
25.3640436985
 11
6.3989772173
 21
25.3640436985
  0
LINE
  5
26B
100
AcDbEntity
  8
A_BEMASSUNGEN
100
AcDbLine
 62
2
  6
CONTINUOUS
 10
58.644589266
 20
57.4140436985
 11
6.3989772173
 21
57.4140436985
  0
LINE
  5
26C
100
AcDbEntity
  8
A_BEMASSUNGEN
100
AcDbLine
 62
2
  6
CONTINUOUS
 10
8.3989772173
 20
25.3640436985
 11
8.3989772173
 21
41.3890436985
  0
LINE
  5
26D
100
AcDbEntity
  8
A_BEMASSUNGEN
100
AcDbLine
 62
2
  6
CONTINUOUS
 10
8.3989772173
 20
57.4140436985
 11
8.3989772173
 21
41.3890436985
  0
INSERT
  5
26E
100
AcDbEntity
  8
A_BEMASSUNGEN
100
AcDbBlockReference
 62
2
  6
CONTINUOUS
  2
_ARROW_FILLED
 10
8.3989772173
 20
25.3640436985
 41
3.5
 42
3.5
 43
3.5
 50
270.0
  0
INSERT
  5
26F
100
AcDbEntity
  8
A_BEMASSUNGEN
100
AcDbBlockReference
 62
2
  6
CONTINUOUS
  2
_ARROW_FILLED
 10
8.3989772173
 20
57.4140436985
 41
3.5
 42
3.5
 43
3.5
 50
90.0
  0
ENDBLK
  5
270
100
AcDbEntity
  8
0
  6
BYBLOCK
 62
0
100
AcDbBlockEnd
  0
ENDSEC
  0
SECTION
  2
ENTITIES
  0
DIMENSION
  5
271
100
AcDbEntity
  8
A_BEMASSUNGEN
100
AcDbDimension
 62
2
  6
CONTINUOUS
  2
*D0
 10
133.9315844774
 20
21.5898721282
 11
133.9315844774
 21
16.7158649642
 70
160
  3
DIMSTYLE_1
100
AcDbAlignedDimension
 13
100.3185854896
 23
25.7898721282
 14
118.8185854896
 24
21.5898721282
 50
270.0
100
AcDbRotatedDimension
  0
DIMENSION
  5
272
100
AcDbEntity
  8
A_BEMASSUNGEN
100
AcDbDimension
 62
2
  6
CONTINUOUS
  2
*D1
 10
133.9315844774
 20
25.7898721282
 11
133.9315844774
 21
41.2898724808
 70
160
  3
DIMSTYLE_2
100
AcDbAlignedDimension
 13
100.3185854896
 23
57.7898721282
 14
128.0209484861
 24
25.7898721282
 50
270.0
100
AcDbRotatedDimension
  0
DIMENSION
  5
273
100
AcDbEntity
  8
A_BEMASSUNGEN
100
AcDbDimension
 62
2
  6
CONTINUOUS
  2
*D2
 10
60.344589266
 20
11.3967951678
 11
72.9436058093
 21
11.3967951678
 70
160
  3
DIMSTYLE_3
100
AcDbAlignedDimension
 13
63.8185854896
 23
21.5898721282
 14
60.344589266
 24
22.8640436985
 50
180.0
100
AcDbRotatedDimension
  0
DIMENSION
  5
274
100
AcDbEntity
  8
A_BEMASSUNGEN
100
AcDbDimension
 62
2
  6
CONTINUOUS
  2
*D3
 10
22.344589266
 20
2.8447589687
 11
40.84458914
 21
2.8447589687
 70
160
  3
DIMSTYLE_2
100
AcDbAlignedDimension
 13
60.344589266
 23
22.8640436985
 14
22.344589266
 24
29.3140436985
 50
180.0
100
AcDbRotatedDimension
  0
DIMENSION
  5
275
100
AcDbEntity
  8
A_BEMASSUNGEN
100
AcDbDimension
 62
2
  6
CONTINUOUS
  2
*D4
 10
100.3185854896
 20
2.8447589687
 11
81.568584982
 21
2.8447589687
 70
160
  3
DIMSTYLE_2
100
AcDbAlignedDimension
 13
63.8185854896
 23
21.5898721282
 14
100.3185854896
 24
25.7898721282
100
AcDbRotatedDimension
  0
DIMENSION
  5
276
100
AcDbEntity
  8
A_BEMASSUNGEN
100
AcDbDimension
 62
2
  6
CONTINUOUS
  2
*D5
 10
8.3989772155
 20
25.3640436985
 11
8.3989772155
 21
22.3640435073
 70
160
  3
DIMSTYLE_4
100
AcDbAlignedDimension
 13
21.0426412502
 23
20.3640436985
 14
58.844589266
 24
25.3640436985
 50
90.0
100
AcDbRotatedDimension
  0
DIMENSION
  5
277
100
AcDbEntity
  8
A_BEMASSUNGEN
100
AcDbDimension
 62
2
  6
CONTINUOUS
  2
*D6
 10
125.959932794
 20
20.3640436985
 11
125.959932794
 21
14.7408325269
 70
160
  3
DIMSTYLE_1
100
AcDbAlignedDimension
 13
118.8185854896
 23
21.5898721282
 14
57.844589266
 24
20.3640436985
 50
270.0
100
AcDbRotatedDimension
  0
DIMENSION
  5
278
100
AcDbEntity
  8
A_BEMASSUNGEN
100
AcDbDimension
 62
2
  6
CONTINUOUS
  2
*D7
 10
8.3989772173
 20
57.4140436985
 11
8.3989772173
 21
40.8890436128
 70
160
  3
DIMSTYLE_5
100
AcDbAlignedDimension
 13
60.344589266
 23
25.3640436985
 14
58.644589266
 24
57.4140436985
 50
90.0
100
AcDbRotatedDimension
  0
LINE
  5
279
100
AcDbEntity
  8
0
100
AcDbLine
 62
7
  6
CONTINUOUS
 10
24.344589266
 20
24.5211504796
 11
25.6516960472
 21
23.2140436985
  0
LINE
  5
27A
100
AcDbEntity
  8
0
100
AcDbLine
 62
7
  6
CONTINUOUS
 10
18.5426412502
 20
30.3640436985
 11
18.5426412502
 21
22.8640436985
  0
LINE
  5
27B
100
AcDbEntity
  8
0
100
AcDbLine
 62
7
  6
CONTINUOUS
 10
20.0426412502
 20
22.8640436985
 11
20.0426412502
 21
30.3640436985
  0
LINE
  5
27C
100
AcDbEntity
  8
0
100
AcDbLine
 62
7
  6
CONTINUOUS
 10
22.344589266
 20
53.6140436985
 11
22.344589266
 21
29.3140436985
  0
LINE
  5
27D
100
AcDbEntity
  8
0
100
AcDbLine
 62
7
  6
CONTINUOUS
 10
23.344589266
 20
53.6140436985
 11
23.344589266
 21
29.3140436985
  0
LINE
  5
27E
100
AcDbEntity
  8
0
100
AcDbLine
 62
7
  6
CONTINUOUS
 10
23.344589266
 20
23.5140436985
 11
23.344589266
 21
27.8998301361
  0
LINE
  5
27F
100
AcDbEntity
  8
0
100
AcDbLine
 62
7
  6
CONTINUOUS
 10
23.344589266
 20
55.0282572608
 11
23.344589266
 21
59.4140436985
  0
LINE
  5
280
100
AcDbEntity
  8
0
100
AcDbLine
 62
7
  6
CONTINUOUS
 10
24.344589266
 20
23.5140436985
 11
24.344589266
 21
59.4140436985
  0
LINE
  5
281
100
AcDbEntity
  8
0
100
AcDbLine
 62
7
  6
CONTINUOUS
 10
24.744589266
 20
27.1142457206
 11
24.744589266
 21
33.0640436985
  0
LINE
  5
282
100
AcDbEntity
  8
A_RUNDUNGEN
100
AcDbLine
 62
7
  6
CONTINUOUS
 10
24.744589266
 20
33.0640436985
 11
24.744589266
 21
44.8640436985
  0
LINE
  5
283
100
AcDbEntity
  8
0
100
AcDbLine
 62
7
  6
CONTINUOUS
 10
24.744589266
 20
44.8640436985
 11
24.744589266
 21
55.8138416763
  0
LINE
  5
284
100
AcDbEntity
  8
0
100
AcDbLine
 62
7
  6
CONTINUOUS
 10
25.244589266
 20
43.2140436985
 11
25.244589266
 21
42.8685521956
  0
LINE
  5
285
100
AcDbEntity
  8
0
100
AcDbLine
 62
7
  6
CONTINUOUS
 10
25.244589266
 20
35.0595352013
 11
25.244589266
 21
34.7140436985
  0
LINE
  5
286
100
AcDbEntity
  8
A_RUNDUNGEN
100
AcDbLine
 62
7
  6
CONTINUOUS
 10
25.244589266
 20
35.0595352013
 11
25.244589266
 21
42.8685521956
  0
LINE
  5
287
100
AcDbEntity
  8
0
100
AcDbLine
 62
7
  6
CONTINUOUS
 10
25.444589266
 20
32.3640436985
 11
25.444589266
 21
32.1970298272
  0
LINE
  5
288
100
AcDbEntity
  8
0
100
AcDbLine
 62
7
  6
CONTINUOUS
 10
25.444589266
 20
29.5704856798
 11
25.444589266
 21
28.8640436985
  0
LINE
  5
289
100
AcDbEntity
  8
0
100
AcDbLine
 62
7
  6
CONTINUOUS
 10
25.744589266
 20
42.3095352013
 11
25.744589266
 21
35.6185521956
  0
LINE
  5
28A
100
AcDbEntity
  8
0
100
AcDbLine
 62
7
  6
CONTINUOUS
 10
25.744589266
 20
28.405786129
 11
25.744589266
 21
28.189095583
  0
LINE
  5
28B
100
AcDbEntity
  8
0
100
AcDbLine
 62
7
  6
CONTINUOUS
 10
25.744589266
 20
28.4671689953
 11
25.744589266
 21
34.2140436985
  0
LINE
  5
28C
100
AcDbEntity
  8
0
100
AcDbLine
 62
7
  6
CONTINUOUS
 10
25.744589266
 20
43.7140436985
 11
25.744589266
 21
54.2456845918
  0
LINE
  5
28D
100
AcDbEntity
  8
0
100
AcDbLine
 62
7
  6
CONTINUOUS
 10
26.744589266
 20
29.8640436959
 11
26.744589266
 21
51.6853397303
  0
LINE
  5
28E
100
AcDbEntity
  8
0
100
AcDbLine
 62
7
  6
CONTINUOUS
 10
26.7466313012
 20
51.8640436959
 11
26.744589266
 21
40.1640436959
  0
LINE
  5
28F
100
AcDbEntity
  8
0
100
AcDbLine
 62
7
  6
CONTINUOUS
 10
26.0773843434
 20
27.9959551226
 11
28.3259052083
 21
27.1980928802
  0
LINE
  5
290
100
AcDbEntity
  8
0
100
AcDbLine
 62
7
  6
CONTINUOUS
 10
28.5191937196
 20
27.0041702655
 11
25.9090842301
 21
27.9541724278
  0
LINE
  5
291
100
AcDbEntity
  8
0
100
AcDbLine
 62
7
  6
CONTINUOUS
 10
27.2445893269
 20
40.1640436972
 11
27.2445893805
 21
29.8640436972
  0
LINE
  5
292
100
AcDbEntity
  8
0
100
AcDbLine
 62
7
  6
CONTINUOUS
 10
27.7445893805
 20
29.8640436998
 11
27.7445893269
 21
40.1636946339
  0
LINE
  5
293
100
AcDbEntity
  8
0
100
AcDbLine
 62
7
  6
CONTINUOUS
 10
27.844589266
 20
23.2140436985
 11
27.844589266
 21
22.2140436985
  0
LINE
  5
294
100
AcDbEntity
  8
A_RUNDUNGEN
100
AcDbLine
 62
7
  6
CONTINUOUS
 10
28.9737940659
 20
51.6237786318
 11
28.9737940659
 21
51.1284345188
  0
LINE
  5
295
100
AcDbEntity
  8
A_RUNDUNGEN
100
AcDbLine
 62
7
  6
CONTINUOUS
 10
28.9927889209
 20
51.6301102501
 11
28.9927889209
 21
51.1374051607
  0
LINE
  5
296
100
AcDbEntity
  8
0
100
AcDbLine
 62
7
  6
CONTINUOUS
 10
30.744589266
 20
55.4620224321
 11
30.744589266
 21
55.2032860447
  0
LINE
  5
297
100
AcDbEntity
  8
A_RUNDUNGEN
100
AcDbLine
 62
7
  6
CONTINUOUS
 10
30.744589266
 20
55.2032860447
 11
30.744589266
 21
54.5205591879
  0
LINE
  5
298
100
AcDbEntity
  8
0
100
AcDbLine
 62
7
  6
CONTINUOUS
 10
30.744589266
 20
53.3946067749
 11
30.744589266
 21
54.5205591879
  0
LINE
  5
299
100
AcDbEntity
  8
0
100
AcDbLine
 62
7
  6
CONTINUOUS
 10
27.2466313012
 20
51.8640436972
 11
27.2445893269
 21
40.1640436972
  0
LINE
  5
29A
100
AcDbEntity
  8
0
100
AcDbLine
 62
7
  6
CONTINUOUS
 10
27.7445893269
 20
40.1636946339
 11
27.7466313012
 21
51.8640436998
  0
LINE
  5
29B
100
AcDbEntity
  8
0
100
AcDbLine
 62
7
  6
CONTINUOUS
 10
21.0426412502
 20
20.3640436985
 11
57.844589266
 21
20.3640436985
  0
LINE
  5
29C
100
AcDbEntity
  8
0
100
AcDbLine
 62
7
  6
CONTINUOUS
 10
29.7061963625
 20
28.7509581883
 11
26.9136742007
 21
29.7062043255
  0
LINE
  5
29D
100
AcDbEntity
  8
A_ACHSEN
100
AcDbLine
 62
7
  6
CENTER
 10
32.0557922581
 20
38.6061738846
 11
32.0557922581
 21
51.8992396646
  0
LINE
  5
29E
100
AcDbEntity
  8
A_RUNDUNGEN
100
AcDbLine
 62
7
  6
CONTINUOUS
 10
32.3446774894
 20
51.7525974142
 11
32.3446774894
 21
51.3213732957
  0
LINE
  5
29F
100
AcDbEntity
  8
A_RUNDUNGEN
100
AcDbLine
 62
7
  6
CONTINUOUS
 10
32.3512225157
 20
51.7526545318
 11
32.3512225157
 21
51.3267140247
  0
LINE
  5
2A0
100
AcDbEntity
  8
A_RUNDUNGEN
100
AcDbLine
 62
7
  6
CONTINUOUS
 10
34.7445892814
 20
28.6331502128
 11
34.744589266
 21
28.6333754134
  0
LINE
  5
2A1
100
AcDbEntity
  8
A_RUNDUNGEN
100
AcDbLine
 62
7
  6
CONTINUOUS
 10
34.744589266
 20
33.5189887677
 11
34.744589266
 21
28.1985731508
  0
LINE
  5
2A2
100
AcDbEntity
  8
0
100
AcDbLine
 62
7
  6
CONTINUOUS
 10
34.744589266
 20
27.1365669316
 11
34.744589266
 21
28.1985731508
  0
LINE
  5
2A3
100
AcDbEntity
  8
0
100
AcDbLine
 62
7
  6
CONTINUOUS
 10
34.7428347315
 20
26.9355171999
 11
34.7777408735
 21
30.9353648922
  0
LWPOLYLINE
  5
2A4
100
AcDbEntity
  8
0
100
AcDbPolyline
 62
7
  6
CONTINUOUS
 90
3
 70
0
 10
34.7464105509
 20
28.5980136722
 10
34.7464449096
 20
28.59975355
 10
34.744581555
 20
28.6332027843
  0
LINE
  5
2A5
100
AcDbEntity
  8
0
100
AcDbLine
 62
7
  6
CONTINUOUS
 10
92.604730335
 20
25.9644116644
 11
98.4273451411
 21
26.7827268094
  0
LINE
  5
2A6
100
AcDbEntity
  8
0
100
AcDbLine
 62
7
  6
CONTINUOUS
 10
118.8185854896
 20
21.5898721282
 11
63.8185854896
 21
21.5898721282
  0
LINE
  5
2A7
100
AcDbEntity
  8
0
100
AcDbLine
 62
7
  6
CONTINUOUS
 10
57.844589266
 20
21.8640436985
 11
21.0426412502
 21
21.8640436985
  0
LINE
  5
2A8
100
AcDbEntity
  8
A_RUNDUNGEN
100
AcDbLine
 62
7
  6
CONTINUOUS
 10
55.844589266
 20
22.2140436985
 11
50.8789315001
 21
22.2140436985
  0
LINE
  5
2A9
100
AcDbEntity
  8
0
100
AcDbLine
 62
7
  6
CONTINUOUS
 10
27.844589266
 20
22.2140436985
 11
24.644589266
 21
22.2140436985
  0
LINE
  5
2AA
100
AcDbEntity
  8
0
100
AcDbLine
 62
7
  6
CONTINUOUS
 10
50.644589266
 20
22.2140436985
 11
50.82983369
 21
22.2140436985
  0
LINE
  5
2AB
100
AcDbEntity
  8
A_RUNDUNGEN
100
AcDbLine
 62
7
  6
CONTINUOUS
 10
55.844589266
 20
22.4140436985
 11
44.844589266
 21
22.4140436985
  0
LINE
  5
2AC
100
AcDbEntity
  8
0
100
AcDbLine
 62
7
  6
CONTINUOUS
 10
37.8445503679
 20
22.4140436985
 11
44.844589266
 21
22.4140436985
  0
LINE
  5
2AD
100
AcDbEntity
  8
0
100
AcDbLine
 62
7
  6
CONTINUOUS
 10
27.844589266
 20
23.2140436985
 11
24.644589266
 21
23.2140436985
  0
LINE
  5
2AE
100
AcDbEntity
  8
A_RUNDUNGEN
100
AcDbLine
 62
7
  6
CONTINUOUS
 10
25.5516960472
 20
23.3140436985
 11
37.8445503679
 21
23.3140436985
  0
LINE
  5
2AF
100
AcDbEntity
  8
0
100
AcDbLine
 62
7
  6
CONTINUOUS
 10
58.844589266
 20
25.3640436985
 11
60.344589266
 21
25.3640436985
  0
LINE
  5
2B0
100
AcDbEntity
  8
0
100
AcDbLine
 62
7
  6
CONTINUOUS
 10
37.8445503679
 20
25.4140436985
 11
44.844589266
 21
25.4140436985
  0
LINE
  5
2B1
100
AcDbEntity
  8
A_RUNDUNGEN
100
AcDbLine
 62
7
  6
CONTINUOUS
 10
44.844589266
 20
25.4140436985
 11
55.844589266
 21
25.4140436985
  0
LINE
  5
2B2
100
AcDbEntity
  8
A_RUNDUNGEN
100
AcDbLine
 62
7
  6
CONTINUOUS
 10
60.144589266
 20
25.5640436985
 11
58.644589266
 21
25.5640436985
  0
LINE
  5
2B3
100
AcDbEntity
  8
A_RUNDUNGEN
100
AcDbLine
 62
7
  6
CONTINUOUS
 10
58.644589266
 20
25.5140436985
 11
46.744589266
 21
25.5659675732
  0
LINE
  5
2B4
100
AcDbEntity
  8
0
100
AcDbLine
 62
7
  6
CONTINUOUS
 10
34.7419365127
 20
25.618339358
 11
46.744589266
 21
25.5659675732
  0
LINE
  5
2B5
100
AcDbEntity
  8
0
100
AcDbLine
 62
7
  6
CONTINUOUS
 10
25.1923250343
 20
26.6169847729
 11
34.6417713587
 21
25.6238079433
  0
LINE
  5
2B6
100
AcDbEntity
  8
0
100
AcDbLine
 62
7
  6
CONTINUOUS
 10
25.3827858671
 20
42.6449453979
 11
25.6063926648
 21
42.533141999
  0
LINE
  5
2B7
100
AcDbEntity
  8
0
100
AcDbLine
 62
7
  6
CONTINUOUS
 10
37.8445503679
 20
25.4140436985
 11
37.8445503679
 21
22.4140436985
  0
LINE
  5
2B8
100
AcDbEntity
  8
0
100
AcDbLine
 62
7
  6
CONTINUOUS
 10
38.8445503679
 20
25.4140436985
 11
38.8445503679
 21
22.4140436985
  0
LINE
  5
2B9
100
AcDbEntity
  8
0
100
AcDbLine
 62
7
  6
CONTINUOUS
 10
25.6516960472
 20
59.7140436985
 11
24.344589266
 21
58.4069369173
  0
LINE
  5
2BA
100
AcDbEntity
  8
A_RUNDUNGEN
100
AcDbLine
 62
7
  6
CONTINUOUS
 10
81.5255355938
 20
28.3818855985
 11
82.7103907619
 21
28.4025673224
  0
LINE
  5
2BB
100
AcDbEntity
  8
A_RUNDUNGEN
100
AcDbLine
 62
7
  6
CONTINUOUS
 10
83.9771636853
 20
28.8443856274
 11
85.2375609677
 21
28.8663859438
  0
LINE
  5
2BC
100
AcDbEntity
  8
0
100
AcDbLine
 62
7
  6
CONTINUOUS
 10
85.2375609677
 20
28.8663859438
 11
97.2357281313
 21
29.0761114818
  0
LINE
  5
2BD
100
AcDbEntity
  8
A_RUNDUNGEN
100
AcDbLine
 62
7
  6
CONTINUOUS
 10
51.944589266
 20
26.6140436985
 11
59.8489525337
 21
26.6830240317
  0
LINE
  5
2BE
100
AcDbEntity
  8
0
100
AcDbLine
 62
7
  6
CONTINUOUS
 10
97.9707671235
 20
28.3377094501
 11
79.6142222219
 21
28.1775143096
  0
LINE
  5
2BF
100
AcDbEntity
  8
A_RUNDUNGEN
100
AcDbLine
 62
7
  6
CONTINUOUS
 10
79.1185854896
 20
27.2181466377
 11
76.3143331421
 21
27.1941197076
  0
LINE
  5
2C0
100
AcDbEntity
  8
A_RUNDUNGEN
100
AcDbLine
 62
7
  6
CONTINUOUS
 10
65.3185854896
 20
25.8398721282
 11
79.1185854896
 21
25.9000863695
  0
LINE
  5
2C1
100
AcDbEntity
  8
0
100
AcDbLine
 62
7
  6
CONTINUOUS
 10
79.1185854896
 20
25.9000863695
 11
92.52384446
 21
25.9585782173
  0
LINE
  5
2C2
100
AcDbEntity
  8
0
100
AcDbLine
 62
7
  6
CONTINUOUS
 10
63.8185854896
 20
25.7898721282
 11
100.3185854896
 21
25.7898721282
  0
LINE
  5
2C3
100
AcDbEntity
  8
A_RUNDUNGEN
100
AcDbLine
 62
7
  6
CONTINUOUS
 10
63.8185854896
 20
25.8898721282
 11
75.0185930998
 21
25.889872125
  0
LINE
  5
2C4
100
AcDbEntity
  8
0
100
AcDbLine
 62
7
  6
CONTINUOUS
 10
99.2185854896
 20
28.3398721282
 11
99.5122431713
 21
28.3398721282
  0
LINE
  5
2C5
100
AcDbEntity
  8
0
100
AcDbLine
 62
7
  6
CONTINUOUS
 10
24.344589266
 20
28.8140436985
 11
23.844589266
 21
28.8140436985
  0
LINE
  5
2C6
100
AcDbEntity
  8
0
100
AcDbLine
 62
7
  6
CONTINUOUS
 10
25.444589266
 20
29.1013697721
 11
25.744589266
 21
29.1013697721
  0
LINE
  5
2C7
100
AcDbEntity
  8
0
100
AcDbLine
 62
7
  6
CONTINUOUS
 10
25.444589266
 20
29.1682220437
 11
25.744589266
 21
29.1682220437
  0
LINE
  5
2C8
100
AcDbEntity
  8
0
100
AcDbLine
 62
7
  6
CONTINUOUS
 10
23.844589266
 20
29.2140436985
 11
24.344589266
 21
29.2140436985
  0
LINE
  5
2C9
100
AcDbEntity
  8
0
100
AcDbLine
 62
7
  6
CONTINUOUS
 10
25.444589266
 20
29.5704856798
 11
25.744589266
 21
29.5704856798
  0
LINE
  5
2CA
100
AcDbEntity
  8
0
100
AcDbLine
 62
7
  6
CONTINUOUS
 10
26.744589266
 20
29.8640436959
 11
27.7445893805
 21
29.8640436998
  0
LINE
  5
2CB
100
AcDbEntity
  8
A_RUNDUNGEN
100
AcDbLine
 62
7
  6
CONTINUOUS
 10
46.944589266
 20
27.0726872972
 11
46.744589266
 21
27.0737345044
  0
LINE
  5
2CC
100
AcDbEntity
  8
0
100
AcDbLine
 62
7
  6
CONTINUOUS
 10
28.490492149
 20
27.1693136068
 11
34.744589266
 21
27.1365669316
  0
LINE
  5
2CD
100
AcDbEntity
  8
0
100
AcDbLine
 62
7
  6
CONTINUOUS
 10
46.944589266
 20
26.6576780374
 11
51.944589266
 21
26.6140436985
  0
LINE
  5
2CE
100
AcDbEntity
  8
A_RUNDUNGEN
100
AcDbLine
 62
7
  6
CONTINUOUS
 10
46.9460845538
 20
26.8290210521
 11
46.7423778083
 21
26.8307987739
  0
LINE
  5
2CF
100
AcDbEntity
  8
A_RUNDUNGEN
100
AcDbLine
 62
7
  6
CONTINUOUS
 10
46.944589266
 20
28.5877609691
 11
46.7577248164
 21
28.5893917104
  0
LINE
  5
2D0
100
AcDbEntity
  8
A_RUNDUNGEN
100
AcDbLine
 62
7
  6
CONTINUOUS
 10
34.7581817396
 20
28.6941101364
 11
34.744589266
 21
28.6942287561
  0
LINE
  5
2D1
100
AcDbEntity
  8
0
100
AcDbLine
 62
7
  6
CONTINUOUS
 10
29.7849297939
 20
28.7375110486
 11
34.2489525337
 21
28.6985541124
  0
LINE
  5
2D2
100
AcDbEntity
  8
A_RUNDUNGEN
100
AcDbLine
 62
7
  6
CONTINUOUS
 10
34.744589266
 20
29.8545462699
 11
34.768306906
 21
29.8543392892
  0
LINE
  5
2D3
100
AcDbEntity
  8
A_RUNDUNGEN
100
AcDbLine
 62
7
  6
CONTINUOUS
 10
46.7678499828
 20
29.7496208632
 11
46.944589266
 21
29.7480784828
  0
LINE
  5
2D4
100
AcDbEntity
  8
0
100
AcDbLine
 62
7
  6
CONTINUOUS
 10
46.7423752191
 20
26.8305020793
 11
28.6025171216
 21
26.9891029399
  0
LINE
  5
2D5
100
AcDbEntity
  8
A_RUNDUNGEN
100
AcDbLine
 62
7
  6
CONTINUOUS
 10
36.3858449386
 20
40.9189613443
 11
37.5845847653
 21
47.9170341381
  0
LINE
  5
2D6
100
AcDbEntity
  8
0
100
AcDbLine
 62
7
  6
CONTINUOUS
 10
97.1659185056
 20
33.0755022624
 11
85.1677513419
 21
32.8657767244
  0
LINE
  5
2D7
100
AcDbEntity
  8
0
100
AcDbLine
 62
7
  6
CONTINUOUS
 10
20.0426412502
 20
30.3640436985
 11
18.5426412502
 21
30.3640436985
  0
LINE
  5
2D8
100
AcDbEntity
  8
0
100
AcDbLine
 62
7
  6
CONTINUOUS
 10
25.444589266
 20
32.1970298272
 11
25.744589266
 21
32.1970298272
  0
LINE
  5
2D9
100
AcDbEntity
  8
0
100
AcDbLine
 62
7
  6
CONTINUOUS
 10
25.744589266
 20
32.2288069315
 11
25.444589266
 21
32.2288069315
  0
LINE
  5
2DA
100
AcDbEntity
  8
A_ACHSEN
100
AcDbLine
 62
7
  6
CONTINUOUS
 10
54.694474266
 20
32.2640436985
 11
53.994704266
 21
32.2640436985
  0
LINE
  5
2DB
100
AcDbEntity
  8
A_ACHSEN
100
AcDbLine
 62
7
  6
CENTER
 10
52.595164266
 20
32.2640436985
 11
48.794589266
 21
32.2640436985
  0
LINE
  5
2DC
100
AcDbEntity
  8
A_ACHSEN
100
AcDbLine
 62
7
  6
CENTER
 10
56.094014266
 20
32.2640436985
 11
59.894589266
 21
32.2640436985
  0
LINE
  5
2DD
100
AcDbEntity
  8
A_ACHSEN
100
AcDbLine
 62
7
  6
CONTINUOUS
 10
70.1684704865
 20
32.2898721267
 11
69.4687004865
 21
32.2898721267
  0
LINE
  5
2DE
100
AcDbEntity
  8
A_ACHSEN
100
AcDbLine
 62
7
  6
CENTER
 10
68.0691604865
 20
32.2898721267
 11
63.9679268696
 21
32.2898721267
  0
LINE
  5
2DF
100
AcDbEntity
  8
A_ACHSEN
100
AcDbLine
 62
7
  6
CENTER
 10
71.5680104865
 20
32.2898721267
 11
75.6692441034
 21
32.2898721267
  0
LINE
  5
2E0
100
AcDbEntity
  8
0
100
AcDbLine
 62
7
  6
CONTINUOUS
 10
25.344589266
 20
33.4640436985
 11
25.144589266
 21
33.4640436985
  0
LINE
  5
2E1
100
AcDbEntity
  8
0
100
AcDbLine
 62
7
  6
CONTINUOUS
 10
34.7777408735
 20
30.9353648922
 11
46.7772813611
 21
30.8303497715
  0
LINE
  5
2E2
100
AcDbEntity
  8
A_RUNDUNGEN
100
AcDbLine
 62
7
  6
CONTINUOUS
 10
27.7445893552
 20
34.7291229258
 11
33.7794887627
 21
34.5183795947
  0
LINE
  5
2E3
100
AcDbEntity
  8
0
100
AcDbLine
 62
7
  6
CONTINUOUS
 10
34.076883637
 20
39.285346424
 11
33.8035293935
 21
39.3321708324
  0
LINE
  5
2E4
100
AcDbEntity
  8
0
100
AcDbLine
 62
7
  6
CONTINUOUS
 10
32.3789497696
 20
39.5761952063
 11
29.8609531716
 21
40.0075172137
  0
LINE
  5
2E5
100
AcDbEntity
  8
0
100
AcDbLine
 62
7
  6
CONTINUOUS
 10
44.844589266
 20
25.4140436985
 11
44.844589266
 21
22.4140436985
  0
LINE
  5
2E6
100
AcDbEntity
  8
0
100
AcDbLine
 62
7
  6
CONTINUOUS
 10
46.744589266
 20
26.3351238696
 11
46.744589266
 21
25.5659675732
  0
LINE
  5
2E7
100
AcDbEntity
  8
0
100
AcDbLine
 62
7
  6
CONTINUOUS
 10
46.944589266
 20
26.6576780374
 11
46.944589266
 21
29.7480784828
  0
LINE
  5
2E8
100
AcDbEntity
  8
0
100
AcDbLine
 62
7
  6
CONTINUOUS
 10
47.344589266
 20
57.4140436985
 11
47.344589266
 21
57.3647378342
  0
LINE
  5
2E9
100
AcDbEntity
  8
0
100
AcDbLine
 62
7
  6
CONTINUOUS
 10
47.344589266
 20
25.5140436985
 11
47.344589266
 21
25.5638239733
  0
LINE
  5
2EA
100
AcDbEntity
  8
0
100
AcDbLine
 62
7
  6
CONTINUOUS
 10
46.7772813611
 20
30.8303497715
 11
46.7423752191
 21
26.8305020793
  0
LINE
  5
2EB
100
AcDbEntity
  8
0
100
AcDbLine
 62
7
  6
CONTINUOUS
 10
91.9333384051
 20
39.6592728883
 11
94.4354059373
 21
40.1750282622
  0
LINE
  5
2EC
100
AcDbEntity
  8
0
100
AcDbLine
 62
7
  6
CONTINUOUS
 10
99.2185854896
 20
35.3398721282
 11
99.5185854896
 21
35.3398721282
  0
LINE
  5
2ED
100
AcDbEntity
  8
0
100
AcDbLine
 62
7
  6
CONTINUOUS
 10
97.9707671235
 20
35.3420348063
 11
97.7142222219
 21
35.3442736398
  0
LINE
  5
2EE
100
AcDbEntity
  8
0
100
AcDbLine
 62
7
  6
CONTINUOUS
 10
54.9729251182
 20
41.230519821
 11
56.5014242573
 21
39.7868478734
  0
LINE
  5
2EF
100
AcDbEntity
  8
0
100
AcDbLine
 62
7
  6
CONTINUOUS
 10
49.094603797
 20
32.2516915288
 11
49.0881376822
 21
34.9999543905
  0
LINE
  5
2F0
100
AcDbEntity
  8
A_RUNDUNGEN
100
AcDbLine
 62
7
  6
CONTINUOUS
 10
49.0881376822
 20
34.9999543905
 11
49.0677485013
 21
43.6658734986
  0
LINE
  5
2F1
100
AcDbEntity
  8
0
100
AcDbLine
 62
7
  6
CONTINUOUS
 10
48.344589266
 20
59.7140436985
 11
48.344589266
 21
60.7140436985
  0
LINE
  5
2F2
100
AcDbEntity
  8
0
100
AcDbLine
 62
7
  6
CONTINUOUS
 10
48.4133503679
 20
57.7140436985
 11
48.4133503679
 21
60.7140436985
  0
LINE
  5
2F3
100
AcDbEntity
  8
0
100
AcDbLine
 62
7
  6
CONTINUOUS
 10
49.4133503679
 20
57.7140436985
 11
49.4133503679
 21
60.7140436985
  0
LINE
  5
2F4
100
AcDbEntity
  8
0
100
AcDbLine
 62
7
  6
CONTINUOUS
 10
50.344589266
 20
57.4140436985
 11
50.344589266
 21
57.3778278866
  0
LINE
  5
2F5
100
AcDbEntity
  8
0
100
AcDbLine
 62
7
  6
CONTINUOUS
 10
50.344589266
 20
25.5140436985
 11
50.344589266
 21
25.5502595103
  0
LINE
  5
2F6
100
AcDbEntity
  8
A_RUNDUNGEN
100
AcDbLine
 62
7
  6
CONTINUOUS
 10
50.444589266
 20
25.5498231752
 11
50.444589266
 21
25.4140436985
  0
LINE
  5
2F7
100
AcDbEntity
  8
A_RUNDUNGEN
100
AcDbLine
 62
7
  6
CONTINUOUS
 10
50.444589266
 20
57.3782642217
 11
50.444589266
 21
57.5140436985
  0
LINE
  5
2F8
100
AcDbEntity
  8
0
100
AcDbLine
 62
7
  6
CONTINUOUS
 10
34.1339473003
 20
52.9973992471
 11
29.2245790882
 21
48.0783451072
  0
LINE
  5
2F9
100
AcDbEntity
  8
0
100
AcDbLine
 62
7
  6
CONTINUOUS
 10
98.4342862765
 20
41.7749726378
 11
98.2537293231
 21
41.7655100488
  0
LINE
  5
2FA
100
AcDbEntity
  8
A_RUNDUNGEN
100
AcDbLine
 62
7
  6
CONTINUOUS
 10
55.9852250294
 20
40.8389234529
 11
56.5014242573
 21
39.7868478734
  0
LINE
  5
2FB
100
AcDbEntity
  8
0
100
AcDbLine
 62
7
  6
CONTINUOUS
 10
56.5014242573
 20
39.7868478734
 11
59.0578301138
 21
34.5765879057
  0
LINE
  5
2FC
100
AcDbEntity
  8
A_RUNDUNGEN
100
AcDbLine
 62
7
  6
CONTINUOUS
 10
54.9729251182
 20
41.230519821
 11
54.9124062589
 21
43.3509767217
  0
LINE
  5
2FD
100
AcDbEntity
  8
0
100
AcDbLine
 62
7
  6
CONTINUOUS
 10
52.648985578
 20
60.6140436985
 11
52.648985578
 21
60.7140436985
  0
LINE
  5
2FE
100
AcDbEntity
  8
0
100
AcDbLine
 62
7
  6
CONTINUOUS
 10
53.244589266
 20
57.390481604
 11
53.244589266
 21
56.649688168
  0
LINE
  5
2FF
100
AcDbEntity
  8
A_RUNDUNGEN
100
AcDbLine
 62
7
  6
CONTINUOUS
 10
53.244589266
 20
54.7735929852
 11
53.244589266
 21
55.9062047601
  0
LINE
  5
300
100
AcDbEntity
  8
0
100
AcDbLine
 62
7
  6
CONTINUOUS
 10
53.544589266
 20
54.7738886358
 11
53.544589266
 21
56.40008071
  0
LINE
  5
301
100
AcDbEntity
  8
A_ACHSEN
100
AcDbLine
 62
7
  6
CONTINUOUS
 10
54.344589266
 20
32.6139286985
 11
54.344589266
 21
31.9141586985
  0
LINE
  5
302
100
AcDbEntity
  8
A_ACHSEN
100
AcDbLine
 62
7
  6
CENTER
 10
54.344589266
 20
30.5146186985
 11
54.344589266
 21
26.7140436985
  0
LINE
  5
303
100
AcDbEntity
  8
A_ACHSEN
100
AcDbLine
 62
7
  6
CENTER
 10
54.344589266
 20
34.0134686985
 11
54.344589266
 21
37.8140436985
  0
LINE
  5
304
100
AcDbEntity
  8
0
100
AcDbLine
 62
7
  6
CONTINUOUS
 10
54.4505268501
 20
60.6140436985
 11
54.4505268501
 21
60.7140436985
  0
LINE
  5
305
100
AcDbEntity
  8
A_RUNDUNGEN
100
AcDbLine
 62
7
  6
CONTINUOUS
 10
55.344589266
 20
57.5140436985
 11
55.344589266
 21
57.3996446407
  0
LINE
  5
306
100
AcDbEntity
  8
A_RUNDUNGEN
100
AcDbLine
 62
7
  6
CONTINUOUS
 10
55.344589266
 20
25.5284427562
 11
55.344589266
 21
25.4140436985
  0
LINE
  5
307
100
AcDbEntity
  8
A_RUNDUNGEN
100
AcDbLine
 62
7
  6
CONTINUOUS
 10
55.844589266
 20
22.2711865556
 11
55.844589266
 21
22.2140436985
  0
LINE
  5
308
100
AcDbEntity
  8
A_RUNDUNGEN
100
AcDbLine
 62
7
  6
CONTINUOUS
 10
55.844589266
 20
22.4140436985
 11
55.844589266
 21
25.4140436985
  0
LINE
  5
309
100
AcDbEntity
  8
0
100
AcDbLine
 62
7
  6
CONTINUOUS
 10
36.2627032932
 20
48.7601131587
 11
37.1727599015
 21
49.6719652613
  0
LINE
  5
30A
100
AcDbEntity
  8
0
100
AcDbLine
 62
7
  6
CONTINUOUS
 10
92.0446778343
 20
51.0155912808
 11
92.1944583009
 21
51.0464657795
  0
LINE
  5
30B
100
AcDbEntity
  8
0
100
AcDbLine
 62
7
  6
CONTINUOUS
 10
93.6100259101
 20
51.3382591033
 11
93.8816508909
 21
51.3942496158
  0
LINE
  5
30C
100
AcDbEntity
  8
0
100
AcDbLine
 62
7
  6
CONTINUOUS
 10
25.344589266
 20
44.4640436985
 11
25.144589266
 21
44.4640436985
  0
LINE
  5
30D
100
AcDbEntity
  8
0
100
AcDbLine
 62
7
  6
CONTINUOUS
 10
98.7185854896
 20
44.7898721282
 11
98.4185854896
 21
44.7898721282
  0
LINE
  5
30E
100
AcDbEntity
  8
A_ACHSEN
100
AcDbLine
 62
7
  6
CENTER
 10
86.1028272116
 20
45.1981391968
 11
98.1410312083
 21
45.1981391968
  0
LINE
  5
30F
100
AcDbEntity
  8
A_ACHSEN
100
AcDbLine
 62
7
  6
CENTER
 10
25.4092593681
 20
45.2527067746
 11
38.7023251481
 21
45.2527067746
  0
LINE
  5
310
100
AcDbEntity
  8
0
100
AcDbLine
 62
7
  6
CONTINUOUS
 10
98.7185854896
 20
46.4642123282
 11
98.4185854896
 21
46.4642123282
  0
LINE
  5
311
100
AcDbEntity
  8
0
100
AcDbLine
 62
7
  6
CONTINUOUS
 10
32.0371081529
 20
50.8964231453
 11
31.7350393797
 21
50.9481662294
  0
LINE
  5
312
100
AcDbEntity
  8
0
100
AcDbLine
 62
7
  6
CONTINUOUS
 10
30.3104597557
 20
51.1921906032
 11
30.0371055122
 21
51.2390150116
  0
LINE
  5
313
100
AcDbEntity
  8
0
100
AcDbLine
 62
7
  6
CONTINUOUS
 10
53.2164461685
 20
49.7548355589
 11
67.1625544556
 21
43.5620892297
  0
LINE
  5
314
100
AcDbEntity
  8
0
100
AcDbLine
 62
7
  6
CONTINUOUS
 10
56.844589266
 20
60.7140436985
 11
56.844589266
 21
57.7140436985
  0
LINE
  5
315
100
AcDbEntity
  8
A_RUNDUNGEN
100
AcDbLine
 62
7
  6
CONTINUOUS
 10
58.644589266
 20
25.5140436985
 11
58.644589266
 21
26.6725137127
  0
LINE
  5
316
100
AcDbEntity
  8
A_RUNDUNGEN
100
AcDbLine
 62
7
  6
CONTINUOUS
 10
58.644589266
 20
56.3555736843
 11
58.644589266
 21
57.4140436985
  0
LINE
  5
317
100
AcDbEntity
  8
0
100
AcDbLine
 62
7
  6
CONTINUOUS
 10
58.844589266
 20
77.3640436985
 11
58.844589266
 21
57.5640436985
  0
LINE
  5
318
100
AcDbEntity
  8
A_RUNDUNGEN
100
AcDbLine
 62
7
  6
CONTINUOUS
 10
58.844589266
 20
57.5640436985
 11
58.844589266
 21
57.3640436985
  0
LINE
  5
319
100
AcDbEntity
  8
A_RUNDUNGEN
100
AcDbLine
 62
7
  6
CONTINUOUS
 10
58.844589266
 20
25.5640436985
 11
58.844589266
 21
25.3640436985
  0
LINE
  5
31A
100
AcDbEntity
  8
0
100
AcDbLine
 62
7
  6
CONTINUOUS
 10
58.844589266
 20
25.3640436985
 11
58.844589266
 21
22.8640436985
  0
LINE
  5
31B
100
AcDbEntity
  8
A_RUNDUNGEN
100
AcDbLine
 62
7
  6
CONTINUOUS
 10
60.144589266
 20
57.3640436985
 11
60.144589266
 21
56.2440181322
  0
LINE
  5
31C
100
AcDbEntity
  8
A_RUNDUNGEN
100
AcDbLine
 62
7
  6
CONTINUOUS
 10
60.144589266
 20
26.7840692647
 11
60.144589266
 21
25.5640436985
  0
LINE
  5
31D
100
AcDbEntity
  8
A_RUNDUNGEN
100
AcDbLine
 62
7
  6
CONTINUOUS
 10
60.344589266
 20
53.1598144581
 11
60.344589266
 21
53.0904989943
  0
LINE
  5
31E
100
AcDbEntity
  8
A_RUNDUNGEN
100
AcDbLine
 62
7
  6
CONTINUOUS
 10
60.344589266
 20
49.4605727241
 11
60.344589266
 21
49.4033934457
  0
LINE
  5
31F
100
AcDbEntity
  8
0
100
AcDbLine
 62
7
  6
CONTINUOUS
 10
60.344589266
 20
22.8640436985
 11
60.344589266
 21
25.3640436985
  0
LINE
  5
320
100
AcDbEntity
  8
A_RUNDUNGEN
100
AcDbLine
 62
7
  6
CONTINUOUS
 10
60.344589266
 20
25.3640436985
 11
60.344589266
 21
45.0601994463
  0
LINE
  5
321
100
AcDbEntity
  8
A_RUNDUNGEN
100
AcDbLine
 62
7
  6
CONTINUOUS
 10
60.344589266
 20
56.0881364578
 11
60.344589266
 21
57.5640436985
  0
LINE
  5
322
100
AcDbEntity
  8
0
100
AcDbLine
 62
7
  6
CONTINUOUS
 10
60.344589266
 20
57.5640436985
 11
60.344589266
 21
77.3640436985
  0
LINE
  5
323
100
AcDbEntity
  8
A_RUNDUNGEN
100
AcDbLine
 62
7
  6
CONTINUOUS
 10
56.7748971145
 20
43.4287685771
 11
56.7272163935
 21
39.5262426474
  0
LINE
  5
324
100
AcDbEntity
  8
0
100
AcDbLine
 62
7
  6
CONTINUOUS
 10
56.8017277612
 20
43.4453589823
 11
56.7508180956
 21
39.2785534926
  0
LINE
  5
325
100
AcDbEntity
  8
0
100
AcDbLine
 62
7
  6
CONTINUOUS
 10
85.5166185652
 20
50.3374787283
 11
83.0941697398
 21
50.3317791889
  0
LINE
  5
326
100
AcDbEntity
  8
A_RUNDUNGEN
100
AcDbLine
 62
7
  6
CONTINUOUS
 10
73.3275255785
 20
50.3088002213
 11
83.0941697398
 21
50.3317791889
  0
LINE
  5
327
100
AcDbEntity
  8
0
100
AcDbLine
 62
7
  6
CONTINUOUS
 10
38.5863954838
 20
50.2591451238
 11
50.7755162887
 21
50.2711575242
  0
LINE
  5
328
100
AcDbEntity
  8
0
100
AcDbLine
 62
7
  6
CONTINUOUS
 10
98.7185854896
 20
46.8834007432
 11
98.4185854896
 21
46.8834007432
  0
LINE
  5
329
100
AcDbEntity
  8
0
100
AcDbLine
 62
7
  6
CONTINUOUS
 10
98.7185854896
 20
46.8985478464
 11
98.4185854896
 21
46.8985478464
  0
LINE
  5
32A
100
AcDbEntity
  8
0
100
AcDbLine
 62
7
  6
CONTINUOUS
 10
98.7185854896
 20
47.500414385
 11
98.4185854896
 21
47.500414385
  0
LINE
  5
32B
100
AcDbEntity
  8
0
100
AcDbLine
 62
7
  6
CONTINUOUS
 10
98.7185854896
 20
48.3809307432
 11
98.4185854896
 21
48.3809307432
  0
LINE
  5
32C
100
AcDbEntity
  8
0
100
AcDbLine
 62
7
  6
CONTINUOUS
 10
98.7185854896
 20
50.9224307432
 11
98.4185854896
 21
50.9224307432
  0
LINE
  5
32D
100
AcDbEntity
  8
0
100
AcDbLine
 62
7
  6
CONTINUOUS
 10
61.344589266
 20
74.8640436985
 11
61.344589266
 21
64.1140436985
  0
LINE
  5
32E
100
AcDbEntity
  8
A_ACHSEN
100
AcDbLine
 62
7
  6
CENTER
 10
62.0498647251
 20
46.8358463648
 11
62.0498647251
 21
55.7286041652
  0
LINE
  5
32F
100
AcDbEntity
  8
0
100
AcDbLine
 62
7
  6
CONTINUOUS
 10
63.8185854896
 20
21.5898721282
 11
63.8185854896
 21
25.9160369072
  0
LINE
  5
330
100
AcDbEntity
  8
A_RUNDUNGEN
100
AcDbLine
 62
7
  6
CONTINUOUS
 10
63.8185854896
 20
25.8898721282
 11
63.8185854907
 21
45.0469731203
  0
LINE
  5
331
100
AcDbEntity
  8
A_RUNDUNGEN
100
AcDbLine
 62
7
  6
CONTINUOUS
 10
63.8185854922
 20
49.4535569634
 11
63.8185854922
 21
49.5301031154
  0
LINE
  5
332
100
AcDbEntity
  8
A_RUNDUNGEN
100
AcDbLine
 62
7
  6
CONTINUOUS
 10
63.8185854933
 20
53.0321913599
 11
63.8185854934
 21
53.1126105244
  0
LINE
  5
333
100
AcDbEntity
  8
A_RUNDUNGEN
100
AcDbLine
 62
7
  6
CONTINUOUS
 10
63.8185854943
 20
56.0610318452
 11
63.8185854896
 21
57.6898721282
  0
LINE
  5
334
100
AcDbEntity
  8
0
100
AcDbLine
 62
7
  6
CONTINUOUS
 10
63.8185854896
 20
57.6637073492
 11
63.8185854896
 21
61.5898721282
  0
LINE
  5
335
100
AcDbEntity
  8
0
100
AcDbLine
 62
7
  6
CONTINUOUS
 10
53.3958610077
 20
49.6751666961
 11
50.2326634268
 21
46.4970492647
  0
LINE
  5
336
100
AcDbEntity
  8
0
100
AcDbLine
 62
7
  6
CONTINUOUS
 10
29.7061963625
 20
52.8771292086
 11
26.9136742007
 21
51.9218830714
  0
LINE
  5
337
100
AcDbEntity
  8
A_RUNDUNGEN
100
AcDbLine
 62
7
  6
CONTINUOUS
 10
27.7465179738
 20
51.2146866011
 11
29.2051633862
 21
51.7009017385
  0
LINE
  5
338
100
AcDbEntity
  8
0
100
AcDbLine
 62
7
  6
CONTINUOUS
 10
32.8964019061
 20
51.7574122403
 11
32.3512225157
 21
51.7526545318
  0
LINE
  5
339
100
AcDbEntity
  8
A_RUNDUNGEN
100
AcDbLine
 62
7
  6
CONTINUOUS
 10
29.3589140014
 20
51.726541051
 11
32.3446774894
 21
51.7525974142
  0
LINE
  5
33A
100
AcDbEntity
  8
A_RUNDUNGEN
100
AcDbLine
 62
7
  6
CONTINUOUS
 10
34.0646093996
 20
52.9279245464
 11
30.2489525337
 21
52.8946258134
  0
LINE
  5
33B
100
AcDbEntity
  8
0
100
AcDbLine
 62
7
  6
CONTINUOUS
 10
29.7849297939
 20
52.8905763483
 11
30.2489525337
 21
52.8946258134
  0
LINE
  5
33C
100
AcDbEntity
  8
0
100
AcDbLine
 62
7
  6
CONTINUOUS
 10
30.2489525337
 20
54.7033050832
 11
26.2402259982
 21
54.6683214567
  0
LINE
  5
33D
100
AcDbEntity
  8
0
100
AcDbLine
 62
7
  6
CONTINUOUS
 10
25.993280275
 20
54.4956811649
 11
30.744589266
 21
54.5205591879
  0
LINE
  5
33E
100
AcDbEntity
  8
A_RUNDUNGEN
100
AcDbLine
 62
7
  6
CONTINUOUS
 10
66.3716894519
 20
54.7924469802
 11
78.3415847271
 21
54.8206097587
  0
LINE
  5
33F
100
AcDbEntity
  8
0
100
AcDbLine
 62
7
  6
CONTINUOUS
 10
78.3415847271
 20
54.8206097587
 11
85.7131371991
 21
54.8379535527
  0
LINE
  5
340
100
AcDbEntity
  8
0
100
AcDbLine
 62
7
  6
CONTINUOUS
 10
57.7163459361
 20
54.7779999094
 11
38.3748540473
 21
54.7589388346
  0
LINE
  5
341
100
AcDbEntity
  8
A_ACHSEN
100
AcDbLine
 62
7
  6
CENTER
 10
57.6034858249
 20
51.282225265
 11
66.4962436253
 21
51.282225265
  0
LINE
  5
342
100
AcDbEntity
  8
A_ACHSEN
100
AcDbLine
 62
7
  6
CONTINUOUS
 10
98.7185854896
 20
51.8491007432
 11
98.4185854896
 21
51.8491007432
  0
LINE
  5
343
100
AcDbEntity
  8
0
100
AcDbLine
 62
7
  6
CONTINUOUS
 10
27.7466313012
 20
51.8640436998
 11
26.7466313012
 21
51.8640436959
  0
LINE
  5
344
100
AcDbEntity
  8
0
100
AcDbLine
 62
7
  6
CONTINUOUS
 10
98.7185854896
 20
52.7263871014
 11
98.4185854896
 21
52.7263871014
  0
LINE
  5
345
100
AcDbEntity
  8
0
100
AcDbLine
 62
7
  6
CONTINUOUS
 10
98.7185854896
 20
53.32825364
 11
98.4185854896
 21
53.32825364
  0
LINE
  5
346
100
AcDbEntity
  8
0
100
AcDbLine
 62
7
  6
CONTINUOUS
 10
98.7185854896
 20
53.3434007432
 11
98.4185854896
 21
53.3434007432
  0
LINE
  5
347
100
AcDbEntity
  8
0
100
AcDbLine
 62
7
  6
CONTINUOUS
 10
23.844589266
 20
53.7140436985
 11
24.344589266
 21
53.7140436985
  0
LINE
  5
348
100
AcDbEntity
  8
0
100
AcDbLine
 62
7
  6
CONTINUOUS
 10
24.344589266
 20
54.1140436985
 11
23.844589266
 21
54.1140436985
  0
LINE
  5
349
100
AcDbEntity
  8
A_RUNDUNGEN
100
AcDbLine
 62
7
  6
CONTINUOUS
 10
90.1807526654
 20
54.8956237423
 11
88.3866513473
 21
54.8956237428
  0
LINE
  5
34A
100
AcDbEntity
  8
0
100
AcDbLine
 62
7
  6
CONTINUOUS
 10
96.2360378961
 20
54.6610197031
 11
91.8478745874
 21
54.7376153786
  0
LINE
  5
34B
100
AcDbEntity
  8
0
100
AcDbLine
 62
7
  6
CONTINUOUS
 10
73.8829744897
 20
46.5365251928
 11
65.5819126408
 21
54.8212417274
  0
LINE
  5
34C
100
AcDbEntity
  8
0
100
AcDbLine
 62
7
  6
CONTINUOUS
 10
67.4074393044
 20
39.3343064754
 11
67.35724863
 21
43.4422647836
  0
LINE
  5
34D
100
AcDbEntity
  8
A_RUNDUNGEN
100
AcDbLine
 62
7
  6
CONTINUOUS
 10
67.4313163132
 20
39.5594626028
 11
67.3840783227
 21
43.4257524607
  0
LINE
  5
34E
100
AcDbEntity
  8
0
100
AcDbLine
 62
7
  6
CONTINUOUS
 10
65.3185854896
 20
57.7398721282
 11
65.3185854896
 21
57.1520403211
  0
LINE
  5
34F
100
AcDbEntity
  8
A_RUNDUNGEN
100
AcDbLine
 62
7
  6
CONTINUOUS
 10
65.3185854896
 20
25.8398721282
 11
65.3185854896
 21
25.8898721282
  0
LINE
  5
350
100
AcDbEntity
  8
A_RUNDUNGEN
100
AcDbLine
 62
7
  6
CONTINUOUS
 10
65.3185854896
 20
56.5956237505
 11
65.3185854896
 21
57.1520403211
  0
LINE
  5
351
100
AcDbEntity
  8
A_RUNDUNGEN
100
AcDbLine
 62
7
  6
CONTINUOUS
 10
63.8276369577
 20
33.3558927495
 11
63.8185854868
 21
33.1780763815
  0
LINE
  5
352
100
AcDbEntity
  8
0
100
AcDbLine
 62
7
  6
CONTINUOUS
 10
68.8980600823
 20
67.6796834895
 11
70.6497277132
 21
74.2169960857
  0
LINE
  5
353
100
AcDbEntity
  8
0
100
AcDbLine
 62
7
  6
CONTINUOUS
 10
71.6156535395
 20
73.9581770406
 11
69.8639859086
 21
67.4208644444
  0
LINE
  5
354
100
AcDbEntity
  8
0
100
AcDbLine
 62
7
  6
CONTINUOUS
 10
72.4075115116
 20
77.1013168847
 11
69.7988263653
 21
67.5208607328
  0
LINE
  5
355
100
AcDbEntity
  8
0
100
AcDbLine
 62
7
  6
CONTINUOUS
 10
71.2461317574
 20
67.1267705122
 11
73.8548169037
 21
76.7072266641
  0
LINE
  5
356
100
AcDbEntity
  8
A_RUNDUNGEN
100
AcDbLine
 62
7
  6
CONTINUOUS
 10
53.5467134864
 20
56.1566691608
 11
52.7489525337
 21
56.1497072065
  0
LINE
  5
357
100
AcDbEntity
  8
0
100
AcDbLine
 62
7
  6
CONTINUOUS
 10
31.2402259982
 20
55.9620033936
 11
52.7489525337
 21
56.1497072065
  0
LINE
  5
358
100
AcDbEntity
  8
A_RUNDUNGEN
100
AcDbLine
 62
7
  6
CONTINUOUS
 10
30.8708010979
 20
55.7712371725
 11
53.544589266
 21
55.8899579347
  0
LINE
  5
359
100
AcDbEntity
  8
0
100
AcDbLine
 62
7
  6
CONTINUOUS
 10
34.7419365127
 20
57.3097480389
 11
53.244589266
 21
57.390481604
  0
LINE
  5
35A
100
AcDbEntity
  8
A_RUNDUNGEN
100
AcDbLine
 62
7
  6
CONTINUOUS
 10
53.244589266
 20
57.390481604
 11
58.644589266
 21
57.4140436985
  0
LINE
  5
35B
100
AcDbEntity
  8
A_RUNDUNGEN
100
AcDbLine
 62
7
  6
CONTINUOUS
 10
68.030563445
 20
56.0956237496
 11
68.6329560742
 21
56.0956237494
  0
LINE
  5
35C
100
AcDbEntity
  8
A_RUNDUNGEN
100
AcDbLine
 62
7
  6
CONTINUOUS
 10
64.3185854945
 20
56.5956237508
 11
66.0606790618
 21
56.5956237502
  0
LINE
  5
35D
100
AcDbEntity
  8
A_RUNDUNGEN
100
AcDbLine
 62
7
  6
CONTINUOUS
 10
60.144589266
 20
57.3640436985
 11
58.644589266
 21
57.3640436985
  0
LINE
  5
35E
100
AcDbEntity
  8
A_RUNDUNGEN
100
AcDbLine
 62
7
  6
CONTINUOUS
 10
50.444589266
 20
57.5140436985
 11
55.344589266
 21
57.5140436985
  0
LINE
  5
35F
100
AcDbEntity
  8
0
100
AcDbLine
 62
7
  6
CONTINUOUS
 10
58.844589266
 20
57.5640436985
 11
60.344589266
 21
57.5640436985
  0
LINE
  5
360
100
AcDbEntity
  8
A_RUNDUNGEN
100
AcDbLine
 62
7
  6
CONTINUOUS
 10
63.8185854896
 20
57.6898721282
 11
65.3185854896
 21
57.6898721282
  0
LINE
  5
361
100
AcDbEntity
  8
0
100
AcDbLine
 62
7
  6
CONTINUOUS
 10
48.4133503679
 20
57.7140436985
 11
56.844589266
 21
57.7140436985
  0
LINE
  5
362
100
AcDbEntity
  8
0
100
AcDbLine
 62
7
  6
CONTINUOUS
 10
63.8185854896
 20
57.7898721282
 11
100.3185854896
 21
57.7898721282
  0
LINE
  5
363
100
AcDbEntity
  8
0
100
AcDbLine
 62
7
  6
CONTINUOUS
 10
65.3185854896
 20
57.7398721282
 11
92.52384446
 21
57.6211660391
  0
LINE
  5
364
100
AcDbEntity
  8
A_RUNDUNGEN
100
AcDbLine
 62
7
  6
CONTINUOUS
 10
59.8489525337
 20
56.3450633652
 11
53.544589266
 21
56.40008071
  0
LINE
  5
365
100
AcDbEntity
  8
0
100
AcDbLine
 62
7
  6
CONTINUOUS
 10
70.4113976251
 20
55.2389011667
 11
80.7095110886
 21
55.0609448296
  0
LINE
  5
366
100
AcDbEntity
  8
0
100
AcDbLine
 62
7
  6
CONTINUOUS
 10
80.7184990523
 20
55.5608641614
 11
70.4200365751
 21
55.7388265297
  0
LINE
  5
367
100
AcDbEntity
  8
0
100
AcDbLine
 62
7
  6
CONTINUOUS
 10
80.7095110886
 20
55.0609448296
 11
92.4080783139
 21
54.85674564
  0
LINE
  5
368
100
AcDbEntity
  8
0
100
AcDbLine
 62
7
  6
CONTINUOUS
 10
92.4167172638
 20
55.356671003
 11
70.5068771749
 21
55.7391086843
  0
LINE
  5
369
100
AcDbEntity
  8
0
100
AcDbLine
 62
7
  6
CONTINUOUS
 10
98.4342862765
 20
53.8047716186
 11
97.4040555802
 21
53.8587637216
  0
LINE
  5
36A
100
AcDbEntity
  8
0
100
AcDbLine
 62
7
  6
CONTINUOUS
 10
70.4201988804
 20
55.7482189402
 11
65.7231809919
 21
56.6612267294
  0
LINE
  5
36B
100
AcDbEntity
  8
A_FASEN
100
AcDbLine
 62
7
  6
CONTINUOUS
 10
99.7185854893
 20
28.2681289156
 11
99.5185854893
 21
28.4611961163
  0
LINE
  5
36C
100
AcDbEntity
  8
A_ACHSEN
100
AcDbLine
 62
7
  6
CONTINUOUS
 10
69.8185854865
 20
32.6397571267
 11
69.8185854865
 21
31.9399871267
  0
LINE
  5
36D
100
AcDbEntity
  8
A_ACHSEN
100
AcDbLine
 62
7
  6
CENTER
 10
69.8185854865
 20
30.5404471267
 11
69.8185854865
 21
26.4392135098
  0
LINE
  5
36E
100
AcDbEntity
  8
A_ACHSEN
100
AcDbLine
 62
7
  6
CENTER
 10
69.8185854865
 20
34.0392971267
 11
69.8185854865
 21
38.1405307436
  0
LINE
  5
36F
100
AcDbEntity
  8
0
100
AcDbLine
 62
7
  6
CONTINUOUS
 10
70.4200365751
 20
55.7388265297
 11
70.4113976251
 21
55.2389011667
  0
LINE
  5
370
100
AcDbEntity
  8
0
100
AcDbLine
 62
7
  6
CONTINUOUS
 10
49.0881376822
 20
34.9999543905
 11
54.9729251182
 21
41.230519821
  0
LINE
  5
371
100
AcDbEntity
  8
0
100
AcDbLine
 62
7
  6
CONTINUOUS
 10
25.3827858671
 20
35.283141999
 11
25.6063926648
 21
35.3949453979
  0
LINE
  5
372
100
AcDbEntity
  8
0
100
AcDbLine
 62
7
  6
CONTINUOUS
 10
34.6417713587
 20
57.3042794536
 11
25.1923250343
 21
56.311102624
  0
LINE
  5
373
100
AcDbEntity
  8
A_RUNDUNGEN
100
AcDbLine
 62
7
  6
CONTINUOUS
 10
25.5516960472
 20
59.6140436985
 11
47.344589266
 21
59.6140436985
  0
LINE
  5
374
100
AcDbEntity
  8
0
100
AcDbLine
 62
7
  6
CONTINUOUS
 10
24.644589266
 20
59.7140436985
 11
48.344589266
 21
59.7140436985
  0
LINE
  5
375
100
AcDbEntity
  8
0
100
AcDbLine
 62
7
  6
CONTINUOUS
 10
54.4505268501
 20
60.6140436985
 11
52.648985578
 21
60.6140436985
  0
LINE
  5
376
100
AcDbEntity
  8
0
100
AcDbLine
 62
7
  6
CONTINUOUS
 10
24.644589266
 20
60.7140436985
 11
48.344589266
 21
60.7140436985
  0
LINE
  5
377
100
AcDbEntity
  8
0
100
AcDbLine
 62
7
  6
CONTINUOUS
 10
48.4133503679
 20
60.7140436985
 11
56.844589266
 21
60.7140436985
  0
LINE
  5
378
100
AcDbEntity
  8
0
100
AcDbLine
 62
7
  6
CONTINUOUS
 10
63.8185854896
 20
61.5898721282
 11
118.8185854896
 21
61.5898721282
  0
LINE
  5
379
100
AcDbEntity
  8
0
100
AcDbLine
 62
7
  6
CONTINUOUS
 10
70.244589266
 20
61.6140436985
 11
62.844589266
 21
61.6140436985
  0
LINE
  5
37A
100
AcDbEntity
  8
0
100
AcDbLine
 62
7
  6
CONTINUOUS
 10
62.844589266
 20
62.6140436985
 11
70.244589266
 21
62.6140436985
  0
LINE
  5
37B
100
AcDbEntity
  8
0
100
AcDbLine
 62
7
  6
CONTINUOUS
 10
98.4273451411
 20
56.797017447
 11
92.604730335
 21
57.615332592
  0
LINE
  5
37C
100
AcDbEntity
  8
0
100
AcDbLine
 62
7
  6
CONTINUOUS
 10
78.3415847271
 20
54.8206097587
 11
83.0941697398
 21
50.3317791889
  0
LINE
  5
37D
100
AcDbEntity
  8
0
100
AcDbLine
 62
7
  6
CONTINUOUS
 10
99.71126743
 20
28.1201403152
 11
99.5122431713
 21
28.3398721282
  0
LINE
  5
37E
100
AcDbEntity
  8
0
100
AcDbLine
 62
7
  6
CONTINUOUS
 10
75.068582937
 20
32.2950460086
 11
75.0573342146
 21
43.7092540281
  0
LINE
  5
37F
100
AcDbEntity
  8
0
100
AcDbLine
 62
7
  6
CONTINUOUS
 10
73.8185854896
 20
57.7898721282
 11
73.8185854896
 21
57.7027836462
  0
LINE
  5
380
100
AcDbEntity
  8
0
100
AcDbLine
 62
7
  6
CONTINUOUS
 10
73.8185854896
 20
25.8769606102
 11
73.8185854896
 21
25.7898721282
  0
LINE
  5
381
100
AcDbEntity
  8
0
100
AcDbLine
 62
7
  6
CONTINUOUS
 10
74.0426412502
 20
66.8640436985
 11
74.0426412502
 21
97.3640436985
  0
LINE
  5
382
100
AcDbEntity
  8
A_RUNDUNGEN
100
AcDbLine
 62
7
  6
CONTINUOUS
 10
75.5358367636
 20
29.7861908028
 11
75.5358367655
 21
35.3273193795
  0
LINE
  5
383
100
AcDbEntity
  8
0
100
AcDbLine
 62
7
  6
CONTINUOUS
 10
75.5426412502
 20
66.8640436985
 11
75.5426412502
 21
97.3640436985
  0
LINE
  5
384
100
AcDbEntity
  8
A_RUNDUNGEN
100
AcDbLine
 62
7
  6
CONTINUOUS
 10
75.818589594
 20
28.5210688263
 11
75.8185854846
 21
26.6898645093
  0
LINE
  5
385
100
AcDbEntity
  8
A_RUNDUNGEN
100
AcDbLine
 62
7
  6
CONTINUOUS
 10
63.9577633308
 20
33.3853247711
 11
64.8431804953
 21
35.4712368908
  0
LINE
  5
386
100
AcDbEntity
  8
0
100
AcDbLine
 62
7
  6
CONTINUOUS
 10
68.1493334153
 20
40.8592271803
 11
65.0976509543
 21
34.5866692755
  0
LINE
  5
387
100
AcDbEntity
  8
0
100
AcDbLine
 62
7
  6
CONTINUOUS
 10
72.2110020188
 20
64.3640436985
 11
73.0426412502
 21
64.3640436985
  0
LINE
  5
388
100
AcDbEntity
  8
0
100
AcDbLine
 62
7
  6
CONTINUOUS
 10
72.2110020188
 20
65.8640436985
 11
73.0426412502
 21
65.8640436985
  0
LINE
  5
389
100
AcDbEntity
  8
0
100
AcDbLine
 62
7
  6
CONTINUOUS
 10
91.6066007907
 20
54.8045265243
 11
90.7071728001
 21
55.3238115167
  0
LINE
  5
38A
100
AcDbEntity
  8
0
100
AcDbLine
 62
7
  6
CONTINUOUS
 10
87.8453020139
 20
48.8462122783
 11
86.9322064482
 21
49.7550212655
  0
LINE
  5
38B
100
AcDbEntity
  8
0
100
AcDbLine
 62
7
  6
CONTINUOUS
 10
79.1185854896
 20
25.9000863695
 11
79.1185854896
 21
27.6775333481
  0
LINE
  5
38C
100
AcDbEntity
  8
0
100
AcDbLine
 62
7
  6
CONTINUOUS
 10
56.9629755488
 20
43.5450645977
 11
62.0589680998
 21
45.8283283137
  0
LINE
  5
38D
100
AcDbEntity
  8
0
100
AcDbLine
 62
7
  6
CONTINUOUS
 10
70.7091850516
 20
49.7040652393
 11
70.8883329332
 21
49.7843325972
  0
LINE
  5
38E
100
AcDbEntity
  8
0
100
AcDbLine
 62
7
  6
CONTINUOUS
 10
89.9599008482
 20
53.0905811644
 11
94.8856629422
 21
48.187943337
  0
LINE
  5
38F
100
AcDbEntity
  8
0
100
AcDbLine
 62
7
  6
CONTINUOUS
 10
85.1677513419
 20
32.8657767244
 11
85.2375609677
 21
28.8663859438
  0
LINE
  5
390
100
AcDbEntity
  8
A_RUNDUNGEN
100
AcDbLine
 62
7
  6
CONTINUOUS
 10
95.3995496178
 20
54.6756206603
 11
96.4778919005
 21
53.597278377
  0
LINE
  5
391
100
AcDbEntity
  8
A_RUNDUNGEN
100
AcDbLine
 62
7
  6
CONTINUOUS
 10
86.4501549571
 20
47.8203346496
 11
87.8835538956
 21
40.8665322737
  0
LINE
  5
392
100
AcDbEntity
  8
0
100
AcDbLine
 62
7
  6
CONTINUOUS
 10
68.2349131474
 20
77.3640436985
 11
63.844589266
 21
77.3640436985
  0
LINE
  5
393
100
AcDbEntity
  8
0
100
AcDbLine
 62
7
  6
CONTINUOUS
 10
61.344589266
 20
78.3640436985
 11
71.4426412502
 21
78.3640436985
  0
LINE
  5
394
100
AcDbEntity
  8
0
100
AcDbLine
 62
7
  6
CONTINUOUS
 10
71.4426412502
 20
79.8640436985
 11
61.344589266
 21
79.8640436985
  0
LINE
  5
395
100
AcDbEntity
  8
A_ACHSEN
100
AcDbLine
 62
7
  6
CENTER
 10
92.12192921
 20
39.1790371984
 11
92.12192921
 21
51.2172411952
  0
LINE
  5
396
100
AcDbEntity
  8
A_RUNDUNGEN
100
AcDbLine
 62
7
  6
CONTINUOUS
 10
93.62433711
 20
36.117203237
 11
93.624337109
 21
33.0133869781
  0
LINE
  5
397
100
AcDbEntity
  8
0
100
AcDbLine
 62
7
  6
CONTINUOUS
 10
92.4080783139
 20
54.85674564
 11
92.4167172638
 21
55.356671003
  0
LINE
  5
398
100
AcDbEntity
  8
A_RUNDUNGEN
100
AcDbLine
 62
7
  6
CONTINUOUS
 10
96.4915381864
 20
51.2143096744
 11
96.4080221845
 21
51.1302958803
  0
LINE
  5
399
100
AcDbEntity
  8
A_RUNDUNGEN
100
AcDbLine
 62
7
  6
CONTINUOUS
 10
96.2442428104
 20
49.839206394
 11
97.677641749
 21
42.8854040181
  0
LINE
  5
39A
100
AcDbEntity
  8
0
100
AcDbLine
 62
7
  6
CONTINUOUS
 10
97.2357281313
 20
29.0761114818
 11
97.1659185056
 21
33.0755022624
  0
LINE
  5
39B
100
AcDbEntity
  8
A_RUNDUNGEN
100
AcDbLine
 62
7
  6
CONTINUOUS
 10
96.5884679045
 20
50.4911866043
 11
96.5884679048
 21
51.2197500663
  0
LINE
  5
39C
100
AcDbEntity
  8
A_RUNDUNGEN
100
AcDbLine
 62
7
  6
CONTINUOUS
 10
96.5884679048
 20
51.2386397158
 11
96.5884679048
 21
51.3819709971
  0
LINE
  5
39D
100
AcDbEntity
  8
A_RUNDUNGEN
100
AcDbLine
 62
7
  6
CONTINUOUS
 10
96.5933478046
 20
50.4911866043
 11
96.5933478038
 21
48.1456045172
  0
LINE
  5
39E
100
AcDbEntity
  8
A_RUNDUNGEN
100
AcDbLine
 62
7
  6
CONTINUOUS
 10
96.6166964877
 20
40.0721559725
 11
96.6166964879
 21
40.7030167651
  0
LINE
  5
39F
100
AcDbEntity
  8
A_RUNDUNGEN
100
AcDbLine
 62
7
  6
CONTINUOUS
 10
96.6166964915
 20
51.5466475215
 11
96.6166964918
 21
52.5414632993
  0
LINE
  5
3A0
100
AcDbEntity
  8
A_RUNDUNGEN
100
AcDbLine
 62
7
  6
CONTINUOUS
 10
96.6243371113
 20
40.0305164866
 11
96.6243371108
 21
38.5096122665
  0
LINE
  5
3A1
100
AcDbEntity
  8
A_RUNDUNGEN
100
AcDbLine
 62
7
  6
CONTINUOUS
 10
96.6243371155
 20
52.5870759027
 11
96.6243371157
 21
53.2437283519
  0
LINE
  5
3A2
100
AcDbEntity
  8
A_RUNDUNGEN
100
AcDbLine
 62
7
  6
CONTINUOUS
 10
97.2185854896
 20
53.661172008
 11
97.2185854896
 21
50.2876871987
  0
LINE
  5
3A3
100
AcDbEntity
  8
A_RUNDUNGEN
100
AcDbLine
 62
7
  6
CONTINUOUS
 10
97.2185854896
 20
30.0582127678
 11
97.2185854896
 21
35.8442546013
  0
LINE
  5
3A4
100
AcDbEntity
  8
0
100
AcDbLine
 62
7
  6
CONTINUOUS
 10
97.2185854896
 20
35.8442546013
 11
97.2185854896
 21
39.9920570577
  0
LINE
  5
3A5
100
AcDbEntity
  8
0
100
AcDbLine
 62
7
  6
CONTINUOUS
 10
98.2185854896
 20
28.5876999308
 11
98.2185854896
 21
35.0920443255
  0
LINE
  5
3A6
100
AcDbEntity
  8
0
100
AcDbLine
 62
7
  6
CONTINUOUS
 10
98.4185854896
 20
44.7898721282
 11
98.4185854896
 21
46.4642123282
  0
LINE
  5
3A7
100
AcDbEntity
  8
0
100
AcDbLine
 62
7
  6
CONTINUOUS
 10
98.4185854896
 20
46.8835561607
 11
98.4185854896
 21
50.9224307432
  0
LINE
  5
3A8
100
AcDbEntity
  8
A_ACHSEN
100
AcDbLine
 62
7
  6
CONTINUOUS
 10
98.4185854896
 20
50.9224307432
 11
98.4185854896
 21
51.8491007432
  0
LINE
  5
3A9
100
AcDbEntity
  8
0
100
AcDbLine
 62
7
  6
CONTINUOUS
 10
98.4185854896
 20
51.8491007432
 11
98.4185854896
 21
53.3432453257
  0
LINE
  5
3AA
100
AcDbEntity
  8
0
100
AcDbLine
 62
7
  6
CONTINUOUS
 10
98.7185854896
 20
52.7263871014
 11
98.7185854896
 21
50.9224307432
  0
LINE
  5
3AB
100
AcDbEntity
  8
0
100
AcDbLine
 62
7
  6
CONTINUOUS
 10
98.7185854896
 20
48.3809307432
 11
98.7185854896
 21
47.500414385
  0
LINE
  5
3AC
100
AcDbEntity
  8
0
100
AcDbLine
 62
7
  6
CONTINUOUS
 10
98.7185854896
 20
46.8985478464
 11
98.7185854896
 21
46.4642123282
  0
LINE
  5
3AD
100
AcDbEntity
  8
0
100
AcDbLine
 62
7
  6
CONTINUOUS
 10
98.7185854896
 20
42.0745614982
 11
98.7185854896
 21
44.7898721282
  0
LINE
  5
3AE
100
AcDbEntity
  8
0
100
AcDbLine
 62
7
  6
CONTINUOUS
 10
98.7185854896
 20
53.32825364
 11
98.7185854896
 21
53.5051827582
  0
LINE
  5
3AF
100
AcDbEntity
  8
A_RUNDUNGEN
100
AcDbLine
 62
7
  6
CONTINUOUS
 10
96.4915398029
 20
51.2143085706
 11
96.5105682243
 21
51.2386397173
  0
LINE
  5
3B0
100
AcDbEntity
  8
0
100
AcDbLine
 62
7
  6
CONTINUOUS
 10
99.2185854896
 20
35.3398721282
 11
99.2185854896
 21
28.3398721282
  0
LINE
  5
3B1
100
AcDbEntity
  8
A_FASEN
100
AcDbLine
 62
7
  6
CONTINUOUS
 10
99.5185854896
 20
35.3398721282
 11
99.5185854896
 21
28.4611961134
  0
LINE
  5
3B2
100
AcDbEntity
  8
A_FASEN
100
AcDbLine
 62
7
  6
CONTINUOUS
 10
99.7185854896
 20
35.5398721282
 11
99.7185854896
 21
28.2681289125
  0
LINE
  5
3B3
100
AcDbEntity
  8
0
100
AcDbLine
 62
7
  6
CONTINUOUS
 10
99.7185854896
 20
35.5398721282
 11
99.7185854896
 21
55.3116153439
  0
LINE
  5
3B4
100
AcDbEntity
  8
0
100
AcDbLine
 62
7
  6
CONTINUOUS
 10
100.3185854896
 20
57.7898721282
 11
100.3185854896
 21
25.7898721282
  0
LINE
  5
3B5
100
AcDbEntity
  8
A_RUNDUNGEN
100
AcDbLine
 62
7
  6
CONTINUOUS
 10
81.2784698936
 20
28.311578443
 11
81.278482933
 21
28.3115862064
  0
LINE
  5
3B6
100
AcDbEntity
  8
A_RUNDUNGEN
100
AcDbLine
 62
7
  6
CONTINUOUS
 10
83.1929383555
 20
28.5363896138
 11
83.4946160917
 21
28.710563336
  0
LWPOLYLINE
  5
3B7
100
AcDbEntity
  8
0
100
AcDbPolyline
 62
7
  6
CONTINUOUS
 90
4
 70
0
 10
81.2784825407
 20
28.3115824676
 10
81.1664502658
 20
28.2538555623
 10
81.0002814883
 20
28.2014022175
 10
80.8736968547
 20
28.1885171404
  0
LINE
  5
3B8
100
AcDbEntity
  8
A_RUNDUNGEN
100
AcDbLine
 62
7
  6
CONTINUOUS
 10
96.4778918954
 20
38.1560622415
 11
95.2758048144
 21
36.9539751613
  0
LINE
  5
3B9
100
AcDbEntity
  8
0
100
AcDbLine
 62
7
  6
CONTINUOUS
 10
99.7185854896
 20
35.5398721282
 11
99.5185854896
 21
35.3398721282
  0
LINE
  5
3BA
100
AcDbEntity
  8
0
100
AcDbLine
 62
7
  6
CONTINUOUS
 10
75.5426412502
 20
97.3640436985
 11
74.0426412502
 21
97.3640436985
  0
LINE
  5
3BB
100
AcDbEntity
  8
0
100
AcDbLine
 62
7
  6
CONTINUOUS
 10
118.8185854896
 20
61.5898721282
 11
118.8185854896
 21
21.5898721282
  0
ARC
  5
3BC
100
AcDbEntity
  8
A_NOTIZEN_SYMB
100
AcDbCircle
 62
7
  6
CONTINUOUS
 10
64.8002068154
 20
177.6163429442
 40
140.6065450262
100
AcDbArc
 50
280.2911871303
 51
282.7712404495
  0
ARC
  5
3BD
100
AcDbEntity
  8
A_NOTIZEN_SYMB
100
AcDbCircle
 62
7
  6
CONTINUOUS
 10
95.7188241783
 20
42.4816296693
 40
2.0
100
AcDbArc
 50
274.6956050414
 51
11.6473375945
  0
ARC
  5
3BE
100
AcDbEntity
  8
0
100
AcDbCircle
 62
7
  6
CONTINUOUS
 10
21.0426412502
 20
22.8640436985
 40
2.5
100
AcDbArc
 50
180.0
 51
270.0
  0
ARC
  5
3BF
100
AcDbEntity
  8
0
100
AcDbCircle
 62
7
  6
CONTINUOUS
 10
24.644589266
 20
23.5140436985
 40
1.3
100
AcDbArc
 50
180.0
 51
270.0
  0
ARC
  5
3C0
100
AcDbEntity
  8
0
100
AcDbCircle
 62
7
  6
CONTINUOUS
 10
21.0426412502
 20
22.8640436985
 40
1.0
100
AcDbArc
 50
180.0
 51
270.0
  0
ARC
  5
3C1
100
AcDbEntity
  8
0
100
AcDbCircle
 62
7
  6
CONTINUOUS
 10
26.244589266
 20
28.4671689953
 40
0.5
100
AcDbArc
 50
180.0
 51
250.4633450619
  0
ARC
  5
3C2
100
AcDbEntity
  8
0
100
AcDbCircle
 62
7
  6
CONTINUOUS
 10
25.244589266
 20
27.1142457206
 40
0.5
100
AcDbArc
 50
180.0
 51
264.0
  0
ARC
  5
3C3
100
AcDbEntity
  8
0
100
AcDbCircle
 62
7
  6
CONTINUOUS
 10
24.644589266
 20
23.5140436985
 40
0.3
100
AcDbArc
 50
180.0
 51
270.0
  0
ARC
  5
3C4
100
AcDbEntity
  8
0
100
AcDbCircle
 62
7
  6
CONTINUOUS
 10
25.494589266
 20
28.405786129
 40
0.25
100
AcDbArc
 50
0.0
 51
66.4218215218
  0
ARC
  5
3C5
100
AcDbEntity
  8
0
100
AcDbCircle
 62
7
  6
CONTINUOUS
 10
25.694589266
 20
28.8640436985
 40
0.25
100
AcDbArc
 50
180.0
 51
246.4218215218
  0
ARC
  5
3C6
100
AcDbEntity
  8
0
100
AcDbCircle
 62
7
  6
CONTINUOUS
 10
25.994589266
 20
28.189095583
 40
0.25
100
AcDbArc
 50
180.0
 51
250.0
  0
ARC
  5
3C7
100
AcDbEntity
  8
0
100
AcDbCircle
 62
7
  6
CONTINUOUS
 10
23.844589266
 20
29.3140436985
 40
1.5
100
AcDbArc
 50
180.0
 51
250.5287793655
  0
ARC
  5
3C8
100
AcDbEntity
  8
0
100
AcDbCircle
 62
7
  6
CONTINUOUS
 10
23.844589266
 20
29.7140436985
 40
0.5
100
AcDbArc
 50
209.8084319914
 51
270.0
  0
ARC
  5
3C9
100
AcDbEntity
  8
0
100
AcDbCircle
 62
7
  6
CONTINUOUS
 10
23.844589266
 20
29.3140436985
 40
0.5
100
AcDbArc
 50
180.0
 51
270.0
  0
ARC
  5
3CA
100
AcDbEntity
  8
0
100
AcDbCircle
 62
7
  6
CONTINUOUS
 10
25.144589266
 20
33.0640436985
 40
0.4
100
AcDbArc
 50
90.0
 51
180.0
  0
ARC
  5
3CB
100
AcDbEntity
  8
0
100
AcDbCircle
 62
7
  6
CONTINUOUS
 10
25.344589266
 20
33.0640436985
 40
0.4
100
AcDbArc
 50
0.0
 51
90.0
  0
ARC
  5
3CC
100
AcDbEntity
  8
0
100
AcDbCircle
 62
7
  6
CONTINUOUS
 10
25.494589266
 20
34.2140436985
 40
0.25
100
AcDbArc
 50
0.0
 51
90.0
  0
ARC
  5
3CD
100
AcDbEntity
  8
0
100
AcDbCircle
 62
7
  6
CONTINUOUS
 10
25.494589266
 20
35.6185521956
 40
0.25
100
AcDbArc
 50
296.5650511771
 51
360.0
  0
ARC
  5
3CE
100
AcDbEntity
  8
0
100
AcDbCircle
 62
7
  6
CONTINUOUS
 10
25.494589266
 20
35.0595352013
 40
0.25
100
AcDbArc
 50
116.5650511771
 51
180.0
  0
ARC
  5
3CF
100
AcDbEntity
  8
0
100
AcDbCircle
 62
7
  6
CONTINUOUS
 10
25.494589266
 20
34.7140436985
 40
0.25
100
AcDbArc
 50
180.0
 51
270.0
  0
ARC
  5
3D0
100
AcDbEntity
  8
0
100
AcDbCircle
 62
7
  6
CONTINUOUS
 10
26.994589266
 20
29.9427476666
 40
0.25
100
AcDbArc
 50
180.0
 51
251.115572952
  0
ARC
  5
3D1
100
AcDbEntity
  8
0
100
AcDbCircle
 62
7
  6
CONTINUOUS
 10
25.494589266
 20
32.822301268
 40
0.25
100
AcDbArc
 50
293.5781784782
 51
360.0
  0
ARC
  5
3D2
100
AcDbEntity
  8
0
100
AcDbCircle
 62
7
  6
CONTINUOUS
 10
25.694589266
 20
32.3640436985
 40
0.25
100
AcDbArc
 50
113.5781784782
 51
180.0
  0
ARC
  5
3D3
100
AcDbEntity
  8
0
100
AcDbCircle
 62
7
  6
CONTINUOUS
 10
34.7462998219
 20
26.6183298387
 40
1.0
100
AcDbArc
 50
264.0
 51
269.75
  0
ARC
  5
3D4
100
AcDbEntity
  8
0
100
AcDbCircle
 62
7
  6
CONTINUOUS
 10
34.244589266
 20
28.1985731508
 40
0.5
100
AcDbArc
 50
0.0
 51
89.5
  0
ARC
  5
3D5
100
AcDbEntity
  8
0
100
AcDbCircle
 62
7
  6
CONTINUOUS
 10
28.4931101309
 20
27.6693067529
 40
0.5
100
AcDbArc
 50
250.4633450619
 51
269.7
  0
ARC
  5
3D6
100
AcDbEntity
  8
0
100
AcDbCircle
 62
7
  6
CONTINUOUS
 10
29.7871114277
 20
28.9875015294
 40
0.25
100
AcDbArc
 50
251.115572952
 51
269.5
  0
ARC
  5
3D7
100
AcDbEntity
  8
0
100
AcDbCircle
 62
7
  6
CONTINUOUS
 10
28.6046987554
 20
27.2390934207
 40
0.25
100
AcDbArc
 50
250.0
 51
269.5
  0
ARC
  5
3D8
100
AcDbEntity
  8
A_RUNDUNGEN
100
AcDbCircle
 62
7
  6
CONTINUOUS
 10
32.794589266
 20
27.2025288001
 40
0.25
100
AcDbArc
 50
192.588546568
 51
269.5
  0
ARC
  5
3D9
100
AcDbEntity
  8
A_RUNDUNGEN
100
AcDbCircle
 62
7
  6
CONTINUOUS
 10
33.744589266
 20
33.5189887677
 40
1.0
100
AcDbArc
 50
0.0
 51
88.0
  0
ARC
  5
3DA
100
AcDbEntity
  8
0
100
AcDbCircle
 62
7
  6
CONTINUOUS
 10
38.3807670551
 20
48.7589417482
 40
6.0
100
AcDbArc
 50
90.0564650749
 51
135.0564650749
  0
ARC
  5
3DB
100
AcDbEntity
  8
0
100
AcDbCircle
 62
7
  6
CONTINUOUS
 10
30.1874305124
 20
46.1937044519
 40
5.0
100
AcDbArc
 50
71.969587289
 51
88.5900464197
  0
ARC
  5
3DC
100
AcDbEntity
  8
0
100
AcDbCircle
 62
7
  6
CONTINUOUS
 10
33.9265586369
 20
44.3306569838
 40
5.0
100
AcDbArc
 50
251.969587289
 51
268.5900464197
  0
ARC
  5
3DD
100
AcDbEntity
  8
A_ACHSEN
100
AcDbCircle
 62
7
  6
CONTINUOUS
 10
32.0557922581
 20
45.2527067746
 40
4.75
100
AcDbArc
 50
102.5979625649
 51
155.5579869036
  0
ARC
  5
3DE
100
AcDbEntity
  8
A_ACHSEN
100
AcDbCircle
 62
7
  6
CONTINUOUS
 10
32.0557922581
 20
45.2527067746
 40
4.75
100
AcDbArc
 50
204.4180923663
 51
36.9384048092
  0
ARC
  5
3DF
100
AcDbEntity
  8
0
100
AcDbCircle
 62
7
  6
CONTINUOUS
 10
32.0557922581
 20
45.2527067746
 40
4.0
100
AcDbArc
 50
135.0564650749
 51
20.4321467227
  0
CIRCLE
  5
3E0
100
AcDbEntity
  8
0
100
AcDbCircle
 62
7
  6
CONTINUOUS
 10
32.0557922581
 20
45.2527067746
 40
2.55
  0
ARC
  5
3E1
100
AcDbEntity
  8
A_RUNDUNGEN
100
AcDbCircle
 62
7
  6
CONTINUOUS
 10
34.4145568276
 20
41.256634535
 40
2.0
100
AcDbArc
 50
260.2798168544
 51
350.2798168544
  0
ARC
  5
3E2
100
AcDbEntity
  8
A_RUNDUNGEN
100
AcDbCircle
 62
7
  6
CONTINUOUS
 10
35.6132966544
 20
48.2547073288
 40
2.0
100
AcDbArc
 50
350.2798168544
 51
42.0958481358
  0
ARC
  5
3E3
100
AcDbEntity
  8
A_RUNDUNGEN
100
AcDbCircle
 62
7
  6
CONTINUOUS
 10
29.6994323216
 20
49.2677269007
 40
2.0
100
AcDbArc
 50
80.2798168544
 51
168.2212998901
  0
ARC
  5
3E4
100
AcDbEntity
  8
A_RUNDUNGEN
100
AcDbCircle
 62
7
  6
CONTINUOUS
 10
28.5006924948
 20
42.2696541069
 40
2.0
100
AcDbArc
 50
247.7202790699
 51
260.2798168544
  0
ARC
  5
3E5
100
AcDbEntity
  8
0
100
AcDbCircle
 62
7
  6
CONTINUOUS
 10
37.6783098781
 20
47.3472939924
 40
2.0
100
AcDbArc
 50
135.0564650749
 51
200.4321467227
  0
ARC
  5
3E6
100
AcDbEntity
  8
0
100
AcDbCircle
 62
7
  6
CONTINUOUS
 10
38.5883664864
 20
48.259146095
 40
2.0
100
AcDbArc
 50
90.0564650749
 51
135.0564650749
  0
ARC
  5
3E7
100
AcDbEntity
  8
0
100
AcDbCircle
 62
7
  6
CONTINUOUS
 10
25.144589266
 20
44.8640436985
 40
0.4
100
AcDbArc
 50
180.0
 51
270.0
  0
ARC
  5
3E8
100
AcDbEntity
  8
0
100
AcDbCircle
 62
7
  6
CONTINUOUS
 10
25.344589266
 20
44.8640436985
 40
0.4
100
AcDbArc
 50
270.0
 51
360.0
  0
ARC
  5
3E9
100
AcDbEntity
  8
0
100
AcDbCircle
 62
7
  6
CONTINUOUS
 10
25.494589266
 20
43.7140436985
 40
0.25
100
AcDbArc
 50
270.0
 51
360.0
  0
ARC
  5
3EA
100
AcDbEntity
  8
0
100
AcDbCircle
 62
7
  6
CONTINUOUS
 10
25.494589266
 20
42.3095352013
 40
0.25
100
AcDbArc
 50
0.0
 51
63.4349488229
  0
ARC
  5
3EB
100
AcDbEntity
  8
0
100
AcDbCircle
 62
7
  6
CONTINUOUS
 10
25.494589266
 20
42.8685521956
 40
0.25
100
AcDbArc
 50
180.0
 51
243.4349488229
  0
ARC
  5
3EC
100
AcDbEntity
  8
0
100
AcDbCircle
 62
7
  6
CONTINUOUS
 10
25.494589266
 20
43.2140436985
 40
0.25
100
AcDbArc
 50
90.0
 51
180.0
  0
ARC
  5
3ED
100
AcDbEntity
  8
0
100
AcDbCircle
 62
7
  6
CONTINUOUS
 10
54.344589266
 20
32.2640436985
 40
5.5
100
AcDbArc
 50
163.1315297009
 51
43.4528402208
  0
ARC
  5
3EE
100
AcDbEntity
  8
0
100
AcDbCircle
 62
7
  6
CONTINUOUS
 10
69.8185854865
 20
32.2898721267
 40
5.5
100
AcDbArc
 50
136.7384301576
 51
17.0597406775
  0
ARC
  5
3EF
100
AcDbEntity
  8
0
100
AcDbCircle
 62
7
  6
CONTINUOUS
 10
69.8185854865
 20
32.2898721267
 40
5.25
100
AcDbArc
 50
154.0564650749
 51
0.0564650749
  0
ARC
  5
3F0
100
AcDbEntity
  8
0
100
AcDbCircle
 62
7
  6
CONTINUOUS
 10
54.344589266
 20
32.2640436985
 40
5.25
100
AcDbArc
 50
180.1348053035
 51
26.1348053035
  0
ARC
  5
3F1
100
AcDbEntity
  8
0
100
AcDbCircle
 62
7
  6
CONTINUOUS
 10
50.644589266
 20
25.5140436985
 40
3.3
100
AcDbArc
 50
250.5328780305
 51
270.0
  0
ARC
  5
3F2
100
AcDbEntity
  8
0
100
AcDbCircle
 62
7
  6
CONTINUOUS
 10
50.644589266
 20
25.5140436985
 40
3.3
100
AcDbArc
 50
180.0
 51
181.8161184677
  0
CIRCLE
  5
3F3
100
AcDbEntity
  8
0
100
AcDbCircle
 62
7
  6
CONTINUOUS
 10
69.8185854865
 20
32.2898721267
 40
2.75
  0
CIRCLE
  5
3F4
100
AcDbEntity
  8
0
100
AcDbCircle
 62
7
  6
CONTINUOUS
 10
54.344589266
 20
32.2640436985
 40
2.75
  0
ARC
  5
3F5
100
AcDbEntity
  8
0
100
AcDbCircle
 62
7
  6
CONTINUOUS
 10
57.844589266
 20
22.8640436985
 40
2.5
100
AcDbArc
 50
270.0
 51
360.0
  0
CIRCLE
  5
3F6
100
AcDbEntity
  8
A_RUNDUNGEN
100
AcDbCircle
 62
7
  6
CONTINUOUS
 10
54.344589266
 20
32.2640436985
 40
2.4272122138
  0
CIRCLE
  5
3F7
100
AcDbEntity
  8
A_RUNDUNGEN
100
AcDbCircle
 62
7
  6
CONTINUOUS
 10
69.8185854865
 20
32.2898721267
 40
2.4267240551
  0
ARC
  5
3F8
100
AcDbEntity
  8
A_RUNDUNGEN
100
AcDbCircle
 62
7
  6
CONTINUOUS
 10
66.4539962254
 20
34.7874959173
 40
1.7499225798
100
AcDbArc
 50
104.4099865315
 51
157.0002934802
  0
ARC
  5
3F9
100
AcDbEntity
  8
0
100
AcDbCircle
 62
7
  6
CONTINUOUS
 10
57.844589266
 20
22.8640436985
 40
1.0
100
AcDbArc
 50
270.0
 51
360.0
  0
ARC
  5
3FA
100
AcDbEntity
  8
A_RUNDUNGEN
100
AcDbCircle
 62
7
  6
CONTINUOUS
 10
59.844589266
 20
27.1830049932
 40
0.5
100
AcDbArc
 50
270.5
 51
360.0
  0
ARC
  5
3FB
100
AcDbEntity
  8
0
100
AcDbCircle
 62
7
  6
CONTINUOUS
 10
46.244589266
 20
26.3351238696
 40
0.5
100
AcDbArc
 50
0.0
 51
89.5
  0
ARC
  5
3FC
100
AcDbEntity
  8
A_RUNDUNGEN
100
AcDbCircle
 62
7
  6
CONTINUOUS
 10
58.144589266
 20
26.2313668415
 40
0.4999735156
100
AcDbArc
 50
359.9893785284
 51
62.7700833321
  0
ARC
  5
3FD
100
AcDbEntity
  8
0
100
AcDbCircle
 62
7
  6
CONTINUOUS
 10
50.644589266
 20
25.5140436985
 40
0.3
100
AcDbArc
 50
180.0
 51
200.3973358624
  0
ARC
  5
3FE
100
AcDbEntity
  8
0
100
AcDbCircle
 62
7
  6
CONTINUOUS
 10
50.7814292966
 20
44.2711604378
 40
6.0
100
AcDbArc
 50
66.0564650749
 51
90.0564650749
  0
ARC
  5
3FF
100
AcDbEntity
  8
0
100
AcDbCircle
 62
7
  6
CONTINUOUS
 10
71.0573361571
 20
43.7053120229
 40
4.0
100
AcDbArc
 50
0.0564650749
 51
45.0564650749
  0
ARC
  5
400
100
AcDbEntity
  8
0
100
AcDbCircle
 62
7
  6
CONTINUOUS
 10
53.06773743
 20
43.6752846755
 40
4.0
100
AcDbArc
 50
135.1348053035
 51
180.1348053035
  0
ARC
  5
401
100
AcDbEntity
  8
0
100
AcDbCircle
 62
7
  6
CONTINUOUS
 10
66.3508821649
 20
41.7341975227
 40
2.0
100
AcDbArc
 50
334.0564650749
 51
66.0564650749
  0
ARC
  5
402
100
AcDbEntity
  8
A_RUNDUNGEN
100
AcDbCircle
 62
7
  6
CONTINUOUS
 10
57.7807453523
 20
41.7198926747
 40
2.0
100
AcDbArc
 50
114.1348053035
 51
206.1348053035
  0
ARC
  5
403
100
AcDbEntity
  8
A_RUNDUNGEN
100
AcDbCircle
 62
7
  6
CONTINUOUS
 10
55.2474077734
 20
39.5443228199
 40
1.498913922
100
AcDbArc
 50
351.8128461206
 51
359.3
  0
ARC
  5
404
100
AcDbEntity
  8
A_RUNDUNGEN
100
AcDbCircle
 62
7
  6
CONTINUOUS
 10
68.9111249332
 20
39.5775427748
 40
1.498913922
100
AcDbArc
 50
180.6999999811
 51
187.0539464852
  0
ARC
  5
405
100
AcDbEntity
  8
A_RUNDUNGEN
100
AcDbCircle
 62
7
  6
CONTINUOUS
 10
55.2474077734
 20
39.5443228199
 40
1.4799190669
100
AcDbArc
 50
353.0898851895
 51
359.3
  0
ARC
  5
406
100
AcDbEntity
  8
A_RUNDUNGEN
100
AcDbCircle
 62
7
  6
CONTINUOUS
 10
68.9111249332
 20
39.5775427748
 40
1.4799190669
100
AcDbArc
 50
180.6999999811
 51
185.8267838596
  0
ARC
  5
407
100
AcDbEntity
  8
0
100
AcDbCircle
 62
7
  6
CONTINUOUS
 10
23.844589266
 20
53.6140436985
 40
1.5
100
AcDbArc
 50
109.4712206345
 51
180.0
  0
ARC
  5
408
100
AcDbEntity
  8
0
100
AcDbCircle
 62
7
  6
CONTINUOUS
 10
24.644589266
 20
59.4140436985
 40
1.3
100
AcDbArc
 50
90.0
 51
180.0
  0
ARC
  5
409
100
AcDbEntity
  8
0
100
AcDbCircle
 62
7
  6
CONTINUOUS
 10
34.7462998219
 20
56.3097575582
 40
1.0
100
AcDbArc
 50
90.25
 51
96.0
  0
ARC
  5
40A
100
AcDbEntity
  8
A_RUNDUNGEN
100
AcDbCircle
 62
7
  6
CONTINUOUS
 10
47.344589266
 20
58.6140436985
 40
1.0
100
AcDbArc
 50
49.4765474992
 51
90.0
  0
ARC
  5
40B
100
AcDbEntity
  8
0
100
AcDbCircle
 62
7
  6
CONTINUOUS
 10
24.3364019038
 20
50.4517714787
 40
0.6026519688
100
AcDbArc
 50
297.0548390488
 51
300.7561484895
  0
ARC
  5
40C
100
AcDbEntity
  8
A_RUNDUNGEN
100
AcDbCircle
 62
7
  6
CONTINUOUS
 10
32.8467845946
 20
51.321640649
 40
0.5021071764
100
AcDbArc
 50
180.030507865
 51
191.9178516966
  0
ARC
  5
40D
100
AcDbEntity
  8
A_RUNDUNGEN
100
AcDbCircle
 62
7
  6
CONTINUOUS
 10
32.8532956717
 20
51.3269777293
 40
0.5020732252
100
AcDbArc
 50
180.0300935473
 51
191.7943611559
  0
ARC
  5
40E
100
AcDbEntity
  8
A_RUNDUNGEN
100
AcDbCircle
 62
7
  6
CONTINUOUS
 10
29.3632772692
 20
51.2265600895
 40
0.5
100
AcDbArc
 50
90.5
 51
108.4349488229
  0
ARC
  5
40F
100
AcDbEntity
  8
0
100
AcDbCircle
 62
7
  6
CONTINUOUS
 10
30.244589266
 20
53.3946067749
 40
0.5
100
AcDbArc
 50
270.5
 51
360.0
  0
ARC
  5
410
100
AcDbEntity
  8
0
100
AcDbCircle
 62
7
  6
CONTINUOUS
 10
26.244589266
 20
54.1683404952
 40
0.5
100
AcDbArc
 50
90.5
 51
180.0
  0
ARC
  5
411
100
AcDbEntity
  8
0
100
AcDbCircle
 62
7
  6
CONTINUOUS
 10
31.244589266
 20
55.4620224321
 40
0.5
100
AcDbArc
 50
90.5
 51
180.0
  0
ARC
  5
412
100
AcDbEntity
  8
0
100
AcDbCircle
 62
7
  6
CONTINUOUS
 10
30.244589266
 20
55.2032860447
 40
0.5
100
AcDbArc
 50
270.5
 51
360.0
  0
ARC
  5
413
100
AcDbEntity
  8
0
100
AcDbCircle
 62
7
  6
CONTINUOUS
 10
25.244589266
 20
55.8138416763
 40
0.5
100
AcDbArc
 50
96.0
 51
180.0
  0
ARC
  5
414
100
AcDbEntity
  8
0
100
AcDbCircle
 62
7
  6
CONTINUOUS
 10
23.844589266
 20
53.6140436985
 40
0.5
100
AcDbArc
 50
90.0
 51
180.0
  0
ARC
  5
415
100
AcDbEntity
  8
0
100
AcDbCircle
 62
7
  6
CONTINUOUS
 10
23.844589266
 20
53.2140436985
 40
0.5
100
AcDbArc
 50
90.0
 51
150.1915680086
  0
ARC
  5
416
100
AcDbEntity
  8
0
100
AcDbCircle
 62
7
  6
CONTINUOUS
 10
24.644589266
 20
59.4140436985
 40
0.3
100
AcDbArc
 50
90.0
 51
180.0
  0
ARC
  5
417
100
AcDbEntity
  8
0
100
AcDbCircle
 62
7
  6
CONTINUOUS
 10
26.994589266
 20
51.6853397303
 40
0.25
100
AcDbArc
 50
108.884427048
 51
180.0
  0
ARC
  5
418
100
AcDbEntity
  8
0
100
AcDbCircle
 62
7
  6
CONTINUOUS
 10
29.7871114277
 20
52.6405858675
 40
0.25
100
AcDbArc
 50
90.5
 51
108.884427048
  0
ARC
  5
419
100
AcDbEntity
  8
0
100
AcDbCircle
 62
7
  6
CONTINUOUS
 10
25.994589266
 20
54.2456845918
 40
0.25
100
AcDbArc
 50
90.3
 51
180.0
  0
ARC
  5
41A
100
AcDbEntity
  8
A_RUNDUNGEN
100
AcDbCircle
 62
7
  6
CONTINUOUS
 10
32.794589266
 20
55.7255585968
 40
0.25
100
AcDbArc
 50
90.5
 51
167.3933052569
  0
ARC
  5
41B
100
AcDbEntity
  8
A_ACHSEN
100
AcDbCircle
 62
7
  6
CONTINUOUS
 10
62.0498647251
 20
51.282225265
 40
5.1
100
AcDbArc
 50
34.3376712827
 51
133.9313534164
  0
ARC
  5
41C
100
AcDbEntity
  8
A_ACHSEN
100
AcDbCircle
 62
7
  6
CONTINUOUS
 10
62.0498647251
 20
51.282225265
 40
5.1
100
AcDbArc
 50
233.906375181
 51
258.4300642802
  0
ARC
  5
41D
100
AcDbEntity
  8
0
100
AcDbCircle
 62
7
  6
CONTINUOUS
 10
62.0498647251
 20
51.282225265
 40
5.0
100
AcDbArc
 50
45.0564650749
 51
128.2690983959
  0
ARC
  5
41E
100
AcDbEntity
  8
0
100
AcDbCircle
 62
7
  6
CONTINUOUS
 10
50.644589266
 20
57.4140436985
 40
3.3
100
AcDbArc
 50
133.1761979441
 51
180.0
  0
CIRCLE
  5
41F
100
AcDbEntity
  8
0
100
AcDbCircle
 62
7
  6
CONTINUOUS
 10
62.0498647251
 20
51.282225265
 40
2.75
  0
CIRCLE
  5
420
100
AcDbEntity
  8
A_ACHSEN
100
AcDbCircle
 62
7
  6
CONTINUOUS
 10
62.0498647251
 20
51.282225265
 40
2.55
  0
CIRCLE
  5
421
100
AcDbEntity
  8
0
100
AcDbCircle
 62
7
  6
CONTINUOUS
 10
62.0498647251
 20
51.282225265
 40
2.5
  0
ARC
  5
422
100
AcDbEntity
  8
0
100
AcDbCircle
 62
7
  6
CONTINUOUS
 10
57.7143749334
 20
56.7779989382
 40
2.0
100
AcDbArc
 50
270.0564650749
 51
308.2690983959
  0
ARC
  5
423
100
AcDbEntity
  8
0
100
AcDbCircle
 62
7
  6
CONTINUOUS
 10
66.3669838634
 20
56.7924414446
 40
2.0
100
AcDbArc
 50
246.5502338156
 51
270.1348053035
  0
ARC
  5
424
100
AcDbEntity
  8
0
100
AcDbCircle
 62
7
  6
CONTINUOUS
 10
70.244589266
 20
63.2140436985
 40
1.6
100
AcDbArc
 50
270.0
 51
60.2544497646
  0
ARC
  5
425
100
AcDbEntity
  8
0
100
AcDbCircle
 62
7
  6
CONTINUOUS
 10
70.244589266
 20
63.2140436985
 40
0.6
100
AcDbArc
 50
270.0
 51
60.2544497646
  0
ARC
  5
426
100
AcDbEntity
  8
A_RUNDUNGEN
100
AcDbCircle
 62
7
  6
CONTINUOUS
 10
59.844589266
 20
55.8450824037
 40
0.5
100
AcDbArc
 50
26.3457104362
 51
89.5
  0
ARC
  5
427
100
AcDbEntity
  8
A_RUNDUNGEN
100
AcDbCircle
 62
7
  6
CONTINUOUS
 10
58.144589266
 20
56.6968132541
 40
0.5
100
AcDbArc
 50
315.2944274707
 51
360.0
  0
ARC
  5
428
100
AcDbEntity
  8
0
100
AcDbCircle
 62
7
  6
CONTINUOUS
 10
52.744589266
 20
56.649688168
 40
0.5
100
AcDbArc
 50
270.5
 51
360.0
  0
ARC
  5
429
100
AcDbEntity
  8
0
100
AcDbCircle
 62
7
  6
CONTINUOUS
 10
70.5156033781
 20
56.2390325319
 40
0.5
100
AcDbArc
 50
259.0
 51
269.0
  0
ARC
  5
42A
100
AcDbEntity
  8
0
100
AcDbCircle
 62
7
  6
CONTINUOUS
 10
65.8185854896
 20
57.1520403211
 40
0.5
100
AcDbArc
 50
180.0
 51
259.0
  0
ARC
  5
42B
100
AcDbEntity
  8
0
100
AcDbCircle
 62
7
  6
CONTINUOUS
 10
50.644589266
 20
57.4140436985
 40
0.3
100
AcDbArc
 50
90.0
 51
180.0
  0
ARC
  5
42C
100
AcDbEntity
  8
A_RUNDUNGEN
100
AcDbCircle
 62
7
  6
CONTINUOUS
 10
53.494589266
 20
55.9062047601
 40
0.25
100
AcDbArc
 50
90.5
 51
180.0
  0
ARC
  5
42D
100
AcDbEntity
  8
0
100
AcDbCircle
 62
7
  6
CONTINUOUS
 10
63.844589266
 20
74.8640436985
 40
3.5
100
AcDbArc
 50
90.0
 51
180.0
  0
ARC
  5
42E
100
AcDbEntity
  8
0
100
AcDbCircle
 62
7
  6
CONTINUOUS
 10
68.2349131474
 20
74.8640436985
 40
3.5
100
AcDbArc
 50
345.0
 51
90.0
  0
ARC
  5
42F
100
AcDbEntity
  8
0
100
AcDbCircle
 62
7
  6
CONTINUOUS
 10
72.2788004744
 20
66.7738168316
 40
3.5
100
AcDbArc
 50
165.0
 51
240.2544497646
  0
ARC
  5
430
100
AcDbEntity
  8
0
100
AcDbCircle
 62
7
  6
CONTINUOUS
 10
72.2788004744
 20
66.7738168316
 40
2.5
100
AcDbArc
 50
165.0
 51
240.2544497646
  0
ARC
  5
431
100
AcDbEntity
  8
0
100
AcDbCircle
 62
7
  6
CONTINUOUS
 10
62.844589266
 20
64.1140436985
 40
2.5
100
AcDbArc
 50
180.0
 51
270.0
  0
ARC
  5
432
100
AcDbEntity
  8
0
100
AcDbCircle
 62
7
  6
CONTINUOUS
 10
68.2349131474
 20
74.8640436985
 40
2.5
100
AcDbArc
 50
345.0
 51
90.0
  0
ARC
  5
433
100
AcDbEntity
  8
0
100
AcDbCircle
 62
7
  6
CONTINUOUS
 10
63.844589266
 20
74.8640436985
 40
2.5
100
AcDbArc
 50
90.0
 51
180.0
  0
ARC
  5
434
100
AcDbEntity
  8
0
100
AcDbCircle
 62
7
  6
CONTINUOUS
 10
72.2110020188
 20
66.8640436985
 40
2.5
100
AcDbArc
 50
164.7680766537
 51
270.0
  0
ARC
  5
435
100
AcDbEntity
  8
0
100
AcDbCircle
 62
7
  6
CONTINUOUS
 10
61.344589266
 20
77.3640436985
 40
2.5
100
AcDbArc
 50
90.0
 51
180.0
  0
ARC
  5
436
100
AcDbEntity
  8
0
100
AcDbCircle
 62
7
  6
CONTINUOUS
 10
71.4426412502
 20
77.3640436985
 40
2.5
100
AcDbArc
 50
344.7680766537
 51
90.0
  0
ARC
  5
437
100
AcDbEntity
  8
0
100
AcDbCircle
 62
7
  6
CONTINUOUS
 10
62.844589266
 20
64.1140436985
 40
1.5
100
AcDbArc
 50
180.0
 51
270.0
  0
ARC
  5
438
100
AcDbEntity
  8
0
100
AcDbCircle
 62
7
  6
CONTINUOUS
 10
71.4426412502
 20
77.3640436985
 40
1.0
100
AcDbArc
 50
344.7680766537
 51
90.0
  0
ARC
  5
439
100
AcDbEntity
  8
0
100
AcDbCircle
 62
7
  6
CONTINUOUS
 10
61.344589266
 20
77.3640436985
 40
1.0
100
AcDbArc
 50
90.0
 51
180.0
  0
ARC
  5
43A
100
AcDbEntity
  8
0
100
AcDbCircle
 62
7
  6
CONTINUOUS
 10
72.2110020188
 20
66.8640436985
 40
1.0
100
AcDbArc
 50
164.7680766537
 51
270.0
  0
ARC
  5
43B
100
AcDbEntity
  8
A_RUNDUNGEN
100
AcDbCircle
 62
7
  6
CONTINUOUS
 10
74.0358043667
 20
35.3273060896
 40
1.5000225253
100
AcDbArc
 50
0.0005076279
 51
46.6769392643
  0
ARC
  5
43C
100
AcDbEntity
  8
A_RUNDUNGEN
100
AcDbCircle
 62
7
  6
CONTINUOUS
 10
83.9946160917
 20
27.8445379322
 40
1.0
100
AcDbArc
 50
91.0
 51
120.0
  0
ARC
  5
43D
100
AcDbEntity
  8
A_RUNDUNGEN
100
AcDbCircle
 62
7
  6
CONTINUOUS
 10
82.6929383555
 20
29.4024150176
 40
1.0
100
AcDbArc
 50
271.0
 51
300.0
  0
ARC
  5
43E
100
AcDbEntity
  8
0
100
AcDbCircle
 62
7
  6
CONTINUOUS
 10
81.5346305453
 20
27.8794831047
 40
0.5024848097
100
AcDbArc
 50
91.0371089782
 51
105.8865531454
  0
ARC
  5
43F
100
AcDbEntity
  8
0
100
AcDbCircle
 62
7
  6
CONTINUOUS
 10
81.5349306983
 20
27.8804122605
 40
0.5016735983
100
AcDbArc
 50
105.9485722154
 51
120.7502863314
  0
ARC
  5
440
100
AcDbEntity
  8
0
100
AcDbCircle
 62
7
  6
CONTINUOUS
 10
79.6185854896
 20
27.6775333481
 40
0.5
100
AcDbArc
 50
90.5
 51
180.0
  0
ARC
  5
441
100
AcDbEntity
  8
0
100
AcDbCircle
 62
7
  6
CONTINUOUS
 10
73.3416423438
 20
44.3088168283
 40
6.0
100
AcDbArc
 50
90.1348053035
 51
114.1348053035
  0
ARC
  5
442
100
AcDbEntity
  8
0
100
AcDbCircle
 62
7
  6
CONTINUOUS
 10
85.7272539645
 20
48.8379701597
 40
6.0
100
AcDbArc
 50
45.1348053035
 51
90.1348053035
  0
ARC
  5
443
100
AcDbEntity
  8
0
100
AcDbCircle
 62
7
  6
CONTINUOUS
 10
85.5213241536
 20
48.337484264
 40
2.0
100
AcDbArc
 50
45.1348053035
 51
90.1348053035
  0
ARC
  5
444
100
AcDbEntity
  8
0
100
AcDbCircle
 62
7
  6
CONTINUOUS
 10
98.2185854896
 20
28.2681289125
 40
1.5
100
AcDbArc
 50
278.0
 51
354.3380412953
  0
ARC
  5
445
100
AcDbEntity
  8
A_FASEN
100
AcDbCircle
 62
7
  6
CONTINUOUS
 10
98.2185854896
 20
28.2681289125
 40
1.5
100
AcDbArc
 50
354.3380412953
 51
360.0
  0
ARC
  5
446
100
AcDbEntity
  8
0
100
AcDbCircle
 62
7
  6
CONTINUOUS
 10
92.5212264745
 20
26.5585725057
 40
0.6
100
AcDbArc
 50
270.25
 51
278.0
  0
ARC
  5
447
100
AcDbEntity
  8
0
100
AcDbCircle
 62
7
  6
CONTINUOUS
 10
97.7185854896
 20
35.8442546013
 40
0.5
100
AcDbArc
 50
180.0
 51
269.5
  0
ARC
  5
448
100
AcDbEntity
  8
A_RUNDUNGEN
100
AcDbCircle
 62
7
  6
CONTINUOUS
 10
94.9222548683
 20
37.3075250416
 40
0.4999950822
100
AcDbArc
 50
282.1165641761
 51
315.0000053294
  0
ARC
  5
449
100
AcDbEntity
  8
A_RUNDUNGEN
100
AcDbCircle
 62
7
  6
CONTINUOUS
 10
94.1243309754
 20
36.1172043561
 40
0.4999938654
100
AcDbArc
 50
101.7080493684
 51
180.0001282346
  0
ARC
  5
44A
100
AcDbEntity
  8
A_RUNDUNGEN
100
AcDbCircle
 62
7
  6
CONTINUOUS
 10
96.9685854896
 20
32.0312943219
 40
0.25
100
AcDbArc
 50
331.9796309262
 51
360.0
  0
ARC
  5
44B
100
AcDbEntity
  8
0
100
AcDbCircle
 62
7
  6
CONTINUOUS
 10
97.9685854896
 20
28.5876999308
 40
0.25
100
AcDbArc
 50
270.5
 51
360.0
  0
ARC
  5
44C
100
AcDbEntity
  8
0
100
AcDbCircle
 62
7
  6
CONTINUOUS
 10
97.9685854896
 20
35.0920443255
 40
0.25
100
AcDbArc
 50
0.0
 51
89.5
  0
ARC
  5
44D
100
AcDbEntity
  8
A_RUNDUNGEN
100
AcDbCircle
 62
7
  6
CONTINUOUS
 10
89.8423714663
 20
41.2703066226
 40
2.0
100
AcDbArc
 50
191.6473375945
 51
281.6473375945
  0
ARC
  5
44E
100
AcDbEntity
  8
0
100
AcDbCircle
 62
7
  6
CONTINUOUS
 10
89.6352521563
 20
45.1398721282
 40
9.0833333333
100
AcDbArc
 50
327.5092588329
 51
336.949639287
  0
ARC
  5
44F
100
AcDbEntity
  8
A_RUNDUNGEN
100
AcDbCircle
 62
7
  6
CONTINUOUS
 10
89.6352521563
 20
45.1398721282
 40
9.0833333333
100
AcDbArc
 50
15.0544617741
 51
32.4907411671
  0
ARC
  5
450
100
AcDbEntity
  8
A_RUNDUNGEN
100
AcDbCircle
 62
7
  6
CONTINUOUS
 10
89.6352521563
 20
45.1398721282
 40
9.0833333333
100
AcDbArc
 50
8.3999539101
 51
11.0844939828
  0
ARC
  5
451
100
AcDbEntity
  8
A_RUNDUNGEN
100
AcDbCircle
 62
7
  6
CONTINUOUS
 10
89.6352521563
 20
45.1398721282
 40
9.0833333333
100
AcDbArc
 50
336.8897769963
 51
357.7241061738
  0
ARC
  5
452
100
AcDbEntity
  8
A_ACHSEN
100
AcDbCircle
 62
7
  6
CONTINUOUS
 10
92.063898353
 20
45.3528693339
 40
4.75
100
AcDbArc
 50
143.2528655692
 51
77.5933078135
  0
ARC
  5
453
100
AcDbEntity
  8
0
100
AcDbCircle
 62
7
  6
CONTINUOUS
 10
92.063898353
 20
45.3528693339
 40
4.0
100
AcDbArc
 50
159.7591236557
 51
45.1348053035
  0
CIRCLE
  5
454
100
AcDbEntity
  8
0
100
AcDbCircle
 62
7
  6
CONTINUOUS
 10
92.063898353
 20
45.3528693339
 40
2.55
  0
ARC
  5
455
100
AcDbEntity
  8
A_RUNDUNGEN
100
AcDbCircle
 62
7
  6
CONTINUOUS
 10
88.4089725277
 20
48.2241089985
 40
2.0
100
AcDbArc
 50
133.8912193312
 51
191.6473375945
  0
ARC
  5
456
100
AcDbEntity
  8
0
100
AcDbCircle
 62
7
  6
CONTINUOUS
 10
86.4344197193
 20
47.4286752767
 40
2.0
100
AcDbArc
 50
339.7591236557
 51
45.1348053035
  0
ARC
  5
457
100
AcDbEntity
  8
A_RUNDUNGEN
100
AcDbCircle
 62
7
  6
CONTINUOUS
 10
95.7188241783
 20
42.4816296693
 40
2.0
100
AcDbArc
 50
281.6473375945
 51
11.6473375945
  0
ARC
  5
458
100
AcDbEntity
  8
A_RUNDUNGEN
100
AcDbCircle
 62
8
  6
HIDDEN
 10
96.1180253779
 20
40.0332621938
 40
0.5024801181
100
AcDbArc
 50
88.5131837061
 51
102.7882268109
  0
ARC
  5
459
100
AcDbEntity
  8
A_RUNDUNGEN
100
AcDbCircle
 62
8
  6
HIDDEN
 10
96.124394367
 20
40.0281332953
 40
0.5023498744
100
AcDbArc
 50
90.0335941392
 51
102.7731206956
  0
ARC
  5
45A
100
AcDbEntity
  8
A_RUNDUNGEN
100
AcDbCircle
 62
7
  6
CONTINUOUS
 10
96.1245942438
 20
40.0294434168
 40
0.5010399105
100
AcDbArc
 50
82.6073108746
 51
90.0565386432
  0
ARC
  5
45B
100
AcDbEntity
  8
A_RUNDUNGEN
100
AcDbCircle
 62
8
  6
HIDDEN
 10
96.1177049364
 20
40.0355248852
 40
0.5002334729
100
AcDbArc
 50
60.1483882696
 51
85.8417516595
  0
ARC
  5
45C
100
AcDbEntity
  8
0
100
AcDbCircle
 62
7
  6
CONTINUOUS
 10
97.7185854896
 20
39.9920570577
 40
0.5
100
AcDbArc
 50
147.5092588329
 51
180.0
  0
ARC
  5
45D
100
AcDbEntity
  8
A_RUNDUNGEN
100
AcDbCircle
 62
7
  6
CONTINUOUS
 10
96.1244928556
 20
40.0310921266
 40
0.4994180488
100
AcDbArc
 50
359.9927166795
 51
82.5714382361
  0
ARC
  5
45E
100
AcDbEntity
  8
A_RUNDUNGEN
100
AcDbCircle
 62
8
  6
HIDDEN
 10
96.1179530631
 20
40.0375317192
 40
0.4982139401
100
AcDbArc
 50
85.8534767393
 51
88.4921300493
  0
ARC
  5
45F
100
AcDbEntity
  8
0
100
AcDbCircle
 62
7
  6
CONTINUOUS
 10
98.4185854896
 20
42.0745614982
 40
0.3
100
AcDbArc
 50
273.0
 51
360.0
  0
ARC
  5
460
100
AcDbEntity
  8
0
100
AcDbCircle
 62
7
  6
CONTINUOUS
 10
98.26943011
 20
41.4659211884
 40
0.3
100
AcDbArc
 50
93.0
 51
156.949639287
  0
ARC
  5
461
100
AcDbEntity
  8
0
100
AcDbCircle
 62
7
  6
CONTINUOUS
 10
93.9010789011
 20
46.3467374759
 40
5.0
100
AcDbArc
 50
93.3371080292
 51
109.9575671598
  0
ARC
  5
462
100
AcDbEntity
  8
A_RUNDUNGEN
100
AcDbCircle
 62
7
  6
CONTINUOUS
 10
94.2854252398
 20
49.4354320451
 40
2.0
100
AcDbArc
 50
11.6473375945
 51
101.6473375945
  0
ARC
  5
463
100
AcDbEntity
  8
A_RUNDUNGEN
100
AcDbCircle
 62
7
  6
CONTINUOUS
 10
124.5366711907
 20
51.1764533742
 40
27.9419172549
100
AcDbArc
 50
179.4861695525
 51
179.687487479
  0
ARC
  5
464
100
AcDbEntity
  8
0
100
AcDbCircle
 62
7
  6
CONTINUOUS
 10
73.0426412502
 20
66.8640436985
 40
2.5
100
AcDbArc
 50
270.0
 51
360.0
  0
ARC
  5
465
100
AcDbEntity
  8
0
100
AcDbCircle
 62
7
  6
CONTINUOUS
 10
98.2185854896
 20
55.3116153439
 40
1.5
100
AcDbArc
 50
0.0
 51
82.0
  0
ARC
  5
466
100
AcDbEntity
  8
0
100
AcDbCircle
 62
7
  6
CONTINUOUS
 10
96.2185854896
 20
53.661172008
 40
1.0
100
AcDbArc
 50
22.4853129779
 51
89.0
  0
ARC
  5
467
100
AcDbEntity
  8
A_RUNDUNGEN
100
AcDbCircle
 62
7
  6
CONTINUOUS
 10
96.2185854896
 20
53.661172008
 40
1.0
100
AcDbArc
 50
0.0
 51
22.4853129779
  0
ARC
  5
468
100
AcDbEntity
  8
0
100
AcDbCircle
 62
7
  6
CONTINUOUS
 10
73.0426412502
 20
66.8640436985
 40
1.0
100
AcDbArc
 50
270.0
 51
360.0
  0
ARC
  5
469
100
AcDbEntity
  8
0
100
AcDbCircle
 62
7
  6
CONTINUOUS
 10
92.5212264745
 20
57.0211717507
 40
0.6
100
AcDbArc
 50
82.0
 51
89.75
  0
ARC
  5
46A
100
AcDbEntity
  8
A_RUNDUNGEN
100
AcDbCircle
 62
7
  6
CONTINUOUS
 10
96.1168816919
 20
52.5808941771
 40
0.5023757159
100
AcDbArc
 50
284.0986825261
 51
299.8196545602
  0
ARC
  5
46B
100
AcDbEntity
  8
A_RUNDUNGEN
100
AcDbCircle
 62
7
  6
CONTINUOUS
 10
96.1243155657
 20
52.5870760943
 40
0.5000208585
100
AcDbArc
 50
284.0651713395
 51
359.9998163896
  0
ARC
  5
46C
100
AcDbEntity
  8
A_RUNDUNGEN
100
AcDbCircle
 62
7
  6
CONTINUOUS
 10
97.7185854896
 20
50.2876871987
 40
0.5
100
AcDbArc
 50
180.0
 51
212.4907411671
  0
ARC
  5
46D
100
AcDbEntity
  8
0
100
AcDbCircle
 62
7
  6
CONTINUOUS
 10
90.4571728001
 20
54.8907988148
 40
0.5
100
AcDbArc
 50
60.0
 51
89.0
  0
ARC
  5
46E
100
AcDbEntity
  8
0
100
AcDbCircle
 62
7
  6
CONTINUOUS
 10
91.8566007907
 20
55.2375392262
 40
0.5
100
AcDbArc
 50
240.0
 51
269.0
  0
ARC
  5
46F
100
AcDbEntity
  8
A_RUNDUNGEN
100
AcDbCircle
 62
7
  6
CONTINUOUS
 10
96.1166965582
 20
51.5466413301
 40
0.4999998821
100
AcDbArc
 50
283.9495577597
 51
0.0006846097
  0
ARC
  5
470
100
AcDbEntity
  8
0
100
AcDbCircle
 62
7
  6
CONTINUOUS
 10
98.4185854896
 20
53.5051827582
 40
0.3
100
AcDbArc
 50
0.0
 51
87.0
  0
ARC
  5
471
100
AcDbEntity
  8
0
100
AcDbCircle
 62
7
  6
CONTINUOUS
 10
97.4197563671
 20
54.158352582
 40
0.3
100
AcDbArc
 50
202.4853129779
 51
267.0
  0
ARC
  5
472
100
AcDbEntity
  8
A_RUNDUNGEN
100
AcDbCircle
 62
7
  6
CONTINUOUS
 10
64.8002068154
 20
177.6163429442
 40
144.0057516223
100
AcDbArc
 50
281.7081776219
 51
282.1165695245
  0
ARC
  5
473
100
AcDbEntity
  8
0
100
AcDbCircle
 62
7
  6
CONTINUOUS
 10
58.7028500091
 20
177.6010862144
 40
140.6065450262
100
AcDbArc
 50
257.2798894436
 51
266.0765357972
  0
ARC
  5
474
100
AcDbEntity
  8
0
100
AcDbCircle
 62
7
  6
CONTINUOUS
 10
58.7028500091
 20
177.6010862144
 40
140.6
100
AcDbArc
 50
258.161230812
 51
266.0763461704
  0
ARC
  5
475
100
AcDbEntity
  8
A_RUNDUNGEN
100
AcDbCircle
 62
7
  6
CONTINUOUS
 10
58.7028500091
 20
177.6010862144
 40
139.598913922
100
AcDbArc
 50
260.5857240404
 51
266.046384766
  0
ARC
  5
476
100
AcDbEntity
  8
A_RUNDUNGEN
100
AcDbCircle
 62
7
  6
CONTINUOUS
 10
64.8002068154
 20
177.6163429442
 40
139.598913922
100
AcDbArc
 50
274.2175522584
 51
279.6830901868
  0
ARC
  5
477
100
AcDbEntity
  8
A_RUNDUNGEN
100
AcDbCircle
 62
7
  6
CONTINUOUS
 10
58.7028500091
 20
177.6010862144
 40
139.5799190669
100
AcDbArc
 50
260.5921174832
 51
266.0457773963
  0
ARC
  5
478
100
AcDbEntity
  8
A_RUNDUNGEN
100
AcDbCircle
 62
7
  6
CONTINUOUS
 10
64.8002068154
 20
177.6163429442
 40
139.5799190669
100
AcDbArc
 50
274.2348041128
 51
279.7066444985
  0
ARC
  5
479
100
AcDbEntity
  8
A_RUNDUNGEN
100
AcDbCircle
 62
7
  6
CONTINUOUS
 10
58.7028500091
 20
177.6010862144
 40
130.4200809331
100
AcDbArc
 50
260.631898519
 51
266.6752158096
  0
ARC
  5
47A
100
AcDbEntity
  8
A_RUNDUNGEN
100
AcDbCircle
 62
7
  6
CONTINUOUS
 10
64.8002068154
 20
177.6163429442
 40
130.4200809331
100
AcDbArc
 50
273.5821452888
 51
279.6312679283
  0
ARC
  5
47B
100
AcDbEntity
  8
A_RUNDUNGEN
100
AcDbCircle
 62
7
  6
CONTINUOUS
 10
64.8002068154
 20
177.6163429442
 40
130.4200809331
100
AcDbArc
 50
283.6745307644
 51
283.9395476701
  0
ARC
  5
47C
100
AcDbEntity
  8
A_RUNDUNGEN
100
AcDbCircle
 62
7
  6
CONTINUOUS
 10
58.7028500091
 20
177.6010862144
 40
130.401086078
100
AcDbArc
 50
260.6262534272
 51
266.6821074261
  0
ARC
  5
47D
100
AcDbEntity
  8
A_RUNDUNGEN
100
AcDbCircle
 62
7
  6
CONTINUOUS
 10
64.8002068154
 20
177.6163429442
 40
130.401086078
100
AcDbArc
 50
273.5507797241
 51
279.6268418437
  0
ARC
  5
47E
100
AcDbEntity
  8
A_RUNDUNGEN
100
AcDbCircle
 62
7
  6
CONTINUOUS
 10
64.8002068154
 20
177.6163429442
 40
130.401086078
100
AcDbArc
 50
283.6669551047
 51
283.9502597519
  0
ARC
  5
47F
100
AcDbEntity
  8
A_RUNDUNGEN
100
AcDbCircle
 62
7
  6
CONTINUOUS
 10
58.7028500091
 20
177.6010862144
 40
129.4
100
AcDbArc
 50
260.5883970809
 51
267.0856125919
  0
ARC
  5
480
100
AcDbEntity
  8
A_RUNDUNGEN
100
AcDbCircle
 62
7
  6
CONTINUOUS
 10
64.8002068154
 20
177.6163429442
 40
129.4
100
AcDbArc
 50
282.0912266432
 51
284.0613198986
  0
ARC
  5
481
100
AcDbEntity
  8
A_RUNDUNGEN
100
AcDbCircle
 62
7
  6
CONTINUOUS
 10
58.7028500091
 20
177.6010862144
 40
129.3934549738
100
AcDbArc
 50
260.5910874413
 51
267.088217707
  0
ARC
  5
482
100
AcDbEntity
  8
A_RUNDUNGEN
100
AcDbCircle
 62
7
  6
CONTINUOUS
 10
64.8002068154
 20
177.6163429442
 40
129.3934549738
100
AcDbArc
 50
273.1585486633
 51
279.6562464823
  0
ARC
  5
483
100
AcDbEntity
  8
A_RUNDUNGEN
100
AcDbCircle
 62
7
  6
CONTINUOUS
 10
64.8002068154
 20
177.6163429442
 40
129.3934549738
100
AcDbArc
 50
282.0893243235
 51
284.0650478989
  0
ARC
  5
484
100
AcDbEntity
  8
A_RUNDUNGEN
100
AcDbCircle
 62
7
  6
CONTINUOUS
 10
287.3528411521
 20
50.5312565578
 40
190.7594975559
100
AcDbArc
 50
179.8282968628
 51
180.0120352552
  0
SPLINE
  5
485
100
AcDbEntity
  8
A_RUNDUNGEN
100
AcDbSpline
 62
7
  6
CONTINUOUS
 70
0
 71
3
 72
9
 73
5
 74
0
 42
0.0000001
 43
0.0000001
 44
0.0000000001
 40
0.0
 40
0.0
 40
0.0
 40
0.0
 40
0.2879214314
 40
1.0
 40
1.0
 40
1.0
 40
1.0
 10
50.82983369
 20
22.2711865556
 30
0.0
 10
50.8317547164
 20
22.2668747974
 30
0.0
 10
50.8388400764
 20
22.2521107085
 30
0.0
 10
50.8474756209
 20
22.2379241279
 30
0.0
 10
50.8551249606
 20
22.2291051403
 30
0.0
  0
SPLINE
  5
486
100
AcDbEntity
  8
A_RUNDUNGEN
100
AcDbSpline
 62
7
  6
CONTINUOUS
 70
0
 71
3
 72
9
 73
5
 74
0
 42
0.0000001
 43
0.0000001
 44
0.0000000001
 40
0.0
 40
0.0
 40
0.0
 40
0.0
 40
0.318493138
 40
1.0
 40
1.0
 40
1.0
 40
1.0
 10
50.8551249606
 20
22.2291051403
 30
0.0
 10
50.8571099968
 20
22.2268165755
 30
0.0
 10
50.8635538911
 20
22.2200686832
 30
0.0
 10
50.8724490116
 20
22.2140436985
 30
0.0
 10
50.8789315001
 20
22.2140436985
 30
0.0
  0
SPLINE
  5
487
100
AcDbEntity
  8
A_RUNDUNGEN
100
AcDbSpline
 62
7
  6
CONTINUOUS
 70
0
 71
3
 72
10
 73
6
 74
0
 42
0.0000001
 43
0.0000001
 44
0.0000000001
 40
0.0
 40
0.0
 40
0.0
 40
0.0
 40
0.5076745098
 40
0.7439049631
 40
1.0
 40
1.0
 40
1.0
 40
1.0
 10
50.5747881957
 20
22.4140436985
 30
0.0
 10
50.6273376877
 20
22.4140436985
 30
0.0
 10
50.7087642081
 20
22.4053150435
 30
0.0
 10
50.7921819236
 20
22.3398744006
 30
0.0
 10
50.8190456023
 20
22.2954004991
 30
0.0
 10
50.82983369
 20
22.2711865556
 30
0.0
  0
LINE
  5
488
100
AcDbEntity
  8
A_RUNDUNGEN
100
AcDbLine
 62
7
  6
CONTINUOUS
 10
56.7462098309
 20
39.5260105873
 11
56.7437717671
 21
39.2932606527
  0
LINE
  5
489
100
AcDbEntity
  8
A_RUNDUNGEN
100
AcDbLine
 62
7
  6
CONTINUOUS
 10
96.5951695732
 20
51.328858242
 11
96.594662584
 21
51.2280340867
  0
LINE
  5
48A
100
AcDbEntity
  8
A_RUNDUNGEN
100
AcDbLine
 62
7
  6
CONTINUOUS
 10
96.594662584
 20
51.2280340867
 11
96.5942001744
 21
51.1029209184
  0
SPLINE
  5
48B
100
AcDbEntity
  8
A_RUNDUNGEN
100
AcDbSpline
 62
7
  6
CONTINUOUS
 70
0
 71
3
 72
14
 73
10
 74
0
 42
0.0000001
 43
0.0000001
 44
0.0000000001
 40
0.0
 40
0.0
 40
0.0
 40
0.0
 40
0.1023210518
 40
0.1975280799
 40
0.3573074538
 40
0.4897757271
 40
0.6058163224
 40
0.810669253
 40
1.0
 40
1.0
 40
1.0
 40
1.0
 10
75.8185854846
 20
26.6898768844
 30
0.0
 10
75.81858483
 20
26.7165543972
 30
0.0
 10
75.8229821866
 20
26.7681196409
 30
0.0
 10
75.8439025311
 20
26.8591711631
 30
0.0
 10
75.8867923001
 20
26.9519411598
 30
0.0
 10
75.9520148388
 20
27.0369607116
 30
0.0
 10
76.0411348663
 20
27.1154809272
 30
0.0
 10
76.1617280255
 20
27.1771609849
 30
0.0
 10
76.2649719602
 20
27.1936967793
 30
0.0
 10
76.3143331421
 20
27.1941197076
 30
0.0
  0
SPLINE
  5
48C
100
AcDbEntity
  8
A_RUNDUNGEN
100
AcDbSpline
 62
7
  6
CONTINUOUS
 70
0
 71
3
 72
9
 73
5
 74
0
 42
0.0000001
 43
0.0000001
 44
0.0000000001
 40
0.0
 40
0.0
 40
0.0
 40
0.0
 40
0.4998865856
 40
1.0
 40
1.0
 40
1.0
 40
1.0
 10
75.818589594
 20
28.5210688263
 30
0.0
 10
75.8185756052
 20
28.6140685772
 30
0.0
 10
75.792549839
 20
28.8006380087
 30
0.0
 10
75.7273078042
 20
28.9758489873
 30
0.0
 10
75.6892915173
 20
29.060769931
 30
0.0
  0
SPLINE
  5
48D
100
AcDbEntity
  8
A_RUNDUNGEN
100
AcDbSpline
 62
7
  6
CONTINUOUS
 70
0
 71
3
 72
9
 73
5
 74
0
 42
0.0000001
 43
0.0000001
 44
0.0000000001
 40
0.0
 40
0.0
 40
0.0
 40
0.0
 40
0.4999685997
 40
1.0
 40
1.0
 40
1.0
 40
1.0
 10
75.6892915173
 20
29.060769931
 30
0.0
 10
75.6385240522
 20
29.1741812613
 30
0.0
 10
75.5614972391
 20
29.4127219132
 30
0.0
 10
75.5358367636
 20
29.6619195499
 30
0.0
 10
75.5358367636
 20
29.7861908028
 30
0.0
  0
SPLINE
  5
48E
100
AcDbEntity
  8
A_FASEN
100
AcDbSpline
 62
7
  6
CONTINUOUS
 70
0
 71
3
 72
18
 73
14
 74
0
 42
0.0000001
 43
0.0000001
 44
0.0000000001
 40
0.0
 40
0.0
 40
0.0
 40
0.0
 40
0.2327819796
 40
0.4352341519
 40
0.607149031
 40
0.7482396525
 40
0.8582107891
 40
0.9014792055
 40
0.9369155868
 40
0.9645034098
 40
0.9842252511
 40
0.9960629896
 40
1.0
 40
1.0
 40
1.0
 40
1.0
 10
99.5185854896
 20
28.4611961134
 30
0.0
 10
99.5186181595
 20
28.4517644417
 30
0.0
 10
99.518464644
 20
28.4341281307
 30
0.0
 10
99.5176537429
 20
28.4095399413
 30
0.0
 10
99.5165048019
 20
28.3886831237
 30
0.0
 10
99.5152537885
 20
28.3715956574
 30
0.0
 10
99.514224915
 20
28.3597019066
 30
0.0
 10
99.5135209543
 20
28.3521088365
 30
0.0
 10
99.5130533217
 20
28.3477869341
 30
0.0
 10
99.5128002289
 20
28.3445474733
 30
0.0
 10
99.5123195443
 20
28.3419503782
 30
0.0
 10
99.5125500457
 20
28.3408974009
 30
0.0
 10
99.5120836537
 20
28.3398721282
 30
0.0
 10
99.5122431713
 20
28.3398721282
 30
0.0
  0
SPLINE
  5
48F
100
AcDbEntity
  8
0
100
AcDbSpline
 62
7
  6
CONTINUOUS
 70
0
 71
3
 72
13
 73
9
 74
0
 42
0.0000001
 43
0.0000001
 44
0.0000000001
 40
0.0
 40
0.0
 40
0.0
 40
0.0
 40
0.3452320722
 40
0.6391864977
 40
0.7505741781
 40
0.8392613744
 40
0.9169634633
 40
1.0
 40
1.0
 40
1.0
 40
1.0
 10
24.644589266
 20
52.9942058151
 30
0.0
 10
24.6097673627
 20
53.014929711
 30
0.0
 10
24.5415624996
 20
53.0469673098
 30
0.0
 10
24.4540183212
 20
53.0671621331
 30
0.0
 10
24.395777391
 20
53.0618438429
 30
0.0
 10
24.3649671625
 20
53.0481389329
 30
0.0
 10
24.3471629285
 20
53.0232296953
 30
0.0
 10
24.344589266
 20
53.0039523579
 30
0.0
 10
24.344589266
 20
52.9942058151
 30
0.0
  0
SPLINE
  5
490
100
AcDbEntity
  8
0
100
AcDbSpline
 62
7
  6
CONTINUOUS
 70
0
 71
3
 72
13
 73
9
 74
0
 42
0.0000001
 43
0.0000001
 44
0.0000000001
 40
0.0
 40
0.0
 40
0.0
 40
0.0
 40
0.0830365283
 40
0.1607386067
 40
0.2494258181
 40
0.3608135042
 40
0.6547679827
 40
1.0
 40
1.0
 40
1.0
 40
1.0
 10
24.344589266
 20
29.9338815819
 30
0.0
 10
24.344589266
 20
29.92413504
 30
0.0
 10
24.34716292
 20
29.9048577031
 30
0.0
 10
24.3649671588
 20
29.8799484676
 30
0.0
 10
24.3957773882
 20
29.8662435596
 30
0.0
 10
24.4540183264
 20
29.8609252587
 30
0.0
 10
24.5415625063
 20
29.8811200909
 30
0.0
 10
24.6097673681
 20
29.9131576892
 30
0.0
 10
24.644589266
 20
29.9338815819
 30
0.0
  0
SPLINE
  5
491
100
AcDbEntity
  8
0
100
AcDbSpline
 62
7
  6
CONTINUOUS
 70
0
 71
3
 72
13
 73
9
 74
0
 42
0.0000001
 43
0.0000001
 44
0.0000000001
 40
0.0
 40
0.0
 40
0.0
 40
0.0
 40
0.3452320173
 40
0.6391864958
 40
0.7505741819
 40
0.8392613933
 40
0.9169634717
 40
1.0
 40
1.0
 40
1.0
 40
1.0
 10
24.644589266
 20
32.9942058151
 30
0.0
 10
24.6097673681
 20
33.0149297078
 30
0.0
 10
24.5415625063
 20
33.046967306
 30
0.0
 10
24.4540183264
 20
33.0671621382
 30
0.0
 10
24.3957773882
 20
33.0618438373
 30
0.0
 10
24.3649671588
 20
33.0481389293
 30
0.0
 10
24.34716292
 20
33.0232296938
 30
0.0
 10
24.344589266
 20
33.0039523569
 30
0.0
 10
24.344589266
 20
32.9942058151
 30
0.0
  0
SPLINE
  5
492
100
AcDbEntity
  8
0
100
AcDbSpline
 62
7
  6
CONTINUOUS
 70
0
 71
3
 72
13
 73
9
 74
0
 42
0.0000001
 43
0.0000001
 44
0.0000000001
 40
0.0
 40
0.0
 40
0.0
 40
0.0
 40
0.0866112172
 40
0.1670895724
 40
0.3610408882
 40
0.4941039158
 40
0.649475152
 40
1.0
 40
1.0
 40
1.0
 40
1.0
 10
24.344589266
 20
49.9338815819
 30
0.0
 10
24.344589266
 20
49.9248517208
 30
0.0
 10
24.346766463
 20
49.9071582577
 30
0.0
 10
24.3675619323
 20
49.8739120383
 30
0.0
 10
24.4133486144
 20
49.862362878
 30
0.0
 10
24.4630040753
 20
49.865022907
 30
0.0
 10
24.5287361909
 20
49.8783401963
 30
0.0
 10
24.577968636
 20
49.8984437816
 30
0.0
 10
24.6105139896
 20
49.9150667555
 30
0.0
  0
ELLIPSE
  5
493
100
AcDbEntity
  8
A_RUNDUNGEN
100
AcDbEllipse
 62
7
  6
CONTINUOUS
 10
75.0185778691
 20
26.6898797405
 30
0.0
 11
-0.5656961946
 21
0.565696195
 31
0.0
 40
0.9999809617
 41
2.3562040094
 42
3.9269812978
  0
ELLIPSE
  5
494
100
AcDbEntity
  8
A_RUNDUNGEN
100
AcDbEllipse
 62
7
  6
CONTINUOUS
 10
64.3185854845
 20
26.3898768882
 30
0.0
 11
-0.0000000002
 21
-0.5000047597
 31
0.0
 40
0.9999904807
 41
-1.5707963268
 42
0.0
  0
ELLIPSE
  5
495
100
AcDbEntity
  8
A_RUNDUNGEN
100
AcDbEllipse
 62
7
  6
CONTINUOUS
 10
68.0305710606
 20
56.4956275573
 30
0.0
 11
0.2828480975
 21
0.2828480973
 31
0.0
 40
0.9999809617
 41
2.9470100154
 42
3.9269812978
  0
ELLIPSE
  5
496
100
AcDbEntity
  8
A_RUNDUNGEN
100
AcDbEllipse
 62
7
  6
CONTINUOUS
 10
96.124332356
 20
53.243724409
 30
0.0
 11
0.4619449182
 21
0.19134385
 31
0.0
 40
0.9999888475
 41
-0.3926951387
 42
0.3926951387
  0
ELLIPSE
  5
497
100
AcDbEntity
  8
A_RUNDUNGEN
100
AcDbEllipse
 62
7
  6
CONTINUOUS
 10
96.1243323511
 20
38.5096162097
 30
0.0
 11
-0.461944918
 21
0.1913438503
 31
0.0
 40
0.9999888475
 41
2.7488975149
 42
3.5342877923
  0
ELLIPSE
  5
498
100
AcDbEntity
  8
A_RUNDUNGEN
100
AcDbEllipse
 62
7
  6
CONTINUOUS
 10
64.3185854943
 20
56.0956189911
 30
0.0
 11
0.0000000002
 21
0.5000047597
 31
0.0
 40
0.9999904807
 41
-0.0
 42
1.5707963268
  0
ELLIPSE
  5
499
100
AcDbEntity
  8
A_RUNDUNGEN
100
AcDbEllipse
 62
7
  6
CONTINUOUS
 10
88.3866552905
 20
55.3956285025
 30
0.0
 11
0.1913438503
 21
0.461944918
 31
0.0
 40
0.9999888475
 41
-3.1009770833
 42
-2.7488975149
  0
ELLIPSE
  5
49A
100
AcDbEntity
  8
A_RUNDUNGEN
100
AcDbEllipse
 62
7
  6
CONTINUOUS
 10
65.5685854866
 20
32.7012302488
 30
0.0
 11
-0.0000000006
 21
-1.7504364301
 31
0.0
 40
0.9997506736
 41
-1.9723117489
 42
-1.5707963268
  0
ELLIPSE
  5
49B
100
AcDbEntity
  8
0
100
AcDbEllipse
 62
7
  6
CONTINUOUS
 10
22.8232689224
 20
51.4640436985
 30
0.0
 11
-2.8284271247
 21
0.0
 31
0.0
 40
0.7071067812
 41
8.5536107599
 42
8.6019571924
  0
ELLIPSE
  5
49C
100
AcDbEntity
  8
0
100
AcDbEllipse
 62
7
  6
CONTINUOUS
 10
22.8232689224
 20
51.4640436985
 30
0.0
 11
-2.8284271247
 21
0.0
 31
0.0
 40
0.7071067812
 41
3.964414235
 42
4.0127598544
  0
ELLIPSE
  5
49D
100
AcDbEntity
  8
0
100
AcDbEllipse
 62
7
  6
CONTINUOUS
 10
22.8232689224
 20
31.4640436985
 30
0.0
 11
-2.8284271247
 21
0.0
 31
0.0
 40
0.7071067812
 41
2.2704254527
 42
2.3187718847
  0
ELLIPSE
  5
49E
100
AcDbEntity
  8
0
100
AcDbEllipse
 62
7
  6
CONTINUOUS
 10
22.8232689224
 20
31.4640436985
 30
0.0
 11
-2.8284271247
 21
0.0
 31
0.0
 40
0.7071067812
 41
10.2475995426
 42
10.2959451616
  0
ENDSEC
  0
SECTION
  2
OBJECTS
  0
DICTIONARY
  5
49F
100
AcDbDictionary
  3
ACAD_GROUP
350
4A0
  3
ACAD_MLINESTYLE
350
4A1
  0
DICTIONARY
  5
4A0
102
{ACAD_REACTORS
330
49F
102
}
100
AcDbDictionary
  0
DICTIONARY
  5
4A1
102
{ACAD_REACTORS
330
49F
102
}
100
AcDbDictionary
  3
STANDARD
350
4A2
  0
MLINESTYLE
  5
4A2
102
{ACAD_REACTORS
330
4A1
102
}
100
AcDbMlineStyle
  2
STANDARD
 70
0
  3

 62
256
 51
90.0
 52
90.0
 71
2
 49
0.5
 62
256
  6
BYLAYER
 49
-0.5
 62
256
  6
BYLAYER
  0
ENDSEC
  0
EOF
