999
DXF file: d:\tmp\workingDir\0000069992\te_540_640_3d_fz_q01_01.dxf
999
Pro/ENGINEER 2016380 by Parametric Technology Corporation
  0
SECTION
  2
HEADER
  9
$ACADVER
  1
AC1014
  9
$DWGCODEPAGE
  3
ANSI_1252
  9
$EXTMAX
 10
134.874
 20
150.0
 30
0.0
  9
$EXTMIN
 10
0.0
 20
0.0
 30
0.0
  9
$LIMMIN
 10
0.0
 20
0.0
  9
$LIMMAX
 10
134.874
 20
150.0
  9
$VIEWCTR
 10
67.437
 20
75.0
  9
$VIEWSIZE
 40
150.0
  9
$CLAYER
  8
0
  9
$LTSCALE
 40
9.7777777778
  9
$CELTYPE
  6
BYLAYER
  9
$DIMSCALE
 40
1.0
  9
$DIMASZ
 40
3.5
  9
$DIMEXO
 40
0.0
  9
$DIMDLI
 40
6.7555555556
  9
$DIMEXE
 40
2.0
  9
$DIMCEN
 40
1.6
  9
$DIMLFAC
 40
1.0
  9
$DIMBLK
  1
_ARROW_FILLED
  9
$DIMALT
 70
0
  9
$DIMALTF
 40
25.4
  9
$DIMTXT
 40
3.5
  9
$DIMTOL
 70
1
  9
$DIMLIM
 70
0
  9
$DIMTFAC
 40
1.0
  9
$DIMTP
 40
0.01
  9
$DIMTM
 40
0.01
  9
$DIMGAP
 40
0.625
  9
$AUNITS
 70
0
  9
$PDMODE
 70
0
  9
$PDSIZE
 40
0.04
  9
$HANDSEED
  5
43C
  9
$TILEMODE
 70
1
  9
$MEASUREMENT
 70
1
  0
ENDSEC
  0
SECTION
  2
CLASSES
  0
ENDSEC
  0
SECTION
  2
TABLES
  0
TABLE
  2
VPORT
  5
8
100
AcDbSymbolTable
 70
2
  0
VPORT
  5
1F4
100
AcDbSymbolTableRecord
100
AcDbViewportTableRecord
  2
*ACTIVE
 70
0
 10
0.0
 20
0.0
 11
1.0
 21
1.0
 12
67.437
 22
75.0
 13
0.0
 23
0.0
 14
1.0
 24
1.0
 15
0.0
 25
0.0
 16
0.0
 26
0.0
 36
1.0
 17
0.0
 27
0.0
 37
0.0
 40
150.0
 41
0.89916
 42
50.0
 43
0.0
 44
0.0
 50
0.0
 51
0.0
 71
0
 72
100
 73
1
 74
1
 75
0
 76
0
 77
0
 78
0
  0
ENDTAB
  0
TABLE
  2
LTYPE
  5
5
100
AcDbSymbolTable
 70
6
  0
LTYPE
  5
14
100
AcDbSymbolTableRecord
100
AcDbLinetypeTableRecord
  2
BYBLOCK
 70
0
  3

 72
65
 73
0
 40
0.0
  0
LTYPE
  5
15
100
AcDbSymbolTableRecord
100
AcDbLinetypeTableRecord
  2
BYLAYER
 70
0
  3

 72
65
 73
0
 40
0.0
  0
LTYPE
  5
16
100
AcDbSymbolTableRecord
100
AcDbLinetypeTableRecord
  2
CONTINUOUS
 70
64
  3
Solid line
 72
65
 73
0
 40
0.0
  0
LTYPE
  5
1F5
100
AcDbSymbolTableRecord
100
AcDbLinetypeTableRecord
  2
CENTER
 70
64
  3
____ _ ____ _ ____ _ ____ _ ____ _ ____ _ ____
 72
65
 73
4
 40
0.6
 49
0.375
 74
0
 49
-0.075
 74
0
 49
0.075
 74
0
 49
-0.075
 74
0
  0
LTYPE
  5
1F6
100
AcDbSymbolTableRecord
100
AcDbLinetypeTableRecord
  2
HIDDEN
 70
64
  3
- - - - - - - - - - - - - - - - - - - -
 72
65
 73
2
 40
0.2
 49
0.1
 74
0
 49
-0.1
 74
0
  0
LTYPE
  5
1F7
100
AcDbSymbolTableRecord
100
AcDbLinetypeTableRecord
  2
PHANTOM
 70
64
  3
_____ _ _ _____ _ _ _____ _ _ _____
 72
65
 73
6
 40
0.8
 49
0.45
 74
0
 49
-0.05
 74
0
 49
0.1
 74
0
 49
-0.05
 74
0
 49
0.1
 74
0
 49
-0.05
 74
0
  0
LTYPE
  5
1F8
100
AcDbSymbolTableRecord
100
AcDbLinetypeTableRecord
  2
DOT
 70
64
  3
. . . . . . . . . . . . . . . . . . . .
 72
65
 73
2
 40
0.2
 49
0.1
 74
0
 49
-0.1
 74
0
  0
LTYPE
  5
1F9
100
AcDbSymbolTableRecord
100
AcDbLinetypeTableRecord
  2
DASHED
 70
64
  3
- - - - - - - - - - - - - - - - - - - -
 72
65
 73
2
 40
0.2
 49
0.1
 74
0
 49
-0.1
 74
0
  0
ENDTAB
  0
TABLE
  2
LAYER
  5
2
100
AcDbSymbolTable
 70
36
  0
LAYER
  5
10
100
AcDbSymbolTableRecord
100
AcDbLayerTableRecord
  2
0
 70
0
 62
7
  6
CONTINUOUS
  0
LAYER
  5
1FA
100
AcDbSymbolTableRecord
100
AcDbLayerTableRecord
  2
DEFAULT_1
 70
0
 62
7
  6
CENTER
  0
LAYER
  5
1FB
100
AcDbSymbolTableRecord
100
AcDbLayerTableRecord
  2
DEFAULT_2
 70
0
 62
8
  6
HIDDEN
  0
LAYER
  5
1FC
100
AcDbSymbolTableRecord
100
AcDbLayerTableRecord
  2
DEFAULT_3
 70
0
 62
7
  6
PHANTOM
  0
LAYER
  5
1FD
100
AcDbSymbolTableRecord
100
AcDbLayerTableRecord
  2
A_ACHSEN
 70
0
 62
7
  6
CONTINUOUS
  0
LAYER
  5
1FE
100
AcDbSymbolTableRecord
100
AcDbLayerTableRecord
  2
A_BASISEBENEN
 70
0
 62
7
  6
CONTINUOUS
  0
LAYER
  5
1FF
100
AcDbSymbolTableRecord
100
AcDbLayerTableRecord
  2
A_BEMASSUNGEN
 70
0
 62
7
  6
CONTINUOUS
  0
LAYER
  5
200
100
AcDbSymbolTableRecord
100
AcDbLayerTableRecord
  2
A_BOHRUNGEN
 70
0
 62
7
  6
CONTINUOUS
  0
LAYER
  5
201
100
AcDbSymbolTableRecord
100
AcDbLayerTableRecord
  2
A_EBENEN
 70
0
 62
7
  6
CONTINUOUS
  0
LAYER
  5
202
100
AcDbSymbolTableRecord
100
AcDbLayerTableRecord
  2
A_FASEN
 70
0
 62
7
  6
CONTINUOUS
  0
LAYER
  5
203
100
AcDbSymbolTableRecord
100
AcDbLayerTableRecord
  2
A_FLAECHEN
 70
0
 62
7
  6
CONTINUOUS
  0
LAYER
  5
204
100
AcDbSymbolTableRecord
100
AcDbLayerTableRecord
  2
A_FL_VERBAENDE
 70
0
 62
7
  6
CONTINUOUS
  0
LAYER
  5
205
100
AcDbSymbolTableRecord
100
AcDbLayerTableRecord
  2
A_KURVEN
 70
0
 62
7
  6
CONTINUOUS
  0
LAYER
  5
206
100
AcDbSymbolTableRecord
100
AcDbLayerTableRecord
  2
A_NOTIZEN_SYMB
 70
0
 62
7
  6
CONTINUOUS
  0
LAYER
  5
207
100
AcDbSymbolTableRecord
100
AcDbLayerTableRecord
  2
A_PUNKTE
 70
0
 62
7
  6
CONTINUOUS
  0
LAYER
  5
208
100
AcDbSymbolTableRecord
100
AcDbLayerTableRecord
  2
A_RUNDUNGEN
 70
0
 62
7
  6
CONTINUOUS
  0
LAYER
  5
209
100
AcDbSymbolTableRecord
100
AcDbLayerTableRecord
  2
BASISEBENEN
 70
0
 62
7
  6
CONTINUOUS
  0
LAYER
  5
20A
100
AcDbSymbolTableRecord
100
AcDbLayerTableRecord
  2
XSEC_DATUMS
 70
0
 62
7
  6
CONTINUOUS
  0
ENDTAB
  0
TABLE
  2
STYLE
  5
3
100
AcDbSymbolTable
 70
1
  0
STYLE
  5
11
100
AcDbSymbolTableRecord
100
AcDbTextStyleTableRecord
  2
STANDARD
 70
0
 40
0.0
 41
1.0
 50
0.0
 71
0
 42
0.2
  3
txt
  4

  0
STYLE
  5
20B
100
AcDbSymbolTableRecord
100
AcDbTextStyleTableRecord
  2
TEXTSTYLE_1
 70
0
 40
0.0
 41
0.8
 50
0.0
 71
0
 42
0.2
  3
gdt
  4

  0
STYLE
  5
20C
100
AcDbSymbolTableRecord
100
AcDbTextStyleTableRecord
  2
TEXTSTYLE_2
 70
0
 40
0.0
 41
1.0
 50
0.0
 71
0
 42
0.2
  3
txt
  4

  0
ENDTAB
  0
TABLE
  2
VIEW
  5
6
100
AcDbSymbolTable
 70
0
  0
ENDTAB
  0
TABLE
  2
UCS
  5
7
100
AcDbSymbolTable
 70
0
  0
ENDTAB
  0
TABLE
  2
APPID
  5
9
100
AcDbSymbolTable
 70
1
  0
APPID
  5
20D
100
AcDbSymbolTableRecord
100
AcDbRegAppTableRecord
  2
ACAD
 70
0
  0
ENDTAB
  0
TABLE
  2
BLOCK_RECORD
  5
1
100
AcDbSymbolTable
 70
0
  0
BLOCK_RECORD
  5
1F
100
AcDbSymbolTableRecord
100
AcDbBlockTableRecord
  2
*MODEL_SPACE
  0
BLOCK_RECORD
  5
1B
100
AcDbSymbolTableRecord
100
AcDbBlockTableRecord
  2
*PAPER_SPACE
  0
BLOCK_RECORD
  5
20E
100
AcDbSymbolTableRecord
100
AcDbBlockTableRecord
  2
_ARROW_FILLED
  0
BLOCK_RECORD
  5
20F
100
AcDbSymbolTableRecord
100
AcDbBlockTableRecord
  2
*D0
  0
BLOCK_RECORD
  5
210
100
AcDbSymbolTableRecord
100
AcDbBlockTableRecord
  2
*D1
  0
BLOCK_RECORD
  5
211
100
AcDbSymbolTableRecord
100
AcDbBlockTableRecord
  2
*D2
  0
BLOCK_RECORD
  5
212
100
AcDbSymbolTableRecord
100
AcDbBlockTableRecord
  2
*D3
  0
BLOCK_RECORD
  5
213
100
AcDbSymbolTableRecord
100
AcDbBlockTableRecord
  2
*D4
  0
ENDTAB
  0
TABLE
  2
DIMSTYLE
  5
A
100
AcDbSymbolTable
 70
1
  0
DIMSTYLE
105
214
100
AcDbSymbolTableRecord
100
AcDbDimStyleTableRecord
  2
STANDARD
 70
0
  3

  4

  5
_ARROW_FILLED
  6
_ARROW_FILLED
  7
_ARROW_FILLED
 40
1.0
 41
3.5
 42
0.0
 43
0.38
 44
2.0
 45
0.0
 46
0.0
 47
0.01
 48
0.01
140
3.5
141
0.09
142
0.0
143
25.4
144
1.0
145
0.0
146
1.0
147
0.625
 71
1.0
 72
0.0
 73
0
 74
0
 75
0
 76
0
 77
1
 78
8
170
0
171
1
172
0
173
0
174
0
175
0
176
0
177
0
178
5
270
2
271
2
272
2
273
2
274
2
275
0
280
0
281
0
282
0
283
1
284
8
285
0
286
0
287
3
288
0
340
11
  0
DIMSTYLE
105
215
100
AcDbSymbolTableRecord
100
AcDbDimStyleTableRecord
  2
DIMSTYLE_1
 70
0
  3

  4

  5
_ARROW_FILLED
  6
_ARROW_FILLED
  7
_ARROW_FILLED
 40
1.0
 41
3.5
 42
0.0
 43
0.38
 44
2.0
 45
0.0
 46
0.0
 47
0.1
 48
0.1
140
3.5
141
0.09
142
0.0
143
25.4
144
1.0
145
0.0
146
1.0
147
0.875
 71
0.0
 72
0.0
 73
0
 74
0
 75
0
 76
0
 77
1
 78
8
170
0
171
1
172
0
173
0
174
0
175
0
176
0
177
0
178
5
270
2
271
0
272
-1
273
2
274
2
275
0
280
0
281
0
282
0
283
1
284
8
285
0
286
0
287
3
288
0
340
20C
  0
DIMSTYLE
105
216
100
AcDbSymbolTableRecord
100
AcDbDimStyleTableRecord
  2
DIMSTYLE_2
 70
0
  3

  4

  5
_ARROW_FILLED
  6
_ARROW_FILLED
  7
_ARROW_FILLED
 40
1.0
 41
3.5
 42
0.0
 43
0.38
 44
2.0
 45
0.0
 46
0.0
 47
0.3
 48
0.3
140
3.5
141
0.09
142
0.0
143
25.4
144
1.0
145
0.0
146
1.0
147
0.875
 71
0.0
 72
0.0
 73
0
 74
0
 75
0
 76
0
 77
1
 78
8
170
0
171
1
172
0
173
0
174
0
175
0
176
0
177
0
178
5
270
2
271
4
272
-1
273
2
274
2
275
0
280
0
281
0
282
0
283
1
284
8
285
0
286
0
287
3
288
0
340
20C
  0
DIMSTYLE
105
217
100
AcDbSymbolTableRecord
100
AcDbDimStyleTableRecord
  2
DIMSTYLE_3
 70
0
  3

  4

  5
_ARROW_FILLED
  6
_ARROW_FILLED
  7
_ARROW_FILLED
 40
1.0
 41
3.5
 42
0.0
 43
0.38
 44
2.0
 45
0.0
 46
0.0
 47
0.1
 48
0.1
140
3.5
141
0.09
142
0.0
143
25.4
144
1.0
145
0.0
146
1.0
147
0.875
 71
0.0
 72
0.0
 73
0
 74
0
 75
0
 76
0
 77
1
 78
8
170
0
171
1
172
0
173
0
174
0
175
0
176
0
177
0
178
5
270
2
271
1
272
-1
273
2
274
2
275
0
280
0
281
0
282
0
283
1
284
8
285
0
286
0
287
3
288
0
340
20C
  0
ENDTAB
  0
ENDSEC
  0
SECTION
  2
BLOCKS
  0
BLOCK
  5
20
100
AcDbEntity
  8
0
100
AcDbBlockBegin
  2
*MODEL_SPACE
 70
0
 10
0.0
 20
0.0
 30
0.0
  3
*MODEL_SPACE
  1

  0
ENDBLK
  5
21
100
AcDbEntity
  8
0
100
AcDbBlockEnd
  0
BLOCK
  5
1C
100
AcDbEntity
  8
0
100
AcDbBlockBegin
  2
*PAPER_SPACE
 70
0
 10
0.0
 20
0.0
 30
0.0
  3
*PAPER_SPACE
  1

  0
ENDBLK
  5
1D
100
AcDbEntity
  8
0
100
AcDbBlockEnd
  0
BLOCK
  5
218
100
AcDbEntity
  8
0
100
AcDbBlockBegin
  2
_ARROW_FILLED
 70
64
 10
0.0
 20
0.0
  3
_ARROW_FILLED
  1

  0
SOLID
  5
219
100
AcDbEntity
  8
0
  6
BYBLOCK
 62
0
100
AcDbTrace
 10
0.0
 20
0.0
 11
-1.0
 21
0.1428571429
 12
-1.0
 22
-0.1428571429
 13
-1.0
 23
-0.1428571429
  0
ENDBLK
  5
21A
100
AcDbEntity
  8
0
  6
BYBLOCK
 62
0
100
AcDbBlockEnd
  0
BLOCK
  5
21B
100
AcDbEntity
  8
A_BEMASSUNGEN
100
AcDbBlockBegin
 62
2
  6
CONTINUOUS
  2
*D0
 70
65
 10
0.0
 20
0.0
  3
*D0
  1

  0
MTEXT
  5
21C
100
AcDbEntity
  8
A_BEMASSUNGEN
100
AcDbMText
 62
5
  6
CONTINUOUS
  7
TEXTSTYLE_2
 71
3
 72
1
 10
124.0985435754
 20
12.9256070021
 30
0.0
 11
0.0
 21
1.0
 31
0.0
  1
4
 40
3.5
 41
4.125
  0
LINE
  5
21D
100
AcDbEntity
  8
A_BEMASSUNGEN
100
AcDbLine
 62
2
  6
CONTINUOUS
 10
119.0420978667
 20
16.9798662391
 11
130.4735435754
 21
16.9798662391
  0
LINE
  5
21E
100
AcDbEntity
  8
A_BEMASSUNGEN
100
AcDbLine
 62
2
  6
CONTINUOUS
 10
100.5420978667
 20
21.1798662391
 11
130.4735435754
 21
21.1798662391
  0
LINE
  5
21F
100
AcDbEntity
  8
A_BEMASSUNGEN
100
AcDbLine
 62
2
  6
CONTINUOUS
 10
128.4735435754
 20
16.9798662391
 11
128.4735435754
 21
10.1756070021
  0
LINE
  5
220
100
AcDbEntity
  8
A_BEMASSUNGEN
100
AcDbLine
 62
2
  6
CONTINUOUS
 10
128.4735435754
 20
10.1756070021
 11
128.4735435754
 21
19.0798662391
  0
LINE
  5
221
100
AcDbEntity
  8
A_BEMASSUNGEN
100
AcDbLine
 62
2
  6
CONTINUOUS
 10
128.4735435754
 20
21.1798662391
 11
128.4735435754
 21
28.6798662391
  0
LINE
  5
222
100
AcDbEntity
  8
A_BEMASSUNGEN
100
AcDbLine
 62
2
  6
CONTINUOUS
 10
128.4735435754
 20
28.6798662391
 11
128.4735435754
 21
19.0798662391
  0
INSERT
  5
223
100
AcDbEntity
  8
A_BEMASSUNGEN
100
AcDbBlockReference
 62
2
  6
CONTINUOUS
  2
_ARROW_FILLED
 10
128.4735435754
 20
16.9798662391
 41
3.5
 42
3.5
 43
3.5
 50
90.0
  0
INSERT
  5
224
100
AcDbEntity
  8
A_BEMASSUNGEN
100
AcDbBlockReference
 62
2
  6
CONTINUOUS
  2
_ARROW_FILLED
 10
128.4735435754
 20
21.1798662391
 41
3.5
 42
3.5
 43
3.5
 50
270.0
  0
ENDBLK
  5
225
100
AcDbEntity
  8
0
  6
BYBLOCK
 62
0
100
AcDbBlockEnd
  0
BLOCK
  5
226
100
AcDbEntity
  8
A_BEMASSUNGEN
100
AcDbBlockBegin
 62
2
  6
CONTINUOUS
  2
*D1
 70
65
 10
0.0
 20
0.0
  3
*D1
  1

  0
MTEXT
  5
227
100
AcDbEntity
  8
A_BEMASSUNGEN
100
AcDbMText
 62
5
  6
CONTINUOUS
  7
TEXTSTYLE_2
 71
2
 72
1
 10
124.0985435754
 20
37.1798662391
 30
0.0
 11
0.0
 21
1.0
 31
0.0
  1
32
 40
3.5
 41
7.875
  0
LINE
  5
228
100
AcDbEntity
  8
A_BEMASSUNGEN
100
AcDbLine
 62
2
  6
CONTINUOUS
 10
100.5420978667
 20
53.1798662391
 11
130.4735435754
 21
53.1798662391
  0
LINE
  5
229
100
AcDbEntity
  8
A_BEMASSUNGEN
100
AcDbLine
 62
2
  6
CONTINUOUS
 10
100.5420978667
 20
21.1798662391
 11
130.4735435754
 21
21.1798662391
  0
LINE
  5
22A
100
AcDbEntity
  8
A_BEMASSUNGEN
100
AcDbLine
 62
2
  6
CONTINUOUS
 10
128.4735435754
 20
53.1798662391
 11
128.4735435754
 21
37.1798662391
  0
LINE
  5
22B
100
AcDbEntity
  8
A_BEMASSUNGEN
100
AcDbLine
 62
2
  6
CONTINUOUS
 10
128.4735435754
 20
21.1798662391
 11
128.4735435754
 21
37.1798662391
  0
INSERT
  5
22C
100
AcDbEntity
  8
A_BEMASSUNGEN
100
AcDbBlockReference
 62
2
  6
CONTINUOUS
  2
_ARROW_FILLED
 10
128.4735435754
 20
53.1798662391
 41
3.5
 42
3.5
 43
3.5
 50
90.0
  0
INSERT
  5
22D
100
AcDbEntity
  8
A_BEMASSUNGEN
100
AcDbBlockReference
 62
2
  6
CONTINUOUS
  2
_ARROW_FILLED
 10
128.4735435754
 20
21.1798662391
 41
3.5
 42
3.5
 43
3.5
 50
270.0
  0
ENDBLK
  5
22E
100
AcDbEntity
  8
0
  6
BYBLOCK
 62
0
100
AcDbBlockEnd
  0
BLOCK
  5
22F
100
AcDbEntity
  8
A_BEMASSUNGEN
100
AcDbBlockBegin
 62
2
  6
CONTINUOUS
  2
*D2
 70
65
 10
0.0
 20
0.0
  3
*D2
  1

  0
MTEXT
  5
230
100
AcDbEntity
  8
A_BEMASSUNGEN
100
AcDbMText
 62
5
  6
CONTINUOUS
  7
TEXTSTYLE_2
 71
3
 72
1
 10
57.4252655844
 20
14.0979806164
 30
0.0
 11
1.0
 21
0.0
 31
0.0
  1
3.5
 40
3.5
 41
10.5
  0
LINE
  5
231
100
AcDbEntity
  8
A_BEMASSUNGEN
100
AcDbLine
 62
2
  6
CONTINUOUS
 10
60.5513896275
 20
16.8450765849
 11
60.5513896275
 21
7.7229806164
  0
LINE
  5
232
100
AcDbEntity
  8
A_BEMASSUNGEN
100
AcDbLine
 62
2
  6
CONTINUOUS
 10
64.0420978667
 20
16.9798662391
 11
64.0420978667
 21
7.7229806164
  0
LINE
  5
233
100
AcDbEntity
  8
A_BEMASSUNGEN
100
AcDbLine
 62
2
  6
CONTINUOUS
 10
60.5513896275
 20
9.7229806164
 11
50.4252655844
 21
9.7229806164
  0
LINE
  5
234
100
AcDbEntity
  8
A_BEMASSUNGEN
100
AcDbLine
 62
2
  6
CONTINUOUS
 10
50.4252655844
 20
9.7229806164
 11
62.2967437471
 21
9.7229806164
  0
LINE
  5
235
100
AcDbEntity
  8
A_BEMASSUNGEN
100
AcDbLine
 62
2
  6
CONTINUOUS
 10
64.0420978667
 20
9.7229806164
 11
71.5420978667
 21
9.7229806164
  0
LINE
  5
236
100
AcDbEntity
  8
A_BEMASSUNGEN
100
AcDbLine
 62
2
  6
CONTINUOUS
 10
71.5420978667
 20
9.7229806164
 11
62.2967437471
 21
9.7229806164
  0
INSERT
  5
237
100
AcDbEntity
  8
A_BEMASSUNGEN
100
AcDbBlockReference
 62
2
  6
CONTINUOUS
  2
_ARROW_FILLED
 10
60.5513896275
 20
9.7229806164
 41
3.5
 42
3.5
 43
3.5
  0
INSERT
  5
238
100
AcDbEntity
  8
A_BEMASSUNGEN
100
AcDbBlockReference
 62
2
  6
CONTINUOUS
  2
_ARROW_FILLED
 10
64.0420978667
 20
9.7229806164
 41
3.5
 42
3.5
 43
3.5
 50
180.0
  0
ENDBLK
  5
239
100
AcDbEntity
  8
0
  6
BYBLOCK
 62
0
100
AcDbBlockEnd
  0
BLOCK
  5
23A
100
AcDbEntity
  8
A_BEMASSUNGEN
100
AcDbBlockBegin
 62
2
  6
CONTINUOUS
  2
*D3
 70
65
 10
0.0
 20
0.0
  3
*D3
  1

  0
MTEXT
  5
23B
100
AcDbEntity
  8
A_BEMASSUNGEN
100
AcDbMText
 62
5
  6
CONTINUOUS
  7
TEXTSTYLE_2
 71
2
 72
1
 10
42.5513896275
 20
7.9612556561
 30
0.0
 11
1.0
 21
0.0
 31
0.0
  1
36
 40
3.5
 41
7.875
  0
LINE
  5
23C
100
AcDbEntity
  8
A_BEMASSUNGEN
100
AcDbLine
 62
2
  6
CONTINUOUS
 10
24.5513896275
 20
20.8450765849
 11
24.5513896275
 21
1.5862556561
  0
LINE
  5
23D
100
AcDbEntity
  8
A_BEMASSUNGEN
100
AcDbLine
 62
2
  6
CONTINUOUS
 10
60.5513896275
 20
16.8450765849
 11
60.5513896275
 21
1.5862556561
  0
LINE
  5
23E
100
AcDbEntity
  8
A_BEMASSUNGEN
100
AcDbLine
 62
2
  6
CONTINUOUS
 10
24.5513896275
 20
3.5862556561
 11
42.5513896275
 21
3.5862556561
  0
LINE
  5
23F
100
AcDbEntity
  8
A_BEMASSUNGEN
100
AcDbLine
 62
2
  6
CONTINUOUS
 10
60.5513896275
 20
3.5862556561
 11
42.5513896275
 21
3.5862556561
  0
INSERT
  5
240
100
AcDbEntity
  8
A_BEMASSUNGEN
100
AcDbBlockReference
 62
2
  6
CONTINUOUS
  2
_ARROW_FILLED
 10
24.5513896275
 20
3.5862556561
 41
3.5
 42
3.5
 43
3.5
 50
180.0
  0
INSERT
  5
241
100
AcDbEntity
  8
A_BEMASSUNGEN
100
AcDbBlockReference
 62
2
  6
CONTINUOUS
  2
_ARROW_FILLED
 10
60.5513896275
 20
3.5862556561
 41
3.5
 42
3.5
 43
3.5
  0
ENDBLK
  5
242
100
AcDbEntity
  8
0
  6
BYBLOCK
 62
0
100
AcDbBlockEnd
  0
BLOCK
  5
243
100
AcDbEntity
  8
A_BEMASSUNGEN
100
AcDbBlockBegin
 62
2
  6
CONTINUOUS
  2
*D4
 70
65
 10
0.0
 20
0.0
  3
*D4
  1

  0
MTEXT
  5
244
100
AcDbEntity
  8
A_BEMASSUNGEN
100
AcDbMText
 62
5
  6
CONTINUOUS
  7
TEXTSTYLE_2
 71
2
 72
1
 10
82.2920978667
 20
7.9612556561
 30
0.0
 11
1.0
 21
0.0
 31
0.0
  1
36.5
 40
3.5
 41
14.625
  0
LINE
  5
245
100
AcDbEntity
  8
A_BEMASSUNGEN
100
AcDbLine
 62
2
  6
CONTINUOUS
 10
64.0420978667
 20
16.9798662391
 11
64.0420978667
 21
1.5862556561
  0
LINE
  5
246
100
AcDbEntity
  8
A_BEMASSUNGEN
100
AcDbLine
 62
2
  6
CONTINUOUS
 10
100.5420978667
 20
21.1798662391
 11
100.5420978667
 21
1.5862556561
  0
LINE
  5
247
100
AcDbEntity
  8
A_BEMASSUNGEN
100
AcDbLine
 62
2
  6
CONTINUOUS
 10
64.0420978667
 20
3.5862556561
 11
82.2920978667
 21
3.5862556561
  0
LINE
  5
248
100
AcDbEntity
  8
A_BEMASSUNGEN
100
AcDbLine
 62
2
  6
CONTINUOUS
 10
100.5420978667
 20
3.5862556561
 11
82.2920978667
 21
3.5862556561
  0
INSERT
  5
249
100
AcDbEntity
  8
A_BEMASSUNGEN
100
AcDbBlockReference
 62
2
  6
CONTINUOUS
  2
_ARROW_FILLED
 10
64.0420978667
 20
3.5862556561
 41
3.5
 42
3.5
 43
3.5
 50
180.0
  0
INSERT
  5
24A
100
AcDbEntity
  8
A_BEMASSUNGEN
100
AcDbBlockReference
 62
2
  6
CONTINUOUS
  2
_ARROW_FILLED
 10
100.5420978667
 20
3.5862556561
 41
3.5
 42
3.5
 43
3.5
  0
ENDBLK
  5
24B
100
AcDbEntity
  8
0
  6
BYBLOCK
 62
0
100
AcDbBlockEnd
  0
ENDSEC
  0
SECTION
  2
ENTITIES
  0
DIMENSION
  5
24C
100
AcDbEntity
  8
A_BEMASSUNGEN
100
AcDbDimension
 62
2
  6
CONTINUOUS
  2
*D0
 10
128.4735435754
 20
21.1798662391
 11
128.4735435754
 21
11.0506085656
 70
160
  3
DIMSTYLE_1
100
AcDbAlignedDimension
 13
119.0420978667
 23
16.9798662391
 14
100.5420978667
 24
21.1798662391
 50
90.0
100
AcDbRotatedDimension
  0
DIMENSION
  5
24D
100
AcDbEntity
  8
A_BEMASSUNGEN
100
AcDbDimension
 62
2
  6
CONTINUOUS
  2
*D1
 10
128.4735435754
 20
21.1798662391
 11
128.4735435754
 21
36.6798678025
 70
160
  3
DIMSTYLE_2
100
AcDbAlignedDimension
 13
100.5420978667
 23
53.1798662391
 14
100.5420978667
 24
21.1798662391
 50
270.0
100
AcDbRotatedDimension
  0
DIMENSION
  5
24E
100
AcDbEntity
  8
A_BEMASSUNGEN
100
AcDbDimension
 62
2
  6
CONTINUOUS
  2
*D2
 10
64.0420978667
 20
9.7229806164
 11
53.425264974
 21
9.7229806164
 70
160
  3
DIMSTYLE_3
100
AcDbAlignedDimension
 13
60.5513896275
 23
16.8450765849
 14
64.0420978667
 24
16.9798662391
100
AcDbRotatedDimension
  0
DIMENSION
  5
24F
100
AcDbEntity
  8
A_BEMASSUNGEN
100
AcDbDimension
 62
2
  6
CONTINUOUS
  2
*D3
 10
60.5513896275
 20
3.5862556561
 11
42.0513880208
 21
3.5862556561
 70
160
  3
DIMSTYLE_2
100
AcDbAlignedDimension
 13
24.5513896275
 23
20.8450765849
 14
60.5513896275
 24
16.8450765849
100
AcDbRotatedDimension
  0
DIMENSION
  5
250
100
AcDbEntity
  8
A_BEMASSUNGEN
100
AcDbDimension
 62
2
  6
CONTINUOUS
  2
*D4
 10
100.5420978667
 20
3.5862556561
 11
81.7920998264
 21
3.5862556561
 70
160
  3
DIMSTYLE_2
100
AcDbAlignedDimension
 13
64.0420978667
 23
16.9798662391
 14
100.5420978667
 24
21.1798662391
100
AcDbRotatedDimension
  0
LINE
  5
251
100
AcDbEntity
  8
0
100
AcDbLine
 62
7
  6
CONTINUOUS
 10
92.8383040556
 20
21.3558198049
 11
98.6508575181
 21
22.1727209203
  0
LINE
  5
252
100
AcDbEntity
  8
A_RUNDUNGEN
100
AcDbLine
 62
7
  6
CONTINUOUS
 10
92.8383040556
 20
21.3558198049
 11
98.6508575181
 21
22.1727209203
  0
LINE
  5
253
100
AcDbEntity
  8
0
100
AcDbLine
 62
7
  6
CONTINUOUS
 10
60.5513896275
 20
16.8450765849
 11
5.5513896275
 21
16.8450765849
  0
LINE
  5
254
100
AcDbEntity
  8
0
100
AcDbLine
 62
7
  6
CONTINUOUS
 10
64.0420978667
 20
16.9798662391
 11
119.0420978667
 21
16.9798662391
  0
LINE
  5
255
100
AcDbEntity
  8
0
100
AcDbLine
 62
7
  6
CONTINUOUS
 10
25.3991253959
 20
21.9980176594
 11
34.8485717203
 21
21.0048408298
  0
LINE
  5
256
100
AcDbEntity
  8
0
100
AcDbLine
 62
7
  6
CONTINUOUS
 10
29.9129967241
 20
24.1319910748
 11
27.1204745623
 21
25.087237212
  0
LINE
  5
257
100
AcDbEntity
  8
0
100
AcDbLine
 62
7
  6
CONTINUOUS
 10
26.284184705
 20
23.3769880091
 11
28.5327055699
 21
22.5791257667
  0
LINE
  5
258
100
AcDbEntity
  8
0
100
AcDbLine
 62
7
  6
CONTINUOUS
 10
28.7259940812
 20
22.385203152
 11
26.1158845917
 21
23.3352053143
  0
LINE
  5
259
100
AcDbEntity
  8
A_RUNDUNGEN
100
AcDbLine
 62
7
  6
CONTINUOUS
 10
81.7490479709
 20
23.7718797094
 11
82.933903139
 21
23.7925614333
  0
LINE
  5
25A
100
AcDbEntity
  8
A_RUNDUNGEN
100
AcDbLine
 62
7
  6
CONTINUOUS
 10
84.2006760623
 20
24.2343797382
 11
96.4595502731
 21
24.4483591835
  0
LINE
  5
25B
100
AcDbEntity
  8
A_RUNDUNGEN
100
AcDbLine
 62
7
  6
CONTINUOUS
 10
52.1513896275
 20
21.9950765849
 11
60.0557528953
 21
22.0640569181
  0
LINE
  5
25C
100
AcDbEntity
  8
0
100
AcDbLine
 62
7
  6
CONTINUOUS
 10
98.1942795006
 20
23.7277035609
 11
79.8377345989
 21
23.5675084205
  0
LINE
  5
25D
100
AcDbEntity
  8
A_RUNDUNGEN
100
AcDbLine
 62
7
  6
CONTINUOUS
 10
79.8377345989
 20
23.5675084205
 11
98.1942795006
 21
23.7277035609
  0
LINE
  5
25E
100
AcDbEntity
  8
A_RUNDUNGEN
100
AcDbLine
 62
7
  6
CONTINUOUS
 10
79.3420978667
 20
22.6081407507
 11
76.5378455215
 21
22.5841138202
  0
LINE
  5
25F
100
AcDbEntity
  8
A_RUNDUNGEN
100
AcDbLine
 62
7
  6
CONTINUOUS
 10
65.5420978667
 20
21.2298662391
 11
92.7371967118
 21
21.3485279959
  0
LINE
  5
260
100
AcDbEntity
  8
0
100
AcDbLine
 62
7
  6
CONTINUOUS
 10
79.3420978667
 20
21.2900804804
 11
92.7371967118
 21
21.3485279959
  0
LINE
  5
261
100
AcDbEntity
  8
0
100
AcDbLine
 62
7
  6
CONTINUOUS
 10
24.5513896275
 20
20.8450765849
 11
60.5513896275
 21
20.8450765849
  0
LINE
  5
262
100
AcDbEntity
  8
A_RUNDUNGEN
100
AcDbLine
 62
7
  6
CONTINUOUS
 10
60.3513896275
 20
20.9450765849
 11
58.8513896275
 21
20.9450765849
  0
LINE
  5
263
100
AcDbEntity
  8
0
100
AcDbLine
 62
7
  6
CONTINUOUS
 10
100.5420978667
 20
21.1798662391
 11
64.0420978667
 21
21.1798662391
  0
LINE
  5
264
100
AcDbEntity
  8
A_RUNDUNGEN
100
AcDbLine
 62
7
  6
CONTINUOUS
 10
64.0420978667
 20
21.2798662391
 11
75.2421054794
 21
21.2798662374
  0
LINE
  5
265
100
AcDbEntity
  8
0
100
AcDbLine
 62
7
  6
CONTINUOUS
 10
25.6513896275
 20
24.4824026586
 11
25.9513896275
 21
24.4824026586
  0
LINE
  5
266
100
AcDbEntity
  8
0
100
AcDbLine
 62
7
  6
CONTINUOUS
 10
25.6513896275
 20
24.5492549301
 11
25.9513896275
 21
24.5492549301
  0
LINE
  5
267
100
AcDbEntity
  8
A_RUNDUNGEN
100
AcDbLine
 62
7
  6
CONTINUOUS
 10
90.6617383754
 20
24.6741146125
 11
89.6101637179
 21
24.6741146127
  0
LINE
  5
268
100
AcDbEntity
  8
0
100
AcDbLine
 62
7
  6
CONTINUOUS
 10
25.6513896275
 20
24.9515185663
 11
25.9513896275
 21
24.9515185663
  0
LINE
  5
269
100
AcDbEntity
  8
A_RUNDUNGEN
100
AcDbLine
 62
7
  6
CONTINUOUS
 10
58.8513896275
 20
20.8950765849
 11
46.9513896275
 21
20.9470004597
  0
LINE
  5
26A
100
AcDbEntity
  8
0
100
AcDbLine
 62
7
  6
CONTINUOUS
 10
34.9487368742
 20
20.9993722444
 11
46.9513896275
 21
20.9470004597
  0
LINE
  5
26B
100
AcDbEntity
  8
0
100
AcDbLine
 62
7
  6
CONTINUOUS
 10
28.6972925106
 20
22.5503464933
 11
34.9513896275
 21
22.5175998181
  0
LINE
  5
26C
100
AcDbEntity
  8
A_RUNDUNGEN
100
AcDbLine
 62
7
  6
CONTINUOUS
 10
34.9513896275
 20
22.5175998181
 11
47.1513896275
 21
22.4537201837
  0
LINE
  5
26D
100
AcDbEntity
  8
0
100
AcDbLine
 62
7
  6
CONTINUOUS
 10
47.1513896275
 20
22.0387109239
 11
52.1513896275
 21
21.9950765849
  0
LINE
  5
26E
100
AcDbEntity
  8
A_RUNDUNGEN
100
AcDbLine
 62
7
  6
CONTINUOUS
 10
47.1528849154
 20
22.2100539386
 11
46.4557528953
 21
22.2161377176
  0
LINE
  5
26F
100
AcDbEntity
  8
0
100
AcDbLine
 62
7
  6
CONTINUOUS
 10
28.8093174831
 20
22.3701358264
 11
46.4557528953
 21
22.2161377176
  0
LINE
  5
270
100
AcDbEntity
  8
A_RUNDUNGEN
100
AcDbLine
 62
7
  6
CONTINUOUS
 10
47.1513896275
 20
23.9687938556
 11
34.9513896275
 21
24.0752616426
  0
LINE
  5
271
100
AcDbEntity
  8
0
100
AcDbLine
 62
7
  6
CONTINUOUS
 10
29.9917301554
 20
24.1185439351
 11
34.4557528953
 21
24.0795869988
  0
LINE
  5
272
100
AcDbEntity
  8
A_RUNDUNGEN
100
AcDbLine
 62
7
  6
CONTINUOUS
 10
34.9513896275
 20
25.2355791564
 11
47.1513896275
 21
25.1291113693
  0
LINE
  5
273
100
AcDbEntity
  8
0
100
AcDbLine
 62
7
  6
CONTINUOUS
 10
24.9513896275
 20
26.4927391428
 11
24.5801835161
 21
26.5750335565
  0
LINE
  5
274
100
AcDbEntity
  8
0
100
AcDbLine
 62
7
  6
CONTINUOUS
 10
5.5513896275
 20
16.8450765849
 11
5.5513896275
 21
31.8450765849
  0
LINE
  5
275
100
AcDbEntity
  8
0
100
AcDbLine
 62
7
  6
CONTINUOUS
 10
92.1375552013
 20
35.0454734028
 11
94.6396948447
 21
35.5608788217
  0
LINE
  5
276
100
AcDbEntity
  8
A_RUNDUNGEN
100
AcDbLine
 62
7
  6
CONTINUOUS
 10
91.1442881854
 20
26.9599418789
 11
97.2008227409
 21
27.171440726
  0
LINE
  5
277
100
AcDbEntity
  8
0
100
AcDbLine
 62
7
  6
CONTINUOUS
 10
25.6513896275
 20
27.5780627137
 11
25.9513896275
 21
27.5780627137
  0
LINE
  5
278
100
AcDbEntity
  8
0
100
AcDbLine
 62
7
  6
CONTINUOUS
 10
25.9513896275
 20
27.609839818
 11
25.6513896275
 21
27.609839818
  0
LINE
  5
279
100
AcDbEntity
  8
A_ACHSEN
100
AcDbLine
 62
7
  6
CONTINUOUS
 10
54.995834072
 20
27.6450765849
 11
54.1069451831
 21
27.6450765849
  0
LINE
  5
27A
100
AcDbEntity
  8
A_ACHSEN
100
AcDbLine
 62
7
  6
CENTER
 10
52.3291674053
 20
27.6450765849
 11
49.0013896275
 21
27.6450765849
  0
LINE
  5
27B
100
AcDbEntity
  8
A_ACHSEN
100
AcDbLine
 62
7
  6
CENTER
 10
56.7736118498
 20
27.6450765849
 11
60.1013896275
 21
27.6450765849
  0
LINE
  5
27C
100
AcDbEntity
  8
A_ACHSEN
100
AcDbLine
 62
7
  6
CONTINUOUS
 10
70.4865423095
 20
27.6798662383
 11
69.5976534206
 21
27.6798662383
  0
LINE
  5
27D
100
AcDbEntity
  8
A_ACHSEN
100
AcDbLine
 62
7
  6
CENTER
 10
67.8198756428
 20
27.6798662383
 11
64.1914392482
 21
27.6798662383
  0
LINE
  5
27E
100
AcDbEntity
  8
A_ACHSEN
100
AcDbLine
 62
7
  6
CENTER
 10
72.2643200873
 20
27.6798662383
 11
75.892756482
 21
27.6798662383
  0
LINE
  5
27F
100
AcDbEntity
  8
0
100
AcDbLine
 62
7
  6
CONTINUOUS
 10
25.5513896275
 20
28.8450765849
 11
25.3513896275
 21
28.8450765849
  0
LINE
  5
280
100
AcDbEntity
  8
A_RUNDUNGEN
100
AcDbLine
 62
7
  6
CONTINUOUS
 10
27.1926647534
 20
30.1366510719
 11
33.9862891242
 21
29.8994124812
  0
LINE
  5
281
100
AcDbEntity
  8
0
100
AcDbLine
 62
7
  6
CONTINUOUS
 10
29.8982569671
 20
35.4182698655
 11
32.4007586354
 21
34.9046251035
  0
LINE
  5
282
100
AcDbEntity
  8
0
100
AcDbLine
 62
7
  6
CONTINUOUS
 10
25.5895862287
 20
38.0259782844
 11
25.8131930264
 21
37.9141748855
  0
LINE
  5
283
100
AcDbEntity
  8
0
100
AcDbLine
 62
7
  6
CONTINUOUS
 10
98.6577986536
 20
37.1649667486
 11
98.4772417002
 21
37.1555041597
  0
LINE
  5
284
100
AcDbEntity
  8
A_RUNDUNGEN
100
AcDbLine
 62
7
  6
CONTINUOUS
 10
98.4772417002
 20
37.1555041597
 11
98.6577986536
 21
37.1649667486
  0
LINE
  5
285
100
AcDbEntity
  8
0
100
AcDbLine
 62
7
  6
CONTINUOUS
 10
5.5513896275
 20
31.8450765849
 11
24.5513896275
 21
31.8450765849
  0
LINE
  5
286
100
AcDbEntity
  8
A_RUNDUNGEN
100
AcDbLine
 62
7
  6
CONTINUOUS
 10
24.5513896275
 20
31.8450765849
 11
24.9513896275
 21
31.8450765849
  0
LINE
  5
287
100
AcDbEntity
  8
0
100
AcDbLine
 62
7
  6
CONTINUOUS
 10
98.1942795006
 20
30.7320289172
 11
97.9377345989
 21
30.7342677506
  0
LINE
  5
288
100
AcDbEntity
  8
A_RUNDUNGEN
100
AcDbLine
 62
7
  6
CONTINUOUS
 10
98.1942795006
 20
30.7320289172
 11
97.9377345989
 21
30.7342677506
  0
LINE
  5
289
100
AcDbEntity
  8
0
100
AcDbLine
 62
7
  6
CONTINUOUS
 10
24.9249368799
 20
29.1915495941
 11
24.5513896275
 21
29.108736162
  0
LINE
  5
28A
100
AcDbEntity
  8
0
100
AcDbLine
 62
7
  6
CONTINUOUS
 10
92.2491818923
 20
46.4015081076
 11
92.4002677564
 21
46.4326296612
  0
LINE
  5
28B
100
AcDbEntity
  8
0
100
AcDbLine
 62
7
  6
CONTINUOUS
 10
93.8158761632
 20
46.7242249948
 11
94.0875089724
 21
46.7801775161
  0
LINE
  5
28C
100
AcDbEntity
  8
0
100
AcDbLine
 62
7
  6
CONTINUOUS
 10
25.5513896275
 20
39.8450765849
 11
25.3513896275
 21
39.8450765849
  0
LINE
  5
28D
100
AcDbEntity
  8
0
100
AcDbLine
 62
7
  6
CONTINUOUS
 10
98.9420978667
 20
40.5593393639
 11
98.7920978667
 21
40.5593393639
  0
LINE
  5
28E
100
AcDbEntity
  8
A_ACHSEN
100
AcDbLine
 62
7
  6
CENTER
 10
25.6196099502
 20
40.6042949096
 11
38.9126757302
 21
40.6042949096
  0
LINE
  5
28F
100
AcDbEntity
  8
A_ACHSEN
100
AcDbLine
 62
7
  6
CENTER
 10
86.2729958766
 20
40.6798662214
 11
98.3111998733
 21
40.6798662214
  0
LINE
  5
290
100
AcDbEntity
  8
0
100
AcDbLine
 62
7
  6
CONTINUOUS
 10
98.9420978667
 20
42.1349879954
 11
98.7920978667
 21
42.1349879954
  0
LINE
  5
291
100
AcDbEntity
  8
0
100
AcDbLine
 62
7
  6
CONTINUOUS
 10
30.442548697
 20
46.6379543061
 11
30.7142208077
 21
46.582192922
  0
LINE
  5
292
100
AcDbEntity
  8
0
100
AcDbLine
 62
7
  6
CONTINUOUS
 10
32.1300340334
 20
46.2915936962
 11
32.2588216338
 21
46.2651597173
  0
LINE
  5
293
100
AcDbEntity
  8
0
100
AcDbLine
 62
7
  6
CONTINUOUS
 10
24.5513896275
 20
20.8450765849
 11
24.5513896275
 21
31.8450765849
  0
LINE
  5
294
100
AcDbEntity
  8
0
100
AcDbLine
 62
7
  6
CONTINUOUS
 10
24.9513896275
 20
22.4952786071
 11
24.9513896275
 21
28.4450765849
  0
LINE
  5
295
100
AcDbEntity
  8
A_RUNDUNGEN
100
AcDbLine
 62
7
  6
CONTINUOUS
 10
24.9513896275
 20
28.4450765849
 11
24.9513896275
 21
40.2450765849
  0
LINE
  5
296
100
AcDbEntity
  8
0
100
AcDbLine
 62
7
  6
CONTINUOUS
 10
24.9513896275
 20
40.2450765849
 11
24.9513896275
 21
51.1948745628
  0
LINE
  5
297
100
AcDbEntity
  8
0
100
AcDbLine
 62
7
  6
CONTINUOUS
 10
25.4513896275
 20
38.5950765849
 11
25.4513896275
 21
38.2495850821
  0
LINE
  5
298
100
AcDbEntity
  8
0
100
AcDbLine
 62
7
  6
CONTINUOUS
 10
25.4513896275
 20
30.4405680877
 11
25.4513896275
 21
30.0950765849
  0
LINE
  5
299
100
AcDbEntity
  8
A_RUNDUNGEN
100
AcDbLine
 62
7
  6
CONTINUOUS
 10
25.4513896275
 20
30.4405680877
 11
25.4513896275
 21
38.2495850821
  0
LINE
  5
29A
100
AcDbEntity
  8
0
100
AcDbLine
 62
7
  6
CONTINUOUS
 10
25.6513896275
 20
27.7450765849
 11
25.6513896275
 21
27.5780627137
  0
LINE
  5
29B
100
AcDbEntity
  8
0
100
AcDbLine
 62
7
  6
CONTINUOUS
 10
25.6513896275
 20
24.9515185663
 11
25.6513896275
 21
24.2450765849
  0
LINE
  5
29C
100
AcDbEntity
  8
0
100
AcDbLine
 62
7
  6
CONTINUOUS
 10
25.9513896275
 20
37.6905680877
 11
25.9513896275
 21
30.9995850821
  0
LINE
  5
29D
100
AcDbEntity
  8
0
100
AcDbLine
 62
7
  6
CONTINUOUS
 10
25.9513896275
 20
23.7868190154
 11
25.9513896275
 21
23.5701284695
  0
LINE
  5
29E
100
AcDbEntity
  8
0
100
AcDbLine
 62
7
  6
CONTINUOUS
 10
25.9513896275
 20
23.8482018818
 11
25.9513896275
 21
29.5950765849
  0
LINE
  5
29F
100
AcDbEntity
  8
0
100
AcDbLine
 62
7
  6
CONTINUOUS
 10
25.9513896275
 20
39.0950765849
 11
25.9513896275
 21
49.6267174783
  0
LINE
  5
2A0
100
AcDbEntity
  8
0
100
AcDbLine
 62
7
  6
CONTINUOUS
 10
26.9513896275
 20
25.3237805531
 11
26.9513896275
 21
47.0663726168
  0
LINE
  5
2A1
100
AcDbEntity
  8
A_RUNDUNGEN
100
AcDbLine
 62
7
  6
CONTINUOUS
 10
27.0513896275
 20
36.0323044729
 11
27.0513896275
 21
30.1919435741
  0
LINE
  5
2A2
100
AcDbEntity
  8
A_RUNDUNGEN
100
AcDbLine
 62
7
  6
CONTINUOUS
 10
27.0513896275
 20
36.0390242679
 11
27.0513896275
 21
36.4752671828
  0
LINE
  5
2A3
100
AcDbEntity
  8
A_RUNDUNGEN
100
AcDbLine
 62
7
  6
CONTINUOUS
 10
27.0513896275
 20
40.0632964041
 11
27.0513896275
 21
45.9346969749
  0
LINE
  5
2A4
100
AcDbEntity
  8
0
100
AcDbLine
 62
7
  6
CONTINUOUS
 10
33.1288396097
 20
47.1386688605
 11
32.5580228772
 21
47.1336874183
  0
LINE
  5
2A5
100
AcDbEntity
  8
A_RUNDUNGEN
100
AcDbLine
 62
7
  6
CONTINUOUS
 10
29.565714363
 20
47.1075739375
 11
32.551477851
 21
47.1336303007
  0
LINE
  5
2A6
100
AcDbEntity
  8
A_RUNDUNGEN
100
AcDbLine
 62
7
  6
CONTINUOUS
 10
73.5318622961
 20
45.6924244869
 11
83.2985032293
 21
45.7167367948
  0
LINE
  5
2A7
100
AcDbEntity
  8
0
100
AcDbLine
 62
7
  6
CONTINUOUS
 10
83.2985032293
 20
45.7167367948
 11
85.720951254
 21
45.7227670465
  0
LINE
  5
2A8
100
AcDbEntity
  8
0
100
AcDbLine
 62
7
  6
CONTINUOUS
 10
50.9807541574
 20
45.6417783045
 11
38.7916518691
 21
45.6173713452
  0
LINE
  5
2A9
100
AcDbEntity
  8
0
100
AcDbLine
 62
7
  6
CONTINUOUS
 10
98.9420978667
 20
42.5299355625
 11
98.7920978667
 21
42.5299355625
  0
LINE
  5
2AA
100
AcDbEntity
  8
0
100
AcDbLine
 62
7
  6
CONTINUOUS
 10
98.9420978667
 20
42.5333956559
 11
98.7920978667
 21
42.5333956559
  0
LINE
  5
2AB
100
AcDbEntity
  8
0
100
AcDbLine
 62
7
  6
CONTINUOUS
 10
98.9420978667
 20
43.0973836733
 11
98.7920978667
 21
43.0973836733
  0
LINE
  5
2AC
100
AcDbEntity
  8
0
100
AcDbLine
 62
7
  6
CONTINUOUS
 10
98.9420978667
 20
44.7556221972
 11
98.7920978667
 21
44.7556221972
  0
LINE
  5
2AD
100
AcDbEntity
  8
A_ACHSEN
100
AcDbLine
 62
7
  6
CENTER
 10
57.8076897557
 20
46.6643098972
 11
66.7004475561
 21
46.6643098972
  0
LINE
  5
2AE
100
AcDbEntity
  8
A_ACHSEN
100
AcDbLine
 62
7
  6
CONTINUOUS
 10
98.9420978667
 20
47.2035355625
 11
98.7920978667
 21
47.2035355625
  0
LINE
  5
2AF
100
AcDbEntity
  8
0
100
AcDbLine
 62
7
  6
CONTINUOUS
 10
98.9420978667
 20
48.0424874516
 11
98.7920978667
 21
48.0424874516
  0
LINE
  5
2B0
100
AcDbEntity
  8
0
100
AcDbLine
 62
7
  6
CONTINUOUS
 10
67.3746060001
 20
38.9493767159
 11
53.4222077997
 21
45.1279386772
  0
LINE
  5
2B1
100
AcDbEntity
  8
0
100
AcDbLine
 62
7
  6
CONTINUOUS
 10
56.7071975869
 20
35.1681751405
 11
55.1785013721
 21
36.6116384043
  0
LINE
  5
2B2
100
AcDbEntity
  8
A_RUNDUNGEN
100
AcDbLine
 62
7
  6
CONTINUOUS
 10
29.1805944275
 20
47.0048115182
 11
29.1805944275
 21
46.4776518962
  0
LINE
  5
2B3
100
AcDbEntity
  8
A_RUNDUNGEN
100
AcDbLine
 62
7
  6
CONTINUOUS
 10
29.1995892825
 20
47.0111431366
 11
29.1995892825
 21
46.4858720936
  0
LINE
  5
2B4
100
AcDbEntity
  8
0
100
AcDbLine
 62
7
  6
CONTINUOUS
 10
30.9513896275
 20
50.8430553186
 11
30.9513896275
 21
50.5843189312
  0
LINE
  5
2B5
100
AcDbEntity
  8
A_RUNDUNGEN
100
AcDbLine
 62
7
  6
CONTINUOUS
 10
30.9513896275
 20
50.5843189312
 11
30.9513896275
 21
49.9015920744
  0
LINE
  5
2B6
100
AcDbEntity
  8
0
100
AcDbLine
 62
7
  6
CONTINUOUS
 10
30.9513896275
 20
48.7756396614
 11
30.9513896275
 21
49.9015920744
  0
LINE
  5
2B7
100
AcDbEntity
  8
A_ACHSEN
100
AcDbLine
 62
7
  6
CENTER
 10
32.2661428402
 20
33.9577620196
 11
32.2661428402
 21
47.2508277996
  0
LINE
  5
2B8
100
AcDbEntity
  8
A_RUNDUNGEN
100
AcDbLine
 62
7
  6
CONTINUOUS
 10
32.551477851
 20
47.1336303007
 11
32.551477851
 21
46.7024061821
  0
LINE
  5
2B9
100
AcDbEntity
  8
A_RUNDUNGEN
100
AcDbLine
 62
7
  6
CONTINUOUS
 10
32.5580228772
 20
47.1336874183
 11
32.5580228772
 21
46.7077469111
  0
LINE
  5
2BA
100
AcDbEntity
  8
A_RUNDUNGEN
100
AcDbLine
 62
7
  6
CONTINUOUS
 10
34.2946529011
 20
48.3091602727
 11
30.4557528953
 21
48.2756586999
  0
LINE
  5
2BB
100
AcDbEntity
  8
0
100
AcDbLine
 62
7
  6
CONTINUOUS
 10
29.9917301554
 20
48.2716092348
 11
30.4557528953
 21
48.2756586999
  0
LINE
  5
2BC
100
AcDbEntity
  8
0
100
AcDbLine
 62
7
  6
CONTINUOUS
 10
30.4557528953
 20
50.0843379697
 11
26.4470263598
 21
50.0493543432
  0
LINE
  5
2BD
100
AcDbEntity
  8
A_RUNDUNGEN
100
AcDbLine
 62
7
  6
CONTINUOUS
 10
53.753513848
 20
51.5377020473
 11
52.9557528953
 21
51.5307400929
  0
LINE
  5
2BE
100
AcDbEntity
  8
0
100
AcDbLine
 62
7
  6
CONTINUOUS
 10
31.4470263598
 20
51.3430362801
 11
52.9557528953
 21
51.5307400929
  0
LINE
  5
2BF
100
AcDbEntity
  8
0
100
AcDbLine
 62
7
  6
CONTINUOUS
 10
26.2000806366
 20
49.8767140514
 11
30.9513896275
 21
49.9015920744
  0
LINE
  5
2C0
100
AcDbEntity
  8
A_RUNDUNGEN
100
AcDbLine
 62
7
  6
CONTINUOUS
 10
31.0776014595
 20
51.152270059
 11
53.7513896275
 21
51.2709908211
  0
LINE
  5
2C1
100
AcDbEntity
  8
0
100
AcDbLine
 62
7
  6
CONTINUOUS
 10
34.9487368742
 20
52.6907809254
 11
53.4513896275
 21
52.7715144905
  0
LINE
  5
2C2
100
AcDbEntity
  8
A_RUNDUNGEN
100
AcDbLine
 62
7
  6
CONTINUOUS
 10
53.4513896275
 20
52.7715144905
 11
58.8513896275
 21
52.7950765849
  0
LINE
  5
2C3
100
AcDbEntity
  8
0
100
AcDbLine
 62
7
  6
CONTINUOUS
 10
85.9168554821
 20
50.2232686576
 11
78.5453054465
 21
50.2049185006
  0
LINE
  5
2C4
100
AcDbEntity
  8
A_RUNDUNGEN
100
AcDbLine
 62
7
  6
CONTINUOUS
 10
66.5754141276
 20
50.1751215944
 11
78.5453054465
 21
50.2049185006
  0
LINE
  5
2C5
100
AcDbEntity
  8
0
100
AcDbLine
 62
7
  6
CONTINUOUS
 10
38.5755349054
 20
50.1169476227
 11
57.9169974124
 21
50.1556761752
  0
LINE
  5
2C6
100
AcDbEntity
  8
0
100
AcDbLine
 62
7
  6
CONTINUOUS
 10
98.9420978667
 20
48.6064754691
 11
98.7920978667
 21
48.6064754691
  0
LINE
  5
2C7
100
AcDbEntity
  8
0
100
AcDbLine
 62
7
  6
CONTINUOUS
 10
98.9420978667
 20
48.6099355625
 11
98.7920978667
 21
48.6099355625
  0
LINE
  5
2C8
100
AcDbEntity
  8
A_RUNDUNGEN
100
AcDbLine
 62
7
  6
CONTINUOUS
 10
91.6723281513
 20
50.2856178568
 11
88.6101637223
 21
50.2856178574
  0
LINE
  5
2C9
100
AcDbEntity
  8
A_RUNDUNGEN
100
AcDbLine
 62
7
  6
CONTINUOUS
 10
68.2540758198
 20
51.4856178609
 11
68.8564684485
 21
51.4856178608
  0
LINE
  5
2CA
100
AcDbEntity
  8
A_RUNDUNGEN
100
AcDbLine
 62
7
  6
CONTINUOUS
 10
64.5420978692
 20
51.9856178615
 11
66.2841914383
 21
51.9856178612
  0
LINE
  5
2CB
100
AcDbEntity
  8
A_RUNDUNGEN
100
AcDbLine
 62
7
  6
CONTINUOUS
 10
60.3513896275
 20
52.7450765849
 11
58.8513896275
 21
52.7450765849
  0
LINE
  5
2CC
100
AcDbEntity
  8
0
100
AcDbLine
 62
7
  6
CONTINUOUS
 10
50.5513896275
 20
52.8450765849
 11
60.5513896275
 21
52.8450765849
  0
LINE
  5
2CD
100
AcDbEntity
  8
A_RUNDUNGEN
100
AcDbLine
 62
7
  6
CONTINUOUS
 10
64.0420978667
 20
53.0798662391
 11
65.5420978667
 21
53.0798662391
  0
LINE
  5
2CE
100
AcDbEntity
  8
0
100
AcDbLine
 62
7
  6
CONTINUOUS
 10
100.5420978667
 20
53.1798662391
 11
64.0420978667
 21
53.1798662391
  0
LINE
  5
2CF
100
AcDbEntity
  8
0
100
AcDbLine
 62
7
  6
CONTINUOUS
 10
50.5513896275
 20
53.3450765849
 11
46.5513896275
 21
53.3450765849
  0
LINE
  5
2D0
100
AcDbEntity
  8
0
100
AcDbLine
 62
7
  6
CONTINUOUS
 10
65.5420978667
 20
53.1298662391
 11
92.7371967118
 21
53.0112044822
  0
LINE
  5
2D1
100
AcDbEntity
  8
A_RUNDUNGEN
100
AcDbLine
 62
7
  6
CONTINUOUS
 10
65.5420978667
 20
53.1298662391
 11
92.7371967118
 21
53.0112044822
  0
LINE
  5
2D2
100
AcDbEntity
  8
A_RUNDUNGEN
100
AcDbLine
 62
7
  6
CONTINUOUS
 10
60.0557528953
 20
51.7260962517
 11
53.7513896275
 21
51.7811135965
  0
LINE
  5
2D3
100
AcDbEntity
  8
A_RUNDUNGEN
100
AcDbLine
 62
7
  6
CONTINUOUS
 10
96.4595502731
 20
50.051013814
 11
95.6230619976
 21
50.0656147711
  0
LINE
  5
2D4
100
AcDbEntity
  8
0
100
AcDbLine
 62
7
  6
CONTINUOUS
 10
96.4595502731
 20
50.051013814
 11
92.0713869645
 21
50.1276094895
  0
LINE
  5
2D5
100
AcDbEntity
  8
A_RUNDUNGEN
100
AcDbLine
 62
7
  6
CONTINUOUS
 10
93.7148014606
 20
50.0989235827
 11
92.0713869645
 21
50.1276094895
  0
LINE
  5
2D6
100
AcDbEntity
  8
0
100
AcDbLine
 62
7
  6
CONTINUOUS
 10
90.6894113804
 20
50.7807167733
 11
70.730389552
 21
51.1291027952
  0
LINE
  5
2D7
100
AcDbEntity
  8
A_RUNDUNGEN
100
AcDbLine
 62
7
  6
CONTINUOUS
 10
90.6894113804
 20
50.7807167733
 11
70.730389552
 21
51.1291027952
  0
LINE
  5
2D8
100
AcDbEntity
  8
0
100
AcDbLine
 62
7
  6
CONTINUOUS
 10
98.6577986536
 20
49.1947657295
 11
97.6275679573
 21
49.2487578324
  0
LINE
  5
2D9
100
AcDbEntity
  8
A_RUNDUNGEN
100
AcDbLine
 62
7
  6
CONTINUOUS
 10
97.6275679573
 20
49.2487578324
 11
98.6577986536
 21
49.1947657295
  0
LINE
  5
2DA
100
AcDbEntity
  8
0
100
AcDbLine
 62
7
  6
CONTINUOUS
 10
70.6437112575
 20
51.138213051
 11
65.946693369
 21
52.0512208402
  0
LINE
  5
2DB
100
AcDbEntity
  8
A_RUNDUNGEN
100
AcDbLine
 62
7
  6
CONTINUOUS
 10
70.6437112575
 20
51.138213051
 11
65.946693369
 21
52.0512208402
  0
LINE
  5
2DC
100
AcDbEntity
  8
A_RUNDUNGEN
100
AcDbLine
 62
7
  6
CONTINUOUS
 10
34.951389643
 20
24.0141830993
 11
34.9513896275
 21
24.0144082999
  0
LINE
  5
2DD
100
AcDbEntity
  8
A_RUNDUNGEN
100
AcDbLine
 62
7
  6
CONTINUOUS
 10
34.9513896275
 20
28.9000216542
 11
34.9513896275
 21
23.5796060373
  0
LINE
  5
2DE
100
AcDbEntity
  8
0
100
AcDbLine
 62
7
  6
CONTINUOUS
 10
34.9513896275
 20
22.5175998181
 11
34.9513896275
 21
23.5796060373
  0
LWPOLYLINE
  5
2DF
100
AcDbEntity
  8
0
100
AcDbPolyline
 62
7
  6
CONTINUOUS
 90
3
 70
0
 10
34.9532109125
 20
23.9790465587
 10
34.9532452712
 20
23.9807864365
 10
34.9513819166
 20
24.0142356708
  0
LINE
  5
2E0
100
AcDbEntity
  8
A_RUNDUNGEN
100
AcDbLine
 62
7
  6
CONTINUOUS
 10
28.0812692562
 20
45.080918853
 11
26.9513896275
 21
39.5760916561
  0
LINE
  5
2E1
100
AcDbEntity
  8
0
100
AcDbLine
 62
7
  6
CONTINUOUS
 10
34.8485717203
 20
52.6853123401
 11
25.3991253959
 21
51.6921355105
  0
LINE
  5
2E2
100
AcDbEntity
  8
0
100
AcDbLine
 62
7
  6
CONTINUOUS
 10
119.0420978667
 20
56.9798662391
 11
64.0420978667
 21
56.9798662391
  0
LINE
  5
2E3
100
AcDbEntity
  8
0
100
AcDbLine
 62
7
  6
CONTINUOUS
 10
64.0513896275
 20
57.0450765849
 11
70.0513896275
 21
57.0450765849
  0
LINE
  5
2E4
100
AcDbEntity
  8
0
100
AcDbLine
 62
7
  6
CONTINUOUS
 10
64.2934639225
 20
58.0450765849
 11
69.8093153326
 21
58.0450765849
  0
LINE
  5
2E5
100
AcDbEntity
  8
0
100
AcDbLine
 62
7
  6
CONTINUOUS
 10
98.6508575181
 20
52.1870115578
 11
92.8383040556
 21
53.0039126732
  0
LINE
  5
2E6
100
AcDbEntity
  8
A_RUNDUNGEN
100
AcDbLine
 62
7
  6
CONTINUOUS
 10
98.6508575181
 20
52.1870115578
 11
92.8383040556
 21
53.0039126732
  0
LINE
  5
2E7
100
AcDbEntity
  8
A_RUNDUNGEN
100
AcDbLine
 62
7
  6
CONTINUOUS
 10
90.8244537401
 20
50.7596776721
 11
90.6894113804
 21
50.7807167733
  0
LINE
  5
2E8
100
AcDbEntity
  8
0
100
AcDbLine
 62
7
  6
CONTINUOUS
 10
59.2643147233
 20
29.9582642214
 11
56.7071975869
 21
35.1681751405
  0
LINE
  5
2E9
100
AcDbEntity
  8
A_RUNDUNGEN
100
AcDbLine
 62
7
  6
CONTINUOUS
 10
56.1908547345
 20
36.2201802388
 11
56.7071975869
 21
35.1681751405
  0
LINE
  5
2EA
100
AcDbEntity
  8
A_RUNDUNGEN
100
AcDbLine
 62
7
  6
CONTINUOUS
 10
41.1513896275
 20
25.1814725761
 11
41.1513896275
 21
24.0211550623
  0
LINE
  5
2EB
100
AcDbEntity
  8
0
100
AcDbLine
 62
7
  6
CONTINUOUS
 10
72.5513896275
 20
60.8450765849
 11
61.5513896275
 21
60.8450765849
  0
LINE
  5
2EC
100
AcDbEntity
  8
0
100
AcDbLine
 62
7
  6
CONTINUOUS
 10
73.5513896275
 20
61.8450765849
 11
60.5513896275
 21
61.8450765849
  0
LINE
  5
2ED
100
AcDbEntity
  8
0
100
AcDbLine
 62
7
  6
CONTINUOUS
 10
60.5513896275
 20
58.8450765849
 11
64.0513896275
 21
57.0450765849
  0
LINE
  5
2EE
100
AcDbEntity
  8
0
100
AcDbLine
 62
7
  6
CONTINUOUS
 10
61.5513896275
 20
59.4552862223
 11
64.2934639225
 21
58.0450765849
  0
LINE
  5
2EF
100
AcDbEntity
  8
0
100
AcDbLine
 62
7
  6
CONTINUOUS
 10
65.78251608
 20
50.2069161095
 11
74.0919979904
 21
41.9306448321
  0
LINE
  5
2F0
100
AcDbEntity
  8
0
100
AcDbLine
 62
7
  6
CONTINUOUS
 10
49.2945645867
 20
30.3802696416
 11
49.3014058939
 21
27.6320076882
  0
LINE
  5
2F1
100
AcDbEntity
  8
A_RUNDUNGEN
100
AcDbLine
 62
7
  6
CONTINUOUS
 10
49.2945645867
 20
30.3802696416
 11
49.2729923362
 21
39.0461858854
  0
LINE
  5
2F2
100
AcDbEntity
  8
0
100
AcDbLine
 62
7
  6
CONTINUOUS
 10
46.5513896275
 20
105.8450765849
 11
46.5513896275
 21
52.7414073698
  0
LINE
  5
2F3
100
AcDbEntity
  8
A_RUNDUNGEN
100
AcDbLine
 62
7
  6
CONTINUOUS
 10
46.5513896275
 20
20.8450765849
 11
46.5513896275
 21
20.9487458
  0
LINE
  5
2F4
100
AcDbEntity
  8
0
100
AcDbLine
 62
7
  6
CONTINUOUS
 10
46.9513896275
 20
21.716156756
 11
46.9513896275
 21
20.9470004597
  0
LINE
  5
2F5
100
AcDbEntity
  8
A_RUNDUNGEN
100
AcDbLine
 62
7
  6
CONTINUOUS
 10
46.9513896275
 20
22.4547673908
 11
46.9513896275
 21
23.5244491843
  0
LINE
  5
2F6
100
AcDbEntity
  8
0
100
AcDbLine
 62
7
  6
CONTINUOUS
 10
47.1513896275
 20
22.0387109239
 11
47.1513896275
 21
25.1291113693
  0
LINE
  5
2F7
100
AcDbEntity
  8
0
100
AcDbLine
 62
7
  6
CONTINUOUS
 10
50.5513896275
 20
146.8450765849
 11
50.5513896275
 21
52.7588607731
  0
LINE
  5
2F8
100
AcDbEntity
  8
A_RUNDUNGEN
100
AcDbLine
 62
7
  6
CONTINUOUS
 10
50.5513896275
 20
20.9312923967
 11
50.5513896275
 21
20.8450765849
  0
LINE
  5
2F9
100
AcDbEntity
  8
A_RUNDUNGEN
100
AcDbLine
 62
7
  6
CONTINUOUS
 10
37.877056491
 20
43.0703088834
 11
36.4495234126
 21
36.1152999467
  0
LINE
  5
2FA
100
AcDbEntity
  8
0
100
AcDbLine
 62
7
  6
CONTINUOUS
 10
24.5513896275
 20
26.1872605026
 11
24.6107932308
 21
26.3235554589
  0
LINE
  5
2FB
100
AcDbEntity
  8
0
100
AcDbLine
 62
7
  6
CONTINUOUS
 10
91.8301131677
 20
50.1945206351
 11
90.9306851772
 21
50.7138056276
  0
LINE
  5
2FC
100
AcDbEntity
  8
A_RUNDUNGEN
100
AcDbLine
 62
7
  6
CONTINUOUS
 10
91.8301131677
 20
50.1945206351
 11
90.9306851772
 21
50.7138056276
  0
LINE
  5
2FD
100
AcDbEntity
  8
0
100
AcDbLine
 62
7
  6
CONTINUOUS
 10
83.2985032293
 20
45.7167367948
 11
78.5453054465
 21
50.2049185006
  0
LINE
  5
2FE
100
AcDbEntity
  8
A_RUNDUNGEN
100
AcDbLine
 62
7
  6
CONTINUOUS
 10
99.8728624945
 20
23.5784939488
 11
99.8099756328
 21
23.6479238979
  0
LINE
  5
2FF
100
AcDbEntity
  8
0
100
AcDbLine
 62
7
  6
CONTINUOUS
 10
99.8728624945
 20
23.5784939488
 11
99.8101818496
 21
23.6476962251
  0
LINE
  5
300
100
AcDbEntity
  8
A_RUNDUNGEN
100
AcDbLine
 62
7
  6
CONTINUOUS
 10
55.1785013721
 20
36.6116384043
 11
55.117693029
 21
38.7320870232
  0
LINE
  5
301
100
AcDbEntity
  8
0
100
AcDbLine
 62
7
  6
CONTINUOUS
 10
53.4513896275
 20
52.7715144905
 11
53.4513896275
 21
52.0307210545
  0
LINE
  5
302
100
AcDbEntity
  8
A_RUNDUNGEN
100
AcDbLine
 62
7
  6
CONTINUOUS
 10
53.4513896275
 20
50.146734425
 11
53.4513896275
 21
51.2872376465
  0
LINE
  5
303
100
AcDbEntity
  8
0
100
AcDbLine
 62
7
  6
CONTINUOUS
 10
53.7513896275
 20
50.1473351327
 11
53.7513896275
 21
51.7811135965
  0
LINE
  5
304
100
AcDbEntity
  8
A_ACHSEN
100
AcDbLine
 62
7
  6
CONTINUOUS
 10
54.5513896275
 20
28.0895210294
 11
54.5513896275
 21
27.2006321405
  0
LINE
  5
305
100
AcDbEntity
  8
A_ACHSEN
100
AcDbLine
 62
7
  6
CENTER
 10
54.5513896275
 20
25.4228543627
 11
54.5513896275
 21
22.0950765849
  0
LINE
  5
306
100
AcDbEntity
  8
A_ACHSEN
100
AcDbLine
 62
7
  6
CENTER
 10
54.5513896275
 20
29.8672988072
 11
54.5513896275
 21
33.1950765849
  0
LINE
  5
307
100
AcDbEntity
  8
0
100
AcDbLine
 62
7
  6
CONTINUOUS
 10
24.6107932308
 20
26.3235554589
 11
24.7164447879
 21
26.5448251598
  0
LINE
  5
308
100
AcDbEntity
  8
0
100
AcDbLine
 62
7
  6
CONTINUOUS
 10
87.1366186408
 20
45.1405028449
 11
88.0498382684
 21
44.2318185218
  0
LINE
  5
309
100
AcDbEntity
  8
A_RUNDUNGEN
100
AcDbLine
 62
7
  6
CONTINUOUS
 10
58.8513896275
 20
20.8950765849
 11
58.8513896275
 21
22.0535465991
  0
LINE
  5
30A
100
AcDbEntity
  8
A_RUNDUNGEN
100
AcDbLine
 62
7
  6
CONTINUOUS
 10
58.8513896275
 20
51.7366065707
 11
58.8513896275
 21
52.7950765849
  0
LINE
  5
30B
100
AcDbEntity
  8
A_RUNDUNGEN
100
AcDbLine
 62
7
  6
CONTINUOUS
 10
60.3513896275
 20
52.7450765849
 11
60.3513896275
 21
51.6250510187
  0
LINE
  5
30C
100
AcDbEntity
  8
A_RUNDUNGEN
100
AcDbLine
 62
7
  6
CONTINUOUS
 10
60.3513896275
 20
22.1651021512
 11
60.3513896275
 21
20.9450765849
  0
LINE
  5
30D
100
AcDbEntity
  8
0
100
AcDbLine
 62
7
  6
CONTINUOUS
 10
60.5513896275
 20
61.8450765849
 11
60.5513896275
 21
52.8450765849
  0
LINE
  5
30E
100
AcDbEntity
  8
0
100
AcDbLine
 62
7
  6
CONTINUOUS
 10
60.5513896275
 20
16.8450765849
 11
60.5513896275
 21
20.8450765849
  0
LINE
  5
30F
100
AcDbEntity
  8
A_RUNDUNGEN
100
AcDbLine
 62
7
  6
CONTINUOUS
 10
60.5513896275
 20
20.8450765849
 11
60.5513896275
 21
40.4428343569
  0
LINE
  5
310
100
AcDbEntity
  8
A_RUNDUNGEN
100
AcDbLine
 62
7
  6
CONTINUOUS
 10
60.5513896275
 20
51.4705972434
 11
60.5513896275
 21
52.8450765849
  0
LINE
  5
311
100
AcDbEntity
  8
0
100
AcDbLine
 62
7
  6
CONTINUOUS
 10
61.5513896275
 20
60.8450765849
 11
61.5513896275
 21
59.4552862223
  0
LINE
  5
312
100
AcDbEntity
  8
A_ACHSEN
100
AcDbLine
 62
7
  6
CENTER
 10
62.2540686559
 20
42.217930997
 11
62.2540686559
 21
51.1106887974
  0
LINE
  5
313
100
AcDbEntity
  8
A_RUNDUNGEN
100
AcDbLine
 62
7
  6
CONTINUOUS
 10
56.9817131658
 20
38.8110856255
 11
56.9340167551
 21
34.9072755339
  0
LINE
  5
314
100
AcDbEntity
  8
0
100
AcDbLine
 62
7
  6
CONTINUOUS
 10
57.0085438749
 20
38.8276811331
 11
56.9575991129
 21
34.6580031088
  0
LINE
  5
315
100
AcDbEntity
  8
0
100
AcDbLine
 62
7
  6
CONTINUOUS
 10
95.0902889979
 20
43.5745107355
 11
90.1638576425
 21
48.4764760531
  0
LINE
  5
316
100
AcDbEntity
  8
A_RUNDUNGEN
100
AcDbLine
 62
7
  6
CONTINUOUS
 10
87.8585470767
 20
50.8301296935
 11
88.2566136973
 21
50.4320630728
  0
LINE
  5
317
100
AcDbEntity
  8
0
100
AcDbLine
 62
7
  6
CONTINUOUS
 10
67.6308050494
 20
34.7363020267
 11
67.5808776015
 21
38.8227159628
  0
LINE
  5
318
100
AcDbEntity
  8
A_RUNDUNGEN
100
AcDbLine
 62
7
  6
CONTINUOUS
 10
67.6548286906
 20
34.949456714
 11
67.6077068314
 21
38.8062415163
  0
LINE
  5
319
100
AcDbEntity
  8
0
100
AcDbLine
 62
7
  6
CONTINUOUS
 10
64.0420978667
 20
56.9798662391
 11
64.0420978667
 21
53.0537014601
  0
LINE
  5
31A
100
AcDbEntity
  8
0
100
AcDbLine
 62
7
  6
CONTINUOUS
 10
64.0420978667
 20
16.9798662391
 11
64.0420978667
 21
21.306031018
  0
LINE
  5
31B
100
AcDbEntity
  8
A_RUNDUNGEN
100
AcDbLine
 62
7
  6
CONTINUOUS
 10
64.0420978667
 20
21.2798662391
 11
64.0420978673
 21
40.4251164195
  0
LINE
  5
31C
100
AcDbEntity
  8
A_RUNDUNGEN
100
AcDbLine
 62
7
  6
CONTINUOUS
 10
64.0420978691
 20
51.4344720615
 11
64.0420978667
 21
53.0798662391
  0
LINE
  5
31D
100
AcDbEntity
  8
A_RUNDUNGEN
100
AcDbLine
 62
7
  6
CONTINUOUS
 10
65.5420978667
 20
21.2298662391
 11
65.5420978667
 21
21.2798662391
  0
LINE
  5
31E
100
AcDbEntity
  8
A_RUNDUNGEN
100
AcDbLine
 62
7
  6
CONTINUOUS
 10
65.5420978667
 20
51.9856178613
 11
65.5420978667
 21
53.0798662391
  0
LINE
  5
31F
100
AcDbEntity
  8
0
100
AcDbLine
 62
7
  6
CONTINUOUS
 10
65.5420978667
 20
52.542034432
 11
65.5420978667
 21
53.1298662391
  0
LINE
  5
320
100
AcDbEntity
  8
A_RUNDUNGEN
100
AcDbLine
 62
7
  6
CONTINUOUS
 10
64.0511493361
 20
28.7458868601
 11
64.0420978652
 21
28.5680704921
  0
LINE
  5
321
100
AcDbEntity
  8
0
100
AcDbLine
 62
7
  6
CONTINUOUS
 10
29.4320578704
 20
43.4270528488
 11
34.3364215809
 21
48.3510965599
  0
LINE
  5
322
100
AcDbEntity
  8
A_RUNDUNGEN
100
AcDbLine
 62
7
  6
CONTINUOUS
 10
95.6230619976
 20
50.0656147711
 11
96.7014042756
 21
48.9872724928
  0
LINE
  5
323
100
AcDbEntity
  8
A_ACHSEN
100
AcDbLine
 62
7
  6
CONTINUOUS
 10
70.0420978651
 20
28.1243106827
 11
70.0420978651
 21
27.2354217938
  0
LINE
  5
324
100
AcDbEntity
  8
A_ACHSEN
100
AcDbLine
 62
7
  6
CENTER
 10
70.0420978651
 20
25.4576440161
 11
70.0420978651
 21
21.8292076214
  0
LINE
  5
325
100
AcDbEntity
  8
A_ACHSEN
100
AcDbLine
 62
7
  6
CENTER
 10
70.0420978651
 20
29.9020884605
 11
70.0420978651
 21
33.5305248552
  0
LINE
  5
326
100
AcDbEntity
  8
0
100
AcDbLine
 62
7
  6
CONTINUOUS
 10
72.5513896275
 20
59.4552862223
 11
72.5513896275
 21
60.8450765849
  0
LINE
  5
327
100
AcDbEntity
  8
0
100
AcDbLine
 62
7
  6
CONTINUOUS
 10
73.5513896275
 20
58.8450765849
 11
73.5513896275
 21
146.8450765849
  0
LINE
  5
328
100
AcDbEntity
  8
0
100
AcDbLine
 62
7
  6
CONTINUOUS
 10
74.0420978667
 20
53.1798662391
 11
74.0420978667
 21
53.0927777571
  0
LINE
  5
329
100
AcDbEntity
  8
0
100
AcDbLine
 62
7
  6
CONTINUOUS
 10
74.0420978667
 20
21.266954721
 11
74.0420978667
 21
21.1798662391
  0
LINE
  5
32A
100
AcDbEntity
  8
0
100
AcDbLine
 62
7
  6
CONTINUOUS
 10
37.3786140942
 20
45.0287543243
 11
36.4694851775
 21
44.1159772977
  0
LINE
  5
32B
100
AcDbEntity
  8
0
100
AcDbLine
 62
7
  6
CONTINUOUS
 10
75.2692320323
 20
39.1045692823
 11
75.2920873403
 21
27.6903786022
  0
LINE
  5
32C
100
AcDbEntity
  8
A_RUNDUNGEN
100
AcDbLine
 62
7
  6
CONTINUOUS
 10
75.7593491426
 20
25.1761849153
 11
75.7593491436
 21
30.717313492
  0
LINE
  5
32D
100
AcDbEntity
  8
A_RUNDUNGEN
100
AcDbLine
 62
7
  6
CONTINUOUS
 10
76.0421019732
 20
23.9110629388
 11
76.0420978641
 21
22.0798586218
  0
LINE
  5
32E
100
AcDbEntity
  8
A_RUNDUNGEN
100
AcDbLine
 62
7
  6
CONTINUOUS
 10
79.3420978667
 20
23.067527459
 11
79.3420978667
 21
21.2900804804
  0
LINE
  5
32F
100
AcDbEntity
  8
0
100
AcDbLine
 62
7
  6
CONTINUOUS
 10
79.3420978667
 20
21.2900804804
 11
79.3420978667
 21
23.067527459
  0
LINE
  5
330
100
AcDbEntity
  8
A_RUNDUNGEN
100
AcDbLine
 62
7
  6
CONTINUOUS
 10
86.6555132481
 20
43.2073019859
 11
88.0879395839
 21
36.2532991967
  0
LINE
  5
331
100
AcDbEntity
  8
A_RUNDUNGEN
100
AcDbLine
 62
7
  6
CONTINUOUS
 10
64.1812757092
 20
28.7753188817
 11
65.0666928733
 21
30.8612310016
  0
LINE
  5
332
100
AcDbEntity
  8
0
100
AcDbLine
 62
7
  6
CONTINUOUS
 10
53.5954570523
 20
45.0512184442
 11
50.4375207392
 21
41.8775206591
  0
LINE
  5
333
100
AcDbEntity
  8
0
100
AcDbLine
 62
7
  6
CONTINUOUS
 10
29.9129967241
 20
48.2581620951
 11
27.1204745623
 21
47.3029159579
  0
LINE
  5
334
100
AcDbEntity
  8
A_RUNDUNGEN
100
AcDbLine
 62
7
  6
CONTINUOUS
 10
27.3932757445
 20
46.4090386239
 11
29.4119637477
 21
47.081934625
  0
LINE
  5
335
100
AcDbEntity
  8
0
100
AcDbLine
 62
7
  6
CONTINUOUS
 10
90.6617379338
 20
24.6054667508
 11
90.6617379338
 21
26.4602464654
  0
LINE
  5
336
100
AcDbEntity
  8
0
100
AcDbLine
 62
7
  6
CONTINUOUS
 10
65.3188302645
 20
29.9718616951
 11
68.3641328677
 21
36.2475194746
  0
LINE
  5
337
100
AcDbEntity
  8
0
100
AcDbLine
 62
7
  6
CONTINUOUS
 10
55.1785013721
 20
36.6116384043
 11
49.2945645867
 21
30.3802696416
  0
LINE
  5
338
100
AcDbEntity
  8
0
100
AcDbLine
 62
7
  6
CONTINUOUS
 10
69.8093153326
 20
58.0450765849
 11
72.5513896275
 21
59.4552862223
  0
LINE
  5
339
100
AcDbEntity
  8
0
100
AcDbLine
 62
7
  6
CONTINUOUS
 10
70.0513896275
 20
57.0450765849
 11
73.5513896275
 21
58.8450765849
  0
LINE
  5
33A
100
AcDbEntity
  8
0
100
AcDbLine
 62
7
  6
CONTINUOUS
 10
25.5895862287
 20
30.6641748855
 11
25.8131930264
 21
30.7759782844
  0
LINE
  5
33B
100
AcDbEntity
  8
0
100
AcDbLine
 62
7
  6
CONTINUOUS
 10
50.5513896275
 20
105.8450765849
 11
46.5513896275
 21
105.8450765849
  0
LINE
  5
33C
100
AcDbEntity
  8
A_RUNDUNGEN
100
AcDbLine
 62
7
  6
CONTINUOUS
 10
96.4498833738
 20
45.2248038673
 11
97.8823097096
 21
38.2708010781
  0
LINE
  5
33D
100
AcDbEntity
  8
A_ACHSEN
100
AcDbLine
 62
7
  6
CENTER
 10
92.2920978749
 20
34.6607642231
 11
92.2920978749
 21
46.6989682198
  0
LINE
  5
33E
100
AcDbEntity
  8
A_RUNDUNGEN
100
AcDbLine
 62
7
  6
CONTINUOUS
 10
93.847849488
 20
31.5071973524
 11
93.8478494872
 21
27.0543523199
  0
LINE
  5
33F
100
AcDbEntity
  8
A_RUNDUNGEN
100
AcDbLine
 62
7
  6
CONTINUOUS
 10
96.8119802802
 20
45.8811807202
 11
96.8119802803
 21
46.6097441821
  0
LINE
  5
340
100
AcDbEntity
  8
A_RUNDUNGEN
100
AcDbLine
 62
7
  6
CONTINUOUS
 10
96.8119802803
 20
46.6286338317
 11
96.8119802804
 21
46.7719651129
  0
LINE
  5
341
100
AcDbEntity
  8
A_RUNDUNGEN
100
AcDbLine
 62
7
  6
CONTINUOUS
 10
96.8168601803
 20
45.8811807202
 11
96.8168601799
 21
43.4432408861
  0
LINE
  5
342
100
AcDbEntity
  8
A_RUNDUNGEN
100
AcDbLine
 62
7
  6
CONTINUOUS
 10
96.8402088651
 20
35.4621500884
 11
96.8402088652
 21
36.0981681067
  0
LINE
  5
343
100
AcDbEntity
  8
A_RUNDUNGEN
100
AcDbLine
 62
7
  6
CONTINUOUS
 10
96.840208867
 20
46.9366416374
 11
96.8402088672
 21
47.9314574152
  0
LINE
  5
344
100
AcDbEntity
  8
A_RUNDUNGEN
100
AcDbLine
 62
7
  6
CONTINUOUS
 10
96.8478494887
 20
35.4205106025
 11
96.8478494884
 21
33.8996063823
  0
LINE
  5
345
100
AcDbEntity
  8
A_RUNDUNGEN
100
AcDbLine
 62
7
  6
CONTINUOUS
 10
96.8478494908
 20
47.9770700186
 11
96.8478494909
 21
48.6337224677
  0
LINE
  5
346
100
AcDbEntity
  8
A_RUNDUNGEN
100
AcDbLine
 62
7
  6
CONTINUOUS
 10
97.4420978667
 20
49.0511661188
 11
97.4420978667
 21
45.6776813095
  0
LINE
  5
347
100
AcDbEntity
  8
A_RUNDUNGEN
100
AcDbLine
 62
7
  6
CONTINUOUS
 10
97.4420978667
 20
25.4482068787
 11
97.4420978667
 21
35.3820511686
  0
LINE
  5
348
100
AcDbEntity
  8
0
100
AcDbLine
 62
7
  6
CONTINUOUS
 10
97.4420978667
 20
31.2342487121
 11
97.4420978667
 21
35.3820511686
  0
LWPOLYLINE
  5
349
100
AcDbEntity
  8
0
100
AcDbPolyline
 62
7
  6
CONTINUOUS
 90
3
 70
0
 10
90.6617383753
 20
24.6054667508
 10
90.6495853631
 20
24.4568472434
 10
90.6202383151
 20
24.3428739604
  0
LINE
  5
34A
100
AcDbEntity
  8
A_RUNDUNGEN
100
AcDbLine
 62
7
  6
CONTINUOUS
 10
98.4420978667
 20
23.9776940417
 11
98.4420978667
 21
30.4820384364
  0
LINE
  5
34B
100
AcDbEntity
  8
0
100
AcDbLine
 62
7
  6
CONTINUOUS
 10
98.4420978667
 20
23.9776940417
 11
98.4420978667
 21
30.4820384364
  0
LINE
  5
34C
100
AcDbEntity
  8
0
100
AcDbLine
 62
7
  6
CONTINUOUS
 10
98.7920978667
 20
40.5593393639
 11
98.7920978667
 21
42.1355274048
  0
LINE
  5
34D
100
AcDbEntity
  8
A_ACHSEN
100
AcDbLine
 62
7
  6
CONTINUOUS
 10
98.7920978667
 20
40.5597271509
 11
98.7920978667
 21
42.1347200478
  0
LINE
  5
34E
100
AcDbEntity
  8
0
100
AcDbLine
 62
7
  6
CONTINUOUS
 10
98.7920978667
 20
42.5303929864
 11
98.7920978667
 21
44.7563325925
  0
LINE
  5
34F
100
AcDbEntity
  8
A_ACHSEN
100
AcDbLine
 62
7
  6
CONTINUOUS
 10
98.7920978667
 20
44.7563325925
 11
98.7920978667
 21
47.2035355625
  0
LINE
  5
350
100
AcDbEntity
  8
0
100
AcDbLine
 62
7
  6
CONTINUOUS
 10
98.7920978667
 20
47.0730779588
 11
98.7920978667
 21
48.6094781385
  0
LINE
  5
351
100
AcDbEntity
  8
A_RUNDUNGEN
100
AcDbLine
 62
7
  6
CONTINUOUS
 10
98.9420978667
 20
37.4645556091
 11
98.9420978667
 21
40.5298662391
  0
LINE
  5
352
100
AcDbEntity
  8
0
100
AcDbLine
 62
7
  6
CONTINUOUS
 10
98.9420978667
 20
37.4645556091
 11
98.9420978667
 21
40.5593393639
  0
LINE
  5
353
100
AcDbEntity
  8
0
100
AcDbLine
 62
7
  6
CONTINUOUS
 10
98.9420978667
 20
42.1355274048
 11
98.9420978667
 21
42.5333956559
  0
LINE
  5
354
100
AcDbEntity
  8
A_RUNDUNGEN
100
AcDbLine
 62
7
  6
CONTINUOUS
 10
98.9420978667
 20
42.1349879954
 11
98.9420978667
 21
42.5303929864
  0
LINE
  5
355
100
AcDbEntity
  8
0
100
AcDbLine
 62
7
  6
CONTINUOUS
 10
98.9420978667
 20
43.0973836733
 11
98.9420978667
 21
48.0424874516
  0
LINE
  5
356
100
AcDbEntity
  8
0
100
AcDbLine
 62
7
  6
CONTINUOUS
 10
98.9420978667
 20
48.6064754691
 11
98.9420978667
 21
48.895176869
  0
LINE
  5
357
100
AcDbEntity
  8
A_RUNDUNGEN
100
AcDbLine
 62
7
  6
CONTINUOUS
 10
98.9420978667
 20
48.6099355625
 11
98.9420978667
 21
48.895176869
  0
LINE
  5
358
100
AcDbEntity
  8
0
100
AcDbLine
 62
7
  6
CONTINUOUS
 10
99.4420978667
 20
30.4641414275
 11
99.4420978667
 21
23.9934292032
  0
LINE
  5
359
100
AcDbEntity
  8
A_RUNDUNGEN
100
AcDbLine
 62
7
  6
CONTINUOUS
 10
99.4420978667
 20
30.4641414275
 11
99.4420978667
 21
23.9933494336
  0
LINE
  5
35A
100
AcDbEntity
  8
0
100
AcDbLine
 62
7
  6
CONTINUOUS
 10
99.9420978667
 20
31.0127089515
 11
99.9420978667
 21
50.7016094547
  0
LINE
  5
35B
100
AcDbEntity
  8
A_RUNDUNGEN
100
AcDbLine
 62
7
  6
CONTINUOUS
 10
99.9420978667
 20
23.6581230234
 11
99.9420978667
 21
50.7016094547
  0
LINE
  5
35C
100
AcDbEntity
  8
0
100
AcDbLine
 62
7
  6
CONTINUOUS
 10
100.5420978667
 20
21.1798662391
 11
100.5420978667
 21
53.1798662391
  0
LINE
  5
35D
100
AcDbEntity
  8
0
100
AcDbLine
 62
7
  6
CONTINUOUS
 10
57.1682358029
 20
38.9264548407
 11
62.2663148193
 21
41.2114891587
  0
LINE
  5
35E
100
AcDbEntity
  8
0
100
AcDbLine
 62
7
  6
CONTINUOUS
 10
70.9198383698
 20
45.090126234
 11
71.0927412737
 21
45.1676238695
  0
LINE
  5
35F
100
AcDbEntity
  8
A_RUNDUNGEN
100
AcDbLine
 62
7
  6
CONTINUOUS
 10
96.7150521785
 20
46.6043026864
 11
96.7340805998
 21
46.6286338331
  0
LINE
  5
360
100
AcDbEntity
  8
A_RUNDUNGEN
100
AcDbLine
 62
7
  6
CONTINUOUS
 10
96.7150505619
 20
46.6043037902
 11
96.6315345601
 21
46.5202899961
  0
LINE
  5
361
100
AcDbEntity
  8
0
100
AcDbLine
 62
7
  6
CONTINUOUS
 10
119.0420978667
 20
16.9798662391
 11
119.0420978667
 21
56.9798662391
  0
LINE
  5
362
100
AcDbEntity
  8
A_RUNDUNGEN
100
AcDbLine
 62
7
  6
CONTINUOUS
 10
96.701404273
 20
33.5460563573
 11
95.4993171922
 21
32.3439692769
  0
LINE
  5
363
100
AcDbEntity
  8
A_RUNDUNGEN
100
AcDbLine
 62
7
  6
CONTINUOUS
 10
89.2566136929
 20
24.5276693974
 11
89.0479332221
 21
24.3189889267
  0
LINE
  5
364
100
AcDbEntity
  8
A_RUNDUNGEN
100
AcDbLine
 62
7
  6
CONTINUOUS
 10
99.8835192229
 20
30.8712875953
 11
99.8153211714
 21
30.8030895438
  0
LINE
  5
365
100
AcDbEntity
  8
0
100
AcDbLine
 62
7
  6
CONTINUOUS
 10
99.8835192229
 20
30.8712875953
 11
99.8153211714
 21
30.8030895438
  0
LINE
  5
366
100
AcDbEntity
  8
A_RUNDUNGEN
100
AcDbLine
 62
7
  6
CONTINUOUS
 10
81.5022143471
 20
23.7017102531
 11
81.5034989425
 21
23.7024718292
  0
LINE
  5
367
100
AcDbEntity
  8
A_RUNDUNGEN
100
AcDbLine
 62
7
  6
CONTINUOUS
 10
83.4164507326
 20
23.9263837247
 11
83.7181284688
 21
24.1005574469
  0
LWPOLYLINE
  5
368
100
AcDbEntity
  8
0
100
AcDbPolyline
 62
7
  6
CONTINUOUS
 90
4
 70
0
 10
81.5019977733
 20
23.7015530967
 10
81.4083659705
 20
23.6520842593
 10
81.2088278584
 20
23.5886757468
 10
81.0967907471
 20
23.5785570623
  0
LINE
  5
369
100
AcDbEntity
  8
0
100
AcDbLine
 62
7
  6
CONTINUOUS
 10
50.5513896275
 20
146.8450765849
 11
73.5513896275
 21
146.8450765849
  0
ARC
  5
36A
100
AcDbEntity
  8
A_RUNDUNGEN
100
AcDbCircle
 62
7
  6
CONTINUOUS
 10
33.9513896275
 20
28.9000216542
 40
1.0
100
AcDbArc
 50
0.0
 51
88.0
  0
ARC
  5
36B
100
AcDbEntity
  8
0
100
AcDbCircle
 62
7
  6
CONTINUOUS
 10
34.9531001835
 20
21.9993627252
 40
1.0
100
AcDbArc
 50
264.0
 51
269.75
  0
ARC
  5
36C
100
AcDbEntity
  8
0
100
AcDbCircle
 62
7
  6
CONTINUOUS
 10
34.4513896275
 20
23.5796060373
 40
0.5
100
AcDbArc
 50
0.0
 51
89.5
  0
ARC
  5
36D
100
AcDbEntity
  8
0
100
AcDbCircle
 62
7
  6
CONTINUOUS
 10
26.4513896275
 20
23.8482018818
 40
0.5
100
AcDbArc
 50
180.0
 51
250.4633450619
  0
ARC
  5
36E
100
AcDbEntity
  8
0
100
AcDbCircle
 62
7
  6
CONTINUOUS
 10
28.6999104925
 20
23.0503396394
 40
0.5
100
AcDbArc
 50
250.4633450619
 51
269.7
  0
ARC
  5
36F
100
AcDbEntity
  8
0
100
AcDbCircle
 62
7
  6
CONTINUOUS
 10
46.4513896275
 20
21.716156756
 40
0.5
100
AcDbArc
 50
0.0
 51
89.5
  0
ARC
  5
370
100
AcDbEntity
  8
0
100
AcDbCircle
 62
7
  6
CONTINUOUS
 10
25.4513896275
 20
22.4952786071
 40
0.5
100
AcDbArc
 50
180.0
 51
264.0
  0
ARC
  5
371
100
AcDbEntity
  8
A_RUNDUNGEN
100
AcDbCircle
 62
7
  6
CONTINUOUS
 10
46.5013648857
 20
23.5244494003
 40
0.45
100
AcDbArc
 50
359.9999725098
 51
89.4968496473
  0
ARC
  5
372
100
AcDbEntity
  8
0
100
AcDbCircle
 62
7
  6
CONTINUOUS
 10
25.3513896275
 20
28.4450765849
 40
0.4
100
AcDbArc
 50
90.0
 51
180.0
  0
ARC
  5
373
100
AcDbEntity
  8
0
100
AcDbCircle
 62
7
  6
CONTINUOUS
 10
25.5513896275
 20
28.4450765849
 40
0.4
100
AcDbArc
 50
0.0
 51
90.0
  0
ARC
  5
374
100
AcDbEntity
  8
0
100
AcDbCircle
 62
7
  6
CONTINUOUS
 10
27.2013896275
 20
25.3237805531
 40
0.25
100
AcDbArc
 50
180.0
 51
251.115572952
  0
ARC
  5
375
100
AcDbEntity
  8
0
100
AcDbCircle
 62
7
  6
CONTINUOUS
 10
29.9939117893
 20
24.3685344159
 40
0.25
100
AcDbArc
 50
251.115572952
 51
269.5
  0
ARC
  5
376
100
AcDbEntity
  8
0
100
AcDbCircle
 62
7
  6
CONTINUOUS
 10
25.7013896275
 20
28.2033341544
 40
0.25
100
AcDbArc
 50
293.5781784782
 51
360.0
  0
ARC
  5
377
100
AcDbEntity
  8
0
100
AcDbCircle
 62
7
  6
CONTINUOUS
 10
25.7013896275
 20
23.7868190154
 40
0.25
100
AcDbArc
 50
0.0
 51
66.4218215218
  0
ARC
  5
378
100
AcDbEntity
  8
0
100
AcDbCircle
 62
7
  6
CONTINUOUS
 10
25.9013896275
 20
27.7450765849
 40
0.25
100
AcDbArc
 50
113.5781784782
 51
180.0
  0
ARC
  5
379
100
AcDbEntity
  8
0
100
AcDbCircle
 62
7
  6
CONTINUOUS
 10
25.9013896275
 20
24.2450765849
 40
0.25
100
AcDbArc
 50
180.0
 51
246.4218215218
  0
ARC
  5
37A
100
AcDbEntity
  8
0
100
AcDbCircle
 62
7
  6
CONTINUOUS
 10
26.2013896275
 20
23.5701284695
 40
0.25
100
AcDbArc
 50
180.0
 51
250.0
  0
ARC
  5
37B
100
AcDbEntity
  8
0
100
AcDbCircle
 62
7
  6
CONTINUOUS
 10
28.811499117
 20
22.6201263071
 40
0.25
100
AcDbArc
 50
250.0
 51
269.5
  0
ARC
  5
37C
100
AcDbEntity
  8
A_RUNDUNGEN
100
AcDbCircle
 62
7
  6
CONTINUOUS
 10
33.0013896275
 20
22.5835616866
 40
0.25
100
AcDbArc
 50
192.588546568
 51
269.5
  0
ARC
  5
37D
100
AcDbEntity
  8
A_RUNDUNGEN
100
AcDbCircle
 62
7
  6
CONTINUOUS
 10
34.4903659656
 20
36.5174219406
 40
2.0
100
AcDbArc
 50
258.4009899013
 51
348.4009899013
  0
ARC
  5
37E
100
AcDbEntity
  8
0
100
AcDbCircle
 62
7
  6
CONTINUOUS
 10
25.7013896275
 20
29.5950765849
 40
0.25
100
AcDbArc
 50
0.0
 51
90.0
  0
ARC
  5
37F
100
AcDbEntity
  8
0
100
AcDbCircle
 62
7
  6
CONTINUOUS
 10
25.7013896275
 20
30.9995850821
 40
0.25
100
AcDbArc
 50
296.5650511771
 51
360.0
  0
ARC
  5
380
100
AcDbEntity
  8
0
100
AcDbCircle
 62
7
  6
CONTINUOUS
 10
25.7013896275
 20
30.4405680877
 40
0.25
100
AcDbArc
 50
116.5650511771
 51
180.0
  0
ARC
  5
381
100
AcDbEntity
  8
0
100
AcDbCircle
 62
7
  6
CONTINUOUS
 10
25.7013896275
 20
30.0950765849
 40
0.25
100
AcDbArc
 50
180.0
 51
270.0
  0
ARC
  5
382
100
AcDbEntity
  8
A_RUNDUNGEN
100
AcDbCircle
 62
7
  6
CONTINUOUS
 10
27.2013896275
 20
30.3865009168
 40
0.2500007123
100
AcDbArc
 50
180.0004900315
 51
268.0000171017
  0
ARC
  5
383
100
AcDbEntity
  8
0
100
AcDbCircle
 62
7
  6
CONTINUOUS
 10
54.5513896275
 20
27.6450765849
 40
5.5
100
AcDbArc
 50
163.1393517109
 51
43.4606622308
  0
ARC
  5
384
100
AcDbEntity
  8
0
100
AcDbCircle
 62
7
  6
CONTINUOUS
 10
70.0420978651
 20
27.6798662383
 40
5.5
100
AcDbArc
 50
136.796691652
 51
17.1180021719
  0
ARC
  5
385
100
AcDbEntity
  8
0
100
AcDbCircle
 62
7
  6
CONTINUOUS
 10
70.0420978651
 20
27.6798662383
 40
5.25
100
AcDbArc
 50
154.1147265693
 51
0.1147265693
  0
ARC
  5
386
100
AcDbEntity
  8
0
100
AcDbCircle
 62
7
  6
CONTINUOUS
 10
54.5513896275
 20
27.6450765849
 40
5.25
100
AcDbArc
 50
180.1426273136
 51
26.1426273136
  0
CIRCLE
  5
387
100
AcDbEntity
  8
0
100
AcDbCircle
 62
7
  6
CONTINUOUS
 10
70.0420978651
 20
27.6798662383
 40
2.75
  0
CIRCLE
  5
388
100
AcDbEntity
  8
0
100
AcDbCircle
 62
7
  6
CONTINUOUS
 10
54.5513896275
 20
27.6450765849
 40
2.75
  0
CIRCLE
  5
389
100
AcDbEntity
  8
A_RUNDUNGEN
100
AcDbCircle
 62
7
  6
CONTINUOUS
 10
54.5513896275
 20
27.6450765849
 40
2.4272122138
  0
CIRCLE
  5
38A
100
AcDbEntity
  8
A_RUNDUNGEN
100
AcDbCircle
 62
7
  6
CONTINUOUS
 10
70.0420978651
 20
27.6798662383
 40
2.4267240551
  0
ARC
  5
38B
100
AcDbEntity
  8
A_RUNDUNGEN
100
AcDbCircle
 62
7
  6
CONTINUOUS
 10
60.0513896275
 20
22.5640378797
 40
0.5
100
AcDbArc
 50
270.5
 51
360.0
  0
ARC
  5
38C
100
AcDbEntity
  8
A_RUNDUNGEN
100
AcDbCircle
 62
7
  6
CONTINUOUS
 10
58.3513896275
 20
21.612399728
 40
0.4999735156
100
AcDbArc
 50
359.9893785284
 51
62.7700833321
  0
ARC
  5
38D
100
AcDbEntity
  8
0
100
AcDbCircle
 62
7
  6
CONTINUOUS
 10
66.5647928294
 20
37.120660601
 40
2.0
100
AcDbArc
 50
334.1147265693
 51
66.1147265693
  0
ARC
  5
38E
100
AcDbEntity
  8
A_RUNDUNGEN
100
AcDbCircle
 62
7
  6
CONTINUOUS
 10
57.986254771
 20
37.1013945765
 40
2.0
100
AcDbArc
 50
114.1426273136
 51
206.1426273136
  0
ARC
  5
38F
100
AcDbEntity
  8
A_RUNDUNGEN
100
AcDbCircle
 62
7
  6
CONTINUOUS
 10
66.6775089744
 20
30.1774900193
 40
1.7499229247
100
AcDbArc
 50
104.5113838995
 51
157.0002979587
  0
ARC
  5
390
100
AcDbEntity
  8
A_RUNDUNGEN
100
AcDbCircle
 62
7
  6
CONTINUOUS
 10
74.2593267485
 20
30.7172957002
 40
1.5000223952
100
AcDbArc
 50
0.0006795875
 51
46.9161430001
  0
ARC
  5
391
100
AcDbEntity
  8
A_RUNDUNGEN
100
AcDbCircle
 62
7
  6
CONTINUOUS
 10
55.454208135
 20
34.9253557064
 40
1.498913922
100
AcDbArc
 50
351.7617161149
 51
359.3
  0
ARC
  5
392
100
AcDbEntity
  8
A_RUNDUNGEN
100
AcDbCircle
 62
7
  6
CONTINUOUS
 10
69.1346373107
 20
34.9675368862
 40
1.498913922
100
AcDbArc
 50
180.6999999902
 51
186.679416964
  0
ARC
  5
393
100
AcDbEntity
  8
A_RUNDUNGEN
100
AcDbCircle
 62
7
  6
CONTINUOUS
 10
55.454208135
 20
34.9253557064
 40
1.4799190669
100
AcDbArc
 50
353.0384373533
 51
359.3
  0
ARC
  5
394
100
AcDbEntity
  8
A_RUNDUNGEN
100
AcDbCircle
 62
7
  6
CONTINUOUS
 10
69.1346373107
 20
34.9675368862
 40
1.4799190669
100
AcDbArc
 50
180.6999999902
 51
185.4616126102
  0
ARC
  5
395
100
AcDbEntity
  8
0
100
AcDbCircle
 62
7
  6
CONTINUOUS
 10
38.5875490357
 20
44.116959651
 40
6.0
100
AcDbArc
 50
90.1147265693
 51
135.1147265693
  0
ARC
  5
396
100
AcDbEntity
  8
0
100
AcDbCircle
 62
7
  6
CONTINUOUS
 10
30.4273781381
 20
41.5904275747
 40
5.0
100
AcDbArc
 50
70.090760336
 51
86.7112194667
  0
ARC
  5
397
100
AcDbEntity
  8
A_ACHSEN
100
AcDbCircle
 62
7
  6
CONTINUOUS
 10
32.2661428402
 20
40.6042949096
 40
4.75
100
AcDbArc
 50
102.6562240593
 51
36.9966663036
  0
ARC
  5
398
100
AcDbEntity
  8
0
100
AcDbCircle
 62
7
  6
CONTINUOUS
 10
32.2661428402
 20
40.6042949096
 40
4.0
100
AcDbArc
 50
135.1147265693
 51
20.4904082171
  0
CIRCLE
  5
399
100
AcDbEntity
  8
0
100
AcDbCircle
 62
7
  6
CONTINUOUS
 10
32.2661428402
 20
40.6042949096
 40
2.55
  0
ARC
  5
39A
100
AcDbEntity
  8
A_RUNDUNGEN
100
AcDbCircle
 62
7
  6
CONTINUOUS
 10
30.0404267031
 20
44.6787968591
 40
2.0
100
AcDbArc
 50
78.4009899013
 51
168.4009899013
  0
ARC
  5
39B
100
AcDbEntity
  8
A_RUNDUNGEN
100
AcDbCircle
 62
7
  6
CONTINUOUS
 10
28.6128936247
 20
37.7237879224
 40
2.0
100
AcDbArc
 50
213.496016943
 51
258.4009899013
  0
ARC
  5
39C
100
AcDbEntity
  8
A_RUNDUNGEN
100
AcDbCircle
 62
7
  6
CONTINUOUS
 10
35.917899044
 20
43.4724308774
 40
2.0
100
AcDbArc
 50
348.4009899013
 51
46.9328727104
  0
ARC
  5
39D
100
AcDbEntity
  8
0
100
AcDbCircle
 62
7
  6
CONTINUOUS
 10
37.8865276625
 20
42.7045983281
 40
2.0
100
AcDbArc
 50
135.1147265693
 51
200.4904082171
  0
ARC
  5
39E
100
AcDbEntity
  8
0
100
AcDbCircle
 62
7
  6
CONTINUOUS
 10
38.7956565792
 20
43.6173753547
 40
2.0
100
AcDbArc
 50
90.1147265693
 51
135.1147265693
  0
ARC
  5
39F
100
AcDbEntity
  8
0
100
AcDbCircle
 62
7
  6
CONTINUOUS
 10
25.3513896275
 20
40.2450765849
 40
0.4
100
AcDbArc
 50
180.0
 51
270.0
  0
ARC
  5
3A0
100
AcDbEntity
  8
0
100
AcDbCircle
 62
7
  6
CONTINUOUS
 10
25.5513896275
 20
40.2450765849
 40
0.4
100
AcDbArc
 50
270.0
 51
360.0
  0
ARC
  5
3A1
100
AcDbEntity
  8
0
100
AcDbCircle
 62
7
  6
CONTINUOUS
 10
25.7013896275
 20
39.0950765849
 40
0.25
100
AcDbArc
 50
270.0
 51
360.0
  0
ARC
  5
3A2
100
AcDbEntity
  8
0
100
AcDbCircle
 62
7
  6
CONTINUOUS
 10
25.7013896275
 20
37.6905680877
 40
0.25
100
AcDbArc
 50
0.0
 51
63.4349488229
  0
ARC
  5
3A3
100
AcDbEntity
  8
0
100
AcDbCircle
 62
7
  6
CONTINUOUS
 10
25.7013896275
 20
38.2495850821
 40
0.25
100
AcDbArc
 50
180.0
 51
243.4349488229
  0
ARC
  5
3A4
100
AcDbEntity
  8
0
100
AcDbCircle
 62
7
  6
CONTINUOUS
 10
25.7013896275
 20
38.5950765849
 40
0.25
100
AcDbArc
 50
90.0
 51
180.0
  0
ARC
  5
3A5
100
AcDbEntity
  8
0
100
AcDbCircle
 62
7
  6
CONTINUOUS
 10
34.9531001835
 20
51.6907904447
 40
1.0
100
AcDbArc
 50
90.25
 51
96.0
  0
ARC
  5
3A6
100
AcDbEntity
  8
A_RUNDUNGEN
100
AcDbCircle
 62
7
  6
CONTINUOUS
 10
33.0540654486
 20
46.7027461546
 40
0.5025877126
100
AcDbArc
 50
180.0387573922
 51
194.6073909078
  0
ARC
  5
3A7
100
AcDbEntity
  8
A_RUNDUNGEN
100
AcDbCircle
 62
7
  6
CONTINUOUS
 10
33.0605992462
 20
46.7080839365
 40
0.5025764819
100
AcDbArc
 50
180.0384222791
 51
194.4834189337
  0
ARC
  5
3A8
100
AcDbEntity
  8
A_RUNDUNGEN
100
AcDbCircle
 62
7
  6
CONTINUOUS
 10
27.5513896275
 20
45.9346969749
 40
0.5
100
AcDbArc
 50
108.4349488229
 51
180.0
  0
ARC
  5
3A9
100
AcDbEntity
  8
A_RUNDUNGEN
100
AcDbCircle
 62
7
  6
CONTINUOUS
 10
29.5700776307
 20
46.607592976
 40
0.5
100
AcDbArc
 50
90.5
 51
108.4349488229
  0
ARC
  5
3AA
100
AcDbEntity
  8
0
100
AcDbCircle
 62
7
  6
CONTINUOUS
 10
30.4513896275
 20
48.7756396614
 40
0.5
100
AcDbArc
 50
270.5
 51
360.0
  0
ARC
  5
3AB
100
AcDbEntity
  8
0
100
AcDbCircle
 62
7
  6
CONTINUOUS
 10
26.4513896275
 20
49.5493733817
 40
0.5
100
AcDbArc
 50
90.5
 51
180.0
  0
ARC
  5
3AC
100
AcDbEntity
  8
0
100
AcDbCircle
 62
7
  6
CONTINUOUS
 10
31.4513896275
 20
50.8430553186
 40
0.5
100
AcDbArc
 50
90.5
 51
180.0
  0
ARC
  5
3AD
100
AcDbEntity
  8
0
100
AcDbCircle
 62
7
  6
CONTINUOUS
 10
30.4513896275
 20
50.5843189312
 40
0.5
100
AcDbArc
 50
270.5
 51
360.0
  0
ARC
  5
3AE
100
AcDbEntity
  8
0
100
AcDbCircle
 62
7
  6
CONTINUOUS
 10
25.4513896275
 20
51.1948745628
 40
0.5
100
AcDbArc
 50
96.0
 51
180.0
  0
ARC
  5
3AF
100
AcDbEntity
  8
0
100
AcDbCircle
 62
7
  6
CONTINUOUS
 10
27.2013896275
 20
47.0663726168
 40
0.25
100
AcDbArc
 50
108.884427048
 51
180.0
  0
ARC
  5
3B0
100
AcDbEntity
  8
0
100
AcDbCircle
 62
7
  6
CONTINUOUS
 10
29.9939117893
 20
48.021618754
 40
0.25
100
AcDbArc
 50
90.5
 51
108.884427048
  0
ARC
  5
3B1
100
AcDbEntity
  8
0
100
AcDbCircle
 62
7
  6
CONTINUOUS
 10
26.2013896275
 20
49.6267174783
 40
0.25
100
AcDbArc
 50
90.3
 51
180.0
  0
ARC
  5
3B2
100
AcDbEntity
  8
A_RUNDUNGEN
100
AcDbCircle
 62
7
  6
CONTINUOUS
 10
33.0013896275
 20
51.1065914833
 40
0.25
100
AcDbArc
 50
90.5
 51
167.3933052569
  0
ARC
  5
3B3
100
AcDbEntity
  8
0
100
AcDbCircle
 62
7
  6
CONTINUOUS
 10
50.9927682876
 20
39.6417903328
 40
6.0
100
AcDbArc
 50
66.1147265693
 51
90.1147265693
  0
ARC
  5
3B4
100
AcDbEntity
  8
0
100
AcDbCircle
 62
7
  6
CONTINUOUS
 10
73.546798178
 20
39.692443077
 40
6.0
100
AcDbArc
 50
90.1426273136
 51
114.1426273136
  0
ARC
  5
3B5
100
AcDbEntity
  8
0
100
AcDbCircle
 62
7
  6
CONTINUOUS
 10
71.2692400512
 20
39.0965598622
 40
4.0
100
AcDbArc
 50
0.1147265693
 51
45.1147265693
  0
ARC
  5
3B6
100
AcDbEntity
  8
0
100
AcDbCircle
 62
7
  6
CONTINUOUS
 10
53.2729799428
 20
39.0561431401
 40
4.0
100
AcDbArc
 50
135.1426273136
 51
180.1426273136
  0
ARC
  5
3B7
100
AcDbEntity
  8
A_ACHSEN
100
AcDbCircle
 62
7
  6
CONTINUOUS
 10
62.2540686559
 20
46.6643098972
 40
5.1
100
AcDbArc
 50
34.3959327771
 51
133.9896149108
  0
ARC
  5
3B8
100
AcDbEntity
  8
A_ACHSEN
100
AcDbCircle
 62
7
  6
CONTINUOUS
 10
62.2540686559
 20
46.6643098972
 40
5.1
100
AcDbArc
 50
233.9646366754
 51
258.4883257746
  0
ARC
  5
3B9
100
AcDbEntity
  8
0
100
AcDbCircle
 62
7
  6
CONTINUOUS
 10
62.2540686559
 20
46.6643098972
 40
5.0
100
AcDbArc
 50
45.1147265693
 51
128.3273598903
  0
CIRCLE
  5
3BA
100
AcDbEntity
  8
0
100
AcDbCircle
 62
7
  6
CONTINUOUS
 10
62.2540686559
 20
46.6643098972
 40
2.75
  0
CIRCLE
  5
3BB
100
AcDbEntity
  8
0
100
AcDbCircle
 62
7
  6
CONTINUOUS
 10
62.2540686559
 20
46.6643098972
 40
2.5
  0
ARC
  5
3BC
100
AcDbEntity
  8
0
100
AcDbCircle
 62
7
  6
CONTINUOUS
 10
57.9129927023
 20
52.1556721657
 40
2.0
100
AcDbArc
 50
270.1147265693
 51
308.3273598903
  0
ARC
  5
3BD
100
AcDbEntity
  8
0
100
AcDbCircle
 62
7
  6
CONTINUOUS
 10
66.5704355003
 20
52.1751153977
 40
2.0
100
AcDbArc
 50
247.9965648825
 51
270.1426273136
  0
ARC
  5
3BE
100
AcDbEntity
  8
A_RUNDUNGEN
100
AcDbCircle
 62
7
  6
CONTINUOUS
 10
60.0513896275
 20
51.2261152902
 40
0.5
100
AcDbArc
 50
26.6134121467
 51
89.5
  0
ARC
  5
3BF
100
AcDbEntity
  8
A_RUNDUNGEN
100
AcDbCircle
 62
7
  6
CONTINUOUS
 10
58.3513896275
 20
52.0778461405
 40
0.5
100
AcDbArc
 50
316.9056456382
 51
360.0
  0
ARC
  5
3C0
100
AcDbEntity
  8
0
100
AcDbCircle
 62
7
  6
CONTINUOUS
 10
52.9513896275
 20
52.0307210545
 40
0.5
100
AcDbArc
 50
270.5
 51
360.0
  0
ARC
  5
3C1
100
AcDbEntity
  8
0
100
AcDbCircle
 62
7
  6
CONTINUOUS
 10
70.7391157552
 20
51.6290266428
 40
0.5
100
AcDbArc
 50
259.0
 51
269.0
  0
ARC
  5
3C2
100
AcDbEntity
  8
A_RUNDUNGEN
100
AcDbCircle
 62
7
  6
CONTINUOUS
 10
70.7391157552
 20
51.6290266428
 40
0.5
100
AcDbArc
 50
259.0
 51
269.0
  0
ARC
  5
3C3
100
AcDbEntity
  8
0
100
AcDbCircle
 62
7
  6
CONTINUOUS
 10
66.0420978667
 20
52.542034432
 40
0.5
100
AcDbArc
 50
180.0
 51
259.0
  0
ARC
  5
3C4
100
AcDbEntity
  8
A_RUNDUNGEN
100
AcDbCircle
 62
7
  6
CONTINUOUS
 10
66.0420978667
 20
52.542034432
 40
0.5
100
AcDbArc
 50
180.0
 51
259.0
  0
ARC
  5
3C5
100
AcDbEntity
  8
A_RUNDUNGEN
100
AcDbCircle
 62
7
  6
CONTINUOUS
 10
66.0420978667
 20
52.8212148706
 40
0.5
100
AcDbArc
 50
180.0
 51
209.6666666667
  0
ARC
  5
3C6
100
AcDbEntity
  8
A_RUNDUNGEN
100
AcDbCircle
 62
7
  6
CONTINUOUS
 10
53.7013896275
 20
51.2872376465
 40
0.25
100
AcDbArc
 50
90.5
 51
180.0
  0
ARC
  5
3C7
100
AcDbEntity
  8
A_RUNDUNGEN
100
AcDbCircle
 62
7
  6
CONTINUOUS
 10
84.2181284688
 20
23.2345320431
 40
1.0
100
AcDbArc
 50
91.0
 51
120.0
  0
ARC
  5
3C8
100
AcDbEntity
  8
A_RUNDUNGEN
100
AcDbCircle
 62
7
  6
CONTINUOUS
 10
82.9164507326
 20
24.7924091284
 40
1.0
100
AcDbArc
 50
271.0
 51
300.0
  0
ARC
  5
3C9
100
AcDbEntity
  8
A_RUNDUNGEN
100
AcDbCircle
 62
7
  6
CONTINUOUS
 10
79.8420978667
 20
23.067527459
 40
0.5
100
AcDbArc
 50
90.5
 51
180.0
  0
ARC
  5
3CA
100
AcDbEntity
  8
0
100
AcDbCircle
 62
7
  6
CONTINUOUS
 10
79.8420978667
 20
23.067527459
 40
0.5
100
AcDbArc
 50
90.5
 51
180.0
  0
ARC
  5
3CB
100
AcDbEntity
  8
0
100
AcDbCircle
 62
7
  6
CONTINUOUS
 10
92.7339242298
 20
22.0985208565
 40
0.75
100
AcDbArc
 50
270.25
 51
278.0
  0
ARC
  5
3CC
100
AcDbEntity
  8
A_RUNDUNGEN
100
AcDbCircle
 62
7
  6
CONTINUOUS
 10
92.7339242298
 20
22.0985208565
 40
0.75
100
AcDbArc
 50
270.25
 51
278.0
  0
ARC
  5
3CD
100
AcDbEntity
  8
0
100
AcDbCircle
 62
7
  6
CONTINUOUS
 10
98.4420978667
 20
23.6581230234
 40
1.5
100
AcDbArc
 50
278.0
 51
350.5428539634
  0
ARC
  5
3CE
100
AcDbEntity
  8
A_RUNDUNGEN
100
AcDbCircle
 62
7
  6
CONTINUOUS
 10
98.4420978667
 20
23.6581230234
 40
1.5
100
AcDbArc
 50
278.0
 51
360.0
  0
ARC
  5
3CF
100
AcDbEntity
  8
A_RUNDUNGEN
100
AcDbCircle
 62
7
  6
CONTINUOUS
 10
99.7131978667
 20
23.9934292032
 40
0.2711
100
AcDbArc
 50
180.0168589514
 51
260.2348873705
  0
ARC
  5
3D0
100
AcDbEntity
  8
0
100
AcDbCircle
 62
7
  6
CONTINUOUS
 10
99.7131978667
 20
23.9934292032
 40
0.2711
100
AcDbArc
 50
180.0
 51
260.2433160746
  0
ARC
  5
3D1
100
AcDbEntity
  8
0
100
AcDbCircle
 62
7
  6
CONTINUOUS
 10
98.1920978667
 20
23.9776940417
 40
0.25
100
AcDbArc
 50
270.5
 51
360.0
  0
ARC
  5
3D2
100
AcDbEntity
  8
A_RUNDUNGEN
100
AcDbCircle
 62
7
  6
CONTINUOUS
 10
98.1920978667
 20
23.9776940417
 40
0.25
100
AcDbArc
 50
270.5
 51
360.0
  0
ARC
  5
3D3
100
AcDbEntity
  8
A_RUNDUNGEN
100
AcDbCircle
 62
7
  6
CONTINUOUS
 10
99.6248899292
 20
23.4798662391
 40
0.25
100
AcDbArc
 50
42.2304931632
 51
80.2524561787
  0
ARC
  5
3D4
100
AcDbEntity
  8
0
100
AcDbCircle
 62
7
  6
CONTINUOUS
 10
99.6248899292
 20
23.4798662391
 40
0.25
100
AcDbArc
 50
42.1690206477
 51
80.2433160746
  0
ARC
  5
3D5
100
AcDbEntity
  8
A_RUNDUNGEN
100
AcDbCircle
 62
7
  6
CONTINUOUS
 10
99.7244194535
 20
23.4444612626
 40
0.2
100
AcDbArc
 50
350.3822546146
 51
42.0796162253
  0
ARC
  5
3D6
100
AcDbEntity
  8
0
100
AcDbCircle
 62
7
  6
CONTINUOUS
 10
99.7244194535
 20
23.4444612626
 40
0.2
100
AcDbArc
 50
350.5402211819
 51
42.1690206477
  0
ARC
  5
3D7
100
AcDbEntity
  8
A_RUNDUNGEN
100
AcDbCircle
 62
7
  6
CONTINUOUS
 10
96.4420978667
 20
25.4482068787
 40
1.0
100
AcDbArc
 50
271.0
 51
360.0
  0
ARC
  5
3D8
100
AcDbEntity
  8
A_RUNDUNGEN
100
AcDbCircle
 62
7
  6
CONTINUOUS
 10
97.1920978667
 20
27.4212884328
 40
0.25
100
AcDbArc
 50
272.0
 51
360.0
  0
ARC
  5
3D9
100
AcDbEntity
  8
A_RUNDUNGEN
100
AcDbCircle
 62
7
  6
CONTINUOUS
 10
90.046813609
 20
36.656799573
 40
2.0
100
AcDbArc
 50
191.6393239598
 51
281.6393239598
  0
ARC
  5
3DA
100
AcDbEntity
  8
A_RUNDUNGEN
100
AcDbCircle
 62
7
  6
CONTINUOUS
 10
96.3480727542
 20
35.4190010873
 40
0.501477086
100
AcDbArc
 50
82.6098897657
 51
102.7769079629
  0
ARC
  5
3DB
100
AcDbEntity
  8
0
100
AcDbCircle
 62
7
  6
CONTINUOUS
 10
97.9420978667
 20
35.3820511686
 40
0.5
100
AcDbArc
 50
147.5092588329
 51
180.0
  0
ARC
  5
3DC
100
AcDbEntity
  8
A_RUNDUNGEN
100
AcDbCircle
 62
7
  6
CONTINUOUS
 10
97.9420978667
 20
35.3820511686
 40
0.5
100
AcDbArc
 50
147.5092588329
 51
161.9086063863
  0
ARC
  5
3DD
100
AcDbEntity
  8
A_RUNDUNGEN
100
AcDbCircle
 62
7
  6
CONTINUOUS
 10
97.9420978667
 20
31.2342487121
 40
0.5
100
AcDbArc
 50
180.0
 51
269.5
  0
ARC
  5
3DE
100
AcDbEntity
  8
0
100
AcDbCircle
 62
7
  6
CONTINUOUS
 10
97.9420978667
 20
31.2342487121
 40
0.5
100
AcDbArc
 50
180.0
 51
269.5
  0
ARC
  5
3DF
100
AcDbEntity
  8
A_RUNDUNGEN
100
AcDbCircle
 62
7
  6
CONTINUOUS
 10
95.1457672461
 20
32.6975191572
 40
0.4999950822
100
AcDbArc
 50
282.1165641852
 51
315.0000053385
  0
ARC
  5
3E0
100
AcDbEntity
  8
A_RUNDUNGEN
100
AcDbCircle
 62
7
  6
CONTINUOUS
 10
94.3478433534
 20
31.5071984715
 40
0.4999938654
100
AcDbArc
 50
101.7080493775
 51
180.0001282437
  0
ARC
  5
3E1
100
AcDbEntity
  8
A_RUNDUNGEN
100
AcDbCircle
 62
7
  6
CONTINUOUS
 10
96.3480052329
 20
35.4210862424
 40
0.4994180488
100
AcDbArc
 50
359.9927166886
 51
82.5714382452
  0
ARC
  5
3E2
100
AcDbEntity
  8
0
100
AcDbCircle
 62
7
  6
CONTINUOUS
 10
98.4929424871
 20
36.8559152993
 40
0.3
100
AcDbArc
 50
93.0
 51
156.949639287
  0
ARC
  5
3E3
100
AcDbEntity
  8
A_RUNDUNGEN
100
AcDbCircle
 62
7
  6
CONTINUOUS
 10
98.4929424871
 20
36.8559152993
 40
0.3
100
AcDbArc
 50
93.0
 51
156.949639287
  0
ARC
  5
3E4
100
AcDbEntity
  8
A_RUNDUNGEN
100
AcDbCircle
 62
7
  6
CONTINUOUS
 10
99.7131978667
 20
30.4641414275
 40
0.2711
100
AcDbArc
 50
98.2365997686
 51
180.0
  0
ARC
  5
3E5
100
AcDbEntity
  8
0
100
AcDbCircle
 62
7
  6
CONTINUOUS
 10
99.7131978667
 20
30.4641414275
 40
0.2711
100
AcDbArc
 50
98.2365997686
 51
180.0
  0
ARC
  5
3E6
100
AcDbEntity
  8
A_RUNDUNGEN
100
AcDbCircle
 62
7
  6
CONTINUOUS
 10
98.1920978667
 20
30.4820384364
 40
0.25
100
AcDbArc
 50
0.0
 51
89.5
  0
ARC
  5
3E7
100
AcDbEntity
  8
0
100
AcDbCircle
 62
7
  6
CONTINUOUS
 10
98.1920978667
 20
30.4820384364
 40
0.25
100
AcDbArc
 50
0.0
 51
89.5
  0
ARC
  5
3E8
100
AcDbEntity
  8
A_RUNDUNGEN
100
AcDbCircle
 62
7
  6
CONTINUOUS
 10
99.6385444761
 20
30.9798662391
 40
0.25
100
AcDbArc
 50
278.2365997686
 51
315.0
  0
ARC
  5
3E9
100
AcDbEntity
  8
0
100
AcDbCircle
 62
7
  6
CONTINUOUS
 10
99.6385444761
 20
30.9798662391
 40
0.25
100
AcDbArc
 50
278.2365997686
 51
315.0
  0
ARC
  5
3EA
100
AcDbEntity
  8
A_RUNDUNGEN
100
AcDbCircle
 62
7
  6
CONTINUOUS
 10
99.7420978667
 20
31.0127089515
 40
0.2
100
AcDbArc
 50
315.0000000209
 51
360.0
  0
ARC
  5
3EB
100
AcDbEntity
  8
0
100
AcDbCircle
 62
7
  6
CONTINUOUS
 10
99.7420978667
 20
31.0127089515
 40
0.2
100
AcDbArc
 50
315.0
 51
360.0
  0
ARC
  5
3EC
100
AcDbEntity
  8
0
100
AcDbCircle
 62
7
  6
CONTINUOUS
 10
89.8587645334
 20
40.5298662391
 40
9.0833333333
100
AcDbArc
 50
327.5092588329
 51
336.949639287
  0
ARC
  5
3ED
100
AcDbEntity
  8
A_RUNDUNGEN
100
AcDbCircle
 62
7
  6
CONTINUOUS
 10
89.8587645334
 20
40.5298662391
 40
9.0833333333
100
AcDbArc
 50
10.1875342525
 51
32.4907411671
  0
ARC
  5
3EE
100
AcDbEntity
  8
A_RUNDUNGEN
100
AcDbCircle
 62
7
  6
CONTINUOUS
 10
89.8587645334
 20
40.5298662391
 40
9.0833333333
100
AcDbArc
 50
327.5092588329
 51
360.0
  0
ARC
  5
3EF
100
AcDbEntity
  8
0
100
AcDbCircle
 62
7
  6
CONTINUOUS
 10
85.931791364
 20
44.2232872477
 40
6.0
100
AcDbArc
 50
45.1426273136
 51
90.1426273136
  0
ARC
  5
3F0
100
AcDbEntity
  8
A_RUNDUNGEN
100
AcDbCircle
 62
7
  6
CONTINUOUS
 10
88.6143872733
 20
43.6108023622
 40
2.0
100
AcDbArc
 50
133.9356433754
 51
191.6393239598
  0
ARC
  5
3F1
100
AcDbEntity
  8
0
100
AcDbCircle
 62
7
  6
CONTINUOUS
 10
85.7259298813
 20
43.7227732432
 40
2.0
100
AcDbArc
 50
45.1426273136
 51
90.1426273136
  0
ARC
  5
3F2
100
AcDbEntity
  8
0
100
AcDbCircle
 62
7
  6
CONTINUOUS
 10
86.6391495089
 20
42.81408892
 40
2.0
100
AcDbArc
 50
339.7669456657
 51
45.1426273136
  0
ARC
  5
3F3
100
AcDbEntity
  8
A_ACHSEN
100
AcDbCircle
 62
7
  6
CONTINUOUS
 10
92.2689114789
 20
40.739051532
 40
4.75
100
AcDbArc
 50
143.2606875792
 51
77.6011298235
  0
ARC
  5
3F4
100
AcDbEntity
  8
0
100
AcDbCircle
 62
7
  6
CONTINUOUS
 10
92.2689114789
 20
40.739051532
 40
4.0
100
AcDbArc
 50
159.7669456657
 51
45.1426273136
  0
CIRCLE
  5
3F5
100
AcDbEntity
  8
0
100
AcDbCircle
 62
7
  6
CONTINUOUS
 10
92.2689114789
 20
40.739051532
 40
2.55
  0
ARC
  5
3F6
100
AcDbEntity
  8
A_RUNDUNGEN
100
AcDbCircle
 62
7
  6
CONTINUOUS
 10
95.9234356844
 20
37.8673007018
 40
2.0
100
AcDbArc
 50
281.6393239598
 51
11.6393239598
  0
ARC
  5
3F7
100
AcDbEntity
  8
0
100
AcDbCircle
 62
7
  6
CONTINUOUS
 10
98.6420978667
 20
37.4645556091
 40
0.3
100
AcDbArc
 50
273.0
 51
360.0
  0
ARC
  5
3F8
100
AcDbEntity
  8
A_RUNDUNGEN
100
AcDbCircle
 62
7
  6
CONTINUOUS
 10
98.6420978667
 20
37.4645556091
 40
0.3
100
AcDbArc
 50
273.0
 51
360.0
  0
ARC
  5
3F9
100
AcDbEntity
  8
0
100
AcDbCircle
 62
7
  6
CONTINUOUS
 10
94.1062310156
 20
41.7326627083
 40
5.0
100
AcDbArc
 50
93.3290943945
 51
109.9495535252
  0
ARC
  5
3FA
100
AcDbEntity
  8
A_RUNDUNGEN
100
AcDbCircle
 62
7
  6
CONTINUOUS
 10
94.4910093487
 20
44.821303491
 40
2.0
100
AcDbArc
 50
11.6393239598
 51
101.6393239598
  0
ARC
  5
3FB
100
AcDbEntity
  8
A_RUNDUNGEN
100
AcDbCircle
 62
7
  6
CONTINUOUS
 10
76.7920968385
 20
52.3307714073
 40
0.7500005141
100
AcDbArc
 50
359.9999996573
 51
89.7499214498
  0
ARC
  5
3FC
100
AcDbEntity
  8
A_RUNDUNGEN
100
AcDbCircle
 62
7
  6
CONTINUOUS
 10
96.3403940672
 20
47.9708882928
 40
0.5023757159
100
AcDbArc
 50
284.0986825352
 51
299.8196545693
  0
ARC
  5
3FD
100
AcDbEntity
  8
A_RUNDUNGEN
100
AcDbCircle
 62
7
  6
CONTINUOUS
 10
96.347827941
 20
47.9770702101
 40
0.5000208585
100
AcDbArc
 50
284.0651713486
 51
359.9998163988
  0
ARC
  5
3FE
100
AcDbEntity
  8
A_RUNDUNGEN
100
AcDbCircle
 62
7
  6
CONTINUOUS
 10
97.9420978667
 20
45.6776813095
 40
0.5
100
AcDbArc
 50
180.0
 51
212.4907411671
  0
ARC
  5
3FF
100
AcDbEntity
  8
A_RUNDUNGEN
100
AcDbCircle
 62
7
  6
CONTINUOUS
 10
96.3402089337
 20
46.9366354459
 40
0.4999998821
100
AcDbArc
 50
283.9495577688
 51
0.0006846188
  0
ARC
  5
400
100
AcDbEntity
  8
0
100
AcDbCircle
 62
7
  6
CONTINUOUS
 10
98.6420978667
 20
48.895176869
 40
0.3
100
AcDbArc
 50
0.0
 51
87.0
  0
ARC
  5
401
100
AcDbEntity
  8
A_RUNDUNGEN
100
AcDbCircle
 62
7
  6
CONTINUOUS
 10
98.6420978667
 20
48.895176869
 40
0.3
100
AcDbArc
 50
0.0
 51
87.0
  0
ARC
  5
402
100
AcDbEntity
  8
0
100
AcDbCircle
 62
7
  6
CONTINUOUS
 10
98.4420978667
 20
50.7016094547
 40
1.5
100
AcDbArc
 50
0.0
 51
82.0
  0
ARC
  5
403
100
AcDbEntity
  8
A_RUNDUNGEN
100
AcDbCircle
 62
7
  6
CONTINUOUS
 10
98.4420978667
 20
50.7016094547
 40
1.5
100
AcDbArc
 50
0.0
 51
82.0
  0
ARC
  5
404
100
AcDbEntity
  8
0
100
AcDbCircle
 62
7
  6
CONTINUOUS
 10
96.4420978667
 20
49.0511661188
 40
1.0
100
AcDbArc
 50
22.4853129779
 51
89.0
  0
ARC
  5
405
100
AcDbEntity
  8
A_RUNDUNGEN
100
AcDbCircle
 62
7
  6
CONTINUOUS
 10
96.4420978667
 20
49.0511661188
 40
1.0
100
AcDbArc
 50
0.0
 51
89.0
  0
ARC
  5
406
100
AcDbEntity
  8
0
100
AcDbCircle
 62
7
  6
CONTINUOUS
 10
92.7339242298
 20
52.2612116216
 40
0.75
100
AcDbArc
 50
82.0
 51
89.75
  0
ARC
  5
407
100
AcDbEntity
  8
A_RUNDUNGEN
100
AcDbCircle
 62
7
  6
CONTINUOUS
 10
92.7339242298
 20
52.2612116216
 40
0.75
100
AcDbArc
 50
82.0
 51
89.75
  0
ARC
  5
408
100
AcDbEntity
  8
A_RUNDUNGEN
100
AcDbCircle
 62
7
  6
CONTINUOUS
 10
99.4420978667
 20
50.4990294161
 40
0.5
100
AcDbArc
 50
337.2499913168
 51
360.0
  0
ARC
  5
409
100
AcDbEntity
  8
0
100
AcDbCircle
 62
7
  6
CONTINUOUS
 10
90.6806851772
 20
50.2807929257
 40
0.5
100
AcDbArc
 50
60.0
 51
89.0
  0
ARC
  5
40A
100
AcDbEntity
  8
0
100
AcDbCircle
 62
7
  6
CONTINUOUS
 10
92.0801131677
 20
50.627533337
 40
0.5
100
AcDbArc
 50
240.0
 51
269.0
  0
ARC
  5
40B
100
AcDbEntity
  8
A_RUNDUNGEN
100
AcDbCircle
 62
7
  6
CONTINUOUS
 10
92.0801131677
 20
50.627533337
 40
0.5
100
AcDbArc
 50
240.0
 51
269.0
  0
ARC
  5
40C
100
AcDbEntity
  8
0
100
AcDbCircle
 62
7
  6
CONTINUOUS
 10
97.6432687441
 20
49.5483466928
 40
0.3
100
AcDbArc
 50
202.4853129779
 51
267.0
  0
ARC
  5
40D
100
AcDbEntity
  8
A_RUNDUNGEN
100
AcDbCircle
 62
7
  6
CONTINUOUS
 10
97.6432694615
 20
49.5483463687
 40
0.2999999116
100
AcDbArc
 50
202.4852033842
 51
266.9998599399
  0
ARC
  5
40E
100
AcDbEntity
  8
A_RUNDUNGEN
100
AcDbCircle
 62
7
  6
CONTINUOUS
 10
124.7601835888
 20
46.5664474943
 40
27.9419172775
100
AcDbArc
 50
179.4861695617
 51
179.687487488
  0
ARC
  5
40F
100
AcDbEntity
  8
A_RUNDUNGEN
100
AcDbCircle
 62
7
  6
CONTINUOUS
 10
65.0237191708
 20
173.006337055
 40
144.0057516223
100
AcDbArc
 50
281.708177631
 51
282.1165695336
  0
ARC
  5
410
100
AcDbEntity
  8
0
100
AcDbCircle
 62
7
  6
CONTINUOUS
 10
58.9096503706
 20
172.9821191008
 40
140.6065450262
100
AcDbArc
 50
256.9043496375
 51
266.0762524535
  0
ARC
  5
411
100
AcDbEntity
  8
A_RUNDUNGEN
100
AcDbCircle
 62
7
  6
CONTINUOUS
 10
65.0237191708
 20
173.006337055
 40
140.6065450262
100
AcDbArc
 50
274.1825501087
 51
282.8258902198
  0
ARC
  5
412
100
AcDbEntity
  8
0
100
AcDbCircle
 62
7
  6
CONTINUOUS
 10
58.9096503706
 20
172.9821191008
 40
140.6
100
AcDbArc
 50
256.9037291831
 51
257.2806457418
  0
ARC
  5
413
100
AcDbEntity
  8
0
100
AcDbCircle
 62
7
  6
CONTINUOUS
 10
58.9096503706
 20
172.9821191008
 40
140.6
100
AcDbArc
 50
258.0911737829
 51
258.7777769171
  0
ARC
  5
414
100
AcDbEntity
  8
0
100
AcDbCircle
 62
7
  6
CONTINUOUS
 10
58.9096503706
 20
172.9821191008
 40
140.6
100
AcDbArc
 50
260.0021181962
 51
266.076062448
  0
ARC
  5
415
100
AcDbEntity
  8
A_RUNDUNGEN
100
AcDbCircle
 62
7
  6
CONTINUOUS
 10
65.0237191708
 20
173.006337055
 40
140.6
100
AcDbArc
 50
274.1825789309
 51
280.1676338667
  0
ARC
  5
416
100
AcDbEntity
  8
A_RUNDUNGEN
100
AcDbCircle
 62
7
  6
CONTINUOUS
 10
65.0237191708
 20
173.006337055
 40
140.6
100
AcDbArc
 50
281.1178875715
 51
282.1593228798
  0
ARC
  5
417
100
AcDbEntity
  8
A_RUNDUNGEN
100
AcDbCircle
 62
7
  6
CONTINUOUS
 10
58.9096503706
 20
172.9821191008
 40
139.598913922
100
AcDbArc
 50
260.5746683747
 51
266.0460396114
  0
ARC
  5
418
100
AcDbEntity
  8
A_RUNDUNGEN
100
AcDbCircle
 62
7
  6
CONTINUOUS
 10
65.0237191708
 20
173.006337055
 40
139.598913922
100
AcDbArc
 50
274.2149749791
 51
279.6751711033
  0
ARC
  5
419
100
AcDbEntity
  8
A_RUNDUNGEN
100
AcDbCircle
 62
7
  6
CONTINUOUS
 10
58.9096503706
 20
172.9821191008
 40
139.5799190669
100
AcDbArc
 50
260.5795413677
 51
266.0454310757
  0
ARC
  5
41A
100
AcDbEntity
  8
A_RUNDUNGEN
100
AcDbCircle
 62
7
  6
CONTINUOUS
 10
65.0237191708
 20
173.006337055
 40
139.5799190669
100
AcDbArc
 50
274.2322846629
 51
279.6987428535
  0
ARC
  5
41B
100
AcDbEntity
  8
A_RUNDUNGEN
100
AcDbCircle
 62
7
  6
CONTINUOUS
 10
58.9096503706
 20
172.9821191008
 40
130.4200809331
100
AcDbArc
 50
260.6424520887
 51
266.6745322063
  0
ARC
  5
41C
100
AcDbEntity
  8
A_RUNDUNGEN
100
AcDbCircle
 62
7
  6
CONTINUOUS
 10
65.0237191708
 20
173.006337055
 40
130.4200809331
100
AcDbArc
 50
273.5770392374
 51
279.6232909672
  0
ARC
  5
41D
100
AcDbEntity
  8
A_RUNDUNGEN
100
AcDbCircle
 62
7
  6
CONTINUOUS
 10
65.0237191708
 20
173.006337055
 40
130.4200809331
100
AcDbArc
 50
283.6664047337
 51
283.9395476792
  0
ARC
  5
41E
100
AcDbEntity
  8
A_RUNDUNGEN
100
AcDbCircle
 62
7
  6
CONTINUOUS
 10
58.9096503706
 20
172.9821191008
 40
130.401086078
100
AcDbArc
 50
260.6371922973
 51
266.6814217024
  0
ARC
  5
41F
100
AcDbEntity
  8
A_RUNDUNGEN
100
AcDbCircle
 62
7
  6
CONTINUOUS
 10
65.0237191708
 20
173.006337055
 40
130.401086078
100
AcDbArc
 50
273.5456558163
 51
279.61898164
  0
ARC
  5
420
100
AcDbEntity
  8
A_RUNDUNGEN
100
AcDbCircle
 62
7
  6
CONTINUOUS
 10
65.0237191708
 20
173.006337055
 40
130.401086078
100
AcDbArc
 50
283.6587756224
 51
283.950259761
  0
ARC
  5
421
100
AcDbEntity
  8
A_RUNDUNGEN
100
AcDbCircle
 62
7
  6
CONTINUOUS
 10
58.9096503706
 20
172.9821191008
 40
129.4
100
AcDbArc
 50
260.5992212584
 51
267.0848081343
  0
ARC
  5
422
100
AcDbEntity
  8
A_RUNDUNGEN
100
AcDbCircle
 62
7
  6
CONTINUOUS
 10
65.0237191708
 20
173.006337055
 40
129.4
100
AcDbArc
 50
282.0825933295
 51
284.0613199078
  0
ARC
  5
423
100
AcDbEntity
  8
A_RUNDUNGEN
100
AcDbCircle
 62
7
  6
CONTINUOUS
 10
58.9096503706
 20
172.9821191008
 40
129.3934549738
100
AcDbArc
 50
260.6019071212
 51
267.0874124871
  0
ARC
  5
424
100
AcDbEntity
  8
A_RUNDUNGEN
100
AcDbCircle
 62
7
  6
CONTINUOUS
 10
65.0237191708
 20
173.006337055
 40
129.3934549738
100
AcDbArc
 50
273.1525814818
 51
279.6461389479
  0
ARC
  5
425
100
AcDbEntity
  8
A_RUNDUNGEN
100
AcDbCircle
 62
7
  6
CONTINUOUS
 10
65.0237191708
 20
173.006337055
 40
129.3934549738
100
AcDbArc
 50
282.0806903365
 51
284.065047908
  0
ARC
  5
426
100
AcDbEntity
  8
A_RUNDUNGEN
100
AcDbCircle
 62
7
  6
CONTINUOUS
 10
287.576353589
 20
45.9212507039
 40
190.7594976172
100
AcDbArc
 50
179.8282968719
 51
180.0120352643
  0
LINE
  5
427
100
AcDbEntity
  8
A_RUNDUNGEN
100
AcDbLine
 62
7
  6
CONTINUOUS
 10
56.9530101925
 20
34.9070434737
 11
56.9505552347
 21
34.672692566
  0
LINE
  5
428
100
AcDbEntity
  8
A_RUNDUNGEN
100
AcDbLine
 62
7
  6
CONTINUOUS
 10
96.8186819488
 20
46.7188523579
 11
96.8181749595
 21
46.6180282026
  0
LINE
  5
429
100
AcDbEntity
  8
A_RUNDUNGEN
100
AcDbLine
 62
7
  6
CONTINUOUS
 10
96.8181749595
 20
46.6180282026
 11
96.81771255
 21
46.4929150343
  0
SPLINE
  5
42A
100
AcDbEntity
  8
A_RUNDUNGEN
100
AcDbSpline
 62
7
  6
CONTINUOUS
 70
0
 71
3
 72
13
 73
9
 74
0
 42
0.0000001
 43
0.0000001
 44
0.0000000001
 40
0.0
 40
0.0
 40
0.0
 40
0.0
 40
0.1970942483
 40
0.3569600019
 40
0.4894998901
 40
0.6056032192
 40
0.8105668972
 40
1.0
 40
1.0
 40
1.0
 40
1.0
 10
76.0420978641
 20
22.0798709969
 30
0.0
 10
76.0420966038
 20
22.1312303527
 30
0.0
 10
76.0563697656
 20
22.2249682944
 30
0.0
 10
76.1102607241
 20
22.3419009901
 30
0.0
 10
76.175536376
 20
22.4269619666
 30
0.0
 10
76.264642863
 20
22.5054716216
 30
0.0
 10
76.3852418208
 20
22.5671562018
 30
0.0
 10
76.4884843396
 20
22.5836908919
 30
0.0
 10
76.5378455215
 20
22.5841138202
 30
0.0
  0
SPLINE
  5
42B
100
AcDbEntity
  8
A_RUNDUNGEN
100
AcDbSpline
 62
7
  6
CONTINUOUS
 70
0
 71
3
 72
9
 73
5
 74
0
 42
0.0000001
 43
0.0000001
 44
0.0000000001
 40
0.0
 40
0.0
 40
0.0
 40
0.0
 40
0.4998865856
 40
1.0
 40
1.0
 40
1.0
 40
1.0
 10
76.0421019732
 20
23.9110629388
 30
0.0
 10
76.0420879844
 20
24.0040626897
 30
0.0
 10
76.0160622181
 20
24.1906321212
 30
0.0
 10
75.9508201833
 20
24.3658430998
 30
0.0
 10
75.9128038964
 20
24.4507640435
 30
0.0
  0
SPLINE
  5
42C
100
AcDbEntity
  8
A_RUNDUNGEN
100
AcDbSpline
 62
7
  6
CONTINUOUS
 70
0
 71
3
 72
9
 73
5
 74
0
 42
0.0000001
 43
0.0000001
 44
0.0000000001
 40
0.0
 40
0.0
 40
0.0
 40
0.0
 40
0.4999685997
 40
1.0
 40
1.0
 40
1.0
 40
1.0
 10
75.9128038964
 20
24.4507640435
 30
0.0
 10
75.8620364312
 20
24.5641753738
 30
0.0
 10
75.7850096181
 20
24.8027160257
 30
0.0
 10
75.7593491426
 20
25.0519136624
 30
0.0
 10
75.7593491426
 20
25.1761849153
 30
0.0
  0
SPLINE
  5
42D
100
AcDbEntity
  8
0
100
AcDbSpline
 62
7
  6
CONTINUOUS
 70
0
 71
3
 72
8
 73
4
 74
0
 42
0.0000001
 43
0.0000001
 44
0.0000000001
 40
0.0
 40
0.0
 40
0.0
 40
0.0
 40
1.0
 40
1.0
 40
1.0
 40
1.0
 10
81.5034888323
 20
23.7024899717
 30
0.0
 10
81.5767260028
 20
23.7457476614
 30
0.0
 10
81.6640025888
 20
23.7703952269
 30
0.0
 10
81.749047913
 20
23.7718797084
 30
0.0
  0
SPLINE
  5
42E
100
AcDbEntity
  8
0
100
AcDbSpline
 62
7
  6
CONTINUOUS
 70
0
 71
3
 72
11
 73
7
 74
0
 42
0.0000001
 43
0.0000001
 44
0.0000000001
 40
0.0
 40
0.0
 40
0.0
 40
0.0
 40
0.2497508934
 40
0.4996362917
 40
0.7494646578
 40
1.0
 40
1.0
 40
1.0
 40
1.0
 10
91.1442881854
 20
26.9599418789
 30
0.0
 10
91.0807885909
 20
26.9577244242
 30
0.0
 10
90.9532898555
 20
26.9284302
 30
0.0
 10
90.7934234677
 20
26.8163739869
 30
0.0
 10
90.6865800006
 20
26.6526495404
 30
0.0
 10
90.6619074017
 20
26.5239860432
 30
0.0
 10
90.6618146494
 20
26.4602482413
 30
0.0
  0
ELLIPSE
  5
42F
100
AcDbEntity
  8
A_RUNDUNGEN
100
AcDbEllipse
 62
7
  6
CONTINUOUS
 10
75.2420902486
 20
22.0798738529
 30
0.0
 11
-0.5656961947
 21
0.5656961949
 31
0.0
 40
0.9999809617
 41
2.3562040094
 42
3.9269812978
  0
ELLIPSE
  5
430
100
AcDbEntity
  8
A_RUNDUNGEN
100
AcDbEllipse
 62
7
  6
CONTINUOUS
 10
64.5420978641
 20
21.7798709989
 30
0.0
 11
-0.0000000001
 21
-0.5000047597
 31
0.0
 40
0.9999904807
 41
-1.5707963268
 42
0.0
  0
ELLIPSE
  5
431
100
AcDbEntity
  8
A_RUNDUNGEN
100
AcDbEllipse
 62
7
  6
CONTINUOUS
 10
68.2540834353
 20
51.8856216686
 30
0.0
 11
0.2828480975
 21
0.2828480974
 31
0.0
 40
0.9999809617
 41
2.9470100151
 42
3.9269812978
  0
ELLIPSE
  5
432
100
AcDbEntity
  8
A_RUNDUNGEN
100
AcDbEllipse
 62
7
  6
CONTINUOUS
 10
96.3478447312
 20
48.6337185248
 30
0.0
 11
0.4619449181
 21
0.1913438501
 31
0.0
 40
0.9999888475
 41
-0.3926951387
 42
0.3926951387
  0
ELLIPSE
  5
433
100
AcDbEntity
  8
A_RUNDUNGEN
100
AcDbEllipse
 62
7
  6
CONTINUOUS
 10
96.3478447287
 20
33.8996103254
 30
0.0
 11
-0.4619449181
 21
0.1913438502
 31
0.0
 40
0.9999888475
 41
2.7488975149
 42
3.5342877923
  0
ELLIPSE
  5
434
100
AcDbEntity
  8
A_RUNDUNGEN
100
AcDbEllipse
 62
7
  6
CONTINUOUS
 10
64.5420978691
 20
51.4856131018
 30
0.0
 11
0.0000000001
 21
0.5000047597
 31
0.0
 40
0.9999904807
 41
0.0
 42
1.5707963268
  0
ELLIPSE
  5
435
100
AcDbEntity
  8
A_RUNDUNGEN
100
AcDbEllipse
 62
7
  6
CONTINUOUS
 10
89.6101676609
 20
24.174109853
 30
0.0
 11
-0.1913438501
 21
0.4619449181
 31
0.0
 40
0.9999888475
 41
-0.3926951387
 42
0.3926951387
  0
ELLIPSE
  5
436
100
AcDbEntity
  8
A_RUNDUNGEN
100
AcDbEllipse
 62
7
  6
CONTINUOUS
 10
88.6101676655
 20
50.7856226171
 30
0.0
 11
0.1913438502
 21
0.4619449181
 31
0.0
 40
0.9999888475
 41
-3.5342877923
 42
-2.7488975149
  0
ELLIPSE
  5
437
100
AcDbEntity
  8
A_RUNDUNGEN
100
AcDbEllipse
 62
7
  6
CONTINUOUS
 10
65.7920978651
 20
28.0912243597
 30
0.0
 11
-0.0000000003
 21
-1.7504364301
 31
0.0
 40
0.9997506736
 41
-1.9723117489
 42
-1.5707963268
  0
ENDSEC
  0
SECTION
  2
OBJECTS
  0
DICTIONARY
  5
438
100
AcDbDictionary
  3
ACAD_GROUP
350
439
  3
ACAD_MLINESTYLE
350
43A
  0
DICTIONARY
  5
439
102
{ACAD_REACTORS
330
438
102
}
100
AcDbDictionary
  0
DICTIONARY
  5
43A
102
{ACAD_REACTORS
330
438
102
}
100
AcDbDictionary
  3
STANDARD
350
43B
  0
MLINESTYLE
  5
43B
102
{ACAD_REACTORS
330
43A
102
}
100
AcDbMlineStyle
  2
STANDARD
 70
0
  3

 62
256
 51
90.0
 52
90.0
 71
2
 49
0.5
 62
256
  6
BYLAYER
 49
-0.5
 62
256
  6
BYLAYER
  0
ENDSEC
  0
EOF
