999
DXF file: d:\tmp\workingDir\0000087157\te_540_640_3d_sz_q01_01.dxf
999
Pro/ENGINEER 2016380 by Parametric Technology Corporation
  0
SECTION
  2
HEADER
  9
$ACADVER
  1
AC1014
  9
$DWGCODEPAGE
  3
ANSI_1252
  9
$EXTMAX
 10
139.954
 20
100.0
 30
0.0
  9
$EXTMIN
 10
0.0
 20
-0.0
 30
0.0
  9
$LIMMIN
 10
0.0
 20
-0.0
  9
$LIMMAX
 10
139.954
 20
100.0
  9
$VIEWCTR
 10
69.977
 20
50.0
  9
$VIEWSIZE
 40
100.0
  9
$CLAYER
  8
0
  9
$LTSCALE
 40
7.69747
  9
$CELTYPE
  6
BYLAYER
  9
$DIMSCALE
 40
1.0
  9
$DIMASZ
 40
3.5
  9
$DIMEXO
 40
0.0
  9
$DIMDLI
 40
5.318252
  9
$DIMEXE
 40
2.0
  9
$DIMCEN
 40
1.259586
  9
$DIMLFAC
 40
1.0
  9
$DIMBLK
  1
_ARROW_FILLED
  9
$DIMALT
 70
0
  9
$DIMALTF
 40
25.4
  9
$DIMTXT
 40
3.5
  9
$DIMTOL
 70
1
  9
$DIMLIM
 70
0
  9
$DIMTFAC
 40
1.0
  9
$DIMTP
 40
0.01
  9
$DIMTM
 40
0.01
  9
$DIMGAP
 40
0.625
  9
$AUNITS
 70
0
  9
$PDMODE
 70
0
  9
$PDSIZE
 40
0.04
  9
$HANDSEED
  5
49C
  9
$TILEMODE
 70
1
  9
$MEASUREMENT
 70
1
  0
ENDSEC
  0
SECTION
  2
CLASSES
  0
ENDSEC
  0
SECTION
  2
TABLES
  0
TABLE
  2
VPORT
  5
8
100
AcDbSymbolTable
 70
2
  0
VPORT
  5
1F4
100
AcDbSymbolTableRecord
100
AcDbViewportTableRecord
  2
*ACTIVE
 70
0
 10
0.0
 20
0.0
 11
1.0
 21
1.0
 12
69.977
 22
50.0
 13
0.0
 23
0.0
 14
1.0
 24
1.0
 15
0.0
 25
0.0
 16
0.0
 26
0.0
 36
1.0
 17
0.0
 27
0.0
 37
0.0
 40
100.0
 41
1.39954
 42
50.0
 43
0.0
 44
0.0
 50
0.0
 51
0.0
 71
0
 72
100
 73
1
 74
1
 75
0
 76
0
 77
0
 78
0
  0
ENDTAB
  0
TABLE
  2
LTYPE
  5
5
100
AcDbSymbolTable
 70
6
  0
LTYPE
  5
14
100
AcDbSymbolTableRecord
100
AcDbLinetypeTableRecord
  2
BYBLOCK
 70
0
  3

 72
65
 73
0
 40
0.0
  0
LTYPE
  5
15
100
AcDbSymbolTableRecord
100
AcDbLinetypeTableRecord
  2
BYLAYER
 70
0
  3

 72
65
 73
0
 40
0.0
  0
LTYPE
  5
16
100
AcDbSymbolTableRecord
100
AcDbLinetypeTableRecord
  2
CONTINUOUS
 70
64
  3
Solid line
 72
65
 73
0
 40
0.0
  0
LTYPE
  5
1F5
100
AcDbSymbolTableRecord
100
AcDbLinetypeTableRecord
  2
CENTER
 70
64
  3
____ _ ____ _ ____ _ ____ _ ____ _ ____ _ ____
 72
65
 73
4
 40
0.6
 49
0.375
 74
0
 49
-0.075
 74
0
 49
0.075
 74
0
 49
-0.075
 74
0
  0
LTYPE
  5
1F6
100
AcDbSymbolTableRecord
100
AcDbLinetypeTableRecord
  2
HIDDEN
 70
64
  3
- - - - - - - - - - - - - - - - - - - -
 72
65
 73
2
 40
0.2
 49
0.1
 74
0
 49
-0.1
 74
0
  0
LTYPE
  5
1F7
100
AcDbSymbolTableRecord
100
AcDbLinetypeTableRecord
  2
PHANTOM
 70
64
  3
_____ _ _ _____ _ _ _____ _ _ _____
 72
65
 73
6
 40
0.8
 49
0.45
 74
0
 49
-0.05
 74
0
 49
0.1
 74
0
 49
-0.05
 74
0
 49
0.1
 74
0
 49
-0.05
 74
0
  0
LTYPE
  5
1F8
100
AcDbSymbolTableRecord
100
AcDbLinetypeTableRecord
  2
DOT
 70
64
  3
. . . . . . . . . . . . . . . . . . . .
 72
65
 73
2
 40
0.2
 49
0.1
 74
0
 49
-0.1
 74
0
  0
LTYPE
  5
1F9
100
AcDbSymbolTableRecord
100
AcDbLinetypeTableRecord
  2
DASHED
 70
64
  3
- - - - - - - - - - - - - - - - - - - -
 72
65
 73
2
 40
0.2
 49
0.1
 74
0
 49
-0.1
 74
0
  0
ENDTAB
  0
TABLE
  2
LAYER
  5
2
100
AcDbSymbolTable
 70
36
  0
LAYER
  5
10
100
AcDbSymbolTableRecord
100
AcDbLayerTableRecord
  2
0
 70
0
 62
7
  6
CONTINUOUS
  0
LAYER
  5
1FA
100
AcDbSymbolTableRecord
100
AcDbLayerTableRecord
  2
DEFAULT_1
 70
0
 62
7
  6
CENTER
  0
LAYER
  5
1FB
100
AcDbSymbolTableRecord
100
AcDbLayerTableRecord
  2
DEFAULT_2
 70
0
 62
8
  6
HIDDEN
  0
LAYER
  5
1FC
100
AcDbSymbolTableRecord
100
AcDbLayerTableRecord
  2
DEFAULT_3
 70
0
 62
7
  6
PHANTOM
  0
LAYER
  5
1FD
100
AcDbSymbolTableRecord
100
AcDbLayerTableRecord
  2
A_ACHSEN
 70
0
 62
7
  6
CONTINUOUS
  0
LAYER
  5
1FE
100
AcDbSymbolTableRecord
100
AcDbLayerTableRecord
  2
A_BASISEBENEN
 70
0
 62
7
  6
CONTINUOUS
  0
LAYER
  5
1FF
100
AcDbSymbolTableRecord
100
AcDbLayerTableRecord
  2
A_BEMASSUNGEN
 70
0
 62
7
  6
CONTINUOUS
  0
LAYER
  5
200
100
AcDbSymbolTableRecord
100
AcDbLayerTableRecord
  2
A_BOHRUNGEN
 70
0
 62
7
  6
CONTINUOUS
  0
LAYER
  5
201
100
AcDbSymbolTableRecord
100
AcDbLayerTableRecord
  2
A_EBENEN
 70
0
 62
7
  6
CONTINUOUS
  0
LAYER
  5
202
100
AcDbSymbolTableRecord
100
AcDbLayerTableRecord
  2
A_FASEN
 70
0
 62
7
  6
CONTINUOUS
  0
LAYER
  5
203
100
AcDbSymbolTableRecord
100
AcDbLayerTableRecord
  2
A_FLAECHEN
 70
0
 62
7
  6
CONTINUOUS
  0
LAYER
  5
204
100
AcDbSymbolTableRecord
100
AcDbLayerTableRecord
  2
A_FL_VERBAENDE
 70
0
 62
7
  6
CONTINUOUS
  0
LAYER
  5
205
100
AcDbSymbolTableRecord
100
AcDbLayerTableRecord
  2
A_KURVEN
 70
0
 62
7
  6
CONTINUOUS
  0
LAYER
  5
206
100
AcDbSymbolTableRecord
100
AcDbLayerTableRecord
  2
A_NOTIZEN_SYMB
 70
0
 62
7
  6
CONTINUOUS
  0
LAYER
  5
207
100
AcDbSymbolTableRecord
100
AcDbLayerTableRecord
  2
A_PUNKTE
 70
0
 62
7
  6
CONTINUOUS
  0
LAYER
  5
208
100
AcDbSymbolTableRecord
100
AcDbLayerTableRecord
  2
A_RUNDUNGEN
 70
0
 62
7
  6
CONTINUOUS
  0
LAYER
  5
209
100
AcDbSymbolTableRecord
100
AcDbLayerTableRecord
  2
BASISEBENEN
 70
0
 62
7
  6
CONTINUOUS
  0
LAYER
  5
20A
100
AcDbSymbolTableRecord
100
AcDbLayerTableRecord
  2
XSEC_DATUMS
 70
0
 62
7
  6
CONTINUOUS
  0
ENDTAB
  0
TABLE
  2
STYLE
  5
3
100
AcDbSymbolTable
 70
1
  0
STYLE
  5
11
100
AcDbSymbolTableRecord
100
AcDbTextStyleTableRecord
  2
STANDARD
 70
0
 40
0.0
 41
1.0
 50
0.0
 71
0
 42
0.2
  3
txt
  4

  0
STYLE
  5
20B
100
AcDbSymbolTableRecord
100
AcDbTextStyleTableRecord
  2
TEXTSTYLE_1
 70
0
 40
0.0
 41
0.8
 50
0.0
 71
0
 42
0.2
  3
gdt
  4

  0
STYLE
  5
20C
100
AcDbSymbolTableRecord
100
AcDbTextStyleTableRecord
  2
TEXTSTYLE_2
 70
0
 40
0.0
 41
1.0
 50
0.0
 71
0
 42
0.2
  3
txt
  4

  0
ENDTAB
  0
TABLE
  2
VIEW
  5
6
100
AcDbSymbolTable
 70
0
  0
ENDTAB
  0
TABLE
  2
UCS
  5
7
100
AcDbSymbolTable
 70
0
  0
ENDTAB
  0
TABLE
  2
APPID
  5
9
100
AcDbSymbolTable
 70
1
  0
APPID
  5
20D
100
AcDbSymbolTableRecord
100
AcDbRegAppTableRecord
  2
ACAD
 70
0
  0
ENDTAB
  0
TABLE
  2
BLOCK_RECORD
  5
1
100
AcDbSymbolTable
 70
0
  0
BLOCK_RECORD
  5
1F
100
AcDbSymbolTableRecord
100
AcDbBlockTableRecord
  2
*MODEL_SPACE
  0
BLOCK_RECORD
  5
1B
100
AcDbSymbolTableRecord
100
AcDbBlockTableRecord
  2
*PAPER_SPACE
  0
BLOCK_RECORD
  5
20E
100
AcDbSymbolTableRecord
100
AcDbBlockTableRecord
  2
_ARROW_FILLED
  0
BLOCK_RECORD
  5
20F
100
AcDbSymbolTableRecord
100
AcDbBlockTableRecord
  2
*D0
  0
BLOCK_RECORD
  5
210
100
AcDbSymbolTableRecord
100
AcDbBlockTableRecord
  2
*D1
  0
BLOCK_RECORD
  5
211
100
AcDbSymbolTableRecord
100
AcDbBlockTableRecord
  2
*D2
  0
BLOCK_RECORD
  5
212
100
AcDbSymbolTableRecord
100
AcDbBlockTableRecord
  2
*D3
  0
BLOCK_RECORD
  5
213
100
AcDbSymbolTableRecord
100
AcDbBlockTableRecord
  2
*D4
  0
BLOCK_RECORD
  5
214
100
AcDbSymbolTableRecord
100
AcDbBlockTableRecord
  2
*D5
  0
BLOCK_RECORD
  5
215
100
AcDbSymbolTableRecord
100
AcDbBlockTableRecord
  2
*D6
  0
BLOCK_RECORD
  5
216
100
AcDbSymbolTableRecord
100
AcDbBlockTableRecord
  2
*D7
  0
ENDTAB
  0
TABLE
  2
DIMSTYLE
  5
A
100
AcDbSymbolTable
 70
1
  0
DIMSTYLE
105
217
100
AcDbSymbolTableRecord
100
AcDbDimStyleTableRecord
  2
STANDARD
 70
0
  3

  4

  5
_ARROW_FILLED
  6
_ARROW_FILLED
  7
_ARROW_FILLED
 40
1.0
 41
3.5
 42
0.0
 43
0.38
 44
2.0
 45
0.0
 46
0.0
 47
0.01
 48
0.01
140
3.5
141
0.09
142
0.0
143
25.4
144
1.0
145
0.0
146
1.0
147
0.625
 71
1.0
 72
0.0
 73
0
 74
0
 75
0
 76
0
 77
1
 78
8
170
0
171
1
172
0
173
0
174
0
175
0
176
0
177
0
178
5
270
2
271
2
272
2
273
2
274
2
275
0
280
0
281
0
282
0
283
1
284
8
285
0
286
0
287
3
288
0
340
11
  0
DIMSTYLE
105
218
100
AcDbSymbolTableRecord
100
AcDbDimStyleTableRecord
  2
DIMSTYLE_1
 70
0
  3

  4

  5
_ARROW_FILLED
  6
_ARROW_FILLED
  7
_ARROW_FILLED
 40
1.0
 41
3.5
 42
0.0
 43
0.38
 44
2.0
 45
0.0
 46
0.0
 47
0.1
 48
0.1
140
3.5
141
0.09
142
0.0
143
25.4
144
1.0
145
0.0
146
1.0
147
0.875
 71
0.0
 72
0.0
 73
0
 74
0
 75
0
 76
0
 77
1
 78
8
170
0
171
1
172
0
173
0
174
0
175
0
176
0
177
0
178
5
270
2
271
0
272
-1
273
2
274
2
275
0
280
0
281
0
282
0
283
1
284
8
285
0
286
0
287
3
288
0
340
20C
  0
DIMSTYLE
105
219
100
AcDbSymbolTableRecord
100
AcDbDimStyleTableRecord
  2
DIMSTYLE_2
 70
0
  3

  4

  5
_ARROW_FILLED
  6
_ARROW_FILLED
  7
_ARROW_FILLED
 40
1.0
 41
3.5
 42
0.0
 43
0.38
 44
2.0
 45
0.0
 46
0.0
 47
0.3
 48
0.3
140
3.5
141
0.09
142
0.0
143
25.4
144
1.0
145
0.0
146
1.0
147
0.875
 71
0.0
 72
0.0
 73
0
 74
0
 75
0
 76
0
 77
1
 78
8
170
0
171
1
172
0
173
0
174
0
175
0
176
0
177
0
178
5
270
2
271
4
272
-1
273
2
274
2
275
0
280
0
281
0
282
0
283
1
284
8
285
0
286
0
287
3
288
0
340
20C
  0
DIMSTYLE
105
21A
100
AcDbSymbolTableRecord
100
AcDbDimStyleTableRecord
  2
DIMSTYLE_3
 70
0
  3

  4

  5
_ARROW_FILLED
  6
_ARROW_FILLED
  7
_ARROW_FILLED
 40
1.0
 41
3.5
 42
0.0
 43
0.38
 44
2.0
 45
0.0
 46
0.0
 47
0.1
 48
0.1
140
3.5
141
0.09
142
0.0
143
25.4
144
1.0
145
0.0
146
1.0
147
0.875
 71
0.0
 72
0.0
 73
0
 74
0
 75
0
 76
0
 77
1
 78
8
170
0
171
1
172
0
173
0
174
0
175
0
176
0
177
0
178
5
270
2
271
1
272
-1
273
2
274
2
275
0
280
0
281
0
282
0
283
1
284
8
285
0
286
0
287
3
288
0
340
20C
  0
DIMSTYLE
105
21B
100
AcDbSymbolTableRecord
100
AcDbDimStyleTableRecord
  2
DIMSTYLE_4
 70
0
  3

  4

  5
_ARROW_FILLED
  6
_ARROW_FILLED
  7
_ARROW_FILLED
 40
1.0
 41
3.5
 42
0.0
 43
0.38
 44
2.0
 45
0.0
 46
0.0
 47
0.1
 48
0.1
140
3.5
141
0.09
142
0.0
143
25.4
144
1.0
145
0.0
146
1.0
147
0.875
 71
0.0
 72
0.0
 73
0
 74
0
 75
0
 76
0
 77
1
 78
8
170
0
171
1
172
0
173
0
174
0
175
0
176
0
177
0
178
5
270
2
271
2
272
-1
273
2
274
2
275
0
280
0
281
0
282
0
283
1
284
8
285
0
286
0
287
3
288
0
340
20C
  0
DIMSTYLE
105
21C
100
AcDbSymbolTableRecord
100
AcDbDimStyleTableRecord
  2
DIMSTYLE_5
 70
0
  3

  4

  5
_ARROW_FILLED
  6
_ARROW_FILLED
  7
_ARROW_FILLED
 40
1.0
 41
3.5
 42
0.0
 43
0.38
 44
2.0
 45
0.0
 46
0.0
 47
0.3
 48
0.3
140
3.5
141
0.09
142
0.0
143
25.4
144
1.0
145
0.0
146
1.0
147
0.875
 71
0.0
 72
0.0
 73
0
 74
0
 75
0
 76
0
 77
1
 78
8
170
0
171
1
172
0
173
0
174
0
175
0
176
0
177
0
178
5
270
2
271
0
272
-1
273
2
274
2
275
0
280
0
281
0
282
0
283
1
284
8
285
0
286
0
287
3
288
0
340
20C
  0
ENDTAB
  0
ENDSEC
  0
SECTION
  2
BLOCKS
  0
BLOCK
  5
20
100
AcDbEntity
  8
0
100
AcDbBlockBegin
  2
*MODEL_SPACE
 70
0
 10
0.0
 20
0.0
 30
0.0
  3
*MODEL_SPACE
  1

  0
ENDBLK
  5
21
100
AcDbEntity
  8
0
100
AcDbBlockEnd
  0
BLOCK
  5
1C
100
AcDbEntity
  8
0
100
AcDbBlockBegin
  2
*PAPER_SPACE
 70
0
 10
0.0
 20
0.0
 30
0.0
  3
*PAPER_SPACE
  1

  0
ENDBLK
  5
1D
100
AcDbEntity
  8
0
100
AcDbBlockEnd
  0
BLOCK
  5
21D
100
AcDbEntity
  8
0
100
AcDbBlockBegin
  2
_ARROW_FILLED
 70
64
 10
0.0
 20
0.0
  3
_ARROW_FILLED
  1

  0
SOLID
  5
21E
100
AcDbEntity
  8
0
  6
BYBLOCK
 62
0
100
AcDbTrace
 10
0.0
 20
0.0
 11
-1.0
 21
0.1428571429
 12
-1.0
 22
-0.1428571429
 13
-1.0
 23
-0.1428571429
  0
ENDBLK
  5
21F
100
AcDbEntity
  8
0
  6
BYBLOCK
 62
0
100
AcDbBlockEnd
  0
BLOCK
  5
220
100
AcDbEntity
  8
A_BEMASSUNGEN
100
AcDbBlockBegin
 62
2
  6
CONTINUOUS
  2
*D0
 70
65
 10
0.0
 20
0.0
  3
*D0
  1

  0
MTEXT
  5
221
100
AcDbEntity
  8
A_BEMASSUNGEN
100
AcDbMText
 62
5
  6
CONTINUOUS
  7
TEXTSTYLE_2
 71
3
 72
1
 10
129.5564662423
 20
18.5908091486
 30
0.0
 11
0.0
 21
1.0
 31
0.0
  1
4
 40
3.5
 41
4.125
  0
LINE
  5
222
100
AcDbEntity
  8
A_BEMASSUNGEN
100
AcDbLine
 62
2
  6
CONTINUOUS
 10
100.3184672545
 20
25.7898149174
 11
123.9148105466
 21
25.7898149174
  0
LINE
  5
223
100
AcDbEntity
  8
A_BEMASSUNGEN
100
AcDbLine
 62
2
  6
CONTINUOUS
 10
127.2833374445
 20
25.7898149174
 11
135.9314662423
 21
25.7898149174
  0
LINE
  5
224
100
AcDbEntity
  8
A_BEMASSUNGEN
100
AcDbLine
 62
2
  6
CONTINUOUS
 10
118.8184672545
 20
21.5898149174
 11
135.9314662423
 21
21.5898149174
  0
LINE
  5
225
100
AcDbEntity
  8
A_BEMASSUNGEN
100
AcDbLine
 62
2
  6
CONTINUOUS
 10
133.9314662423
 20
25.7898149174
 11
133.9314662423
 21
33.2898149174
  0
LINE
  5
226
100
AcDbEntity
  8
A_BEMASSUNGEN
100
AcDbLine
 62
2
  6
CONTINUOUS
 10
133.9314662423
 20
33.2898149174
 11
133.9314662423
 21
23.6898149174
  0
LINE
  5
227
100
AcDbEntity
  8
A_BEMASSUNGEN
100
AcDbLine
 62
2
  6
CONTINUOUS
 10
133.9314662423
 20
21.5898149174
 11
133.9314662423
 21
15.8408091486
  0
LINE
  5
228
100
AcDbEntity
  8
A_BEMASSUNGEN
100
AcDbLine
 62
2
  6
CONTINUOUS
 10
133.9314662423
 20
15.8408091486
 11
133.9314662423
 21
23.6898149174
  0
INSERT
  5
229
100
AcDbEntity
  8
A_BEMASSUNGEN
100
AcDbBlockReference
 62
2
  6
CONTINUOUS
  2
_ARROW_FILLED
 10
133.9314662423
 20
25.7898149174
 41
3.5
 42
3.5
 43
3.5
 50
270.0
  0
INSERT
  5
22A
100
AcDbEntity
  8
A_BEMASSUNGEN
100
AcDbBlockReference
 62
2
  6
CONTINUOUS
  2
_ARROW_FILLED
 10
133.9314662423
 20
21.5898149174
 41
3.5
 42
3.5
 43
3.5
 50
90.0
  0
ENDBLK
  5
22B
100
AcDbEntity
  8
0
  6
BYBLOCK
 62
0
100
AcDbBlockEnd
  0
BLOCK
  5
22C
100
AcDbEntity
  8
A_BEMASSUNGEN
100
AcDbBlockBegin
 62
2
  6
CONTINUOUS
  2
*D1
 70
65
 10
0.0
 20
0.0
  3
*D1
  1

  0
MTEXT
  5
22D
100
AcDbEntity
  8
A_BEMASSUNGEN
100
AcDbMText
 62
5
  6
CONTINUOUS
  7
TEXTSTYLE_2
 71
2
 72
1
 10
129.5564662423
 20
41.7898149174
 30
0.0
 11
0.0
 21
1.0
 31
0.0
  1
32
 40
3.5
 41
7.875
  0
LINE
  5
22E
100
AcDbEntity
  8
A_BEMASSUNGEN
100
AcDbLine
 62
2
  6
CONTINUOUS
 10
100.3184672545
 20
57.7898149174
 11
135.9314662423
 21
57.7898149174
  0
LINE
  5
22F
100
AcDbEntity
  8
A_BEMASSUNGEN
100
AcDbLine
 62
2
  6
CONTINUOUS
 10
128.020830251
 20
25.7898149174
 11
135.9314662423
 21
25.7898149174
  0
LINE
  5
230
100
AcDbEntity
  8
A_BEMASSUNGEN
100
AcDbLine
 62
2
  6
CONTINUOUS
 10
133.9314662423
 20
57.7898149174
 11
133.9314662423
 21
41.7898149174
  0
LINE
  5
231
100
AcDbEntity
  8
A_BEMASSUNGEN
100
AcDbLine
 62
2
  6
CONTINUOUS
 10
133.9314662423
 20
25.7898149174
 11
133.9314662423
 21
41.7898149174
  0
INSERT
  5
232
100
AcDbEntity
  8
A_BEMASSUNGEN
100
AcDbBlockReference
 62
2
  6
CONTINUOUS
  2
_ARROW_FILLED
 10
133.9314662423
 20
57.7898149174
 41
3.5
 42
3.5
 43
3.5
 50
90.0
  0
INSERT
  5
233
100
AcDbEntity
  8
A_BEMASSUNGEN
100
AcDbBlockReference
 62
2
  6
CONTINUOUS
  2
_ARROW_FILLED
 10
133.9314662423
 20
25.7898149174
 41
3.5
 42
3.5
 43
3.5
 50
270.0
  0
ENDBLK
  5
234
100
AcDbEntity
  8
0
  6
BYBLOCK
 62
0
100
AcDbBlockEnd
  0
BLOCK
  5
235
100
AcDbEntity
  8
A_BEMASSUNGEN
100
AcDbBlockBegin
 62
2
  6
CONTINUOUS
  2
*D2
 70
65
 10
0.0
 20
0.0
  3
*D2
  1

  0
MTEXT
  5
236
100
AcDbEntity
  8
A_BEMASSUNGEN
100
AcDbMText
 62
5
  6
CONTINUOUS
  7
TEXTSTYLE_2
 71
1
 72
1
 10
69.9434850323
 20
15.7717951478
 30
0.0
 11
1.0
 21
0.0
 31
0.0
  1
3.5
 40
3.5
 41
10.5
  0
LINE
  5
237
100
AcDbEntity
  8
A_BEMASSUNGEN
100
AcDbLine
 62
2
  6
CONTINUOUS
 10
63.8184672545
 20
21.5898149174
 11
63.8184672545
 21
9.3967951478
  0
LINE
  5
238
100
AcDbEntity
  8
A_BEMASSUNGEN
100
AcDbLine
 62
2
  6
CONTINUOUS
 10
60.3447075066
 20
22.8640437073
 11
60.3447075066
 21
9.3967951478
  0
LINE
  5
239
100
AcDbEntity
  8
A_BEMASSUNGEN
100
AcDbLine
 62
2
  6
CONTINUOUS
 10
63.8184672545
 20
11.3967951478
 11
76.9434850323
 21
11.3967951478
  0
LINE
  5
23A
100
AcDbEntity
  8
A_BEMASSUNGEN
100
AcDbLine
 62
2
  6
CONTINUOUS
 10
76.9434850323
 20
11.3967951478
 11
62.0815873806
 21
11.3967951478
  0
LINE
  5
23B
100
AcDbEntity
  8
A_BEMASSUNGEN
100
AcDbLine
 62
2
  6
CONTINUOUS
 10
60.3447075066
 20
11.3967951478
 11
52.8447075066
 21
11.3967951478
  0
LINE
  5
23C
100
AcDbEntity
  8
A_BEMASSUNGEN
100
AcDbLine
 62
2
  6
CONTINUOUS
 10
52.8447075066
 20
11.3967951478
 11
62.0815873806
 21
11.3967951478
  0
INSERT
  5
23D
100
AcDbEntity
  8
A_BEMASSUNGEN
100
AcDbBlockReference
 62
2
  6
CONTINUOUS
  2
_ARROW_FILLED
 10
63.8184672545
 20
11.3967951478
 41
3.5
 42
3.5
 43
3.5
 50
180.0
  0
INSERT
  5
23E
100
AcDbEntity
  8
A_BEMASSUNGEN
100
AcDbBlockReference
 62
2
  6
CONTINUOUS
  2
_ARROW_FILLED
 10
60.3447075066
 20
11.3967951478
 41
3.5
 42
3.5
 43
3.5
  0
ENDBLK
  5
23F
100
AcDbEntity
  8
0
  6
BYBLOCK
 62
0
100
AcDbBlockEnd
  0
BLOCK
  5
240
100
AcDbEntity
  8
A_BEMASSUNGEN
100
AcDbBlockBegin
 62
2
  6
CONTINUOUS
  2
*D3
 70
65
 10
0.0
 20
0.0
  3
*D3
  1

  0
MTEXT
  5
241
100
AcDbEntity
  8
A_BEMASSUNGEN
100
AcDbMText
 62
5
  6
CONTINUOUS
  7
TEXTSTYLE_2
 71
2
 72
1
 10
41.3447075213
 20
7.2197589321
 30
0.0
 11
1.0
 21
0.0
 31
0.0
  1
38
 40
3.5
 41
7.875
  0
LINE
  5
242
100
AcDbEntity
  8
A_BEMASSUNGEN
100
AcDbLine
 62
2
  6
CONTINUOUS
 10
60.3447075066
 20
22.8640437073
 11
60.3447075228
 21
0.8447589461
  0
LINE
  5
243
100
AcDbEntity
  8
A_BEMASSUNGEN
100
AcDbLine
 62
2
  6
CONTINUOUS
 10
22.3447075018
 20
29.3140436794
 11
22.3447075228
 21
0.8447589182
  0
LINE
  5
244
100
AcDbEntity
  8
A_BEMASSUNGEN
100
AcDbLine
 62
2
  6
CONTINUOUS
 10
60.3447075213
 20
2.8447589461
 11
41.3447075213
 21
2.8447589321
  0
LINE
  5
245
100
AcDbEntity
  8
A_BEMASSUNGEN
100
AcDbLine
 62
2
  6
CONTINUOUS
 10
22.3447075213
 20
2.8447589182
 11
41.3447075213
 21
2.8447589321
  0
INSERT
  5
246
100
AcDbEntity
  8
A_BEMASSUNGEN
100
AcDbBlockReference
 62
2
  6
CONTINUOUS
  2
_ARROW_FILLED
 10
60.3447075213
 20
2.8447589461
 41
3.5
 42
3.5
 43
3.5
 50
0.0000000422
  0
INSERT
  5
247
100
AcDbEntity
  8
A_BEMASSUNGEN
100
AcDbBlockReference
 62
2
  6
CONTINUOUS
  2
_ARROW_FILLED
 10
22.3447075213
 20
2.8447589182
 41
3.5
 42
3.5
 43
3.5
 50
180.0000000422
  0
ENDBLK
  5
248
100
AcDbEntity
  8
0
  6
BYBLOCK
 62
0
100
AcDbBlockEnd
  0
BLOCK
  5
249
100
AcDbEntity
  8
A_BEMASSUNGEN
100
AcDbBlockBegin
 62
2
  6
CONTINUOUS
  2
*D4
 70
65
 10
0.0
 20
0.0
  3
*D4
  1

  0
MTEXT
  5
24A
100
AcDbEntity
  8
A_BEMASSUNGEN
100
AcDbMText
 62
5
  6
CONTINUOUS
  7
TEXTSTYLE_2
 71
2
 72
1
 10
82.0684672545
 20
7.2197589487
 30
0.0
 11
1.0
 21
0.0
 31
0.0
  1
36.5
 40
3.5
 41
14.625
  0
LINE
  5
24B
100
AcDbEntity
  8
A_BEMASSUNGEN
100
AcDbLine
 62
2
  6
CONTINUOUS
 10
63.8184672545
 20
21.5898149174
 11
63.8184672545
 21
0.8447589487
  0
LINE
  5
24C
100
AcDbEntity
  8
A_BEMASSUNGEN
100
AcDbLine
 62
2
  6
CONTINUOUS
 10
100.3184672545
 20
25.7898149174
 11
100.3184672545
 21
0.8447589487
  0
LINE
  5
24D
100
AcDbEntity
  8
A_BEMASSUNGEN
100
AcDbLine
 62
2
  6
CONTINUOUS
 10
63.8184672545
 20
2.8447589487
 11
82.0684672545
 21
2.8447589487
  0
LINE
  5
24E
100
AcDbEntity
  8
A_BEMASSUNGEN
100
AcDbLine
 62
2
  6
CONTINUOUS
 10
100.3184672545
 20
2.8447589487
 11
82.0684672545
 21
2.8447589487
  0
INSERT
  5
24F
100
AcDbEntity
  8
A_BEMASSUNGEN
100
AcDbBlockReference
 62
2
  6
CONTINUOUS
  2
_ARROW_FILLED
 10
63.8184672545
 20
2.8447589487
 41
3.5
 42
3.5
 43
3.5
 50
180.0
  0
INSERT
  5
250
100
AcDbEntity
  8
A_BEMASSUNGEN
100
AcDbBlockReference
 62
2
  6
CONTINUOUS
  2
_ARROW_FILLED
 10
100.3184672545
 20
2.8447589487
 41
3.5
 42
3.5
 43
3.5
 50
0.0
  0
ENDBLK
  5
251
100
AcDbEntity
  8
0
  6
BYBLOCK
 62
0
100
AcDbBlockEnd
  0
BLOCK
  5
252
100
AcDbEntity
  8
A_BEMASSUNGEN
100
AcDbBlockBegin
 62
2
  6
CONTINUOUS
  2
*D5
 70
65
 10
0.0
 20
0.0
  3
*D5
  1

  0
MTEXT
  5
253
100
AcDbEntity
  8
A_BEMASSUNGEN
100
AcDbMText
 62
5
  6
CONTINUOUS
  7
TEXTSTYLE_2
 71
2
 72
1
 10
4.0240954506
 20
22.8640436691
 30
0.0
 11
0.0
 21
1.0
 31
0.0
  1
5
 40
3.5
 41
3.75
  0
LINE
  5
254
100
AcDbEntity
  8
A_BEMASSUNGEN
100
AcDbLine
 62
2
  6
CONTINUOUS
 10
21.0427594927
 20
20.3640436784
 11
6.3990954524
 21
20.3640436676
  0
LINE
  5
255
100
AcDbEntity
  8
A_BEMASSUNGEN
100
AcDbLine
 62
2
  6
CONTINUOUS
 10
58.8447075048
 20
25.3640437062
 11
6.3990954488
 21
25.3640436676
  0
LINE
  5
256
100
AcDbEntity
  8
A_BEMASSUNGEN
100
AcDbLine
 62
2
  6
CONTINUOUS
 10
8.3990954524
 20
20.3640436691
 11
8.3990954579
 21
12.8640436691
  0
LINE
  5
257
100
AcDbEntity
  8
A_BEMASSUNGEN
100
AcDbLine
 62
2
  6
CONTINUOUS
 10
8.3990954579
 20
12.8640436691
 11
8.3990954506
 21
22.8640436691
  0
LINE
  5
258
100
AcDbEntity
  8
A_BEMASSUNGEN
100
AcDbLine
 62
2
  6
CONTINUOUS
 10
8.3990954488
 20
25.3640436691
 11
8.3990954432
 21
32.8640436691
  0
LINE
  5
259
100
AcDbEntity
  8
A_BEMASSUNGEN
100
AcDbLine
 62
2
  6
CONTINUOUS
 10
8.3990954432
 20
32.8640436691
 11
8.3990954506
 21
22.8640436691
  0
INSERT
  5
25A
100
AcDbEntity
  8
A_BEMASSUNGEN
100
AcDbBlockReference
 62
2
  6
CONTINUOUS
  2
_ARROW_FILLED
 10
8.3990954524
 20
20.3640436691
 41
3.5
 42
3.5
 43
3.5
 50
90.0000000422
  0
INSERT
  5
25B
100
AcDbEntity
  8
A_BEMASSUNGEN
100
AcDbBlockReference
 62
2
  6
CONTINUOUS
  2
_ARROW_FILLED
 10
8.3990954488
 20
25.3640436691
 41
3.5
 42
3.5
 43
3.5
 50
270.0000000422
  0
ENDBLK
  5
25C
100
AcDbEntity
  8
0
  6
BYBLOCK
 62
0
100
AcDbBlockEnd
  0
BLOCK
  5
25D
100
AcDbEntity
  8
A_BEMASSUNGEN
100
AcDbBlockBegin
 62
2
  6
CONTINUOUS
  2
*D6
 70
65
 10
0.0
 20
0.0
  3
*D6
  1

  0
MTEXT
  5
25E
100
AcDbEntity
  8
A_BEMASSUNGEN
100
AcDbMText
 62
5
  6
CONTINUOUS
  7
TEXTSTYLE_2
 71
3
 72
1
 10
121.5848145589
 20
16.240835845
 30
0.0
 11
0.0
 21
1.0
 31
0.0
  1
1
 40
3.5
 41
3.0
  0
LINE
  5
25F
100
AcDbEntity
  8
A_BEMASSUNGEN
100
AcDbLine
 62
2
  6
CONTINUOUS
 10
118.8184672545
 20
21.5898149174
 11
127.9598145589
 21
21.5898149174
  0
LINE
  5
260
100
AcDbEntity
  8
A_BEMASSUNGEN
100
AcDbLine
 62
2
  6
CONTINUOUS
 10
57.8447075084
 20
20.3640437055
 11
127.9598145589
 21
20.3640437055
  0
LINE
  5
261
100
AcDbEntity
  8
A_BEMASSUNGEN
100
AcDbLine
 62
2
  6
CONTINUOUS
 10
125.9598145589
 20
21.5898149174
 11
125.9598145589
 21
29.0898149174
  0
LINE
  5
262
100
AcDbEntity
  8
A_BEMASSUNGEN
100
AcDbLine
 62
2
  6
CONTINUOUS
 10
125.9598145589
 20
29.0898149174
 11
125.9598145589
 21
20.9769293115
  0
LINE
  5
263
100
AcDbEntity
  8
A_BEMASSUNGEN
100
AcDbLine
 62
2
  6
CONTINUOUS
 10
125.9598145589
 20
20.3640437055
 11
125.9598145589
 21
14.240835845
  0
LINE
  5
264
100
AcDbEntity
  8
A_BEMASSUNGEN
100
AcDbLine
 62
2
  6
CONTINUOUS
 10
125.9598145589
 20
14.240835845
 11
125.9598145589
 21
20.9769293115
  0
INSERT
  5
265
100
AcDbEntity
  8
A_BEMASSUNGEN
100
AcDbBlockReference
 62
2
  6
CONTINUOUS
  2
_ARROW_FILLED
 10
125.9598145589
 20
21.5898149174
 41
3.5
 42
3.5
 43
3.5
 50
270.0
  0
INSERT
  5
266
100
AcDbEntity
  8
A_BEMASSUNGEN
100
AcDbBlockReference
 62
2
  6
CONTINUOUS
  2
_ARROW_FILLED
 10
125.9598145589
 20
20.3640437055
 41
3.5
 42
3.5
 43
3.5
 50
90.0
  0
ENDBLK
  5
267
100
AcDbEntity
  8
0
  6
BYBLOCK
 62
0
100
AcDbBlockEnd
  0
BLOCK
  5
268
100
AcDbEntity
  8
A_BEMASSUNGEN
100
AcDbBlockBegin
 62
2
  6
CONTINUOUS
  2
*D7
 70
65
 10
0.0
 20
0.0
  3
*D7
  1

  0
MTEXT
  5
269
100
AcDbEntity
  8
A_BEMASSUNGEN
100
AcDbMText
 62
5
  6
CONTINUOUS
  7
TEXTSTYLE_2
 71
2
 72
1
 10
4.0240954524
 20
41.3890437067
 30
0.0
 11
0.0
 21
1.0
 31
0.0
  1
32
 40
3.5
 41
7.875
  0
LINE
  5
26A
100
AcDbEntity
  8
A_BEMASSUNGEN
100
AcDbLine
 62
2
  6
CONTINUOUS
 10
60.3447075048
 20
25.3640437073
 11
6.3990954524
 21
25.3640437073
  0
LINE
  5
26B
100
AcDbEntity
  8
A_BEMASSUNGEN
100
AcDbLine
 62
2
  6
CONTINUOUS
 10
58.6447074812
 20
57.4140437061
 11
6.3990954524
 21
57.4140437061
  0
LINE
  5
26C
100
AcDbEntity
  8
A_BEMASSUNGEN
100
AcDbLine
 62
2
  6
CONTINUOUS
 10
8.3990954524
 20
25.3640437073
 11
8.3990954524
 21
41.3890437067
  0
LINE
  5
26D
100
AcDbEntity
  8
A_BEMASSUNGEN
100
AcDbLine
 62
2
  6
CONTINUOUS
 10
8.3990954524
 20
57.4140437061
 11
8.3990954524
 21
41.3890437067
  0
INSERT
  5
26E
100
AcDbEntity
  8
A_BEMASSUNGEN
100
AcDbBlockReference
 62
2
  6
CONTINUOUS
  2
_ARROW_FILLED
 10
8.3990954524
 20
25.3640437073
 41
3.5
 42
3.5
 43
3.5
 50
270.0
  0
INSERT
  5
26F
100
AcDbEntity
  8
A_BEMASSUNGEN
100
AcDbBlockReference
 62
2
  6
CONTINUOUS
  2
_ARROW_FILLED
 10
8.3990954524
 20
57.4140437061
 41
3.5
 42
3.5
 43
3.5
 50
90.0
  0
ENDBLK
  5
270
100
AcDbEntity
  8
0
  6
BYBLOCK
 62
0
100
AcDbBlockEnd
  0
ENDSEC
  0
SECTION
  2
ENTITIES
  0
DIMENSION
  5
271
100
AcDbEntity
  8
A_BEMASSUNGEN
100
AcDbDimension
 62
2
  6
CONTINUOUS
  2
*D0
 10
133.9314662423
 20
21.5898149174
 11
133.9314662423
 21
16.715806399
 70
160
  3
DIMSTYLE_1
100
AcDbAlignedDimension
 13
100.3184672545
 23
25.7898149174
 14
118.8184672545
 24
21.5898149174
 50
270.0
100
AcDbRotatedDimension
  0
DIMENSION
  5
272
100
AcDbEntity
  8
A_BEMASSUNGEN
100
AcDbDimension
 62
2
  6
CONTINUOUS
  2
*D1
 10
133.9314662423
 20
25.7898149174
 11
133.9314662423
 21
41.2898139156
 70
160
  3
DIMSTYLE_2
100
AcDbAlignedDimension
 13
100.3184672545
 23
57.7898149174
 14
128.020830251
 24
25.7898149174
 50
270.0
100
AcDbRotatedDimension
  0
DIMENSION
  5
273
100
AcDbEntity
  8
A_BEMASSUNGEN
100
AcDbDimension
 62
2
  6
CONTINUOUS
  2
*D2
 10
60.3447075066
 20
11.3967951478
 11
72.9434862197
 21
11.3967951478
 70
160
  3
DIMSTYLE_3
100
AcDbAlignedDimension
 13
63.8184672545
 23
21.5898149174
 14
60.3447075066
 24
22.8640437073
 50
180.0
100
AcDbRotatedDimension
  0
DIMENSION
  5
274
100
AcDbEntity
  8
A_BEMASSUNGEN
100
AcDbDimension
 62
2
  6
CONTINUOUS
  2
*D3
 10
22.3447075213
 20
2.8447589182
 11
40.8447087315
 21
2.8447589318
 70
160
  3
DIMSTYLE_2
100
AcDbAlignedDimension
 13
60.3447075066
 23
22.8640437073
 14
22.3447075018
 24
29.3140436794
 50
180.0000000422
100
AcDbRotatedDimension
  0
DIMENSION
  5
275
100
AcDbEntity
  8
A_BEMASSUNGEN
100
AcDbDimension
 62
2
  6
CONTINUOUS
  2
*D4
 10
100.3184672545
 20
2.8447589487
 11
81.5684653924
 21
2.8447589487
 70
160
  3
DIMSTYLE_2
100
AcDbAlignedDimension
 13
63.8184672545
 23
21.5898149174
 14
100.3184672545
 24
25.7898149174
100
AcDbRotatedDimension
  0
DIMENSION
  5
276
100
AcDbEntity
  8
A_BEMASSUNGEN
100
AcDbDimension
 62
2
  6
CONTINUOUS
  2
*D5
 10
8.3990954488
 20
25.3640436691
 11
8.399095451
 21
22.3640437666
 70
160
  3
DIMSTYLE_4
100
AcDbAlignedDimension
 13
21.0427594927
 23
20.3640436784
 14
58.8447075048
 24
25.3640437062
 50
90.0000000422
100
AcDbRotatedDimension
  0
DIMENSION
  5
277
100
AcDbEntity
  8
A_BEMASSUNGEN
100
AcDbDimension
 62
2
  6
CONTINUOUS
  2
*D6
 10
125.9598145589
 20
20.3640437055
 11
125.9598145589
 21
14.7408397215
 70
160
  3
DIMSTYLE_1
100
AcDbAlignedDimension
 13
118.8184672545
 23
21.5898149174
 14
57.8447075084
 24
20.3640437055
 50
270.0
100
AcDbRotatedDimension
  0
DIMENSION
  5
278
100
AcDbEntity
  8
A_BEMASSUNGEN
100
AcDbDimension
 62
2
  6
CONTINUOUS
  2
*D7
 10
8.3990954524
 20
57.4140437061
 11
8.3990954524
 21
40.8890439078
 70
160
  3
DIMSTYLE_5
100
AcDbAlignedDimension
 13
60.3447075048
 23
25.3640437073
 14
58.6447074812
 24
57.4140437061
 50
90.0
100
AcDbRotatedDimension
  0
LINE
  5
279
100
AcDbEntity
  8
0
100
AcDbLine
 62
7
  6
CONTINUOUS
 10
24.3447075054
 20
24.521150462
 11
25.6518142875
 21
23.2140436818
  0
LINE
  5
27A
100
AcDbEntity
  8
0
100
AcDbLine
 62
7
  6
CONTINUOUS
 10
18.5427594853
 20
30.3640436766
 11
18.5427594909
 21
22.8640436766
  0
LINE
  5
27B
100
AcDbEntity
  8
0
100
AcDbLine
 62
7
  6
CONTINUOUS
 10
20.0427594909
 20
22.8640436777
 11
20.0427594853
 21
30.3640436777
  0
LINE
  5
27C
100
AcDbEntity
  8
0
100
AcDbLine
 62
7
  6
CONTINUOUS
 10
22.344707484
 20
53.6140436794
 11
22.3447075018
 21
29.3140436794
  0
LINE
  5
27D
100
AcDbEntity
  8
0
100
AcDbLine
 62
7
  6
CONTINUOUS
 10
23.344707484
 20
53.6140436801
 11
23.3447075018
 21
29.3140436801
  0
LINE
  5
27E
100
AcDbEntity
  8
0
100
AcDbLine
 62
7
  6
CONTINUOUS
 10
23.3447075061
 20
23.5140436801
 11
23.3447075029
 21
27.8998301177
  0
LINE
  5
27F
100
AcDbEntity
  8
0
100
AcDbLine
 62
7
  6
CONTINUOUS
 10
23.3447074829
 20
55.0282572425
 11
23.3447074797
 21
59.4140436801
  0
LINE
  5
280
100
AcDbEntity
  8
0
100
AcDbLine
 62
7
  6
CONTINUOUS
 10
24.3447075061
 20
23.5140436808
 11
24.3447074797
 21
59.4140436808
  0
LINE
  5
281
100
AcDbEntity
  8
0
100
AcDbLine
 62
7
  6
CONTINUOUS
 10
24.7447075035
 20
27.1142457033
 11
24.7447074991
 21
33.0640436811
  0
LINE
  5
282
100
AcDbEntity
  8
A_RUNDUNGEN
100
AcDbLine
 62
7
  6
CONTINUOUS
 10
24.7447074991
 20
33.0640436811
 11
24.7447074904
 21
44.8640436811
  0
LINE
  5
283
100
AcDbEntity
  8
0
100
AcDbLine
 62
7
  6
CONTINUOUS
 10
24.7447074904
 20
44.8640436811
 11
24.7447074824
 21
55.813841659
  0
LINE
  5
284
100
AcDbEntity
  8
0
100
AcDbLine
 62
7
  6
CONTINUOUS
 10
25.2447074916
 20
43.2140436815
 11
25.2447074919
 21
42.8685521787
  0
LINE
  5
285
100
AcDbEntity
  8
0
100
AcDbLine
 62
7
  6
CONTINUOUS
 10
25.2447074976
 20
35.0595351843
 11
25.2447074979
 21
34.7140436815
  0
LINE
  5
286
100
AcDbEntity
  8
A_RUNDUNGEN
100
AcDbLine
 62
7
  6
CONTINUOUS
 10
25.2447074976
 20
35.0595351843
 11
25.2447074919
 21
42.8685521787
  0
LINE
  5
287
100
AcDbEntity
  8
0
100
AcDbLine
 62
7
  6
CONTINUOUS
 10
25.4447074996
 20
32.3640436816
 11
25.4447074997
 21
32.1970298104
  0
LINE
  5
288
100
AcDbEntity
  8
0
100
AcDbLine
 62
7
  6
CONTINUOUS
 10
25.4447075017
 20
29.570485663
 11
25.4447075022
 21
28.8640436816
  0
LINE
  5
289
100
AcDbEntity
  8
0
100
AcDbLine
 62
7
  6
CONTINUOUS
 10
25.7447074923
 20
42.3095351847
 11
25.7447074972
 21
35.6185521791
  0
LINE
  5
28A
100
AcDbEntity
  8
0
100
AcDbLine
 62
7
  6
CONTINUOUS
 10
25.7447075025
 20
28.4057861124
 11
25.7447075027
 21
28.1890955664
  0
LINE
  5
28B
100
AcDbEntity
  8
0
100
AcDbLine
 62
7
  6
CONTINUOUS
 10
25.7447075025
 20
28.4671689788
 11
25.7447074982
 21
34.2140436819
  0
LINE
  5
28C
100
AcDbEntity
  8
0
100
AcDbLine
 62
7
  6
CONTINUOUS
 10
25.7447074913
 20
43.7140436819
 11
25.7447074835
 21
54.2456845752
  0
LINE
  5
28D
100
AcDbEntity
  8
0
100
AcDbLine
 62
7
  6
CONTINUOUS
 10
26.7447075014
 20
29.9427476507
 11
26.7447074854
 21
51.6853397145
  0
LINE
  5
28E
100
AcDbEntity
  8
A_RUNDUNGEN
100
AcDbLine
 62
7
  6
CONTINUOUS
 10
26.8447074935
 20
40.6512715706
 11
26.8447074978
 21
34.8109106718
  0
LINE
  5
28F
100
AcDbEntity
  8
A_RUNDUNGEN
100
AcDbLine
 62
7
  6
CONTINUOUS
 10
26.8447074935
 20
40.6579913656
 11
26.8447074931
 21
41.2609438231
  0
LINE
  5
290
100
AcDbEntity
  8
A_RUNDUNGEN
100
AcDbLine
 62
7
  6
CONTINUOUS
 10
26.8447074906
 20
44.5524864462
 11
26.8447074862
 21
50.5536640726
  0
LINE
  5
291
100
AcDbEntity
  8
0
100
AcDbLine
 62
7
  6
CONTINUOUS
 10
26.0775025802
 20
27.9959551063
 11
28.3260234458
 21
27.1980928655
  0
LINE
  5
292
100
AcDbEntity
  8
0
100
AcDbLine
 62
7
  6
CONTINUOUS
 10
28.5193119572
 20
27.0041702509
 11
25.909202467
 21
27.9541724113
  0
LINE
  5
293
100
AcDbEntity
  8
0
100
AcDbLine
 62
7
  6
CONTINUOUS
 10
27.8447075063
 20
23.2140436834
 11
27.8447075071
 21
22.2140436834
  0
LINE
  5
294
100
AcDbEntity
  8
A_RUNDUNGEN
100
AcDbLine
 62
7
  6
CONTINUOUS
 10
28.9739122854
 20
51.6237786175
 11
28.9739122856
 21
51.2293808532
  0
LINE
  5
295
100
AcDbEntity
  8
A_RUNDUNGEN
100
AcDbLine
 62
7
  6
CONTINUOUS
 10
28.9929071404
 20
51.6301102359
 11
28.9929071407
 21
51.2383451192
  0
LINE
  5
296
100
AcDbEntity
  8
0
100
AcDbLine
 62
7
  6
CONTINUOUS
 10
30.7447074826
 20
55.4620224192
 11
30.7447074828
 21
55.2032860318
  0
LINE
  5
297
100
AcDbEntity
  8
A_RUNDUNGEN
100
AcDbLine
 62
7
  6
CONTINUOUS
 10
30.7447074828
 20
55.2032860318
 11
30.7447074833
 21
54.520559175
  0
LINE
  5
298
100
AcDbEntity
  8
0
100
AcDbLine
 62
7
  6
CONTINUOUS
 10
30.7447074841
 20
53.394606762
 11
30.7447074833
 21
54.520559175
  0
LINE
  5
299
100
AcDbEntity
  8
A_RUNDUNGEN
100
AcDbLine
 62
7
  6
CONTINUOUS
 10
26.7447074911
 20
43.9696620302
 11
27.729163289
 21
49.70731081
  0
LINE
  5
29A
100
AcDbEntity
  8
0
100
AcDbLine
 62
7
  6
CONTINUOUS
 10
21.0427594927
 20
20.3640436784
 11
57.8447075084
 21
20.3640437055
  0
LINE
  5
29B
100
AcDbEntity
  8
0
100
AcDbLine
 62
7
  6
CONTINUOUS
 10
29.7063145988
 20
28.7509581746
 11
26.9137924363
 21
29.7062043098
  0
LINE
  5
29C
100
AcDbEntity
  8
A_ACHSEN
100
AcDbLine
 62
7
  6
CENTER
 10
32.0558023016
 20
38.6064903561
 11
32.0558023016
 21
51.8995561361
  0
LINE
  5
29D
100
AcDbEntity
  8
A_RUNDUNGEN
100
AcDbLine
 62
7
  6
CONTINUOUS
 10
32.3447957088
 20
51.7525974025
 11
32.3447957091
 21
51.3213732839
  0
LINE
  5
29E
100
AcDbEntity
  8
A_RUNDUNGEN
100
AcDbLine
 62
7
  6
CONTINUOUS
 10
32.351340735
 20
51.7526545201
 11
32.3513407354
 21
51.3267140129
  0
LINE
  5
29F
100
AcDbEntity
  8
A_RUNDUNGEN
100
AcDbLine
 62
7
  6
CONTINUOUS
 10
34.7447075178
 20
28.6331502028
 11
34.7447075023
 21
28.6333754035
  0
LINE
  5
2A0
100
AcDbEntity
  8
A_RUNDUNGEN
100
AcDbLine
 62
7
  6
CONTINUOUS
 10
34.7447074988
 20
33.5189887577
 11
34.7447075027
 21
28.1985731409
  0
LINE
  5
2A1
100
AcDbEntity
  8
0
100
AcDbLine
 62
7
  6
CONTINUOUS
 10
34.7447075035
 20
27.1365669217
 11
34.7447075027
 21
28.1985731409
  0
LWPOLYLINE
  5
2A2
100
AcDbEntity
  8
0
100
AcDbPolyline
 62
7
  6
CONTINUOUS
 90
3
 70
0
 10
34.7465287873
 20
28.5980136622
 10
34.746563146
 20
28.59975354
 10
34.7446997914
 20
28.6332027743
  0
LINE
  5
2A3
100
AcDbEntity
  8
0
100
AcDbLine
 62
7
  6
CONTINUOUS
 10
92.6046120999
 20
25.9643544537
 11
98.427226906
 21
26.7826695987
  0
LINE
  5
2A4
100
AcDbEntity
  8
0
100
AcDbLine
 62
7
  6
CONTINUOUS
 10
118.8184672545
 20
21.5898149174
 11
63.8184672545
 21
21.5898149174
  0
LINE
  5
2A5
100
AcDbEntity
  8
0
100
AcDbLine
 62
7
  6
CONTINUOUS
 10
57.8447075073
 20
21.8640437055
 11
21.0427594916
 21
21.8640436784
  0
LINE
  5
2A6
100
AcDbEntity
  8
A_RUNDUNGEN
100
AcDbLine
 62
7
  6
CONTINUOUS
 10
55.8447075071
 20
22.214043704
 11
50.8790497412
 21
22.2140437004
  0
LINE
  5
2A7
100
AcDbEntity
  8
0
100
AcDbLine
 62
7
  6
CONTINUOUS
 10
27.8447075071
 20
22.2140436834
 11
24.6447075071
 21
22.2140436811
  0
LINE
  5
2A8
100
AcDbEntity
  8
0
100
AcDbLine
 62
7
  6
CONTINUOUS
 10
50.6447075071
 20
22.2140437002
 11
50.8299519311
 21
22.2140437003
  0
LINE
  5
2A9
100
AcDbEntity
  8
A_RUNDUNGEN
100
AcDbLine
 62
7
  6
CONTINUOUS
 10
55.8447075069
 20
22.414043704
 11
44.8447075069
 21
22.4140436959
  0
LINE
  5
2AA
100
AcDbEntity
  8
0
100
AcDbLine
 62
7
  6
CONTINUOUS
 10
37.8446686089
 20
22.4140436908
 11
44.8447075069
 21
22.4140436959
  0
LINE
  5
2AB
100
AcDbEntity
  8
0
100
AcDbLine
 62
7
  6
CONTINUOUS
 10
27.8447075063
 20
23.2140436834
 11
24.6447075063
 21
23.2140436811
  0
LINE
  5
2AC
100
AcDbEntity
  8
A_RUNDUNGEN
100
AcDbLine
 62
7
  6
CONTINUOUS
 10
25.5518142874
 20
23.3140436817
 11
37.8446686082
 21
23.3140436908
  0
LINE
  5
2AD
100
AcDbEntity
  8
0
100
AcDbLine
 62
7
  6
CONTINUOUS
 10
58.8447075048
 20
25.3640437062
 11
60.3447075048
 21
25.3640437073
  0
LINE
  5
2AE
100
AcDbEntity
  8
0
100
AcDbLine
 62
7
  6
CONTINUOUS
 10
37.8446686067
 20
25.4140436908
 11
44.8447075047
 21
25.4140436959
  0
LINE
  5
2AF
100
AcDbEntity
  8
A_RUNDUNGEN
100
AcDbLine
 62
7
  6
CONTINUOUS
 10
44.8447075047
 20
25.4140436959
 11
55.8447075047
 21
25.414043704
  0
LINE
  5
2B0
100
AcDbEntity
  8
A_RUNDUNGEN
100
AcDbLine
 62
7
  6
CONTINUOUS
 10
60.1447075046
 20
25.5640437072
 11
58.6447075046
 21
25.5640437061
  0
LINE
  5
2B1
100
AcDbEntity
  8
A_RUNDUNGEN
100
AcDbLine
 62
7
  6
CONTINUOUS
 10
58.6447075046
 20
25.5140437061
 11
46.7447075046
 21
25.5659675721
  0
LINE
  5
2B2
100
AcDbEntity
  8
0
100
AcDbLine
 62
7
  6
CONTINUOUS
 10
34.7420547513
 20
25.618339348
 11
46.7447075046
 21
25.5659675721
  0
LINE
  5
2B3
100
AcDbEntity
  8
0
100
AcDbLine
 62
7
  6
CONTINUOUS
 10
25.1924432722
 20
26.6169847559
 11
34.6418895973
 21
25.6238079333
  0
LINE
  5
2B4
100
AcDbEntity
  8
0
100
AcDbLine
 62
7
  6
CONTINUOUS
 10
25.3829040932
 20
42.644945381
 11
25.606510891
 21
42.5331419823
  0
LINE
  5
2B5
100
AcDbEntity
  8
0
100
AcDbLine
 62
7
  6
CONTINUOUS
 10
37.8446686067
 20
25.4140436908
 11
37.8446686089
 21
22.4140436908
  0
LINE
  5
2B6
100
AcDbEntity
  8
0
100
AcDbLine
 62
7
  6
CONTINUOUS
 10
38.8446686067
 20
25.4140436915
 11
38.8446686089
 21
22.4140436915
  0
LINE
  5
2B7
100
AcDbEntity
  8
0
100
AcDbLine
 62
7
  6
CONTINUOUS
 10
25.6518142607
 20
59.7140436818
 11
24.3447074804
 21
58.4069368997
  0
LINE
  5
2B8
100
AcDbEntity
  8
A_RUNDUNGEN
100
AcDbLine
 62
7
  6
CONTINUOUS
 10
81.5254173587
 20
28.3818283878
 11
82.7102725268
 21
28.4025101117
  0
LINE
  5
2B9
100
AcDbEntity
  8
A_RUNDUNGEN
100
AcDbLine
 62
7
  6
CONTINUOUS
 10
83.9770454502
 20
28.8443284166
 11
96.235919661
 21
29.0583078619
  0
LINE
  5
2BA
100
AcDbEntity
  8
A_RUNDUNGEN
100
AcDbLine
 62
7
  6
CONTINUOUS
 10
51.9447075038
 20
26.6140437011
 11
59.8490707715
 21
26.6830240402
  0
LINE
  5
2BB
100
AcDbEntity
  8
0
100
AcDbLine
 62
7
  6
CONTINUOUS
 10
97.9706488884
 20
28.3376522393
 11
79.6141039868
 21
28.1774570989
  0
LINE
  5
2BC
100
AcDbEntity
  8
A_RUNDUNGEN
100
AcDbLine
 62
7
  6
CONTINUOUS
 10
79.1184672545
 20
27.2180894315
 11
76.3142149118
 21
27.1940625005
  0
LINE
  5
2BD
100
AcDbEntity
  8
A_RUNDUNGEN
100
AcDbLine
 62
7
  6
CONTINUOUS
 10
65.3184672545
 20
25.8398149174
 11
79.1184672545
 21
25.9000291588
  0
LINE
  5
2BE
100
AcDbEntity
  8
0
100
AcDbLine
 62
7
  6
CONTINUOUS
 10
79.1184672545
 20
25.9000291588
 11
92.5237262249
 21
25.9585210065
  0
LINE
  5
2BF
100
AcDbEntity
  8
0
100
AcDbLine
 62
7
  6
CONTINUOUS
 10
63.8184672545
 20
25.7898149174
 11
100.3184672545
 21
25.7898149174
  0
LINE
  5
2C0
100
AcDbEntity
  8
A_RUNDUNGEN
100
AcDbLine
 62
7
  6
CONTINUOUS
 10
63.8184672545
 20
25.8898149174
 11
75.0184748699
 21
25.8898149174
  0
LINE
  5
2C1
100
AcDbEntity
  8
0
100
AcDbLine
 62
7
  6
CONTINUOUS
 10
99.5121249362
 20
28.3398149174
 11
99.2184672545
 21
28.3398149174
  0
LINE
  5
2C2
100
AcDbEntity
  8
0
100
AcDbLine
 62
7
  6
CONTINUOUS
 10
24.3447075022
 20
28.8140436808
 11
23.8447075022
 21
28.8140436805
  0
LINE
  5
2C3
100
AcDbEntity
  8
0
100
AcDbLine
 62
7
  6
CONTINUOUS
 10
25.444707502
 20
29.1013697553
 11
25.744707502
 21
29.1013697555
  0
LINE
  5
2C4
100
AcDbEntity
  8
0
100
AcDbLine
 62
7
  6
CONTINUOUS
 10
25.444707502
 20
29.1682220269
 11
25.744707502
 21
29.1682220271
  0
LINE
  5
2C5
100
AcDbEntity
  8
0
100
AcDbLine
 62
7
  6
CONTINUOUS
 10
23.8447075019
 20
29.2140436805
 11
24.3447075019
 21
29.2140436808
  0
LINE
  5
2C6
100
AcDbEntity
  8
A_RUNDUNGEN
100
AcDbLine
 62
7
  6
CONTINUOUS
 10
90.4381073256
 20
29.2840632952
 11
89.3865331079
 21
29.2840632952
  0
LINE
  5
2C7
100
AcDbEntity
  8
0
100
AcDbLine
 62
7
  6
CONTINUOUS
 10
25.4447075017
 20
29.570485663
 11
25.7447075017
 21
29.5704856632
  0
LINE
  5
2C8
100
AcDbEntity
  8
0
100
AcDbLine
 62
7
  6
CONTINUOUS
 10
28.4906103865
 20
27.1693135922
 11
34.7447075035
 21
27.1365669217
  0
LINE
  5
2C9
100
AcDbEntity
  8
A_RUNDUNGEN
100
AcDbLine
 62
7
  6
CONTINUOUS
 10
34.7447075035
 20
27.1365669217
 11
46.9447075035
 21
27.0726872962
  0
LINE
  5
2CA
100
AcDbEntity
  8
0
100
AcDbLine
 62
7
  6
CONTINUOUS
 10
46.9447075038
 20
26.6576780364
 11
51.9447075038
 21
26.6140437011
  0
LINE
  5
2CB
100
AcDbEntity
  8
A_RUNDUNGEN
100
AcDbLine
 62
7
  6
CONTINUOUS
 10
46.9462027915
 20
26.8290210511
 11
46.2490707714
 21
26.8351048296
  0
LINE
  5
2CC
100
AcDbEntity
  8
0
100
AcDbLine
 62
7
  6
CONTINUOUS
 10
28.6026353591
 20
26.9891029254
 11
46.2490707714
 21
26.8351048296
  0
LINE
  5
2CD
100
AcDbEntity
  8
A_RUNDUNGEN
100
AcDbLine
 62
7
  6
CONTINUOUS
 10
46.9447075024
 20
28.5877609681
 11
34.7447075023
 21
28.6942287462
  0
LINE
  5
2CE
100
AcDbEntity
  8
0
100
AcDbLine
 62
7
  6
CONTINUOUS
 10
29.7850480302
 20
28.737511035
 11
34.2490707701
 21
28.698554102
  0
LINE
  5
2CF
100
AcDbEntity
  8
A_RUNDUNGEN
100
AcDbLine
 62
7
  6
CONTINUOUS
 10
34.7447075015
 20
29.8545462599
 11
46.9447075015
 21
29.7480784818
  0
LINE
  5
2D0
100
AcDbEntity
  8
A_RUNDUNGEN
100
AcDbLine
 62
7
  6
CONTINUOUS
 10
40.9447075015
 20
29.8004396842
 11
40.9447075023
 21
28.6401221704
  0
LINE
  5
2D1
100
AcDbEntity
  8
A_RUNDUNGEN
100
AcDbLine
 62
7
  6
CONTINUOUS
 10
36.384479382
 20
41.0184959696
 11
37.585140039
 21
48.0162394621
  0
LINE
  5
2D2
100
AcDbEntity
  8
A_RUNDUNGEN
100
AcDbLine
 62
7
  6
CONTINUOUS
 10
90.9206575732
 20
31.5698905573
 11
96.9771921287
 21
31.7813894044
  0
LINE
  5
2D3
100
AcDbEntity
  8
0
100
AcDbLine
 62
7
  6
CONTINUOUS
 10
20.0427594853
 20
30.3640436777
 11
18.5427594853
 21
30.3640436766
  0
LINE
  5
2D4
100
AcDbEntity
  8
0
100
AcDbLine
 62
7
  6
CONTINUOUS
 10
25.4447074997
 20
32.1970298104
 11
25.7447074997
 21
32.1970298107
  0
LINE
  5
2D5
100
AcDbEntity
  8
0
100
AcDbLine
 62
7
  6
CONTINUOUS
 10
25.7447074997
 20
32.2288069149
 11
25.4447074997
 21
32.2288069147
  0
LINE
  5
2D6
100
AcDbEntity
  8
A_ACHSEN
100
AcDbLine
 62
7
  6
CONTINUOUS
 10
54.6945924997
 20
32.2640437029
 11
53.9948224997
 21
32.2640437029
  0
LINE
  5
2D7
100
AcDbEntity
  8
A_ACHSEN
100
AcDbLine
 62
7
  6
CENTER
 10
52.5952824997
 20
32.2640437029
 11
48.7947074997
 21
32.2640437029
  0
LINE
  5
2D8
100
AcDbEntity
  8
A_ACHSEN
100
AcDbLine
 62
7
  6
CENTER
 10
56.0941324997
 20
32.2640437029
 11
59.8947074997
 21
32.2640437029
  0
LINE
  5
2D9
100
AcDbEntity
  8
A_ACHSEN
100
AcDbLine
 62
7
  6
CONTINUOUS
 10
70.1683522545
 20
32.2898149174
 11
69.4685822545
 21
32.2898149174
  0
LINE
  5
2DA
100
AcDbEntity
  8
A_ACHSEN
100
AcDbLine
 62
7
  6
CENTER
 10
68.0690422545
 20
32.2898149174
 11
63.9678086376
 21
32.2898149174
  0
LINE
  5
2DB
100
AcDbEntity
  8
A_ACHSEN
100
AcDbLine
 62
7
  6
CENTER
 10
71.5678922545
 20
32.2898149174
 11
75.6691258714
 21
32.2898149174
  0
LINE
  5
2DC
100
AcDbEntity
  8
0
100
AcDbLine
 62
7
  6
CONTINUOUS
 10
25.3447074988
 20
33.4640436816
 11
25.1447074988
 21
33.4640436814
  0
LINE
  5
2DD
100
AcDbEntity
  8
A_RUNDUNGEN
100
AcDbLine
 62
7
  6
CONTINUOUS
 10
26.9859826237
 20
34.7556181697
 11
33.7796069947
 21
34.5183795841
  0
LINE
  5
2DE
100
AcDbEntity
  8
0
100
AcDbLine
 62
7
  6
CONTINUOUS
 10
34.0750697624
 20
39.3855148892
 11
33.8017283819
 21
39.4324143279
  0
LINE
  5
2DF
100
AcDbEntity
  8
0
100
AcDbLine
 62
7
  6
CONTINUOUS
 10
32.3772157929
 20
39.6768297202
 11
29.8593376819
 21
40.108842867
  0
LINE
  5
2E0
100
AcDbEntity
  8
0
100
AcDbLine
 62
7
  6
CONTINUOUS
 10
28.434825093
 20
40.3532582593
 11
28.1614837124
 21
40.400157698
  0
LINE
  5
2E1
100
AcDbEntity
  8
0
100
AcDbLine
 62
7
  6
CONTINUOUS
 10
44.8447075047
 20
25.4140436959
 11
44.8447075069
 21
22.4140436959
  0
LINE
  5
2E2
100
AcDbEntity
  8
0
100
AcDbLine
 62
7
  6
CONTINUOUS
 10
46.744707504
 20
26.3351238684
 11
46.7447075046
 21
25.5659675721
  0
LINE
  5
2E3
100
AcDbEntity
  8
A_RUNDUNGEN
100
AcDbLine
 62
7
  6
CONTINUOUS
 10
46.7447075035
 20
27.0737345032
 11
46.7447075027
 21
28.1434162967
  0
LINE
  5
2E4
100
AcDbEntity
  8
0
100
AcDbLine
 62
7
  6
CONTINUOUS
 10
46.9447075038
 20
26.6576780364
 11
46.9447075015
 21
29.7480784818
  0
LINE
  5
2E5
100
AcDbEntity
  8
0
100
AcDbLine
 62
7
  6
CONTINUOUS
 10
47.3447074812
 20
57.4140436978
 11
47.3447074812
 21
57.3647378335
  0
LINE
  5
2E6
100
AcDbEntity
  8
0
100
AcDbLine
 62
7
  6
CONTINUOUS
 10
47.3447075046
 20
25.5140436978
 11
47.3447075046
 21
25.5638239726
  0
LINE
  5
2E7
100
AcDbEntity
  8
0
100
AcDbLine
 62
7
  6
CONTINUOUS
 10
91.937730954
 20
39.6601029652
 11
94.4397816208
 21
40.1759401509
  0
LINE
  5
2E8
100
AcDbEntity
  8
0
100
AcDbLine
 62
7
  6
CONTINUOUS
 10
99.5184672545
 20
35.3398149174
 11
99.2184672545
 21
35.3398149174
  0
LINE
  5
2E9
100
AcDbEntity
  8
0
100
AcDbLine
 62
7
  6
CONTINUOUS
 10
97.9706488884
 20
35.3419775956
 11
97.7141039868
 21
35.344216429
  0
LINE
  5
2EA
100
AcDbEntity
  8
0
100
AcDbLine
 62
7
  6
CONTINUOUS
 10
54.9730204731
 20
41.2305214287
 11
56.5015232959
 21
39.7868533812
  0
LINE
  5
2EB
100
AcDbEntity
  8
0
100
AcDbLine
 62
7
  6
CONTINUOUS
 10
49.0947220623
 20
32.2516781374
 11
49.088248935
 21
34.9999409826
  0
LINE
  5
2EC
100
AcDbEntity
  8
A_RUNDUNGEN
100
AcDbLine
 62
7
  6
CONTINUOUS
 10
49.088248935
 20
34.9999409826
 11
49.0678376422
 21
43.6658600387
  0
LINE
  5
2ED
100
AcDbEntity
  8
0
100
AcDbLine
 62
7
  6
CONTINUOUS
 10
48.3447074795
 20
59.7140436985
 11
48.3447074787
 21
60.7140436985
  0
LINE
  5
2EE
100
AcDbEntity
  8
0
100
AcDbLine
 62
7
  6
CONTINUOUS
 10
48.4134685829
 20
57.7140436985
 11
48.4134685807
 21
60.7140436985
  0
LINE
  5
2EF
100
AcDbEntity
  8
0
100
AcDbLine
 62
7
  6
CONTINUOUS
 10
49.4134685829
 20
57.7140436993
 11
49.4134685807
 21
60.7140436993
  0
LINE
  5
2F0
100
AcDbEntity
  8
0
100
AcDbLine
 62
7
  6
CONTINUOUS
 10
50.3447074812
 20
57.4140437
 11
50.3447074812
 21
57.3778278882
  0
LINE
  5
2F1
100
AcDbEntity
  8
0
100
AcDbLine
 62
7
  6
CONTINUOUS
 10
50.3447075046
 20
25.5140437
 11
50.3447075046
 21
25.5502595118
  0
LINE
  5
2F2
100
AcDbEntity
  8
A_RUNDUNGEN
100
AcDbLine
 62
7
  6
CONTINUOUS
 10
50.4447075046
 20
25.5498231768
 11
50.4447075047
 21
25.4140437
  0
LINE
  5
2F3
100
AcDbEntity
  8
A_RUNDUNGEN
100
AcDbLine
 62
7
  6
CONTINUOUS
 10
50.4447074812
 20
57.3782642233
 11
50.4447074811
 21
57.5140437
  0
LINE
  5
2F4
100
AcDbEntity
  8
0
100
AcDbLine
 62
7
  6
CONTINUOUS
 10
34.1340339813
 20
52.9976951539
 11
29.2246170929
 21
48.0786895948
  0
LINE
  5
2F5
100
AcDbEntity
  8
0
100
AcDbLine
 62
7
  6
CONTINUOUS
 10
98.4341680414
 20
41.774915427
 11
98.253611088
 21
41.7654528381
  0
LINE
  5
2F6
100
AcDbEntity
  8
A_RUNDUNGEN
100
AcDbLine
 62
7
  6
CONTINUOUS
 10
55.9853213835
 20
40.8389276435
 11
56.5015232959
 21
39.7868533812
  0
LINE
  5
2F7
100
AcDbEntity
  8
0
100
AcDbLine
 62
7
  6
CONTINUOUS
 10
56.5015232959
 20
39.7868533812
 11
59.0579424468
 21
34.5765999364
  0
LINE
  5
2F8
100
AcDbEntity
  8
A_RUNDUNGEN
100
AcDbLine
 62
7
  6
CONTINUOUS
 10
54.9730204731
 20
41.2305214287
 11
54.9124962033
 21
43.350978175
  0
LINE
  5
2F9
100
AcDbEntity
  8
0
100
AcDbLine
 62
7
  6
CONTINUOUS
 10
52.6491037908
 20
60.7140437017
 11
52.6491037909
 21
60.6140437017
  0
LINE
  5
2FA
100
AcDbEntity
  8
0
100
AcDbLine
 62
7
  6
CONTINUOUS
 10
53.2447074812
 20
57.3904816077
 11
53.2447074817
 21
56.6496881716
  0
LINE
  5
2FB
100
AcDbEntity
  8
A_RUNDUNGEN
100
AcDbLine
 62
7
  6
CONTINUOUS
 10
53.2447074831
 20
54.7736997963
 11
53.2447074823
 21
55.9062047637
  0
LINE
  5
2FC
100
AcDbEntity
  8
0
100
AcDbLine
 62
7
  6
CONTINUOUS
 10
53.5447074831
 20
54.7739924782
 11
53.5447074819
 21
56.4000807139
  0
LINE
  5
2FD
100
AcDbEntity
  8
A_ACHSEN
100
AcDbLine
 62
7
  6
CONTINUOUS
 10
54.3447074997
 20
32.6139287029
 11
54.3447074997
 21
31.9141587029
  0
LINE
  5
2FE
100
AcDbEntity
  8
A_ACHSEN
100
AcDbLine
 62
7
  6
CENTER
 10
54.3447074997
 20
30.5146187029
 11
54.3447074997
 21
26.7140437029
  0
LINE
  5
2FF
100
AcDbEntity
  8
A_ACHSEN
100
AcDbLine
 62
7
  6
CENTER
 10
54.3447074997
 20
34.0134687029
 11
54.3447074997
 21
37.8140437029
  0
LINE
  5
300
100
AcDbEntity
  8
0
100
AcDbLine
 62
7
  6
CONTINUOUS
 10
54.4506450629
 20
60.714043703
 11
54.450645063
 21
60.614043703
  0
LINE
  5
301
100
AcDbEntity
  8
A_RUNDUNGEN
100
AcDbLine
 62
7
  6
CONTINUOUS
 10
55.3447074811
 20
57.5140437036
 11
55.3447074812
 21
57.3996446459
  0
LINE
  5
302
100
AcDbEntity
  8
A_RUNDUNGEN
100
AcDbLine
 62
7
  6
CONTINUOUS
 10
55.3447075046
 20
25.5284427614
 11
55.3447075047
 21
25.4140437036
  0
LINE
  5
303
100
AcDbEntity
  8
A_RUNDUNGEN
100
AcDbLine
 62
7
  6
CONTINUOUS
 10
55.8447075071
 20
22.214043704
 11
55.8447075047
 21
25.414043704
  0
LINE
  5
304
100
AcDbEntity
  8
0
100
AcDbLine
 62
7
  6
CONTINUOUS
 10
36.262748044
 20
48.7603880006
 11
37.1728136755
 21
49.6722310977
  0
LINE
  5
305
100
AcDbEntity
  8
0
100
AcDbLine
 62
7
  6
CONTINUOUS
 10
92.0448123226
 20
51.0156236807
 11
92.1984785136
 21
51.0473043883
  0
LINE
  5
306
100
AcDbEntity
  8
0
100
AcDbLine
 62
7
  6
CONTINUOUS
 10
93.6140365811
 20
51.3391439979
 11
93.8856597309
 21
51.395143392
  0
LINE
  5
307
100
AcDbEntity
  8
0
100
AcDbLine
 62
7
  6
CONTINUOUS
 10
25.3447074907
 20
44.4640436816
 11
25.1447074907
 21
44.4640436814
  0
LINE
  5
308
100
AcDbEntity
  8
0
100
AcDbLine
 62
7
  6
CONTINUOUS
 10
98.4184672545
 20
44.7898149174
 11
98.7184672545
 21
44.7898149174
  0
LINE
  5
309
100
AcDbEntity
  8
A_ACHSEN
100
AcDbLine
 62
7
  6
CENTER
 10
86.1027085582
 20
45.1980827158
 11
98.1409125549
 21
45.1980827158
  0
LINE
  5
30A
100
AcDbEntity
  8
A_ACHSEN
100
AcDbLine
 62
7
  6
CENTER
 10
25.4092694116
 20
45.2530232461
 11
38.7023351916
 21
45.2530232461
  0
LINE
  5
30B
100
AcDbEntity
  8
0
100
AcDbLine
 62
7
  6
CONTINUOUS
 10
98.4184672545
 20
46.4641551174
 11
98.7184672545
 21
46.4641551174
  0
LINE
  5
30C
100
AcDbEntity
  8
0
100
AcDbLine
 62
7
  6
CONTINUOUS
 10
32.1229285318
 20
50.982661778
 11
31.736426878
 21
51.0489770595
  0
LINE
  5
30D
100
AcDbEntity
  8
0
100
AcDbLine
 62
7
  6
CONTINUOUS
 10
30.3119142891
 20
51.2933924518
 11
30.0385729086
 21
51.3402918905
  0
LINE
  5
30E
100
AcDbEntity
  8
0
100
AcDbLine
 62
7
  6
CONTINUOUS
 10
53.2165007617
 20
49.7549426351
 11
67.1625477679
 21
43.5620583026
  0
LINE
  5
30F
100
AcDbEntity
  8
0
100
AcDbLine
 62
7
  6
CONTINUOUS
 10
56.8447074787
 20
60.7140437047
 11
56.844707481
 21
57.7140437047
  0
LINE
  5
310
100
AcDbEntity
  8
A_RUNDUNGEN
100
AcDbLine
 62
7
  6
CONTINUOUS
 10
58.6447075046
 20
25.5140437061
 11
58.6447075038
 21
26.6725137203
  0
LINE
  5
311
100
AcDbEntity
  8
A_RUNDUNGEN
100
AcDbLine
 62
7
  6
CONTINUOUS
 10
58.644707482
 20
56.3555736919
 11
58.6447074812
 21
57.4140437061
  0
LINE
  5
312
100
AcDbEntity
  8
0
100
AcDbLine
 62
7
  6
CONTINUOUS
 10
58.8447074665
 20
77.3640437062
 11
58.8447074811
 21
57.5640437062
  0
LINE
  5
313
100
AcDbEntity
  8
A_RUNDUNGEN
100
AcDbLine
 62
7
  6
CONTINUOUS
 10
58.8447074811
 20
57.5640437062
 11
58.8447074812
 21
57.3640437062
  0
LINE
  5
314
100
AcDbEntity
  8
A_RUNDUNGEN
100
AcDbLine
 62
7
  6
CONTINUOUS
 10
58.8447075046
 20
25.5640437062
 11
58.8447075048
 21
25.3640437062
  0
LINE
  5
315
100
AcDbEntity
  8
0
100
AcDbLine
 62
7
  6
CONTINUOUS
 10
58.8447075048
 20
25.3640437062
 11
58.8447075066
 21
22.8640437062
  0
LINE
  5
316
100
AcDbEntity
  8
A_RUNDUNGEN
100
AcDbLine
 62
7
  6
CONTINUOUS
 10
60.1447074812
 20
57.3640437072
 11
60.144707482
 21
56.2440181409
  0
LINE
  5
317
100
AcDbEntity
  8
A_RUNDUNGEN
100
AcDbLine
 62
7
  6
CONTINUOUS
 10
60.1447075037
 20
26.7840692734
 11
60.1447075046
 21
25.5640437072
  0
LINE
  5
318
100
AcDbEntity
  8
A_RUNDUNGEN
100
AcDbLine
 62
7
  6
CONTINUOUS
 10
60.3447074843
 20
53.159870872
 11
60.3447074844
 21
53.0903211933
  0
LINE
  5
319
100
AcDbEntity
  8
A_RUNDUNGEN
100
AcDbLine
 62
7
  6
CONTINUOUS
 10
60.344707487
 20
49.4741686645
 11
60.3447074871
 21
49.4033753754
  0
LINE
  5
31A
100
AcDbEntity
  8
0
100
AcDbLine
 62
7
  6
CONTINUOUS
 10
60.3447075066
 20
22.8640437073
 11
60.3447075048
 21
25.3640437073
  0
LINE
  5
31B
100
AcDbEntity
  8
A_RUNDUNGEN
100
AcDbLine
 62
7
  6
CONTINUOUS
 10
60.3447075048
 20
25.3640437073
 11
60.3447074903
 21
45.0602293852
  0
LINE
  5
31C
100
AcDbEntity
  8
A_RUNDUNGEN
100
AcDbLine
 62
7
  6
CONTINUOUS
 10
60.3447074822
 20
56.088173265
 11
60.3447074811
 21
57.5640437073
  0
LINE
  5
31D
100
AcDbEntity
  8
0
100
AcDbLine
 62
7
  6
CONTINUOUS
 10
60.3447074811
 20
57.5640437073
 11
60.3447074665
 21
77.3640437073
  0
LINE
  5
31E
100
AcDbEntity
  8
A_RUNDUNGEN
100
AcDbLine
 62
7
  6
CONTINUOUS
 10
56.7750156331
 20
43.428792574
 11
56.7273346218
 21
39.5262426536
  0
LINE
  5
31F
100
AcDbEntity
  8
0
100
AcDbLine
 62
7
  6
CONTINUOUS
 10
56.8018462809
 20
43.4453830746
 11
56.7509359626
 21
39.2785239058
  0
LINE
  5
320
100
AcDbEntity
  8
0
100
AcDbLine
 62
7
  6
CONTINUOUS
 10
85.5166906828
 20
50.337558271
 11
83.094241872
 21
50.3318525505
  0
LINE
  5
321
100
AcDbEntity
  8
A_RUNDUNGEN
100
AcDbLine
 62
7
  6
CONTINUOUS
 10
73.3275977693
 20
50.3088486624
 11
83.094241872
 21
50.3318525505
  0
LINE
  5
322
100
AcDbEntity
  8
0
100
AcDbLine
 62
7
  6
CONTINUOUS
 10
38.5864550681
 20
50.2593969715
 11
50.7755759913
 21
50.2712887545
  0
LINE
  5
323
100
AcDbEntity
  8
0
100
AcDbLine
 62
7
  6
CONTINUOUS
 10
98.7184672545
 20
46.8833435325
 11
98.4184672545
 21
46.8833435325
  0
LINE
  5
324
100
AcDbEntity
  8
0
100
AcDbLine
 62
7
  6
CONTINUOUS
 10
98.4184672545
 20
46.8984906357
 11
98.7184672545
 21
46.8984906357
  0
LINE
  5
325
100
AcDbEntity
  8
0
100
AcDbLine
 62
7
  6
CONTINUOUS
 10
98.4184672545
 20
47.5003571743
 11
98.7184672545
 21
47.5003571743
  0
LINE
  5
326
100
AcDbEntity
  8
0
100
AcDbLine
 62
7
  6
CONTINUOUS
 10
98.4184672545
 20
48.3808735325
 11
98.7184672545
 21
48.3808735325
  0
LINE
  5
327
100
AcDbEntity
  8
0
100
AcDbLine
 62
7
  6
CONTINUOUS
 10
98.4184672545
 20
50.9223735325
 11
98.7184672545
 21
50.9223735325
  0
LINE
  5
328
100
AcDbEntity
  8
0
100
AcDbLine
 62
7
  6
CONTINUOUS
 10
61.3447074683
 20
74.8640437081
 11
61.3447074762
 21
64.1140437081
  0
LINE
  5
329
100
AcDbEntity
  8
A_ACHSEN
100
AcDbLine
 62
7
  6
CENTER
 10
62.0499344321
 20
46.8358660299
 11
62.0499344321
 21
55.7286238303
  0
LINE
  5
32A
100
AcDbEntity
  8
0
100
AcDbLine
 62
7
  6
CONTINUOUS
 10
63.8184672545
 20
21.5898149174
 11
63.8184672545
 21
25.9159796964
  0
LINE
  5
32B
100
AcDbEntity
  8
A_RUNDUNGEN
100
AcDbLine
 62
7
  6
CONTINUOUS
 10
63.8184672545
 20
25.8898149174
 11
63.8184672545
 21
45.0470313425
  0
LINE
  5
32C
100
AcDbEntity
  8
A_RUNDUNGEN
100
AcDbLine
 62
7
  6
CONTINUOUS
 10
63.8184672545
 20
49.4534326241
 11
63.8184672545
 21
49.5374745417
  0
LINE
  5
32D
100
AcDbEntity
  8
A_RUNDUNGEN
100
AcDbLine
 62
7
  6
CONTINUOUS
 10
63.8184672545
 20
53.0270153186
 11
63.8184672545
 21
53.1127746502
  0
LINE
  5
32E
100
AcDbEntity
  8
A_RUNDUNGEN
100
AcDbLine
 62
7
  6
CONTINUOUS
 10
63.8184672545
 20
56.0611359122
 11
63.8184672545
 21
57.6898149174
  0
LINE
  5
32F
100
AcDbEntity
  8
0
100
AcDbLine
 62
7
  6
CONTINUOUS
 10
63.8184672545
 20
57.6636501385
 11
63.8184672545
 21
61.5898149174
  0
LINE
  5
330
100
AcDbEntity
  8
0
100
AcDbLine
 62
7
  6
CONTINUOUS
 10
53.3960030345
 20
49.6752328211
 11
50.2327453438
 21
46.4970387771
  0
LINE
  5
331
100
AcDbEntity
  8
0
100
AcDbLine
 62
7
  6
CONTINUOUS
 10
29.706314581
 20
52.8771291949
 11
26.91379242
 21
51.9218830557
  0
LINE
  5
332
100
AcDbEntity
  8
A_RUNDUNGEN
100
AcDbLine
 62
7
  6
CONTINUOUS
 10
27.1865936029
 20
51.0280057219
 11
29.2052816056
 21
51.7009017245
  0
LINE
  5
333
100
AcDbEntity
  8
0
100
AcDbLine
 62
7
  6
CONTINUOUS
 10
32.896165666
 20
51.7574091356
 11
32.351340735
 21
51.7526545201
  0
LINE
  5
334
100
AcDbEntity
  8
A_RUNDUNGEN
100
AcDbLine
 62
7
  6
CONTINUOUS
 10
29.3590322208
 20
51.7265410371
 11
32.3447957088
 21
51.7525974025
  0
LINE
  5
335
100
AcDbEntity
  8
A_RUNDUNGEN
100
AcDbLine
 62
7
  6
CONTINUOUS
 10
34.0643964838
 20
52.9279216462
 11
30.2490707523
 21
52.8946258001
  0
LINE
  5
336
100
AcDbEntity
  8
0
100
AcDbLine
 62
7
  6
CONTINUOUS
 10
29.7850480124
 20
52.8905763347
 11
30.2490707523
 21
52.8946258001
  0
LINE
  5
337
100
AcDbEntity
  8
0
100
AcDbLine
 62
7
  6
CONTINUOUS
 10
30.2490707509
 20
54.7033050699
 11
26.2403442154
 21
54.6683214405
  0
LINE
  5
338
100
AcDbEntity
  8
0
100
AcDbLine
 62
7
  6
CONTINUOUS
 10
25.9933984924
 20
54.4956811485
 11
30.7447074833
 21
54.520559175
  0
LINE
  5
339
100
AcDbEntity
  8
A_RUNDUNGEN
100
AcDbLine
 62
7
  6
CONTINUOUS
 10
66.3717502023
 20
54.7924776728
 11
78.3416454056
 21
54.8206709935
  0
LINE
  5
33A
100
AcDbEntity
  8
0
100
AcDbLine
 62
7
  6
CONTINUOUS
 10
78.3416454056
 20
54.8206709935
 11
85.7131978333
 21
54.8380335968
  0
LINE
  5
33B
100
AcDbEntity
  8
0
100
AcDbLine
 62
7
  6
CONTINUOUS
 10
57.7164502357
 20
54.7780624566
 11
38.3749581593
 21
54.7591927754
  0
LINE
  5
33C
100
AcDbEntity
  8
A_ACHSEN
100
AcDbLine
 62
7
  6
CENTER
 10
57.6035555319
 20
51.2822449301
 11
66.4963133323
 21
51.2822449301
  0
LINE
  5
33D
100
AcDbEntity
  8
A_ACHSEN
100
AcDbLine
 62
7
  6
CONTINUOUS
 10
98.7184672545
 20
51.8490435325
 11
98.4184672545
 21
51.8490435325
  0
LINE
  5
33E
100
AcDbEntity
  8
0
100
AcDbLine
 62
7
  6
CONTINUOUS
 10
98.4184672545
 20
52.7263298906
 11
98.7184672545
 21
52.7263298906
  0
LINE
  5
33F
100
AcDbEntity
  8
0
100
AcDbLine
 62
7
  6
CONTINUOUS
 10
98.4184672545
 20
53.3281964292
 11
98.7184672545
 21
53.3281964292
  0
LINE
  5
340
100
AcDbEntity
  8
0
100
AcDbLine
 62
7
  6
CONTINUOUS
 10
98.7184672545
 20
53.3433435325
 11
98.4184672545
 21
53.3433435325
  0
LINE
  5
341
100
AcDbEntity
  8
0
100
AcDbLine
 62
7
  6
CONTINUOUS
 10
23.8447074839
 20
53.7140436805
 11
24.3447074839
 21
53.7140436808
  0
LINE
  5
342
100
AcDbEntity
  8
0
100
AcDbLine
 62
7
  6
CONTINUOUS
 10
24.3447074836
 20
54.1140436808
 11
23.8447074836
 21
54.1140436805
  0
LINE
  5
343
100
AcDbEntity
  8
A_RUNDUNGEN
100
AcDbLine
 62
7
  6
CONTINUOUS
 10
91.4486975314
 20
54.8955665397
 11
88.3865331079
 21
54.8955665397
  0
LINE
  5
344
100
AcDbEntity
  8
0
100
AcDbLine
 62
7
  6
CONTINUOUS
 10
96.235919661
 20
54.6609624924
 11
91.8477563523
 21
54.7375581678
  0
LINE
  5
345
100
AcDbEntity
  8
0
100
AcDbLine
 62
7
  6
CONTINUOUS
 10
73.8829972351
 20
46.5364277637
 11
65.582017368
 21
54.821226441
  0
LINE
  5
346
100
AcDbEntity
  8
0
100
AcDbLine
 62
7
  6
CONTINUOUS
 10
67.4073224935
 20
39.3341327683
 11
67.3571292583
 21
43.4423005529
  0
LINE
  5
347
100
AcDbEntity
  8
A_RUNDUNGEN
100
AcDbLine
 62
7
  6
CONTINUOUS
 10
67.4311980788
 20
39.5594053927
 11
67.3839589555
 21
43.4257878612
  0
LINE
  5
348
100
AcDbEntity
  8
0
100
AcDbLine
 62
7
  6
CONTINUOUS
 10
65.3184672545
 20
57.7398149174
 11
65.3184672545
 21
57.1519831103
  0
LINE
  5
349
100
AcDbEntity
  8
A_RUNDUNGEN
100
AcDbLine
 62
7
  6
CONTINUOUS
 10
65.3184672545
 20
25.8398149174
 11
65.3184672545
 21
25.8898149174
  0
LINE
  5
34A
100
AcDbEntity
  8
A_RUNDUNGEN
100
AcDbLine
 62
7
  6
CONTINUOUS
 10
65.3184672545
 20
56.5955665397
 11
65.3184672545
 21
57.1519831103
  0
LINE
  5
34B
100
AcDbEntity
  8
A_RUNDUNGEN
100
AcDbLine
 62
7
  6
CONTINUOUS
 10
63.8275187254
 20
33.3558355382
 11
63.8184672545
 21
33.1780191702
  0
LINE
  5
34C
100
AcDbEntity
  8
0
100
AcDbLine
 62
7
  6
CONTINUOUS
 10
68.89817829
 20
67.6796835046
 11
70.649845916
 21
74.2169961021
  0
LINE
  5
34D
100
AcDbEntity
  8
0
100
AcDbLine
 62
7
  6
CONTINUOUS
 10
71.6157717425
 20
73.9581770578
 11
69.8641041165
 21
67.4208644603
  0
LINE
  5
34E
100
AcDbEntity
  8
0
100
AcDbLine
 62
7
  6
CONTINUOUS
 10
72.4076297124
 20
77.1013169025
 11
69.7989445731
 21
67.5208607486
  0
LINE
  5
34F
100
AcDbEntity
  8
0
100
AcDbLine
 62
7
  6
CONTINUOUS
 10
71.2462499655
 20
67.1267705291
 11
73.8549351047
 21
76.7072266829
  0
LINE
  5
350
100
AcDbEntity
  8
A_RUNDUNGEN
100
AcDbLine
 62
7
  6
CONTINUOUS
 10
53.5468317025
 20
56.1566691647
 11
52.7490707499
 21
56.1497072097
  0
LINE
  5
351
100
AcDbEntity
  8
0
100
AcDbLine
 62
7
  6
CONTINUOUS
 10
31.2403442145
 20
55.9620033811
 11
52.7490707499
 21
56.1497072097
  0
LINE
  5
352
100
AcDbEntity
  8
A_RUNDUNGEN
100
AcDbLine
 62
7
  6
CONTINUOUS
 10
30.8709193144
 20
55.7712371597
 11
53.5447074823
 21
55.8899579385
  0
LINE
  5
353
100
AcDbEntity
  8
0
100
AcDbLine
 62
7
  6
CONTINUOUS
 10
34.7420547279
 20
57.309748029
 11
53.2447074812
 21
57.3904816077
  0
LINE
  5
354
100
AcDbEntity
  8
A_RUNDUNGEN
100
AcDbLine
 62
7
  6
CONTINUOUS
 10
53.2447074812
 20
57.3904816077
 11
58.6447074812
 21
57.4140437061
  0
LINE
  5
355
100
AcDbEntity
  8
A_RUNDUNGEN
100
AcDbLine
 62
7
  6
CONTINUOUS
 10
68.0304452052
 20
56.0955665397
 11
68.6328378334
 21
56.0955665397
  0
LINE
  5
356
100
AcDbEntity
  8
A_RUNDUNGEN
100
AcDbLine
 62
7
  6
CONTINUOUS
 10
64.3184672545
 20
56.5955665397
 11
66.0605608255
 21
56.5955665397
  0
LINE
  5
357
100
AcDbEntity
  8
A_RUNDUNGEN
100
AcDbLine
 62
7
  6
CONTINUOUS
 10
60.1447074812
 20
57.3640437072
 11
58.6447074812
 21
57.3640437061
  0
LINE
  5
358
100
AcDbEntity
  8
A_RUNDUNGEN
100
AcDbLine
 62
7
  6
CONTINUOUS
 10
50.4447074811
 20
57.5140437
 11
55.3447074811
 21
57.5140437036
  0
LINE
  5
359
100
AcDbEntity
  8
0
100
AcDbLine
 62
7
  6
CONTINUOUS
 10
58.8447074811
 20
57.5640437062
 11
60.3447074811
 21
57.5640437073
  0
LINE
  5
35A
100
AcDbEntity
  8
A_RUNDUNGEN
100
AcDbLine
 62
7
  6
CONTINUOUS
 10
63.8184672545
 20
57.6898149174
 11
65.3184672545
 21
57.6898149174
  0
LINE
  5
35B
100
AcDbEntity
  8
0
100
AcDbLine
 62
7
  6
CONTINUOUS
 10
48.4134685829
 20
57.7140436985
 11
56.844707481
 21
57.7140437047
  0
LINE
  5
35C
100
AcDbEntity
  8
0
100
AcDbLine
 62
7
  6
CONTINUOUS
 10
63.8184672545
 20
57.7898149174
 11
100.3184672545
 21
57.7898149174
  0
LINE
  5
35D
100
AcDbEntity
  8
0
100
AcDbLine
 62
7
  6
CONTINUOUS
 10
65.3184672545
 20
57.7398149174
 11
92.5237262249
 21
57.6211088284
  0
LINE
  5
35E
100
AcDbEntity
  8
A_RUNDUNGEN
100
AcDbLine
 62
7
  6
CONTINUOUS
 10
59.8490707497
 20
56.3450633737
 11
53.5447074819
 21
56.4000807139
  0
LINE
  5
35F
100
AcDbEntity
  8
0
100
AcDbLine
 62
7
  6
CONTINUOUS
 10
90.4657807682
 20
55.3906654517
 11
70.5067589398
 21
55.7390514736
  0
LINE
  5
360
100
AcDbEntity
  8
0
100
AcDbLine
 62
7
  6
CONTINUOUS
 10
98.4341680414
 20
53.8047144078
 11
97.4039373451
 21
53.8587065108
  0
LINE
  5
361
100
AcDbEntity
  8
0
100
AcDbLine
 62
7
  6
CONTINUOUS
 10
70.4200806453
 20
55.7481617294
 11
65.7230627568
 21
56.6611695186
  0
LINE
  5
362
100
AcDbEntity
  8
A_FASEN
100
AcDbLine
 62
7
  6
CONTINUOUS
 10
99.7184672542
 20
28.2680717049
 11
99.5184672542
 21
28.4611389055
  0
LINE
  5
363
100
AcDbEntity
  8
A_ACHSEN
100
AcDbLine
 62
7
  6
CONTINUOUS
 10
69.8184672545
 20
32.6396999174
 11
69.8184672545
 21
31.9399299174
  0
LINE
  5
364
100
AcDbEntity
  8
A_ACHSEN
100
AcDbLine
 62
7
  6
CENTER
 10
69.8184672545
 20
30.5403899174
 11
69.8184672545
 21
26.4391563005
  0
LINE
  5
365
100
AcDbEntity
  8
A_ACHSEN
100
AcDbLine
 62
7
  6
CENTER
 10
69.8184672545
 20
34.0392399174
 11
69.8184672545
 21
38.1404735343
  0
LINE
  5
366
100
AcDbEntity
  8
0
100
AcDbLine
 62
7
  6
CONTINUOUS
 10
49.088248935
 20
34.9999409826
 11
54.9730204731
 21
41.2305214287
  0
LINE
  5
367
100
AcDbEntity
  8
0
100
AcDbLine
 62
7
  6
CONTINUOUS
 10
25.3829040986
 20
35.2831419822
 11
25.6065108963
 21
35.3949453812
  0
LINE
  5
368
100
AcDbEntity
  8
0
100
AcDbLine
 62
7
  6
CONTINUOUS
 10
34.641889574
 20
57.3042794436
 11
25.1924432504
 21
56.311102607
  0
LINE
  5
369
100
AcDbEntity
  8
A_RUNDUNGEN
100
AcDbLine
 62
7
  6
CONTINUOUS
 10
25.5518142607
 20
59.6140436817
 11
47.3447074796
 21
59.6140436978
  0
LINE
  5
36A
100
AcDbEntity
  8
0
100
AcDbLine
 62
7
  6
CONTINUOUS
 10
24.6447074795
 20
59.7140436811
 11
48.3447074795
 21
59.7140436985
  0
LINE
  5
36B
100
AcDbEntity
  8
0
100
AcDbLine
 62
7
  6
CONTINUOUS
 10
54.450645063
 20
60.614043703
 11
52.6491037909
 21
60.6140437017
  0
LINE
  5
36C
100
AcDbEntity
  8
0
100
AcDbLine
 62
7
  6
CONTINUOUS
 10
24.6447074787
 20
60.7140436811
 11
48.3447074787
 21
60.7140436985
  0
LINE
  5
36D
100
AcDbEntity
  8
0
100
AcDbLine
 62
7
  6
CONTINUOUS
 10
48.4134685807
 20
60.7140436985
 11
56.8447074787
 21
60.7140437047
  0
LINE
  5
36E
100
AcDbEntity
  8
0
100
AcDbLine
 62
7
  6
CONTINUOUS
 10
63.8184672545
 20
61.5898149174
 11
118.8184672545
 21
61.5898149174
  0
LINE
  5
36F
100
AcDbEntity
  8
0
100
AcDbLine
 62
7
  6
CONTINUOUS
 10
70.2447074781
 20
61.6140437146
 11
62.8447074781
 21
61.6140437092
  0
LINE
  5
370
100
AcDbEntity
  8
0
100
AcDbLine
 62
7
  6
CONTINUOUS
 10
62.8447074774
 20
62.6140437092
 11
70.2447074774
 21
62.6140437146
  0
LINE
  5
371
100
AcDbEntity
  8
0
100
AcDbLine
 62
7
  6
CONTINUOUS
 10
98.427226906
 20
56.7969602362
 11
92.6046120999
 21
57.6152753812
  0
LINE
  5
372
100
AcDbEntity
  8
0
100
AcDbLine
 62
7
  6
CONTINUOUS
 10
78.3416454056
 20
54.8206709935
 11
83.094241872
 21
50.3318525505
  0
LINE
  5
373
100
AcDbEntity
  8
0
100
AcDbLine
 62
7
  6
CONTINUOUS
 10
99.7111491949
 20
28.1200831045
 11
99.5121249362
 21
28.3398149174
  0
LINE
  5
374
100
AcDbEntity
  8
0
100
AcDbLine
 62
7
  6
CONTINUOUS
 10
75.068464756
 20
32.294936848
 11
75.0573289828
 21
43.7091449783
  0
LINE
  5
375
100
AcDbEntity
  8
0
100
AcDbLine
 62
7
  6
CONTINUOUS
 10
73.8184672545
 20
57.7898149174
 11
73.8184672545
 21
57.7027264355
  0
LINE
  5
376
100
AcDbEntity
  8
0
100
AcDbLine
 62
7
  6
CONTINUOUS
 10
73.8184672545
 20
25.8769033994
 11
73.8184672545
 21
25.7898149174
  0
LINE
  5
377
100
AcDbEntity
  8
0
100
AcDbLine
 62
7
  6
CONTINUOUS
 10
74.0427594585
 20
66.8640437174
 11
74.042759436
 21
97.3640437174
  0
LINE
  5
378
100
AcDbEntity
  8
A_RUNDUNGEN
100
AcDbLine
 62
7
  6
CONTINUOUS
 10
75.5357185325
 20
29.7861335954
 11
75.5357185325
 21
35.3272621721
  0
LINE
  5
379
100
AcDbEntity
  8
0
100
AcDbLine
 62
7
  6
CONTINUOUS
 10
75.5427594585
 20
66.8640437185
 11
75.542759436
 21
97.3640437185
  0
LINE
  5
37A
100
AcDbEntity
  8
A_RUNDUNGEN
100
AcDbLine
 62
7
  6
CONTINUOUS
 10
75.8184713633
 20
28.521011619
 11
75.8184672545
 21
26.689807302
  0
LINE
  5
37B
100
AcDbEntity
  8
A_RUNDUNGEN
100
AcDbLine
 62
7
  6
CONTINUOUS
 10
63.9576450985
 20
33.3852675599
 11
64.8430622622
 21
35.4711796799
  0
LINE
  5
37C
100
AcDbEntity
  8
0
100
AcDbLine
 62
7
  6
CONTINUOUS
 10
68.1492999814
 20
40.8591864886
 11
65.0975554505
 21
34.5866587821
  0
LINE
  5
37D
100
AcDbEntity
  8
0
100
AcDbLine
 62
7
  6
CONTINUOUS
 10
72.2111202289
 20
64.3640437161
 11
73.0427594603
 21
64.3640437167
  0
LINE
  5
37E
100
AcDbEntity
  8
0
100
AcDbLine
 62
7
  6
CONTINUOUS
 10
72.2111202278
 20
65.8640437161
 11
73.0427594592
 21
65.8640437167
  0
LINE
  5
37F
100
AcDbEntity
  8
0
100
AcDbLine
 62
7
  6
CONTINUOUS
 10
91.6064825556
 20
54.8044693135
 11
90.707054565
 21
55.323754306
  0
LINE
  5
380
100
AcDbEntity
  8
0
100
AcDbLine
 62
7
  6
CONTINUOUS
 10
87.8453779365
 20
48.8462977628
 11
86.932280052
 21
49.7551044202
  0
LINE
  5
381
100
AcDbEntity
  8
0
100
AcDbLine
 62
7
  6
CONTINUOUS
 10
79.1184672545
 20
25.9000291588
 11
79.1184672545
 21
27.6774761373
  0
LINE
  5
382
100
AcDbEntity
  8
0
100
AcDbLine
 62
7
  6
CONTINUOUS
 10
56.9630649979
 20
43.5450712831
 11
62.0590178056
 21
45.8283328053
  0
LINE
  5
383
100
AcDbEntity
  8
0
100
AcDbLine
 62
7
  6
CONTINUOUS
 10
70.7091706945
 20
49.70406753
 11
70.8884064622
 21
49.7843748145
  0
LINE
  5
384
100
AcDbEntity
  8
0
100
AcDbLine
 62
7
  6
CONTINUOUS
 10
89.959965941
 20
53.0906720445
 11
94.8857405445
 21
48.1880467856
  0
LINE
  5
385
100
AcDbEntity
  8
A_RUNDUNGEN
100
AcDbLine
 62
7
  6
CONTINUOUS
 10
87.6349164661
 20
55.4400783719
 11
88.0329830829
 21
55.042011755
  0
LINE
  5
386
100
AcDbEntity
  8
A_RUNDUNGEN
100
AcDbLine
 62
7
  6
CONTINUOUS
 10
95.3994313885
 20
54.6755634495
 11
96.4777736614
 21
53.5972211765
  0
LINE
  5
387
100
AcDbEntity
  8
A_RUNDUNGEN
100
AcDbLine
 62
7
  6
CONTINUOUS
 10
86.4542806602
 20
47.8209854341
 11
87.887906972
 21
40.8672299309
  0
LINE
  5
388
100
AcDbEntity
  8
0
100
AcDbLine
 62
7
  6
CONTINUOUS
 10
68.235031348
 20
77.3640437131
 11
63.8447074665
 21
77.3640437099
  0
LINE
  5
389
100
AcDbEntity
  8
0
100
AcDbLine
 62
7
  6
CONTINUOUS
 10
61.3447074658
 20
78.3640437081
 11
71.44275945
 21
78.3640437155
  0
LINE
  5
38A
100
AcDbEntity
  8
0
100
AcDbLine
 62
7
  6
CONTINUOUS
 10
71.4427594489
 20
79.8640437155
 11
61.3447074647
 21
79.8640437081
  0
LINE
  5
38B
100
AcDbEntity
  8
0
100
AcDbLine
 62
7
  6
CONTINUOUS
 10
90.4381073216
 20
29.2208083337
 11
90.4381073216
 21
31.0701951437
  0
LINE
  5
38C
100
AcDbEntity
  8
A_ACHSEN
100
AcDbLine
 62
7
  6
CENTER
 10
92.1218105565
 20
39.1789807174
 11
92.1218105565
 21
51.2171847141
  0
LINE
  5
38D
100
AcDbEntity
  8
A_RUNDUNGEN
100
AcDbLine
 62
7
  6
CONTINUOUS
 10
93.6242188768
 20
36.1171460356
 11
93.6242188768
 21
31.6643009983
  0
LWPOLYLINE
  5
38E
100
AcDbEntity
  8
0
100
AcDbPolyline
 62
7
  6
CONTINUOUS
 90
5
 70
0
 10
90.4381073256
 20
29.2208071966
 10
90.4377800635
 20
29.1893875939
 10
90.4287840434
 20
29.0846136348
 10
90.4099239481
 20
28.9943058643
 10
90.396650747
 20
28.9563830439
  0
LINE
  5
38F
100
AcDbEntity
  8
A_RUNDUNGEN
100
AcDbLine
 62
7
  6
CONTINUOUS
 10
96.4914199482
 20
51.2142524739
 11
96.4079039463
 21
51.1302386798
  0
LINE
  5
390
100
AcDbEntity
  8
A_RUNDUNGEN
100
AcDbLine
 62
7
  6
CONTINUOUS
 10
96.2483024957
 20
49.8401774226
 11
97.6819288075
 21
42.8864219194
  0
LINE
  5
391
100
AcDbEntity
  8
A_RUNDUNGEN
100
AcDbLine
 62
7
  6
CONTINUOUS
 10
96.5883496665
 20
50.4911294039
 11
96.5883496665
 21
51.2196928658
  0
LINE
  5
392
100
AcDbEntity
  8
A_RUNDUNGEN
100
AcDbLine
 62
7
  6
CONTINUOUS
 10
96.5883496665
 20
51.2385825154
 11
96.5883496665
 21
51.3819137966
  0
LINE
  5
393
100
AcDbEntity
  8
A_RUNDUNGEN
100
AcDbLine
 62
7
  6
CONTINUOUS
 10
96.5932295666
 20
50.4911294039
 11
96.5932295666
 21
48.1671204354
  0
LINE
  5
394
100
AcDbEntity
  8
A_RUNDUNGEN
100
AcDbLine
 62
7
  6
CONTINUOUS
 10
96.6165782532
 20
40.0720987721
 11
96.6165782532
 21
40.7017534248
  0
LINE
  5
395
100
AcDbEntity
  8
A_RUNDUNGEN
100
AcDbLine
 62
7
  6
CONTINUOUS
 10
96.6165782532
 20
51.5465903211
 11
96.6165782532
 21
52.5414060989
  0
LINE
  5
396
100
AcDbEntity
  8
A_RUNDUNGEN
100
AcDbLine
 62
7
  6
CONTINUOUS
 10
96.6242188768
 20
40.0304592862
 11
96.6242188768
 21
38.5095550661
  0
LINE
  5
397
100
AcDbEntity
  8
A_RUNDUNGEN
100
AcDbLine
 62
7
  6
CONTINUOUS
 10
96.6242188768
 20
52.5870187023
 11
96.6242188768
 21
53.2436711515
  0
LINE
  5
398
100
AcDbEntity
  8
A_RUNDUNGEN
100
AcDbLine
 62
7
  6
CONTINUOUS
 10
97.2184672545
 20
53.6611147972
 11
97.2184672545
 21
50.2876299879
  0
LINE
  5
399
100
AcDbEntity
  8
A_RUNDUNGEN
100
AcDbLine
 62
7
  6
CONTINUOUS
 10
97.2184672545
 20
30.0581555571
 11
97.2184672545
 21
35.8441973905
  0
LINE
  5
39A
100
AcDbEntity
  8
0
100
AcDbLine
 62
7
  6
CONTINUOUS
 10
97.2184672545
 20
35.8441973905
 11
97.2184672545
 21
39.9919998469
  0
LINE
  5
39B
100
AcDbEntity
  8
0
100
AcDbLine
 62
7
  6
CONTINUOUS
 10
98.2184672545
 20
28.5876427201
 11
98.2184672545
 21
35.0919871148
  0
LINE
  5
39C
100
AcDbEntity
  8
0
100
AcDbLine
 62
7
  6
CONTINUOUS
 10
98.4184672545
 20
53.343188115
 11
98.4184672545
 21
51.8490435325
  0
LINE
  5
39D
100
AcDbEntity
  8
0
100
AcDbLine
 62
7
  6
CONTINUOUS
 10
98.4184672545
 20
50.9223735325
 11
98.4184672545
 21
46.88349895
  0
LINE
  5
39E
100
AcDbEntity
  8
0
100
AcDbLine
 62
7
  6
CONTINUOUS
 10
98.4184672545
 20
46.4641551174
 11
98.4184672545
 21
44.7898149174
  0
LINE
  5
39F
100
AcDbEntity
  8
A_ACHSEN
100
AcDbLine
 62
7
  6
CONTINUOUS
 10
98.4184672545
 20
50.9223735325
 11
98.4184672545
 21
51.8490435325
  0
LINE
  5
3A0
100
AcDbEntity
  8
0
100
AcDbLine
 62
7
  6
CONTINUOUS
 10
98.7184672545
 20
53.5051255474
 11
98.7184672545
 21
53.3281964292
  0
LINE
  5
3A1
100
AcDbEntity
  8
0
100
AcDbLine
 62
7
  6
CONTINUOUS
 10
98.7184672545
 20
52.7263298906
 11
98.7184672545
 21
50.9223735325
  0
LINE
  5
3A2
100
AcDbEntity
  8
0
100
AcDbLine
 62
7
  6
CONTINUOUS
 10
98.7184672545
 20
48.3808735325
 11
98.7184672545
 21
47.5003571743
  0
LINE
  5
3A3
100
AcDbEntity
  8
0
100
AcDbLine
 62
7
  6
CONTINUOUS
 10
98.7184672545
 20
46.8984906357
 11
98.7184672545
 21
46.4641551174
  0
LINE
  5
3A4
100
AcDbEntity
  8
0
100
AcDbLine
 62
7
  6
CONTINUOUS
 10
98.7184672545
 20
42.0745042874
 11
98.7184672545
 21
44.7898149174
  0
LINE
  5
3A5
100
AcDbEntity
  8
A_RUNDUNGEN
100
AcDbLine
 62
7
  6
CONTINUOUS
 10
96.4914215647
 20
51.2142513701
 11
96.510449986
 21
51.2385825169
  0
LINE
  5
3A6
100
AcDbEntity
  8
0
100
AcDbLine
 62
7
  6
CONTINUOUS
 10
99.2184672545
 20
35.3398149174
 11
99.2184672545
 21
28.3398149174
  0
LINE
  5
3A7
100
AcDbEntity
  8
A_FASEN
100
AcDbLine
 62
7
  6
CONTINUOUS
 10
99.5184672545
 20
35.3398149174
 11
99.5184672545
 21
28.4611389026
  0
LINE
  5
3A8
100
AcDbEntity
  8
A_FASEN
100
AcDbLine
 62
7
  6
CONTINUOUS
 10
99.7184672545
 20
35.5398149174
 11
99.7184672545
 21
28.2680717018
  0
LINE
  5
3A9
100
AcDbEntity
  8
0
100
AcDbLine
 62
7
  6
CONTINUOUS
 10
99.7184672545
 20
35.5398149174
 11
99.7184672545
 21
55.3115581331
  0
LINE
  5
3AA
100
AcDbEntity
  8
0
100
AcDbLine
 62
7
  6
CONTINUOUS
 10
100.3184672545
 20
57.7898149174
 11
100.3184672545
 21
25.7898149174
  0
LINE
  5
3AB
100
AcDbEntity
  8
A_RUNDUNGEN
100
AcDbLine
 62
7
  6
CONTINUOUS
 10
81.2783516585
 20
28.3115212322
 11
81.2783646979
 21
28.3115289957
  0
LINE
  5
3AC
100
AcDbEntity
  8
A_RUNDUNGEN
100
AcDbLine
 62
7
  6
CONTINUOUS
 10
83.1928201204
 20
28.536332403
 11
83.4944978566
 21
28.7105061253
  0
LWPOLYLINE
  5
3AD
100
AcDbEntity
  8
0
100
AcDbPolyline
 62
7
  6
CONTINUOUS
 90
4
 70
0
 10
81.2783643056
 20
28.3115252568
 10
81.1663320307
 20
28.2537983515
 10
81.0001632532
 20
28.2013450067
 10
80.8735786196
 20
28.1884599297
  0
LINE
  5
3AE
100
AcDbEntity
  8
A_RUNDUNGEN
100
AcDbLine
 62
7
  6
CONTINUOUS
 10
96.4777736614
 20
38.156005041
 11
95.2756865809
 21
36.9539179604
  0
LINE
  5
3AF
100
AcDbEntity
  8
A_RUNDUNGEN
100
AcDbLine
 62
7
  6
CONTINUOUS
 10
89.0329830829
 20
29.1376180798
 11
88.8243026081
 21
28.928937605
  0
LINE
  5
3B0
100
AcDbEntity
  8
0
100
AcDbLine
 62
7
  6
CONTINUOUS
 10
99.7184672545
 20
35.5398149174
 11
99.5184672545
 21
35.3398149174
  0
LINE
  5
3B1
100
AcDbEntity
  8
0
100
AcDbLine
 62
7
  6
CONTINUOUS
 10
75.542759436
 20
97.3640437185
 11
74.042759436
 21
97.3640437174
  0
LINE
  5
3B2
100
AcDbEntity
  8
0
100
AcDbLine
 62
7
  6
CONTINUOUS
 10
118.8184672545
 20
61.5898149174
 11
118.8184672545
 21
21.5898149174
  0
ARC
  5
3B3
100
AcDbEntity
  8
0
100
AcDbCircle
 62
7
  6
CONTINUOUS
 10
21.0427594909
 20
22.8640436784
 40
2.5
100
AcDbArc
 50
180.0000000422
 51
270.0000000422
  0
ARC
  5
3B4
100
AcDbEntity
  8
0
100
AcDbCircle
 62
7
  6
CONTINUOUS
 10
24.6447075061
 20
23.5140436811
 40
1.3
100
AcDbArc
 50
180.0000000422
 51
270.0000000422
  0
ARC
  5
3B5
100
AcDbEntity
  8
0
100
AcDbCircle
 62
7
  6
CONTINUOUS
 10
21.0427594909
 20
22.8640436784
 40
1.0
100
AcDbArc
 50
180.0000000422
 51
270.0000000422
  0
ARC
  5
3B6
100
AcDbEntity
  8
0
100
AcDbCircle
 62
7
  6
CONTINUOUS
 10
26.2447075025
 20
28.4671689791
 40
0.5
100
AcDbArc
 50
180.0000000422
 51
250.463345104
  0
ARC
  5
3B7
100
AcDbEntity
  8
0
100
AcDbCircle
 62
7
  6
CONTINUOUS
 10
25.2447075035
 20
27.1142457036
 40
0.5
100
AcDbArc
 50
180.0000000421
 51
264.0000000422
  0
ARC
  5
3B8
100
AcDbEntity
  8
0
100
AcDbCircle
 62
7
  6
CONTINUOUS
 10
24.6447075061
 20
23.5140436811
 40
0.3
100
AcDbArc
 50
180.0000000421
 51
270.0000000421
  0
ARC
  5
3B9
100
AcDbEntity
  8
0
100
AcDbCircle
 62
7
  6
CONTINUOUS
 10
25.4947075025
 20
28.4057861122
 40
0.25
100
AcDbArc
 50
0.0000000422
 51
66.4218215639
  0
ARC
  5
3BA
100
AcDbEntity
  8
0
100
AcDbCircle
 62
7
  6
CONTINUOUS
 10
25.6947075022
 20
28.8640436818
 40
0.25
100
AcDbArc
 50
180.0000000422
 51
246.4218215639
  0
ARC
  5
3BB
100
AcDbEntity
  8
0
100
AcDbCircle
 62
7
  6
CONTINUOUS
 10
25.9947075027
 20
28.1890955666
 40
0.25
100
AcDbArc
 50
180.0000000422
 51
250.0000000422
  0
ARC
  5
3BC
100
AcDbEntity
  8
0
100
AcDbCircle
 62
7
  6
CONTINUOUS
 10
23.8447075018
 20
29.3140436805
 40
1.5
100
AcDbArc
 50
180.0000000422
 51
250.5287794077
  0
ARC
  5
3BD
100
AcDbEntity
  8
0
100
AcDbCircle
 62
7
  6
CONTINUOUS
 10
23.8447075016
 20
29.7140436805
 40
0.5
100
AcDbArc
 50
209.8084320335
 51
270.0000000421
  0
ARC
  5
3BE
100
AcDbEntity
  8
0
100
AcDbCircle
 62
7
  6
CONTINUOUS
 10
23.8447075018
 20
29.3140436805
 40
0.5
100
AcDbArc
 50
180.0000000422
 51
270.0000000422
  0
ARC
  5
3BF
100
AcDbEntity
  8
0
100
AcDbCircle
 62
7
  6
CONTINUOUS
 10
25.1447074991
 20
33.0640436814
 40
0.4
100
AcDbArc
 50
90.0000000422
 51
180.0000000422
  0
ARC
  5
3C0
100
AcDbEntity
  8
0
100
AcDbCircle
 62
7
  6
CONTINUOUS
 10
25.3447074991
 20
33.0640436816
 40
0.4
100
AcDbArc
 50
0.0000000422
 51
90.0000000422
  0
ARC
  5
3C1
100
AcDbEntity
  8
0
100
AcDbCircle
 62
7
  6
CONTINUOUS
 10
25.4947074982
 20
34.2140436817
 40
0.25
100
AcDbArc
 50
0.0000000422
 51
90.0000000422
  0
ARC
  5
3C2
100
AcDbEntity
  8
0
100
AcDbCircle
 62
7
  6
CONTINUOUS
 10
25.4947074972
 20
35.6185521789
 40
0.25
100
AcDbArc
 50
296.5650512192
 51
360.0
  0
ARC
  5
3C3
100
AcDbEntity
  8
0
100
AcDbCircle
 62
7
  6
CONTINUOUS
 10
25.4947074976
 20
35.0595351845
 40
0.25
100
AcDbArc
 50
116.5650512192
 51
180.0000000422
  0
ARC
  5
3C4
100
AcDbEntity
  8
0
100
AcDbCircle
 62
7
  6
CONTINUOUS
 10
25.4947074979
 20
34.7140436817
 40
0.25
100
AcDbArc
 50
180.0000000422
 51
270.0000000422
  0
ARC
  5
3C5
100
AcDbEntity
  8
0
100
AcDbCircle
 62
7
  6
CONTINUOUS
 10
26.9947075014
 20
29.9427476509
 40
0.25
100
AcDbArc
 50
180.0000000422
 51
251.1155729942
  0
ARC
  5
3C6
100
AcDbEntity
  8
A_RUNDUNGEN
100
AcDbCircle
 62
7
  6
CONTINUOUS
 10
26.9947074977
 20
35.0054658765
 40
0.25
100
AcDbArc
 50
201.9999491666
 51
268.0000171439
  0
ARC
  5
3C7
100
AcDbEntity
  8
0
100
AcDbCircle
 62
7
  6
CONTINUOUS
 10
25.4947074993
 20
32.8223012512
 40
0.25
100
AcDbArc
 50
293.5781785204
 51
360.0
  0
ARC
  5
3C8
100
AcDbEntity
  8
0
100
AcDbCircle
 62
7
  6
CONTINUOUS
 10
25.6947074996
 20
32.3640436818
 40
0.25
100
AcDbArc
 50
113.5781785204
 51
180.0000000422
  0
ARC
  5
3C9
100
AcDbEntity
  8
0
100
AcDbCircle
 62
7
  6
CONTINUOUS
 10
34.7464180598
 20
26.6183298287
 40
1.0
100
AcDbArc
 50
264.0000000422
 51
269.7500000421
  0
ARC
  5
3CA
100
AcDbEntity
  8
0
100
AcDbCircle
 62
7
  6
CONTINUOUS
 10
34.2447075027
 20
28.1985731405
 40
0.5
100
AcDbArc
 50
0.0000000422
 51
89.5000000422
  0
ARC
  5
3CB
100
AcDbEntity
  8
0
100
AcDbCircle
 62
7
  6
CONTINUOUS
 10
28.493228368
 20
27.6693067384
 40
0.5
100
AcDbArc
 50
250.463345104
 51
269.7000000421
  0
ARC
  5
3CC
100
AcDbEntity
  8
0
100
AcDbCircle
 62
7
  6
CONTINUOUS
 10
29.7872296638
 20
28.9875015158
 40
0.25
100
AcDbArc
 50
251.1155729942
 51
269.5000000421
  0
ARC
  5
3CD
100
AcDbEntity
  8
0
100
AcDbCircle
 62
7
  6
CONTINUOUS
 10
28.6048169928
 20
27.2390934062
 40
0.25
100
AcDbArc
 50
250.0000000422
 51
269.5000000422
  0
ARC
  5
3CE
100
AcDbEntity
  8
A_RUNDUNGEN
100
AcDbCircle
 62
7
  6
CONTINUOUS
 10
32.7947075034
 20
27.2025287887
 40
0.25
100
AcDbArc
 50
192.5885466101
 51
269.5000000421
  0
ARC
  5
3CF
100
AcDbEntity
  8
A_RUNDUNGEN
100
AcDbCircle
 62
7
  6
CONTINUOUS
 10
33.7447074988
 20
33.518988757
 40
1.0
100
AcDbArc
 50
0.0000000421
 51
88.0000000422
  0
ARC
  5
3D0
100
AcDbEntity
  8
0
100
AcDbCircle
 62
7
  6
CONTINUOUS
 10
38.3808117942
 20
48.7591956308
 40
6.0
100
AcDbArc
 50
90.055898105
 51
135.055898105
  0
ARC
  5
3D1
100
AcDbEntity
  8
0
100
AcDbCircle
 62
7
  6
CONTINUOUS
 10
30.1875130342
 20
46.2949402586
 40
5.0
100
AcDbArc
 50
71.9538603799
 51
88.5743195106
  0
ARC
  5
3D2
100
AcDbEntity
  8
0
100
AcDbCircle
 62
7
  6
CONTINUOUS
 10
29.9837389368
 20
45.1072950602
 40
5.0
100
AcDbArc
 50
251.9538603799
 51
268.5743195106
  0
ARC
  5
3D3
100
AcDbEntity
  8
0
100
AcDbCircle
 62
7
  6
CONTINUOUS
 10
33.9261296368
 20
44.4308665211
 40
5.0
100
AcDbArc
 50
251.9538603799
 51
268.5743195106
  0
ARC
  5
3D4
100
AcDbEntity
  8
A_ACHSEN
100
AcDbCircle
 62
7
  6
CONTINUOUS
 10
32.0558023016
 20
45.2530232461
 40
4.75
100
AcDbArc
 50
102.597395595
 51
36.9378378394
  0
ARC
  5
3D5
100
AcDbEntity
  8
0
100
AcDbCircle
 62
7
  6
CONTINUOUS
 10
32.0558023016
 20
45.2530232461
 40
4.0
100
AcDbArc
 50
135.055898105
 51
20.4315797528
  0
CIRCLE
  5
3D6
100
AcDbEntity
  8
0
100
AcDbCircle
 62
7
  6
CONTINUOUS
 10
32.0558023016
 20
45.2530232461
 40
2.55
  0
ARC
  5
3D7
100
AcDbEntity
  8
A_RUNDUNGEN
100
AcDbCircle
 62
7
  6
CONTINUOUS
 10
34.413284032
 20
41.3567102392
 40
2.0
100
AcDbArc
 50
260.2640899452
 51
350.2640899452
  0
ARC
  5
3D8
100
AcDbEntity
  8
A_RUNDUNGEN
100
AcDbCircle
 62
7
  6
CONTINUOUS
 10
35.613944689
 20
48.3544537317
 40
2.0
100
AcDbArc
 50
350.2640899452
 51
40.1079204922
  0
ARC
  5
3D9
100
AcDbEntity
  8
A_RUNDUNGEN
100
AcDbCircle
 62
7
  6
CONTINUOUS
 10
29.700358639
 20
49.3690965405
 40
2.0
100
AcDbArc
 50
80.2640899452
 51
170.2640899452
  0
ARC
  5
3DA
100
AcDbEntity
  8
A_RUNDUNGEN
100
AcDbCircle
 62
7
  6
CONTINUOUS
 10
28.499697982
 20
42.371353048
 40
2.0
100
AcDbArc
 50
208.416143922
 51
260.2640899452
  0
ARC
  5
3DB
100
AcDbEntity
  8
0
100
AcDbCircle
 62
7
  6
CONTINUOUS
 10
37.6783406483
 20
47.3475548262
 40
2.0
100
AcDbArc
 50
135.055898105
 51
200.4315797528
  0
ARC
  5
3DC
100
AcDbEntity
  8
0
100
AcDbCircle
 62
7
  6
CONTINUOUS
 10
38.5884062798
 20
48.2593979233
 40
2.0
100
AcDbArc
 50
90.055898105
 51
135.055898105
  0
ARC
  5
3DD
100
AcDbEntity
  8
0
100
AcDbCircle
 62
7
  6
CONTINUOUS
 10
25.1447074904
 20
44.8640436814
 40
0.4
100
AcDbArc
 50
180.0000000422
 51
270.0000000422
  0
ARC
  5
3DE
100
AcDbEntity
  8
0
100
AcDbCircle
 62
7
  6
CONTINUOUS
 10
25.3447074904
 20
44.8640436816
 40
0.4
100
AcDbArc
 50
270.0000000422
 51
360.0
  0
ARC
  5
3DF
100
AcDbEntity
  8
0
100
AcDbCircle
 62
7
  6
CONTINUOUS
 10
25.4947074913
 20
43.7140436817
 40
0.25
100
AcDbArc
 50
270.0000000422
 51
360.0
  0
ARC
  5
3E0
100
AcDbEntity
  8
0
100
AcDbCircle
 62
7
  6
CONTINUOUS
 10
25.4947074923
 20
42.3095351845
 40
0.25
100
AcDbArc
 50
0.0000000422
 51
63.4349488651
  0
ARC
  5
3E1
100
AcDbEntity
  8
0
100
AcDbCircle
 62
7
  6
CONTINUOUS
 10
25.4947074919
 20
42.8685521789
 40
0.25
100
AcDbArc
 50
180.0000000422
 51
243.4349488651
  0
ARC
  5
3E2
100
AcDbEntity
  8
0
100
AcDbCircle
 62
7
  6
CONTINUOUS
 10
25.4947074916
 20
43.2140436817
 40
0.25
100
AcDbArc
 50
90.0000000422
 51
180.0000000422
  0
ARC
  5
3E3
100
AcDbEntity
  8
0
100
AcDbCircle
 62
7
  6
CONTINUOUS
 10
54.3447074997
 20
32.2640437029
 40
5.5
100
AcDbArc
 50
163.1316758962
 51
43.4529864162
  0
ARC
  5
3E4
100
AcDbEntity
  8
0
100
AcDbCircle
 62
7
  6
CONTINUOUS
 10
69.8184672545
 20
32.2898149174
 40
5.5
100
AcDbArc
 50
136.7378631877
 51
17.0591737077
  0
ARC
  5
3E5
100
AcDbEntity
  8
0
100
AcDbCircle
 62
7
  6
CONTINUOUS
 10
69.8184672545
 20
32.2898149174
 40
5.25
100
AcDbArc
 50
154.055898105
 51
0.055898105
  0
ARC
  5
3E6
100
AcDbEntity
  8
0
100
AcDbCircle
 62
7
  6
CONTINUOUS
 10
54.3447074997
 20
32.2640437029
 40
5.25
100
AcDbArc
 50
180.1349514989
 51
26.1349514989
  0
ARC
  5
3E7
100
AcDbEntity
  8
0
100
AcDbCircle
 62
7
  6
CONTINUOUS
 10
50.6447075046
 20
25.5140437002
 40
3.3
100
AcDbArc
 50
250.5328780727
 51
270.0000000421
  0
ARC
  5
3E8
100
AcDbEntity
  8
0
100
AcDbCircle
 62
7
  6
CONTINUOUS
 10
50.6447075046
 20
25.5140437002
 40
3.3
100
AcDbArc
 50
180.0000000422
 51
181.8161185098
  0
CIRCLE
  5
3E9
100
AcDbEntity
  8
0
100
AcDbCircle
 62
7
  6
CONTINUOUS
 10
69.8184672545
 20
32.2898149174
 40
2.75
  0
CIRCLE
  5
3EA
100
AcDbEntity
  8
0
100
AcDbCircle
 62
7
  6
CONTINUOUS
 10
54.3447074997
 20
32.2640437029
 40
2.75
  0
ARC
  5
3EB
100
AcDbEntity
  8
0
100
AcDbCircle
 62
7
  6
CONTINUOUS
 10
57.8447075066
 20
22.8640437055
 40
2.5
100
AcDbArc
 50
270.0000000422
 51
360.0
  0
CIRCLE
  5
3EC
100
AcDbEntity
  8
A_RUNDUNGEN
100
AcDbCircle
 62
7
  6
CONTINUOUS
 10
54.3447074997
 20
32.2640437029
 40
2.4272122138
  0
CIRCLE
  5
3ED
100
AcDbEntity
  8
A_RUNDUNGEN
100
AcDbCircle
 62
7
  6
CONTINUOUS
 10
69.8184672545
 20
32.2898149174
 40
2.4267240551
  0
ARC
  5
3EE
100
AcDbEntity
  8
A_RUNDUNGEN
100
AcDbCircle
 62
7
  6
CONTINUOUS
 10
66.4538779887
 20
34.7874387072
 40
1.7499225761
100
AcDbArc
 50
104.409000149
 51
157.0002934565
  0
ARC
  5
3EF
100
AcDbEntity
  8
0
100
AcDbCircle
 62
7
  6
CONTINUOUS
 10
57.8447075066
 20
22.8640437055
 40
1.0
100
AcDbArc
 50
270.0000000422
 51
360.0
  0
ARC
  5
3F0
100
AcDbEntity
  8
A_RUNDUNGEN
100
AcDbCircle
 62
7
  6
CONTINUOUS
 10
59.8447075034
 20
27.1830050017
 40
0.5
100
AcDbArc
 50
270.5000000421
 51
360.0
  0
ARC
  5
3F1
100
AcDbEntity
  8
0
100
AcDbCircle
 62
7
  6
CONTINUOUS
 10
46.244707504
 20
26.335123868
 40
0.5
100
AcDbArc
 50
0.0000000422
 51
89.5000000422
  0
ARC
  5
3F2
100
AcDbEntity
  8
A_RUNDUNGEN
100
AcDbCircle
 62
7
  6
CONTINUOUS
 10
58.1447075041
 20
26.2313668488
 40
0.4999735156
100
AcDbArc
 50
359.9893785706
 51
62.7700833743
  0
ARC
  5
3F3
100
AcDbEntity
  8
A_RUNDUNGEN
100
AcDbCircle
 62
7
  6
CONTINUOUS
 10
46.2946827608
 20
28.1434165123
 40
0.45
100
AcDbArc
 50
359.999972552
 51
89.4968496894
  0
ARC
  5
3F4
100
AcDbEntity
  8
0
100
AcDbCircle
 62
7
  6
CONTINUOUS
 10
50.6447075046
 20
25.5140437002
 40
0.3
100
AcDbArc
 50
180.0000000422
 51
200.3973359045
  0
ARC
  5
3F5
100
AcDbEntity
  8
0
100
AcDbCircle
 62
7
  6
CONTINUOUS
 10
50.7814296263
 20
44.2712916099
 40
6.0
100
AcDbArc
 50
66.055898105
 51
90.055898105
  0
ARC
  5
3F6
100
AcDbEntity
  8
0
100
AcDbCircle
 62
7
  6
CONTINUOUS
 10
71.0573308864
 20
43.705242555
 40
4.0
100
AcDbArc
 50
0.055898105
 51
45.055898105
  0
ARC
  5
3F7
100
AcDbEntity
  8
0
100
AcDbCircle
 62
7
  6
CONTINUOUS
 10
53.0678265469
 20
43.6752814219
 40
4.0
100
AcDbArc
 50
135.1349514989
 51
180.1349514989
  0
ARC
  5
3F8
100
AcDbEntity
  8
0
100
AcDbCircle
 62
7
  6
CONTINUOUS
 10
66.3508573894
 20
41.7341746276
 40
2.0
100
AcDbArc
 50
334.055898105
 51
66.055898105
  0
ARC
  5
3F9
100
AcDbEntity
  8
A_RUNDUNGEN
100
AcDbCircle
 62
7
  6
CONTINUOUS
 10
57.7808394586
 20
41.7199014468
 40
2.0
100
AcDbArc
 50
114.1349514989
 51
206.1349514989
  0
ARC
  5
3FA
100
AcDbEntity
  8
A_RUNDUNGEN
100
AcDbCircle
 62
7
  6
CONTINUOUS
 10
55.2475260018
 20
39.544322825
 40
1.498913922
100
AcDbArc
 50
351.8118904798
 51
359.3000000422
  0
ARC
  5
3FB
100
AcDbEntity
  8
A_RUNDUNGEN
100
AcDbCircle
 62
7
  6
CONTINUOUS
 10
68.9110066989
 20
39.5774855652
 40
1.498913922
100
AcDbArc
 50
180.7
 51
187.0575878583
  0
ARC
  5
3FC
100
AcDbEntity
  8
A_RUNDUNGEN
100
AcDbCircle
 62
7
  6
CONTINUOUS
 10
55.2475260018
 20
39.544322825
 40
1.4799190669
100
AcDbArc
 50
353.0889236764
 51
359.3000000422
  0
ARC
  5
3FD
100
AcDbEntity
  8
A_RUNDUNGEN
100
AcDbCircle
 62
7
  6
CONTINUOUS
 10
68.9110066989
 20
39.5774855652
 40
1.4799190669
100
AcDbArc
 50
180.7
 51
185.8303308042
  0
ARC
  5
3FE
100
AcDbEntity
  8
0
100
AcDbCircle
 62
7
  6
CONTINUOUS
 10
23.844707484
 20
53.6140436805
 40
1.5
100
AcDbArc
 50
109.4712206766
 51
180.0000000422
  0
ARC
  5
3FF
100
AcDbEntity
  8
0
100
AcDbCircle
 62
7
  6
CONTINUOUS
 10
24.6447074797
 20
59.4140436811
 40
1.3
100
AcDbArc
 50
90.0000000422
 51
180.0000000422
  0
ARC
  5
400
100
AcDbEntity
  8
0
100
AcDbCircle
 62
7
  6
CONTINUOUS
 10
34.746418038
 20
56.3097575483
 40
1.0
100
AcDbArc
 50
90.2500000421
 51
96.0000000422
  0
ARC
  5
401
100
AcDbEntity
  8
A_RUNDUNGEN
100
AcDbCircle
 62
7
  6
CONTINUOUS
 10
47.3447074803
 20
58.6140436978
 40
1.0
100
AcDbArc
 50
49.4765475413
 51
90.0000000422
  0
ARC
  5
402
100
AcDbEntity
  8
0
100
AcDbCircle
 62
7
  6
CONTINUOUS
 10
24.3365201241
 20
50.4517714611
 40
0.6026519688
100
AcDbArc
 50
297.0548390909
 51
300.7561485317
  0
ARC
  5
403
100
AcDbEntity
  8
A_RUNDUNGEN
100
AcDbCircle
 62
7
  6
CONTINUOUS
 10
32.8468928033
 20
51.3216395488
 40
0.5020971647
100
AcDbArc
 50
180.0303842688
 51
191.8810651123
  0
ARC
  5
404
100
AcDbEntity
  8
A_RUNDUNGEN
100
AcDbCircle
 62
7
  6
CONTINUOUS
 10
32.853403566
 20
51.3269766231
 40
0.5020628993
100
AcDbArc
 50
180.0299692594
 51
191.7575778825
  0
ARC
  5
405
100
AcDbEntity
  8
A_RUNDUNGEN
100
AcDbCircle
 62
7
  6
CONTINUOUS
 10
27.3447074862
 20
50.553664073
 40
0.5
100
AcDbArc
 50
108.4349488651
 51
180.0000000422
  0
ARC
  5
406
100
AcDbEntity
  8
A_RUNDUNGEN
100
AcDbCircle
 62
7
  6
CONTINUOUS
 10
29.3633954889
 20
51.2265600756
 40
0.5
100
AcDbArc
 50
90.5000000422
 51
108.4349488651
  0
ARC
  5
407
100
AcDbEntity
  8
0
100
AcDbCircle
 62
7
  6
CONTINUOUS
 10
30.2447074841
 20
53.3946067616
 40
0.5
100
AcDbArc
 50
270.5000000422
 51
360.0
  0
ARC
  5
408
100
AcDbEntity
  8
0
100
AcDbCircle
 62
7
  6
CONTINUOUS
 10
26.2447074836
 20
54.168340479
 40
0.5
100
AcDbArc
 50
90.5000000422
 51
180.0000000422
  0
ARC
  5
409
100
AcDbEntity
  8
0
100
AcDbCircle
 62
7
  6
CONTINUOUS
 10
31.2447074826
 20
55.4620224196
 40
0.5
100
AcDbArc
 50
90.5000000422
 51
180.0000000422
  0
ARC
  5
40A
100
AcDbEntity
  8
0
100
AcDbCircle
 62
7
  6
CONTINUOUS
 10
30.2447074828
 20
55.2032860314
 40
0.5
100
AcDbArc
 50
270.5000000422
 51
360.0
  0
ARC
  5
40B
100
AcDbEntity
  8
0
100
AcDbCircle
 62
7
  6
CONTINUOUS
 10
25.2447074824
 20
55.8138416594
 40
0.5
100
AcDbArc
 50
96.0000000422
 51
180.0000000422
  0
ARC
  5
40C
100
AcDbEntity
  8
0
100
AcDbCircle
 62
7
  6
CONTINUOUS
 10
23.844707484
 20
53.6140436805
 40
0.5
100
AcDbArc
 50
90.0000000422
 51
180.0000000422
  0
ARC
  5
40D
100
AcDbEntity
  8
0
100
AcDbCircle
 62
7
  6
CONTINUOUS
 10
23.8447074843
 20
53.2140436805
 40
0.5
100
AcDbArc
 50
90.0000000422
 51
150.1915680508
  0
ARC
  5
40E
100
AcDbEntity
  8
0
100
AcDbCircle
 62
7
  6
CONTINUOUS
 10
24.6447074797
 20
59.4140436811
 40
0.3
100
AcDbArc
 50
90.0000000421
 51
180.0000000421
  0
ARC
  5
40F
100
AcDbEntity
  8
0
100
AcDbCircle
 62
7
  6
CONTINUOUS
 10
26.9947074854
 20
51.6853397146
 40
0.25
100
AcDbArc
 50
108.8844270901
 51
180.0000000422
  0
ARC
  5
410
100
AcDbEntity
  8
0
100
AcDbCircle
 62
7
  6
CONTINUOUS
 10
29.7872296464
 20
52.6405858539
 40
0.25
100
AcDbArc
 50
90.5000000422
 51
108.8844270901
  0
ARC
  5
411
100
AcDbEntity
  8
0
100
AcDbCircle
 62
7
  6
CONTINUOUS
 10
25.9947074835
 20
54.2456845754
 40
0.25
100
AcDbArc
 50
90.3000000422
 51
180.0000000422
  0
ARC
  5
412
100
AcDbEntity
  8
A_RUNDUNGEN
100
AcDbCircle
 62
7
  6
CONTINUOUS
 10
32.7947074824
 20
55.7255585854
 40
0.25
100
AcDbArc
 50
90.5000000422
 51
167.3933052991
  0
ARC
  5
413
100
AcDbEntity
  8
A_ACHSEN
100
AcDbCircle
 62
7
  6
CONTINUOUS
 10
62.0499344321
 20
51.2822449301
 40
5.1
100
AcDbArc
 50
34.3371043128
 51
133.9307864466
  0
ARC
  5
414
100
AcDbEntity
  8
A_ACHSEN
100
AcDbCircle
 62
7
  6
CONTINUOUS
 10
62.0499344321
 20
51.2822449301
 40
5.1
100
AcDbArc
 50
233.9058082111
 51
258.4294973103
  0
ARC
  5
415
100
AcDbEntity
  8
0
100
AcDbCircle
 62
7
  6
CONTINUOUS
 10
62.0499344321
 20
51.2822449301
 40
5.0
100
AcDbArc
 50
45.055898105
 51
128.268531426
  0
ARC
  5
416
100
AcDbEntity
  8
0
100
AcDbCircle
 62
7
  6
CONTINUOUS
 10
50.6447074812
 20
57.4140437002
 40
3.3
100
AcDbArc
 50
133.1761979862
 51
180.0000000422
  0
CIRCLE
  5
417
100
AcDbEntity
  8
0
100
AcDbCircle
 62
7
  6
CONTINUOUS
 10
62.0499344321
 20
51.2822449301
 40
2.75
  0
CIRCLE
  5
418
100
AcDbEntity
  8
A_ACHSEN
100
AcDbCircle
 62
7
  6
CONTINUOUS
 10
62.0499344321
 20
51.2822449301
 40
2.55
  0
CIRCLE
  5
419
100
AcDbEntity
  8
0
100
AcDbCircle
 62
7
  6
CONTINUOUS
 10
62.0499344321
 20
51.2822449301
 40
2.5
  0
ARC
  5
41A
100
AcDbEntity
  8
0
100
AcDbCircle
 62
7
  6
CONTINUOUS
 10
57.7144990241
 20
56.7780615048
 40
2.0
100
AcDbArc
 50
270.055898105
 51
308.268531426
  0
ARC
  5
41B
100
AcDbEntity
  8
0
100
AcDbCircle
 62
7
  6
CONTINUOUS
 10
66.3670395107
 20
56.7924721252
 40
2.0
100
AcDbArc
 50
246.5505933453
 51
270.1349514989
  0
ARC
  5
41C
100
AcDbEntity
  8
0
100
AcDbCircle
 62
7
  6
CONTINUOUS
 10
70.2447074769
 20
63.2140437146
 40
1.6
100
AcDbArc
 50
270.0000000422
 51
60.2544498068
  0
ARC
  5
41D
100
AcDbEntity
  8
0
100
AcDbCircle
 62
7
  6
CONTINUOUS
 10
70.2447074769
 20
63.2140437146
 40
0.6
100
AcDbArc
 50
270.0000000422
 51
60.2544498068
  0
ARC
  5
41E
100
AcDbEntity
  8
A_RUNDUNGEN
100
AcDbCircle
 62
7
  6
CONTINUOUS
 10
59.8447074823
 20
55.8450824122
 40
0.5
100
AcDbArc
 50
26.3497175086
 51
89.5000000422
  0
ARC
  5
41F
100
AcDbEntity
  8
A_RUNDUNGEN
100
AcDbCircle
 62
7
  6
CONTINUOUS
 10
58.1447074817
 20
56.6968132613
 40
0.5
100
AcDbArc
 50
316.9056456803
 51
360.0
  0
ARC
  5
420
100
AcDbEntity
  8
0
100
AcDbCircle
 62
7
  6
CONTINUOUS
 10
52.7447074817
 20
56.6496881713
 40
0.5
100
AcDbArc
 50
270.5000000422
 51
360.0
  0
ARC
  5
421
100
AcDbEntity
  8
0
100
AcDbCircle
 62
7
  6
CONTINUOUS
 10
70.515485143
 20
56.2389753212
 40
0.5
100
AcDbArc
 50
259.0
 51
269.0
  0
ARC
  5
422
100
AcDbEntity
  8
0
100
AcDbCircle
 62
7
  6
CONTINUOUS
 10
65.8184672545
 20
57.1519831103
 40
0.5
100
AcDbArc
 50
180.0
 51
259.0
  0
ARC
  5
423
100
AcDbEntity
  8
0
100
AcDbCircle
 62
7
  6
CONTINUOUS
 10
50.6447074812
 20
57.4140437002
 40
0.3
100
AcDbArc
 50
90.0000000422
 51
180.0000000422
  0
ARC
  5
424
100
AcDbEntity
  8
A_RUNDUNGEN
100
AcDbCircle
 62
7
  6
CONTINUOUS
 10
53.4947074823
 20
55.9062047639
 40
0.25
100
AcDbArc
 50
90.5000000421
 51
180.0000000422
  0
ARC
  5
425
100
AcDbEntity
  8
0
100
AcDbCircle
 62
7
  6
CONTINUOUS
 10
63.8447074683
 20
74.8640437099
 40
3.5
100
AcDbArc
 50
90.0000000422
 51
180.0000000422
  0
ARC
  5
426
100
AcDbEntity
  8
0
100
AcDbCircle
 62
7
  6
CONTINUOUS
 10
68.2350313498
 20
74.8640437131
 40
3.5
100
AcDbArc
 50
345.0000000422
 51
90.0000000421
  0
ARC
  5
427
100
AcDbEntity
  8
0
100
AcDbCircle
 62
7
  6
CONTINUOUS
 10
72.2789186827
 20
66.7738168493
 40
3.5
100
AcDbArc
 50
165.0000000422
 51
240.2544498068
  0
ARC
  5
428
100
AcDbEntity
  8
0
100
AcDbCircle
 62
7
  6
CONTINUOUS
 10
72.2789186827
 20
66.7738168493
 40
2.5
100
AcDbArc
 50
165.0000000422
 51
240.2544498068
  0
ARC
  5
429
100
AcDbEntity
  8
0
100
AcDbCircle
 62
7
  6
CONTINUOUS
 10
62.8447074762
 20
64.1140437092
 40
2.5
100
AcDbArc
 50
180.0000000422
 51
270.0000000422
  0
ARC
  5
42A
100
AcDbEntity
  8
0
100
AcDbCircle
 62
7
  6
CONTINUOUS
 10
68.2350313498
 20
74.8640437131
 40
2.5
100
AcDbArc
 50
345.0000000422
 51
90.0000000422
  0
ARC
  5
42B
100
AcDbEntity
  8
0
100
AcDbCircle
 62
7
  6
CONTINUOUS
 10
63.8447074683
 20
74.8640437099
 40
2.5
100
AcDbArc
 50
90.0000000422
 51
180.0000000422
  0
ARC
  5
42C
100
AcDbEntity
  8
0
100
AcDbCircle
 62
7
  6
CONTINUOUS
 10
72.2111202271
 20
66.8640437161
 40
2.5
100
AcDbArc
 50
164.7680766958
 51
270.0000000422
  0
ARC
  5
42D
100
AcDbEntity
  8
0
100
AcDbCircle
 62
7
  6
CONTINUOUS
 10
61.3447074665
 20
77.3640437081
 40
2.5
100
AcDbArc
 50
90.0000000422
 51
180.0000000422
  0
ARC
  5
42E
100
AcDbEntity
  8
0
100
AcDbCircle
 62
7
  6
CONTINUOUS
 10
71.4427594508
 20
77.3640437155
 40
2.5
100
AcDbArc
 50
344.7680766958
 51
90.0000000422
  0
ARC
  5
42F
100
AcDbEntity
  8
0
100
AcDbCircle
 62
7
  6
CONTINUOUS
 10
62.8447074762
 20
64.1140437092
 40
1.5
100
AcDbArc
 50
180.0000000422
 51
270.0000000422
  0
ARC
  5
430
100
AcDbEntity
  8
0
100
AcDbCircle
 62
7
  6
CONTINUOUS
 10
71.4427594508
 20
77.3640437155
 40
1.0
100
AcDbArc
 50
344.7680766958
 51
90.0000000422
  0
ARC
  5
431
100
AcDbEntity
  8
0
100
AcDbCircle
 62
7
  6
CONTINUOUS
 10
61.3447074665
 20
77.3640437081
 40
1.0
100
AcDbArc
 50
90.0000000422
 51
180.0000000422
  0
ARC
  5
432
100
AcDbEntity
  8
0
100
AcDbCircle
 62
7
  6
CONTINUOUS
 10
72.2111202271
 20
66.8640437161
 40
1.0
100
AcDbArc
 50
164.7680766958
 51
270.0000000422
  0
ARC
  5
433
100
AcDbEntity
  8
A_RUNDUNGEN
100
AcDbCircle
 62
7
  6
CONTINUOUS
 10
74.0356861395
 20
35.3272488846
 40
1.5000225204
100
AcDbArc
 50
0.0005075344
 51
46.6744844691
  0
ARC
  5
434
100
AcDbEntity
  8
A_RUNDUNGEN
100
AcDbCircle
 62
7
  6
CONTINUOUS
 10
83.9944978566
 20
27.8444807215
 40
1.0
100
AcDbArc
 50
91.0
 51
120.0
  0
ARC
  5
435
100
AcDbEntity
  8
A_RUNDUNGEN
100
AcDbCircle
 62
7
  6
CONTINUOUS
 10
82.6928201204
 20
29.4023578068
 40
1.0
100
AcDbArc
 50
271.0
 51
300.0
  0
ARC
  5
436
100
AcDbEntity
  8
0
100
AcDbCircle
 62
7
  6
CONTINUOUS
 10
81.5345123102
 20
27.8794258939
 40
0.5024848097
100
AcDbArc
 50
91.0371089782
 51
105.8865531454
  0
ARC
  5
437
100
AcDbEntity
  8
0
100
AcDbCircle
 62
7
  6
CONTINUOUS
 10
81.5348124632
 20
27.8803550498
 40
0.5016735983
100
AcDbArc
 50
105.9485722155
 51
120.7502863314
  0
ARC
  5
438
100
AcDbEntity
  8
0
100
AcDbCircle
 62
7
  6
CONTINUOUS
 10
79.6184672545
 20
27.6774761373
 40
0.5
100
AcDbArc
 50
90.5
 51
180.0
  0
ARC
  5
439
100
AcDbEntity
  8
0
100
AcDbCircle
 62
7
  6
CONTINUOUS
 10
73.3417298441
 20
44.3088653054
 40
6.0
100
AcDbArc
 50
90.1349514989
 51
114.1349514989
  0
ARC
  5
43A
100
AcDbEntity
  8
0
100
AcDbCircle
 62
7
  6
CONTINUOUS
 10
85.7273299082
 20
48.8380502398
 40
6.0
100
AcDbArc
 50
45.1349514989
 51
90.1349514989
  0
ARC
  5
43B
100
AcDbEntity
  8
0
100
AcDbCircle
 62
7
  6
CONTINUOUS
 10
85.5214013744
 20
48.3375638186
 40
2.0
100
AcDbArc
 50
45.1349514989
 51
90.1349514989
  0
ARC
  5
43C
100
AcDbEntity
  8
0
100
AcDbCircle
 62
7
  6
CONTINUOUS
 10
92.5211082394
 20
26.5585152949
 40
0.6
100
AcDbArc
 50
270.25
 51
278.0
  0
ARC
  5
43D
100
AcDbEntity
  8
0
100
AcDbCircle
 62
7
  6
CONTINUOUS
 10
90.9380964466
 20
31.0702373315
 40
0.4999568477
100
AcDbArc
 50
91.9989232016
 51
180.0048272861
  0
ARC
  5
43E
100
AcDbEntity
  8
A_RUNDUNGEN
100
AcDbCircle
 62
7
  6
CONTINUOUS
 10
94.1242127422
 20
36.1171471548
 40
0.4999938654
100
AcDbArc
 50
101.7080493873
 51
180.0001282535
  0
ARC
  5
43F
100
AcDbEntity
  8
A_RUNDUNGEN
100
AcDbCircle
 62
7
  6
CONTINUOUS
 10
96.2184672545
 20
30.0581555571
 40
1.0
100
AcDbArc
 50
271.0
 51
360.0
  0
ARC
  5
440
100
AcDbEntity
  8
0
100
AcDbCircle
 62
7
  6
CONTINUOUS
 10
98.2184672545
 20
28.2680717018
 40
1.5
100
AcDbArc
 50
278.0
 51
354.3380412953
  0
ARC
  5
441
100
AcDbEntity
  8
A_FASEN
100
AcDbCircle
 62
7
  6
CONTINUOUS
 10
98.2184672545
 20
28.2680717018
 40
1.5
100
AcDbArc
 50
354.3380412953
 51
360.0
  0
ARC
  5
442
100
AcDbEntity
  8
0
100
AcDbCircle
 62
7
  6
CONTINUOUS
 10
97.9684672545
 20
28.5876427201
 40
0.25
100
AcDbArc
 50
270.5
 51
360.0
  0
ARC
  5
443
100
AcDbEntity
  8
0
100
AcDbCircle
 62
7
  6
CONTINUOUS
 10
97.7184672545
 20
35.8441973905
 40
0.5
100
AcDbArc
 50
180.0
 51
269.5
  0
ARC
  5
444
100
AcDbEntity
  8
A_RUNDUNGEN
100
AcDbCircle
 62
7
  6
CONTINUOUS
 10
94.9221366347
 20
37.3074678406
 40
0.4999950822
100
AcDbArc
 50
282.1165641951
 51
315.0000053483
  0
ARC
  5
445
100
AcDbEntity
  8
A_RUNDUNGEN
100
AcDbCircle
 62
7
  6
CONTINUOUS
 10
96.9684672545
 20
32.0312371111
 40
0.25
100
AcDbArc
 50
272.0
 51
360.0
  0
ARC
  5
446
100
AcDbEntity
  8
0
100
AcDbCircle
 62
7
  6
CONTINUOUS
 10
97.9684672545
 20
35.0919871148
 40
0.25
100
AcDbArc
 50
0.0
 51
89.5
  0
ARC
  5
447
100
AcDbEntity
  8
0
100
AcDbCircle
 62
7
  6
CONTINUOUS
 10
89.6351339212
 20
45.1398149174
 40
9.0833333333
100
AcDbArc
 50
327.5092588329
 51
336.949639287
  0
ARC
  5
448
100
AcDbEntity
  8
A_RUNDUNGEN
100
AcDbCircle
 62
7
  6
CONTINUOUS
 10
89.6351339212
 20
45.1398149174
 40
9.0833333333
100
AcDbArc
 50
15.0544617741
 51
32.4907411671
  0
ARC
  5
449
100
AcDbEntity
  8
A_RUNDUNGEN
100
AcDbCircle
 62
7
  6
CONTINUOUS
 10
89.6351339212
 20
45.1398149174
 40
9.0833333333
100
AcDbArc
 50
8.3999539101
 51
11.0844939828
  0
ARC
  5
44A
100
AcDbEntity
  8
A_RUNDUNGEN
100
AcDbCircle
 62
7
  6
CONTINUOUS
 10
89.6351339212
 20
45.1398149174
 40
9.0833333333
100
AcDbArc
 50
336.8897769963
 51
357.7241061738
  0
ARC
  5
44B
100
AcDbEntity
  8
0
100
AcDbCircle
 62
7
  6
CONTINUOUS
 10
93.9052527836
 20
46.34763189
 40
5.0
100
AcDbArc
 50
93.3389814747
 51
109.9594406054
  0
ARC
  5
44C
100
AcDbEntity
  8
A_ACHSEN
100
AcDbCircle
 62
7
  6
CONTINUOUS
 10
92.0639831893
 20
45.3529655825
 40
4.75
100
AcDbArc
 50
143.2530117645
 51
77.5934540088
  0
ARC
  5
44D
100
AcDbEntity
  8
0
100
AcDbCircle
 62
7
  6
CONTINUOUS
 10
92.0639831893
 20
45.3529655825
 40
4.0
100
AcDbArc
 50
159.7592698511
 51
45.1349514989
  0
CIRCLE
  5
44E
100
AcDbEntity
  8
0
100
AcDbCircle
 62
7
  6
CONTINUOUS
 10
92.0639831893
 20
45.3529655825
 40
2.55
  0
ARC
  5
44F
100
AcDbEntity
  8
A_RUNDUNGEN
100
AcDbCircle
 62
7
  6
CONTINUOUS
 10
88.4130850273
 20
48.2248238318
 40
2.0
100
AcDbArc
 50
133.9858428891
 51
191.6492110401
  0
ARC
  5
450
100
AcDbEntity
  8
A_RUNDUNGEN
100
AcDbCircle
 62
7
  6
CONTINUOUS
 10
89.8467113391
 20
41.2710683286
 40
2.0
100
AcDbArc
 50
191.6492110401
 51
281.6492110401
  0
ARC
  5
451
100
AcDbEntity
  8
A_RUNDUNGEN
100
AcDbCircle
 62
7
  6
CONTINUOUS
 10
95.7231244404
 20
42.4825835217
 40
2.0
100
AcDbArc
 50
281.6492110401
 51
11.6492110401
  0
ARC
  5
452
100
AcDbEntity
  8
A_RUNDUNGEN
100
AcDbCircle
 62
7
  6
CONTINUOUS
 10
94.2894981286
 20
49.4363390249
 40
2.0
100
AcDbArc
 50
11.6492110401
 51
101.6492110401
  0
ARC
  5
453
100
AcDbEntity
  8
0
100
AcDbCircle
 62
7
  6
CONTINUOUS
 10
86.4344992589
 20
47.4287571612
 40
2.0
100
AcDbArc
 50
339.7592698511
 51
45.1349514989
  0
ARC
  5
454
100
AcDbEntity
  8
0
100
AcDbCircle
 62
7
  6
CONTINUOUS
 10
97.7184672545
 20
39.9919998469
 40
0.5
100
AcDbArc
 50
147.5092588329
 51
180.0
  0
ARC
  5
455
100
AcDbEntity
  8
A_RUNDUNGEN
100
AcDbCircle
 62
7
  6
CONTINUOUS
 10
96.124374621
 20
40.0310349261
 40
0.4994180488
100
AcDbArc
 50
359.9927166984
 51
82.571438255
  0
ARC
  5
456
100
AcDbEntity
  8
0
100
AcDbCircle
 62
7
  6
CONTINUOUS
 10
98.4184672545
 20
42.0745042874
 40
0.3
100
AcDbArc
 50
273.0
 51
360.0
  0
ARC
  5
457
100
AcDbEntity
  8
0
100
AcDbCircle
 62
7
  6
CONTINUOUS
 10
98.2693118749
 20
41.4658639776
 40
0.3
100
AcDbArc
 50
93.0
 51
156.949639287
  0
ARC
  5
458
100
AcDbEntity
  8
A_RUNDUNGEN
100
AcDbCircle
 62
7
  6
CONTINUOUS
 10
124.5365529417
 20
51.176396183
 40
27.9419172442
100
AcDbArc
 50
179.4861695714
 51
179.6874874979
  0
ARC
  5
459
100
AcDbEntity
  8
0
100
AcDbCircle
 62
7
  6
CONTINUOUS
 10
73.0427594585
 20
66.8640437167
 40
2.5
100
AcDbArc
 50
270.0000000422
 51
360.0
  0
ARC
  5
45A
100
AcDbEntity
  8
0
100
AcDbCircle
 62
7
  6
CONTINUOUS
 10
98.2184672545
 20
55.3115581331
 40
1.5
100
AcDbArc
 50
0.0
 51
82.0
  0
ARC
  5
45B
100
AcDbEntity
  8
0
100
AcDbCircle
 62
7
  6
CONTINUOUS
 10
96.2184672545
 20
53.6611147972
 40
1.0
100
AcDbArc
 50
22.4853129779
 51
89.0
  0
ARC
  5
45C
100
AcDbEntity
  8
A_RUNDUNGEN
100
AcDbCircle
 62
7
  6
CONTINUOUS
 10
96.2184672545
 20
53.6611147972
 40
1.0
100
AcDbArc
 50
0.0
 51
22.4853129779
  0
ARC
  5
45D
100
AcDbEntity
  8
0
100
AcDbCircle
 62
7
  6
CONTINUOUS
 10
73.0427594585
 20
66.8640437167
 40
1.0
100
AcDbArc
 50
270.0000000422
 51
360.0
  0
ARC
  5
45E
100
AcDbEntity
  8
0
100
AcDbCircle
 62
7
  6
CONTINUOUS
 10
92.5211082394
 20
57.0211145399
 40
0.6
100
AcDbArc
 50
82.0
 51
89.75
  0
ARC
  5
45F
100
AcDbEntity
  8
A_RUNDUNGEN
100
AcDbCircle
 62
7
  6
CONTINUOUS
 10
96.1167634532
 20
52.5808369765
 40
0.5023757159
100
AcDbArc
 50
284.0986825451
 51
299.8196545792
  0
ARC
  5
460
100
AcDbEntity
  8
A_RUNDUNGEN
100
AcDbCircle
 62
7
  6
CONTINUOUS
 10
96.124197327
 20
52.5870188937
 40
0.5000208585
100
AcDbArc
 50
284.0651713584
 51
359.9998164086
  0
ARC
  5
461
100
AcDbEntity
  8
A_RUNDUNGEN
100
AcDbCircle
 62
7
  6
CONTINUOUS
 10
97.7184672545
 20
50.2876299879
 40
0.5
100
AcDbArc
 50
180.0
 51
212.4907411671
  0
ARC
  5
462
100
AcDbEntity
  8
0
100
AcDbCircle
 62
7
  6
CONTINUOUS
 10
90.457054565
 20
54.8907416041
 40
0.5
100
AcDbArc
 50
60.0
 51
89.0
  0
ARC
  5
463
100
AcDbEntity
  8
0
100
AcDbCircle
 62
7
  6
CONTINUOUS
 10
91.8564825556
 20
55.2374820154
 40
0.5
100
AcDbArc
 50
240.0
 51
269.0
  0
ARC
  5
464
100
AcDbEntity
  8
A_RUNDUNGEN
100
AcDbCircle
 62
7
  6
CONTINUOUS
 10
96.1165783198
 20
51.5465841295
 40
0.4999998821
100
AcDbArc
 50
283.9495577786
 51
0.0006846286
  0
ARC
  5
465
100
AcDbEntity
  8
0
100
AcDbCircle
 62
7
  6
CONTINUOUS
 10
98.4184672545
 20
53.5051255474
 40
0.3
100
AcDbArc
 50
0.0
 51
87.0
  0
ARC
  5
466
100
AcDbEntity
  8
0
100
AcDbCircle
 62
7
  6
CONTINUOUS
 10
97.419638132
 20
54.1582953712
 40
0.3
100
AcDbArc
 50
202.4853129779
 51
267.0
  0
ARC
  5
467
100
AcDbEntity
  8
A_RUNDUNGEN
100
AcDbCircle
 62
7
  6
CONTINUOUS
 10
64.8000885354
 20
177.6162857333
 40
144.0057516223
100
AcDbArc
 50
281.7081776408
 51
282.1165695434
  0
ARC
  5
468
100
AcDbEntity
  8
0
100
AcDbCircle
 62
7
  6
CONTINUOUS
 10
58.7029681358
 20
177.601086222
 40
140.6065450262
100
AcDbArc
 50
256.9043496797
 51
266.0765305456
  0
ARC
  5
469
100
AcDbEntity
  8
A_RUNDUNGEN
100
AcDbCircle
 62
7
  6
CONTINUOUS
 10
64.8000885354
 20
177.6162857333
 40
140.6065450262
100
AcDbArc
 50
274.1845033805
 51
282.1691588078
  0
ARC
  5
46A
100
AcDbEntity
  8
0
100
AcDbCircle
 62
7
  6
CONTINUOUS
 10
58.7029681358
 20
177.601086222
 40
140.6
100
AcDbArc
 50
256.9037292253
 51
266.0763409116
  0
ARC
  5
46B
100
AcDbEntity
  8
A_RUNDUNGEN
100
AcDbCircle
 62
7
  6
CONTINUOUS
 10
64.8000885354
 20
177.6162857333
 40
140.6
100
AcDbArc
 50
274.1886323091
 51
280.1769744155
  0
ARC
  5
46C
100
AcDbEntity
  8
A_RUNDUNGEN
100
AcDbCircle
 62
7
  6
CONTINUOUS
 10
64.8000885354
 20
177.6162857333
 40
140.6
100
AcDbArc
 50
281.1277754518
 51
282.1692162024
  0
ARC
  5
46D
100
AcDbEntity
  8
A_RUNDUNGEN
100
AcDbCircle
 62
7
  6
CONTINUOUS
 10
58.7029681358
 20
177.601086222
 40
139.598913922
100
AcDbArc
 50
260.5498034633
 51
266.0463783594
  0
ARC
  5
46E
100
AcDbEntity
  8
A_RUNDUNGEN
100
AcDbCircle
 62
7
  6
CONTINUOUS
 10
64.8000885354
 20
177.6162857333
 40
139.598913922
100
AcDbArc
 50
274.2175773715
 51
279.6849415866
  0
ARC
  5
46F
100
AcDbEntity
  8
A_RUNDUNGEN
100
AcDbCircle
 62
7
  6
CONTINUOUS
 10
58.7029681358
 20
177.601086222
 40
139.5799190669
100
AcDbArc
 50
260.5562163026
 51
266.045770968
  0
ARC
  5
470
100
AcDbEntity
  8
A_RUNDUNGEN
100
AcDbCircle
 62
7
  6
CONTINUOUS
 10
64.8000885354
 20
177.6162857333
 40
139.5799190669
100
AcDbArc
 50
274.234828662
 51
279.7084914897
  0
ARC
  5
471
100
AcDbEntity
  8
A_RUNDUNGEN
100
AcDbCircle
 62
7
  6
CONTINUOUS
 10
58.7029681358
 20
177.601086222
 40
130.4200809331
100
AcDbArc
 50
260.6452028801
 51
266.6752030784
  0
ARC
  5
472
100
AcDbEntity
  8
A_RUNDUNGEN
100
AcDbCircle
 62
7
  6
CONTINUOUS
 10
64.8000885354
 20
177.6162857333
 40
130.4200809331
100
AcDbArc
 50
273.5821949908
 51
279.6331326499
  0
ARC
  5
473
100
AcDbEntity
  8
A_RUNDUNGEN
100
AcDbCircle
 62
7
  6
CONTINUOUS
 10
64.8000885354
 20
177.6162857333
 40
130.4200809331
100
AcDbArc
 50
283.6764305891
 51
283.9395476891
  0
ARC
  5
474
100
AcDbEntity
  8
A_RUNDUNGEN
100
AcDbCircle
 62
7
  6
CONTINUOUS
 10
58.7029681358
 20
177.601086222
 40
130.401086078
100
AcDbArc
 50
260.6414519154
 51
266.6820946553
  0
ARC
  5
475
100
AcDbEntity
  8
A_RUNDUNGEN
100
AcDbCircle
 62
7
  6
CONTINUOUS
 10
64.8000885354
 20
177.6162857333
 40
130.401086078
100
AcDbArc
 50
273.5508296014
 51
279.6286793009
  0
ARC
  5
476
100
AcDbEntity
  8
A_RUNDUNGEN
100
AcDbCircle
 62
7
  6
CONTINUOUS
 10
64.8000885354
 20
177.6162857333
 40
130.401086078
100
AcDbArc
 50
283.668867433
 51
283.9502597708
  0
ARC
  5
477
100
AcDbEntity
  8
A_RUNDUNGEN
100
AcDbCircle
 62
7
  6
CONTINUOUS
 10
58.7029681358
 20
177.601086222
 40
129.4
100
AcDbArc
 50
260.5882506399
 51
267.0855976023
  0
ARC
  5
478
100
AcDbEntity
  8
A_RUNDUNGEN
100
AcDbCircle
 62
7
  6
CONTINUOUS
 10
64.8000885354
 20
177.6162857333
 40
129.4
100
AcDbArc
 50
282.0913542098
 51
284.0613199176
  0
ARC
  5
479
100
AcDbEntity
  8
A_RUNDUNGEN
100
AcDbCircle
 62
7
  6
CONTINUOUS
 10
58.7029681358
 20
177.601086222
 40
129.3934549738
100
AcDbArc
 50
260.5909410406
 51
267.0882027032
  0
ARC
  5
47A
100
AcDbEntity
  8
A_RUNDUNGEN
100
AcDbCircle
 62
7
  6
CONTINUOUS
 10
64.8000885354
 20
177.6162857333
 40
129.3934549738
100
AcDbArc
 50
273.15860674
 51
279.6564233752
  0
ARC
  5
47B
100
AcDbEntity
  8
A_RUNDUNGEN
100
AcDbCircle
 62
7
  6
CONTINUOUS
 10
64.8000885354
 20
177.6162857333
 40
129.3934549738
100
AcDbArc
 50
282.089451881
 51
284.0650479179
  0
ARC
  5
47C
100
AcDbEntity
  8
A_RUNDUNGEN
100
AcDbCircle
 62
7
  6
CONTINUOUS
 10
287.3527229322
 20
50.5311994204
 40
190.759497574
100
AcDbArc
 50
179.8282968817
 51
180.0120352741
  0
SPLINE
  5
47D
100
AcDbEntity
  8
A_RUNDUNGEN
100
AcDbSpline
 62
7
  6
CONTINUOUS
 70
0
 71
3
 72
9
 73
5
 74
0
 42
0.0000001
 43
0.0000001
 44
0.0000000001
 40
0.0
 40
0.0
 40
0.0
 40
0.0
 40
0.2879214314
 40
1.0
 40
1.0
 40
1.0
 40
1.0
 10
50.829951931
 20
22.2711865575
 30
0.0
 10
50.8318729575
 20
22.2668747993
 30
0.0
 10
50.8389583174
 20
22.2521107104
 30
0.0
 10
50.847593862
 20
22.2379241298
 30
0.0
 10
50.8552432017
 20
22.2291051422
 30
0.0
  0
SPLINE
  5
47E
100
AcDbEntity
  8
A_RUNDUNGEN
100
AcDbSpline
 62
7
  6
CONTINUOUS
 70
0
 71
3
 72
9
 73
5
 74
0
 42
0.0000001
 43
0.0000001
 44
0.0000000001
 40
0.0
 40
0.0
 40
0.0
 40
0.0
 40
0.318493138
 40
1.0
 40
1.0
 40
1.0
 40
1.0
 10
50.8552432017
 20
22.2291051422
 30
0.0
 10
50.8572282379
 20
22.2268165774
 30
0.0
 10
50.8636721322
 20
22.2200686851
 30
0.0
 10
50.8725672527
 20
22.2140437004
 30
0.0
 10
50.8790497412
 20
22.2140437004
 30
0.0
  0
SPLINE
  5
47F
100
AcDbEntity
  8
A_RUNDUNGEN
100
AcDbSpline
 62
7
  6
CONTINUOUS
 70
0
 71
3
 72
10
 73
6
 74
0
 42
0.0000001
 43
0.0000001
 44
0.0000000001
 40
0.0
 40
0.0
 40
0.0
 40
0.0
 40
0.5076745098
 40
0.7439049631
 40
1.0
 40
1.0
 40
1.0
 40
1.0
 10
50.5749064367
 20
22.4140437001
 30
0.0
 10
50.6274559287
 20
22.4140437002
 30
0.0
 10
50.7088824491
 20
22.4053150453
 30
0.0
 10
50.7923001646
 20
22.3398744025
 30
0.0
 10
50.8191638433
 20
22.2954005009
 30
0.0
 10
50.829951931
 20
22.2711865575
 30
0.0
  0
LINE
  5
480
100
AcDbEntity
  8
A_RUNDUNGEN
100
AcDbLine
 62
7
  6
CONTINUOUS
 10
56.7463280593
 20
39.5260105935
 11
56.7438896799
 21
39.2932307366
  0
LINE
  5
481
100
AcDbEntity
  8
A_RUNDUNGEN
100
AcDbLine
 62
7
  6
CONTINUOUS
 10
96.595051335
 20
51.3288010416
 11
96.5945443457
 21
51.2279768863
  0
LINE
  5
482
100
AcDbEntity
  8
A_RUNDUNGEN
100
AcDbLine
 62
7
  6
CONTINUOUS
 10
96.5945443457
 20
51.2279768863
 11
96.5940819362
 21
51.102863718
  0
SPLINE
  5
483
100
AcDbEntity
  8
A_RUNDUNGEN
100
AcDbSpline
 62
7
  6
CONTINUOUS
 70
0
 71
3
 72
14
 73
10
 74
0
 42
0.0000001
 43
0.0000001
 44
0.0000000001
 40
0.0
 40
0.0
 40
0.0
 40
0.0
 40
0.1023210518
 40
0.1975280799
 40
0.3573074538
 40
0.4897757271
 40
0.6058163224
 40
0.810669253
 40
1.0
 40
1.0
 40
1.0
 40
1.0
 10
75.8184672545
 20
26.6898196771
 30
0.0
 10
75.8184665999
 20
26.7164971899
 30
0.0
 10
75.8228639564
 20
26.7680624336
 30
0.0
 10
75.8437843009
 20
26.8591139558
 30
0.0
 10
75.8866740699
 20
26.9518839525
 30
0.0
 10
75.9518966086
 20
27.0369035044
 30
0.0
 10
76.041016636
 20
27.11542372
 30
0.0
 10
76.1616097953
 20
27.1771037777
 30
0.0
 10
76.2648537299
 20
27.1936395722
 30
0.0
 10
76.3142149118
 20
27.1940625005
 30
0.0
  0
SPLINE
  5
484
100
AcDbEntity
  8
A_RUNDUNGEN
100
AcDbSpline
 62
7
  6
CONTINUOUS
 70
0
 71
3
 72
9
 73
5
 74
0
 42
0.0000001
 43
0.0000001
 44
0.0000000001
 40
0.0
 40
0.0
 40
0.0
 40
0.0
 40
0.4998865856
 40
1.0
 40
1.0
 40
1.0
 40
1.0
 10
75.8184713633
 20
28.521011619
 30
0.0
 10
75.8184573745
 20
28.6140113699
 30
0.0
 10
75.7924316082
 20
28.8005808014
 30
0.0
 10
75.7271895733
 20
28.97579178
 30
0.0
 10
75.6891732864
 20
29.0607127236
 30
0.0
  0
SPLINE
  5
485
100
AcDbEntity
  8
A_RUNDUNGEN
100
AcDbSpline
 62
7
  6
CONTINUOUS
 70
0
 71
3
 72
9
 73
5
 74
0
 42
0.0000001
 43
0.0000001
 44
0.0000000001
 40
0.0
 40
0.0
 40
0.0
 40
0.0
 40
0.4999685997
 40
1.0
 40
1.0
 40
1.0
 40
1.0
 10
75.6891732864
 20
29.0607127236
 30
0.0
 10
75.6384058212
 20
29.1741240539
 30
0.0
 10
75.5613790081
 20
29.4126647059
 30
0.0
 10
75.5357185325
 20
29.6618623426
 30
0.0
 10
75.5357185325
 20
29.7861335954
 30
0.0
  0
SPLINE
  5
486
100
AcDbEntity
  8
A_FASEN
100
AcDbSpline
 62
7
  6
CONTINUOUS
 70
0
 71
3
 72
18
 73
14
 74
0
 42
0.0000001
 43
0.0000001
 44
0.0000000001
 40
0.0
 40
0.0
 40
0.0
 40
0.0
 40
0.2327819796
 40
0.4352341519
 40
0.607149031
 40
0.7482396525
 40
0.8582107891
 40
0.9014792055
 40
0.9369155868
 40
0.9645034098
 40
0.9842252511
 40
0.9960629896
 40
1.0
 40
1.0
 40
1.0
 40
1.0
 10
99.5184672545
 20
28.4611389026
 30
0.0
 10
99.5184999244
 20
28.4517072309
 30
0.0
 10
99.5183464089
 20
28.4340709199
 30
0.0
 10
99.5175355078
 20
28.4094827305
 30
0.0
 10
99.5163865668
 20
28.3886259129
 30
0.0
 10
99.5151355534
 20
28.3715384466
 30
0.0
 10
99.5141066799
 20
28.3596446959
 30
0.0
 10
99.5134027192
 20
28.3520516257
 30
0.0
 10
99.5129350866
 20
28.3477297233
 30
0.0
 10
99.5126819938
 20
28.3444902626
 30
0.0
 10
99.5122013092
 20
28.3418931675
 30
0.0
 10
99.5124318106
 20
28.3408401902
 30
0.0
 10
99.5119654186
 20
28.3398149174
 30
0.0
 10
99.5121249362
 20
28.3398149174
 30
0.0
  0
SPLINE
  5
487
100
AcDbEntity
  8
0
100
AcDbSpline
 62
7
  6
CONTINUOUS
 70
0
 71
3
 72
13
 73
9
 74
0
 42
0.0000001
 43
0.0000001
 44
0.0000000001
 40
0.0
 40
0.0
 40
0.0
 40
0.0
 40
0.3452320722
 40
0.6391864977
 40
0.7505741781
 40
0.8392613744
 40
0.9169634633
 40
1.0
 40
1.0
 40
1.0
 40
1.0
 10
24.6447074844
 20
52.9942057977
 30
0.0
 10
24.6098855811
 20
53.0149296936
 30
0.0
 10
24.541680718
 20
53.0469672923
 30
0.0
 10
24.4541365396
 20
53.0671621156
 30
0.0
 10
24.3958956094
 20
53.0618438253
 30
0.0
 10
24.3650853809
 20
53.0481389153
 30
0.0
 10
24.3472811469
 20
53.0232296777
 30
0.0
 10
24.3447074844
 20
53.0039523403
 30
0.0
 10
24.3447074844
 20
52.9942057974
 30
0.0
  0
SPLINE
  5
488
100
AcDbEntity
  8
0
100
AcDbSpline
 62
7
  6
CONTINUOUS
 70
0
 71
3
 72
13
 73
9
 74
0
 42
0.0000001
 43
0.0000001
 44
0.0000000001
 40
0.0
 40
0.0
 40
0.0
 40
0.0
 40
0.0830365283
 40
0.1607386067
 40
0.2494258181
 40
0.3608135042
 40
0.6547679827
 40
1.0
 40
1.0
 40
1.0
 40
1.0
 10
24.3447075014
 20
29.9338815642
 30
0.0
 10
24.3447075014
 20
29.9241350224
 30
0.0
 10
24.3472811554
 20
29.9048576855
 30
0.0
 10
24.3650853942
 20
29.87994845
 30
0.0
 10
24.3958956237
 20
29.866243542
 30
0.0
 10
24.4541365619
 20
29.8609252412
 30
0.0
 10
24.5416807417
 20
29.8811200734
 30
0.0
 10
24.6098856035
 20
29.9131576717
 30
0.0
 10
24.6447075014
 20
29.9338815645
 30
0.0
  0
SPLINE
  5
489
100
AcDbEntity
  8
0
100
AcDbSpline
 62
7
  6
CONTINUOUS
 70
0
 71
3
 72
13
 73
9
 74
0
 42
0.0000001
 43
0.0000001
 44
0.0000000001
 40
0.0
 40
0.0
 40
0.0
 40
0.0
 40
0.3452320173
 40
0.6391864958
 40
0.7505741819
 40
0.8392613933
 40
0.9169634717
 40
1.0
 40
1.0
 40
1.0
 40
1.0
 10
24.6447074991
 20
32.9942057977
 30
0.0
 10
24.6098856012
 20
33.0149296903
 30
0.0
 10
24.5416807394
 20
33.0469672886
 30
0.0
 10
24.4541365595
 20
33.0671621206
 30
0.0
 10
24.3958956214
 20
33.0618438198
 30
0.0
 10
24.3650853919
 20
33.0481389117
 30
0.0
 10
24.3472811531
 20
33.0232296761
 30
0.0
 10
24.3447074991
 20
33.0039523393
 30
0.0
 10
24.3447074991
 20
32.9942057974
 30
0.0
  0
SPLINE
  5
48A
100
AcDbEntity
  8
0
100
AcDbSpline
 62
7
  6
CONTINUOUS
 70
0
 71
3
 72
13
 73
9
 74
0
 42
0.0000001
 43
0.0000001
 44
0.0000000001
 40
0.0
 40
0.0
 40
0.0
 40
0.0
 40
0.0866112172
 40
0.1670895724
 40
0.3610408882
 40
0.4941039158
 40
0.649475152
 40
1.0
 40
1.0
 40
1.0
 40
1.0
 10
24.3447074867
 20
49.9338815642
 30
0.0
 10
24.3447074867
 20
49.9248517032
 30
0.0
 10
24.3468846837
 20
49.9071582401
 30
0.0
 10
24.367680153
 20
49.8739120207
 30
0.0
 10
24.4134668351
 20
49.8623628604
 30
0.0
 10
24.4631222961
 20
49.8650228895
 30
0.0
 10
24.5288544116
 20
49.8783401788
 30
0.0
 10
24.5780868567
 20
49.8984437642
 30
0.0
 10
24.6106322103
 20
49.9150667381
 30
0.0
  0
ELLIPSE
  5
48B
100
AcDbEntity
  8
A_RUNDUNGEN
100
AcDbEllipse
 62
7
  6
CONTINUOUS
 10
75.018459639
 20
26.6898225329
 30
0.0
 11
-0.5656961948
 21
0.5656961948
 31
0.0
 40
0.9999809617
 41
2.3562040094
 42
3.9269812978
  0
ELLIPSE
  5
48C
100
AcDbEntity
  8
A_RUNDUNGEN
100
AcDbEllipse
 62
7
  6
CONTINUOUS
 10
64.3184672545
 20
26.3898196771
 30
0.0
 11
0.0
 21
-0.5000047597
 31
0.0
 40
0.9999904807
 41
-1.5707963268
 42
0.0
  0
ELLIPSE
  5
48D
100
AcDbEntity
  8
A_RUNDUNGEN
100
AcDbEllipse
 62
7
  6
CONTINUOUS
 10
68.0304528206
 20
56.4955703475
 30
0.0
 11
0.2828480974
 21
0.2828480974
 31
0.0
 40
0.9999809617
 41
2.9470100149
 42
3.9269812978
  0
ELLIPSE
  5
48E
100
AcDbEntity
  8
A_RUNDUNGEN
100
AcDbEllipse
 62
7
  6
CONTINUOUS
 10
96.1242141171
 20
53.2436672084
 30
0.0
 11
0.4619449181
 21
0.1913438501
 31
0.0
 40
0.9999888475
 41
-0.3926951387
 42
0.3926951387
  0
ELLIPSE
  5
48F
100
AcDbEntity
  8
A_RUNDUNGEN
100
AcDbEllipse
 62
7
  6
CONTINUOUS
 10
96.1242141171
 20
38.5095590091
 30
0.0
 11
-0.4619449181
 21
0.1913438501
 31
0.0
 40
0.9999888475
 41
2.7488975149
 42
3.5342877923
  0
ELLIPSE
  5
490
100
AcDbEntity
  8
A_RUNDUNGEN
100
AcDbEllipse
 62
7
  6
CONTINUOUS
 10
64.3184672545
 20
56.09556178
 30
0.0
 11
-0.0
 21
0.5000047597
 31
0.0
 40
0.9999904807
 41
0.0
 42
1.5707963268
  0
ELLIPSE
  5
491
100
AcDbEntity
  8
A_RUNDUNGEN
100
AcDbEllipse
 62
7
  6
CONTINUOUS
 10
89.3865370509
 20
28.7840585355
 30
0.0
 11
-0.1913438501
 21
0.4619449181
 31
0.0
 40
0.9999888475
 41
-0.3926951387
 42
0.3926951387
  0
ELLIPSE
  5
492
100
AcDbEntity
  8
A_RUNDUNGEN
100
AcDbEllipse
 62
7
  6
CONTINUOUS
 10
88.3865370509
 20
55.3955712994
 30
0.0
 11
0.1913438501
 21
0.4619449181
 31
0.0
 40
0.9999888475
 41
-3.5342877923
 42
-2.7488975149
  0
ELLIPSE
  5
493
100
AcDbEntity
  8
A_RUNDUNGEN
100
AcDbEllipse
 62
7
  6
CONTINUOUS
 10
65.5684672545
 20
32.7011730381
 30
0.0
 11
0.0
 21
-1.7504364301
 31
0.0
 40
0.9997506736
 41
-1.9723117489
 42
-1.5707963268
  0
ELLIPSE
  5
494
100
AcDbEntity
  8
0
100
AcDbEllipse
 62
7
  6
CONTINUOUS
 10
22.823387142
 20
51.4640436797
 30
0.0
 11
-2.8284271247
 21
-0.0000000021
 31
0.0
 40
0.7071067812
 41
8.5536107599
 42
8.6019571924
  0
ELLIPSE
  5
495
100
AcDbEntity
  8
0
100
AcDbEllipse
 62
7
  6
CONTINUOUS
 10
22.823387142
 20
51.4640436797
 30
0.0
 11
-2.8284271247
 21
-0.0000000021
 31
0.0
 40
0.7071067812
 41
3.964414235
 42
4.0127598544
  0
ELLIPSE
  5
496
100
AcDbEntity
  8
0
100
AcDbEllipse
 62
7
  6
CONTINUOUS
 10
22.8233871567
 20
31.4640436797
 30
0.0
 11
-2.8284271247
 21
-0.0000000021
 31
0.0
 40
0.7071067812
 41
2.2704254527
 42
2.3187718847
  0
ELLIPSE
  5
497
100
AcDbEntity
  8
0
100
AcDbEllipse
 62
7
  6
CONTINUOUS
 10
22.8233871567
 20
31.4640436797
 30
0.0
 11
-2.8284271247
 21
-0.0000000021
 31
0.0
 40
0.7071067812
 41
10.2475995426
 42
10.2959451616
  0
ENDSEC
  0
SECTION
  2
OBJECTS
  0
DICTIONARY
  5
498
100
AcDbDictionary
  3
ACAD_GROUP
350
499
  3
ACAD_MLINESTYLE
350
49A
  0
DICTIONARY
  5
499
102
{ACAD_REACTORS
330
498
102
}
100
AcDbDictionary
  0
DICTIONARY
  5
49A
102
{ACAD_REACTORS
330
498
102
}
100
AcDbDictionary
  3
STANDARD
350
49B
  0
MLINESTYLE
  5
49B
102
{ACAD_REACTORS
330
49A
102
}
100
AcDbMlineStyle
  2
STANDARD
 70
0
  3

 62
256
 51
90.0
 52
90.0
 71
2
 49
0.5
 62
256
  6
BYLAYER
 49
-0.5
 62
256
  6
BYLAYER
  0
ENDSEC
  0
EOF
