999
DXF file: d:\tmp\workingDir\0000104225\5_400696_0_00000_mkt_q_01_01.dxf
999
Pro/ENGINEER 2016380 by Parametric Technology Corporation
  0
SECTION
  2
HEADER
  9
$ACADVER
  1
AC1014
  9
$DWGCODEPAGE
  3
ANSI_1252
  9
$EXTMAX
 10
139.954
 20
90.0
 30
0.0
  9
$EXTMIN
 10
0.0
 20
-0.0
 30
0.0
  9
$LIMMIN
 10
0.0
 20
-0.0
  9
$LIMMAX
 10
139.954
 20
90.0
  9
$VIEWCTR
 10
69.977
 20
45.0
  9
$VIEWSIZE
 40
90.0
  9
$CLAYER
  8
0
  9
$LTSCALE
 40
7.69747
  9
$CELTYPE
  6
BYLAYER
  9
$DIMSCALE
 40
1.0
  9
$DIMASZ
 40
3.5
  9
$DIMEXO
 40
0.0
  9
$DIMDLI
 40
5.318252
  9
$DIMEXE
 40
2.0
  9
$DIMCEN
 40
1.259586
  9
$DIMLFAC
 40
1.0
  9
$DIMBLK
  1
_ARROW_FILLED
  9
$DIMALT
 70
0
  9
$DIMALTF
 40
25.4
  9
$DIMTXT
 40
3.5
  9
$DIMTOL
 70
1
  9
$DIMLIM
 70
0
  9
$DIMTFAC
 40
1.0
  9
$DIMTP
 40
0.01
  9
$DIMTM
 40
0.01
  9
$DIMGAP
 40
0.625
  9
$AUNITS
 70
0
  9
$PDMODE
 70
0
  9
$PDSIZE
 40
0.04
  9
$HANDSEED
  5
487
  9
$TILEMODE
 70
1
  9
$MEASUREMENT
 70
1
  0
ENDSEC
  0
SECTION
  2
CLASSES
  0
ENDSEC
  0
SECTION
  2
TABLES
  0
TABLE
  2
VPORT
  5
8
100
AcDbSymbolTable
 70
2
  0
VPORT
  5
1F4
100
AcDbSymbolTableRecord
100
AcDbViewportTableRecord
  2
*ACTIVE
 70
0
 10
0.0
 20
0.0
 11
1.0
 21
1.0
 12
69.977
 22
45.0
 13
0.0
 23
0.0
 14
1.0
 24
1.0
 15
0.0
 25
0.0
 16
0.0
 26
0.0
 36
1.0
 17
0.0
 27
0.0
 37
0.0
 40
90.0
 41
1.5550444444
 42
50.0
 43
0.0
 44
0.0
 50
0.0
 51
0.0
 71
0
 72
100
 73
1
 74
1
 75
0
 76
0
 77
0
 78
0
  0
ENDTAB
  0
TABLE
  2
LTYPE
  5
5
100
AcDbSymbolTable
 70
6
  0
LTYPE
  5
14
100
AcDbSymbolTableRecord
100
AcDbLinetypeTableRecord
  2
BYBLOCK
 70
0
  3

 72
65
 73
0
 40
0.0
  0
LTYPE
  5
15
100
AcDbSymbolTableRecord
100
AcDbLinetypeTableRecord
  2
BYLAYER
 70
0
  3

 72
65
 73
0
 40
0.0
  0
LTYPE
  5
16
100
AcDbSymbolTableRecord
100
AcDbLinetypeTableRecord
  2
CONTINUOUS
 70
64
  3
Solid line
 72
65
 73
0
 40
0.0
  0
LTYPE
  5
1F5
100
AcDbSymbolTableRecord
100
AcDbLinetypeTableRecord
  2
CENTER
 70
64
  3
____ _ ____ _ ____ _ ____ _ ____ _ ____ _ ____
 72
65
 73
4
 40
0.6
 49
0.375
 74
0
 49
-0.075
 74
0
 49
0.075
 74
0
 49
-0.075
 74
0
  0
LTYPE
  5
1F6
100
AcDbSymbolTableRecord
100
AcDbLinetypeTableRecord
  2
HIDDEN
 70
64
  3
- - - - - - - - - - - - - - - - - - - -
 72
65
 73
2
 40
0.2
 49
0.1
 74
0
 49
-0.1
 74
0
  0
LTYPE
  5
1F7
100
AcDbSymbolTableRecord
100
AcDbLinetypeTableRecord
  2
PHANTOM
 70
64
  3
_____ _ _ _____ _ _ _____ _ _ _____
 72
65
 73
6
 40
0.8
 49
0.45
 74
0
 49
-0.05
 74
0
 49
0.1
 74
0
 49
-0.05
 74
0
 49
0.1
 74
0
 49
-0.05
 74
0
  0
LTYPE
  5
1F8
100
AcDbSymbolTableRecord
100
AcDbLinetypeTableRecord
  2
DOT
 70
64
  3
. . . . . . . . . . . . . . . . . . . .
 72
65
 73
2
 40
0.2
 49
0.1
 74
0
 49
-0.1
 74
0
  0
LTYPE
  5
1F9
100
AcDbSymbolTableRecord
100
AcDbLinetypeTableRecord
  2
DASHED
 70
64
  3
- - - - - - - - - - - - - - - - - - - -
 72
65
 73
2
 40
0.2
 49
0.1
 74
0
 49
-0.1
 74
0
  0
ENDTAB
  0
TABLE
  2
LAYER
  5
2
100
AcDbSymbolTable
 70
36
  0
LAYER
  5
10
100
AcDbSymbolTableRecord
100
AcDbLayerTableRecord
  2
0
 70
0
 62
7
  6
CONTINUOUS
  0
LAYER
  5
1FA
100
AcDbSymbolTableRecord
100
AcDbLayerTableRecord
  2
DEFAULT_1
 70
0
 62
7
  6
CENTER
  0
LAYER
  5
1FB
100
AcDbSymbolTableRecord
100
AcDbLayerTableRecord
  2
DEFAULT_2
 70
0
 62
8
  6
HIDDEN
  0
LAYER
  5
1FC
100
AcDbSymbolTableRecord
100
AcDbLayerTableRecord
  2
DEFAULT_3
 70
0
 62
7
  6
PHANTOM
  0
LAYER
  5
1FD
100
AcDbSymbolTableRecord
100
AcDbLayerTableRecord
  2
A_ACHSEN
 70
0
 62
7
  6
CONTINUOUS
  0
LAYER
  5
1FE
100
AcDbSymbolTableRecord
100
AcDbLayerTableRecord
  2
A_BASISEBENEN
 70
0
 62
7
  6
CONTINUOUS
  0
LAYER
  5
1FF
100
AcDbSymbolTableRecord
100
AcDbLayerTableRecord
  2
A_BEMASSUNGEN
 70
0
 62
7
  6
CONTINUOUS
  0
LAYER
  5
200
100
AcDbSymbolTableRecord
100
AcDbLayerTableRecord
  2
A_BOHRUNGEN
 70
0
 62
7
  6
CONTINUOUS
  0
LAYER
  5
201
100
AcDbSymbolTableRecord
100
AcDbLayerTableRecord
  2
A_EBENEN
 70
0
 62
7
  6
CONTINUOUS
  0
LAYER
  5
202
100
AcDbSymbolTableRecord
100
AcDbLayerTableRecord
  2
A_FASEN
 70
0
 62
7
  6
CONTINUOUS
  0
LAYER
  5
203
100
AcDbSymbolTableRecord
100
AcDbLayerTableRecord
  2
A_FLAECHEN
 70
0
 62
7
  6
CONTINUOUS
  0
LAYER
  5
204
100
AcDbSymbolTableRecord
100
AcDbLayerTableRecord
  2
A_FL_VERBAENDE
 70
0
 62
7
  6
CONTINUOUS
  0
LAYER
  5
205
100
AcDbSymbolTableRecord
100
AcDbLayerTableRecord
  2
A_KURVEN
 70
0
 62
7
  6
CONTINUOUS
  0
LAYER
  5
206
100
AcDbSymbolTableRecord
100
AcDbLayerTableRecord
  2
A_NOTIZEN_SYMB
 70
0
 62
7
  6
CONTINUOUS
  0
LAYER
  5
207
100
AcDbSymbolTableRecord
100
AcDbLayerTableRecord
  2
A_PUNKTE
 70
0
 62
7
  6
CONTINUOUS
  0
LAYER
  5
208
100
AcDbSymbolTableRecord
100
AcDbLayerTableRecord
  2
A_RUNDUNGEN
 70
0
 62
7
  6
CONTINUOUS
  0
LAYER
  5
209
100
AcDbSymbolTableRecord
100
AcDbLayerTableRecord
  2
BASISEBENEN
 70
0
 62
7
  6
CONTINUOUS
  0
LAYER
  5
20A
100
AcDbSymbolTableRecord
100
AcDbLayerTableRecord
  2
XSEC_DATUMS
 70
0
 62
7
  6
CONTINUOUS
  0
ENDTAB
  0
TABLE
  2
STYLE
  5
3
100
AcDbSymbolTable
 70
1
  0
STYLE
  5
11
100
AcDbSymbolTableRecord
100
AcDbTextStyleTableRecord
  2
STANDARD
 70
0
 40
0.0
 41
1.0
 50
0.0
 71
0
 42
0.2
  3
txt
  4

  0
STYLE
  5
20B
100
AcDbSymbolTableRecord
100
AcDbTextStyleTableRecord
  2
TEXTSTYLE_1
 70
0
 40
0.0
 41
0.8
 50
0.0
 71
0
 42
0.2
  3
gdt
  4

  0
STYLE
  5
20C
100
AcDbSymbolTableRecord
100
AcDbTextStyleTableRecord
  2
TEXTSTYLE_2
 70
0
 40
0.0
 41
1.0
 50
0.0
 71
0
 42
0.2
  3
txt
  4

  0
ENDTAB
  0
TABLE
  2
VIEW
  5
6
100
AcDbSymbolTable
 70
0
  0
ENDTAB
  0
TABLE
  2
UCS
  5
7
100
AcDbSymbolTable
 70
0
  0
ENDTAB
  0
TABLE
  2
APPID
  5
9
100
AcDbSymbolTable
 70
1
  0
APPID
  5
20D
100
AcDbSymbolTableRecord
100
AcDbRegAppTableRecord
  2
ACAD
 70
0
  0
ENDTAB
  0
TABLE
  2
BLOCK_RECORD
  5
1
100
AcDbSymbolTable
 70
0
  0
BLOCK_RECORD
  5
1F
100
AcDbSymbolTableRecord
100
AcDbBlockTableRecord
  2
*MODEL_SPACE
  0
BLOCK_RECORD
  5
1B
100
AcDbSymbolTableRecord
100
AcDbBlockTableRecord
  2
*PAPER_SPACE
  0
BLOCK_RECORD
  5
20E
100
AcDbSymbolTableRecord
100
AcDbBlockTableRecord
  2
_ARROW_FILLED
  0
BLOCK_RECORD
  5
20F
100
AcDbSymbolTableRecord
100
AcDbBlockTableRecord
  2
*D0
  0
BLOCK_RECORD
  5
210
100
AcDbSymbolTableRecord
100
AcDbBlockTableRecord
  2
*D1
  0
BLOCK_RECORD
  5
211
100
AcDbSymbolTableRecord
100
AcDbBlockTableRecord
  2
*D2
  0
BLOCK_RECORD
  5
212
100
AcDbSymbolTableRecord
100
AcDbBlockTableRecord
  2
*D3
  0
BLOCK_RECORD
  5
213
100
AcDbSymbolTableRecord
100
AcDbBlockTableRecord
  2
*D4
  0
BLOCK_RECORD
  5
214
100
AcDbSymbolTableRecord
100
AcDbBlockTableRecord
  2
*D5
  0
BLOCK_RECORD
  5
215
100
AcDbSymbolTableRecord
100
AcDbBlockTableRecord
  2
*D6
  0
ENDTAB
  0
TABLE
  2
DIMSTYLE
  5
A
100
AcDbSymbolTable
 70
1
  0
DIMSTYLE
105
216
100
AcDbSymbolTableRecord
100
AcDbDimStyleTableRecord
  2
STANDARD
 70
0
  3

  4

  5
_ARROW_FILLED
  6
_ARROW_FILLED
  7
_ARROW_FILLED
 40
1.0
 41
3.5
 42
0.0
 43
0.38
 44
2.0
 45
0.0
 46
0.0
 47
0.01
 48
0.01
140
3.5
141
0.09
142
0.0
143
25.4
144
1.0
145
0.0
146
1.0
147
0.625
 71
1.0
 72
0.0
 73
0
 74
0
 75
0
 76
0
 77
1
 78
8
170
0
171
1
172
0
173
0
174
0
175
0
176
0
177
0
178
5
270
2
271
2
272
2
273
2
274
2
275
0
280
0
281
0
282
0
283
1
284
8
285
0
286
0
287
3
288
0
340
11
  0
DIMSTYLE
105
217
100
AcDbSymbolTableRecord
100
AcDbDimStyleTableRecord
  2
DIMSTYLE_1
 70
0
  3

  4

  5
_ARROW_FILLED
  6
_ARROW_FILLED
  7
_ARROW_FILLED
 40
1.0
 41
3.5
 42
0.0
 43
0.38
 44
2.0
 45
0.0
 46
0.0
 47
0.1
 48
0.1
140
3.5
141
0.09
142
0.0
143
25.4
144
1.0
145
0.0
146
1.0
147
0.875
 71
0.0
 72
0.0
 73
0
 74
0
 75
0
 76
0
 77
1
 78
8
170
0
171
1
172
0
173
0
174
0
175
0
176
0
177
0
178
5
270
2
271
4
272
-1
273
2
274
2
275
0
280
0
281
0
282
0
283
1
284
8
285
0
286
0
287
3
288
0
340
20C
  0
DIMSTYLE
105
218
100
AcDbSymbolTableRecord
100
AcDbDimStyleTableRecord
  2
DIMSTYLE_2
 70
0
  3

  4

  5
_ARROW_FILLED
  6
_ARROW_FILLED
  7
_ARROW_FILLED
 40
1.0
 41
3.5
 42
0.0
 43
0.38
 44
2.0
 45
0.0
 46
0.0
 47
0.3
 48
0.3
140
3.5
141
0.09
142
0.0
143
25.4
144
1.0
145
0.0
146
1.0
147
0.875
 71
0.0
 72
0.0
 73
0
 74
0
 75
0
 76
0
 77
1
 78
8
170
0
171
1
172
0
173
0
174
0
175
0
176
0
177
0
178
5
270
2
271
4
272
-1
273
2
274
2
275
0
280
0
281
0
282
0
283
1
284
8
285
0
286
0
287
3
288
0
340
20C
  0
ENDTAB
  0
ENDSEC
  0
SECTION
  2
BLOCKS
  0
BLOCK
  5
20
100
AcDbEntity
  8
0
100
AcDbBlockBegin
  2
*MODEL_SPACE
 70
0
 10
0.0
 20
0.0
 30
0.0
  3
*MODEL_SPACE
  1

  0
ENDBLK
  5
21
100
AcDbEntity
  8
0
100
AcDbBlockEnd
  0
BLOCK
  5
1C
100
AcDbEntity
  8
0
100
AcDbBlockBegin
  2
*PAPER_SPACE
 70
0
 10
0.0
 20
0.0
 30
0.0
  3
*PAPER_SPACE
  1

  0
ENDBLK
  5
1D
100
AcDbEntity
  8
0
100
AcDbBlockEnd
  0
BLOCK
  5
219
100
AcDbEntity
  8
0
100
AcDbBlockBegin
  2
_ARROW_FILLED
 70
64
 10
0.0
 20
0.0
  3
_ARROW_FILLED
  1

  0
SOLID
  5
21A
100
AcDbEntity
  8
0
  6
BYBLOCK
 62
0
100
AcDbTrace
 10
0.0
 20
0.0
 11
-1.0
 21
0.1428571429
 12
-1.0
 22
-0.1428571429
 13
-1.0
 23
-0.1428571429
  0
ENDBLK
  5
21B
100
AcDbEntity
  8
0
  6
BYBLOCK
 62
0
100
AcDbBlockEnd
  0
BLOCK
  5
21C
100
AcDbEntity
  8
A_BEMASSUNGEN
100
AcDbBlockBegin
 62
2
  6
CONTINUOUS
  2
*D0
 70
65
 10
0.0
 20
0.0
  3
*D0
  1

  0
MTEXT
  5
21D
100
AcDbEntity
  8
A_BEMASSUNGEN
100
AcDbMText
 62
5
  6
CONTINUOUS
  7
TEXTSTYLE_2
 71
3
 72
1
 10
128.3004646143
 20
17.9289781795
 30
0.0
 11
0.0
 21
1.0
 31
0.0
  1
4
 40
3.5
 41
4.125
  0
LINE
  5
21E
100
AcDbEntity
  8
A_BEMASSUNGEN
100
AcDbLine
 62
2
  6
CONTINUOUS
 10
104.1754646143
 20
25.7087863243
 11
134.6754646143
 21
25.7087863243
  0
LINE
  5
21F
100
AcDbEntity
  8
A_BEMASSUNGEN
100
AcDbLine
 62
2
  6
CONTINUOUS
 10
122.6754646143
 20
21.7087863243
 11
134.6754646143
 21
21.7087863243
  0
LINE
  5
220
100
AcDbEntity
  8
A_BEMASSUNGEN
100
AcDbLine
 62
2
  6
CONTINUOUS
 10
132.6754646143
 20
25.7087863243
 11
132.6754646143
 21
33.2087863243
  0
LINE
  5
221
100
AcDbEntity
  8
A_BEMASSUNGEN
100
AcDbLine
 62
2
  6
CONTINUOUS
 10
132.6754646143
 20
33.2087863243
 11
132.6754646143
 21
23.7087863243
  0
LINE
  5
222
100
AcDbEntity
  8
A_BEMASSUNGEN
100
AcDbLine
 62
2
  6
CONTINUOUS
 10
132.6754646143
 20
21.7087863243
 11
132.6754646143
 21
15.1789781795
  0
LINE
  5
223
100
AcDbEntity
  8
A_BEMASSUNGEN
100
AcDbLine
 62
2
  6
CONTINUOUS
 10
132.6754646143
 20
15.1789781795
 11
132.6754646143
 21
23.7087863243
  0
INSERT
  5
224
100
AcDbEntity
  8
A_BEMASSUNGEN
100
AcDbBlockReference
 62
2
  6
CONTINUOUS
  2
_ARROW_FILLED
 10
132.6754646143
 20
25.7087863243
 41
3.5
 42
3.5
 43
3.5
 50
270.0
  0
INSERT
  5
225
100
AcDbEntity
  8
A_BEMASSUNGEN
100
AcDbBlockReference
 62
2
  6
CONTINUOUS
  2
_ARROW_FILLED
 10
132.6754646143
 20
21.7087863243
 41
3.5
 42
3.5
 43
3.5
 50
90.0
  0
ENDBLK
  5
226
100
AcDbEntity
  8
0
  6
BYBLOCK
 62
0
100
AcDbBlockEnd
  0
BLOCK
  5
227
100
AcDbEntity
  8
A_BEMASSUNGEN
100
AcDbBlockBegin
 62
2
  6
CONTINUOUS
  2
*D1
 70
65
 10
0.0
 20
0.0
  3
*D1
  1

  0
MTEXT
  5
228
100
AcDbEntity
  8
A_BEMASSUNGEN
100
AcDbMText
 62
5
  6
CONTINUOUS
  7
TEXTSTYLE_2
 71
2
 72
1
 10
128.3004646143
 20
41.7087863243
 30
0.0
 11
0.0
 21
1.0
 31
0.0
  1
32
 40
3.5
 41
7.875
  0
LINE
  5
229
100
AcDbEntity
  8
A_BEMASSUNGEN
100
AcDbLine
 62
2
  6
CONTINUOUS
 10
104.1754646143
 20
25.7087863243
 11
134.6754646143
 21
25.7087863243
  0
LINE
  5
22A
100
AcDbEntity
  8
A_BEMASSUNGEN
100
AcDbLine
 62
2
  6
CONTINUOUS
 10
104.1754646143
 20
57.7087863243
 11
134.6754646143
 21
57.7087863243
  0
LINE
  5
22B
100
AcDbEntity
  8
A_BEMASSUNGEN
100
AcDbLine
 62
2
  6
CONTINUOUS
 10
132.6754646143
 20
25.7087863243
 11
132.6754646143
 21
41.7087863243
  0
LINE
  5
22C
100
AcDbEntity
  8
A_BEMASSUNGEN
100
AcDbLine
 62
2
  6
CONTINUOUS
 10
132.6754646143
 20
57.7087863243
 11
132.6754646143
 21
41.7087863243
  0
INSERT
  5
22D
100
AcDbEntity
  8
A_BEMASSUNGEN
100
AcDbBlockReference
 62
2
  6
CONTINUOUS
  2
_ARROW_FILLED
 10
132.6754646143
 20
25.7087863243
 41
3.5
 42
3.5
 43
3.5
 50
270.0
  0
INSERT
  5
22E
100
AcDbEntity
  8
A_BEMASSUNGEN
100
AcDbBlockReference
 62
2
  6
CONTINUOUS
  2
_ARROW_FILLED
 10
132.6754646143
 20
57.7087863243
 41
3.5
 42
3.5
 43
3.5
 50
90.0
  0
ENDBLK
  5
22F
100
AcDbEntity
  8
0
  6
BYBLOCK
 62
0
100
AcDbBlockEnd
  0
BLOCK
  5
230
100
AcDbEntity
  8
A_BEMASSUNGEN
100
AcDbBlockBegin
 62
2
  6
CONTINUOUS
  2
*D2
 70
65
 10
0.0
 20
0.0
  3
*D2
  1

  0
MTEXT
  5
231
100
AcDbEntity
  8
A_BEMASSUNGEN
100
AcDbMText
 62
5
  6
CONTINUOUS
  7
TEXTSTYLE_2
 71
2
 72
1
 10
85.9254646143
 20
10.2326406881
 30
0.0
 11
1.0
 21
0.0
 31
0.0
  1
36.5
 40
3.5
 41
14.625
  0
LINE
  5
232
100
AcDbEntity
  8
A_BEMASSUNGEN
100
AcDbLine
 62
2
  6
CONTINUOUS
 10
67.6754646143
 20
21.7087863243
 11
67.6754646143
 21
3.8576406881
  0
LINE
  5
233
100
AcDbEntity
  8
A_BEMASSUNGEN
100
AcDbLine
 62
2
  6
CONTINUOUS
 10
104.1754646143
 20
25.7087863243
 11
104.1754646143
 21
3.8576406881
  0
LINE
  5
234
100
AcDbEntity
  8
A_BEMASSUNGEN
100
AcDbLine
 62
2
  6
CONTINUOUS
 10
67.6754646143
 20
5.8576406881
 11
85.9254646143
 21
5.8576406881
  0
LINE
  5
235
100
AcDbEntity
  8
A_BEMASSUNGEN
100
AcDbLine
 62
2
  6
CONTINUOUS
 10
104.1754646143
 20
5.8576406881
 11
85.9254646143
 21
5.8576406881
  0
INSERT
  5
236
100
AcDbEntity
  8
A_BEMASSUNGEN
100
AcDbBlockReference
 62
2
  6
CONTINUOUS
  2
_ARROW_FILLED
 10
67.6754646143
 20
5.8576406881
 41
3.5
 42
3.5
 43
3.5
 50
180.0
  0
INSERT
  5
237
100
AcDbEntity
  8
A_BEMASSUNGEN
100
AcDbBlockReference
 62
2
  6
CONTINUOUS
  2
_ARROW_FILLED
 10
104.1754646143
 20
5.8576406881
 41
3.5
 42
3.5
 43
3.5
  0
ENDBLK
  5
238
100
AcDbEntity
  8
0
  6
BYBLOCK
 62
0
100
AcDbBlockEnd
  0
BLOCK
  5
239
100
AcDbEntity
  8
A_BEMASSUNGEN
100
AcDbBlockBegin
 62
2
  6
CONTINUOUS
  2
*D3
 70
65
 10
0.0
 20
0.0
  3
*D3
  1

  0
MTEXT
  5
23A
100
AcDbEntity
  8
A_BEMASSUNGEN
100
AcDbMText
 62
5
  6
CONTINUOUS
  7
TEXTSTYLE_2
 71
2
 72
1
 10
46.1754647567
 20
10.2326406881
 30
0.0
 11
1.0
 21
0.0
 31
0.0
  1
36
 40
3.5
 41
7.875
  0
LINE
  5
23B
100
AcDbEntity
  8
A_BEMASSUNGEN
100
AcDbLine
 62
2
  6
CONTINUOUS
 10
64.1754647567
 20
21.7087580867
 11
64.1754647567
 21
3.8576406881
  0
LINE
  5
23C
100
AcDbEntity
  8
A_BEMASSUNGEN
100
AcDbLine
 62
2
  6
CONTINUOUS
 10
28.1754647567
 20
25.7087580867
 11
28.1754647567
 21
3.8576406881
  0
LINE
  5
23D
100
AcDbEntity
  8
A_BEMASSUNGEN
100
AcDbLine
 62
2
  6
CONTINUOUS
 10
64.1754647567
 20
5.8576406881
 11
46.1754647567
 21
5.8576406881
  0
LINE
  5
23E
100
AcDbEntity
  8
A_BEMASSUNGEN
100
AcDbLine
 62
2
  6
CONTINUOUS
 10
28.1754647567
 20
5.8576406881
 11
46.1754647567
 21
5.8576406881
  0
INSERT
  5
23F
100
AcDbEntity
  8
A_BEMASSUNGEN
100
AcDbBlockReference
 62
2
  6
CONTINUOUS
  2
_ARROW_FILLED
 10
64.1754647567
 20
5.8576406881
 41
3.5
 42
3.5
 43
3.5
  0
INSERT
  5
240
100
AcDbEntity
  8
A_BEMASSUNGEN
100
AcDbBlockReference
 62
2
  6
CONTINUOUS
  2
_ARROW_FILLED
 10
28.1754647567
 20
5.8576406881
 41
3.5
 42
3.5
 43
3.5
 50
180.0
  0
ENDBLK
  5
241
100
AcDbEntity
  8
0
  6
BYBLOCK
 62
0
100
AcDbBlockEnd
  0
BLOCK
  5
242
100
AcDbEntity
  8
A_BEMASSUNGEN
100
AcDbBlockBegin
 62
2
  6
CONTINUOUS
  2
*D4
 70
65
 10
0.0
 20
0.0
  3
*D4
  1

  0
MTEXT
  5
243
100
AcDbEntity
  8
A_BEMASSUNGEN
100
AcDbMText
 62
5
  6
CONTINUOUS
  7
TEXTSTYLE_2
 71
1
 72
1
 10
72.2112358358
 20
18.6583138299
 30
0.0
 11
1.0
 21
0.0
 31
0.0
  1
3.5
 40
3.5
 41
10.5
  0
LINE
  5
244
100
AcDbEntity
  8
A_BEMASSUNGEN
100
AcDbLine
 62
2
  6
CONTINUOUS
 10
64.1754647567
 20
21.7087580867
 11
64.1754647567
 21
12.2833138299
  0
LINE
  5
245
100
AcDbEntity
  8
A_BEMASSUNGEN
100
AcDbLine
 62
2
  6
CONTINUOUS
 10
67.6754646143
 20
21.7087863243
 11
67.6754646143
 21
12.2833138299
  0
LINE
  5
246
100
AcDbEntity
  8
A_BEMASSUNGEN
100
AcDbLine
 62
2
  6
CONTINUOUS
 10
64.1754647567
 20
14.2833138299
 11
56.6754647567
 21
14.2833138299
  0
LINE
  5
247
100
AcDbEntity
  8
A_BEMASSUNGEN
100
AcDbLine
 62
2
  6
CONTINUOUS
 10
56.6754647567
 20
14.2833138299
 11
65.9254646855
 21
14.2833138299
  0
LINE
  5
248
100
AcDbEntity
  8
A_BEMASSUNGEN
100
AcDbLine
 62
2
  6
CONTINUOUS
 10
67.6754646143
 20
14.2833138299
 11
79.2112358358
 21
14.2833138299
  0
LINE
  5
249
100
AcDbEntity
  8
A_BEMASSUNGEN
100
AcDbLine
 62
2
  6
CONTINUOUS
 10
79.2112358358
 20
14.2833138299
 11
65.9254646855
 21
14.2833138299
  0
INSERT
  5
24A
100
AcDbEntity
  8
A_BEMASSUNGEN
100
AcDbBlockReference
 62
2
  6
CONTINUOUS
  2
_ARROW_FILLED
 10
64.1754647567
 20
14.2833138299
 41
3.5
 42
3.5
 43
3.5
  0
INSERT
  5
24B
100
AcDbEntity
  8
A_BEMASSUNGEN
100
AcDbBlockReference
 62
2
  6
CONTINUOUS
  2
_ARROW_FILLED
 10
67.6754646143
 20
14.2833138299
 41
3.5
 42
3.5
 43
3.5
 50
180.0
  0
ENDBLK
  5
24C
100
AcDbEntity
  8
0
  6
BYBLOCK
 62
0
100
AcDbBlockEnd
  0
BLOCK
  5
24D
100
AcDbEntity
  8
A_BEMASSUNGEN
100
AcDbBlockBegin
 62
2
  6
CONTINUOUS
  2
*D5
 70
65
 10
0.0
 20
0.0
  3
*D5
  1

  0
MTEXT
  5
24E
100
AcDbEntity
  8
A_BEMASSUNGEN
100
AcDbMText
 62
5
  6
CONTINUOUS
  7
TEXTSTYLE_2
 71
3
 72
1
 10
3.8004647567
 20
17.9516488248
 30
0.0
 11
0.0
 21
1.0
 31
0.0
  1
4
 40
3.5
 41
4.125
  0
LINE
  5
24F
100
AcDbEntity
  8
A_BEMASSUNGEN
100
AcDbLine
 62
2
  6
CONTINUOUS
 10
18.1754647567
 20
21.7087580867
 11
6.1754647567
 21
21.7087580867
  0
LINE
  5
250
100
AcDbEntity
  8
A_BEMASSUNGEN
100
AcDbLine
 62
2
  6
CONTINUOUS
 10
28.1754647567
 20
25.7087580867
 11
6.1754647567
 21
25.7087580867
  0
LINE
  5
251
100
AcDbEntity
  8
A_BEMASSUNGEN
100
AcDbLine
 62
2
  6
CONTINUOUS
 10
8.1754647567
 20
21.7087580867
 11
8.1754647567
 21
15.2016488248
  0
LINE
  5
252
100
AcDbEntity
  8
A_BEMASSUNGEN
100
AcDbLine
 62
2
  6
CONTINUOUS
 10
8.1754647567
 20
15.2016488248
 11
8.1754647567
 21
23.7087580867
  0
LINE
  5
253
100
AcDbEntity
  8
A_BEMASSUNGEN
100
AcDbLine
 62
2
  6
CONTINUOUS
 10
8.1754647567
 20
25.7087580867
 11
8.1754647567
 21
33.2087580867
  0
LINE
  5
254
100
AcDbEntity
  8
A_BEMASSUNGEN
100
AcDbLine
 62
2
  6
CONTINUOUS
 10
8.1754647567
 20
33.2087580867
 11
8.1754647567
 21
23.7087580867
  0
INSERT
  5
255
100
AcDbEntity
  8
A_BEMASSUNGEN
100
AcDbBlockReference
 62
2
  6
CONTINUOUS
  2
_ARROW_FILLED
 10
8.1754647567
 20
21.7087580867
 41
3.5
 42
3.5
 43
3.5
 50
90.0
  0
INSERT
  5
256
100
AcDbEntity
  8
A_BEMASSUNGEN
100
AcDbBlockReference
 62
2
  6
CONTINUOUS
  2
_ARROW_FILLED
 10
8.1754647567
 20
25.7087580867
 41
3.5
 42
3.5
 43
3.5
 50
270.0
  0
ENDBLK
  5
257
100
AcDbEntity
  8
0
  6
BYBLOCK
 62
0
100
AcDbBlockEnd
  0
BLOCK
  5
258
100
AcDbEntity
  8
A_BEMASSUNGEN
100
AcDbBlockBegin
 62
2
  6
CONTINUOUS
  2
*D6
 70
65
 10
0.0
 20
0.0
  3
*D6
  1

  0
MTEXT
  5
259
100
AcDbEntity
  8
A_BEMASSUNGEN
100
AcDbMText
 62
5
  6
CONTINUOUS
  7
TEXTSTYLE_2
 71
2
 72
1
 10
3.8004647567
 20
41.7087580867
 30
0.0
 11
0.0
 21
1.0
 31
0.0
  1
32
 40
3.5
 41
7.875
  0
LINE
  5
25A
100
AcDbEntity
  8
A_BEMASSUNGEN
100
AcDbLine
 62
2
  6
CONTINUOUS
 10
28.1754647567
 20
25.7087580867
 11
6.1754647567
 21
25.7087580867
  0
LINE
  5
25B
100
AcDbEntity
  8
A_BEMASSUNGEN
100
AcDbLine
 62
2
  6
CONTINUOUS
 10
28.1754647567
 20
57.7087580867
 11
6.1754647567
 21
57.7087580867
  0
LINE
  5
25C
100
AcDbEntity
  8
A_BEMASSUNGEN
100
AcDbLine
 62
2
  6
CONTINUOUS
 10
8.1754647567
 20
25.7087580867
 11
8.1754647567
 21
41.7087580867
  0
LINE
  5
25D
100
AcDbEntity
  8
A_BEMASSUNGEN
100
AcDbLine
 62
2
  6
CONTINUOUS
 10
8.1754647567
 20
57.7087580867
 11
8.1754647567
 21
41.7087580867
  0
INSERT
  5
25E
100
AcDbEntity
  8
A_BEMASSUNGEN
100
AcDbBlockReference
 62
2
  6
CONTINUOUS
  2
_ARROW_FILLED
 10
8.1754647567
 20
25.7087580867
 41
3.5
 42
3.5
 43
3.5
 50
270.0
  0
INSERT
  5
25F
100
AcDbEntity
  8
A_BEMASSUNGEN
100
AcDbBlockReference
 62
2
  6
CONTINUOUS
  2
_ARROW_FILLED
 10
8.1754647567
 20
57.7087580867
 41
3.5
 42
3.5
 43
3.5
 50
90.0
  0
ENDBLK
  5
260
100
AcDbEntity
  8
0
  6
BYBLOCK
 62
0
100
AcDbBlockEnd
  0
ENDSEC
  0
SECTION
  2
ENTITIES
  0
HATCH
  5
261
100
AcDbEntity
  8
0
100
AcDbHatch
 62
2
  6
CONTINUOUS
 10
0.0
 20
0.0
 30
0.0
210
0.0
220
0.0
230
1.0
  2
default__1
 70
0
 71
0
 91
1
 92
1
 93
2
 72
2
 10
66.0419234342
 20
51.2071203156
 40
2.5
 50
201.0713928513
 51
21.0713928513
 73
1
 72
2
 10
66.0419234342
 20
51.2071203156
 40
2.5
 50
21.0713928513
 51
201.0713928513
 73
1
 97
0
 75
0
 76
0
 52
45.0
 41
8.4
 77
0
 78
1
 53
45.0
 43
0.0
 44
0.0
 45
-5.939696962
 46
5.939696962
 79
0
 98
1
 10
0.0
 20
0.0
  0
DIMENSION
  5
262
100
AcDbEntity
  8
A_BEMASSUNGEN
100
AcDbDimension
 62
2
  6
CONTINUOUS
  2
*D0
 10
132.6754646143
 20
21.7087863243
 11
132.6754646143
 21
16.0539787459
 70
160
  3
DIMSTYLE_1
100
AcDbAlignedDimension
 13
104.1754646143
 23
25.7087863243
 14
122.6754646143
 24
21.7087863243
 50
270.0
100
AcDbRotatedDimension
  0
DIMENSION
  5
263
100
AcDbEntity
  8
A_BEMASSUNGEN
100
AcDbDimension
 62
2
  6
CONTINUOUS
  2
*D1
 10
132.6754646143
 20
57.7087863243
 11
132.6754646143
 21
41.2087886385
 70
160
  3
DIMSTYLE_2
100
AcDbAlignedDimension
 13
104.1754646143
 23
25.7087863243
 14
104.1754646143
 24
57.7087863243
 50
90.0
100
AcDbRotatedDimension
  0
DIMENSION
  5
264
100
AcDbEntity
  8
A_BEMASSUNGEN
100
AcDbDimension
 62
2
  6
CONTINUOUS
  2
*D2
 10
104.1754646143
 20
5.8576406881
 11
85.4254648879
 21
5.8576406881
 70
160
  3
DIMSTYLE_2
100
AcDbAlignedDimension
 13
67.6754646143
 23
21.7087863243
 14
104.1754646143
 24
25.7087863243
100
AcDbRotatedDimension
  0
DIMENSION
  5
265
100
AcDbEntity
  8
A_BEMASSUNGEN
100
AcDbDimension
 62
2
  6
CONTINUOUS
  2
*D3
 10
28.1754647567
 20
5.8576406881
 11
45.6754644044
 21
5.8576406881
 70
160
  3
DIMSTYLE_2
100
AcDbAlignedDimension
 13
64.1754647567
 23
21.7087580867
 14
28.1754647567
 24
25.7087580867
 50
180.0
100
AcDbRotatedDimension
  0
DIMENSION
  5
266
100
AcDbEntity
  8
A_BEMASSUNGEN
100
AcDbDimension
 62
2
  6
CONTINUOUS
  2
*D4
 10
67.6754646143
 20
14.2833138299
 11
75.2112360352
 21
14.2833138299
 70
160
  3
DIMSTYLE_1
100
AcDbAlignedDimension
 13
64.1754647567
 23
21.7087580867
 14
67.6754646143
 24
21.7087863243
100
AcDbRotatedDimension
  0
DIMENSION
  5
267
100
AcDbEntity
  8
A_BEMASSUNGEN
100
AcDbDimension
 62
2
  6
CONTINUOUS
  2
*D5
 10
8.1754647567
 20
25.7087580867
 11
8.1754647567
 21
16.0766488928
 70
160
  3
DIMSTYLE_1
100
AcDbAlignedDimension
 13
18.1754647567
 23
21.7087580867
 14
28.1754647567
 24
25.7087580867
 50
90.0
100
AcDbRotatedDimension
  0
DIMENSION
  5
268
100
AcDbEntity
  8
A_BEMASSUNGEN
100
AcDbDimension
 62
2
  6
CONTINUOUS
  2
*D6
 10
8.1754647567
 20
57.7087580867
 11
8.1754647567
 21
41.208757767
 70
160
  3
DIMSTYLE_2
100
AcDbAlignedDimension
 13
28.1754647567
 23
25.7087580867
 14
28.1754647567
 24
57.7087580867
 50
90.0
100
AcDbRotatedDimension
  0
LINE
  5
269
100
AcDbEntity
  8
0
100
AcDbLine
 62
7
  6
CONTINUOUS
 10
18.1754647567
 20
81.7087580867
 11
18.1754647567
 21
21.7087580867
  0
LINE
  5
26A
100
AcDbEntity
  8
0
100
AcDbLine
 62
7
  6
CONTINUOUS
 10
28.1754647567
 20
25.7087580867
 11
28.1754647567
 21
57.7087580867
  0
LINE
  5
26B
100
AcDbEntity
  8
0
100
AcDbLine
 62
7
  6
CONTINUOUS
 10
28.7754647567
 20
27.3742778875
 11
28.7754647567
 21
34.6087580867
  0
LINE
  5
26C
100
AcDbEntity
  8
A_RUNDUNGEN
100
AcDbLine
 62
7
  6
CONTINUOUS
 10
28.7754647567
 20
34.6087580867
 11
28.7754647567
 21
46.4087580867
  0
LINE
  5
26D
100
AcDbEntity
  8
0
100
AcDbLine
 62
7
  6
CONTINUOUS
 10
28.7754647567
 20
46.4087580867
 11
28.7754647567
 21
56.0432382859
  0
LINE
  5
26E
100
AcDbEntity
  8
0
100
AcDbLine
 62
7
  6
CONTINUOUS
 10
29.2754647567
 20
44.7587580867
 11
29.2754647567
 21
44.4132665839
  0
LINE
  5
26F
100
AcDbEntity
  8
0
100
AcDbLine
 62
7
  6
CONTINUOUS
 10
29.2754647567
 20
36.6042495895
 11
29.2754647567
 21
36.2587580867
  0
LINE
  5
270
100
AcDbEntity
  8
A_RUNDUNGEN
100
AcDbLine
 62
7
  6
CONTINUOUS
 10
29.2754647567
 20
36.6042495895
 11
29.2754647567
 21
44.4132665839
  0
LINE
  5
271
100
AcDbEntity
  8
0
100
AcDbLine
 62
7
  6
CONTINUOUS
 10
29.7754647567
 20
28.616166023
 11
29.7754647567
 21
35.7587580867
  0
LINE
  5
272
100
AcDbEntity
  8
0
100
AcDbLine
 62
7
  6
CONTINUOUS
 10
29.7754647567
 20
37.1632665839
 11
29.7754647567
 21
43.8542495895
  0
LINE
  5
273
100
AcDbEntity
  8
0
100
AcDbLine
 62
7
  6
CONTINUOUS
 10
29.7754647567
 20
45.2587580867
 11
29.7754647567
 21
54.4903989801
  0
LINE
  5
274
100
AcDbEntity
  8
0
100
AcDbLine
 62
7
  6
CONTINUOUS
 10
30.7754647567
 20
30.1874620548
 11
30.7754647567
 21
51.9300541186
  0
LINE
  5
275
100
AcDbEntity
  8
0
100
AcDbLine
 62
7
  6
CONTINUOUS
 10
33.5615205484
 20
44.6386193758
 11
33.5612791744
 21
45.7617473232
  0
LINE
  5
276
100
AcDbEntity
  8
A_RUNDUNGEN
100
AcDbLine
 62
7
  6
CONTINUOUS
 10
30.8754647567
 20
40.6047058392
 11
30.8754647567
 21
35.0556250872
  0
LINE
  5
277
100
AcDbEntity
  8
A_RUNDUNGEN
100
AcDbLine
 62
7
  6
CONTINUOUS
 10
30.8754647567
 20
40.6114276752
 11
30.8754647567
 21
41.0230669629
  0
LINE
  5
278
100
AcDbEntity
  8
A_RUNDUNGEN
100
AcDbLine
 62
7
  6
CONTINUOUS
 10
30.8754647567
 20
44.772071227
 11
30.8754647567
 21
50.4628784767
  0
LINE
  5
279
100
AcDbEntity
  8
A_RUNDUNGEN
100
AcDbLine
 62
7
  6
CONTINUOUS
 10
33.0015766684
 20
51.5319620573
 11
33.0015766684
 21
51.0916430479
  0
LINE
  5
27A
100
AcDbEntity
  8
A_RUNDUNGEN
100
AcDbLine
 62
7
  6
CONTINUOUS
 10
33.0205715234
 20
51.5382936756
 11
33.0205715234
 21
51.100247606
  0
LINE
  5
27B
100
AcDbEntity
  8
0
100
AcDbLine
 62
7
  6
CONTINUOUS
 10
34.7754647567
 20
55.7067368204
 11
34.7754647567
 21
55.448000433
  0
LINE
  5
27C
100
AcDbEntity
  8
A_RUNDUNGEN
100
AcDbLine
 62
7
  6
CONTINUOUS
 10
34.7754647567
 20
55.448000433
 11
34.7754647567
 21
54.7652735762
  0
LINE
  5
27D
100
AcDbEntity
  8
0
100
AcDbLine
 62
7
  6
CONTINUOUS
 10
34.7754647567
 20
53.6393211632
 11
34.7754647567
 21
54.7652735762
  0
LINE
  5
27E
100
AcDbEntity
  8
A_RUNDUNGEN
100
AcDbLine
 62
7
  6
CONTINUOUS
 10
31.7838542777
 20
49.6121063258
 11
30.7754647567
 21
44.239256285
  0
LINE
  5
27F
100
AcDbEntity
  8
0
100
AcDbLine
 62
7
  6
CONTINUOUS
 10
38.5249066339
 20
45.7628140676
 11
38.5251480078
 21
44.6396861202
  0
LINE
  5
280
100
AcDbEntity
  8
A_ACHSEN
100
AcDbLine
 62
7
  6
CENTER
 10
36.0432135911
 20
39.821912231
 11
36.0432135911
 21
50.5795212124
  0
LINE
  5
281
100
AcDbEntity
  8
A_RUNDUNGEN
100
AcDbLine
 62
7
  6
CONTINUOUS
 10
36.3754647567
 20
51.6618110326
 11
36.3754647567
 21
51.2188269201
  0
LINE
  5
282
100
AcDbEntity
  8
A_RUNDUNGEN
100
AcDbLine
 62
7
  6
CONTINUOUS
 10
36.382009783
 20
51.6618681502
 11
36.382009783
 21
51.2241604183
  0
LINE
  5
283
100
AcDbEntity
  8
A_RUNDUNGEN
100
AcDbLine
 62
7
  6
CONTINUOUS
 10
38.7754647567
 20
33.763703156
 11
38.7754647567
 21
28.4432875391
  0
LINE
  5
284
100
AcDbEntity
  8
0
100
AcDbLine
 62
7
  6
CONTINUOUS
 10
38.7754647567
 20
27.3812813199
 11
38.7754647567
 21
28.4432875391
  0
LINE
  5
285
100
AcDbEntity
  8
0
100
AcDbLine
 62
7
  6
CONTINUOUS
 10
32.6222358353
 20
27.2849548655
 11
30.1136346263
 21
28.1430793408
  0
LINE
  5
286
100
AcDbEntity
  8
0
100
AcDbLine
 62
7
  6
CONTINUOUS
 10
33.7370718533
 20
28.9956725765
 11
30.9445496915
 21
29.9509187137
  0
LINE
  5
287
100
AcDbEntity
  8
0
100
AcDbLine
 62
7
  6
CONTINUOUS
 10
30.1082598341
 20
28.2406695108
 11
32.3567806991
 21
27.4428072684
  0
LINE
  5
288
100
AcDbEntity
  8
0
100
AcDbLine
 62
7
  6
CONTINUOUS
 10
34.174243487
 20
43.4744811187
 11
33.6393119548
 21
44.4005500288
  0
LINE
  5
289
100
AcDbEntity
  8
A_RUNDUNGEN
100
AcDbLine
 62
7
  6
CONTINUOUS
 10
41.6122512358
 20
47.7674889579
 11
40.3025729046
 21
40.7893271176
  0
LINE
  5
28A
100
AcDbEntity
  8
0
100
AcDbLine
 62
7
  6
CONTINUOUS
 10
33.6389682456
 20
45.9998500848
 11
34.1735016813
 21
46.9261488361
  0
LINE
  5
28B
100
AcDbEntity
  8
0
100
AcDbLine
 62
7
  6
CONTINUOUS
 10
96.5716708031
 20
25.8847398902
 11
102.3842242657
 21
26.7016410056
  0
LINE
  5
28C
100
AcDbEntity
  8
0
100
AcDbLine
 62
7
  6
CONTINUOUS
 10
18.1754647567
 20
21.7087580867
 11
64.1754647567
 21
21.7087580867
  0
LINE
  5
28D
100
AcDbEntity
  8
0
100
AcDbLine
 62
7
  6
CONTINUOUS
 10
67.6754646143
 20
21.7087863243
 11
122.6754646143
 21
21.7087863243
  0
LINE
  5
28E
100
AcDbEntity
  8
0
100
AcDbLine
 62
7
  6
CONTINUOUS
 10
29.2318868854
 20
26.8761805384
 11
40.8777000205
 21
25.8573039116
  0
LINE
  5
28F
100
AcDbEntity
  8
0
100
AcDbLine
 62
7
  6
CONTINUOUS
 10
37.9121836952
 20
46.9269523247
 11
38.4471152275
 21
46.0008834146
  0
LINE
  5
290
100
AcDbEntity
  8
A_RUNDUNGEN
100
AcDbLine
 62
7
  6
CONTINUOUS
 10
44.9754647567
 20
29.7096540778
 11
44.9754647567
 21
29.1326643667
  0
LINE
  5
291
100
AcDbEntity
  8
0
100
AcDbLine
 62
7
  6
CONTINUOUS
 10
38.4474589367
 20
44.4015833586
 11
37.912925501
 21
43.4752846073
  0
LINE
  5
292
100
AcDbEntity
  8
0
100
AcDbLine
 62
7
  6
CONTINUOUS
 10
33.2141786681
 20
48.0285359175
 11
38.1273359922
 21
52.9438054911
  0
LINE
  5
293
100
AcDbEntity
  8
A_RUNDUNGEN
100
AcDbLine
 62
7
  6
CONTINUOUS
 10
79.200307012
 20
27.0952464531
 11
79.2134385263
 21
27.0955538011
  0
LINE
  5
294
100
AcDbEntity
  8
0
100
AcDbLine
 62
7
  6
CONTINUOUS
 10
83.3702288923
 20
28.2639314539
 11
86.6672698866
 21
28.3214815186
  0
LINE
  5
295
100
AcDbEntity
  8
A_RUNDUNGEN
100
AcDbLine
 62
7
  6
CONTINUOUS
 10
55.9754647567
 20
26.5232580867
 11
63.8798280245
 21
26.5922384199
  0
LINE
  5
296
100
AcDbEntity
  8
A_RUNDUNGEN
100
AcDbLine
 62
7
  6
CONTINUOUS
 10
71.0658092943
 20
25.7665982263
 11
69.2754646143
 21
25.7587863243
  0
LINE
  5
297
100
AcDbEntity
  8
A_RUNDUNGEN
100
AcDbLine
 62
7
  6
CONTINUOUS
 10
78.1058905354
 20
25.7973165705
 11
83.0754646143
 21
25.8190005657
  0
LINE
  5
298
100
AcDbEntity
  8
0
100
AcDbLine
 62
7
  6
CONTINUOUS
 10
83.0754646143
 20
25.8190005657
 11
96.4705634594
 21
25.8774480812
  0
LINE
  5
299
100
AcDbEntity
  8
0
100
AcDbLine
 62
7
  6
CONTINUOUS
 10
28.1754647567
 20
25.7087580867
 11
64.1754647567
 21
25.7087580867
  0
LINE
  5
29A
100
AcDbEntity
  8
0
100
AcDbLine
 62
7
  6
CONTINUOUS
 10
104.1754646143
 20
25.7087863243
 11
67.6754646143
 21
25.7087863243
  0
LINE
  5
29B
100
AcDbEntity
  8
A_RUNDUNGEN
100
AcDbLine
 62
7
  6
CONTINUOUS
 10
77.9282911948
 20
25.7765022879
 11
68.2637225287
 21
25.7765022879
  0
LINE
  5
29C
100
AcDbEntity
  8
A_RUNDUNGEN
100
AcDbLine
 62
7
  6
CONTINUOUS
 10
64.1754647567
 20
25.8087580867
 11
62.6754647567
 21
25.8087580867
  0
LINE
  5
29D
100
AcDbEntity
  8
A_RUNDUNGEN
100
AcDbLine
 62
7
  6
CONTINUOUS
 10
67.7754646143
 20
25.8087863243
 11
68.1013585643
 21
25.8087863243
  0
LINE
  5
29E
100
AcDbEntity
  8
A_RUNDUNGEN
100
AcDbLine
 62
7
  6
CONTINUOUS
 10
68.3967952324
 20
25.9095797283
 11
77.7952207995
 21
25.9095797283
  0
LINE
  5
29F
100
AcDbEntity
  8
A_RUNDUNGEN
100
AcDbLine
 62
7
  6
CONTINUOUS
 10
83.0754646143
 20
27.097882707
 11
80.0960065879
 21
27.097882707
  0
LINE
  5
2A0
100
AcDbEntity
  8
A_RUNDUNGEN
100
AcDbLine
 62
7
  6
CONTINUOUS
 10
79.0952084245
 20
27.2095797283
 11
79.6960065881
 21
27.2095797283
  0
LINE
  5
2A1
100
AcDbEntity
  8
A_RUNDUNGEN
100
AcDbLine
 62
7
  6
CONTINUOUS
 10
62.6754647567
 20
25.7587580867
 11
50.7754647567
 21
25.8106819615
  0
LINE
  5
2A2
100
AcDbEntity
  8
0
100
AcDbLine
 62
7
  6
CONTINUOUS
 10
40.960492454
 20
25.8535081289
 11
50.7754647567
 21
25.8106819615
  0
LINE
  5
2A3
100
AcDbEntity
  8
0
100
AcDbLine
 62
7
  6
CONTINUOUS
 10
32.5213676398
 20
27.4140279951
 11
38.7754647567
 21
27.3812813199
  0
LINE
  5
2A4
100
AcDbEntity
  8
A_RUNDUNGEN
100
AcDbLine
 62
7
  6
CONTINUOUS
 10
38.7754647567
 20
27.3812813199
 11
50.9754647567
 21
27.3174016855
  0
LINE
  5
2A5
100
AcDbEntity
  8
A_RUNDUNGEN
100
AcDbLine
 62
7
  6
CONTINUOUS
 10
83.0754646143
 20
27.1808852745
 11
79.6960065881
 21
27.2095797283
  0
LINE
  5
2A6
100
AcDbEntity
  8
0
100
AcDbLine
 62
7
  6
CONTINUOUS
 10
50.9754647567
 20
26.5668924257
 11
55.9754647567
 21
26.5232580867
  0
LINE
  5
2A7
100
AcDbEntity
  8
0
100
AcDbLine
 62
7
  6
CONTINUOUS
 10
32.9371695607
 20
27.2311663069
 11
50.2798280245
 21
27.0798192193
  0
LINE
  5
2A8
100
AcDbEntity
  8
A_RUNDUNGEN
100
AcDbLine
 62
7
  6
CONTINUOUS
 10
50.2798280245
 20
27.0798192193
 11
50.9754647567
 21
27.0737484895
  0
LINE
  5
2A9
100
AcDbEntity
  8
0
100
AcDbLine
 62
7
  6
CONTINUOUS
 10
29.4136613579
 20
44.1896597861
 11
29.6372681556
 21
44.0778563873
  0
LINE
  5
2AA
100
AcDbEntity
  8
0
100
AcDbLine
 62
7
  6
CONTINUOUS
 10
35.2622090637
 20
42.7860098822
 11
34.3708417599
 21
43.3003856456
  0
LINE
  5
2AB
100
AcDbEntity
  8
0
100
AcDbLine
 62
7
  6
CONTINUOUS
 10
50.7754647567
 20
26.5798382578
 11
50.7754647567
 21
25.8106819615
  0
LINE
  5
2AC
100
AcDbEntity
  8
A_RUNDUNGEN
100
AcDbLine
 62
7
  6
CONTINUOUS
 10
50.7754647567
 20
27.3184488926
 11
50.7754647567
 21
28.3385651256
  0
LINE
  5
2AD
100
AcDbEntity
  8
A_RUNDUNGEN
100
AcDbLine
 62
7
  6
CONTINUOUS
 10
96.9720195605
 20
36.2478100315
 11
96.976882117
 21
36.2490819823
  0
LINE
  5
2AE
100
AcDbEntity
  8
A_RUNDUNGEN
100
AcDbLine
 62
7
  6
CONTINUOUS
 10
87.9340428099
 20
28.7632998235
 11
100.1929170207
 21
28.9772792688
  0
LINE
  5
2AF
100
AcDbEntity
  8
0
100
AcDbLine
 62
7
  6
CONTINUOUS
 10
101.9276462481
 20
28.5566236462
 11
87.1822277555
 21
28.4279423285
  0
LINE
  5
2B0
100
AcDbEntity
  8
A_RUNDUNGEN
100
AcDbLine
 62
7
  6
CONTINUOUS
 10
94.0681931816
 20
29.197882707
 11
91.6187728732
 21
29.197882707
  0
LINE
  5
2B1
100
AcDbEntity
  8
A_RUNDUNGEN
100
AcDbLine
 62
7
  6
CONTINUOUS
 10
94.0708233355
 20
29.2153313506
 11
91.6043380108
 21
29.2153313506
  0
LINE
  5
2B2
100
AcDbEntity
  8
A_RUNDUNGEN
100
AcDbLine
 62
7
  6
CONTINUOUS
 10
88.7988848154
 20
30.1066236462
 11
81.1937867945
 21
30.1066236462
  0
LINE
  5
2B3
100
AcDbEntity
  8
0
100
AcDbLine
 62
7
  6
CONTINUOUS
 10
33.8158052846
 20
28.9822254369
 11
38.2798280245
 21
28.9432685006
  0
LINE
  5
2B4
100
AcDbEntity
  8
A_RUNDUNGEN
100
AcDbLine
 62
7
  6
CONTINUOUS
 10
38.7754647567
 20
28.9389431444
 11
50.9754647567
 21
28.8324753573
  0
LINE
  5
2B5
100
AcDbEntity
  8
A_RUNDUNGEN
100
AcDbLine
 62
7
  6
CONTINUOUS
 10
38.7754647567
 20
29.7637606581
 11
50.9754647567
 21
29.6572928711
  0
LINE
  5
2B6
100
AcDbEntity
  8
A_RUNDUNGEN
100
AcDbLine
 62
7
  6
CONTINUOUS
 10
90.9794221837
 20
30.1502111083
 11
93.6973364818
 21
30.1027697378
  0
LINE
  5
2B7
100
AcDbEntity
  8
0
100
AcDbLine
 62
7
  6
CONTINUOUS
 10
36.8242181186
 20
47.6154235612
 11
37.7155854224
 21
47.1010477978
  0
LINE
  5
2B8
100
AcDbEntity
  8
0
100
AcDbLine
 62
7
  6
CONTINUOUS
 10
53.113442329
 20
34.8984389133
 11
53.1255154148
 21
32.1501949634
  0
LINE
  5
2B9
100
AcDbEntity
  8
A_RUNDUNGEN
100
AcDbLine
 62
7
  6
CONTINUOUS
 10
53.113442329
 20
34.8984389133
 11
53.0753730501
 21
43.5642983881
  0
LINE
  5
2BA
100
AcDbEntity
  8
0
100
AcDbLine
 62
7
  6
CONTINUOUS
 10
50.9754647567
 20
26.5668924257
 11
50.9754647567
 21
29.6572928711
  0
LINE
  5
2BB
100
AcDbEntity
  8
0
100
AcDbLine
 62
7
  6
CONTINUOUS
 10
54.1754647567
 20
25.7087580867
 11
54.1754647567
 21
25.7958465687
  0
LINE
  5
2BC
100
AcDbEntity
  8
0
100
AcDbLine
 62
7
  6
CONTINUOUS
 10
54.1754647567
 20
57.6216696047
 11
54.1754647567
 21
57.7087580867
  0
LINE
  5
2BD
100
AcDbEntity
  8
0
100
AcDbLine
 62
7
  6
CONTINUOUS
 10
41.1635851478
 20
49.6160308166
 11
40.2528261464
 21
48.7048802645
  0
LINE
  5
2BE
100
AcDbEntity
  8
0
100
AcDbLine
 62
7
  6
CONTINUOUS
 10
95.9437811742
 20
39.6452726177
 11
98.4452719874
 21
40.1638179412
  0
LINE
  5
2BF
100
AcDbEntity
  8
A_RUNDUNGEN
100
AcDbLine
 62
7
  6
CONTINUOUS
 10
100.6929143626
 20
34.6919352982
 11
90.9706986386
 21
34.352428044
  0
LINE
  5
2C0
100
AcDbEntity
  8
A_ACHSEN
100
AcDbLine
 62
7
  6
CONTINUOUS
 10
58.7253497567
 20
32.1732580867
 11
58.0255797567
 21
32.1732580867
  0
LINE
  5
2C1
100
AcDbEntity
  8
A_ACHSEN
100
AcDbLine
 62
7
  6
CENTER
 10
56.6260397567
 20
32.1732580867
 11
52.8254647567
 21
32.1732580867
  0
LINE
  5
2C2
100
AcDbEntity
  8
A_ACHSEN
100
AcDbLine
 62
7
  6
CENTER
 10
60.1248897567
 20
32.1732580867
 11
63.9254647567
 21
32.1732580867
  0
LINE
  5
2C3
100
AcDbEntity
  8
A_ACHSEN
100
AcDbLine
 62
7
  6
CONTINUOUS
 10
74.1458915881
 20
32.2087863243
 11
73.4461215881
 21
32.2087863243
  0
LINE
  5
2C4
100
AcDbEntity
  8
A_ACHSEN
100
AcDbLine
 62
7
  6
CENTER
 10
72.0465815881
 20
32.2087863243
 11
67.9460065881
 21
32.2087863243
  0
LINE
  5
2C5
100
AcDbEntity
  8
A_ACHSEN
100
AcDbLine
 62
7
  6
CENTER
 10
75.5454315881
 20
32.2087863243
 11
79.6460065881
 21
32.2087863243
  0
LINE
  5
2C6
100
AcDbEntity
  8
0
100
AcDbLine
 62
7
  6
CONTINUOUS
 10
29.3754647567
 20
35.0087580867
 11
29.1754647567
 21
35.0087580867
  0
LINE
  5
2C7
100
AcDbEntity
  8
0
100
AcDbLine
 62
7
  6
CONTINUOUS
 10
101.9276462481
 20
35.5609490025
 11
101.5719740001
 21
35.5640529071
  0
LINE
  5
2C8
100
AcDbEntity
  8
0
100
AcDbLine
 62
7
  6
CONTINUOUS
 10
31.0167398826
 20
35.0003325737
 11
37.8103642534
 21
34.763093983
  0
LINE
  5
2C9
100
AcDbEntity
  8
A_RUNDUNGEN
100
AcDbLine
 62
7
  6
CONTINUOUS
 10
31.0167398826
 20
35.0003325737
 11
37.8103642534
 21
34.763093983
  0
LWPOLYLINE
  5
2CA
100
AcDbEntity
  8
0
100
AcDbPolyline
 62
7
  6
CONTINUOUS
 90
7
 70
0
 10
93.6974879528
 20
30.1027670593
 10
93.7886020249
 20
30.092515291
 10
93.884357808
 20
30.0612709236
 10
93.967355821
 20
30.011086902
 10
94.031761812
 20
29.9448792392
 10
94.0712209249
 20
29.8678708843
 10
94.0818946269
 20
29.7996135458
  0
LINE
  5
2CB
100
AcDbEntity
  8
0
100
AcDbLine
 62
7
  6
CONTINUOUS
 10
33.7640347616
 20
39.981575964
 11
36.2748671423
 21
39.5103368559
  0
LINE
  5
2CC
100
AcDbEntity
  8
0
100
AcDbLine
 62
7
  6
CONTINUOUS
 10
37.6953935448
 20
39.2437290169
 11
37.9679700394
 21
39.1925711996
  0
LINE
  5
2CD
100
AcDbEntity
  8
0
100
AcDbLine
 62
7
  6
CONTINUOUS
 10
60.516947293
 20
39.7004469631
 11
58.9855059667
 21
41.1409974742
  0
LINE
  5
2CE
100
AcDbEntity
  8
0
100
AcDbLine
 62
7
  6
CONTINUOUS
 10
57.2754647567
 20
57.6351959923
 11
57.2754647567
 21
56.8944025562
  0
LINE
  5
2CF
100
AcDbEntity
  8
A_RUNDUNGEN
100
AcDbLine
 62
7
  6
CONTINUOUS
 10
57.2754647567
 20
54.7052800122
 11
57.2754647567
 21
56.1331015122
  0
LINE
  5
2D0
100
AcDbEntity
  8
0
100
AcDbLine
 62
7
  6
CONTINUOUS
 10
57.5754647567
 20
54.7053444859
 11
57.5754647567
 21
56.3092950982
  0
LINE
  5
2D1
100
AcDbEntity
  8
A_ACHSEN
100
AcDbLine
 62
7
  6
CONTINUOUS
 10
58.3754647567
 20
32.5231430867
 11
58.3754647567
 21
31.8233730867
  0
LINE
  5
2D2
100
AcDbEntity
  8
A_ACHSEN
100
AcDbLine
 62
7
  6
CENTER
 10
58.3754647567
 20
30.4238330867
 11
58.3754647567
 21
26.6232580867
  0
LINE
  5
2D3
100
AcDbEntity
  8
A_ACHSEN
100
AcDbLine
 62
7
  6
CENTER
 10
58.3754647567
 20
33.9226830867
 11
58.3754647567
 21
37.7232580867
  0
LINE
  5
2D4
100
AcDbEntity
  8
0
100
AcDbLine
 62
7
  6
CONTINUOUS
 10
34.3700251055
 20
47.1003287958
 11
35.2611712357
 21
47.6150876433
  0
LINE
  5
2D5
100
AcDbEntity
  8
0
100
AcDbLine
 62
7
  6
CONTINUOUS
 10
33.7370718533
 20
53.1218435969
 11
30.9445496915
 21
52.1665974597
  0
LINE
  5
2D6
100
AcDbEntity
  8
A_RUNDUNGEN
100
AcDbLine
 62
7
  6
CONTINUOUS
 10
31.2173508737
 20
50.9372201257
 11
33.2360388769
 21
51.6101161268
  0
LINE
  5
2D7
100
AcDbEntity
  8
0
100
AcDbLine
 62
7
  6
CONTINUOUS
 10
102.3911654011
 20
41.6938868339
 11
102.2106084478
 21
41.684424245
  0
LINE
  5
2D8
100
AcDbEntity
  8
A_RUNDUNGEN
100
AcDbLine
 62
7
  6
CONTINUOUS
 10
59.9986027029
 20
40.7514672074
 11
60.516947293
 21
39.7004469631
  0
LINE
  5
2D9
100
AcDbEntity
  8
0
100
AcDbLine
 62
7
  6
CONTINUOUS
 10
63.0839777608
 20
34.4954133982
 11
60.516947293
 21
39.7004469631
  0
LINE
  5
2DA
100
AcDbEntity
  8
A_RUNDUNGEN
100
AcDbLine
 62
7
  6
CONTINUOUS
 10
60.7953838236
 20
43.3506169888
 11
60.7953838236
 21
39.4552953545
  0
LINE
  5
2DB
100
AcDbEntity
  8
0
100
AcDbLine
 62
7
  6
CONTINUOUS
 10
60.822009783
 20
43.3671560147
 11
60.822009783
 21
39.0818876902
  0
LINE
  5
2DC
100
AcDbEntity
  8
0
100
AcDbLine
 62
7
  6
CONTINUOUS
 10
62.6754647567
 20
57.6587580867
 11
62.6754647567
 21
57.6087580867
  0
LINE
  5
2DD
100
AcDbEntity
  8
A_RUNDUNGEN
100
AcDbLine
 62
7
  6
CONTINUOUS
 10
62.6754647567
 20
25.7587580867
 11
62.6754647567
 21
26.5817281009
  0
LINE
  5
2DE
100
AcDbEntity
  8
A_RUNDUNGEN
100
AcDbLine
 62
7
  6
CONTINUOUS
 10
62.6754647567
 20
56.2647880725
 11
62.6754647567
 21
57.6587580867
  0
LINE
  5
2DF
100
AcDbEntity
  8
0
100
AcDbLine
 62
7
  6
CONTINUOUS
 10
57.40655889
 20
49.5978871089
 11
54.2345094085
 21
46.3978449123
  0
LINE
  5
2E0
100
AcDbEntity
  8
0
100
AcDbLine
 62
7
  6
CONTINUOUS
 10
37.7164020767
 20
43.3011046476
 11
36.8252559466
 21
42.7863458001
  0
LINE
  5
2E1
100
AcDbEntity
  8
0
100
AcDbLine
 62
7
  6
CONTINUOUS
 10
76.1754647567
 20
64.3347624558
 11
73.4454557616
 21
63.0087580867
  0
LINE
  5
2E2
100
AcDbEntity
  8
0
100
AcDbLine
 62
7
  6
CONTINUOUS
 10
77.1754647567
 20
63.7087580867
 11
73.6754647567
 21
62.0087580867
  0
LINE
  5
2E3
100
AcDbEntity
  8
0
100
AcDbLine
 62
7
  6
CONTINUOUS
 10
96.5874679243
 20
42.8594554557
 11
95.5703204174
 21
42.8549871081
  0
LINE
  5
2E4
100
AcDbEntity
  8
0
100
AcDbLine
 62
7
  6
CONTINUOUS
 10
36.5523256124
 20
42.7190122918
 11
35.5351683143
 21
42.7187936922
  0
LINE
  5
2E5
100
AcDbEntity
  8
0
100
AcDbLine
 62
7
  6
CONTINUOUS
 10
102.6754646143
 20
44.1887863243
 11
102.3754646143
 21
44.1887863243
  0
LINE
  5
2E6
100
AcDbEntity
  8
A_RUNDUNGEN
100
AcDbLine
 62
7
  6
CONTINUOUS
 10
64.1754647567
 20
57.6087580867
 11
64.1754647567
 21
56.1532325205
  0
LINE
  5
2E7
100
AcDbEntity
  8
A_RUNDUNGEN
100
AcDbLine
 62
7
  6
CONTINUOUS
 10
64.1754647567
 20
26.693283653
 11
64.1754647567
 21
25.8087580867
  0
LINE
  5
2E8
100
AcDbEntity
  8
0
100
AcDbLine
 62
7
  6
CONTINUOUS
 10
64.1754647567
 20
21.7087580867
 11
64.1754647567
 21
25.8349228657
  0
LINE
  5
2E9
100
AcDbEntity
  8
0
100
AcDbLine
 62
7
  6
CONTINUOUS
 10
64.1754647567
 20
57.5825933077
 11
64.1754647567
 21
66.7087580867
  0
LINE
  5
2EA
100
AcDbEntity
  8
A_RUNDUNGEN
100
AcDbLine
 62
7
  6
CONTINUOUS
 10
64.3754647567
 20
53.1128209096
 11
64.3754647567
 21
53.0428178029
  0
LINE
  5
2EB
100
AcDbEntity
  8
A_RUNDUNGEN
100
AcDbLine
 62
7
  6
CONTINUOUS
 10
64.3754647567
 20
49.3627656093
 11
64.3754647567
 21
49.301610906
  0
LINE
  5
2EC
100
AcDbEntity
  8
A_RUNDUNGEN
100
AcDbLine
 62
7
  6
CONTINUOUS
 10
64.3754647567
 20
44.993395087
 11
64.3754647567
 21
27.0922193814
  0
LINE
  5
2ED
100
AcDbEntity
  8
0
100
AcDbLine
 62
7
  6
CONTINUOUS
 10
65.1754647567
 20
64.3347624558
 11
65.1754647567
 21
65.7087580867
  0
LINE
  5
2EE
100
AcDbEntity
  8
A_ACHSEN
100
AcDbLine
 62
7
  6
CENTER
 10
66.0419234342
 20
46.8221851673
 11
66.0419234342
 21
55.5920554638
  0
LINE
  5
2EF
100
AcDbEntity
  8
0
100
AcDbLine
 62
7
  6
CONTINUOUS
 10
29.4136613579
 20
36.8278563873
 11
29.6372681556
 21
36.9396597861
  0
LINE
  5
2F0
100
AcDbEntity
  8
0
100
AcDbLine
 62
7
  6
CONTINUOUS
 10
96.0381023161
 20
51.0008055914
 11
96.1922020713
 21
51.0327496253
  0
LINE
  5
2F1
100
AcDbEntity
  8
0
100
AcDbLine
 62
7
  6
CONTINUOUS
 10
97.6074433965
 20
51.3261213886
 11
97.8790057685
 21
51.3824147787
  0
LINE
  5
2F2
100
AcDbEntity
  8
0
100
AcDbLine
 62
7
  6
CONTINUOUS
 10
95.5485153212
 20
47.8185667873
 11
96.5656628281
 21
47.8230351349
  0
LINE
  5
2F3
100
AcDbEntity
  8
0
100
AcDbLine
 62
7
  6
CONTINUOUS
 10
35.5341015699
 20
47.6824211516
 11
36.551258868
 21
47.6826397512
  0
LINE
  5
2F4
100
AcDbEntity
  8
A_ACHSEN
100
AcDbLine
 62
7
  6
CENTER
 10
30.6644091004
 20
45.2007167217
 11
41.4220180818
 21
45.2007167217
  0
LINE
  5
2F5
100
AcDbEntity
  8
A_ACHSEN
100
AcDbLine
 62
7
  6
CONTINUOUS
 10
96.1727504688
 20
45.3390111215
 11
95.7181066227
 21
45.3390111215
  0
LINE
  5
2F6
100
AcDbEntity
  8
A_ACHSEN
100
AcDbLine
 62
7
  6
CENTER
 10
95.6934269315
 20
45.3390111215
 11
90.4644428883
 21
45.3390111215
  0
LINE
  5
2F7
100
AcDbEntity
  8
A_ACHSEN
100
AcDbLine
 62
7
  6
CENTER
 10
96.1727504688
 20
45.3390111215
 11
101.6715403572
 21
45.3390111215
  0
LINE
  5
2F8
100
AcDbEntity
  8
0
100
AcDbLine
 62
7
  6
CONTINUOUS
 10
102.6754646143
 20
45.7646359243
 11
102.3754646143
 21
45.7646359243
  0
LINE
  5
2F9
100
AcDbEntity
  8
0
100
AcDbLine
 62
7
  6
CONTINUOUS
 10
29.3754647567
 20
46.0087580867
 11
29.1754647567
 21
46.0087580867
  0
LINE
  5
2FA
100
AcDbEntity
  8
0
100
AcDbLine
 62
7
  6
CONTINUOUS
 10
102.6754646143
 20
46.1591661973
 11
102.3754646143
 21
46.1591661973
  0
LINE
  5
2FB
100
AcDbEntity
  8
0
100
AcDbLine
 62
7
  6
CONTINUOUS
 10
102.6754646143
 20
46.183239559
 11
102.3754646143
 21
46.183239559
  0
LINE
  5
2FC
100
AcDbEntity
  8
0
100
AcDbLine
 62
7
  6
CONTINUOUS
 10
102.6754646143
 20
46.7519735756
 11
102.3754646143
 21
46.7519735756
  0
LINE
  5
2FD
100
AcDbEntity
  8
0
100
AcDbLine
 62
7
  6
CONTINUOUS
 10
102.6754646143
 20
47.5686061973
 11
102.3754646143
 21
47.5686061973
  0
LINE
  5
2FE
100
AcDbEntity
  8
0
100
AcDbLine
 62
7
  6
CONTINUOUS
 10
34.1184571429
 20
51.2088622438
 11
34.3910336374
 21
51.1577044265
  0
LINE
  5
2FF
100
AcDbEntity
  8
0
100
AcDbLine
 62
7
  6
CONTINUOUS
 10
35.8115600399
 20
50.8910965875
 11
36.0338139724
 21
50.8493834307
  0
LINE
  5
300
100
AcDbEntity
  8
0
100
AcDbLine
 62
7
  6
CONTINUOUS
 10
71.1486625938
 20
43.4830467892
 11
57.2073305104
 21
49.6865379993
  0
LINE
  5
301
100
AcDbEntity
  8
0
100
AcDbLine
 62
7
  6
CONTINUOUS
 10
67.6754646143
 20
61.7087863243
 11
67.6754646143
 21
56.0335420304
  0
LINE
  5
302
100
AcDbEntity
  8
0
100
AcDbLine
 62
7
  6
CONTINUOUS
 10
67.6754646143
 20
53.1415349802
 11
67.6754646143
 21
53.0860763764
  0
LINE
  5
303
100
AcDbEntity
  8
0
100
AcDbLine
 62
7
  6
CONTINUOUS
 10
67.6754646143
 20
49.2719982518
 11
67.6754646143
 21
49.2591555084
  0
LINE
  5
304
100
AcDbEntity
  8
0
100
AcDbLine
 62
7
  6
CONTINUOUS
 10
67.6754646143
 20
45.0285198479
 11
67.6754646143
 21
21.7087863243
  0
LINE
  5
305
100
AcDbEntity
  8
A_RUNDUNGEN
100
AcDbLine
 62
7
  6
CONTINUOUS
 10
67.7637225517
 20
26.2765022879
 11
67.7637225517
 21
44.9892476079
  0
LINE
  5
306
100
AcDbEntity
  8
A_RUNDUNGEN
100
AcDbLine
 62
7
  6
CONTINUOUS
 10
67.7637225517
 20
49.3508826885
 11
67.7637225517
 21
49.4240701542
  0
LINE
  5
307
100
AcDbEntity
  8
A_RUNDUNGEN
100
AcDbLine
 62
7
  6
CONTINUOUS
 10
67.7637225517
 20
52.9933037045
 11
67.7637225517
 21
53.064034611
  0
LINE
  5
308
100
AcDbEntity
  8
A_RUNDUNGEN
100
AcDbLine
 62
7
  6
CONTINUOUS
 10
67.7754646143
 20
25.8087863243
 11
67.7754646143
 21
26.1542778271
  0
LINE
  5
309
100
AcDbEntity
  8
A_RUNDUNGEN
100
AcDbLine
 62
7
  6
CONTINUOUS
 10
67.7754646143
 20
56.0014325511
 11
67.7754646143
 21
57.6087863243
  0
LINE
  5
30A
100
AcDbEntity
  8
A_RUNDUNGEN
100
AcDbLine
 62
7
  6
CONTINUOUS
 10
67.8025516143
 20
34.0884722914
 11
67.8025516143
 21
44.9719697935
  0
LINE
  5
30B
100
AcDbEntity
  8
A_RUNDUNGEN
100
AcDbLine
 62
7
  6
CONTINUOUS
 10
67.8025516143
 20
49.3855878813
 11
67.8025516143
 21
49.4610096204
  0
LINE
  5
30C
100
AcDbEntity
  8
A_RUNDUNGEN
100
AcDbLine
 62
7
  6
CONTINUOUS
 10
67.8025516143
 20
52.9524883853
 11
67.8025516143
 21
53.0299383385
  0
LINE
  5
30D
100
AcDbEntity
  8
A_RUNDUNGEN
100
AcDbLine
 62
7
  6
CONTINUOUS
 10
67.896799992
 20
32.8377301218
 11
67.896799992
 21
26.4095749686
  0
LINE
  5
30E
100
AcDbEntity
  8
0
100
AcDbLine
 62
7
  6
CONTINUOUS
 10
69.2754646143
 20
57.6587863243
 11
69.2754646143
 21
57.0709545172
  0
LINE
  5
30F
100
AcDbEntity
  8
A_RUNDUNGEN
100
AcDbLine
 62
7
  6
CONTINUOUS
 10
69.2754646143
 20
25.7587863243
 11
69.2754646143
 21
25.7765022879
  0
LINE
  5
310
100
AcDbEntity
  8
A_RUNDUNGEN
100
AcDbLine
 62
7
  6
CONTINUOUS
 10
69.2754646143
 20
56.3410703607
 11
69.2754646143
 21
57.0709545172
  0
LINE
  5
311
100
AcDbEntity
  8
0
100
AcDbLine
 62
7
  6
CONTINUOUS
 10
58.9855059667
 20
41.1409974742
 11
53.113442329
 21
34.8984389133
  0
LINE
  5
312
100
AcDbEntity
  8
0
100
AcDbLine
 62
7
  6
CONTINUOUS
 10
36.8500321552
 20
51.6659525195
 11
36.382009783
 21
51.6618681502
  0
LINE
  5
313
100
AcDbEntity
  8
A_RUNDUNGEN
100
AcDbLine
 62
7
  6
CONTINUOUS
 10
33.3897894922
 20
51.6357554393
 11
36.3754647567
 21
51.6618110326
  0
LINE
  5
314
100
AcDbEntity
  8
A_RUNDUNGEN
100
AcDbLine
 62
7
  6
CONTINUOUS
 10
77.3215467908
 20
50.2567058933
 11
87.0881237443
 21
50.2996106442
  0
LINE
  5
315
100
AcDbEntity
  8
0
100
AcDbLine
 62
7
  6
CONTINUOUS
 10
87.0881237443
 20
50.2996106442
 11
89.5105558999
 21
50.3102524329
  0
LINE
  5
316
100
AcDbEntity
  8
0
100
AcDbLine
 62
7
  6
CONTINUOUS
 10
54.7667992274
 20
50.2047407653
 11
42.5776727849
 21
50.2021211726
  0
LINE
  5
317
100
AcDbEntity
  8
0
100
AcDbLine
 62
7
  6
CONTINUOUS
 10
102.6754646143
 20
49.9606061973
 11
102.3754646143
 21
49.9606061973
  0
LINE
  5
318
100
AcDbEntity
  8
A_ACHSEN
100
AcDbLine
 62
7
  6
CONTINUOUS
 10
102.6754646143
 20
50.8327661973
 11
102.3754646143
 21
50.8327661973
  0
LINE
  5
319
100
AcDbEntity
  8
A_ACHSEN
100
AcDbLine
 62
7
  6
CENTER
 10
61.6569882859
 20
51.2071203156
 11
70.4268585824
 21
51.2071203156
  0
LINE
  5
31A
100
AcDbEntity
  8
0
100
AcDbLine
 62
7
  6
CONTINUOUS
 10
102.6754646143
 20
51.646358819
 11
102.3754646143
 21
51.646358819
  0
LINE
  5
31B
100
AcDbEntity
  8
0
100
AcDbLine
 62
7
  6
CONTINUOUS
 10
102.6754646143
 20
52.2150928356
 11
102.3754646143
 21
52.2150928356
  0
LINE
  5
31C
100
AcDbEntity
  8
0
100
AcDbLine
 62
7
  6
CONTINUOUS
 10
102.6754646143
 20
52.2391661973
 11
102.3754646143
 21
52.2391661973
  0
LINE
  5
31D
100
AcDbEntity
  8
A_RUNDUNGEN
100
AcDbLine
 62
7
  6
CONTINUOUS
 10
71.4395586668
 20
39.3561484987
 11
71.3909617011
 21
43.3336663494
  0
LINE
  5
31E
100
AcDbEntity
  8
A_RUNDUNGEN
100
AcDbLine
 62
7
  6
CONTINUOUS
 10
71.4641764861
 20
39.5206714736
 11
71.4177917449
 21
43.3171252908
  0
LINE
  5
31F
100
AcDbEntity
  8
A_ACHSEN
100
AcDbLine
 62
7
  6
CONTINUOUS
 10
73.7960065881
 20
32.5586713243
 11
73.7960065881
 21
31.8589013243
  0
LINE
  5
320
100
AcDbEntity
  8
A_ACHSEN
100
AcDbLine
 62
7
  6
CENTER
 10
73.7960065881
 20
30.4593613243
 11
73.7960065881
 21
26.3587863243
  0
LINE
  5
321
100
AcDbEntity
  8
A_ACHSEN
100
AcDbLine
 62
7
  6
CENTER
 10
73.7960065881
 20
33.9582113243
 11
73.7960065881
 21
38.0587863243
  0
LINE
  5
322
100
AcDbEntity
  8
0
100
AcDbLine
 62
7
  6
CONTINUOUS
 10
60.9708301394
 20
43.4595975191
 11
66.0544968469
 21
45.7498038139
  0
LINE
  5
323
100
AcDbEntity
  8
0
100
AcDbLine
 62
7
  6
CONTINUOUS
 10
74.6846114652
 20
49.6376949681
 11
74.8834292366
 21
49.7272629389
  0
LINE
  5
324
100
AcDbEntity
  8
A_RUNDUNGEN
100
AcDbLine
 62
7
  6
CONTINUOUS
 10
96.5239708733
 20
54.6237264477
 11
96.5104614819
 21
54.6235625568
  0
LINE
  5
325
100
AcDbEntity
  8
A_RUNDUNGEN
100
AcDbLine
 62
7
  6
CONTINUOUS
 10
38.4093846435
 20
53.1753782963
 11
34.2798280245
 21
53.1393402016
  0
LINE
  5
326
100
AcDbEntity
  8
0
100
AcDbLine
 62
7
  6
CONTINUOUS
 10
33.8158052846
 20
53.1352907365
 11
34.2798280245
 21
53.1393402016
  0
LINE
  5
327
100
AcDbEntity
  8
0
100
AcDbLine
 62
7
  6
CONTINUOUS
 10
34.2798280245
 20
54.9480194714
 11
30.271101489
 21
54.913035845
  0
LINE
  5
328
100
AcDbEntity
  8
0
100
AcDbLine
 62
7
  6
CONTINUOUS
 10
30.0241557658
 20
54.7403955531
 11
34.7754647567
 21
54.7652735762
  0
LINE
  5
329
100
AcDbEntity
  8
A_RUNDUNGEN
100
AcDbLine
 62
7
  6
CONTINUOUS
 10
34.9016765835
 20
56.0159515607
 11
57.5754647567
 21
56.1346723229
  0
LINE
  5
32A
100
AcDbEntity
  8
0
100
AcDbLine
 62
7
  6
CONTINUOUS
 10
89.6978922913
 20
54.8111188268
 11
82.3263905455
 21
54.778735685
  0
LINE
  5
32B
100
AcDbEntity
  8
A_RUNDUNGEN
100
AcDbLine
 62
7
  6
CONTINUOUS
 10
70.3565776395
 20
54.7261520783
 11
82.3263905455
 21
54.778735685
  0
LINE
  5
32C
100
AcDbEntity
  8
A_RUNDUNGEN
100
AcDbLine
 62
7
  6
CONTINUOUS
 10
96.5104614819
 20
54.6235625568
 11
96.4025589199
 21
54.6229430856
  0
LINE
  5
32D
100
AcDbEntity
  8
A_RUNDUNGEN
100
AcDbLine
 62
7
  6
CONTINUOUS
 10
96.4025589199
 20
54.6229430856
 11
96.0537940064
 21
54.6219950389
  0
LINE
  5
32E
100
AcDbEntity
  8
A_RUNDUNGEN
100
AcDbLine
 62
7
  6
CONTINUOUS
 10
96.0537940064
 20
54.6219950389
 11
95.97128085
 21
54.6218389044
  0
LWPOLYLINE
  5
32F
100
AcDbEntity
  8
A_RUNDUNGEN
100
AcDbPolyline
 62
7
  6
CONTINUOUS
 90
3
 70
0
 10
95.97128085
 20
54.6218389044
 10
95.8854286237
 20
54.6216911065
 10
95.8413301001
 20
54.6216200558
  0
LINE
  5
330
100
AcDbEntity
  8
A_RUNDUNGEN
100
AcDbLine
 62
7
  6
CONTINUOUS
 10
95.8413301001
 20
54.6216200558
 11
94.4380167927
 21
54.6202649884
  0
LINE
  5
331
100
AcDbEntity
  8
0
100
AcDbLine
 62
7
  6
CONTINUOUS
 10
42.3695989033
 20
54.7020765589
 11
61.7110997378
 21
54.7062332845
  0
LINE
  5
332
100
AcDbEntity
  8
A_RUNDUNGEN
100
AcDbLine
 62
7
  6
CONTINUOUS
 10
92.2004003591
 20
54.6022412981
 11
98.8861907397
 21
54.6022412981
  0
LINE
  5
333
100
AcDbEntity
  8
A_RUNDUNGEN
100
AcDbLine
 62
7
  6
CONTINUOUS
 10
94.4380167927
 20
54.6202649884
 11
92.2331152708
 21
54.6196899417
  0
LINE
  5
334
100
AcDbEntity
  8
A_RUNDUNGEN
100
AcDbLine
 62
7
  6
CONTINUOUS
 10
92.2331152708
 20
54.6196899417
 11
92.2076258524
 21
54.6196899417
  0
LINE
  5
335
100
AcDbEntity
  8
A_RUNDUNGEN
100
AcDbLine
 62
7
  6
CONTINUOUS
 10
96.6062427414
 20
54.6410703607
 11
98.305446359
 21
54.6410703607
  0
LINE
  5
336
100
AcDbEntity
  8
A_RUNDUNGEN
100
AcDbLine
 62
7
  6
CONTINUOUS
 10
73.6820067689
 20
55.8022412981
 11
71.6960056413
 21
55.8022412981
  0
LINE
  5
337
100
AcDbEntity
  8
A_RUNDUNGEN
100
AcDbLine
 62
7
  6
CONTINUOUS
 10
73.5922412794
 20
55.8196899417
 11
72.1960065881
 21
55.8196899417
  0
LINE
  5
338
100
AcDbEntity
  8
A_RUNDUNGEN
100
AcDbLine
 62
7
  6
CONTINUOUS
 10
98.3090732672
 20
54.6410677165
 11
98.9022785264
 21
54.6402049289
  0
LINE
  5
339
100
AcDbEntity
  8
A_RUNDUNGEN
100
AcDbLine
 62
7
  6
CONTINUOUS
 10
63.8798280245
 20
56.2542777535
 11
57.5754647567
 21
56.3092950982
  0
LINE
  5
33A
100
AcDbEntity
  8
0
100
AcDbLine
 62
7
  6
CONTINUOUS
 10
100.1929170207
 20
54.8299338993
 11
95.8047537121
 21
54.9065295747
  0
LINE
  5
33B
100
AcDbEntity
  8
0
100
AcDbLine
 62
7
  6
CONTINUOUS
 10
94.8692902576
 20
55.3018429603
 11
74.4637562995
 21
55.6580228805
  0
LINE
  5
33C
100
AcDbEntity
  8
0
100
AcDbLine
 62
7
  6
CONTINUOUS
 10
102.3911654011
 20
53.7236858147
 11
101.4368119101
 21
53.7737013619
  0
LINE
  5
33D
100
AcDbEntity
  8
0
100
AcDbLine
 62
7
  6
CONTINUOUS
 10
69.5766974289
 20
54.7434139694
 11
77.8713727006
 21
46.4523031865
  0
LINE
  5
33E
100
AcDbEntity
  8
0
100
AcDbLine
 62
7
  6
CONTINUOUS
 10
76.1754647567
 20
65.7087580867
 11
76.1754647567
 21
64.3347624558
  0
LINE
  5
33F
100
AcDbEntity
  8
0
100
AcDbLine
 62
7
  6
CONTINUOUS
 10
77.1754647567
 20
63.7087580867
 11
77.1754647567
 21
81.7087580867
  0
LINE
  5
340
100
AcDbEntity
  8
0
100
AcDbLine
 62
7
  6
CONTINUOUS
 10
77.6754646143
 20
57.7087863243
 11
77.6754646143
 21
57.6221341774
  0
LINE
  5
341
100
AcDbEntity
  8
0
100
AcDbLine
 62
7
  6
CONTINUOUS
 10
77.6754646143
 20
25.7954384712
 11
77.6754646143
 21
25.7087863243
  0
LINE
  5
342
100
AcDbEntity
  8
A_RUNDUNGEN
100
AcDbLine
 62
7
  6
CONTINUOUS
 10
78.7269787634
 20
26.5765087601
 11
78.7269787634
 21
26.5778265241
  0
LINE
  5
343
100
AcDbEntity
  8
A_RUNDUNGEN
100
AcDbLine
 62
7
  6
CONTINUOUS
 10
68.722675226
 20
35.6163458751
 11
67.942760801
 21
33.7789826319
  0
LINE
  5
344
100
AcDbEntity
  8
A_RUNDUNGEN
100
AcDbLine
 62
7
  6
CONTINUOUS
 10
68.8469573839
 20
35.4322414327
 11
68.0359278602
 21
33.5215756105
  0
LINE
  5
345
100
AcDbEntity
  8
0
100
AcDbLine
 62
7
  6
CONTINUOUS
 10
69.0768433445
 20
34.5092206921
 11
72.1333584644
 21
40.7794251411
  0
LINE
  5
346
100
AcDbEntity
  8
0
100
AcDbLine
 62
7
  6
CONTINUOUS
 10
40.8777000205
 20
57.5602122619
 11
29.2318868854
 21
56.541335635
  0
LINE
  5
347
100
AcDbEntity
  8
A_RUNDUNGEN
100
AcDbLine
 62
7
  6
CONTINUOUS
 10
62.1798280244
 20
56.4415466808
 11
56.7798280245
 21
56.3944215947
  0
LINE
  5
348
100
AcDbEntity
  8
0
100
AcDbLine
 62
7
  6
CONTINUOUS
 10
35.271101489
 20
56.2067177819
 11
56.7798280245
 21
56.3944215947
  0
LINE
  5
349
100
AcDbEntity
  8
0
100
AcDbLine
 62
7
  6
CONTINUOUS
 10
40.960492454
 20
57.5640080445
 11
57.2754647567
 21
57.6351959923
  0
LINE
  5
34A
100
AcDbEntity
  8
A_RUNDUNGEN
100
AcDbLine
 62
7
  6
CONTINUOUS
 10
57.2754647567
 20
57.6351959923
 11
62.6754647567
 21
57.6587580867
  0
LINE
  5
34B
100
AcDbEntity
  8
A_RUNDUNGEN
100
AcDbLine
 62
7
  6
CONTINUOUS
 10
71.1097297609
 20
56.3022412981
 11
68.3025468546
 21
56.3022412981
  0
LINE
  5
34C
100
AcDbEntity
  8
A_RUNDUNGEN
100
AcDbLine
 62
7
  6
CONTINUOUS
 10
68.2637225517
 20
56.3410703607
 11
70.9099715508
 21
56.3410703607
  0
LINE
  5
34D
100
AcDbEntity
  8
A_RUNDUNGEN
100
AcDbLine
 62
7
  6
CONTINUOUS
 10
64.1754647567
 20
57.6087580867
 11
62.6754647567
 21
57.6087580867
  0
LINE
  5
34E
100
AcDbEntity
  8
A_RUNDUNGEN
100
AcDbLine
 62
7
  6
CONTINUOUS
 10
67.7754646143
 20
57.6087863243
 11
69.2754646143
 21
57.6087863243
  0
LINE
  5
34F
100
AcDbEntity
  8
0
100
AcDbLine
 62
7
  6
CONTINUOUS
 10
28.1754647567
 20
57.7087580867
 11
64.1754647567
 21
57.7087580867
  0
LINE
  5
350
100
AcDbEntity
  8
0
100
AcDbLine
 62
7
  6
CONTINUOUS
 10
104.1754646143
 20
57.7087863243
 11
67.6754646143
 21
57.7087863243
  0
LINE
  5
351
100
AcDbEntity
  8
0
100
AcDbLine
 62
7
  6
CONTINUOUS
 10
69.2754646143
 20
57.6587863243
 11
96.4705634594
 21
57.5401245675
  0
LINE
  5
352
100
AcDbEntity
  8
0
100
AcDbLine
 62
7
  6
CONTINUOUS
 10
74.377078005
 20
55.6671331363
 11
69.6800601166
 21
56.5801409255
  0
LINE
  5
353
100
AcDbEntity
  8
0
100
AcDbLine
 62
7
  6
CONTINUOUS
 10
67.6754647567
 20
62.0087580867
 11
64.1754647567
 21
63.7087580867
  0
LINE
  5
354
100
AcDbEntity
  8
0
100
AcDbLine
 62
7
  6
CONTINUOUS
 10
95.2970827156
 20
42.9210622697
 11
94.4035740961
 21
43.4317093526
  0
LINE
  5
355
100
AcDbEntity
  8
0
100
AcDbLine
 62
7
  6
CONTINUOUS
 10
103.6022413096
 20
28.432009629
 11
103.548687919
 21
28.4855630196
  0
LINE
  5
356
100
AcDbEntity
  8
0
100
AcDbLine
 62
7
  6
CONTINUOUS
 10
79.0435534124
 20
43.6241279124
 11
79.0460064668
 21
32.2099146137
  0
LINE
  5
357
100
AcDbEntity
  8
A_RUNDUNGEN
100
AcDbLine
 62
7
  6
CONTINUOUS
 10
79.5075062438
 20
29.6232961029
 11
79.5075062438
 21
35.3398589001
  0
LINE
  5
358
100
AcDbEntity
  8
A_RUNDUNGEN
100
AcDbLine
 62
7
  6
CONTINUOUS
 10
79.6938439099
 20
31.6065665308
 11
79.6938439099
 21
35.5401989483
  0
LINE
  5
359
100
AcDbEntity
  8
A_RUNDUNGEN
100
AcDbLine
 62
7
  6
CONTINUOUS
 10
79.6960103882
 20
28.5337483797
 11
79.6960065881
 21
27.2095797283
  0
LINE
  5
35A
100
AcDbEntity
  8
0
100
AcDbLine
 62
7
  6
CONTINUOUS
 10
122.6754646143
 20
61.7087863243
 11
67.6754646143
 21
61.7087863243
  0
LINE
  5
35B
100
AcDbEntity
  8
0
100
AcDbLine
 62
7
  6
CONTINUOUS
 10
73.6754647567
 20
62.0087580867
 11
67.6754647567
 21
62.0087580867
  0
LINE
  5
35C
100
AcDbEntity
  8
0
100
AcDbLine
 62
7
  6
CONTINUOUS
 10
73.4454557616
 20
63.0087580867
 11
67.9054737518
 21
63.0087580867
  0
LINE
  5
35D
100
AcDbEntity
  8
0
100
AcDbLine
 62
7
  6
CONTINUOUS
 10
102.3842242657
 20
56.7159316431
 11
96.5716708031
 21
57.5328327585
  0
LINE
  5
35E
100
AcDbEntity
  8
0
100
AcDbLine
 62
7
  6
CONTINUOUS
 10
67.9054737518
 20
63.0087580867
 11
65.1754647567
 21
64.3347624558
  0
LINE
  5
35F
100
AcDbEntity
  8
0
100
AcDbLine
 62
7
  6
CONTINUOUS
 10
96.8389005299
 20
47.7569599732
 11
97.7324091494
 21
47.2463128904
  0
LINE
  5
360
100
AcDbEntity
  8
0
100
AcDbLine
 62
7
  6
CONTINUOUS
 10
87.0881237443
 20
50.2996106442
 11
82.3263905455
 21
54.778735685
  0
LINE
  5
361
100
AcDbEntity
  8
0
100
AcDbLine
 62
7
  6
CONTINUOUS
 10
83.0754646143
 20
25.8190005657
 11
83.0754646143
 21
27.9639771454
  0
LINE
  5
362
100
AcDbEntity
  8
0
100
AcDbLine
 62
7
  6
CONTINUOUS
 10
94.3868810371
 20
47.2316159243
 11
95.275868693
 21
47.7500935458
  0
LINE
  5
363
100
AcDbEntity
  8
0
100
AcDbLine
 62
7
  6
CONTINUOUS
 10
65.1754647567
 20
65.7087580867
 11
76.1754647567
 21
65.7087580867
  0
LINE
  5
364
100
AcDbEntity
  8
0
100
AcDbLine
 62
7
  6
CONTINUOUS
 10
64.1754647567
 20
66.7087580867
 11
77.1754647567
 21
66.7087580867
  0
LINE
  5
365
100
AcDbEntity
  8
0
100
AcDbLine
 62
7
  6
CONTINUOUS
 10
95.5634799153
 20
54.9734407204
 11
95.1105640544
 21
55.2349318147
  0
LINE
  5
366
100
AcDbEntity
  8
0
100
AcDbLine
 62
7
  6
CONTINUOUS
 10
90.927329162
 20
49.7306842537
 11
91.8422769723
 21
48.8237400483
  0
LINE
  5
367
100
AcDbEntity
  8
0
100
AcDbLine
 62
7
  6
CONTINUOUS
 10
94.2062501569
 20
43.6049819057
 11
93.6674541169
 21
44.5288077539
  0
LINE
  5
368
100
AcDbEntity
  8
A_RUNDUNGEN
100
AcDbLine
 62
7
  6
CONTINUOUS
 10
90.4881483869
 20
33.8527326305
 11
90.4881483869
 21
30.6501349559
  0
LINE
  5
369
100
AcDbEntity
  8
0
100
AcDbLine
 62
7
  6
CONTINUOUS
 10
98.8839662434
 20
48.1798361664
 11
93.9482120775
 21
53.0724142891
  0
LINE
  5
36A
100
AcDbEntity
  8
A_RUNDUNGEN
100
AcDbLine
 62
7
  6
CONTINUOUS
 10
91.2301728567
 20
55.3653639909
 11
91.8468503341
 21
54.7486865134
  0
LINE
  5
36B
100
AcDbEntity
  8
A_RUNDUNGEN
100
AcDbLine
 62
7
  6
CONTINUOUS
 10
91.854079193
 20
54.766133763
 11
91.25528734
 21
55.3649256159
  0
LINE
  5
36C
100
AcDbEntity
  8
A_RUNDUNGEN
100
AcDbLine
 62
7
  6
CONTINUOUS
 10
90.4515000351
 20
47.8002145357
 11
91.8926528644
 21
40.84801499
  0
LINE
  5
36D
100
AcDbEntity
  8
0
100
AcDbLine
 62
7
  6
CONTINUOUS
 10
93.5886687202
 20
44.7665500054
 11
93.5837348461
 21
45.8896671414
  0
LINE
  5
36E
100
AcDbEntity
  8
0
100
AcDbLine
 62
7
  6
CONTINUOUS
 10
94.0818946137
 20
29.3788054994
 11
94.0818946137
 21
29.7996135458
  0
LINE
  5
36F
100
AcDbEntity
  8
0
100
AcDbLine
 62
7
  6
CONTINUOUS
 10
93.6604284302
 20
46.1280924149
 11
94.1910870635
 21
47.0566163971
  0
LINE
  5
370
100
AcDbEntity
  8
0
100
AcDbLine
 62
7
  6
CONTINUOUS
 10
97.7491022083
 20
43.4464063187
 11
96.8601145525
 21
42.9279286971
  0
LINE
  5
371
100
AcDbEntity
  8
A_RUNDUNGEN
100
AcDbLine
 62
7
  6
CONTINUOUS
 10
99.2397407648
 20
54.4557960828
 11
100.4430163465
 21
53.252520501
  0
LINE
  5
372
100
AcDbEntity
  8
A_RUNDUNGEN
100
AcDbLine
 62
7
  6
CONTINUOUS
 10
99.2555417137
 20
54.4933206126
 11
100.479124475
 21
53.2672210599
  0
LINE
  5
373
100
AcDbEntity
  8
0
100
AcDbLine
 62
7
  6
CONTINUOUS
 10
97.9297330886
 20
47.0730403373
 11
98.4685291285
 21
46.1492144891
  0
LINE
  5
374
100
AcDbEntity
  8
0
100
AcDbLine
 62
7
  6
CONTINUOUS
 10
98.5473145253
 20
45.9114722376
 11
98.5522483994
 21
44.7883551015
  0
LINE
  5
375
100
AcDbEntity
  8
A_ACHSEN
100
AcDbLine
 62
7
  6
CONTINUOUS
 10
96.0679916227
 20
45.6888961215
 11
96.0679916227
 21
44.9891261215
  0
LINE
  5
376
100
AcDbEntity
  8
A_ACHSEN
100
AcDbLine
 62
7
  6
CENTER
 10
96.0679916227
 20
44.9824679246
 11
96.0679916227
 21
39.735462387
  0
LINE
  5
377
100
AcDbEntity
  8
A_ACHSEN
100
AcDbLine
 62
7
  6
CENTER
 10
96.0679916227
 20
46.1589893343
 11
96.0679916227
 21
50.942559856
  0
LINE
  5
378
100
AcDbEntity
  8
A_RUNDUNGEN
100
AcDbLine
 62
7
  6
CONTINUOUS
 10
96.5894615618
 20
35.7810649427
 11
96.5894615618
 21
34.5486395689
  0
LINE
  5
379
100
AcDbEntity
  8
A_RUNDUNGEN
100
AcDbLine
 62
7
  6
CONTINUOUS
 10
96.6069102054
 20
35.7666012316
 11
96.6069102054
 21
34.5492488889
  0
LWPOLYLINE
  5
37A
100
AcDbEntity
  8
0
100
AcDbPolyline
 62
7
  6
CONTINUOUS
 90
4
 70
0
 10
94.0818946539
 20
29.3788054994
 10
94.0759447127
 20
29.2493069611
 10
94.0539859151
 20
29.1036306059
 10
94.0201104538
 20
28.9816746605
  0
LINE
  5
37B
100
AcDbEntity
  8
A_RUNDUNGEN
100
AcDbLine
 62
7
  6
CONTINUOUS
 10
96.606909907
 20
35.7667458587
 11
96.6166326296
 21
35.8648636224
  0
LINE
  5
37C
100
AcDbEntity
  8
0
100
AcDbLine
 62
7
  6
CONTINUOUS
 10
98.4755548153
 20
44.5499298281
 11
97.944896182
 21
43.6214058459
  0
LWPOLYLINE
  5
37D
100
AcDbEntity
  8
A_RUNDUNGEN
100
AcDbPolyline
 62
7
  6
CONTINUOUS
 90
4
 70
0
 10
96.8219412917
 20
36.177527087
 10
96.8904643309
 20
36.2173552504
 10
96.9468836118
 20
36.2402177774
 10
96.9720195605
 20
36.2478100315
  0
LINE
  5
37E
100
AcDbEntity
  8
A_RUNDUNGEN
100
AcDbLine
 62
7
  6
CONTINUOUS
 10
87.1498174801
 20
28.4553038099
 11
87.4514952163
 21
28.6294775322
  0
LINE
  5
37F
100
AcDbEntity
  8
A_RUNDUNGEN
100
AcDbLine
 62
7
  6
CONTINUOUS
 10
100.5894615618
 20
38.4126621726
 11
100.5894615618
 21
39.9898541364
  0
LINE
  5
380
100
AcDbEntity
  8
A_RUNDUNGEN
100
AcDbLine
 62
7
  6
CONTINUOUS
 10
100.5894615618
 20
52.4972092471
 11
100.5894615618
 21
52.898970476
  0
LINE
  5
381
100
AcDbEntity
  8
A_RUNDUNGEN
100
AcDbLine
 62
7
  6
CONTINUOUS
 10
100.5970926661
 20
52.4912588143
 11
100.5970926661
 21
51.4707066925
  0
LINE
  5
382
100
AcDbEntity
  8
A_RUNDUNGEN
100
AcDbLine
 62
7
  6
CONTINUOUS
 10
100.5970926661
 20
40.6797065841
 11
100.5970926661
 21
39.9994256634
  0
LINE
  5
383
100
AcDbEntity
  8
A_RUNDUNGEN
100
AcDbLine
 62
7
  6
CONTINUOUS
 10
100.6204318333
 20
50.4265527508
 11
100.6204318333
 21
48.0108493598
  0
LINE
  5
384
100
AcDbEntity
  8
A_RUNDUNGEN
100
AcDbLine
 62
7
  6
CONTINUOUS
 10
100.6252825172
 20
52.9138070158
 11
100.6252825172
 21
50.4265527508
  0
LINE
  5
385
100
AcDbEntity
  8
A_RUNDUNGEN
100
AcDbLine
 62
7
  6
CONTINUOUS
 10
100.6252825172
 20
40.6938915276
 11
100.6252825172
 21
38.3978256329
  0
LINE
  5
386
100
AcDbEntity
  8
A_RUNDUNGEN
100
AcDbLine
 62
7
  6
CONTINUOUS
 10
101.1754646143
 20
53.8300862041
 11
101.1754646143
 21
50.2066013948
  0
LINE
  5
387
100
AcDbEntity
  8
A_RUNDUNGEN
100
AcDbLine
 62
7
  6
CONTINUOUS
 10
101.1754646143
 20
29.977126964
 11
101.1754646143
 21
35.9640376764
  0
LINE
  5
388
100
AcDbEntity
  8
0
100
AcDbLine
 62
7
  6
CONTINUOUS
 10
101.1754646143
 20
35.9640376764
 11
101.1754646143
 21
39.9109712538
  0
LINE
  5
389
100
AcDbEntity
  8
0
100
AcDbLine
 62
7
  6
CONTINUOUS
 10
102.1754646143
 20
28.806614127
 11
102.1754646143
 21
35.3109585217
  0
LINE
  5
38A
100
AcDbEntity
  8
0
100
AcDbLine
 62
7
  6
CONTINUOUS
 10
102.3754646143
 20
44.1887863243
 11
102.3754646143
 21
45.7646359243
  0
LINE
  5
38B
100
AcDbEntity
  8
0
100
AcDbLine
 62
7
  6
CONTINUOUS
 10
102.3754646143
 20
46.1592178466
 11
102.3754646143
 21
46.7519735756
  0
LINE
  5
38C
100
AcDbEntity
  8
0
100
AcDbLine
 62
7
  6
CONTINUOUS
 10
102.3754646143
 20
46.816478074
 11
102.3754646143
 21
49.9606061973
  0
LINE
  5
38D
100
AcDbEntity
  8
A_ACHSEN
100
AcDbLine
 62
7
  6
CONTINUOUS
 10
102.3754646143
 20
49.9606061973
 11
102.3754646143
 21
50.8327661973
  0
LINE
  5
38E
100
AcDbEntity
  8
0
100
AcDbLine
 62
7
  6
CONTINUOUS
 10
102.3754646143
 20
50.8327661973
 11
102.3754646143
 21
51.5818543205
  0
LINE
  5
38F
100
AcDbEntity
  8
0
100
AcDbLine
 62
7
  6
CONTINUOUS
 10
102.3754646143
 20
51.646358819
 11
102.3754646143
 21
52.239114548
  0
LINE
  5
390
100
AcDbEntity
  8
0
100
AcDbLine
 62
7
  6
CONTINUOUS
 10
102.6754646143
 20
41.9934756944
 11
102.6754646143
 21
44.1887863243
  0
LINE
  5
391
100
AcDbEntity
  8
0
100
AcDbLine
 62
7
  6
CONTINUOUS
 10
102.6754646143
 20
45.7646359243
 11
102.6754646143
 21
46.183239559
  0
LINE
  5
392
100
AcDbEntity
  8
0
100
AcDbLine
 62
7
  6
CONTINUOUS
 10
102.6754646143
 20
46.7519735756
 11
102.6754646143
 21
47.5686061973
  0
LINE
  5
393
100
AcDbEntity
  8
0
100
AcDbLine
 62
7
  6
CONTINUOUS
 10
102.6754646143
 20
49.9606061973
 11
102.6754646143
 21
51.646358819
  0
LINE
  5
394
100
AcDbEntity
  8
0
100
AcDbLine
 62
7
  6
CONTINUOUS
 10
102.6754646143
 20
52.2150928356
 11
102.6754646143
 21
53.4240969543
  0
LWPOLYLINE
  5
395
100
AcDbEntity
  8
A_RUNDUNGEN
100
AcDbPolyline
 62
7
  6
CONTINUOUS
 90
3
 70
0
 10
96.6166326296
 20
35.8648636224
 10
96.6467312788
 20
35.9622723975
 10
96.6940748226
 20
36.0487997048
  0
LWPOLYLINE
  5
396
100
AcDbEntity
  8
0
100
AcDbPolyline
 62
7
  6
CONTINUOUS
 90
3
 70
0
 10
94.0201104538
 20
28.9816746605
 10
93.9825290424
 20
28.8944997788
 10
93.966147493
 20
28.8685906024
  0
LWPOLYLINE
  5
397
100
AcDbEntity
  8
A_RUNDUNGEN
100
AcDbPolyline
 62
7
  6
CONTINUOUS
 90
3
 70
0
 10
96.6940748226
 20
36.0487997048
 10
96.7544306523
 20
36.1213324413
 10
96.8219412917
 20
36.177527087
  0
LINE
  5
398
100
AcDbEntity
  8
A_RUNDUNGEN
100
AcDbLine
 62
7
  6
CONTINUOUS
 10
100.4791244749
 20
38.0444115887
 11
99.2159452163
 21
36.7786340925
  0
LINE
  5
399
100
AcDbEntity
  8
A_RUNDUNGEN
100
AcDbLine
 62
7
  6
CONTINUOUS
 10
100.4430163465
 20
38.0591121476
 11
99.1969363585
 21
36.8130321596
  0
LINE
  5
39A
100
AcDbEntity
  8
0
100
AcDbLine
 62
7
  6
CONTINUOUS
 10
77.1754647567
 20
81.7087580867
 11
18.1754647567
 21
81.7087580867
  0
LINE
  5
39B
100
AcDbEntity
  8
A_RUNDUNGEN
100
AcDbLine
 62
7
  6
CONTINUOUS
 10
100.2433303811
 20
49.8300072529
 11
101.6844832104
 21
42.8778077073
  0
LINE
  5
39C
100
AcDbEntity
  8
0
100
AcDbLine
 62
7
  6
CONTINUOUS
 10
103.1754646143
 20
28.7587863243
 11
103.1754646143
 21
35.3588003541
  0
LINE
  5
39D
100
AcDbEntity
  8
A_RUNDUNGEN
100
AcDbLine
 62
7
  6
CONTINUOUS
 10
103.6754646143
 20
35.6067177412
 11
103.6754646143
 21
28.3192053966
  0
LINE
  5
39E
100
AcDbEntity
  8
0
100
AcDbLine
 62
7
  6
CONTINUOUS
 10
103.6754646143
 20
28.1870431087
 11
103.6754646143
 21
28.2552329337
  0
LINE
  5
39F
100
AcDbEntity
  8
0
100
AcDbLine
 62
7
  6
CONTINUOUS
 10
103.6754646143
 20
35.8623397149
 11
103.6754646143
 21
55.23052954
  0
LINE
  5
3A0
100
AcDbEntity
  8
0
100
AcDbLine
 62
7
  6
CONTINUOUS
 10
104.1754646143
 20
25.7087863243
 11
104.1754646143
 21
57.7087863243
  0
LINE
  5
3A1
100
AcDbEntity
  8
0
100
AcDbLine
 62
7
  6
CONTINUOUS
 10
103.6022413096
 20
35.6855630196
 11
103.548687919
 21
35.632009629
  0
LINE
  5
3A2
100
AcDbEntity
  8
0
100
AcDbLine
 62
7
  6
CONTINUOUS
 10
122.6754646143
 20
21.7087863243
 11
122.6754646143
 21
61.7087863243
  0
ARC
  5
3A3
100
AcDbEntity
  8
0
100
AcDbCircle
 62
7
  6
CONTINUOUS
 10
32.9458960962
 20
28.23112823
 40
1.0
100
AcDbArc
 50
251.115572952
 51
269.5
  0
ARC
  5
3A4
100
AcDbEntity
  8
0
100
AcDbCircle
 62
7
  6
CONTINUOUS
 10
32.5239856217
 20
27.9140211412
 40
0.5
100
AcDbArc
 50
250.4633450619
 51
269.7
  0
ARC
  5
3A5
100
AcDbEntity
  8
0
100
AcDbCircle
 62
7
  6
CONTINUOUS
 10
30.2754647567
 20
28.7118833836
 40
0.5
100
AcDbArc
 50
180.0
 51
250.4633450619
  0
ARC
  5
3A6
100
AcDbEntity
  8
0
100
AcDbCircle
 62
7
  6
CONTINUOUS
 10
30.2754647567
 20
28.616166023
 40
0.5
100
AcDbArc
 50
180.0
 51
251.115572952
  0
ARC
  5
3A7
100
AcDbEntity
  8
A_RUNDUNGEN
100
AcDbCircle
 62
7
  6
CONTINUOUS
 10
37.0754647377
 20
27.6950709912
 40
0.5
100
AcDbArc
 50
214.7349652739
 51
269.5000021805
  0
ARC
  5
3A8
100
AcDbEntity
  8
0
100
AcDbCircle
 62
7
  6
CONTINUOUS
 10
29.2754647567
 20
27.3742778875
 40
0.5
100
AcDbArc
 50
180.0
 51
265.0
  0
ARC
  5
3A9
100
AcDbEntity
  8
0
100
AcDbCircle
 62
7
  6
CONTINUOUS
 10
33.8179869185
 20
29.2322159176
 40
0.25
100
AcDbArc
 50
251.115572952
 51
269.5
  0
ARC
  5
3AA
100
AcDbEntity
  8
0
100
AcDbCircle
 62
7
  6
CONTINUOUS
 10
31.0254647567
 20
30.1874620548
 40
0.25
100
AcDbArc
 50
180.0
 51
251.115572952
  0
ARC
  5
3AB
100
AcDbEntity
  8
0
100
AcDbCircle
 62
7
  6
CONTINUOUS
 10
29.3754647567
 20
34.6087580867
 40
0.4
100
AcDbArc
 50
0.0
 51
90.0
  0
ARC
  5
3AC
100
AcDbEntity
  8
0
100
AcDbCircle
 62
7
  6
CONTINUOUS
 10
29.1754647567
 20
34.6087580867
 40
0.4
100
AcDbArc
 50
90.0
 51
180.0
  0
ARC
  5
3AD
100
AcDbEntity
  8
0
100
AcDbCircle
 62
7
  6
CONTINUOUS
 10
29.5254647567
 20
35.7587580867
 40
0.25
100
AcDbArc
 50
0.0
 51
90.0
  0
ARC
  5
3AE
100
AcDbEntity
  8
0
100
AcDbCircle
 62
7
  6
CONTINUOUS
 10
29.5254647567
 20
36.2587580867
 40
0.25
100
AcDbArc
 50
180.0
 51
270.0
  0
ARC
  5
3AF
100
AcDbEntity
  8
0
100
AcDbCircle
 62
7
  6
CONTINUOUS
 10
29.5254647567
 20
36.6042495895
 40
0.25
100
AcDbArc
 50
116.5650511771
 51
180.0
  0
ARC
  5
3B0
100
AcDbEntity
  8
0
100
AcDbCircle
 62
7
  6
CONTINUOUS
 10
29.5254647567
 20
37.1632665839
 40
0.25
100
AcDbArc
 50
296.5650511771
 51
360.0
  0
ARC
  5
3B1
100
AcDbEntity
  8
A_RUNDUNGEN
100
AcDbCircle
 62
7
  6
CONTINUOUS
 10
31.0254647567
 20
35.2501824185
 40
0.2500007123
100
AcDbArc
 50
180.0004900121
 51
268.000017101
  0
ARC
  5
3B2
100
AcDbEntity
  8
A_RUNDUNGEN
100
AcDbCircle
 62
7
  6
CONTINUOUS
 10
37.7754647567
 20
33.763703156
 40
1.0
100
AcDbArc
 50
0.0
 51
88.0
  0
ARC
  5
3B3
100
AcDbEntity
  8
0
100
AcDbCircle
 62
7
  6
CONTINUOUS
 10
40.9648557633
 20
26.8534986096
 40
1.0
100
AcDbArc
 50
265.0
 51
269.75
  0
ARC
  5
3B4
100
AcDbEntity
  8
0
100
AcDbCircle
 62
7
  6
CONTINUOUS
 10
38.2754647567
 20
28.4432875391
 40
0.5
100
AcDbArc
 50
0.0
 51
89.5
  0
ARC
  5
3B5
100
AcDbEntity
  8
A_RUNDUNGEN
100
AcDbCircle
 62
7
  6
CONTINUOUS
 10
45.2254647567
 20
29.1326643667
 40
0.25
100
AcDbArc
 50
180.0
 51
269.5
  0
ARC
  5
3B6
100
AcDbEntity
  8
A_RUNDUNGEN
100
AcDbCircle
 62
7
  6
CONTINUOUS
 10
38.3368935129
 20
41.1582505912
 40
2.0
100
AcDbArc
 50
259.3702478946
 51
349.3702478946
  0
ARC
  5
3B7
100
AcDbEntity
  8
0
100
AcDbCircle
 62
7
  6
CONTINUOUS
 10
34.1886723959
 20
46.161801112
 40
5.0
100
AcDbArc
 50
71.0600183292
 51
87.6804774599
  0
ARC
  5
3B8
100
AcDbEntity
  8
A_RUNDUNGEN
100
AcDbCircle
 62
7
  6
CONTINUOUS
 10
32.4398553381
 20
42.2650210119
 40
2.0
100
AcDbArc
 50
213.3587497075
 51
259.3702478946
  0
ARC
  5
3B9
100
AcDbEntity
  8
A_RUNDUNGEN
100
AcDbCircle
 62
7
  6
CONTINUOUS
 10
33.7495336693
 20
49.2431828522
 40
2.0
100
AcDbArc
 50
79.3702478946
 51
169.3702478946
  0
ARC
  5
3BA
100
AcDbEntity
  8
0
100
AcDbCircle
 62
7
  6
CONTINUOUS
 10
29.3754647567
 20
46.4087580867
 40
0.4
100
AcDbArc
 50
270.0
 51
360.0
  0
ARC
  5
3BB
100
AcDbEntity
  8
0
100
AcDbCircle
 62
7
  6
CONTINUOUS
 10
29.1754647567
 20
46.4087580867
 40
0.4
100
AcDbArc
 50
180.0
 51
270.0
  0
ARC
  5
3BC
100
AcDbEntity
  8
0
100
AcDbCircle
 62
7
  6
CONTINUOUS
 10
29.5254647567
 20
45.2587580867
 40
0.25
100
AcDbArc
 50
270.0
 51
360.0
  0
ARC
  5
3BD
100
AcDbEntity
  8
0
100
AcDbCircle
 62
7
  6
CONTINUOUS
 10
29.5254647567
 20
44.7587580867
 40
0.25
100
AcDbArc
 50
90.0
 51
180.0
  0
ARC
  5
3BE
100
AcDbEntity
  8
0
100
AcDbCircle
 62
7
  6
CONTINUOUS
 10
29.5254647567
 20
44.4132665839
 40
0.25
100
AcDbArc
 50
180.0
 51
243.4349488229
  0
ARC
  5
3BF
100
AcDbEntity
  8
0
100
AcDbCircle
 62
7
  6
CONTINUOUS
 10
29.5254647567
 20
43.8542495895
 40
0.25
100
AcDbArc
 50
0.0
 51
63.4349488229
  0
ARC
  5
3C0
100
AcDbEntity
  8
A_RUNDUNGEN
100
AcDbCircle
 62
7
  6
CONTINUOUS
 10
31.3754647567
 20
50.4628784767
 40
0.5
100
AcDbArc
 50
108.4349488229
 51
180.0
  0
ARC
  5
3C1
100
AcDbEntity
  8
A_RUNDUNGEN
100
AcDbCircle
 62
7
  6
CONTINUOUS
 10
33.3941527599
 20
51.1357744777
 40
0.5
100
AcDbArc
 50
90.5
 51
108.4349488229
  0
ARC
  5
3C2
100
AcDbEntity
  8
0
100
AcDbCircle
 62
7
  6
CONTINUOUS
 10
34.2754647567
 20
53.6393211632
 40
0.5
100
AcDbArc
 50
270.5
 51
360.0
  0
ARC
  5
3C3
100
AcDbEntity
  8
0
100
AcDbCircle
 62
7
  6
CONTINUOUS
 10
30.2754647567
 20
54.4130548834
 40
0.5
100
AcDbArc
 50
90.5
 51
180.0
  0
ARC
  5
3C4
100
AcDbEntity
  8
0
100
AcDbCircle
 62
7
  6
CONTINUOUS
 10
35.2754647567
 20
55.7067368204
 40
0.5
100
AcDbArc
 50
90.5
 51
180.0
  0
ARC
  5
3C5
100
AcDbEntity
  8
0
100
AcDbCircle
 62
7
  6
CONTINUOUS
 10
34.2754647567
 20
55.448000433
 40
0.5
100
AcDbArc
 50
270.5
 51
360.0
  0
ARC
  5
3C6
100
AcDbEntity
  8
0
100
AcDbCircle
 62
7
  6
CONTINUOUS
 10
29.2754647567
 20
56.0432382859
 40
0.5
100
AcDbArc
 50
95.0
 51
180.0
  0
ARC
  5
3C7
100
AcDbEntity
  8
0
100
AcDbCircle
 62
7
  6
CONTINUOUS
 10
30.0254647567
 20
54.4903989801
 40
0.25
100
AcDbArc
 50
90.3
 51
180.0
  0
ARC
  5
3C8
100
AcDbEntity
  8
0
100
AcDbCircle
 62
7
  6
CONTINUOUS
 10
31.0254647567
 20
51.9300541186
 40
0.25
100
AcDbArc
 50
108.884427048
 51
180.0
  0
ARC
  5
3C9
100
AcDbEntity
  8
0
100
AcDbCircle
 62
7
  6
CONTINUOUS
 10
33.8179869185
 20
52.8853002558
 40
0.25
100
AcDbArc
 50
90.5
 51
108.884427048
  0
ARC
  5
3CA
100
AcDbEntity
  8
0
100
AcDbCircle
 62
7
  6
CONTINUOUS
 10
42.3708883768
 20
48.7020766974
 40
6.0
100
AcDbArc
 50
90.0123135653
 51
135.0123135653
  0
ARC
  5
3CB
100
AcDbEntity
  8
0
100
AcDbCircle
 62
7
  6
CONTINUOUS
 10
37.8977547863
 20
44.2396323314
 40
5.0
100
AcDbArc
 50
251.0600183292
 51
267.6804774599
  0
ARC
  5
3CC
100
AcDbEntity
  8
A_ACHSEN
100
AcDbCircle
 62
7
  6
CONTINUOUS
 10
36.0432135911
 20
45.2007167217
 40
4.75
100
AcDbArc
 50
102.5538110554
 51
37.0156732159
  0
ARC
  5
3CD
100
AcDbEntity
  8
0
100
AcDbCircle
 62
7
  6
CONTINUOUS
 10
36.0432135911
 20
45.2007167217
 40
4.0
100
AcDbArc
 50
135.0123135653
 51
20.3879952132
  0
CIRCLE
  5
3CE
100
AcDbEntity
  8
0
100
AcDbCircle
 62
7
  6
CONTINUOUS
 10
36.0432135911
 20
45.2007167217
 40
2.55
  0
CIRCLE
  5
3CF
100
AcDbEntity
  8
A_ACHSEN
100
AcDbCircle
 62
7
  6
CONTINUOUS
 10
36.0432135911
 20
45.2007167217
 40
2.45
  0
CIRCLE
  5
3D0
100
AcDbEntity
  8
A_ACHSEN
100
AcDbCircle
 62
7
  6
CONTINUOUS
 10
36.0432135911
 20
45.2007167217
 40
2.0357864376
  0
ARC
  5
3D1
100
AcDbEntity
  8
A_RUNDUNGEN
100
AcDbCircle
 62
7
  6
CONTINUOUS
 10
39.6465718442
 20
48.1364124314
 40
2.0
100
AcDbArc
 50
349.3702478946
 51
44.2796252208
  0
ARC
  5
3D2
100
AcDbEntity
  8
0
100
AcDbCircle
 62
7
  6
CONTINUOUS
 10
41.6673436079
 20
47.2909706666
 40
2.0
100
AcDbArc
 50
135.0123135653
 51
200.3879952132
  0
ARC
  5
3D3
100
AcDbEntity
  8
0
100
AcDbCircle
 62
7
  6
CONTINUOUS
 10
42.5781026094
 20
48.2021212187
 40
2.0
100
AcDbArc
 50
90.0123135653
 51
135.0123135653
  0
ARC
  5
3D4
100
AcDbEntity
  8
0
100
AcDbCircle
 62
7
  6
CONTINUOUS
 10
40.9648557633
 20
56.5640175638
 40
1.0
100
AcDbArc
 50
90.25
 51
95.0
  0
ARC
  5
3D5
100
AcDbEntity
  8
A_RUNDUNGEN
100
AcDbCircle
 62
7
  6
CONTINUOUS
 10
37.0754647567
 20
55.7224451824
 40
0.5
100
AcDbArc
 50
90.5
 51
145.2650306583
  0
ARC
  5
3D6
100
AcDbEntity
  8
A_RUNDUNGEN
100
AcDbCircle
 62
7
  6
CONTINUOUS
 10
36.8722837795
 20
51.218849342
 40
0.4968190233
100
AcDbArc
 50
180.0025858171
 51
182.8254182636
  0
ARC
  5
3D7
100
AcDbEntity
  8
A_RUNDUNGEN
100
AcDbCircle
 62
7
  6
CONTINUOUS
 10
36.8787184045
 20
51.224180996
 40
0.496708622
100
AcDbArc
 50
180.0023736645
 51
182.701200324
  0
ARC
  5
3D8
100
AcDbEntity
  8
0
100
AcDbCircle
 62
7
  6
CONTINUOUS
 10
58.3754647567
 20
32.1732580867
 40
5.5
100
AcDbArc
 50
163.2484241838
 51
43.5697347037
  0
ARC
  5
3D9
100
AcDbEntity
  8
0
100
AcDbCircle
 62
7
  6
CONTINUOUS
 10
58.3754647567
 20
32.1732580867
 40
5.25
100
AcDbArc
 50
180.2516997864
 51
26.2516997864
  0
CIRCLE
  5
3DA
100
AcDbEntity
  8
0
100
AcDbCircle
 62
7
  6
CONTINUOUS
 10
58.3754647567
 20
32.1732580867
 40
2.75
  0
CIRCLE
  5
3DB
100
AcDbEntity
  8
0
100
AcDbCircle
 62
7
  6
CONTINUOUS
 10
58.3754647567
 20
32.1732580867
 40
2.575
  0
CIRCLE
  5
3DC
100
AcDbEntity
  8
A_RUNDUNGEN
100
AcDbCircle
 62
7
  6
CONTINUOUS
 10
58.3754647567
 20
32.1732580867
 40
2.55
  0
CIRCLE
  5
3DD
100
AcDbEntity
  8
A_RUNDUNGEN
100
AcDbCircle
 62
7
  6
CONTINUOUS
 10
58.3754647567
 20
32.1732580867
 40
2.4734119989
  0
CIRCLE
  5
3DE
100
AcDbEntity
  8
A_RUNDUNGEN
100
AcDbCircle
 62
7
  6
CONTINUOUS
 10
58.3754647567
 20
32.1732580867
 40
2.4272122138
  0
ARC
  5
3DF
100
AcDbEntity
  8
A_RUNDUNGEN
100
AcDbCircle
 62
7
  6
CONTINUOUS
 10
61.7923219426
 20
41.6360978023
 40
2.0
100
AcDbArc
 50
114.2516997864
 51
206.2516997864
  0
ARC
  5
3E0
100
AcDbEntity
  8
A_RUNDUNGEN
100
AcDbCircle
 62
7
  6
CONTINUOUS
 10
59.3154647567
 20
39.4552953545
 40
1.498913922
100
AcDbArc
 50
348.7404182349
 51
360.0
  0
ARC
  5
3E1
100
AcDbEntity
  8
A_RUNDUNGEN
100
AcDbCircle
 62
7
  6
CONTINUOUS
 10
59.3154647567
 20
39.4552953545
 40
1.4799190669
100
AcDbArc
 50
349.8769553147
 51
360.0
  0
ARC
  5
3E2
100
AcDbEntity
  8
A_RUNDUNGEN
100
AcDbCircle
 62
7
  6
CONTINUOUS
 10
63.8754647567
 20
27.0922193814
 40
0.5
100
AcDbArc
 50
270.5
 51
360.0
  0
ARC
  5
3E3
100
AcDbEntity
  8
A_RUNDUNGEN
100
AcDbCircle
 62
7
  6
CONTINUOUS
 10
50.2754647567
 20
28.3385651256
 40
0.5
100
AcDbArc
 50
0.0
 51
89.5
  0
ARC
  5
3E4
100
AcDbEntity
  8
0
100
AcDbCircle
 62
7
  6
CONTINUOUS
 10
50.2754647567
 20
26.5798382578
 40
0.5
100
AcDbArc
 50
0.0
 51
89.5
  0
ARC
  5
3E5
100
AcDbEntity
  8
0
100
AcDbCircle
 62
7
  6
CONTINUOUS
 10
54.7680887009
 20
44.2047409038
 40
6.0
100
AcDbArc
 50
66.0123135653
 51
90.0123135653
  0
ARC
  5
3E6
100
AcDbEntity
  8
A_ACHSEN
100
AcDbCircle
 62
7
  6
CONTINUOUS
 10
66.0419234342
 20
51.2071203156
 40
5.1
100
AcDbArc
 50
34.2935197731
 51
133.8872019069
  0
ARC
  5
3E7
100
AcDbEntity
  8
A_ACHSEN
100
AcDbCircle
 62
7
  6
CONTINUOUS
 10
66.0419234342
 20
51.2071203156
 40
5.1
100
AcDbArc
 50
233.8622236715
 51
258.3859127706
  0
ARC
  5
3E8
100
AcDbEntity
  8
0
100
AcDbCircle
 62
7
  6
CONTINUOUS
 10
66.0419234342
 20
51.2071203156
 40
5.0
100
AcDbArc
 50
45.0123135653
 51
128.2249468864
  0
ARC
  5
3E9
100
AcDbEntity
  8
0
100
AcDbCircle
 62
7
  6
CONTINUOUS
 10
57.0753344534
 20
43.5818702916
 40
4.0
100
AcDbArc
 50
135.2516997864
 51
180.2516997864
  0
CIRCLE
  5
3EA
100
AcDbEntity
  8
0
100
AcDbCircle
 62
7
  6
CONTINUOUS
 10
66.0419234342
 20
51.2071203156
 40
2.75
  0
CIRCLE
  5
3EB
100
AcDbEntity
  8
A_ACHSEN
100
AcDbCircle
 62
7
  6
CONTINUOUS
 10
66.0419234342
 20
51.2071203156
 40
2.55
  0
CIRCLE
  5
3EC
100
AcDbEntity
  8
0
100
AcDbCircle
 62
7
  6
CONTINUOUS
 10
66.0419234342
 20
51.2071203156
 40
2.5
  0
ARC
  5
3ED
100
AcDbEntity
  8
0
100
AcDbCircle
 62
7
  6
CONTINUOUS
 10
61.7106699132
 20
56.7062332383
 40
2.0
100
AcDbArc
 50
270.0123135653
 51
308.2249468864
  0
ARC
  5
3EE
100
AcDbEntity
  8
A_RUNDUNGEN
100
AcDbCircle
 62
7
  6
CONTINUOUS
 10
63.8754647567
 20
55.754296792
 40
0.5
100
AcDbArc
 50
29.7860997276
 51
89.5
  0
ARC
  5
3EF
100
AcDbEntity
  8
0
100
AcDbCircle
 62
7
  6
CONTINUOUS
 10
56.7754647567
 20
56.8944025562
 40
0.5
100
AcDbArc
 50
270.5
 51
360.0
  0
ARC
  5
3F0
100
AcDbEntity
  8
A_RUNDUNGEN
100
AcDbCircle
 62
7
  6
CONTINUOUS
 10
57.7754647567
 20
55.9030668536
 40
0.5
100
AcDbArc
 50
90.4999755044
 51
152.4828278513
  0
ARC
  5
3F1
100
AcDbEntity
  8
A_RUNDUNGEN
100
AcDbCircle
 62
7
  6
CONTINUOUS
 10
62.1754647567
 20
56.9415040931
 40
0.4999932719
100
AcDbArc
 50
270.5000235417
 51
0.0026985488
  0
ARC
  5
3F2
100
AcDbEntity
  8
0
100
AcDbCircle
 62
7
  6
CONTINUOUS
 10
62.9062437415
 20
177.4885982429
 40
140.5815450262
100
AcDbArc
 50
256.8297786734
 51
266.0010895849
  0
ARC
  5
3F3
100
AcDbEntity
  8
0
100
AcDbCircle
 62
7
  6
CONTINUOUS
 10
62.9062437415
 20
177.4885982429
 40
140.575
100
AcDbArc
 50
256.8291544478
 51
257.1421434729
  0
ARC
  5
3F4
100
AcDbEntity
  8
0
100
AcDbCircle
 62
7
  6
CONTINUOUS
 10
62.9062437415
 20
177.4885982429
 40
140.575
100
AcDbArc
 50
258.0342036492
 51
259.2496128961
  0
ARC
  5
3F5
100
AcDbEntity
  8
0
100
AcDbCircle
 62
7
  6
CONTINUOUS
 10
62.9062437415
 20
177.4885982429
 40
140.575
100
AcDbArc
 50
259.4766338235
 51
266.0008909533
  0
ARC
  5
3F6
100
AcDbEntity
  8
A_RUNDUNGEN
100
AcDbCircle
 62
7
  6
CONTINUOUS
 10
62.9062437415
 20
177.4885982429
 40
139.578913922
100
AcDbArc
 50
260.4873315166
 51
265.9695644162
  0
ARC
  5
3F7
100
AcDbEntity
  8
A_RUNDUNGEN
100
AcDbCircle
 62
7
  6
CONTINUOUS
 10
62.9062437415
 20
177.4885982429
 40
139.5599190669
100
AcDbArc
 50
260.4922296685
 51
265.9689292547
  0
ARC
  5
3F8
100
AcDbEntity
  8
A_RUNDUNGEN
100
AcDbCircle
 62
7
  6
CONTINUOUS
 10
62.9062437415
 20
177.4885982429
 40
130.4400809331
100
AcDbArc
 50
260.5532477924
 51
266.5763257085
  0
ARC
  5
3F9
100
AcDbEntity
  8
A_RUNDUNGEN
100
AcDbCircle
 62
7
  6
CONTINUOUS
 10
62.9062437415
 20
177.4885982429
 40
130.421086078
100
AcDbArc
 50
260.5477764634
 51
266.5831615159
  0
ARC
  5
3FA
100
AcDbEntity
  8
A_RUNDUNGEN
100
AcDbCircle
 62
7
  6
CONTINUOUS
 10
62.9062437415
 20
177.4885982429
 40
129.425
100
AcDbArc
 50
260.4732035226
 51
266.981835696
  0
ARC
  5
3FB
100
AcDbEntity
  8
A_RUNDUNGEN
100
AcDbCircle
 62
7
  6
CONTINUOUS
 10
62.9062437415
 20
177.4885982429
 40
129.4184549738
100
AcDbArc
 50
260.4758871022
 51
266.9844204839
  0
ARC
  5
3FC
100
AcDbEntity
  8
A_RUNDUNGEN
100
AcDbCircle
 62
7
  6
CONTINUOUS
 10
65.0084351227
 20
176.6311865077
 40
126.0
100
AcDbArc
 50
284.4612782277
 51
284.4647923571
  0
ARC
  5
3FD
100
AcDbEntity
  8
0
100
AcDbCircle
 62
7
  6
CONTINUOUS
 10
73.7960065881
 20
32.2087863243
 40
5.5
100
AcDbArc
 50
136.694278648
 51
17.015589168
  0
ARC
  5
3FE
100
AcDbEntity
  8
0
100
AcDbCircle
 62
7
  6
CONTINUOUS
 10
73.7960065881
 20
32.2087863243
 40
5.25
100
AcDbArc
 50
154.0123135653
 51
0.0123135653
  0
CIRCLE
  5
3FF
100
AcDbEntity
  8
0
100
AcDbCircle
 62
7
  6
CONTINUOUS
 10
73.7960065881
 20
32.2087863243
 40
2.75
  0
CIRCLE
  5
400
100
AcDbEntity
  8
0
100
AcDbCircle
 62
7
  6
CONTINUOUS
 10
73.7960065881
 20
32.2087863243
 40
2.575
  0
CIRCLE
  5
401
100
AcDbEntity
  8
A_RUNDUNGEN
100
AcDbCircle
 62
7
  6
CONTINUOUS
 10
73.7960065881
 20
32.2087863243
 40
2.55
  0
CIRCLE
  5
402
100
AcDbEntity
  8
A_RUNDUNGEN
100
AcDbCircle
 62
7
  6
CONTINUOUS
 10
73.7960065881
 20
32.2087863243
 40
2.4737638262
  0
CIRCLE
  5
403
100
AcDbEntity
  8
A_ACHSEN
100
AcDbCircle
 62
7
  6
CONTINUOUS
 10
73.7960065881
 20
32.2087863243
 40
2.4267240551
  0
ARC
  5
404
100
AcDbEntity
  8
0
100
AcDbCircle
 62
7
  6
CONTINUOUS
 10
70.3355819906
 20
41.6557810907
 40
2.0
100
AcDbArc
 50
334.0123135653
 51
66.0123135653
  0
ARC
  5
405
100
AcDbEntity
  8
A_RUNDUNGEN
100
AcDbCircle
 62
7
  6
CONTINUOUS
 10
81.2989697758
 20
29.6214053843
 40
1.7914645297
100
AcDbArc
 50
179.9395298031
 51
197.4294874069
  0
ARC
  5
406
100
AcDbEntity
  8
A_RUNDUNGEN
100
AcDbCircle
 62
7
  6
CONTINUOUS
 10
70.4577723663
 20
34.7485003244
 40
1.7499219441
100
AcDbArc
 50
104.5486219981
 51
157.0002798493
  0
ARC
  5
407
100
AcDbEntity
  8
A_RUNDUNGEN
100
AcDbCircle
 62
7
  6
CONTINUOUS
 10
78.0074787938
 20
35.3398498457
 40
1.5000167495
100
AcDbArc
 50
0.0003458444
 51
46.1139127539
  0
ARC
  5
408
100
AcDbEntity
  8
A_RUNDUNGEN
100
AcDbCircle
 62
7
  6
CONTINUOUS
 10
77.7952296181
 20
26.7095552831
 40
0.7999755548
100
AcDbArc
 50
269.9993683949
 51
359.9983206843
  0
ARC
  5
409
100
AcDbEntity
  8
A_RUNDUNGEN
100
AcDbCircle
 62
7
  6
CONTINUOUS
 10
79.0947739322
 20
27.5727391343
 40
0.503688083
100
AcDbArc
 50
284.0042448475
 51
285.8669356908
  0
ARC
  5
40A
100
AcDbEntity
  8
A_RUNDUNGEN
100
AcDbCircle
 62
7
  6
CONTINUOUS
 10
79.2271164111
 20
26.5770322271
 40
0.5008045153
100
AcDbArc
 50
97.5303883622
 51
106.3159571327
  0
ARC
  5
40B
100
AcDbEntity
  8
A_RUNDUNGEN
100
AcDbCircle
 62
7
  6
CONTINUOUS
 10
79.0952422407
 20
26.7095446583
 40
0.5000385244
100
AcDbArc
 50
90.0038747815
 51
180.001469211
  0
ARC
  5
40C
100
AcDbEntity
  8
A_RUNDUNGEN
100
AcDbCircle
 62
7
  6
CONTINUOUS
 10
68.2637225517
 20
26.2765022879
 40
0.5
100
AcDbArc
 50
180.0478387799
 51
269.9521792871
  0
ARC
  5
40D
100
AcDbEntity
  8
A_RUNDUNGEN
100
AcDbCircle
 62
7
  6
CONTINUOUS
 10
79.2269586869
 20
26.5778365772
 40
0.4999893679
100
AcDbArc
 50
106.3245055368
 51
180.0025701851
  0
ARC
  5
40E
100
AcDbEntity
  8
A_RUNDUNGEN
100
AcDbCircle
 62
7
  6
CONTINUOUS
 10
79.0957050249
 20
27.5688838697
 40
0.4997220876
100
AcDbArc
 50
280.0115245096
 51
284.0076307911
  0
ARC
  5
40F
100
AcDbEntity
  8
A_RUNDUNGEN
100
AcDbCircle
 62
7
  6
CONTINUOUS
 10
79.0969204478
 20
27.5621357529
 40
0.4928654295
100
AcDbArc
 50
277.527283209
 51
280.0087600081
  0
ARC
  5
410
100
AcDbEntity
  8
0
100
AcDbCircle
 62
7
  6
CONTINUOUS
 10
83.3754646143
 20
27.9639771454
 40
0.3
100
AcDbArc
 50
91.0
 51
180.0
  0
ARC
  5
411
100
AcDbEntity
  8
0
100
AcDbCircle
 62
7
  6
CONTINUOUS
 10
77.347904646
 20
44.2567637883
 40
6.0
100
AcDbArc
 50
90.2516997864
 51
114.2516997864
  0
ARC
  5
412
100
AcDbEntity
  8
0
100
AcDbCircle
 62
7
  6
CONTINUOUS
 10
75.0435535048
 20
43.6232682634
 40
4.0
100
AcDbArc
 50
0.0123135653
 51
45.0123135653
  0
ARC
  5
413
100
AcDbEntity
  8
0
100
AcDbCircle
 62
7
  6
CONTINUOUS
 10
70.3477916877
 20
56.72613278
 40
2.0
100
AcDbArc
 50
246.716271171
 51
270.2516997864
  0
ARC
  5
414
100
AcDbEntity
  8
A_RUNDUNGEN
100
AcDbCircle
 62
7
  6
CONTINUOUS
 10
71.1959643601
 20
55.8022503063
 40
0.500013609
100
AcDbArc
 50
4.3356815619
 51
62.8954223092
  0
ARC
  5
415
100
AcDbEntity
  8
A_RUNDUNGEN
100
AcDbCircle
 62
7
  6
CONTINUOUS
 10
68.2637225517
 20
55.8410703607
 40
0.5
100
AcDbArc
 50
90.0478387799
 51
162.0894845319
  0
ARC
  5
416
100
AcDbEntity
  8
0
100
AcDbCircle
 62
7
  6
CONTINUOUS
 10
74.4724825027
 20
56.1579467281
 40
0.5
100
AcDbArc
 50
259.0
 51
269.0
  0
ARC
  5
417
100
AcDbEntity
  8
0
100
AcDbCircle
 62
7
  6
CONTINUOUS
 10
69.7754646143
 20
57.0709545172
 40
0.5
100
AcDbArc
 50
180.0
 51
259.0
  0
ARC
  5
418
100
AcDbEntity
  8
A_RUNDUNGEN
100
AcDbCircle
 62
7
  6
CONTINUOUS
 10
71.1961174068
 20
55.8411041147
 40
0.4998891824
100
AcDbArc
 50
359.9961312174
 51
51.4343810008
  0
ARC
  5
419
100
AcDbEntity
  8
A_RUNDUNGEN
100
AcDbCircle
 62
7
  6
CONTINUOUS
 10
71.2023451884
 20
55.8021633027
 40
0.4936604591
100
AcDbArc
 50
0.0090523931
 51
4.4017381529
  0
ARC
  5
41A
100
AcDbEntity
  8
A_RUNDUNGEN
100
AcDbCircle
 62
7
  6
CONTINUOUS
 10
87.9514952163
 20
27.7634521284
 40
1.0
100
AcDbArc
 50
91.0
 51
120.0
  0
ARC
  5
41B
100
AcDbEntity
  8
0
100
AcDbCircle
 62
7
  6
CONTINUOUS
 10
86.6498174801
 20
29.3213292137
 40
1.0
100
AcDbArc
 50
271.0
 51
292.5063827221
  0
ARC
  5
41C
100
AcDbEntity
  8
A_RUNDUNGEN
100
AcDbCircle
 62
7
  6
CONTINUOUS
 10
91.6223067657
 20
28.6963198966
 40
0.5038056502
100
AcDbArc
 50
145.8893729462
 51
165.8664241182
  0
ARC
  5
41D
100
AcDbEntity
  8
A_RUNDUNGEN
100
AcDbCircle
 62
7
  6
CONTINUOUS
 10
91.6193161523
 20
28.6945572889
 40
0.5033304709
100
AcDbArc
 50
90.0618432734
 51
108.7214917765
  0
ARC
  5
41E
100
AcDbEntity
  8
0
100
AcDbCircle
 62
7
  6
CONTINUOUS
 10
90.9881483869
 20
30.6501349559
 40
0.5
100
AcDbArc
 50
180.0
 51
233.4746628252
  0
ARC
  5
41F
100
AcDbEntity
  8
0
100
AcDbCircle
 62
7
  6
CONTINUOUS
 10
90.9881483869
 20
30.6501349559
 40
0.5
100
AcDbArc
 50
241.4548964042
 51
251.2919840417
  0
ARC
  5
420
100
AcDbEntity
  8
A_RUNDUNGEN
100
AcDbCircle
 62
7
  6
CONTINUOUS
 10
90.9881483869
 20
33.8527326305
 40
0.5
100
AcDbArc
 50
92.0
 51
180.0
  0
ARC
  5
421
100
AcDbEntity
  8
A_RUNDUNGEN
100
AcDbCircle
 62
7
  6
CONTINUOUS
 10
90.9881483869
 20
30.6501349559
 40
0.5
100
AcDbArc
 50
180.0
 51
269.0
  0
ARC
  5
422
100
AcDbEntity
  8
A_RUNDUNGEN
100
AcDbCircle
 62
7
  6
CONTINUOUS
 10
91.6187641126
 20
28.6979023388
 40
0.499985524
100
AcDbArc
 50
108.7846133556
 51
145.8118494251
  0
ARC
  5
423
100
AcDbEntity
  8
0
100
AcDbCircle
 62
7
  6
CONTINUOUS
 10
87.1857183697
 20
28.0279575593
 40
0.4
100
AcDbArc
 50
90.5
 51
112.5063827221
  0
ARC
  5
424
100
AcDbEntity
  8
A_RUNDUNGEN
100
AcDbCircle
 62
7
  6
CONTINUOUS
 10
93.8510189336
 20
41.2539735335
 40
2.0
100
AcDbArc
 50
191.7112330501
 51
281.7112330501
  0
ARC
  5
425
100
AcDbEntity
  8
0
100
AcDbCircle
 62
7
  6
CONTINUOUS
 10
96.4672909774
 20
26.6274409417
 40
0.75
100
AcDbArc
 50
270.25
 51
278.0
  0
ARC
  5
426
100
AcDbEntity
  8
0
100
AcDbCircle
 62
7
  6
CONTINUOUS
 10
102.1754646143
 20
28.1870431087
 40
1.5
100
AcDbArc
 50
278.0
 51
360.0
  0
ARC
  5
427
100
AcDbEntity
  8
0
100
AcDbCircle
 62
7
  6
CONTINUOUS
 10
103.4254646143
 20
28.2552329337
 40
0.25
100
AcDbArc
 50
0.0
 51
45.0
  0
ARC
  5
428
100
AcDbEntity
  8
A_RUNDUNGEN
100
AcDbCircle
 62
7
  6
CONTINUOUS
 10
100.1754646143
 20
29.977126964
 40
1.0
100
AcDbArc
 50
271.0
 51
360.0
  0
ARC
  5
429
100
AcDbEntity
  8
0
100
AcDbCircle
 62
7
  6
CONTINUOUS
 10
101.9254646143
 20
28.806614127
 40
0.25
100
AcDbArc
 50
270.5
 51
360.0
  0
ARC
  5
42A
100
AcDbEntity
  8
0
100
AcDbCircle
 62
7
  6
CONTINUOUS
 10
103.3719112237
 20
28.3087863243
 40
0.25
100
AcDbArc
 50
45.0
 51
89.5475776611
  0
ARC
  5
42B
100
AcDbEntity
  8
0
100
AcDbCircle
 62
7
  6
CONTINUOUS
 10
103.3754646143
 20
28.7587863243
 40
0.2
100
AcDbArc
 50
180.0
 51
269.5475776611
  0
ARC
  5
42C
100
AcDbEntity
  8
A_RUNDUNGEN
100
AcDbCircle
 62
7
  6
CONTINUOUS
 10
100.0962391445
 20
39.9953564443
 40
0.5026955146
100
AcDbArc
 50
88.4893500823
 51
100.1072089528
  0
ARC
  5
42D
100
AcDbEntity
  8
A_RUNDUNGEN
100
AcDbCircle
 62
7
  6
CONTINUOUS
 10
100.095038918
 20
39.9957618133
 40
0.5024756254
100
AcDbArc
 50
59.8921962601
 51
74.198511741
  0
ARC
  5
42E
100
AcDbEntity
  8
A_RUNDUNGEN
100
AcDbCircle
 62
7
  6
CONTINUOUS
 10
100.0958854229
 20
39.997216912
 40
0.5008451805
100
AcDbArc
 50
74.246362819
 51
88.4432881427
  0
ARC
  5
42F
100
AcDbEntity
  8
A_RUNDUNGEN
100
AcDbCircle
 62
7
  6
CONTINUOUS
 10
100.1249913988
 20
38.3977847967
 40
0.5002803219
100
AcDbArc
 50
315.0321202504
 51
338.5675565452
  0
ARC
  5
430
100
AcDbEntity
  8
A_RUNDUNGEN
100
AcDbCircle
 62
7
  6
CONTINUOUS
 10
98.8618875616
 20
37.1319323364
 40
0.5001739831
100
AcDbArc
 50
282.1775577517
 51
315.0320900501
  0
ARC
  5
431
100
AcDbEntity
  8
0
100
AcDbCircle
 62
7
  6
CONTINUOUS
 10
101.6754646143
 20
39.9109712538
 40
0.5
100
AcDbArc
 50
147.5092588329
 51
180.0
  0
ARC
  5
432
100
AcDbEntity
  8
A_RUNDUNGEN
100
AcDbCircle
 62
7
  6
CONTINUOUS
 10
100.6754646143
 20
35.1916307117
 40
0.5
100
AcDbArc
 50
272.0
 51
360.0
  0
ARC
  5
433
100
AcDbEntity
  8
A_RUNDUNGEN
100
AcDbCircle
 62
7
  6
CONTINUOUS
 10
98.8433864124
 20
37.1665820397
 40
0.499995082
100
AcDbArc
 50
282.1289234905
 51
315.0000053516
  0
ARC
  5
434
100
AcDbEntity
  8
A_RUNDUNGEN
100
AcDbCircle
 62
7
  6
CONTINUOUS
 10
97.0894554109
 20
35.7810660828
 40
0.4999938491
100
AcDbArc
 50
101.3333795175
 51
180.0001306482
  0
ARC
  5
435
100
AcDbEntity
  8
A_RUNDUNGEN
100
AcDbCircle
 62
7
  6
CONTINUOUS
 10
100.0894723887
 20
39.9898601376
 40
0.4999884394
100
AcDbArc
 50
359.999312299
 51
82.7171288915
  0
ARC
  5
436
100
AcDbEntity
  8
A_RUNDUNGEN
100
AcDbCircle
 62
7
  6
CONTINUOUS
 10
100.0901831187
 20
39.9934148847
 40
0.4963730717
100
AcDbArc
 50
82.7464902628
 51
84.9662296666
  0
ARC
  5
437
100
AcDbEntity
  8
0
100
AcDbCircle
 62
7
  6
CONTINUOUS
 10
101.5754646143
 20
35.9640376764
 40
0.4
100
AcDbArc
 50
180.0
 51
269.5
  0
ARC
  5
438
100
AcDbEntity
  8
0
100
AcDbCircle
 62
7
  6
CONTINUOUS
 10
102.2263092346
 20
41.3848353845
 40
0.3
100
AcDbArc
 50
93.0
 51
156.949639287
  0
ARC
  5
439
100
AcDbEntity
  8
0
100
AcDbCircle
 62
7
  6
CONTINUOUS
 10
101.9254646143
 20
35.3109585217
 40
0.25
100
AcDbArc
 50
0.0
 51
89.5
  0
ARC
  5
43A
100
AcDbEntity
  8
0
100
AcDbCircle
 62
7
  6
CONTINUOUS
 10
103.4254646143
 20
35.8623397149
 40
0.25
100
AcDbArc
 50
315.0
 51
360.0
  0
ARC
  5
43B
100
AcDbEntity
  8
0
100
AcDbCircle
 62
7
  6
CONTINUOUS
 10
103.3719112237
 20
35.8087863243
 40
0.25
100
AcDbArc
 50
270.452436444
 51
315.0
  0
ARC
  5
43C
100
AcDbEntity
  8
0
100
AcDbCircle
 62
7
  6
CONTINUOUS
 10
103.3754646143
 20
35.3588003541
 40
0.2
100
AcDbArc
 50
90.452436444
 51
180.0
  0
ARC
  5
43D
100
AcDbEntity
  8
0
100
AcDbCircle
 62
7
  6
CONTINUOUS
 10
93.5921312809
 20
45.0587863243
 40
9.0833333333
100
AcDbArc
 50
327.5092588329
 51
336.949639287
  0
ARC
  5
43E
100
AcDbEntity
  8
A_RUNDUNGEN
100
AcDbCircle
 62
7
  6
CONTINUOUS
 10
93.5921312809
 20
45.0587863243
 40
9.0833333333
100
AcDbArc
 50
15.9669379468
 51
32.4907411671
  0
ARC
  5
43F
100
AcDbEntity
  8
A_RUNDUNGEN
100
AcDbCircle
 62
7
  6
CONTINUOUS
 10
93.5921312809
 20
45.0587863243
 40
9.0833333333
100
AcDbArc
 50
4.4732868708
 51
6.9333275998
  0
ARC
  5
440
100
AcDbEntity
  8
A_RUNDUNGEN
100
AcDbCircle
 62
7
  6
CONTINUOUS
 10
93.5921312809
 20
45.0587863243
 40
9.0833333333
100
AcDbArc
 50
336.9415297867
 51
354.5331394011
  0
ARC
  5
441
100
AcDbEntity
  8
0
100
AcDbCircle
 62
7
  6
CONTINUOUS
 10
89.7242501465
 20
48.8111767218
 40
6.0
100
AcDbArc
 50
45.2516997864
 51
90.2516997864
  0
ARC
  5
442
100
AcDbEntity
  8
A_RUNDUNGEN
100
AcDbCircle
 62
7
  6
CONTINUOUS
 10
92.4098661043
 20
48.2061730792
 40
2.0
100
AcDbArc
 50
134.1306331694
 51
191.7112330501
  0
ARC
  5
443
100
AcDbEntity
  8
0
100
AcDbCircle
 62
7
  6
CONTINUOUS
 10
89.5193418516
 20
48.3102717312
 40
2.0
100
AcDbArc
 50
45.2516997864
 51
90.2516997864
  0
ARC
  5
444
100
AcDbEntity
  8
0
100
AcDbCircle
 62
7
  6
CONTINUOUS
 10
90.434289662
 20
47.4033275258
 40
2.0
100
AcDbArc
 50
339.8760181386
 51
45.2516997864
  0
ARC
  5
445
100
AcDbEntity
  8
0
100
AcDbCircle
 62
7
  6
CONTINUOUS
 10
94.8605640544
 20
54.8019191128
 40
0.5
100
AcDbArc
 50
60.0
 51
89.0
  0
ARC
  5
446
100
AcDbEntity
  8
0
100
AcDbCircle
 62
7
  6
CONTINUOUS
 10
95.8134799153
 20
55.4064534223
 40
0.5
100
AcDbArc
 50
240.0
 51
269.0
  0
ARC
  5
447
100
AcDbEntity
  8
A_RUNDUNGEN
100
AcDbCircle
 62
7
  6
CONTINUOUS
 10
92.2075926097
 20
55.1196001674
 40
0.4999149864
100
AcDbArc
 50
224.9961900166
 51
270.0038099835
  0
ARC
  5
448
100
AcDbEntity
  8
A_ACHSEN
100
AcDbCircle
 62
7
  6
CONTINUOUS
 10
96.0679916227
 20
45.3390111215
 40
4.75
100
AcDbArc
 50
143.2483401359
 51
77.7102022964
  0
ARC
  5
449
100
AcDbEntity
  8
0
100
AcDbCircle
 62
7
  6
CONTINUOUS
 10
96.0679916227
 20
45.3390111215
 40
4.0
100
AcDbArc
 50
159.8760181386
 51
45.2516997864
  0
CIRCLE
  5
44A
100
AcDbEntity
  8
0
100
AcDbCircle
 62
7
  6
CONTINUOUS
 10
96.0679916227
 20
45.3390111215
 40
2.55
  0
CIRCLE
  5
44B
100
AcDbEntity
  8
A_ACHSEN
100
AcDbCircle
 62
7
  6
CONTINUOUS
 10
96.0679916227
 20
45.3390111215
 40
2.45
  0
CIRCLE
  5
44C
100
AcDbEntity
  8
A_ACHSEN
100
AcDbCircle
 62
7
  6
CONTINUOUS
 10
96.0679916227
 20
45.3390111215
 40
2.0357864376
  0
ARC
  5
44D
100
AcDbEntity
  8
A_RUNDUNGEN
100
AcDbCircle
 62
7
  6
CONTINUOUS
 10
99.7261171412
 20
42.4718491638
 40
2.0
100
AcDbArc
 50
281.7112330501
 51
11.7112330501
  0
ARC
  5
44E
100
AcDbEntity
  8
0
100
AcDbCircle
 62
7
  6
CONTINUOUS
 10
102.3754646143
 20
41.9934756944
 40
0.3
100
AcDbArc
 50
273.0
 51
360.0
  0
ARC
  5
44F
100
AcDbEntity
  8
A_RUNDUNGEN
100
AcDbCircle
 62
7
  6
CONTINUOUS
 10
98.2849643119
 20
49.4240487095
 40
2.0
100
AcDbArc
 50
11.7112330501
 51
101.7112330501
  0
ARC
  5
450
100
AcDbEntity
  8
0
100
AcDbCircle
 62
7
  6
CONTINUOUS
 10
102.1754646143
 20
55.23052954
 40
1.5
100
AcDbArc
 50
0.0
 51
82.0
  0
ARC
  5
451
100
AcDbEntity
  8
0
100
AcDbCircle
 62
7
  6
CONTINUOUS
 10
100.1754646143
 20
53.8300862041
 40
1.0
100
AcDbArc
 50
10.7824259673
 51
89.0
  0
ARC
  5
452
100
AcDbEntity
  8
A_RUNDUNGEN
100
AcDbCircle
 62
7
  6
CONTINUOUS
 10
100.1754646143
 20
53.8300862041
 40
1.0
100
AcDbArc
 50
0.0
 51
10.7824259673
  0
ARC
  5
453
100
AcDbEntity
  8
0
100
AcDbCircle
 62
7
  6
CONTINUOUS
 10
96.4672909774
 20
56.7901317069
 40
0.75
100
AcDbArc
 50
82.0
 51
89.75
  0
ARC
  5
454
100
AcDbEntity
  8
A_RUNDUNGEN
100
AcDbCircle
 62
7
  6
CONTINUOUS
 10
100.1223049517
 20
52.9134283402
 40
0.5029753281
100
AcDbArc
 50
0.0431363367
 51
16.5455597862
  0
ARC
  5
455
100
AcDbEntity
  8
A_RUNDUNGEN
100
AcDbCircle
 62
7
  6
CONTINUOUS
 10
100.095085968
 20
52.4943829897
 40
0.5024295518
100
AcDbArc
 50
284.1485934472
 51
300.1046482064
  0
ARC
  5
456
100
AcDbEntity
  8
A_RUNDUNGEN
100
AcDbCircle
 62
7
  6
CONTINUOUS
 10
100.0959208322
 20
52.4934650468
 40
0.5012003867
100
AcDbArc
 50
300.0747178387
 51
359.7477771432
  0
ARC
  5
457
100
AcDbEntity
  8
A_RUNDUNGEN
100
AcDbCircle
 62
7
  6
CONTINUOUS
 10
96.6063486496
 20
54.1403709304
 40
0.5007037188
100
AcDbArc
 50
94.8269804181
 51
104.4565354871
  0
ARC
  5
458
100
AcDbEntity
  8
A_RUNDUNGEN
100
AcDbCircle
 62
7
  6
CONTINUOUS
 10
100.1250030979
 20
52.9138537293
 40
0.5002678912
100
AcDbArc
 50
16.5868589876
 51
44.9685024955
  0
ARC
  5
459
100
AcDbEntity
  8
A_RUNDUNGEN
100
AcDbCircle
 62
7
  6
CONTINUOUS
 10
96.6062175658
 20
54.1409280315
 40
0.5001375702
100
AcDbArc
 50
89.9971158805
 51
94.8173871076
  0
ARC
  5
45A
100
AcDbEntity
  8
A_RUNDUNGEN
100
AcDbCircle
 62
7
  6
CONTINUOUS
 10
101.6754646143
 20
50.2066013948
 40
0.5
100
AcDbArc
 50
180.0
 51
212.490741167
  0
ARC
  5
45B
100
AcDbEntity
  8
A_RUNDUNGEN
100
AcDbCircle
 62
7
  6
CONTINUOUS
 10
100.0894675953
 20
52.4972082538
 40
0.4999939665
100
AcDbArc
 50
284.1071761648
 51
0.0001138293
  0
ARC
  5
45C
100
AcDbEntity
  8
A_RUNDUNGEN
100
AcDbCircle
 62
7
  6
CONTINUOUS
 10
98.9015261872
 20
54.1402376692
 40
0.4999652955
100
AcDbArc
 50
44.9722366658
 51
89.9554520652
  0
ARC
  5
45D
100
AcDbEntity
  8
0
100
AcDbCircle
 62
7
  6
CONTINUOUS
 10
101.452512697
 20
54.0732902223
 40
0.3
100
AcDbArc
 50
190.7824259673
 51
267.0
  0
ARC
  5
45E
100
AcDbEntity
  8
0
100
AcDbCircle
 62
7
  6
CONTINUOUS
 10
102.3754646143
 20
53.4240969543
 40
0.3
100
AcDbArc
 50
0.0
 51
87.0
  0
ARC
  5
45F
100
AcDbEntity
  8
A_RUNDUNGEN
100
AcDbCircle
 62
7
  6
CONTINUOUS
 10
72.1605318322
 20
239.3071971516
 40
183.4875153989
100
AcDbArc
 50
269.8549472735
 51
270.0110773412
  0
ARC
  5
460
100
AcDbEntity
  8
A_RUNDUNGEN
100
AcDbCircle
 62
7
  6
CONTINUOUS
 10
68.484437068
 20
177.4573255466
 40
144.0759569265
100
AcDbArc
 50
281.9677571582
 51
282.2147028839
  0
ARC
  5
461
100
AcDbEntity
  8
A_RUNDUNGEN
100
AcDbCircle
 62
7
  6
CONTINUOUS
 10
68.6936566113
 20
177.4568768737
 40
144.0322840364
100
AcDbArc
 50
281.3261238209
 51
281.8850500441
  0
ARC
  5
462
100
AcDbEntity
  8
A_RUNDUNGEN
100
AcDbCircle
 62
7
  6
CONTINUOUS
 10
68.6936566113
 20
177.4568768737
 40
143.9934549738
100
AcDbArc
 50
281.3335101657
 51
282.1289288421
  0
ARC
  5
463
100
AcDbEntity
  8
A_RUNDUNGEN
100
AcDbCircle
 62
7
  6
CONTINUOUS
 10
68.6609923506
 20
177.5518646258
 40
140.6065450262
100
AcDbArc
 50
274.2359057614
 51
282.8693524485
  0
ARC
  5
464
100
AcDbEntity
  8
A_RUNDUNGEN
100
AcDbCircle
 62
7
  6
CONTINUOUS
 10
68.6609923506
 20
177.5518646258
 40
140.6
100
AcDbArc
 50
274.2378110379
 51
280.4877996179
  0
ARC
  5
465
100
AcDbEntity
  8
A_RUNDUNGEN
100
AcDbCircle
 62
7
  6
CONTINUOUS
 10
68.6609923506
 20
177.5518646258
 40
140.6
100
AcDbArc
 50
281.1896897402
 51
282.2311404502
  0
ARC
  5
466
100
AcDbEntity
  8
A_RUNDUNGEN
100
AcDbCircle
 62
7
  6
CONTINUOUS
 10
68.6609923506
 20
177.5518646258
 40
139.598913922
100
AcDbArc
 50
274.2675433602
 51
279.7508809627
  0
ARC
  5
467
100
AcDbEntity
  8
A_RUNDUNGEN
100
AcDbCircle
 62
7
  6
CONTINUOUS
 10
68.6609923506
 20
177.5518646258
 40
139.5799190669
100
AcDbArc
 50
274.2903724612
 51
279.7757260755
  0
ARC
  5
468
100
AcDbEntity
  8
A_RUNDUNGEN
100
AcDbCircle
 62
7
  6
CONTINUOUS
 10
68.6609923506
 20
177.5518646258
 40
130.4600809331
100
AcDbArc
 50
273.6782807997
 51
279.7133303052
  0
ARC
  5
469
100
AcDbEntity
  8
A_RUNDUNGEN
100
AcDbCircle
 62
7
  6
CONTINUOUS
 10
68.6609923506
 20
177.5518646258
 40
130.4600809331
100
AcDbArc
 50
283.7697683958
 51
284.006774805
  0
ARC
  5
46A
100
AcDbEntity
  8
A_RUNDUNGEN
100
AcDbCircle
 62
7
  6
CONTINUOUS
 10
68.6609923506
 20
177.5518646258
 40
130.441086078
100
AcDbArc
 50
283.7490991932
 51
284.0002317909
  0
ARC
  5
46B
100
AcDbEntity
  8
A_RUNDUNGEN
100
AcDbCircle
 62
7
  6
CONTINUOUS
 10
68.6609923506
 20
177.5518646258
 40
130.441086078
100
AcDbArc
 50
273.6118127335
 51
279.6733791774
  0
ARC
  5
46C
100
AcDbEntity
  8
A_RUNDUNGEN
100
AcDbCircle
 62
7
  6
CONTINUOUS
 10
68.6609923506
 20
177.5518646258
 40
129.45
100
AcDbArc
 50
282.9152101924
 51
284.1095576978
  0
ARC
  5
46D
100
AcDbEntity
  8
A_RUNDUNGEN
100
AcDbCircle
 62
7
  6
CONTINUOUS
 10
68.6609923506
 20
177.5518646258
 40
129.45
100
AcDbArc
 50
282.1735911049
 51
282.2752687066
  0
ARC
  5
46E
100
AcDbEntity
  8
A_RUNDUNGEN
100
AcDbCircle
 62
7
  6
CONTINUOUS
 10
68.6609923506
 20
177.5518646258
 40
129.4434549738
100
AcDbArc
 50
273.2249629385
 51
279.7489464329
  0
ARC
  5
46F
100
AcDbEntity
  8
A_RUNDUNGEN
100
AcDbCircle
 62
7
  6
CONTINUOUS
 10
68.6609923506
 20
177.5518646258
 40
129.4434549738
100
AcDbArc
 50
282.1717022661
 51
284.107289994
  0
LINE
  5
470
100
AcDbEntity
  8
A_RUNDUNGEN
100
AcDbLine
 62
7
  6
CONTINUOUS
 10
60.8143786787
 20
39.4552953545
 11
60.8149842393
 21
39.0971769623
  0
SPLINE
  5
471
100
AcDbEntity
  8
A_RUNDUNGEN
100
AcDbSpline
 62
7
  6
CONTINUOUS
 70
0
 71
3
 72
11
 73
7
 74
0
 42
0.0000001
 43
0.0000001
 44
0.0000000001
 40
0.0
 40
0.0
 40
0.0
 40
0.0
 40
0.2432025108
 40
0.490017389
 40
0.7426694203
 40
1.0
 40
1.0
 40
1.0
 40
1.0
 10
78.726971148
 20
26.577814149
 30
0.0
 10
78.7270927687
 20
26.4765687475
 30
0.0
 10
78.687984808
 20
26.2704090767
 30
0.0
 10
78.5159372926
 20
26.0044097185
 30
0.0
 10
78.250226775
 20
25.8204162036
 30
0.0
 10
78.0354204727
 20
25.776501731
 30
0.0
 10
77.9282934677
 20
25.7765070601
 30
0.0
  0
SPLINE
  5
472
100
AcDbEntity
  8
A_RUNDUNGEN
100
AcDbSpline
 62
7
  6
CONTINUOUS
 70
0
 71
3
 72
11
 73
7
 74
0
 42
0.0000001
 43
0.0000001
 44
0.0000000001
 40
0.0
 40
0.0
 40
0.0
 40
0.0
 40
0.0402904805
 40
0.201450125
 40
0.5149657718
 40
1.0
 40
1.0
 40
1.0
 40
1.0
 10
97.0085933102
 20
36.2570066558
 30
0.0
 10
97.0089778555
 20
36.2566948205
 30
0.0
 10
97.0044706063
 20
36.2555904942
 30
0.0
 10
97.0009022097
 20
36.2543210578
 30
0.0
 10
96.9876608049
 20
36.2513506515
 30
0.0
 10
96.9787295037
 20
36.2492820774
 30
0.0
 10
96.972911671
 20
36.2479874589
 30
0.0
  0
SPLINE
  5
473
100
AcDbEntity
  8
A_RUNDUNGEN
100
AcDbSpline
 62
7
  6
CONTINUOUS
 70
0
 71
3
 72
8
 73
4
 74
0
 42
0.0000001
 43
0.0000001
 44
0.0000000001
 40
0.0
 40
0.0
 40
0.0
 40
0.0
 40
1.0
 40
1.0
 40
1.0
 40
1.0
 10
100.6252801373
 20
38.3978256329
 30
0.0
 10
100.6252797808
 20
38.3357953843
 30
0.0
 10
100.6133431421
 20
38.2727211275
 30
0.0
 10
100.5906768647
 20
38.2149804001
 30
0.0
  0
SPLINE
  5
474
100
AcDbEntity
  8
A_RUNDUNGEN
100
AcDbSpline
 62
7
  6
CONTINUOUS
 70
0
 71
3
 72
9
 73
5
 74
0
 42
0.0000001
 43
0.0000001
 44
0.0000000001
 40
0.0
 40
0.0
 40
0.0
 40
0.0
 40
0.5846997709
 40
1.0
 40
1.0
 40
1.0
 40
1.0
 10
80.096007542
 20
27.0978874666
 30
0.0
 10
79.923177159
 20
27.09789275
 30
0.0
 10
79.6275897033
 20
27.097505532
 30
0.0
 10
79.3320006518
 20
27.0965777715
 30
0.0
 10
79.2092471614
 20
27.0955409914
 30
0.0
  0
SPLINE
  5
475
100
AcDbEntity
  8
A_RUNDUNGEN
100
AcDbSpline
 62
7
  6
CONTINUOUS
 70
0
 71
3
 72
9
 73
5
 74
0
 42
0.0000001
 43
0.0000001
 44
0.0000000001
 40
0.0
 40
0.0
 40
0.0
 40
0.0
 40
0.4998514135
 40
1.0
 40
1.0
 40
1.0
 40
1.0
 10
79.6960103882
 20
28.5337483797
 30
0.0
 10
79.696029516
 20
28.6275455675
 30
0.0
 10
79.6722796672
 20
28.8154696391
 30
0.0
 10
79.6179198985
 20
28.9952765666
 30
0.0
 10
79.5897580108
 20
29.0848046912
 30
0.0
  0
SPLINE
  5
476
100
AcDbEntity
  8
A_RUNDUNGEN
100
AcDbSpline
 62
7
  6
CONTINUOUS
 70
0
 71
3
 72
11
 73
7
 74
0
 42
0.0000001
 43
0.0000001
 44
0.0000000001
 40
0.0
 40
0.0
 40
0.0
 40
0.0
 40
0.2304543148
 40
0.4691510522
 40
0.7242231618
 40
1.0
 40
1.0
 40
1.0
 40
1.0
 10
100.5970926661
 20
39.9994256634
 30
0.0
 10
100.5969689344
 20
40.0393743382
 30
0.0
 10
100.5868074093
 20
40.1210045701
 30
0.0
 10
100.5409323338
 20
40.2392195923
 30
0.0
 10
100.4618752526
 20
40.3485300441
 30
0.0
 10
100.3884357611
 20
40.4064386088
 30
0.0
 10
100.3470950459
 20
40.4304449881
 30
0.0
  0
LINE
  5
477
100
AcDbEntity
  8
A_RUNDUNGEN
100
AcDbLine
 62
7
  6
CONTINUOUS
 10
67.8026384869
 20
33.8384610249
 11
67.8036376923
 21
33.0951239932
  0
SPLINE
  5
478
100
AcDbEntity
  8
A_RUNDUNGEN
100
AcDbSpline
 62
7
  6
CONTINUOUS
 70
0
 71
3
 72
8
 73
4
 74
0
 42
0.0000001
 43
0.0000001
 44
0.0000000001
 40
0.0
 40
0.0
 40
0.0
 40
0.0
 40
1.0
 40
1.0
 40
1.0
 40
1.0
 10
100.1337363256
 20
40.4878735225
 30
0.0
 10
100.0819394194
 20
40.4924374001
 30
0.0
 10
100.0287944665
 20
40.4888710849
 30
0.0
 10
99.9781030397
 20
40.477289732
 30
0.0
  0
LINE
  5
479
100
AcDbEntity
  8
A_RUNDUNGEN
100
AcDbLine
 62
7
  6
CONTINUOUS
 10
58.9855059667
 20
41.1409974742
 11
58.9206610938
 21
43.2613264917
  0
ELLIPSE
  5
47A
100
AcDbEntity
  8
A_RUNDUNGEN
100
AcDbEllipse
 62
7
  6
CONTINUOUS
 10
68.3968047517
 20
26.409584488
 30
0.0
 11
-0.3535601218
 21
-0.3535601218
 31
0.0
 40
0.9999809617
 41
-0.7853886442
 42
0.7853886442
  0
ELLIPSE
  5
47B
100
AcDbEntity
  8
A_RUNDUNGEN
100
AcDbEllipse
 62
7
  6
CONTINUOUS
 10
69.6468166509
 20
32.8376380701
 30
0.0
 11
-0.5956397854
 21
1.6456660131
 31
0.0
 40
0.9999178255
 41
0.8220536894
 42
1.2234940964
  0
ELLIPSE
  5
47C
100
AcDbEntity
  8
A_RUNDUNGEN
100
AcDbEllipse
 62
7
  6
CONTINUOUS
 10
67.803642452
 20
34.0910421439
 30
0.0
 11
0.0000043813
 21
0.6398313272
 31
0.0
 40
0.0017048695
 41
-4.7083725047
 42
-4.3065801284
  0
ELLIPSE
  5
47D
100
AcDbEntity
  8
A_RUNDUNGEN
100
AcDbEllipse
 62
7
  6
CONTINUOUS
 10
68.302556374
 20
55.8022365384
 30
0.0
 11
-0.3535601218
 21
0.3535601218
 31
0.0
 40
0.9999809617
 41
-0.7853886442
 42
0.4305805823
  0
ELLIPSE
  5
47E
100
AcDbEntity
  8
A_RUNDUNGEN
100
AcDbEllipse
 62
7
  6
CONTINUOUS
 10
98.8861867967
 20
54.1022365384
 30
0.0
 11
-0.1913438501
 21
-0.4619449181
 31
0.0
 40
0.9999888475
 41
2.7488975149
 42
3.5342877923
  0
ELLIPSE
  5
47F
100
AcDbEntity
  8
A_RUNDUNGEN
100
AcDbEllipse
 62
7
  6
CONTINUOUS
 10
100.0894568021
 20
52.898966533
 30
0.0
 11
-0.4619449181
 21
-0.1913438501
 31
0.0
 40
0.9999888475
 41
2.7488975149
 42
3.5342877923
  0
ELLIPSE
  5
480
100
AcDbEntity
  8
A_RUNDUNGEN
100
AcDbEllipse
 62
7
  6
CONTINUOUS
 10
100.0894568021
 20
38.4126661157
 30
0.0
 11
0.4619449181
 21
-0.1913438501
 31
0.0
 40
0.9999888475
 41
-0.3926951387
 42
0.3926951387
  0
ELLIPSE
  5
481
100
AcDbEntity
  8
A_RUNDUNGEN
100
AcDbEllipse
 62
7
  6
CONTINUOUS
 10
92.2004043021
 20
55.1022460578
 30
0.0
 11
0.1913438501
 21
0.4619449181
 31
0.0
 40
0.9999888475
 41
-3.5342877923
 42
-2.7488975149
  0
ELLIPSE
  5
482
100
AcDbEntity
  8
A_RUNDUNGEN
100
AcDbEllipse
 62
7
  6
CONTINUOUS
 10
91.604345888
 20
28.7153265909
 30
0.0
 11
-0.3187698947
 21
0.3852191236
 31
0.0
 40
0.9999839624
 41
-0.6912795335
 42
0.6702170346
  0
ENDSEC
  0
SECTION
  2
OBJECTS
  0
DICTIONARY
  5
483
100
AcDbDictionary
  3
ACAD_GROUP
350
484
  3
ACAD_MLINESTYLE
350
485
  0
DICTIONARY
  5
484
102
{ACAD_REACTORS
330
483
102
}
100
AcDbDictionary
  0
DICTIONARY
  5
485
102
{ACAD_REACTORS
330
483
102
}
100
AcDbDictionary
  3
STANDARD
350
486
  0
MLINESTYLE
  5
486
102
{ACAD_REACTORS
330
485
102
}
100
AcDbMlineStyle
  2
STANDARD
 70
0
  3

 62
256
 51
90.0
 52
90.0
 71
2
 49
0.5
 62
256
  6
BYLAYER
 49
-0.5
 62
256
  6
BYLAYER
  0
ENDSEC
  0
EOF
