999
DXF file: d:\tmp\workingDir\0000104227\5_400696_0_00000_mkt_q_02_01.dxf
999
Pro/ENGINEER 2016380 by Parametric Technology Corporation
  0
SECTION
  2
HEADER
  9
$ACADVER
  1
AC1014
  9
$DWGCODEPAGE
  3
ANSI_1252
  9
$EXTMAX
 10
145.034
 20
155.0
 30
0.0
  9
$EXTMIN
 10
-0.0
 20
0.0
 30
0.0
  9
$LIMMIN
 10
-0.0
 20
0.0
  9
$LIMMAX
 10
145.034
 20
155.0
  9
$VIEWCTR
 10
72.517
 20
77.5
  9
$VIEWSIZE
 40
155.0
  9
$CLAYER
  8
0
  9
$LTSCALE
 40
10.1037037037
  9
$CELTYPE
  6
BYLAYER
  9
$DIMSCALE
 40
1.0
  9
$DIMASZ
 40
3.5
  9
$DIMEXO
 40
0.0
  9
$DIMDLI
 40
6.9807407407
  9
$DIMEXE
 40
2.0
  9
$DIMCEN
 40
1.6533333333
  9
$DIMLFAC
 40
1.0
  9
$DIMBLK
  1
_ARROW_FILLED
  9
$DIMALT
 70
0
  9
$DIMALTF
 40
25.4
  9
$DIMTXT
 40
3.5
  9
$DIMTOL
 70
1
  9
$DIMLIM
 70
0
  9
$DIMTFAC
 40
1.0
  9
$DIMTP
 40
0.01
  9
$DIMTM
 40
0.01
  9
$DIMGAP
 40
0.625
  9
$AUNITS
 70
0
  9
$PDMODE
 70
0
  9
$PDSIZE
 40
0.04
  9
$HANDSEED
  5
46E
  9
$TILEMODE
 70
1
  9
$MEASUREMENT
 70
1
  0
ENDSEC
  0
SECTION
  2
CLASSES
  0
ENDSEC
  0
SECTION
  2
TABLES
  0
TABLE
  2
VPORT
  5
8
100
AcDbSymbolTable
 70
2
  0
VPORT
  5
1F4
100
AcDbSymbolTableRecord
100
AcDbViewportTableRecord
  2
*ACTIVE
 70
0
 10
0.0
 20
0.0
 11
1.0
 21
1.0
 12
72.517
 22
77.5
 13
0.0
 23
0.0
 14
1.0
 24
1.0
 15
0.0
 25
0.0
 16
0.0
 26
0.0
 36
1.0
 17
0.0
 27
0.0
 37
0.0
 40
155.0
 41
0.9357032258
 42
50.0
 43
0.0
 44
0.0
 50
0.0
 51
0.0
 71
0
 72
100
 73
1
 74
1
 75
0
 76
0
 77
0
 78
0
  0
ENDTAB
  0
TABLE
  2
LTYPE
  5
5
100
AcDbSymbolTable
 70
6
  0
LTYPE
  5
14
100
AcDbSymbolTableRecord
100
AcDbLinetypeTableRecord
  2
BYBLOCK
 70
0
  3

 72
65
 73
0
 40
0.0
  0
LTYPE
  5
15
100
AcDbSymbolTableRecord
100
AcDbLinetypeTableRecord
  2
BYLAYER
 70
0
  3

 72
65
 73
0
 40
0.0
  0
LTYPE
  5
16
100
AcDbSymbolTableRecord
100
AcDbLinetypeTableRecord
  2
CONTINUOUS
 70
64
  3
Solid line
 72
65
 73
0
 40
0.0
  0
LTYPE
  5
1F5
100
AcDbSymbolTableRecord
100
AcDbLinetypeTableRecord
  2
CENTER
 70
64
  3
____ _ ____ _ ____ _ ____ _ ____ _ ____ _ ____
 72
65
 73
4
 40
0.6
 49
0.375
 74
0
 49
-0.075
 74
0
 49
0.075
 74
0
 49
-0.075
 74
0
  0
LTYPE
  5
1F6
100
AcDbSymbolTableRecord
100
AcDbLinetypeTableRecord
  2
HIDDEN
 70
64
  3
- - - - - - - - - - - - - - - - - - - -
 72
65
 73
2
 40
0.2
 49
0.1
 74
0
 49
-0.1
 74
0
  0
LTYPE
  5
1F7
100
AcDbSymbolTableRecord
100
AcDbLinetypeTableRecord
  2
PHANTOM
 70
64
  3
_____ _ _ _____ _ _ _____ _ _ _____
 72
65
 73
6
 40
0.8
 49
0.45
 74
0
 49
-0.05
 74
0
 49
0.1
 74
0
 49
-0.05
 74
0
 49
0.1
 74
0
 49
-0.05
 74
0
  0
LTYPE
  5
1F8
100
AcDbSymbolTableRecord
100
AcDbLinetypeTableRecord
  2
DOT
 70
64
  3
. . . . . . . . . . . . . . . . . . . .
 72
65
 73
2
 40
0.2
 49
0.1
 74
0
 49
-0.1
 74
0
  0
LTYPE
  5
1F9
100
AcDbSymbolTableRecord
100
AcDbLinetypeTableRecord
  2
DASHED
 70
64
  3
- - - - - - - - - - - - - - - - - - - -
 72
65
 73
2
 40
0.2
 49
0.1
 74
0
 49
-0.1
 74
0
  0
ENDTAB
  0
TABLE
  2
LAYER
  5
2
100
AcDbSymbolTable
 70
36
  0
LAYER
  5
10
100
AcDbSymbolTableRecord
100
AcDbLayerTableRecord
  2
0
 70
0
 62
7
  6
CONTINUOUS
  0
LAYER
  5
1FA
100
AcDbSymbolTableRecord
100
AcDbLayerTableRecord
  2
DEFAULT_1
 70
0
 62
7
  6
CENTER
  0
LAYER
  5
1FB
100
AcDbSymbolTableRecord
100
AcDbLayerTableRecord
  2
DEFAULT_2
 70
0
 62
8
  6
HIDDEN
  0
LAYER
  5
1FC
100
AcDbSymbolTableRecord
100
AcDbLayerTableRecord
  2
DEFAULT_3
 70
0
 62
7
  6
PHANTOM
  0
LAYER
  5
1FD
100
AcDbSymbolTableRecord
100
AcDbLayerTableRecord
  2
A_ACHSEN
 70
0
 62
7
  6
CONTINUOUS
  0
LAYER
  5
1FE
100
AcDbSymbolTableRecord
100
AcDbLayerTableRecord
  2
A_BASISEBENEN
 70
0
 62
7
  6
CONTINUOUS
  0
LAYER
  5
1FF
100
AcDbSymbolTableRecord
100
AcDbLayerTableRecord
  2
A_BEMASSUNGEN
 70
0
 62
7
  6
CONTINUOUS
  0
LAYER
  5
200
100
AcDbSymbolTableRecord
100
AcDbLayerTableRecord
  2
A_BOHRUNGEN
 70
0
 62
7
  6
CONTINUOUS
  0
LAYER
  5
201
100
AcDbSymbolTableRecord
100
AcDbLayerTableRecord
  2
A_EBENEN
 70
0
 62
7
  6
CONTINUOUS
  0
LAYER
  5
202
100
AcDbSymbolTableRecord
100
AcDbLayerTableRecord
  2
A_FASEN
 70
0
 62
7
  6
CONTINUOUS
  0
LAYER
  5
203
100
AcDbSymbolTableRecord
100
AcDbLayerTableRecord
  2
A_FLAECHEN
 70
0
 62
7
  6
CONTINUOUS
  0
LAYER
  5
204
100
AcDbSymbolTableRecord
100
AcDbLayerTableRecord
  2
A_FL_VERBAENDE
 70
0
 62
7
  6
CONTINUOUS
  0
LAYER
  5
205
100
AcDbSymbolTableRecord
100
AcDbLayerTableRecord
  2
A_KURVEN
 70
0
 62
7
  6
CONTINUOUS
  0
LAYER
  5
206
100
AcDbSymbolTableRecord
100
AcDbLayerTableRecord
  2
A_NOTIZEN_SYMB
 70
0
 62
7
  6
CONTINUOUS
  0
LAYER
  5
207
100
AcDbSymbolTableRecord
100
AcDbLayerTableRecord
  2
A_PUNKTE
 70
0
 62
7
  6
CONTINUOUS
  0
LAYER
  5
208
100
AcDbSymbolTableRecord
100
AcDbLayerTableRecord
  2
A_RUNDUNGEN
 70
0
 62
7
  6
CONTINUOUS
  0
LAYER
  5
209
100
AcDbSymbolTableRecord
100
AcDbLayerTableRecord
  2
BASISEBENEN
 70
0
 62
7
  6
CONTINUOUS
  0
LAYER
  5
20A
100
AcDbSymbolTableRecord
100
AcDbLayerTableRecord
  2
XSEC_DATUMS
 70
0
 62
7
  6
CONTINUOUS
  0
ENDTAB
  0
TABLE
  2
STYLE
  5
3
100
AcDbSymbolTable
 70
1
  0
STYLE
  5
11
100
AcDbSymbolTableRecord
100
AcDbTextStyleTableRecord
  2
STANDARD
 70
0
 40
0.0
 41
1.0
 50
0.0
 71
0
 42
0.2
  3
txt
  4

  0
STYLE
  5
20B
100
AcDbSymbolTableRecord
100
AcDbTextStyleTableRecord
  2
TEXTSTYLE_1
 70
0
 40
0.0
 41
0.8
 50
0.0
 71
0
 42
0.2
  3
gdt
  4

  0
STYLE
  5
20C
100
AcDbSymbolTableRecord
100
AcDbTextStyleTableRecord
  2
TEXTSTYLE_2
 70
0
 40
0.0
 41
1.0
 50
0.0
 71
0
 42
0.2
  3
txt
  4

  0
ENDTAB
  0
TABLE
  2
VIEW
  5
6
100
AcDbSymbolTable
 70
0
  0
ENDTAB
  0
TABLE
  2
UCS
  5
7
100
AcDbSymbolTable
 70
0
  0
ENDTAB
  0
TABLE
  2
APPID
  5
9
100
AcDbSymbolTable
 70
1
  0
APPID
  5
20D
100
AcDbSymbolTableRecord
100
AcDbRegAppTableRecord
  2
ACAD
 70
0
  0
ENDTAB
  0
TABLE
  2
BLOCK_RECORD
  5
1
100
AcDbSymbolTable
 70
0
  0
BLOCK_RECORD
  5
1F
100
AcDbSymbolTableRecord
100
AcDbBlockTableRecord
  2
*MODEL_SPACE
  0
BLOCK_RECORD
  5
1B
100
AcDbSymbolTableRecord
100
AcDbBlockTableRecord
  2
*PAPER_SPACE
  0
BLOCK_RECORD
  5
20E
100
AcDbSymbolTableRecord
100
AcDbBlockTableRecord
  2
_ARROW_FILLED
  0
BLOCK_RECORD
  5
20F
100
AcDbSymbolTableRecord
100
AcDbBlockTableRecord
  2
*D0
  0
BLOCK_RECORD
  5
210
100
AcDbSymbolTableRecord
100
AcDbBlockTableRecord
  2
*D1
  0
BLOCK_RECORD
  5
211
100
AcDbSymbolTableRecord
100
AcDbBlockTableRecord
  2
*D2
  0
BLOCK_RECORD
  5
212
100
AcDbSymbolTableRecord
100
AcDbBlockTableRecord
  2
*D3
  0
BLOCK_RECORD
  5
213
100
AcDbSymbolTableRecord
100
AcDbBlockTableRecord
  2
*D4
  0
ENDTAB
  0
TABLE
  2
DIMSTYLE
  5
A
100
AcDbSymbolTable
 70
1
  0
DIMSTYLE
105
214
100
AcDbSymbolTableRecord
100
AcDbDimStyleTableRecord
  2
STANDARD
 70
0
  3

  4

  5
_ARROW_FILLED
  6
_ARROW_FILLED
  7
_ARROW_FILLED
 40
1.0
 41
3.5
 42
0.0
 43
0.38
 44
2.0
 45
0.0
 46
0.0
 47
0.01
 48
0.01
140
3.5
141
0.09
142
0.0
143
25.4
144
1.0
145
0.0
146
1.0
147
0.625
 71
1.0
 72
0.0
 73
0
 74
0
 75
0
 76
0
 77
1
 78
8
170
0
171
1
172
0
173
0
174
0
175
0
176
0
177
0
178
5
270
2
271
2
272
2
273
2
274
2
275
0
280
0
281
0
282
0
283
1
284
8
285
0
286
0
287
3
288
0
340
11
  0
DIMSTYLE
105
215
100
AcDbSymbolTableRecord
100
AcDbDimStyleTableRecord
  2
DIMSTYLE_1
 70
0
  3

  4

  5
_ARROW_FILLED
  6
_ARROW_FILLED
  7
_ARROW_FILLED
 40
1.0
 41
3.5
 42
0.0
 43
0.38
 44
2.0
 45
0.0
 46
0.0
 47
0.1
 48
0.1
140
3.5
141
0.09
142
0.0
143
25.4
144
1.0
145
0.0
146
1.0
147
0.875
 71
0.0
 72
0.0
 73
0
 74
0
 75
0
 76
0
 77
1
 78
8
170
0
171
1
172
0
173
0
174
0
175
0
176
0
177
0
178
5
270
2
271
4
272
-1
273
2
274
2
275
0
280
0
281
0
282
0
283
1
284
8
285
0
286
0
287
3
288
0
340
20C
  0
DIMSTYLE
105
216
100
AcDbSymbolTableRecord
100
AcDbDimStyleTableRecord
  2
DIMSTYLE_2
 70
0
  3

  4

  5
_ARROW_FILLED
  6
_ARROW_FILLED
  7
_ARROW_FILLED
 40
1.0
 41
3.5
 42
0.0
 43
0.38
 44
2.0
 45
0.0
 46
0.0
 47
0.3
 48
0.3
140
3.5
141
0.09
142
0.0
143
25.4
144
1.0
145
0.0
146
1.0
147
0.875
 71
0.0
 72
0.0
 73
0
 74
0
 75
0
 76
0
 77
1
 78
8
170
0
171
1
172
0
173
0
174
0
175
0
176
0
177
0
178
5
270
2
271
4
272
-1
273
2
274
2
275
0
280
0
281
0
282
0
283
1
284
8
285
0
286
0
287
3
288
0
340
20C
  0
ENDTAB
  0
ENDSEC
  0
SECTION
  2
BLOCKS
  0
BLOCK
  5
20
100
AcDbEntity
  8
0
100
AcDbBlockBegin
  2
*MODEL_SPACE
 70
0
 10
0.0
 20
0.0
 30
0.0
  3
*MODEL_SPACE
  1

  0
ENDBLK
  5
21
100
AcDbEntity
  8
0
100
AcDbBlockEnd
  0
BLOCK
  5
1C
100
AcDbEntity
  8
0
100
AcDbBlockBegin
  2
*PAPER_SPACE
 70
0
 10
0.0
 20
0.0
 30
0.0
  3
*PAPER_SPACE
  1

  0
ENDBLK
  5
1D
100
AcDbEntity
  8
0
100
AcDbBlockEnd
  0
BLOCK
  5
217
100
AcDbEntity
  8
0
100
AcDbBlockBegin
  2
_ARROW_FILLED
 70
64
 10
0.0
 20
0.0
  3
_ARROW_FILLED
  1

  0
SOLID
  5
218
100
AcDbEntity
  8
0
  6
BYBLOCK
 62
0
100
AcDbTrace
 10
0.0
 20
0.0
 11
-1.0
 21
0.1428571429
 12
-1.0
 22
-0.1428571429
 13
-1.0
 23
-0.1428571429
  0
ENDBLK
  5
219
100
AcDbEntity
  8
0
  6
BYBLOCK
 62
0
100
AcDbBlockEnd
  0
BLOCK
  5
21A
100
AcDbEntity
  8
A_BEMASSUNGEN
100
AcDbBlockBegin
 62
2
  6
CONTINUOUS
  2
*D0
 70
65
 10
0.0
 20
0.0
  3
*D0
  1

  0
MTEXT
  5
21B
100
AcDbEntity
  8
A_BEMASSUNGEN
100
AcDbMText
 62
5
  6
CONTINUOUS
  7
TEXTSTYLE_2
 71
1
 72
1
 10
80.0478048171
 20
18.6144137155
 30
0.0
 11
1.0
 21
0.0
 31
0.0
  1
3.5
 40
3.5
 41
10.5
  0
LINE
  5
21C
100
AcDbEntity
  8
A_BEMASSUNGEN
100
AcDbLine
 62
2
  6
CONTINUOUS
 10
72.1398807698
 20
21.9814951634
 11
72.1398807698
 21
12.2394137155
  0
LINE
  5
21D
100
AcDbEntity
  8
A_BEMASSUNGEN
100
AcDbLine
 62
2
  6
CONTINUOUS
 10
75.6398806275
 20
22.012849401
 11
75.6398806275
 21
12.2394137155
  0
LINE
  5
21E
100
AcDbEntity
  8
A_BEMASSUNGEN
100
AcDbLine
 62
2
  6
CONTINUOUS
 10
72.1398807698
 20
14.2394137155
 11
64.6398807698
 21
14.2394137155
  0
LINE
  5
21F
100
AcDbEntity
  8
A_BEMASSUNGEN
100
AcDbLine
 62
2
  6
CONTINUOUS
 10
64.6398807698
 20
14.2394137155
 11
73.8898806986
 21
14.2394137155
  0
LINE
  5
220
100
AcDbEntity
  8
A_BEMASSUNGEN
100
AcDbLine
 62
2
  6
CONTINUOUS
 10
75.6398806275
 20
14.2394137155
 11
87.0478048171
 21
14.2394137155
  0
LINE
  5
221
100
AcDbEntity
  8
A_BEMASSUNGEN
100
AcDbLine
 62
2
  6
CONTINUOUS
 10
87.0478048171
 20
14.2394137155
 11
73.8898806986
 21
14.2394137155
  0
INSERT
  5
222
100
AcDbEntity
  8
A_BEMASSUNGEN
100
AcDbBlockReference
 62
2
  6
CONTINUOUS
  2
_ARROW_FILLED
 10
72.1398807698
 20
14.2394137155
 41
3.5
 42
3.5
 43
3.5
  0
INSERT
  5
223
100
AcDbEntity
  8
A_BEMASSUNGEN
100
AcDbBlockReference
 62
2
  6
CONTINUOUS
  2
_ARROW_FILLED
 10
75.6398806275
 20
14.2394137155
 41
3.5
 42
3.5
 43
3.5
 50
180.0
  0
ENDBLK
  5
224
100
AcDbEntity
  8
0
  6
BYBLOCK
 62
0
100
AcDbBlockEnd
  0
BLOCK
  5
225
100
AcDbEntity
  8
A_BEMASSUNGEN
100
AcDbBlockBegin
 62
2
  6
CONTINUOUS
  2
*D1
 70
65
 10
0.0
 20
0.0
  3
*D1
  1

  0
MTEXT
  5
226
100
AcDbEntity
  8
A_BEMASSUNGEN
100
AcDbMText
 62
5
  6
CONTINUOUS
  7
TEXTSTYLE_2
 71
2
 72
1
 10
93.8898806275
 20
10.4650924485
 30
0.0
 11
1.0
 21
0.0
 31
0.0
  1
36.5
 40
3.5
 41
14.625
  0
LINE
  5
227
100
AcDbEntity
  8
A_BEMASSUNGEN
100
AcDbLine
 62
2
  6
CONTINUOUS
 10
75.6398806275
 20
22.012849401
 11
75.6398806275
 21
4.0900924485
  0
LINE
  5
228
100
AcDbEntity
  8
A_BEMASSUNGEN
100
AcDbLine
 62
2
  6
CONTINUOUS
 10
112.1398806275
 20
26.012849401
 11
112.1398806275
 21
4.0900924485
  0
LINE
  5
229
100
AcDbEntity
  8
A_BEMASSUNGEN
100
AcDbLine
 62
2
  6
CONTINUOUS
 10
75.6398806275
 20
6.0900924485
 11
93.8898806275
 21
6.0900924485
  0
LINE
  5
22A
100
AcDbEntity
  8
A_BEMASSUNGEN
100
AcDbLine
 62
2
  6
CONTINUOUS
 10
112.1398806275
 20
6.0900924485
 11
93.8898806275
 21
6.0900924485
  0
INSERT
  5
22B
100
AcDbEntity
  8
A_BEMASSUNGEN
100
AcDbBlockReference
 62
2
  6
CONTINUOUS
  2
_ARROW_FILLED
 10
75.6398806275
 20
6.0900924485
 41
3.5
 42
3.5
 43
3.5
 50
180.0
  0
INSERT
  5
22C
100
AcDbEntity
  8
A_BEMASSUNGEN
100
AcDbBlockReference
 62
2
  6
CONTINUOUS
  2
_ARROW_FILLED
 10
112.1398806275
 20
6.0900924485
 41
3.5
 42
3.5
 43
3.5
  0
ENDBLK
  5
22D
100
AcDbEntity
  8
0
  6
BYBLOCK
 62
0
100
AcDbBlockEnd
  0
BLOCK
  5
22E
100
AcDbEntity
  8
A_BEMASSUNGEN
100
AcDbBlockBegin
 62
2
  6
CONTINUOUS
  2
*D2
 70
65
 10
0.0
 20
0.0
  3
*D2
  1

  0
MTEXT
  5
22F
100
AcDbEntity
  8
A_BEMASSUNGEN
100
AcDbMText
 62
5
  6
CONTINUOUS
  7
TEXTSTYLE_2
 71
3
 72
1
 10
136.2648806275
 20
18.4997294679
 30
0.0
 11
0.0
 21
1.0
 31
0.0
  1
4
 40
3.5
 41
4.125
  0
LINE
  5
230
100
AcDbEntity
  8
A_BEMASSUNGEN
100
AcDbLine
 62
2
  6
CONTINUOUS
 10
130.6398806275
 20
22.012849401
 11
142.6398806275
 21
22.012849401
  0
LINE
  5
231
100
AcDbEntity
  8
A_BEMASSUNGEN
100
AcDbLine
 62
2
  6
CONTINUOUS
 10
112.1398806275
 20
26.012849401
 11
142.6398806275
 21
26.012849401
  0
LINE
  5
232
100
AcDbEntity
  8
A_BEMASSUNGEN
100
AcDbLine
 62
2
  6
CONTINUOUS
 10
140.6398806275
 20
22.012849401
 11
140.6398806275
 21
15.7497294679
  0
LINE
  5
233
100
AcDbEntity
  8
A_BEMASSUNGEN
100
AcDbLine
 62
2
  6
CONTINUOUS
 10
140.6398806275
 20
15.7497294679
 11
140.6398806275
 21
24.012849401
  0
LINE
  5
234
100
AcDbEntity
  8
A_BEMASSUNGEN
100
AcDbLine
 62
2
  6
CONTINUOUS
 10
140.6398806275
 20
26.012849401
 11
140.6398806275
 21
33.512849401
  0
LINE
  5
235
100
AcDbEntity
  8
A_BEMASSUNGEN
100
AcDbLine
 62
2
  6
CONTINUOUS
 10
140.6398806275
 20
33.512849401
 11
140.6398806275
 21
24.012849401
  0
INSERT
  5
236
100
AcDbEntity
  8
A_BEMASSUNGEN
100
AcDbBlockReference
 62
2
  6
CONTINUOUS
  2
_ARROW_FILLED
 10
140.6398806275
 20
22.012849401
 41
3.5
 42
3.5
 43
3.5
 50
90.0
  0
INSERT
  5
237
100
AcDbEntity
  8
A_BEMASSUNGEN
100
AcDbBlockReference
 62
2
  6
CONTINUOUS
  2
_ARROW_FILLED
 10
140.6398806275
 20
26.012849401
 41
3.5
 42
3.5
 43
3.5
 50
270.0
  0
ENDBLK
  5
238
100
AcDbEntity
  8
0
  6
BYBLOCK
 62
0
100
AcDbBlockEnd
  0
BLOCK
  5
239
100
AcDbEntity
  8
A_BEMASSUNGEN
100
AcDbBlockBegin
 62
2
  6
CONTINUOUS
  2
*D3
 70
65
 10
0.0
 20
0.0
  3
*D3
  1

  0
MTEXT
  5
23A
100
AcDbEntity
  8
A_BEMASSUNGEN
100
AcDbMText
 62
5
  6
CONTINUOUS
  7
TEXTSTYLE_2
 71
2
 72
1
 10
136.2648806275
 20
42.012849401
 30
0.0
 11
0.0
 21
1.0
 31
0.0
  1
32
 40
3.5
 41
7.875
  0
LINE
  5
23B
100
AcDbEntity
  8
A_BEMASSUNGEN
100
AcDbLine
 62
2
  6
CONTINUOUS
 10
112.1398806275
 20
58.012849401
 11
142.6398806275
 21
58.012849401
  0
LINE
  5
23C
100
AcDbEntity
  8
A_BEMASSUNGEN
100
AcDbLine
 62
2
  6
CONTINUOUS
 10
112.1398806275
 20
26.012849401
 11
142.6398806275
 21
26.012849401
  0
LINE
  5
23D
100
AcDbEntity
  8
A_BEMASSUNGEN
100
AcDbLine
 62
2
  6
CONTINUOUS
 10
140.6398806275
 20
58.012849401
 11
140.6398806275
 21
42.012849401
  0
LINE
  5
23E
100
AcDbEntity
  8
A_BEMASSUNGEN
100
AcDbLine
 62
2
  6
CONTINUOUS
 10
140.6398806275
 20
26.012849401
 11
140.6398806275
 21
42.012849401
  0
INSERT
  5
23F
100
AcDbEntity
  8
A_BEMASSUNGEN
100
AcDbBlockReference
 62
2
  6
CONTINUOUS
  2
_ARROW_FILLED
 10
140.6398806275
 20
58.012849401
 41
3.5
 42
3.5
 43
3.5
 50
90.0
  0
INSERT
  5
240
100
AcDbEntity
  8
A_BEMASSUNGEN
100
AcDbBlockReference
 62
2
  6
CONTINUOUS
  2
_ARROW_FILLED
 10
140.6398806275
 20
26.012849401
 41
3.5
 42
3.5
 43
3.5
 50
270.0
  0
ENDBLK
  5
241
100
AcDbEntity
  8
0
  6
BYBLOCK
 62
0
100
AcDbBlockEnd
  0
BLOCK
  5
242
100
AcDbEntity
  8
A_BEMASSUNGEN
100
AcDbBlockBegin
 62
2
  6
CONTINUOUS
  2
*D4
 70
65
 10
0.0
 20
0.0
  3
*D4
  1

  0
MTEXT
  5
243
100
AcDbEntity
  8
A_BEMASSUNGEN
100
AcDbMText
 62
5
  6
CONTINUOUS
  7
TEXTSTYLE_2
 71
2
 72
1
 10
54.1398807698
 20
10.4650924485
 30
0.0
 11
1.0
 21
0.0
 31
0.0
  1
36
 40
3.5
 41
7.875
  0
LINE
  5
244
100
AcDbEntity
  8
A_BEMASSUNGEN
100
AcDbLine
 62
2
  6
CONTINUOUS
 10
36.1398807698
 20
25.9814951634
 11
36.1398807698
 21
4.0900924485
  0
LINE
  5
245
100
AcDbEntity
  8
A_BEMASSUNGEN
100
AcDbLine
 62
2
  6
CONTINUOUS
 10
72.1398807698
 20
21.9814951634
 11
72.1398807698
 21
4.0900924485
  0
LINE
  5
246
100
AcDbEntity
  8
A_BEMASSUNGEN
100
AcDbLine
 62
2
  6
CONTINUOUS
 10
36.1398807698
 20
6.0900924485
 11
54.1398807698
 21
6.0900924485
  0
LINE
  5
247
100
AcDbEntity
  8
A_BEMASSUNGEN
100
AcDbLine
 62
2
  6
CONTINUOUS
 10
72.1398807698
 20
6.0900924485
 11
54.1398807698
 21
6.0900924485
  0
INSERT
  5
248
100
AcDbEntity
  8
A_BEMASSUNGEN
100
AcDbBlockReference
 62
2
  6
CONTINUOUS
  2
_ARROW_FILLED
 10
36.1398807698
 20
6.0900924485
 41
3.5
 42
3.5
 43
3.5
 50
180.0
  0
INSERT
  5
249
100
AcDbEntity
  8
A_BEMASSUNGEN
100
AcDbBlockReference
 62
2
  6
CONTINUOUS
  2
_ARROW_FILLED
 10
72.1398807698
 20
6.0900924485
 41
3.5
 42
3.5
 43
3.5
  0
ENDBLK
  5
24A
100
AcDbEntity
  8
0
  6
BYBLOCK
 62
0
100
AcDbBlockEnd
  0
ENDSEC
  0
SECTION
  2
ENTITIES
  0
HATCH
  5
24B
100
AcDbEntity
  8
0
100
AcDbHatch
 62
2
  6
CONTINUOUS
 10
0.0
 20
0.0
 30
0.0
210
0.0
220
0.0
230
1.0
  2
default__1
 70
0
 71
0
 91
1
 92
1
 93
2
 72
2
 10
74.0063394504
 20
51.5111833956
 40
2.5
 50
201.052572684
 51
21.052572684
 73
1
 72
2
 10
74.0063394504
 20
51.5111833956
 40
2.5
 50
21.052572684
 51
201.052572684
 73
1
 97
0
 75
0
 76
0
 52
45.0
 41
8.4
 77
0
 78
1
 53
45.0
 43
0.0
 44
0.0
 45
-5.939696962
 46
5.939696962
 79
0
 98
1
 10
0.0
 20
0.0
  0
DIMENSION
  5
24C
100
AcDbEntity
  8
A_BEMASSUNGEN
100
AcDbDimension
 62
2
  6
CONTINUOUS
  2
*D0
 10
75.6398806275
 20
14.2394137155
 11
83.0478058449
 21
14.2394137155
 70
160
  3
DIMSTYLE_1
100
AcDbAlignedDimension
 13
72.1398807698
 23
21.9814951634
 14
75.6398806275
 24
22.012849401
100
AcDbRotatedDimension
  0
DIMENSION
  5
24D
100
AcDbEntity
  8
A_BEMASSUNGEN
100
AcDbDimension
 62
2
  6
CONTINUOUS
  2
*D1
 10
112.1398806275
 20
6.0900924485
 11
93.3898792318
 21
6.0900924485
 70
160
  3
DIMSTYLE_2
100
AcDbAlignedDimension
 13
75.6398806275
 23
22.012849401
 14
112.1398806275
 24
26.012849401
100
AcDbRotatedDimension
  0
DIMENSION
  5
24E
100
AcDbEntity
  8
A_BEMASSUNGEN
100
AcDbDimension
 62
2
  6
CONTINUOUS
  2
*D2
 10
140.6398806275
 20
26.012849401
 11
140.6398806275
 21
16.6247300615
 70
160
  3
DIMSTYLE_1
100
AcDbAlignedDimension
 13
130.6398806275
 23
22.012849401
 14
112.1398806275
 24
26.012849401
 50
90.0
100
AcDbRotatedDimension
  0
DIMENSION
  5
24F
100
AcDbEntity
  8
A_BEMASSUNGEN
100
AcDbDimension
 62
2
  6
CONTINUOUS
  2
*D3
 10
140.6398806275
 20
26.012849401
 11
140.6398806275
 21
41.5128458352
 70
160
  3
DIMSTYLE_2
100
AcDbAlignedDimension
 13
112.1398806275
 23
58.012849401
 14
112.1398806275
 24
26.012849401
 50
270.0
100
AcDbRotatedDimension
  0
DIMENSION
  5
250
100
AcDbEntity
  8
A_BEMASSUNGEN
100
AcDbDimension
 62
2
  6
CONTINUOUS
  2
*D4
 10
72.1398807698
 20
6.0900924485
 11
53.6398803168
 21
6.0900924485
 70
160
  3
DIMSTYLE_2
100
AcDbAlignedDimension
 13
36.1398807698
 23
25.9814951634
 14
72.1398807698
 24
21.9814951634
100
AcDbRotatedDimension
  0
LINE
  5
251
100
AcDbEntity
  8
0
100
AcDbLine
 62
7
  6
CONTINUOUS
 10
104.5360868163
 20
26.1888029668
 11
110.3486402789
 21
27.0057040822
  0
LINE
  5
252
100
AcDbEntity
  8
0
100
AcDbLine
 62
7
  6
CONTINUOUS
 10
72.1398807698
 20
21.9814951634
 11
17.1398807698
 21
21.9814951634
  0
LINE
  5
253
100
AcDbEntity
  8
0
100
AcDbLine
 62
7
  6
CONTINUOUS
 10
75.6398806275
 20
22.012849401
 11
130.6398806275
 21
22.012849401
  0
LINE
  5
254
100
AcDbEntity
  8
0
100
AcDbLine
 62
7
  6
CONTINUOUS
 10
37.1963028984
 20
27.1489176152
 11
48.8421160336
 21
26.1300409883
  0
LINE
  5
255
100
AcDbEntity
  8
0
100
AcDbLine
 62
7
  6
CONTINUOUS
 10
40.5866518483
 20
27.5576919423
 11
38.0780506393
 21
28.4158164175
  0
LINE
  5
256
100
AcDbEntity
  8
0
100
AcDbLine
 62
7
  6
CONTINUOUS
 10
41.7014878663
 20
29.2684096533
 11
38.9089657046
 21
30.2236557905
  0
LINE
  5
257
100
AcDbEntity
  8
0
100
AcDbLine
 62
7
  6
CONTINUOUS
 10
38.0726758472
 20
28.5134065876
 11
40.3211967122
 21
27.7155443452
  0
LINE
  5
258
100
AcDbEntity
  8
A_RUNDUNGEN
100
AcDbLine
 62
7
  6
CONTINUOUS
 10
87.1647230286
 20
27.39930953
 11
87.177854543
 21
27.3996168779
  0
LINE
  5
259
100
AcDbEntity
  8
0
100
AcDbLine
 62
7
  6
CONTINUOUS
 10
91.3346449055
 20
28.5679945306
 11
94.6316858998
 21
28.6255445952
  0
LINE
  5
25A
100
AcDbEntity
  8
A_RUNDUNGEN
100
AcDbLine
 62
7
  6
CONTINUOUS
 10
95.8984588231
 20
29.0673629002
 11
108.1573330339
 21
29.2813423455
  0
LINE
  5
25B
100
AcDbEntity
  8
A_RUNDUNGEN
100
AcDbLine
 62
7
  6
CONTINUOUS
 10
63.9398807698
 20
26.8273211634
 11
71.8442440375
 21
26.8963014966
  0
LINE
  5
25C
100
AcDbEntity
  8
0
100
AcDbLine
 62
7
  6
CONTINUOUS
 10
109.8920622613
 20
28.8606867229
 11
95.1466437687
 21
28.7320054052
  0
LINE
  5
25D
100
AcDbEntity
  8
A_RUNDUNGEN
100
AcDbLine
 62
7
  6
CONTINUOUS
 10
79.0302253075
 20
26.0706613029
 11
77.2398806275
 21
26.062849401
  0
LINE
  5
25E
100
AcDbEntity
  8
A_RUNDUNGEN
100
AcDbLine
 62
7
  6
CONTINUOUS
 10
86.0703065512
 20
26.1013796472
 11
91.0398806275
 21
26.1230636423
  0
LINE
  5
25F
100
AcDbEntity
  8
0
100
AcDbLine
 62
7
  6
CONTINUOUS
 10
91.0398806275
 20
26.1230636423
 11
104.4349794726
 21
26.1815111579
  0
LINE
  5
260
100
AcDbEntity
  8
0
100
AcDbLine
 62
7
  6
CONTINUOUS
 10
36.1398807698
 20
25.9814951634
 11
72.1398807698
 21
25.9814951634
  0
LINE
  5
261
100
AcDbEntity
  8
0
100
AcDbLine
 62
7
  6
CONTINUOUS
 10
112.1398806275
 20
26.012849401
 11
75.6398806275
 21
26.012849401
  0
LINE
  5
262
100
AcDbEntity
  8
A_RUNDUNGEN
100
AcDbLine
 62
7
  6
CONTINUOUS
 10
85.8927072115
 20
26.0805653648
 11
76.2281385454
 21
26.0805653648
  0
LINE
  5
263
100
AcDbEntity
  8
A_RUNDUNGEN
100
AcDbLine
 62
7
  6
CONTINUOUS
 10
72.1398807698
 20
26.0814951634
 11
70.6398807698
 21
26.0814951634
  0
LINE
  5
264
100
AcDbEntity
  8
A_RUNDUNGEN
100
AcDbLine
 62
7
  6
CONTINUOUS
 10
75.7398806275
 20
26.112849401
 11
76.0657745822
 21
26.112849401
  0
LINE
  5
265
100
AcDbEntity
  8
A_RUNDUNGEN
100
AcDbLine
 62
7
  6
CONTINUOUS
 10
76.361211249
 20
26.2136428052
 11
85.7596368162
 21
26.2136428052
  0
LINE
  5
266
100
AcDbEntity
  8
A_RUNDUNGEN
100
AcDbLine
 62
7
  6
CONTINUOUS
 10
91.0398806275
 20
27.4019457838
 11
88.0604226045
 21
27.4019457838
  0
LINE
  5
267
100
AcDbEntity
  8
A_RUNDUNGEN
100
AcDbLine
 62
7
  6
CONTINUOUS
 10
87.0596244411
 20
27.5136428052
 11
87.6604226047
 21
27.5136428052
  0
LINE
  5
268
100
AcDbEntity
  8
A_RUNDUNGEN
100
AcDbLine
 62
7
  6
CONTINUOUS
 10
102.0326091949
 20
29.5019457838
 11
99.5831888899
 21
29.5019457838
  0
LINE
  5
269
100
AcDbEntity
  8
A_RUNDUNGEN
100
AcDbLine
 62
7
  6
CONTINUOUS
 10
102.0352393488
 20
29.5193944274
 11
99.5687540274
 21
29.5193944274
  0
LINE
  5
26A
100
AcDbEntity
  8
A_RUNDUNGEN
100
AcDbLine
 62
7
  6
CONTINUOUS
 10
70.6398807698
 20
26.0314951634
 11
58.7398807698
 21
26.0834190382
  0
LINE
  5
26B
100
AcDbEntity
  8
0
100
AcDbLine
 62
7
  6
CONTINUOUS
 10
48.924908467
 20
26.1262452057
 11
58.7398807698
 21
26.0834190382
  0
LINE
  5
26C
100
AcDbEntity
  8
0
100
AcDbLine
 62
7
  6
CONTINUOUS
 10
40.4857836528
 20
27.6867650718
 11
46.7398807698
 21
27.6540183966
  0
LINE
  5
26D
100
AcDbEntity
  8
A_RUNDUNGEN
100
AcDbLine
 62
7
  6
CONTINUOUS
 10
46.7398807698
 20
27.6540183966
 11
58.9398807698
 21
27.5901387622
  0
LINE
  5
26E
100
AcDbEntity
  8
A_RUNDUNGEN
100
AcDbLine
 62
7
  6
CONTINUOUS
 10
91.0398806275
 20
27.4849483514
 11
87.6604226047
 21
27.5136428052
  0
LINE
  5
26F
100
AcDbEntity
  8
0
100
AcDbLine
 62
7
  6
CONTINUOUS
 10
58.9398807698
 20
26.8709555024
 11
63.9398807698
 21
26.8273211634
  0
LINE
  5
270
100
AcDbEntity
  8
0
100
AcDbLine
 62
7
  6
CONTINUOUS
 10
40.9015855737
 20
27.5039033836
 11
58.2442440375
 21
27.3525562961
  0
LINE
  5
271
100
AcDbEntity
  8
A_RUNDUNGEN
100
AcDbLine
 62
7
  6
CONTINUOUS
 10
58.2442440375
 20
27.3525562961
 11
58.9398807698
 21
27.3464855663
  0
LINE
  5
272
100
AcDbEntity
  8
0
100
AcDbLine
 62
7
  6
CONTINUOUS
 10
41.7802212977
 20
29.2549625136
 11
46.2442440375
 21
29.2160055773
  0
LINE
  5
273
100
AcDbEntity
  8
A_RUNDUNGEN
100
AcDbLine
 62
7
  6
CONTINUOUS
 10
46.7398807698
 20
29.2116802211
 11
58.9398807698
 21
29.1052124341
  0
LINE
  5
274
100
AcDbEntity
  8
A_RUNDUNGEN
100
AcDbLine
 62
7
  6
CONTINUOUS
 10
46.7398807698
 20
30.0678237349
 11
58.9398807698
 21
29.9613559478
  0
LINE
  5
275
100
AcDbEntity
  8
0
100
AcDbLine
 62
7
  6
CONTINUOUS
 10
17.1398807698
 20
21.9814951634
 11
17.1398807698
 21
36.9814951634
  0
LINE
  5
276
100
AcDbEntity
  8
A_RUNDUNGEN
100
AcDbLine
 62
7
  6
CONTINUOUS
 10
104.9364355772
 20
36.5518731083
 11
104.9412981336
 21
36.5531450592
  0
LINE
  5
277
100
AcDbEntity
  8
0
100
AcDbLine
 62
7
  6
CONTINUOUS
 10
103.9081971879
 20
39.9493356912
 11
106.4096880012
 21
40.4678810145
  0
LINE
  5
278
100
AcDbEntity
  8
0
100
AcDbLine
 62
7
  6
CONTINUOUS
 10
108.6573290032
 20
34.9959983269
 11
98.9351146518
 21
34.6564911206
  0
LINE
  5
279
100
AcDbEntity
  8
A_RUNDUNGEN
100
AcDbLine
 62
7
  6
CONTINUOUS
 10
108.6573303758
 20
34.9959983749
 11
98.9351146518
 21
34.6564911206
  0
LINE
  5
27A
100
AcDbEntity
  8
A_RUNDUNGEN
100
AcDbLine
 62
7
  6
CONTINUOUS
 10
96.7633008321
 20
30.4106867231
 11
89.1582028112
 21
30.4106867231
  0
LINE
  5
27B
100
AcDbEntity
  8
A_ACHSEN
100
AcDbLine
 62
7
  6
CENTER
 10
60.032518018
 20
32.4773211634
 11
72.6472435216
 21
32.4773211634
  0
LINE
  5
27C
100
AcDbEntity
  8
A_ACHSEN
100
AcDbLine
 62
7
  6
CENTER
 10
78.2638693694
 20
32.5128494012
 11
85.2569758401
 21
32.5128494012
  0
LINE
  5
27D
100
AcDbEntity
  8
0
100
AcDbLine
 62
7
  6
CONTINUOUS
 10
37.3398807698
 20
35.2814951634
 11
37.1398807698
 21
35.2814951634
  0
LINE
  5
27E
100
AcDbEntity
  8
A_RUNDUNGEN
100
AcDbLine
 62
7
  6
CONTINUOUS
 10
98.9438381969
 20
30.454274185
 11
101.661752495
 21
30.4068328144
  0
LINE
  5
27F
100
AcDbEntity
  8
0
100
AcDbLine
 62
7
  6
CONTINUOUS
 10
38.9811558956
 20
35.2730696504
 11
45.7747802665
 21
35.0358310597
  0
LINE
  5
280
100
AcDbEntity
  8
A_RUNDUNGEN
100
AcDbLine
 62
7
  6
CONTINUOUS
 10
38.9811558956
 20
35.2730696504
 11
45.7747802665
 21
35.0358310597
  0
LWPOLYLINE
  5
281
100
AcDbEntity
  8
0
100
AcDbPolyline
 62
7
  6
CONTINUOUS
 90
7
 70
0
 10
101.661903966
 20
30.406830136
 10
101.7530180381
 20
30.3965783677
 10
101.8487738212
 20
30.3653340002
 10
101.9317718342
 20
30.3151499787
 10
101.9961778252
 20
30.2489423159
 10
102.0356369381
 20
30.171933961
 10
102.0463106401
 20
30.1036766224
  0
LINE
  5
282
100
AcDbEntity
  8
0
100
AcDbLine
 62
7
  6
CONTINUOUS
 10
41.7284507699
 20
40.2856390394
 11
44.2392831507
 21
39.8143999312
  0
LINE
  5
283
100
AcDbEntity
  8
0
100
AcDbLine
 62
7
  6
CONTINUOUS
 10
45.6598095532
 20
39.5477920922
 11
45.9323860477
 21
39.4966342749
  0
LINE
  5
284
100
AcDbEntity
  8
0
100
AcDbLine
 62
7
  6
CONTINUOUS
 10
37.3780773709
 20
44.4623968629
 11
37.6016841687
 21
44.350593464
  0
LINE
  5
285
100
AcDbEntity
  8
0
100
AcDbLine
 62
7
  6
CONTINUOUS
 10
43.2266250793
 20
43.090072955
 11
42.3352577754
 21
43.6044487184
  0
LINE
  5
286
100
AcDbEntity
  8
0
100
AcDbLine
 62
7
  6
CONTINUOUS
 10
110.3555814143
 20
41.9979499106
 11
110.175024461
 21
41.9884873216
  0
LINE
  5
287
100
AcDbEntity
  8
0
100
AcDbLine
 62
7
  6
CONTINUOUS
 10
17.1398807698
 20
36.9814951634
 11
36.7398807698
 21
36.9814951634
  0
LINE
  5
288
100
AcDbEntity
  8
0
100
AcDbLine
 62
7
  6
CONTINUOUS
 10
109.8920622613
 20
35.8650120791
 11
109.5363900133
 21
35.8681159838
  0
LINE
  5
289
100
AcDbEntity
  8
0
100
AcDbLine
 62
7
  6
CONTINUOUS
 10
44.7886341336
 20
47.9194866343
 11
45.6800014375
 21
47.4051108709
  0
LINE
  5
28A
100
AcDbEntity
  8
0
100
AcDbLine
 62
7
  6
CONTINUOUS
 10
42.1386595025
 20
43.7785441915
 11
41.6037279702
 21
44.7046131015
  0
LINE
  5
28B
100
AcDbEntity
  8
0
100
AcDbLine
 62
7
  6
CONTINUOUS
 10
104.0025183307
 20
51.3048686649
 11
104.156618086
 21
51.3368126988
  0
LINE
  5
28C
100
AcDbEntity
  8
0
100
AcDbLine
 62
7
  6
CONTINUOUS
 10
105.5718594112
 20
51.630184462
 11
105.8434217832
 21
51.686477852
  0
LINE
  5
28D
100
AcDbEntity
  8
0
100
AcDbLine
 62
7
  6
CONTINUOUS
 10
104.5518839383
 20
43.1635185291
 11
103.5347364314
 21
43.1590501816
  0
LINE
  5
28E
100
AcDbEntity
  8
0
100
AcDbLine
 62
7
  6
CONTINUOUS
 10
44.516741628
 20
43.0230753648
 11
43.4995843298
 21
43.0228567651
  0
LINE
  5
28F
100
AcDbEntity
  8
0
100
AcDbLine
 62
7
  6
CONTINUOUS
 10
110.6398806275
 20
44.492849401
 11
110.3398806275
 21
44.492849401
  0
LINE
  5
290
100
AcDbEntity
  8
A_ACHSEN
100
AcDbLine
 62
7
  6
CENTER
 10
38.5521879279
 20
45.5047797947
 11
49.463071285
 21
45.5047797947
  0
LINE
  5
291
100
AcDbEntity
  8
A_ACHSEN
100
AcDbLine
 62
7
  6
CENTER
 10
101.0323076369
 20
45.643074195
 11
107.0325076369
 21
45.643074195
  0
LINE
  5
292
100
AcDbEntity
  8
0
100
AcDbLine
 62
7
  6
CONTINUOUS
 10
110.6398806275
 20
46.068699001
 11
110.3398806275
 21
46.068699001
  0
LINE
  5
293
100
AcDbEntity
  8
0
100
AcDbLine
 62
7
  6
CONTINUOUS
 10
37.3398807698
 20
46.2814951634
 11
37.1398807698
 21
46.2814951634
  0
LINE
  5
294
100
AcDbEntity
  8
0
100
AcDbLine
 62
7
  6
CONTINUOUS
 10
110.6398806275
 20
46.4632292739
 11
110.3398806275
 21
46.4632292739
  0
LINE
  5
295
100
AcDbEntity
  8
0
100
AcDbLine
 62
7
  6
CONTINUOUS
 10
110.6398806275
 20
46.4873026356
 11
110.3398806275
 21
46.4873026356
  0
LINE
  5
296
100
AcDbEntity
  8
0
100
AcDbLine
 62
7
  6
CONTINUOUS
 10
110.6398806275
 20
47.0560366523
 11
110.3398806275
 21
47.0560366523
  0
LINE
  5
297
100
AcDbEntity
  8
0
100
AcDbLine
 62
7
  6
CONTINUOUS
 10
42.0828731516
 20
51.5129253192
 11
42.3554496461
 21
51.4617675019
  0
LINE
  5
298
100
AcDbEntity
  8
0
100
AcDbLine
 62
7
  6
CONTINUOUS
 10
43.7759760486
 20
51.1951596629
 11
43.9982299881
 21
51.1534465047
  0
LINE
  5
299
100
AcDbEntity
  8
0
100
AcDbLine
 62
7
  6
CONTINUOUS
 10
45.8765997104
 20
47.2310153979
 11
46.4115312427
 21
46.3049464878
  0
LINE
  5
29A
100
AcDbEntity
  8
0
100
AcDbLine
 62
7
  6
CONTINUOUS
 10
36.1398807698
 20
25.9814951634
 11
36.1398807698
 21
36.9814951634
  0
LINE
  5
29B
100
AcDbEntity
  8
0
100
AcDbLine
 62
7
  6
CONTINUOUS
 10
36.7398807698
 20
27.6470149642
 11
36.7398807698
 21
34.8814951634
  0
LINE
  5
29C
100
AcDbEntity
  8
A_RUNDUNGEN
100
AcDbLine
 62
7
  6
CONTINUOUS
 10
36.7398807698
 20
34.8814951634
 11
36.7398807698
 21
46.6814951634
  0
LINE
  5
29D
100
AcDbEntity
  8
0
100
AcDbLine
 62
7
  6
CONTINUOUS
 10
36.7398807698
 20
46.6814951634
 11
36.7398807698
 21
56.3159753627
  0
LINE
  5
29E
100
AcDbEntity
  8
0
100
AcDbLine
 62
7
  6
CONTINUOUS
 10
37.2398807698
 20
45.0314951634
 11
37.2398807698
 21
44.6860036606
  0
LINE
  5
29F
100
AcDbEntity
  8
0
100
AcDbLine
 62
7
  6
CONTINUOUS
 10
37.2398807698
 20
36.8769866663
 11
37.2398807698
 21
36.5314951634
  0
LINE
  5
2A0
100
AcDbEntity
  8
A_RUNDUNGEN
100
AcDbLine
 62
7
  6
CONTINUOUS
 10
37.2398807698
 20
36.8769866663
 11
37.2398807698
 21
44.6860036606
  0
LINE
  5
2A1
100
AcDbEntity
  8
0
100
AcDbLine
 62
7
  6
CONTINUOUS
 10
37.7398807698
 20
28.8889030997
 11
37.7398807698
 21
36.0314951634
  0
LINE
  5
2A2
100
AcDbEntity
  8
0
100
AcDbLine
 62
7
  6
CONTINUOUS
 10
37.7398807698
 20
37.4360036606
 11
37.7398807698
 21
44.1269866663
  0
LINE
  5
2A3
100
AcDbEntity
  8
0
100
AcDbLine
 62
7
  6
CONTINUOUS
 10
37.7398807698
 20
45.5314951634
 11
37.7398807698
 21
54.7631360568
  0
LINE
  5
2A4
100
AcDbEntity
  8
0
100
AcDbLine
 62
7
  6
CONTINUOUS
 10
38.7398807698
 20
30.4601991316
 11
38.7398807698
 21
52.2027911953
  0
LINE
  5
2A5
100
AcDbEntity
  8
A_RUNDUNGEN
100
AcDbLine
 62
7
  6
CONTINUOUS
 10
38.8398807698
 20
40.9087689159
 11
38.8398807698
 21
35.3283621639
  0
LINE
  5
2A6
100
AcDbEntity
  8
A_RUNDUNGEN
100
AcDbLine
 62
7
  6
CONTINUOUS
 10
38.8398807698
 20
40.9154907519
 11
38.8398807698
 21
41.3271300316
  0
LINE
  5
2A7
100
AcDbEntity
  8
A_RUNDUNGEN
100
AcDbLine
 62
7
  6
CONTINUOUS
 10
38.8398807698
 20
45.0761343268
 11
38.8398807698
 21
50.7669415534
  0
LINE
  5
2A8
100
AcDbEntity
  8
0
100
AcDbLine
 62
7
  6
CONTINUOUS
 10
44.8144481736
 20
51.9700155963
 11
44.346425796
 21
51.9659312269
  0
LINE
  5
2A9
100
AcDbEntity
  8
A_RUNDUNGEN
100
AcDbLine
 62
7
  6
CONTINUOUS
 10
41.3542055052
 20
51.939818516
 11
44.3398807698
 21
51.9658741093
  0
LINE
  5
2AA
100
AcDbEntity
  8
0
100
AcDbLine
 62
7
  6
CONTINUOUS
 10
103.5129313356
 20
48.1226298609
 11
104.5300788425
 21
48.1270982083
  0
LINE
  5
2AB
100
AcDbEntity
  8
A_RUNDUNGEN
100
AcDbLine
 62
7
  6
CONTINUOUS
 10
85.2859628054
 20
50.5607689684
 11
95.0525397589
 21
50.6036737185
  0
LINE
  5
2AC
100
AcDbEntity
  8
0
100
AcDbLine
 62
7
  6
CONTINUOUS
 10
95.0525397589
 20
50.6036737185
 11
97.4749719145
 21
50.614315507
  0
LINE
  5
2AD
100
AcDbEntity
  8
0
100
AcDbLine
 62
7
  6
CONTINUOUS
 10
43.4985175849
 20
47.9864842245
 11
44.5156748831
 21
47.9867028242
  0
LINE
  5
2AE
100
AcDbEntity
  8
0
100
AcDbLine
 62
7
  6
CONTINUOUS
 10
62.7312152422
 20
50.5088038402
 11
50.5420887997
 21
50.5061842462
  0
LINE
  5
2AF
100
AcDbEntity
  8
0
100
AcDbLine
 62
7
  6
CONTINUOUS
 10
110.6398806275
 20
47.8726692739
 11
110.3398806275
 21
47.8726692739
  0
LINE
  5
2B0
100
AcDbEntity
  8
0
100
AcDbLine
 62
7
  6
CONTINUOUS
 10
110.6398806275
 20
50.2646692739
 11
110.3398806275
 21
50.2646692739
  0
LINE
  5
2B1
100
AcDbEntity
  8
A_ACHSEN
100
AcDbLine
 62
7
  6
CONTINUOUS
 10
110.6398806275
 20
51.1368292739
 11
110.3398806275
 21
51.1368292739
  0
LINE
  5
2B2
100
AcDbEntity
  8
A_ACHSEN
100
AcDbLine
 62
7
  6
CENTER
 10
70.4708603604
 20
51.5111833916
 11
77.5418185374
 21
51.5111833916
  0
LINE
  5
2B3
100
AcDbEntity
  8
0
100
AcDbLine
 62
7
  6
CONTINUOUS
 10
110.6398806275
 20
51.9504218956
 11
110.3398806275
 21
51.9504218956
  0
LINE
  5
2B4
100
AcDbEntity
  8
0
100
AcDbLine
 62
7
  6
CONTINUOUS
 10
110.6398806275
 20
52.5191559122
 11
110.3398806275
 21
52.5191559122
  0
LINE
  5
2B5
100
AcDbEntity
  8
0
100
AcDbLine
 62
7
  6
CONTINUOUS
 10
110.6398806275
 20
52.5432292739
 11
110.3398806275
 21
52.5432292739
  0
LINE
  5
2B6
100
AcDbEntity
  8
0
100
AcDbLine
 62
7
  6
CONTINUOUS
 10
79.1130786093
 20
43.7871098658
 11
65.1717465252
 21
49.9906010744
  0
LINE
  5
2B7
100
AcDbEntity
  8
0
100
AcDbLine
 62
7
  6
CONTINUOUS
 10
68.4813633067
 20
40.0045100397
 11
66.9499219805
 21
41.4450605509
  0
LINE
  5
2B8
100
AcDbEntity
  8
0
100
AcDbLine
 62
7
  6
CONTINUOUS
 10
41.5259365638
 20
44.9426824485
 11
41.5256951897
 21
46.0658103959
  0
LINE
  5
2B9
100
AcDbEntity
  8
A_RUNDUNGEN
100
AcDbLine
 62
7
  6
CONTINUOUS
 10
40.9659926814
 20
51.836025134
 11
40.9659926814
 21
51.3957061253
  0
LINE
  5
2BA
100
AcDbEntity
  8
A_RUNDUNGEN
100
AcDbLine
 62
7
  6
CONTINUOUS
 10
40.9849875365
 20
51.8423567523
 11
40.9849875365
 21
51.4043106834
  0
LINE
  5
2BB
100
AcDbEntity
  8
0
100
AcDbLine
 62
7
  6
CONTINUOUS
 10
42.7398807698
 20
55.9794738971
 11
42.7398807698
 21
55.7207375097
  0
LINE
  5
2BC
100
AcDbEntity
  8
A_RUNDUNGEN
100
AcDbLine
 62
7
  6
CONTINUOUS
 10
42.7398807698
 20
55.7207375097
 11
42.7398807698
 21
55.0380106529
  0
LINE
  5
2BD
100
AcDbEntity
  8
0
100
AcDbLine
 62
7
  6
CONTINUOUS
 10
42.7398807698
 20
53.9120582399
 11
42.7398807698
 21
55.0380106529
  0
LINE
  5
2BE
100
AcDbEntity
  8
A_ACHSEN
100
AcDbLine
 62
7
  6
CENTER
 10
44.0076296065
 20
40.0493381161
 11
44.0076296065
 21
50.9602214732
  0
LINE
  5
2BF
100
AcDbEntity
  8
A_RUNDUNGEN
100
AcDbLine
 62
7
  6
CONTINUOUS
 10
44.3398807698
 20
51.9658741093
 11
44.3398807698
 21
51.5228899968
  0
LINE
  5
2C0
100
AcDbEntity
  8
A_RUNDUNGEN
100
AcDbLine
 62
7
  6
CONTINUOUS
 10
44.346425796
 20
51.9659312269
 11
44.346425796
 21
51.528223495
  0
LINE
  5
2C1
100
AcDbEntity
  8
A_RUNDUNGEN
100
AcDbLine
 62
7
  6
CONTINUOUS
 10
104.48838689
 20
54.9277895246
 11
104.4748774986
 21
54.9276256337
  0
LINE
  5
2C2
100
AcDbEntity
  8
A_RUNDUNGEN
100
AcDbLine
 62
7
  6
CONTINUOUS
 10
46.3352366455
 20
53.44777883
 11
42.2442440375
 21
53.4120772784
  0
LINE
  5
2C3
100
AcDbEntity
  8
0
100
AcDbLine
 62
7
  6
CONTINUOUS
 10
41.7802212977
 20
53.4080278133
 11
42.2442440375
 21
53.4120772784
  0
LINE
  5
2C4
100
AcDbEntity
  8
0
100
AcDbLine
 62
7
  6
CONTINUOUS
 10
42.2442440375
 20
55.2207565482
 11
38.235517502
 21
55.1857729217
  0
LINE
  5
2C5
100
AcDbEntity
  8
A_RUNDUNGEN
100
AcDbLine
 62
7
  6
CONTINUOUS
 10
70.1442440375
 20
56.7142837575
 11
64.7442440375
 21
56.6671586715
  0
LINE
  5
2C6
100
AcDbEntity
  8
0
100
AcDbLine
 62
7
  6
CONTINUOUS
 10
43.235517502
 20
56.4794548586
 11
64.7442440375
 21
56.6671586715
  0
LINE
  5
2C7
100
AcDbEntity
  8
0
100
AcDbLine
 62
7
  6
CONTINUOUS
 10
37.9885717788
 20
55.0131326299
 11
42.7398807698
 21
55.0380106529
  0
LINE
  5
2C8
100
AcDbEntity
  8
A_RUNDUNGEN
100
AcDbLine
 62
7
  6
CONTINUOUS
 10
42.8660925966
 20
56.2886886375
 11
65.5398807698
 21
56.4074093997
  0
LINE
  5
2C9
100
AcDbEntity
  8
0
100
AcDbLine
 62
7
  6
CONTINUOUS
 10
97.6623083063
 20
55.1151819008
 11
90.2908065605
 21
55.0827987597
  0
LINE
  5
2CA
100
AcDbEntity
  8
A_RUNDUNGEN
100
AcDbLine
 62
7
  6
CONTINUOUS
 10
78.3209936545
 20
55.0302151541
 11
90.2908065605
 21
55.0827987597
  0
LINE
  5
2CB
100
AcDbEntity
  8
0
100
AcDbLine
 62
7
  6
CONTINUOUS
 10
48.924908467
 20
57.8367451212
 11
65.2398807698
 21
57.907933069
  0
LINE
  5
2CC
100
AcDbEntity
  8
A_RUNDUNGEN
100
AcDbLine
 62
7
  6
CONTINUOUS
 10
65.2398807698
 20
57.907933069
 11
70.6398807698
 21
57.9314951634
  0
LINE
  5
2CD
100
AcDbEntity
  8
A_RUNDUNGEN
100
AcDbLine
 62
7
  6
CONTINUOUS
 10
104.4748774986
 20
54.9276256337
 11
104.3669749366
 21
54.9270061624
  0
LINE
  5
2CE
100
AcDbEntity
  8
A_RUNDUNGEN
100
AcDbLine
 62
7
  6
CONTINUOUS
 10
104.3669749366
 20
54.9270061624
 11
104.0182100231
 21
54.9260581157
  0
LINE
  5
2CF
100
AcDbEntity
  8
A_RUNDUNGEN
100
AcDbLine
 62
7
  6
CONTINUOUS
 10
104.0182100231
 20
54.9260581157
 11
103.9356968667
 21
54.9259019813
  0
LWPOLYLINE
  5
2D0
100
AcDbEntity
  8
A_RUNDUNGEN
100
AcDbPolyline
 62
7
  6
CONTINUOUS
 90
3
 70
0
 10
103.9356968667
 20
54.9259019813
 10
103.8498446404
 20
54.9257541833
 10
103.8057461168
 20
54.9256831326
  0
LWPOLYLINE
  5
2D1
100
AcDbEntity
  8
A_RUNDUNGEN
100
AcDbPolyline
 62
7
  6
CONTINUOUS
 90
3
 70
0
 10
103.8057461168
 20
54.9256831326
 10
103.7152724198
 20
54.9255464537
 10
103.6687973425
 20
54.9254804904
  0
LINE
  5
2D2
100
AcDbEntity
  8
A_RUNDUNGEN
100
AcDbLine
 62
7
  6
CONTINUOUS
 10
103.6687973425
 20
54.9254804904
 11
102.1398171682
 21
54.9241880385
  0
LINE
  5
2D3
100
AcDbEntity
  8
0
100
AcDbLine
 62
7
  6
CONTINUOUS
 10
50.3340149176
 20
55.0061396325
 11
69.6755157521
 21
55.0102963602
  0
LINE
  5
2D4
100
AcDbEntity
  8
A_RUNDUNGEN
100
AcDbLine
 62
7
  6
CONTINUOUS
 10
100.1648163758
 20
54.906304375
 11
106.8506067564
 21
54.906304375
  0
LINE
  5
2D5
100
AcDbEntity
  8
A_RUNDUNGEN
100
AcDbLine
 62
7
  6
CONTINUOUS
 10
102.1398171682
 20
54.9241880385
 11
100.1720418691
 21
54.9237530186
  0
LINE
  5
2D6
100
AcDbEntity
  8
A_RUNDUNGEN
100
AcDbLine
 62
7
  6
CONTINUOUS
 10
104.5706587581
 20
54.9451334376
 11
106.2698623757
 21
54.9451334376
  0
LINE
  5
2D7
100
AcDbEntity
  8
A_RUNDUNGEN
100
AcDbLine
 62
7
  6
CONTINUOUS
 10
81.6464227809
 20
56.106304375
 11
79.660421658
 21
56.106304375
  0
LINE
  5
2D8
100
AcDbEntity
  8
A_RUNDUNGEN
100
AcDbLine
 62
7
  6
CONTINUOUS
 10
81.5566572914
 20
56.1237530186
 11
80.1604226047
 21
56.1237530186
  0
LINE
  5
2D9
100
AcDbEntity
  8
A_RUNDUNGEN
100
AcDbLine
 62
7
  6
CONTINUOUS
 10
79.0741457729
 20
56.606304375
 11
76.2669628713
 21
56.606304375
  0
LINE
  5
2DA
100
AcDbEntity
  8
A_RUNDUNGEN
100
AcDbLine
 62
7
  6
CONTINUOUS
 10
76.2281385683
 20
56.6451334376
 11
78.8743875629
 21
56.6451334376
  0
LINE
  5
2DB
100
AcDbEntity
  8
A_RUNDUNGEN
100
AcDbLine
 62
7
  6
CONTINUOUS
 10
72.1398807698
 20
57.8814951634
 11
70.6398807698
 21
57.8814951634
  0
LINE
  5
2DC
100
AcDbEntity
  8
A_RUNDUNGEN
100
AcDbLine
 62
7
  6
CONTINUOUS
 10
75.7398806275
 20
57.912849401
 11
77.2398806275
 21
57.912849401
  0
LINE
  5
2DD
100
AcDbEntity
  8
0
100
AcDbLine
 62
7
  6
CONTINUOUS
 10
62.1398807698
 20
57.9814951634
 11
72.1398807698
 21
57.9814951634
  0
LINE
  5
2DE
100
AcDbEntity
  8
0
100
AcDbLine
 62
7
  6
CONTINUOUS
 10
112.1398806275
 20
58.012849401
 11
75.6398806275
 21
58.012849401
  0
LINE
  5
2DF
100
AcDbEntity
  8
0
100
AcDbLine
 62
7
  6
CONTINUOUS
 10
62.1398807698
 20
58.4814951634
 11
58.1398807698
 21
58.4814951634
  0
LINE
  5
2E0
100
AcDbEntity
  8
A_RUNDUNGEN
100
AcDbLine
 62
7
  6
CONTINUOUS
 10
106.2734892838
 20
54.9451307933
 11
106.8666945431
 21
54.9442680058
  0
LINE
  5
2E1
100
AcDbEntity
  8
0
100
AcDbLine
 62
7
  6
CONTINUOUS
 10
77.2398806275
 20
57.962849401
 11
104.4349794726
 21
57.8441876441
  0
LINE
  5
2E2
100
AcDbEntity
  8
A_RUNDUNGEN
100
AcDbLine
 62
7
  6
CONTINUOUS
 10
71.8442440375
 20
56.5583408302
 11
65.5398807698
 21
56.613358175
  0
LINE
  5
2E3
100
AcDbEntity
  8
0
100
AcDbLine
 62
7
  6
CONTINUOUS
 10
108.1573330339
 20
55.1339969759
 11
103.7691697253
 21
55.2105926514
  0
LINE
  5
2E4
100
AcDbEntity
  8
0
100
AcDbLine
 62
7
  6
CONTINUOUS
 10
102.8337062708
 20
55.605906037
 11
82.4281723127
 21
55.9620859571
  0
LINE
  5
2E5
100
AcDbEntity
  8
0
100
AcDbLine
 62
7
  6
CONTINUOUS
 10
110.3555814143
 20
54.0277488914
 11
109.4012279233
 21
54.0777644385
  0
LINE
  5
2E6
100
AcDbEntity
  8
0
100
AcDbLine
 62
7
  6
CONTINUOUS
 10
82.3414940182
 20
55.971196213
 11
77.6444761298
 21
56.8842040022
  0
LINE
  5
2E7
100
AcDbEntity
  8
0
100
AcDbLine
 62
7
  6
CONTINUOUS
 10
46.4893226491
 20
46.0668771408
 11
46.4895640232
 21
44.9437491934
  0
LINE
  5
2E8
100
AcDbEntity
  8
A_RUNDUNGEN
100
AcDbLine
 62
7
  6
CONTINUOUS
 10
46.7398807698
 20
34.0364402327
 11
46.7398807698
 21
28.7160246158
  0
LINE
  5
2E9
100
AcDbEntity
  8
0
100
AcDbLine
 62
7
  6
CONTINUOUS
 10
46.7398807698
 20
27.6540183966
 11
46.7398807698
 21
28.7160246158
  0
LINE
  5
2EA
100
AcDbEntity
  8
A_RUNDUNGEN
100
AcDbLine
 62
7
  6
CONTINUOUS
 10
39.7482702863
 20
49.9161694012
 11
38.7398807698
 21
44.5433193849
  0
LINE
  5
2EB
100
AcDbEntity
  8
0
100
AcDbLine
 62
7
  6
CONTINUOUS
 10
48.8421160336
 20
57.8329493386
 11
37.1963028984
 21
56.8140727117
  0
LINE
  5
2EC
100
AcDbEntity
  8
0
100
AcDbLine
 62
7
  6
CONTINUOUS
 10
81.6398807698
 20
61.9814951634
 11
75.6398807698
 21
61.9814951634
  0
LINE
  5
2ED
100
AcDbEntity
  8
0
100
AcDbLine
 62
7
  6
CONTINUOUS
 10
130.6398806275
 20
62.012849401
 11
75.6398806275
 21
62.012849401
  0
LINE
  5
2EE
100
AcDbEntity
  8
0
100
AcDbLine
 62
7
  6
CONTINUOUS
 10
62.1398807698
 20
62.4814951634
 11
58.1398807698
 21
62.4814951634
  0
LINE
  5
2EF
100
AcDbEntity
  8
0
100
AcDbLine
 62
7
  6
CONTINUOUS
 10
81.3743163327
 20
62.9814951634
 11
75.9054452069
 21
62.9814951634
  0
LINE
  5
2F0
100
AcDbEntity
  8
0
100
AcDbLine
 62
7
  6
CONTINUOUS
 10
110.3486402789
 20
57.0199947198
 11
104.5360868163
 21
57.8368958351
  0
LINE
  5
2F1
100
AcDbEntity
  8
0
100
AcDbLine
 62
7
  6
CONTINUOUS
 10
103.2614987296
 20
43.2251253433
 11
102.3679901101
 21
43.7357724263
  0
LINE
  5
2F2
100
AcDbEntity
  8
0
100
AcDbLine
 62
7
  6
CONTINUOUS
 10
71.048393774
 20
34.7994764745
 11
68.4813633067
 21
40.0045100397
  0
LINE
  5
2F3
100
AcDbEntity
  8
A_RUNDUNGEN
100
AcDbLine
 62
7
  6
CONTINUOUS
 10
67.9630187167
 20
41.055530284
 11
68.4813633067
 21
40.0045100397
  0
LINE
  5
2F4
100
AcDbEntity
  8
A_RUNDUNGEN
100
AcDbLine
 62
7
  6
CONTINUOUS
 10
52.9398807698
 20
30.0137171546
 11
52.9398807698
 21
29.4054014435
  0
LINE
  5
2F5
100
AcDbEntity
  8
A_RUNDUNGEN
100
AcDbLine
 62
7
  6
CONTINUOUS
 10
49.5766672444
 20
48.0715520331
 11
48.266988913
 21
41.0933901928
  0
LINE
  5
2F6
100
AcDbEntity
  8
0
100
AcDbLine
 62
7
  6
CONTINUOUS
 10
73.1398807698
 20
65.9814951634
 11
84.1398807698
 21
65.9814951634
  0
LINE
  5
2F7
100
AcDbEntity
  8
0
100
AcDbLine
 62
7
  6
CONTINUOUS
 10
72.1398807698
 20
66.9814951634
 11
85.1398807698
 21
66.9814951634
  0
LINE
  5
2F8
100
AcDbEntity
  8
0
100
AcDbLine
 62
7
  6
CONTINUOUS
 10
75.6398807698
 20
61.9814951634
 11
72.1398807698
 21
63.9814951634
  0
LINE
  5
2F9
100
AcDbEntity
  8
0
100
AcDbLine
 62
7
  6
CONTINUOUS
 10
75.9054452069
 20
62.9814951634
 11
73.1398807698
 21
64.5618176989
  0
LINE
  5
2FA
100
AcDbEntity
  8
0
100
AcDbLine
 62
7
  6
CONTINUOUS
 10
104.8033165443
 20
48.0610230467
 11
105.6968251638
 21
47.5503759637
  0
LINE
  5
2FB
100
AcDbEntity
  8
0
100
AcDbLine
 62
7
  6
CONTINUOUS
 10
77.5411134432
 20
55.0474770459
 11
85.8357887158
 21
46.7563662638
  0
LINE
  5
2FC
100
AcDbEntity
  8
0
100
AcDbLine
 62
7
  6
CONTINUOUS
 10
61.0778583423
 20
35.2025019905
 11
61.0899314279
 21
32.4542580406
  0
LINE
  5
2FD
100
AcDbEntity
  8
A_RUNDUNGEN
100
AcDbLine
 62
7
  6
CONTINUOUS
 10
61.0778583423
 20
35.2025019905
 11
61.0397890641
 21
43.8683614653
  0
LINE
  5
2FE
100
AcDbEntity
  8
0
100
AcDbLine
 62
7
  6
CONTINUOUS
 10
58.1398807698
 20
110.9814951634
 11
58.1398807698
 21
96.6314951634
  0
LINE
  5
2FF
100
AcDbEntity
  8
A_ACHSEN
100
AcDbLine
 62
7
  6
CONTINUOUS
 10
58.1398807698
 20
96.6314951634
 11
58.1398807698
 21
66.6314951634
  0
LINE
  5
300
100
AcDbEntity
  8
0
100
AcDbLine
 62
7
  6
CONTINUOUS
 10
58.1398807698
 20
66.6314951634
 11
58.1398807698
 21
57.8769532782
  0
LINE
  5
301
100
AcDbEntity
  8
A_RUNDUNGEN
100
AcDbLine
 62
7
  6
CONTINUOUS
 10
58.1398807698
 20
25.9814951634
 11
58.1398807698
 21
26.0860370487
  0
LINE
  5
302
100
AcDbEntity
  8
0
100
AcDbLine
 62
7
  6
CONTINUOUS
 10
58.7398807698
 20
26.8525753345
 11
58.7398807698
 21
26.0834190382
  0
LINE
  5
303
100
AcDbEntity
  8
A_RUNDUNGEN
100
AcDbLine
 62
7
  6
CONTINUOUS
 10
58.7398807698
 20
27.5911859693
 11
58.7398807698
 21
28.6113022023
  0
LINE
  5
304
100
AcDbEntity
  8
0
100
AcDbLine
 62
7
  6
CONTINUOUS
 10
58.9398807698
 20
26.8709555024
 11
58.9398807698
 21
29.9613559478
  0
LINE
  5
305
100
AcDbEntity
  8
0
100
AcDbLine
 62
7
  6
CONTINUOUS
 10
62.1398807698
 20
151.9814951634
 11
62.1398807698
 21
57.8944066815
  0
LINE
  5
306
100
AcDbEntity
  8
A_RUNDUNGEN
100
AcDbLine
 62
7
  6
CONTINUOUS
 10
62.1398807698
 20
26.0685836454
 11
62.1398807698
 21
25.9814951634
  0
LINE
  5
307
100
AcDbEntity
  8
0
100
AcDbLine
 62
7
  6
CONTINUOUS
 10
103.5278959285
 20
55.2775037971
 11
103.0749800676
 21
55.5389948913
  0
LINE
  5
308
100
AcDbEntity
  8
0
100
AcDbLine
 62
7
  6
CONTINUOUS
 10
95.0525397589
 20
50.6036737185
 11
90.2908065605
 21
55.0827987597
  0
LINE
  5
309
100
AcDbEntity
  8
0
100
AcDbLine
 62
7
  6
CONTINUOUS
 10
111.5666573228
 20
28.7360727057
 11
111.5131039322
 21
28.7896260963
  0
LINE
  5
30A
100
AcDbEntity
  8
0
100
AcDbLine
 62
7
  6
CONTINUOUS
 10
65.2398807698
 20
57.907933069
 11
65.2398807698
 21
57.167139633
  0
LINE
  5
30B
100
AcDbEntity
  8
A_RUNDUNGEN
100
AcDbLine
 62
7
  6
CONTINUOUS
 10
65.2398807698
 20
55.0093430874
 11
65.2398807698
 21
56.405838589
  0
LINE
  5
30C
100
AcDbEntity
  8
0
100
AcDbLine
 62
7
  6
CONTINUOUS
 10
65.5398807698
 20
55.0094075611
 11
65.5398807698
 21
56.613358175
  0
LINE
  5
30D
100
AcDbEntity
  8
A_ACHSEN
100
AcDbLine
 62
7
  6
CENTER
 10
66.3398807698
 20
26.1699584117
 11
66.3398807698
 21
38.7846839152
  0
LINE
  5
30E
100
AcDbEntity
  8
A_RUNDUNGEN
100
AcDbLine
 62
7
  6
CONTINUOUS
 10
68.7597998367
 20
43.6546800647
 11
68.7597998367
 21
39.7593584312
  0
LINE
  5
30F
100
AcDbEntity
  8
0
100
AcDbLine
 62
7
  6
CONTINUOUS
 10
68.786425796
 20
43.6712190906
 11
68.786425796
 21
39.3859507679
  0
LINE
  5
310
100
AcDbEntity
  8
0
100
AcDbLine
 62
7
  6
CONTINUOUS
 10
41.6033842608
 20
46.3039131576
 11
42.1379176964
 21
47.2302119089
  0
LINE
  5
311
100
AcDbEntity
  8
0
100
AcDbLine
 62
7
  6
CONTINUOUS
 10
98.8917451766
 20
50.0347473276
 11
99.8066929868
 21
49.1278031221
  0
LINE
  5
312
100
AcDbEntity
  8
0
100
AcDbLine
 62
7
  6
CONTINUOUS
 10
70.6398807698
 20
57.9314951634
 11
70.6398807698
 21
57.8814951634
  0
LINE
  5
313
100
AcDbEntity
  8
A_RUNDUNGEN
100
AcDbLine
 62
7
  6
CONTINUOUS
 10
70.6398807698
 20
26.0314951634
 11
70.6398807698
 21
26.8857911776
  0
LINE
  5
314
100
AcDbEntity
  8
A_RUNDUNGEN
100
AcDbLine
 62
7
  6
CONTINUOUS
 10
70.6398807698
 20
56.5688511492
 11
70.6398807698
 21
57.9314951634
  0
LINE
  5
315
100
AcDbEntity
  8
A_RUNDUNGEN
100
AcDbLine
 62
7
  6
CONTINUOUS
 10
72.1398807698
 20
57.8814951634
 11
72.1398807698
 21
56.4572955972
  0
LINE
  5
316
100
AcDbEntity
  8
A_RUNDUNGEN
100
AcDbLine
 62
7
  6
CONTINUOUS
 10
72.1398807698
 20
26.9973467297
 11
72.1398807698
 21
26.0814951634
  0
LINE
  5
317
100
AcDbEntity
  8
0
100
AcDbLine
 62
7
  6
CONTINUOUS
 10
72.1398807698
 20
21.9814951634
 11
72.1398807698
 21
26.0981531779
  0
LINE
  5
318
100
AcDbEntity
  8
0
100
AcDbLine
 62
7
  6
CONTINUOUS
 10
72.1398807698
 20
57.864837149
 11
72.1398807698
 21
66.9814951634
  0
LINE
  5
319
100
AcDbEntity
  8
A_RUNDUNGEN
100
AcDbLine
 62
7
  6
CONTINUOUS
 10
72.3398807698
 20
53.4168839842
 11
72.3398807698
 21
53.3468548257
  0
LINE
  5
31A
100
AcDbEntity
  8
A_RUNDUNGEN
100
AcDbLine
 62
7
  6
CONTINUOUS
 10
72.3398807698
 20
49.6667390434
 11
72.3398807698
 21
49.6056739835
  0
LINE
  5
31B
100
AcDbEntity
  8
A_RUNDUNGEN
100
AcDbLine
 62
7
  6
CONTINUOUS
 10
72.3398807698
 20
45.2974581627
 11
72.3398807698
 21
27.3962824582
  0
LINE
  5
31C
100
AcDbEntity
  8
0
100
AcDbLine
 62
7
  6
CONTINUOUS
 10
73.1398807698
 20
64.5618176989
 11
73.1398807698
 21
65.9814951634
  0
LINE
  5
31D
100
AcDbEntity
  8
A_ACHSEN
100
AcDbLine
 62
7
  6
CENTER
 10
74.0063394489
 20
47.9757043031
 11
74.0063394489
 21
55.0466624801
  0
LINE
  5
31E
100
AcDbEntity
  8
0
100
AcDbLine
 62
7
  6
CONTINUOUS
 10
46.4118749521
 20
44.7056464318
 11
45.8773415165
 21
43.7793476805
  0
LINE
  5
31F
100
AcDbEntity
  8
0
100
AcDbLine
 62
7
  6
CONTINUOUS
 10
106.8483822579
 20
48.4838992396
 11
101.9126280924
 21
53.3764773628
  0
LINE
  5
320
100
AcDbEntity
  8
A_RUNDUNGEN
100
AcDbLine
 62
7
  6
CONTINUOUS
 10
99.1945888736
 20
55.6694270674
 11
99.8112663508
 21
55.0527495903
  0
LINE
  5
321
100
AcDbEntity
  8
A_RUNDUNGEN
100
AcDbLine
 62
7
  6
CONTINUOUS
 10
99.8184952097
 20
55.0701968398
 11
99.219703357
 21
55.6689886925
  0
LINE
  5
322
100
AcDbEntity
  8
A_RUNDUNGEN
100
AcDbLine
 62
7
  6
CONTINUOUS
 10
79.4039746835
 20
39.6602115768
 11
79.3553777178
 21
43.6377294253
  0
LINE
  5
323
100
AcDbEntity
  8
A_RUNDUNGEN
100
AcDbLine
 62
7
  6
CONTINUOUS
 10
79.4285925027
 20
39.8247345505
 11
79.3822077616
 21
43.6211883667
  0
LINE
  5
324
100
AcDbEntity
  8
0
100
AcDbLine
 62
7
  6
CONTINUOUS
 10
75.6398806275
 20
62.012849401
 11
75.6398806275
 21
56.3376051069
  0
LINE
  5
325
100
AcDbEntity
  8
0
100
AcDbLine
 62
7
  6
CONTINUOUS
 10
75.6398806275
 20
53.4455980576
 11
75.6398806275
 21
53.3902518764
  0
LINE
  5
326
100
AcDbEntity
  8
0
100
AcDbLine
 62
7
  6
CONTINUOUS
 10
75.6398806275
 20
49.5760613265
 11
75.6398806275
 21
49.5632185832
  0
LINE
  5
327
100
AcDbEntity
  8
0
100
AcDbLine
 62
7
  6
CONTINUOUS
 10
75.6398806275
 20
45.3325829251
 11
75.6398806275
 21
22.012849401
  0
LINE
  5
328
100
AcDbEntity
  8
A_RUNDUNGEN
100
AcDbLine
 62
7
  6
CONTINUOUS
 10
75.7281385683
 20
26.5805653648
 11
75.7281385683
 21
45.2933106836
  0
LINE
  5
329
100
AcDbEntity
  8
A_RUNDUNGEN
100
AcDbLine
 62
7
  6
CONTINUOUS
 10
75.7281385683
 20
49.6549457663
 11
75.7281385683
 21
49.72812467
  0
LINE
  5
32A
100
AcDbEntity
  8
A_RUNDUNGEN
100
AcDbLine
 62
7
  6
CONTINUOUS
 10
75.7281385683
 20
53.2974181571
 11
75.7281385683
 21
53.3680976853
  0
LINE
  5
32B
100
AcDbEntity
  8
A_RUNDUNGEN
100
AcDbLine
 62
7
  6
CONTINUOUS
 10
75.7398806275
 20
26.112849401
 11
75.7398806275
 21
26.4583409038
  0
LINE
  5
32C
100
AcDbEntity
  8
A_RUNDUNGEN
100
AcDbLine
 62
7
  6
CONTINUOUS
 10
75.7398806275
 20
56.3054956278
 11
75.7398806275
 21
57.912849401
  0
LINE
  5
32D
100
AcDbEntity
  8
A_RUNDUNGEN
100
AcDbLine
 62
7
  6
CONTINUOUS
 10
75.766967631
 20
34.3925353682
 11
75.766967631
 21
45.2760328691
  0
LINE
  5
32E
100
AcDbEntity
  8
A_RUNDUNGEN
100
AcDbLine
 62
7
  6
CONTINUOUS
 10
75.766967631
 20
49.6896509591
 11
75.766967631
 21
49.7650398463
  0
LINE
  5
32F
100
AcDbEntity
  8
A_RUNDUNGEN
100
AcDbLine
 62
7
  6
CONTINUOUS
 10
75.766967631
 20
53.2565759817
 11
75.766967631
 21
53.3340014128
  0
LINE
  5
330
100
AcDbEntity
  8
A_RUNDUNGEN
100
AcDbLine
 62
7
  6
CONTINUOUS
 10
75.8612160087
 20
33.1417931987
 11
75.8612160087
 21
26.7136380455
  0
LINE
  5
331
100
AcDbEntity
  8
0
100
AcDbLine
 62
7
  6
CONTINUOUS
 10
77.2398806275
 20
57.962849401
 11
77.2398806275
 21
57.3750175939
  0
LINE
  5
332
100
AcDbEntity
  8
A_RUNDUNGEN
100
AcDbLine
 62
7
  6
CONTINUOUS
 10
77.2398806275
 20
26.062849401
 11
77.2398806275
 21
26.0805653648
  0
LINE
  5
333
100
AcDbEntity
  8
A_RUNDUNGEN
100
AcDbLine
 62
7
  6
CONTINUOUS
 10
77.2398806275
 20
56.6451334376
 11
77.2398806275
 21
57.3750175939
  0
LINE
  5
334
100
AcDbEntity
  8
0
100
AcDbLine
 62
7
  6
CONTINUOUS
 10
41.1785946831
 20
48.3325989901
 11
46.0917520067
 21
53.2478685643
  0
LINE
  5
335
100
AcDbEntity
  8
A_RUNDUNGEN
100
AcDbLine
 62
7
  6
CONTINUOUS
 10
107.2041567814
 20
54.7598591596
 11
108.4074323632
 21
53.5565835779
  0
LINE
  5
336
100
AcDbEntity
  8
A_RUNDUNGEN
100
AcDbLine
 62
7
  6
CONTINUOUS
 10
107.2199577304
 20
54.7973836895
 11
108.4435404916
 21
53.5712841368
  0
LINE
  5
337
100
AcDbEntity
  8
0
100
AcDbLine
 62
7
  6
CONTINUOUS
 10
102.1706661709
 20
43.9090449793
 11
101.6318701311
 21
44.8328708276
  0
LINE
  5
338
100
AcDbEntity
  8
A_ACHSEN
100
AcDbLine
 62
7
  6
CENTER
 10
81.7604226047
 20
29.0162961659
 11
81.7604226047
 21
36.0094026366
  0
LINE
  5
339
100
AcDbEntity
  8
0
100
AcDbLine
 62
7
  6
CONTINUOUS
 10
84.1398807698
 20
65.9814951634
 11
84.1398807698
 21
64.5618176989
  0
LINE
  5
33A
100
AcDbEntity
  8
0
100
AcDbLine
 62
7
  6
CONTINUOUS
 10
85.1398807698
 20
63.9814951634
 11
85.1398807698
 21
151.9814951634
  0
LINE
  5
33B
100
AcDbEntity
  8
0
100
AcDbLine
 62
7
  6
CONTINUOUS
 10
85.6398806275
 20
58.012849401
 11
85.6398806275
 21
57.9261972541
  0
LINE
  5
33C
100
AcDbEntity
  8
0
100
AcDbLine
 62
7
  6
CONTINUOUS
 10
85.6398806275
 20
26.0995015479
 11
85.6398806275
 21
26.012849401
  0
LINE
  5
33D
100
AcDbEntity
  8
0
100
AcDbLine
 62
7
  6
CONTINUOUS
 10
49.1280011627
 20
49.9200938901
 11
48.2172421613
 21
49.0089433379
  0
LINE
  5
33E
100
AcDbEntity
  8
0
100
AcDbLine
 62
7
  6
CONTINUOUS
 10
105.894149103
 20
47.3771034107
 11
106.4329451428
 21
46.4532775624
  0
LINE
  5
33F
100
AcDbEntity
  8
0
100
AcDbLine
 62
7
  6
CONTINUOUS
 10
87.0079694279
 20
43.9281909899
 11
87.0104224835
 21
32.5139776911
  0
LINE
  5
340
100
AcDbEntity
  8
A_RUNDUNGEN
100
AcDbLine
 62
7
  6
CONTINUOUS
 10
86.69139478
 20
26.8805718369
 11
86.69139478
 21
26.881889601
  0
LINE
  5
341
100
AcDbEntity
  8
A_RUNDUNGEN
100
AcDbLine
 62
7
  6
CONTINUOUS
 10
87.4719222604
 20
29.9273591798
 11
87.4719222604
 21
35.6439219769
  0
LINE
  5
342
100
AcDbEntity
  8
A_RUNDUNGEN
100
AcDbLine
 62
7
  6
CONTINUOUS
 10
87.6582599266
 20
31.9106296077
 11
87.6582599266
 21
35.8442620252
  0
LINE
  5
343
100
AcDbEntity
  8
A_RUNDUNGEN
100
AcDbLine
 62
7
  6
CONTINUOUS
 10
87.6604264049
 20
28.8378114566
 11
87.6604226047
 21
27.5136428052
  0
LINE
  5
344
100
AcDbEntity
  8
0
100
AcDbLine
 62
7
  6
CONTINUOUS
 10
91.0398806275
 20
26.1230636423
 11
91.0398806275
 21
28.2680402221
  0
LINE
  5
345
100
AcDbEntity
  8
0
100
AcDbLine
 62
7
  6
CONTINUOUS
 10
62.1398807698
 20
100.7814951634
 11
58.1398807698
 21
100.7814951634
  0
LINE
  5
346
100
AcDbEntity
  8
A_RUNDUNGEN
100
AcDbLine
 62
7
  6
CONTINUOUS
 10
98.4159160495
 20
48.1042776097
 11
99.8570688781
 21
41.1520780639
  0
LINE
  5
347
100
AcDbEntity
  8
A_RUNDUNGEN
100
AcDbLine
 62
7
  6
CONTINUOUS
 10
76.6870912426
 20
35.920408952
 11
75.9071768176
 21
34.0830457087
  0
LINE
  5
348
100
AcDbEntity
  8
A_RUNDUNGEN
100
AcDbLine
 62
7
  6
CONTINUOUS
 10
76.8113734006
 20
35.7363045096
 11
76.0003438769
 21
33.8256386874
  0
LINE
  5
349
100
AcDbEntity
  8
0
100
AcDbLine
 62
7
  6
CONTINUOUS
 10
65.3709749036
 20
49.9019501847
 11
62.1989254228
 21
46.7019079894
  0
LINE
  5
34A
100
AcDbEntity
  8
0
100
AcDbLine
 62
7
  6
CONTINUOUS
 10
42.3344411206
 20
47.4043918686
 11
43.2255872507
 21
47.9191507162
  0
LINE
  5
34B
100
AcDbEntity
  8
0
100
AcDbLine
 62
7
  6
CONTINUOUS
 10
45.6808180923
 20
43.6051677207
 11
44.7896719622
 21
43.0904088731
  0
LINE
  5
34C
100
AcDbEntity
  8
0
100
AcDbLine
 62
7
  6
CONTINUOUS
 10
41.7014878663
 20
53.3945806736
 11
38.9089657046
 21
52.4393345364
  0
LINE
  5
34D
100
AcDbEntity
  8
A_RUNDUNGEN
100
AcDbLine
 62
7
  6
CONTINUOUS
 10
39.1817668868
 20
51.2412832024
 11
41.20045489
 21
51.9141792035
  0
LINE
  5
34E
100
AcDbEntity
  8
0
100
AcDbLine
 62
7
  6
CONTINUOUS
 10
101.5530847343
 20
45.0706130791
 11
101.5481508603
 21
46.1937302152
  0
LINE
  5
34F
100
AcDbEntity
  8
A_RUNDUNGEN
100
AcDbLine
 62
7
  6
CONTINUOUS
 10
98.4525644001
 20
34.1567957071
 11
98.4525644001
 21
30.9541980325
  0
LINE
  5
350
100
AcDbEntity
  8
0
100
AcDbLine
 62
7
  6
CONTINUOUS
 10
102.0463106269
 20
29.6828685761
 11
102.0463106269
 21
30.1036766224
  0
LINE
  5
351
100
AcDbEntity
  8
0
100
AcDbLine
 62
7
  6
CONTINUOUS
 10
77.0412593609
 20
34.8132837685
 11
80.0977744802
 21
41.0834882178
  0
LINE
  5
352
100
AcDbEntity
  8
0
100
AcDbLine
 62
7
  6
CONTINUOUS
 10
66.9499219805
 20
41.4450605509
 11
61.0778583423
 21
35.2025019905
  0
LINE
  5
353
100
AcDbEntity
  8
0
100
AcDbLine
 62
7
  6
CONTINUOUS
 10
84.1398807698
 20
64.5618176989
 11
81.3743163327
 21
62.9814951634
  0
LINE
  5
354
100
AcDbEntity
  8
0
100
AcDbLine
 62
7
  6
CONTINUOUS
 10
85.1398807698
 20
63.9814951634
 11
81.6398807698
 21
61.9814951634
  0
LINE
  5
355
100
AcDbEntity
  8
0
100
AcDbLine
 62
7
  6
CONTINUOUS
 10
37.3780773709
 20
37.100593464
 11
37.6016841687
 21
37.2123968629
  0
LINE
  5
356
100
AcDbEntity
  8
0
100
AcDbLine
 62
7
  6
CONTINUOUS
 10
62.1398807698
 20
110.9814951634
 11
58.1398807698
 21
110.9814951634
  0
LINE
  5
357
100
AcDbEntity
  8
A_RUNDUNGEN
100
AcDbLine
 62
7
  6
CONTINUOUS
 10
108.2077463957
 20
50.1340703261
 11
109.6488992243
 21
43.1818707803
  0
LINE
  5
358
100
AcDbEntity
  8
0
100
AcDbLine
 62
7
  6
CONTINUOUS
 10
106.5117305395
 20
46.2155353109
 11
106.5166644135
 21
45.0924181748
  0
LINE
  5
359
100
AcDbEntity
  8
A_ACHSEN
100
AcDbLine
 62
7
  6
CENTER
 10
104.0324076369
 20
42.642974195
 11
104.0324076369
 21
48.643174195
  0
LINE
  5
35A
100
AcDbEntity
  8
A_RUNDUNGEN
100
AcDbLine
 62
7
  6
CONTINUOUS
 10
104.5538775785
 20
36.0851280196
 11
104.5538775785
 21
34.8527026456
  0
LINE
  5
35B
100
AcDbEntity
  8
A_RUNDUNGEN
100
AcDbLine
 62
7
  6
CONTINUOUS
 10
104.5713262221
 20
36.0706643084
 11
104.5713262221
 21
34.8533119657
  0
LINE
  5
35C
100
AcDbEntity
  8
A_RUNDUNGEN
100
AcDbLine
 62
7
  6
CONTINUOUS
 10
108.5538775785
 20
38.7167252495
 11
108.5538775785
 21
40.2939172133
  0
LINE
  5
35D
100
AcDbEntity
  8
A_RUNDUNGEN
100
AcDbLine
 62
7
  6
CONTINUOUS
 10
108.5538775785
 20
52.8012723239
 11
108.5538775785
 21
53.2030335529
  0
LINE
  5
35E
100
AcDbEntity
  8
A_RUNDUNGEN
100
AcDbLine
 62
7
  6
CONTINUOUS
 10
108.5615086828
 20
52.7953218912
 11
108.5615086828
 21
51.7747697694
  0
LINE
  5
35F
100
AcDbEntity
  8
A_RUNDUNGEN
100
AcDbLine
 62
7
  6
CONTINUOUS
 10
108.5615086828
 20
40.9837696587
 11
108.5615086828
 21
40.3034887403
  0
LINE
  5
360
100
AcDbEntity
  8
A_RUNDUNGEN
100
AcDbLine
 62
7
  6
CONTINUOUS
 10
108.58484785
 20
50.7306158276
 11
108.58484785
 21
48.314912422
  0
LINE
  5
361
100
AcDbEntity
  8
A_RUNDUNGEN
100
AcDbLine
 62
7
  6
CONTINUOUS
 10
108.5896985338
 20
53.2178700926
 11
108.5896985338
 21
50.7306158276
  0
LINE
  5
362
100
AcDbEntity
  8
A_RUNDUNGEN
100
AcDbLine
 62
7
  6
CONTINUOUS
 10
108.5896985338
 20
40.9979546021
 11
108.5896985338
 21
38.7018887098
  0
LINE
  5
363
100
AcDbEntity
  8
A_RUNDUNGEN
100
AcDbLine
 62
7
  6
CONTINUOUS
 10
109.1398806275
 20
54.1341492808
 11
109.1398806275
 21
50.5106644715
  0
LINE
  5
364
100
AcDbEntity
  8
A_RUNDUNGEN
100
AcDbLine
 62
7
  6
CONTINUOUS
 10
109.1398806275
 20
30.2811900406
 11
109.1398806275
 21
36.268100753
  0
LINE
  5
365
100
AcDbEntity
  8
0
100
AcDbLine
 62
7
  6
CONTINUOUS
 10
109.1398806275
 20
36.268100753
 11
109.1398806275
 21
40.2150343305
  0
LWPOLYLINE
  5
366
100
AcDbEntity
  8
0
100
AcDbPolyline
 62
7
  6
CONTINUOUS
 90
4
 70
0
 10
102.0463106671
 20
29.6828685761
 10
102.0403607259
 20
29.5533700378
 10
102.0184019283
 20
29.4076936825
 10
101.984526467
 20
29.2857377372
  0
LINE
  5
367
100
AcDbEntity
  8
0
100
AcDbLine
 62
7
  6
CONTINUOUS
 10
110.1398806275
 20
29.1106772036
 11
110.1398806275
 21
35.6150215983
  0
LINE
  5
368
100
AcDbEntity
  8
0
100
AcDbLine
 62
7
  6
CONTINUOUS
 10
110.3398806275
 20
44.492849401
 11
110.3398806275
 21
46.068699001
  0
LINE
  5
369
100
AcDbEntity
  8
0
100
AcDbLine
 62
7
  6
CONTINUOUS
 10
110.3398806275
 20
46.4632809232
 11
110.3398806275
 21
47.0560366523
  0
LINE
  5
36A
100
AcDbEntity
  8
0
100
AcDbLine
 62
7
  6
CONTINUOUS
 10
110.3398806275
 20
47.1205411507
 11
110.3398806275
 21
50.2646692739
  0
LINE
  5
36B
100
AcDbEntity
  8
A_ACHSEN
100
AcDbLine
 62
7
  6
CONTINUOUS
 10
110.3398806275
 20
50.2646692739
 11
110.3398806275
 21
51.1368292739
  0
LINE
  5
36C
100
AcDbEntity
  8
0
100
AcDbLine
 62
7
  6
CONTINUOUS
 10
110.3398806275
 20
51.1368292739
 11
110.3398806275
 21
51.8859173972
  0
LINE
  5
36D
100
AcDbEntity
  8
0
100
AcDbLine
 62
7
  6
CONTINUOUS
 10
110.3398806275
 20
51.9504218956
 11
110.3398806275
 21
52.5431776247
  0
LINE
  5
36E
100
AcDbEntity
  8
0
100
AcDbLine
 62
7
  6
CONTINUOUS
 10
110.6398806275
 20
42.297538771
 11
110.6398806275
 21
44.492849401
  0
LINE
  5
36F
100
AcDbEntity
  8
0
100
AcDbLine
 62
7
  6
CONTINUOUS
 10
110.6398806275
 20
46.068699001
 11
110.6398806275
 21
46.4873026356
  0
LINE
  5
370
100
AcDbEntity
  8
0
100
AcDbLine
 62
7
  6
CONTINUOUS
 10
110.6398806275
 20
47.0560366523
 11
110.6398806275
 21
47.8726692739
  0
LINE
  5
371
100
AcDbEntity
  8
0
100
AcDbLine
 62
7
  6
CONTINUOUS
 10
110.6398806275
 20
50.2646692739
 11
110.6398806275
 21
51.9504218956
  0
LINE
  5
372
100
AcDbEntity
  8
0
100
AcDbLine
 62
7
  6
CONTINUOUS
 10
110.6398806275
 20
52.5191559122
 11
110.6398806275
 21
53.728160031
  0
LINE
  5
373
100
AcDbEntity
  8
0
100
AcDbLine
 62
7
  6
CONTINUOUS
 10
111.1398806275
 20
29.062849401
 11
111.1398806275
 21
35.6628634307
  0
LINE
  5
374
100
AcDbEntity
  8
A_RUNDUNGEN
100
AcDbLine
 62
7
  6
CONTINUOUS
 10
111.6398806275
 20
35.9107808179
 11
111.6398806275
 21
28.6232684733
  0
LINE
  5
375
100
AcDbEntity
  8
0
100
AcDbLine
 62
7
  6
CONTINUOUS
 10
111.6398806275
 20
28.4911061853
 11
111.6398806275
 21
28.5592960104
  0
LINE
  5
376
100
AcDbEntity
  8
0
100
AcDbLine
 62
7
  6
CONTINUOUS
 10
111.6398806275
 20
36.1664027916
 11
111.6398806275
 21
55.5345926166
  0
LINE
  5
377
100
AcDbEntity
  8
0
100
AcDbLine
 62
7
  6
CONTINUOUS
 10
112.1398806275
 20
26.012849401
 11
112.1398806275
 21
58.012849401
  0
LINE
  5
378
100
AcDbEntity
  8
A_RUNDUNGEN
100
AcDbLine
 62
7
  6
CONTINUOUS
 10
104.5713259237
 20
36.0708089356
 11
104.5810486463
 21
36.1689266992
  0
LINE
  5
379
100
AcDbEntity
  8
0
100
AcDbLine
 62
7
  6
CONTINUOUS
 10
68.9352461535
 20
43.7636605957
 11
74.0189128617
 21
46.0538668902
  0
LINE
  5
37A
100
AcDbEntity
  8
0
100
AcDbLine
 62
7
  6
CONTINUOUS
 10
82.6490274811
 20
49.941758044
 11
82.8478452512
 21
50.0313260142
  0
LWPOLYLINE
  5
37B
100
AcDbEntity
  8
A_RUNDUNGEN
100
AcDbPolyline
 62
7
  6
CONTINUOUS
 90
3
 70
0
 10
104.5810486463
 20
36.1689266992
 10
104.6111472955
 20
36.2663354744
 10
104.6584908392
 20
36.3528627816
  0
LINE
  5
37C
100
AcDbEntity
  8
0
100
AcDbLine
 62
7
  6
CONTINUOUS
 10
101.6248444445
 20
46.4321554886
 11
102.1555030779
 21
47.3606794707
  0
LWPOLYLINE
  5
37D
100
AcDbEntity
  8
0
100
AcDbPolyline
 62
7
  6
CONTINUOUS
 90
3
 70
0
 10
101.984526467
 20
29.2857377372
 10
101.9469450556
 20
29.1985628555
 10
101.9305635062
 20
29.1726536791
  0
LINE
  5
37E
100
AcDbEntity
  8
0
100
AcDbLine
 62
7
  6
CONTINUOUS
 10
106.4399708294
 20
44.8539929013
 11
105.909312196
 21
43.9254689193
  0
LINE
  5
37F
100
AcDbEntity
  8
0
100
AcDbLine
 62
7
  6
CONTINUOUS
 10
102.3512970515
 20
47.5356789979
 11
103.2402847074
 21
48.0541566194
  0
LINE
  5
380
100
AcDbEntity
  8
0
100
AcDbLine
 62
7
  6
CONTINUOUS
 10
130.6398806275
 20
22.012849401
 11
130.6398806275
 21
62.012849401
  0
LWPOLYLINE
  5
381
100
AcDbEntity
  8
A_RUNDUNGEN
100
AcDbPolyline
 62
7
  6
CONTINUOUS
 90
3
 70
0
 10
104.6584908392
 20
36.3528627816
 10
104.7188466689
 20
36.4253955182
 10
104.7863573083
 20
36.4815901638
  0
LINE
  5
382
100
AcDbEntity
  8
0
100
AcDbLine
 62
7
  6
CONTINUOUS
 10
105.7135182224
 20
43.750469392
 11
104.8245305665
 21
43.2319917706
  0
LINE
  5
383
100
AcDbEntity
  8
A_RUNDUNGEN
100
AcDbLine
 62
7
  6
CONTINUOUS
 10
108.4435404915
 20
38.3484746655
 11
107.180361233
 21
37.0826971694
  0
LINE
  5
384
100
AcDbEntity
  8
A_RUNDUNGEN
100
AcDbLine
 62
7
  6
CONTINUOUS
 10
108.4074323632
 20
38.3631752245
 11
107.1613523751
 21
37.1170952365
  0
LINE
  5
385
100
AcDbEntity
  8
0
100
AcDbLine
 62
7
  6
CONTINUOUS
 10
111.5666573228
 20
35.9896260963
 11
111.5131039322
 21
35.9360727057
  0
LWPOLYLINE
  5
386
100
AcDbEntity
  8
A_RUNDUNGEN
100
AcDbPolyline
 62
7
  6
CONTINUOUS
 90
4
 70
0
 10
104.7863573083
 20
36.4815901638
 10
104.8548803476
 20
36.5214183273
 10
104.9112996285
 20
36.5442808543
 10
104.9364355772
 20
36.5518731083
  0
LINE
  5
387
100
AcDbEntity
  8
A_RUNDUNGEN
100
AcDbLine
 62
7
  6
CONTINUOUS
 10
95.1142334933
 20
28.7593668866
 11
95.4159112295
 21
28.9335406088
  0
LINE
  5
388
100
AcDbEntity
  8
0
100
AcDbLine
 62
7
  6
CONTINUOUS
 10
85.1398807698
 20
151.9814951634
 11
62.1398807698
 21
151.9814951634
  0
ARC
  5
389
100
AcDbEntity
  8
0
100
AcDbCircle
 62
7
  6
CONTINUOUS
 10
40.9103121092
 20
28.5038653067
 40
1.0
100
AcDbArc
 50
251.115572952
 51
269.5
  0
ARC
  5
38A
100
AcDbEntity
  8
0
100
AcDbCircle
 62
7
  6
CONTINUOUS
 10
40.4884016347
 20
28.1867582179
 40
0.5
100
AcDbArc
 50
250.4633450619
 51
269.7
  0
ARC
  5
38B
100
AcDbEntity
  8
0
100
AcDbCircle
 62
7
  6
CONTINUOUS
 10
38.2398807698
 20
28.9846204603
 40
0.5
100
AcDbArc
 50
180.0
 51
250.4633450619
  0
ARC
  5
38C
100
AcDbEntity
  8
0
100
AcDbCircle
 62
7
  6
CONTINUOUS
 10
38.2398807698
 20
28.8889030997
 40
0.5
100
AcDbArc
 50
180.0
 51
251.115572952
  0
ARC
  5
38D
100
AcDbEntity
  8
A_RUNDUNGEN
100
AcDbCircle
 62
7
  6
CONTINUOUS
 10
45.0398807508
 20
27.9678080679
 40
0.5
100
AcDbArc
 50
214.7349652739
 51
269.5000021805
  0
ARC
  5
38E
100
AcDbEntity
  8
0
100
AcDbCircle
 62
7
  6
CONTINUOUS
 10
37.2398807698
 20
27.6470149642
 40
0.5
100
AcDbArc
 50
180.0
 51
265.0
  0
ARC
  5
38F
100
AcDbEntity
  8
0
100
AcDbCircle
 62
7
  6
CONTINUOUS
 10
41.7824029315
 20
29.5049529944
 40
0.25
100
AcDbArc
 50
251.115572952
 51
269.5
  0
ARC
  5
390
100
AcDbEntity
  8
0
100
AcDbCircle
 62
7
  6
CONTINUOUS
 10
38.9898807698
 20
30.4601991316
 40
0.25
100
AcDbArc
 50
180.0
 51
251.115572952
  0
ARC
  5
391
100
AcDbEntity
  8
0
100
AcDbCircle
 62
7
  6
CONTINUOUS
 10
37.3398807698
 20
34.8814951634
 40
0.4
100
AcDbArc
 50
0.0
 51
90.0
  0
ARC
  5
392
100
AcDbEntity
  8
0
100
AcDbCircle
 62
7
  6
CONTINUOUS
 10
37.1398807698
 20
34.8814951634
 40
0.4
100
AcDbArc
 50
90.0
 51
180.0
  0
ARC
  5
393
100
AcDbEntity
  8
0
100
AcDbCircle
 62
7
  6
CONTINUOUS
 10
37.4898807698
 20
36.0314951634
 40
0.25
100
AcDbArc
 50
0.0
 51
90.0
  0
ARC
  5
394
100
AcDbEntity
  8
0
100
AcDbCircle
 62
7
  6
CONTINUOUS
 10
37.4898807698
 20
36.5314951634
 40
0.25
100
AcDbArc
 50
180.0
 51
270.0
  0
ARC
  5
395
100
AcDbEntity
  8
0
100
AcDbCircle
 62
7
  6
CONTINUOUS
 10
37.4898807698
 20
36.8769866663
 40
0.25
100
AcDbArc
 50
116.5650511771
 51
180.0
  0
ARC
  5
396
100
AcDbEntity
  8
0
100
AcDbCircle
 62
7
  6
CONTINUOUS
 10
37.4898807698
 20
37.4360036606
 40
0.25
100
AcDbArc
 50
296.5650511771
 51
360.0
  0
ARC
  5
397
100
AcDbEntity
  8
A_RUNDUNGEN
100
AcDbCircle
 62
7
  6
CONTINUOUS
 10
38.9898807698
 20
35.5229194952
 40
0.2500007123
100
AcDbArc
 50
180.0004900121
 51
268.000017101
  0
ARC
  5
398
100
AcDbEntity
  8
A_RUNDUNGEN
100
AcDbCircle
 62
7
  6
CONTINUOUS
 10
45.7398807698
 20
34.0364402327
 40
1.0
100
AcDbArc
 50
0.0
 51
88.0
  0
ARC
  5
399
100
AcDbEntity
  8
0
100
AcDbCircle
 62
7
  6
CONTINUOUS
 10
48.9292717763
 20
27.1262356864
 40
1.0
100
AcDbArc
 50
265.0
 51
269.75
  0
ARC
  5
39A
100
AcDbEntity
  8
0
100
AcDbCircle
 62
7
  6
CONTINUOUS
 10
46.2398807698
 20
28.7160246158
 40
0.5
100
AcDbArc
 50
0.0
 51
89.5
  0
ARC
  5
39B
100
AcDbEntity
  8
A_RUNDUNGEN
100
AcDbCircle
 62
7
  6
CONTINUOUS
 10
53.1898807698
 20
29.4054014435
 40
0.25
100
AcDbArc
 50
180.0
 51
269.5
  0
ARC
  5
39C
100
AcDbEntity
  8
A_RUNDUNGEN
100
AcDbCircle
 62
7
  6
CONTINUOUS
 10
46.3013095214
 20
41.4623136665
 40
2.0
100
AcDbArc
 50
259.3702478929
 51
349.3702478929
  0
ARC
  5
39D
100
AcDbEntity
  8
0
100
AcDbCircle
 62
7
  6
CONTINUOUS
 10
42.1530884045
 20
46.4658641874
 40
5.0
100
AcDbArc
 50
71.0600183276
 51
87.6804774583
  0
ARC
  5
39E
100
AcDbEntity
  8
A_RUNDUNGEN
100
AcDbCircle
 62
7
  6
CONTINUOUS
 10
40.4042713465
 20
42.5690840874
 40
2.0
100
AcDbArc
 50
213.3587499431
 51
259.3702478929
  0
ARC
  5
39F
100
AcDbEntity
  8
A_RUNDUNGEN
100
AcDbCircle
 62
7
  6
CONTINUOUS
 10
41.7139496779
 20
49.5472459276
 40
2.0
100
AcDbArc
 50
79.3702478929
 51
169.3702478929
  0
ARC
  5
3A0
100
AcDbEntity
  8
0
100
AcDbCircle
 62
7
  6
CONTINUOUS
 10
37.3398807698
 20
46.6814951634
 40
0.4
100
AcDbArc
 50
270.0
 51
360.0
  0
ARC
  5
3A1
100
AcDbEntity
  8
0
100
AcDbCircle
 62
7
  6
CONTINUOUS
 10
37.1398807698
 20
46.6814951634
 40
0.4
100
AcDbArc
 50
180.0
 51
270.0
  0
ARC
  5
3A2
100
AcDbEntity
  8
0
100
AcDbCircle
 62
7
  6
CONTINUOUS
 10
37.4898807698
 20
45.5314951634
 40
0.25
100
AcDbArc
 50
270.0
 51
360.0
  0
ARC
  5
3A3
100
AcDbEntity
  8
0
100
AcDbCircle
 62
7
  6
CONTINUOUS
 10
37.4898807698
 20
45.0314951634
 40
0.25
100
AcDbArc
 50
90.0
 51
180.0
  0
ARC
  5
3A4
100
AcDbEntity
  8
0
100
AcDbCircle
 62
7
  6
CONTINUOUS
 10
37.4898807698
 20
44.6860036606
 40
0.25
100
AcDbArc
 50
180.0
 51
243.4349488229
  0
ARC
  5
3A5
100
AcDbEntity
  8
0
100
AcDbCircle
 62
7
  6
CONTINUOUS
 10
37.4898807698
 20
44.1269866663
 40
0.25
100
AcDbArc
 50
0.0
 51
63.4349488229
  0
ARC
  5
3A6
100
AcDbEntity
  8
A_RUNDUNGEN
100
AcDbCircle
 62
7
  6
CONTINUOUS
 10
39.3398807698
 20
50.7669415534
 40
0.5
100
AcDbArc
 50
108.4349488229
 51
180.0
  0
ARC
  5
3A7
100
AcDbEntity
  8
A_RUNDUNGEN
100
AcDbCircle
 62
7
  6
CONTINUOUS
 10
41.358568773
 20
51.4398375545
 40
0.5
100
AcDbArc
 50
90.5
 51
108.4349488229
  0
ARC
  5
3A8
100
AcDbEntity
  8
0
100
AcDbCircle
 62
7
  6
CONTINUOUS
 10
42.2398807698
 20
53.9120582399
 40
0.5
100
AcDbArc
 50
270.5
 51
360.0
  0
ARC
  5
3A9
100
AcDbEntity
  8
0
100
AcDbCircle
 62
7
  6
CONTINUOUS
 10
38.2398807698
 20
54.6857919602
 40
0.5
100
AcDbArc
 50
90.5
 51
180.0
  0
ARC
  5
3AA
100
AcDbEntity
  8
0
100
AcDbCircle
 62
7
  6
CONTINUOUS
 10
43.2398807698
 20
55.9794738971
 40
0.5
100
AcDbArc
 50
90.5
 51
180.0
  0
ARC
  5
3AB
100
AcDbEntity
  8
0
100
AcDbCircle
 62
7
  6
CONTINUOUS
 10
42.2398807698
 20
55.7207375097
 40
0.5
100
AcDbArc
 50
270.5
 51
360.0
  0
ARC
  5
3AC
100
AcDbEntity
  8
0
100
AcDbCircle
 62
7
  6
CONTINUOUS
 10
37.2398807698
 20
56.3159753627
 40
0.5
100
AcDbArc
 50
95.0
 51
180.0
  0
ARC
  5
3AD
100
AcDbEntity
  8
0
100
AcDbCircle
 62
7
  6
CONTINUOUS
 10
37.9898807698
 20
54.7631360568
 40
0.25
100
AcDbArc
 50
90.3
 51
180.0
  0
ARC
  5
3AE
100
AcDbEntity
  8
0
100
AcDbCircle
 62
7
  6
CONTINUOUS
 10
38.9898807698
 20
52.2027911953
 40
0.25
100
AcDbArc
 50
108.884427048
 51
180.0
  0
ARC
  5
3AF
100
AcDbEntity
  8
0
100
AcDbCircle
 62
7
  6
CONTINUOUS
 10
41.7824029315
 20
53.1580373325
 40
0.25
100
AcDbArc
 50
90.5
 51
108.884427048
  0
ARC
  5
3B0
100
AcDbEntity
  8
0
100
AcDbCircle
 62
7
  6
CONTINUOUS
 10
50.3353043918
 20
49.006139771
 40
6.0
100
AcDbArc
 50
90.0123135713
 51
135.0123135713
  0
ARC
  5
3B1
100
AcDbEntity
  8
0
100
AcDbCircle
 62
7
  6
CONTINUOUS
 10
45.8621707948
 20
44.5436954067
 40
5.0
100
AcDbArc
 50
251.0600183276
 51
267.6804774583
  0
ARC
  5
3B2
100
AcDbEntity
  8
A_ACHSEN
100
AcDbCircle
 62
7
  6
CONTINUOUS
 10
44.0076296065
 20
45.5047797947
 40
4.75
100
AcDbArc
 50
102.5538110613
 51
37.0156732218
  0
ARC
  5
3B3
100
AcDbEntity
  8
0
100
AcDbCircle
 62
7
  6
CONTINUOUS
 10
44.0076296065
 20
45.5047797947
 40
4.0
100
AcDbArc
 50
135.0123135713
 51
20.3879952191
  0
CIRCLE
  5
3B4
100
AcDbEntity
  8
0
100
AcDbCircle
 62
7
  6
CONTINUOUS
 10
44.0076296065
 20
45.5047797947
 40
2.55
  0
CIRCLE
  5
3B5
100
AcDbEntity
  8
A_ACHSEN
100
AcDbCircle
 62
7
  6
CONTINUOUS
 10
44.0076296065
 20
45.5047797947
 40
2.45
  0
CIRCLE
  5
3B6
100
AcDbEntity
  8
A_ACHSEN
100
AcDbCircle
 62
7
  6
CONTINUOUS
 10
44.0076296065
 20
45.5047797947
 40
2.0357864376
  0
ARC
  5
3B7
100
AcDbEntity
  8
A_RUNDUNGEN
100
AcDbCircle
 62
7
  6
CONTINUOUS
 10
47.6109878528
 20
48.4404755067
 40
2.0
100
AcDbArc
 50
349.3702478929
 51
44.2796250594
  0
ARC
  5
3B8
100
AcDbEntity
  8
0
100
AcDbCircle
 62
7
  6
CONTINUOUS
 10
49.631759623
 20
47.5950337402
 40
2.0
100
AcDbArc
 50
135.0123135713
 51
200.3879952191
  0
ARC
  5
3B9
100
AcDbEntity
  8
0
100
AcDbCircle
 62
7
  6
CONTINUOUS
 10
50.5425186244
 20
48.5061842924
 40
2.0
100
AcDbArc
 50
90.0123135713
 51
135.0123135713
  0
ARC
  5
3BA
100
AcDbEntity
  8
0
100
AcDbCircle
 62
7
  6
CONTINUOUS
 10
48.9292717763
 20
56.8367546405
 40
1.0
100
AcDbArc
 50
90.25
 51
95.0
  0
ARC
  5
3BB
100
AcDbEntity
  8
A_RUNDUNGEN
100
AcDbCircle
 62
7
  6
CONTINUOUS
 10
45.0398807698
 20
55.9951822591
 40
0.5
100
AcDbArc
 50
90.5
 51
145.2650306583
  0
ARC
  5
3BC
100
AcDbEntity
  8
A_RUNDUNGEN
100
AcDbCircle
 62
7
  6
CONTINUOUS
 10
44.8366997931
 20
51.5229124188
 40
0.4968190238
100
AcDbArc
 50
180.0025858181
 51
182.8254188118
  0
ARC
  5
3BD
100
AcDbEntity
  8
A_RUNDUNGEN
100
AcDbCircle
 62
7
  6
CONTINUOUS
 10
44.843134418
 20
51.5282440728
 40
0.4967086224
100
AcDbArc
 50
180.0023736654
 51
182.7012008722
  0
ARC
  5
3BE
100
AcDbEntity
  8
0
100
AcDbCircle
 62
7
  6
CONTINUOUS
 10
66.3398807698
 20
32.4773211634
 40
5.5
100
AcDbArc
 50
163.2484241788
 51
43.5697346988
  0
ARC
  5
3BF
100
AcDbEntity
  8
0
100
AcDbCircle
 62
7
  6
CONTINUOUS
 10
66.3398807698
 20
32.4773211634
 40
5.25
100
AcDbArc
 50
180.2516997815
 51
26.2516997815
  0
CIRCLE
  5
3C0
100
AcDbEntity
  8
0
100
AcDbCircle
 62
7
  6
CONTINUOUS
 10
66.3398807698
 20
32.4773211634
 40
2.75
  0
CIRCLE
  5
3C1
100
AcDbEntity
  8
0
100
AcDbCircle
 62
7
  6
CONTINUOUS
 10
66.3398807698
 20
32.4773211634
 40
2.575
  0
CIRCLE
  5
3C2
100
AcDbEntity
  8
A_RUNDUNGEN
100
AcDbCircle
 62
7
  6
CONTINUOUS
 10
66.3398807698
 20
32.4773211634
 40
2.55
  0
CIRCLE
  5
3C3
100
AcDbEntity
  8
A_RUNDUNGEN
100
AcDbCircle
 62
7
  6
CONTINUOUS
 10
66.3398807698
 20
32.4773211634
 40
2.4734119989
  0
CIRCLE
  5
3C4
100
AcDbEntity
  8
A_RUNDUNGEN
100
AcDbCircle
 62
7
  6
CONTINUOUS
 10
66.3398807698
 20
32.4773211634
 40
2.4272122138
  0
ARC
  5
3C5
100
AcDbEntity
  8
A_RUNDUNGEN
100
AcDbCircle
 62
7
  6
CONTINUOUS
 10
69.7567379564
 20
41.9401608787
 40
2.0
100
AcDbArc
 50
114.2516997815
 51
206.2516997815
  0
ARC
  5
3C6
100
AcDbEntity
  8
A_RUNDUNGEN
100
AcDbCircle
 62
7
  6
CONTINUOUS
 10
67.2798807698
 20
39.7593584312
 40
1.498913922
100
AcDbArc
 50
348.7404182669
 51
360.0
  0
ARC
  5
3C7
100
AcDbEntity
  8
A_RUNDUNGEN
100
AcDbCircle
 62
7
  6
CONTINUOUS
 10
67.2798807698
 20
39.7593584312
 40
1.4799190669
100
AcDbArc
 50
349.8769553469
 51
360.0
  0
ARC
  5
3C8
100
AcDbEntity
  8
A_RUNDUNGEN
100
AcDbCircle
 62
7
  6
CONTINUOUS
 10
71.8398807698
 20
27.3962824582
 40
0.5
100
AcDbArc
 50
270.5
 51
360.0
  0
ARC
  5
3C9
100
AcDbEntity
  8
A_RUNDUNGEN
100
AcDbCircle
 62
7
  6
CONTINUOUS
 10
58.2398807698
 20
28.6113022023
 40
0.5
100
AcDbArc
 50
0.0
 51
89.5
  0
ARC
  5
3CA
100
AcDbEntity
  8
A_RUNDUNGEN
100
AcDbCircle
 62
7
  6
CONTINUOUS
 10
70.1398807698
 20
26.7487256078
 40
0.5
100
AcDbArc
 50
0.0
 51
16.4012588934
  0
ARC
  5
3CB
100
AcDbEntity
  8
0
100
AcDbCircle
 62
7
  6
CONTINUOUS
 10
58.2398807698
 20
26.8525753345
 40
0.5
100
AcDbArc
 50
0.0
 51
89.5
  0
ARC
  5
3CC
100
AcDbEntity
  8
0
100
AcDbCircle
 62
7
  6
CONTINUOUS
 10
62.7325047164
 20
44.5088039788
 40
6.0
100
AcDbArc
 50
66.0123135713
 51
90.0123135713
  0
ARC
  5
3CD
100
AcDbEntity
  8
A_ACHSEN
100
AcDbCircle
 62
7
  6
CONTINUOUS
 10
74.0063394489
 20
51.5111833916
 40
5.1
100
AcDbArc
 50
34.2935197791
 51
133.8872019128
  0
ARC
  5
3CE
100
AcDbEntity
  8
A_ACHSEN
100
AcDbCircle
 62
7
  6
CONTINUOUS
 10
74.0063394489
 20
51.5111833916
 40
5.1
100
AcDbArc
 50
233.8622236774
 51
258.3859127766
  0
ARC
  5
3CF
100
AcDbEntity
  8
0
100
AcDbCircle
 62
7
  6
CONTINUOUS
 10
74.0063394489
 20
51.5111833916
 40
5.0
100
AcDbArc
 50
45.0123135713
 51
128.2249468923
  0
ARC
  5
3D0
100
AcDbEntity
  8
0
100
AcDbCircle
 62
7
  6
CONTINUOUS
 10
65.0397504675
 20
43.8859333685
 40
4.0
100
AcDbArc
 50
135.2516997815
 51
180.2516997815
  0
CIRCLE
  5
3D1
100
AcDbEntity
  8
0
100
AcDbCircle
 62
7
  6
CONTINUOUS
 10
74.0063394489
 20
51.5111833916
 40
2.75
  0
CIRCLE
  5
3D2
100
AcDbEntity
  8
A_ACHSEN
100
AcDbCircle
 62
7
  6
CONTINUOUS
 10
74.0063394489
 20
51.5111833916
 40
2.55
  0
CIRCLE
  5
3D3
100
AcDbEntity
  8
0
100
AcDbCircle
 62
7
  6
CONTINUOUS
 10
74.0063394504
 20
51.5111833956
 40
2.5
  0
ARC
  5
3D4
100
AcDbEntity
  8
0
100
AcDbCircle
 62
7
  6
CONTINUOUS
 10
69.6750859274
 20
57.010296314
 40
2.0
100
AcDbArc
 50
270.0123135713
 51
308.2249468923
  0
ARC
  5
3D5
100
AcDbEntity
  8
A_RUNDUNGEN
100
AcDbCircle
 62
7
  6
CONTINUOUS
 10
71.8398807698
 20
56.0583598687
 40
0.5
100
AcDbArc
 50
29.786099586
 51
89.5
  0
ARC
  5
3D6
100
AcDbEntity
  8
0
100
AcDbCircle
 62
7
  6
CONTINUOUS
 10
64.7398807698
 20
57.167139633
 40
0.5
100
AcDbArc
 50
270.5
 51
360.0
  0
ARC
  5
3D7
100
AcDbEntity
  8
A_RUNDUNGEN
100
AcDbCircle
 62
7
  6
CONTINUOUS
 10
65.7398807698
 20
56.1758039304
 40
0.5
100
AcDbArc
 50
90.4999755044
 51
152.4828278513
  0
ARC
  5
3D8
100
AcDbEntity
  8
A_RUNDUNGEN
100
AcDbCircle
 62
7
  6
CONTINUOUS
 10
70.1398807698
 20
57.2142411698
 40
0.4999932719
100
AcDbArc
 50
270.5000235417
 51
0.0026985488
  0
ARC
  5
3D9
100
AcDbEntity
  8
0
100
AcDbCircle
 62
7
  6
CONTINUOUS
 10
70.8706597546
 20
177.7926613196
 40
140.5815450262
100
AcDbArc
 50
256.8297786734
 51
266.001089585
  0
ARC
  5
3DA
100
AcDbEntity
  8
0
100
AcDbCircle
 62
7
  6
CONTINUOUS
 10
70.8706597546
 20
177.7926613196
 40
140.575
100
AcDbArc
 50
256.8291544478
 51
257.1421434673
  0
ARC
  5
3DB
100
AcDbEntity
  8
0
100
AcDbCircle
 62
7
  6
CONTINUOUS
 10
70.8706597546
 20
177.7926613196
 40
140.575
100
AcDbArc
 50
258.0342036474
 51
259.249612884
  0
ARC
  5
3DC
100
AcDbEntity
  8
0
100
AcDbCircle
 62
7
  6
CONTINUOUS
 10
70.8706597546
 20
177.7926613196
 40
140.575
100
AcDbArc
 50
259.4766338308
 51
266.0008909534
  0
ARC
  5
3DD
100
AcDbEntity
  8
A_RUNDUNGEN
100
AcDbCircle
 62
7
  6
CONTINUOUS
 10
70.8706597546
 20
177.7926613196
 40
139.578913922
100
AcDbArc
 50
260.4873315155
 51
265.9695644165
  0
ARC
  5
3DE
100
AcDbEntity
  8
A_RUNDUNGEN
100
AcDbCircle
 62
7
  6
CONTINUOUS
 10
70.8706597546
 20
177.7926613196
 40
139.5599190669
100
AcDbArc
 50
260.4922296671
 51
265.9689292549
  0
ARC
  5
3DF
100
AcDbEntity
  8
A_RUNDUNGEN
100
AcDbCircle
 62
7
  6
CONTINUOUS
 10
70.8706597546
 20
177.7926613196
 40
130.4400809331
100
AcDbArc
 50
260.5532477899
 51
266.5763257089
  0
ARC
  5
3E0
100
AcDbEntity
  8
A_RUNDUNGEN
100
AcDbCircle
 62
7
  6
CONTINUOUS
 10
70.8706597546
 20
177.7926613196
 40
130.421086078
100
AcDbArc
 50
260.547776461
 51
266.5831615164
  0
ARC
  5
3E1
100
AcDbEntity
  8
A_RUNDUNGEN
100
AcDbCircle
 62
7
  6
CONTINUOUS
 10
70.8706597546
 20
177.7926613196
 40
129.425
100
AcDbArc
 50
260.4732035247
 51
266.9818356965
  0
ARC
  5
3E2
100
AcDbEntity
  8
A_RUNDUNGEN
100
AcDbCircle
 62
7
  6
CONTINUOUS
 10
70.8706597546
 20
177.7926613196
 40
129.4184549738
100
AcDbArc
 50
260.4758871043
 51
266.9844204844
  0
ARC
  5
3E3
100
AcDbEntity
  8
A_RUNDUNGEN
100
AcDbCircle
 62
7
  6
CONTINUOUS
 10
72.9728511395
 20
176.9352495846
 40
126.0
100
AcDbArc
 50
284.4612782277
 51
284.4647923571
  0
ARC
  5
3E4
100
AcDbEntity
  8
0
100
AcDbCircle
 62
7
  6
CONTINUOUS
 10
81.7604226047
 20
32.5128494012
 40
5.5
100
AcDbArc
 50
136.694278654
 51
17.0155891739
  0
ARC
  5
3E5
100
AcDbEntity
  8
0
100
AcDbCircle
 62
7
  6
CONTINUOUS
 10
81.7604226047
 20
32.5128494012
 40
5.25
100
AcDbArc
 50
154.0123135713
 51
0.0123135713
  0
CIRCLE
  5
3E6
100
AcDbEntity
  8
0
100
AcDbCircle
 62
7
  6
CONTINUOUS
 10
81.7604226047
 20
32.5128494012
 40
2.75
  0
CIRCLE
  5
3E7
100
AcDbEntity
  8
0
100
AcDbCircle
 62
7
  6
CONTINUOUS
 10
81.7604226047
 20
32.5128494012
 40
2.575
  0
CIRCLE
  5
3E8
100
AcDbEntity
  8
A_RUNDUNGEN
100
AcDbCircle
 62
7
  6
CONTINUOUS
 10
81.7604226047
 20
32.5128494012
 40
2.55
  0
CIRCLE
  5
3E9
100
AcDbEntity
  8
A_RUNDUNGEN
100
AcDbCircle
 62
7
  6
CONTINUOUS
 10
81.7604226047
 20
32.5128494012
 40
2.4737638262
  0
CIRCLE
  5
3EA
100
AcDbEntity
  8
A_ACHSEN
100
AcDbCircle
 62
7
  6
CONTINUOUS
 10
81.7604226047
 20
32.5128494012
 40
2.4267240551
  0
ARC
  5
3EB
100
AcDbEntity
  8
0
100
AcDbCircle
 62
7
  6
CONTINUOUS
 10
78.2999980063
 20
41.9598441673
 40
2.0
100
AcDbArc
 50
334.0123135713
 51
66.0123135713
  0
ARC
  5
3EC
100
AcDbEntity
  8
A_RUNDUNGEN
100
AcDbCircle
 62
7
  6
CONTINUOUS
 10
78.422188383
 20
35.0525634012
 40
1.7499219441
100
AcDbArc
 50
104.5486220087
 51
157.0002798492
  0
ARC
  5
3ED
100
AcDbEntity
  8
A_RUNDUNGEN
100
AcDbCircle
 62
7
  6
CONTINUOUS
 10
85.971905511
 20
35.6439060816
 40
1.5000167495
100
AcDbArc
 50
0.0006071509
 51
46.1143885022
  0
ARC
  5
3EE
100
AcDbEntity
  8
A_RUNDUNGEN
100
AcDbCircle
 62
7
  6
CONTINUOUS
 10
85.7596456348
 20
27.0136183599
 40
0.7999755548
100
AcDbArc
 50
269.9993683948
 51
359.9983206843
  0
ARC
  5
3EF
100
AcDbEntity
  8
A_RUNDUNGEN
100
AcDbCircle
 62
7
  6
CONTINUOUS
 10
87.0591899489
 20
27.8768022112
 40
0.503688083
100
AcDbArc
 50
284.0042448474
 51
285.8669356909
  0
ARC
  5
3F0
100
AcDbEntity
  8
A_RUNDUNGEN
100
AcDbCircle
 62
7
  6
CONTINUOUS
 10
87.1915324278
 20
26.881095304
 40
0.5008045153
100
AcDbArc
 50
97.5303883621
 51
106.3159571327
  0
ARC
  5
3F1
100
AcDbEntity
  8
A_RUNDUNGEN
100
AcDbCircle
 62
7
  6
CONTINUOUS
 10
87.0596582573
 20
27.0136077353
 40
0.5000385244
100
AcDbArc
 50
90.0038747743
 51
180.001469218
  0
ARC
  5
3F2
100
AcDbEntity
  8
A_RUNDUNGEN
100
AcDbCircle
 62
7
  6
CONTINUOUS
 10
76.2281385683
 20
26.5805653648
 40
0.5
100
AcDbArc
 50
180.0478387799
 51
269.952179287
  0
ARC
  5
3F3
100
AcDbEntity
  8
A_RUNDUNGEN
100
AcDbCircle
 62
7
  6
CONTINUOUS
 10
87.1913747036
 20
26.8818996541
 40
0.4999893679
100
AcDbArc
 50
106.3245055367
 51
180.0025701851
  0
ARC
  5
3F4
100
AcDbEntity
  8
A_RUNDUNGEN
100
AcDbCircle
 62
7
  6
CONTINUOUS
 10
87.0601210415
 20
27.8729469466
 40
0.4997220876
100
AcDbArc
 50
280.0115245096
 51
284.007630791
  0
ARC
  5
3F5
100
AcDbEntity
  8
A_RUNDUNGEN
100
AcDbCircle
 62
7
  6
CONTINUOUS
 10
87.0613364644
 20
27.8661988298
 40
0.4928654296
100
AcDbArc
 50
277.527283209
 51
280.008760008
  0
ARC
  5
3F6
100
AcDbEntity
  8
0
100
AcDbCircle
 62
7
  6
CONTINUOUS
 10
91.3398806275
 20
28.2680402221
 40
0.3
100
AcDbArc
 50
91.0
 51
180.0
  0
ARC
  5
3F7
100
AcDbEntity
  8
0
100
AcDbCircle
 62
7
  6
CONTINUOUS
 10
85.3123206601
 20
44.5608268634
 40
6.0
100
AcDbArc
 50
90.2516997815
 51
114.2516997815
  0
ARC
  5
3F8
100
AcDbEntity
  8
0
100
AcDbCircle
 62
7
  6
CONTINUOUS
 10
83.0079695203
 20
43.9273313404
 40
4.0
100
AcDbArc
 50
0.0123135713
 51
45.0123135713
  0
ARC
  5
3F9
100
AcDbEntity
  8
0
100
AcDbCircle
 62
7
  6
CONTINUOUS
 10
78.3122077029
 20
57.0301958557
 40
2.0
100
AcDbArc
 50
246.7162711627
 51
270.2516997815
  0
ARC
  5
3FA
100
AcDbEntity
  8
A_RUNDUNGEN
100
AcDbCircle
 62
7
  6
CONTINUOUS
 10
79.1603830646
 20
56.1063111667
 40
0.500013609
100
AcDbArc
 50
4.3359581015
 51
62.8958119287
  0
ARC
  5
3FB
100
AcDbEntity
  8
A_RUNDUNGEN
100
AcDbCircle
 62
7
  6
CONTINUOUS
 10
76.2281385683
 20
56.1451334376
 40
0.5
100
AcDbArc
 50
90.0478387799
 51
162.0894847158
  0
ARC
  5
3FC
100
AcDbEntity
  8
0
100
AcDbCircle
 62
7
  6
CONTINUOUS
 10
82.4368985159
 20
56.4620098047
 40
0.5
100
AcDbArc
 50
259.0
 51
269.0
  0
ARC
  5
3FD
100
AcDbEntity
  8
0
100
AcDbCircle
 62
7
  6
CONTINUOUS
 10
77.7398806275
 20
57.3750175939
 40
0.5
100
AcDbArc
 50
180.0
 51
259.0
  0
ARC
  5
3FE
100
AcDbEntity
  8
A_RUNDUNGEN
100
AcDbCircle
 62
7
  6
CONTINUOUS
 10
79.1605334235
 20
56.1451671916
 40
0.4998891824
100
AcDbArc
 50
359.9961312173
 51
51.4343807338
  0
ARC
  5
3FF
100
AcDbEntity
  8
A_RUNDUNGEN
100
AcDbCircle
 62
7
  6
CONTINUOUS
 10
79.166761205
 20
56.1062263796
 40
0.4936604591
100
AcDbArc
 50
0.0090523931
 51
4.4017381529
  0
ARC
  5
400
100
AcDbEntity
  8
A_RUNDUNGEN
100
AcDbCircle
 62
7
  6
CONTINUOUS
 10
95.9159112295
 20
28.067515205
 40
1.0
100
AcDbArc
 50
91.0
 51
120.0
  0
ARC
  5
401
100
AcDbEntity
  8
0
100
AcDbCircle
 62
7
  6
CONTINUOUS
 10
94.6142334933
 20
29.6253922904
 40
1.0
100
AcDbArc
 50
271.0
 51
292.5063827221
  0
ARC
  5
402
100
AcDbEntity
  8
A_RUNDUNGEN
100
AcDbCircle
 62
7
  6
CONTINUOUS
 10
99.5867227824
 20
29.0003829735
 40
0.5038056502
100
AcDbArc
 50
145.8893729464
 51
165.8664241364
  0
ARC
  5
403
100
AcDbEntity
  8
A_RUNDUNGEN
100
AcDbCircle
 62
7
  6
CONTINUOUS
 10
99.5837321689
 20
28.9986203658
 40
0.5033304709
100
AcDbArc
 50
90.0618432734
 51
108.7214917764
  0
ARC
  5
404
100
AcDbEntity
  8
0
100
AcDbCircle
 62
7
  6
CONTINUOUS
 10
98.9525644001
 20
30.9541980325
 40
0.5
100
AcDbArc
 50
223.3227226003
 51
269.0
  0
ARC
  5
405
100
AcDbEntity
  8
A_RUNDUNGEN
100
AcDbCircle
 62
7
  6
CONTINUOUS
 10
98.9525644001
 20
34.1567957071
 40
0.5
100
AcDbArc
 50
92.0
 51
180.0
  0
ARC
  5
406
100
AcDbEntity
  8
A_RUNDUNGEN
100
AcDbCircle
 62
7
  6
CONTINUOUS
 10
98.9525644001
 20
30.9541980325
 40
0.5
100
AcDbArc
 50
180.0
 51
269.0
  0
ARC
  5
407
100
AcDbEntity
  8
A_RUNDUNGEN
100
AcDbCircle
 62
7
  6
CONTINUOUS
 10
99.5831801293
 20
29.0019654156
 40
0.499985524
100
AcDbArc
 50
108.7846133556
 51
145.8118494251
  0
ARC
  5
408
100
AcDbEntity
  8
0
100
AcDbCircle
 62
7
  6
CONTINUOUS
 10
95.1501343829
 20
28.3320206359
 40
0.4
100
AcDbArc
 50
90.5
 51
112.5063827221
  0
ARC
  5
409
100
AcDbEntity
  8
A_RUNDUNGEN
100
AcDbCircle
 62
7
  6
CONTINUOUS
 10
101.8154349474
 20
41.5580366072
 40
2.0
100
AcDbArc
 50
191.711233045
 51
281.711233045
  0
ARC
  5
40A
100
AcDbEntity
  8
0
100
AcDbCircle
 62
7
  6
CONTINUOUS
 10
104.4317069906
 20
26.9315040184
 40
0.75
100
AcDbArc
 50
270.25
 51
278.0
  0
ARC
  5
40B
100
AcDbEntity
  8
0
100
AcDbCircle
 62
7
  6
CONTINUOUS
 10
110.1398806275
 20
28.4911061853
 40
1.5
100
AcDbArc
 50
278.0
 51
360.0
  0
ARC
  5
40C
100
AcDbEntity
  8
0
100
AcDbCircle
 62
7
  6
CONTINUOUS
 10
111.3898806275
 20
28.5592960104
 40
0.25
100
AcDbArc
 50
0.0
 51
45.0
  0
ARC
  5
40D
100
AcDbEntity
  8
A_RUNDUNGEN
100
AcDbCircle
 62
7
  6
CONTINUOUS
 10
108.1398806275
 20
30.2811900406
 40
1.0
100
AcDbArc
 50
271.0
 51
360.0
  0
ARC
  5
40E
100
AcDbEntity
  8
0
100
AcDbCircle
 62
7
  6
CONTINUOUS
 10
109.8898806275
 20
29.1106772036
 40
0.25
100
AcDbArc
 50
270.5
 51
360.0
  0
ARC
  5
40F
100
AcDbEntity
  8
0
100
AcDbCircle
 62
7
  6
CONTINUOUS
 10
111.3363272369
 20
28.612849401
 40
0.25
100
AcDbArc
 50
45.0
 51
89.5475776611
  0
ARC
  5
410
100
AcDbEntity
  8
0
100
AcDbCircle
 62
7
  6
CONTINUOUS
 10
111.3398806275
 20
29.062849401
 40
0.2
100
AcDbArc
 50
180.0
 51
269.5475776611
  0
ARC
  5
411
100
AcDbEntity
  8
A_RUNDUNGEN
100
AcDbCircle
 62
7
  6
CONTINUOUS
 10
108.0606551611
 20
40.2994195212
 40
0.5026955145
100
AcDbArc
 50
88.4893500779
 51
100.1072056534
  0
ARC
  5
412
100
AcDbEntity
  8
A_RUNDUNGEN
100
AcDbCircle
 62
7
  6
CONTINUOUS
 10
108.0594549347
 20
40.2998248901
 40
0.5024756254
100
AcDbArc
 50
59.89219626
 51
74.1985117409
  0
ARC
  5
413
100
AcDbEntity
  8
A_RUNDUNGEN
100
AcDbCircle
 62
7
  6
CONTINUOUS
 10
108.0603014396
 20
40.3012799888
 40
0.5008451805
100
AcDbArc
 50
74.246362819
 51
88.4432881426
  0
ARC
  5
414
100
AcDbEntity
  8
A_RUNDUNGEN
100
AcDbCircle
 62
7
  6
CONTINUOUS
 10
108.0894074155
 20
38.7018478735
 40
0.5002803219
100
AcDbArc
 50
315.0321202503
 51
338.5675565451
  0
ARC
  5
415
100
AcDbEntity
  8
A_RUNDUNGEN
100
AcDbCircle
 62
7
  6
CONTINUOUS
 10
106.8263035783
 20
37.4359954132
 40
0.5001739831
100
AcDbArc
 50
282.1775577517
 51
315.03209005
  0
ARC
  5
416
100
AcDbEntity
  8
0
100
AcDbCircle
 62
7
  6
CONTINUOUS
 10
109.6398806275
 20
40.2150343305
 40
0.5
100
AcDbArc
 50
147.5092588329
 51
180.0
  0
ARC
  5
417
100
AcDbEntity
  8
A_RUNDUNGEN
100
AcDbCircle
 62
7
  6
CONTINUOUS
 10
108.6398806275
 20
35.4956937884
 40
0.5
100
AcDbArc
 50
272.0
 51
360.0
  0
ARC
  5
418
100
AcDbEntity
  8
A_RUNDUNGEN
100
AcDbCircle
 62
7
  6
CONTINUOUS
 10
106.807802429
 20
37.4706451165
 40
0.499995082
100
AcDbArc
 50
282.1289234905
 51
315.0000053516
  0
ARC
  5
419
100
AcDbEntity
  8
A_RUNDUNGEN
100
AcDbCircle
 62
7
  6
CONTINUOUS
 10
105.0538714276
 20
36.0851291597
 40
0.4999938491
100
AcDbArc
 50
101.3333795175
 51
180.0001306481
  0
ARC
  5
41A
100
AcDbEntity
  8
A_RUNDUNGEN
100
AcDbCircle
 62
7
  6
CONTINUOUS
 10
108.0538884054
 20
40.2939232145
 40
0.4999884394
100
AcDbArc
 50
359.9993122988
 51
82.7171288915
  0
ARC
  5
41B
100
AcDbEntity
  8
A_RUNDUNGEN
100
AcDbCircle
 62
7
  6
CONTINUOUS
 10
108.0545991353
 20
40.2974779612
 40
0.4963730721
100
AcDbArc
 50
82.7464902633
 51
84.9662300196
  0
ARC
  5
41C
100
AcDbEntity
  8
0
100
AcDbCircle
 62
7
  6
CONTINUOUS
 10
109.5398806275
 20
36.268100753
 40
0.4
100
AcDbArc
 50
180.0
 51
269.5
  0
ARC
  5
41D
100
AcDbEntity
  8
0
100
AcDbCircle
 62
7
  6
CONTINUOUS
 10
110.1907252478
 20
41.6888984612
 40
0.3
100
AcDbArc
 50
93.0
 51
156.949639287
  0
ARC
  5
41E
100
AcDbEntity
  8
0
100
AcDbCircle
 62
7
  6
CONTINUOUS
 10
109.8898806275
 20
35.6150215983
 40
0.25
100
AcDbArc
 50
0.0
 51
89.5
  0
ARC
  5
41F
100
AcDbEntity
  8
0
100
AcDbCircle
 62
7
  6
CONTINUOUS
 10
111.3898806275
 20
36.1664027916
 40
0.25
100
AcDbArc
 50
315.0
 51
360.0
  0
ARC
  5
420
100
AcDbEntity
  8
0
100
AcDbCircle
 62
7
  6
CONTINUOUS
 10
111.3363272369
 20
36.112849401
 40
0.25
100
AcDbArc
 50
270.452436444
 51
315.0
  0
ARC
  5
421
100
AcDbEntity
  8
0
100
AcDbCircle
 62
7
  6
CONTINUOUS
 10
111.3398806275
 20
35.6628634307
 40
0.2
100
AcDbArc
 50
90.452436444
 51
180.0
  0
ARC
  5
422
100
AcDbEntity
  8
0
100
AcDbCircle
 62
7
  6
CONTINUOUS
 10
101.5565472941
 20
45.362849401
 40
9.0833333333
100
AcDbArc
 50
327.5092588329
 51
336.949639287
  0
ARC
  5
423
100
AcDbEntity
  8
A_RUNDUNGEN
100
AcDbCircle
 62
7
  6
CONTINUOUS
 10
101.5565472941
 20
45.362849401
 40
9.0833333333
100
AcDbArc
 50
15.9669379468
 51
32.4907411671
  0
ARC
  5
424
100
AcDbEntity
  8
A_RUNDUNGEN
100
AcDbCircle
 62
7
  6
CONTINUOUS
 10
101.5565472941
 20
45.362849401
 40
9.0833333333
100
AcDbArc
 50
4.4732868708
 51
6.9333275998
  0
ARC
  5
425
100
AcDbEntity
  8
A_RUNDUNGEN
100
AcDbCircle
 62
7
  6
CONTINUOUS
 10
101.5565472941
 20
45.362849401
 40
9.0833333333
100
AcDbArc
 50
336.9415297867
 51
354.5331394011
  0
ARC
  5
426
100
AcDbEntity
  8
0
100
AcDbCircle
 62
7
  6
CONTINUOUS
 10
97.688666161
 20
49.1152397958
 40
6.0
100
AcDbArc
 50
45.2516997815
 51
90.2516997815
  0
ARC
  5
427
100
AcDbEntity
  8
A_RUNDUNGEN
100
AcDbCircle
 62
7
  6
CONTINUOUS
 10
100.3742821188
 20
48.510236153
 40
2.0
100
AcDbArc
 50
134.1306331649
 51
191.711233045
  0
ARC
  5
428
100
AcDbEntity
  8
0
100
AcDbCircle
 62
7
  6
CONTINUOUS
 10
97.4837578661
 20
48.6143348053
 40
2.0
100
AcDbArc
 50
45.2516997815
 51
90.2516997815
  0
ARC
  5
429
100
AcDbEntity
  8
0
100
AcDbCircle
 62
7
  6
CONTINUOUS
 10
98.3987056763
 20
47.7073905998
 40
2.0
100
AcDbArc
 50
339.8760181337
 51
45.2516997815
  0
ARC
  5
42A
100
AcDbEntity
  8
0
100
AcDbCircle
 62
7
  6
CONTINUOUS
 10
102.8249800676
 20
55.1059821894
 40
0.5
100
AcDbArc
 50
60.0
 51
89.0
  0
ARC
  5
42B
100
AcDbEntity
  8
0
100
AcDbCircle
 62
7
  6
CONTINUOUS
 10
103.7778959285
 20
55.710516499
 40
0.5
100
AcDbArc
 50
240.0
 51
269.0
  0
ARC
  5
42C
100
AcDbEntity
  8
A_RUNDUNGEN
100
AcDbCircle
 62
7
  6
CONTINUOUS
 10
100.1720086264
 20
55.4236632442
 40
0.4999149864
100
AcDbArc
 50
224.9961900165
 51
270.0038099834
  0
ARC
  5
42D
100
AcDbEntity
  8
A_ACHSEN
100
AcDbCircle
 62
7
  6
CONTINUOUS
 10
104.0324076369
 20
45.643074195
 40
4.75
100
AcDbArc
 50
143.248340131
 51
77.7102022915
  0
ARC
  5
42E
100
AcDbEntity
  8
0
100
AcDbCircle
 62
7
  6
CONTINUOUS
 10
104.0324076369
 20
45.643074195
 40
4.0
100
AcDbArc
 50
159.8760181337
 51
45.2516997815
  0
CIRCLE
  5
42F
100
AcDbEntity
  8
0
100
AcDbCircle
 62
7
  6
CONTINUOUS
 10
104.0324076369
 20
45.643074195
 40
2.55
  0
CIRCLE
  5
430
100
AcDbEntity
  8
A_ACHSEN
100
AcDbCircle
 62
7
  6
CONTINUOUS
 10
104.0324076369
 20
45.643074195
 40
2.45
  0
CIRCLE
  5
431
100
AcDbEntity
  8
A_ACHSEN
100
AcDbCircle
 62
7
  6
CONTINUOUS
 10
104.0324076369
 20
45.643074195
 40
2.0357864376
  0
ARC
  5
432
100
AcDbEntity
  8
A_RUNDUNGEN
100
AcDbCircle
 62
7
  6
CONTINUOUS
 10
107.6905331551
 20
42.775912237
 40
2.0
100
AcDbArc
 50
281.711233045
 51
11.711233045
  0
ARC
  5
433
100
AcDbEntity
  8
0
100
AcDbCircle
 62
7
  6
CONTINUOUS
 10
110.3398806275
 20
42.297538771
 40
0.3
100
AcDbArc
 50
273.0
 51
360.0
  0
ARC
  5
434
100
AcDbEntity
  8
A_RUNDUNGEN
100
AcDbCircle
 62
7
  6
CONTINUOUS
 10
106.2493803265
 20
49.7281117828
 40
2.0
100
AcDbArc
 50
11.711233045
 51
101.711233045
  0
ARC
  5
435
100
AcDbEntity
  8
0
100
AcDbCircle
 62
7
  6
CONTINUOUS
 10
110.1398806275
 20
55.5345926166
 40
1.5
100
AcDbArc
 50
0.0
 51
82.0
  0
ARC
  5
436
100
AcDbEntity
  8
0
100
AcDbCircle
 62
7
  6
CONTINUOUS
 10
108.1398806275
 20
54.1341492808
 40
1.0
100
AcDbArc
 50
10.7824259673
 51
89.0
  0
ARC
  5
437
100
AcDbEntity
  8
A_RUNDUNGEN
100
AcDbCircle
 62
7
  6
CONTINUOUS
 10
108.1398806275
 20
54.1341492808
 40
1.0
100
AcDbArc
 50
0.0
 51
10.7824259673
  0
ARC
  5
438
100
AcDbEntity
  8
0
100
AcDbCircle
 62
7
  6
CONTINUOUS
 10
104.4317069906
 20
57.0941947836
 40
0.75
100
AcDbArc
 50
82.0
 51
89.75
  0
ARC
  5
439
100
AcDbEntity
  8
A_RUNDUNGEN
100
AcDbCircle
 62
7
  6
CONTINUOUS
 10
108.0867209684
 20
53.2174914171
 40
0.5029753282
100
AcDbArc
 50
0.0431363367
 51
16.5455597861
  0
ARC
  5
43A
100
AcDbEntity
  8
A_RUNDUNGEN
100
AcDbCircle
 62
7
  6
CONTINUOUS
 10
108.0595019847
 20
52.7984460666
 40
0.5024295518
100
AcDbArc
 50
284.1485934472
 51
300.1046482064
  0
ARC
  5
43B
100
AcDbEntity
  8
A_RUNDUNGEN
100
AcDbCircle
 62
7
  6
CONTINUOUS
 10
108.0603368489
 20
52.7975281236
 40
0.5012003867
100
AcDbArc
 50
300.0747178387
 51
359.7477771432
  0
ARC
  5
43C
100
AcDbEntity
  8
A_RUNDUNGEN
100
AcDbCircle
 62
7
  6
CONTINUOUS
 10
104.5707646663
 20
54.4444340073
 40
0.5007037188
100
AcDbArc
 50
94.826980418
 51
104.456535487
  0
ARC
  5
43D
100
AcDbEntity
  8
A_RUNDUNGEN
100
AcDbCircle
 62
7
  6
CONTINUOUS
 10
106.8657398801
 20
54.4438720151
 40
0.5004381569
100
AcDbArc
 50
44.9722366658
 51
68.8317335539
  0
ARC
  5
43E
100
AcDbEntity
  8
A_RUNDUNGEN
100
AcDbCircle
 62
7
  6
CONTINUOUS
 10
108.0894191146
 20
53.2179168061
 40
0.5002678912
100
AcDbArc
 50
16.5868589876
 51
44.9685024954
  0
ARC
  5
43F
100
AcDbEntity
  8
A_RUNDUNGEN
100
AcDbCircle
 62
7
  6
CONTINUOUS
 10
104.5706335825
 20
54.4449911084
 40
0.5001375702
100
AcDbArc
 50
89.9971158805
 51
94.8173871075
  0
ARC
  5
440
100
AcDbEntity
  8
A_RUNDUNGEN
100
AcDbCircle
 62
7
  6
CONTINUOUS
 10
109.6398806275
 20
50.5106644715
 40
0.5
100
AcDbArc
 50
180.0
 51
212.4907411671
  0
ARC
  5
441
100
AcDbEntity
  8
A_RUNDUNGEN
100
AcDbCircle
 62
7
  6
CONTINUOUS
 10
108.053883612
 20
52.8012713306
 40
0.4999939665
100
AcDbArc
 50
284.1071761647
 51
0.0001138292
  0
ARC
  5
442
100
AcDbEntity
  8
0
100
AcDbCircle
 62
7
  6
CONTINUOUS
 10
109.4169287102
 20
54.3773532989
 40
0.3
100
AcDbArc
 50
190.7824259673
 51
267.0
  0
ARC
  5
443
100
AcDbEntity
  8
0
100
AcDbCircle
 62
7
  6
CONTINUOUS
 10
110.3398806275
 20
53.728160031
 40
0.3
100
AcDbArc
 50
0.0
 51
87.0
  0
ARC
  5
444
100
AcDbEntity
  8
A_RUNDUNGEN
100
AcDbCircle
 62
7
  6
CONTINUOUS
 10
80.124947849
 20
239.6112602319
 40
183.4875154023
100
AcDbArc
 50
269.8549472734
 51
270.0110773411
  0
ARC
  5
445
100
AcDbEntity
  8
A_RUNDUNGEN
100
AcDbCircle
 62
7
  6
CONTINUOUS
 10
76.4488530846
 20
177.7613886244
 40
144.0759569275
100
AcDbArc
 50
281.9677571582
 51
282.2147028839
  0
ARC
  5
446
100
AcDbEntity
  8
A_RUNDUNGEN
100
AcDbCircle
 62
7
  6
CONTINUOUS
 10
76.658072628
 20
177.7609399506
 40
144.0322840364
100
AcDbArc
 50
281.3261238209
 51
281.885050044
  0
ARC
  5
447
100
AcDbEntity
  8
A_RUNDUNGEN
100
AcDbCircle
 62
7
  6
CONTINUOUS
 10
76.658072628
 20
177.7609399506
 40
143.9934549738
100
AcDbArc
 50
281.3335101656
 51
282.128928842
  0
ARC
  5
448
100
AcDbEntity
  8
A_RUNDUNGEN
100
AcDbCircle
 62
7
  6
CONTINUOUS
 10
76.6254083673
 20
177.8559277027
 40
140.6065450262
100
AcDbArc
 50
274.2359057611
 51
282.8693524484
  0
ARC
  5
449
100
AcDbEntity
  8
A_RUNDUNGEN
100
AcDbCircle
 62
7
  6
CONTINUOUS
 10
76.6254083673
 20
177.8559277027
 40
140.6
100
AcDbArc
 50
274.2378110377
 51
280.4877996164
  0
ARC
  5
44A
100
AcDbEntity
  8
A_RUNDUNGEN
100
AcDbCircle
 62
7
  6
CONTINUOUS
 10
76.6254083673
 20
177.8559277027
 40
140.6
100
AcDbArc
 50
281.1896897387
 51
282.2311404487
  0
ARC
  5
44B
100
AcDbEntity
  8
A_RUNDUNGEN
100
AcDbCircle
 62
7
  6
CONTINUOUS
 10
76.6254083673
 20
177.8559277027
 40
139.598913922
100
AcDbArc
 50
274.2675433599
 51
279.7508809608
  0
ARC
  5
44C
100
AcDbEntity
  8
A_RUNDUNGEN
100
AcDbCircle
 62
7
  6
CONTINUOUS
 10
76.6254083673
 20
177.8559277027
 40
139.5799190669
100
AcDbArc
 50
274.2903724609
 51
279.7757260735
  0
ARC
  5
44D
100
AcDbEntity
  8
A_RUNDUNGEN
100
AcDbCircle
 62
7
  6
CONTINUOUS
 10
76.6254083673
 20
177.8559277027
 40
130.4600809331
100
AcDbArc
 50
273.6782807991
 51
279.7133303047
  0
ARC
  5
44E
100
AcDbEntity
  8
A_RUNDUNGEN
100
AcDbCircle
 62
7
  6
CONTINUOUS
 10
76.6254083673
 20
177.8559277027
 40
130.4600809331
100
AcDbArc
 50
283.7697683938
 51
284.006774805
  0
ARC
  5
44F
100
AcDbEntity
  8
A_RUNDUNGEN
100
AcDbCircle
 62
7
  6
CONTINUOUS
 10
76.6254083673
 20
177.8559277027
 40
130.441086078
100
AcDbArc
 50
283.749099191
 51
284.0002317909
  0
ARC
  5
450
100
AcDbEntity
  8
A_RUNDUNGEN
100
AcDbCircle
 62
7
  6
CONTINUOUS
 10
76.6254083673
 20
177.8559277027
 40
130.441086078
100
AcDbArc
 50
273.6118127329
 51
279.673379177
  0
ARC
  5
451
100
AcDbEntity
  8
A_RUNDUNGEN
100
AcDbCircle
 62
7
  6
CONTINUOUS
 10
76.6254083673
 20
177.8559277027
 40
129.45
100
AcDbArc
 50
282.9152101912
 51
284.1095576978
  0
ARC
  5
452
100
AcDbEntity
  8
A_RUNDUNGEN
100
AcDbCircle
 62
7
  6
CONTINUOUS
 10
76.6254083673
 20
177.8559277027
 40
129.45
100
AcDbArc
 50
282.1735911029
 51
282.2752687054
  0
ARC
  5
453
100
AcDbEntity
  8
A_RUNDUNGEN
100
AcDbCircle
 62
7
  6
CONTINUOUS
 10
76.6254083673
 20
177.8559277027
 40
129.4434549738
100
AcDbArc
 50
273.2249629378
 51
279.7489464306
  0
ARC
  5
454
100
AcDbEntity
  8
A_RUNDUNGEN
100
AcDbCircle
 62
7
  6
CONTINUOUS
 10
76.6254083673
 20
177.8559277027
 40
129.4434549738
100
AcDbArc
 50
282.171702264
 51
284.107289994
  0
LINE
  5
455
100
AcDbEntity
  8
A_RUNDUNGEN
100
AcDbLine
 62
7
  6
CONTINUOUS
 10
68.7787946917
 20
39.7593584312
 11
68.7794002523
 21
39.40124004
  0
SPLINE
  5
456
100
AcDbEntity
  8
A_RUNDUNGEN
100
AcDbSpline
 62
7
  6
CONTINUOUS
 70
0
 71
3
 72
11
 73
7
 74
0
 42
0.0000001
 43
0.0000001
 44
0.0000000001
 40
0.0
 40
0.0
 40
0.0
 40
0.0
 40
0.2432025108
 40
0.490017389
 40
0.7426694203
 40
1.0
 40
1.0
 40
1.0
 40
1.0
 10
86.6913871646
 20
26.8818772259
 30
0.0
 10
86.6915087854
 20
26.7806318244
 30
0.0
 10
86.6524008247
 20
26.5744721536
 30
0.0
 10
86.4803533092
 20
26.3084727953
 30
0.0
 10
86.2146427917
 20
26.1244792805
 30
0.0
 10
85.9998364894
 20
26.0805648079
 30
0.0
 10
85.8927094843
 20
26.080570137
 30
0.0
  0
SPLINE
  5
457
100
AcDbEntity
  8
A_RUNDUNGEN
100
AcDbSpline
 62
7
  6
CONTINUOUS
 70
0
 71
3
 72
11
 73
7
 74
0
 42
0.0000001
 43
0.0000001
 44
0.0000000001
 40
0.0
 40
0.0
 40
0.0
 40
0.0
 40
0.0402904805
 40
0.201450125
 40
0.5149657718
 40
1.0
 40
1.0
 40
1.0
 40
1.0
 10
104.9730093268
 20
36.5610697327
 30
0.0
 10
104.9733938722
 20
36.5607578974
 30
0.0
 10
104.968886623
 20
36.5596535711
 30
0.0
 10
104.9653182264
 20
36.5583841346
 30
0.0
 10
104.9520768216
 20
36.5554137283
 30
0.0
 10
104.9431455204
 20
36.5533451543
 30
0.0
 10
104.9373276877
 20
36.5520505358
 30
0.0
  0
SPLINE
  5
458
100
AcDbEntity
  8
A_RUNDUNGEN
100
AcDbSpline
 62
7
  6
CONTINUOUS
 70
0
 71
3
 72
8
 73
4
 74
0
 42
0.0000001
 43
0.0000001
 44
0.0000000001
 40
0.0
 40
0.0
 40
0.0
 40
0.0
 40
1.0
 40
1.0
 40
1.0
 40
1.0
 10
108.589696154
 20
38.7018887097
 30
0.0
 10
108.5896957974
 20
38.6398584612
 30
0.0
 10
108.5777591588
 20
38.5767842044
 30
0.0
 10
108.5550928813
 20
38.519043477
 30
0.0
  0
SPLINE
  5
459
100
AcDbEntity
  8
A_RUNDUNGEN
100
AcDbSpline
 62
7
  6
CONTINUOUS
 70
0
 71
3
 72
8
 73
4
 74
0
 42
0.0000001
 43
0.0000001
 44
0.0000000001
 40
0.0
 40
0.0
 40
0.0
 40
0.0
 40
1.0
 40
1.0
 40
1.0
 40
1.0
 10
106.866330931
 20
54.9442658904
 30
0.0
 10
106.9274145764
 20
54.9442211251
 30
0.0
 10
106.9894886477
 20
54.9325963884
 30
0.0
 10
107.0464521734
 20
54.9105425798
 30
0.0
  0
SPLINE
  5
45A
100
AcDbEntity
  8
A_RUNDUNGEN
100
AcDbSpline
 62
7
  6
CONTINUOUS
 70
0
 71
3
 72
9
 73
5
 74
0
 42
0.0000001
 43
0.0000001
 44
0.0000000001
 40
0.0
 40
0.0
 40
0.0
 40
0.0
 40
0.5846997709
 40
1.0
 40
1.0
 40
1.0
 40
1.0
 10
88.0604235587
 20
27.4019505435
 30
0.0
 10
87.8875931756
 20
27.4019558269
 30
0.0
 10
87.59200572
 20
27.4015686089
 30
0.0
 10
87.2964166685
 20
27.4006408484
 30
0.0
 10
87.173663178
 20
27.3996040682
 30
0.0
  0
SPLINE
  5
45B
100
AcDbEntity
  8
A_RUNDUNGEN
100
AcDbSpline
 62
7
  6
CONTINUOUS
 70
0
 71
3
 72
9
 73
5
 74
0
 42
0.0000001
 43
0.0000001
 44
0.0000000001
 40
0.0
 40
0.0
 40
0.0
 40
0.0
 40
0.4998514135
 40
1.0
 40
1.0
 40
1.0
 40
1.0
 10
87.6604264049
 20
28.8378114566
 30
0.0
 10
87.6604455327
 20
28.9316086444
 30
0.0
 10
87.6366956838
 20
29.1195327159
 30
0.0
 10
87.5823359151
 20
29.2993396434
 30
0.0
 10
87.5541740275
 20
29.3888677681
 30
0.0
  0
SPLINE
  5
45C
100
AcDbEntity
  8
A_RUNDUNGEN
100
AcDbSpline
 62
7
  6
CONTINUOUS
 70
0
 71
3
 72
11
 73
7
 74
0
 42
0.0000001
 43
0.0000001
 44
0.0000000001
 40
0.0
 40
0.0
 40
0.0
 40
0.0
 40
0.2304543148
 40
0.4691510522
 40
0.7242231618
 40
1.0
 40
1.0
 40
1.0
 40
1.0
 10
108.5615086828
 20
40.3034887403
 30
0.0
 10
108.5613849511
 20
40.343437415
 30
0.0
 10
108.551223426
 20
40.4250676469
 30
0.0
 10
108.5053483505
 20
40.5432826692
 30
0.0
 10
108.4262912693
 20
40.652593121
 30
0.0
 10
108.3528517778
 20
40.7105016856
 30
0.0
 10
108.3115110626
 20
40.734508065
 30
0.0
  0
LINE
  5
45D
100
AcDbEntity
  8
A_RUNDUNGEN
100
AcDbLine
 62
7
  6
CONTINUOUS
 10
75.7670545036
 20
34.1425241018
 11
75.768053709
 21
33.3991870701
  0
SPLINE
  5
45E
100
AcDbEntity
  8
A_RUNDUNGEN
100
AcDbSpline
 62
7
  6
CONTINUOUS
 70
0
 71
3
 72
8
 73
4
 74
0
 42
0.0000001
 43
0.0000001
 44
0.0000000001
 40
0.0
 40
0.0
 40
0.0
 40
0.0
 40
1.0
 40
1.0
 40
1.0
 40
1.0
 10
108.0981523393
 20
40.7919365996
 30
0.0
 10
108.046355434
 20
40.7965004768
 30
0.0
 10
107.9932104821
 20
40.7929341616
 30
0.0
 10
107.9425190564
 20
40.7813528089
 30
0.0
  0
SPLINE
  5
45F
100
AcDbEntity
  8
A_RUNDUNGEN
100
AcDbSpline
 62
7
  6
CONTINUOUS
 70
0
 71
3
 72
8
 73
4
 74
0
 42
0.0000001
 43
0.0000001
 44
0.0000000001
 40
0.0
 40
0.0
 40
0.0
 40
0.0
 40
1.0
 40
1.0
 40
1.0
 40
1.0
 10
87.5541740275
 20
29.3888677681
 30
0.0
 10
87.49968841
 20
29.5620793314
 30
0.0
 10
87.4719222604
 20
29.7457801937
 30
0.0
 10
87.4719222604
 20
29.9273591798
 30
0.0
  0
LINE
  5
460
100
AcDbEntity
  8
A_RUNDUNGEN
100
AcDbLine
 62
7
  6
CONTINUOUS
 10
66.9499219805
 20
41.4450605509
 11
66.8850771078
 21
43.5653895684
  0
ELLIPSE
  5
461
100
AcDbEntity
  8
A_RUNDUNGEN
100
AcDbEllipse
 62
7
  6
CONTINUOUS
 10
76.3612207684
 20
26.7136475649
 30
0.0
 11
-0.3535601218
 21
-0.3535601218
 31
0.0
 40
0.9999809617
 41
-0.7853886442
 42
0.7853886442
  0
ELLIPSE
  5
462
100
AcDbEntity
  8
A_RUNDUNGEN
100
AcDbEllipse
 62
7
  6
CONTINUOUS
 10
77.6112326676
 20
33.1417011469
 30
0.0
 11
-0.5956397854
 21
1.6456660131
 31
0.0
 40
0.9999178255
 41
0.8220536894
 42
1.2234940964
  0
ELLIPSE
  5
463
100
AcDbEntity
  8
A_RUNDUNGEN
100
AcDbEllipse
 62
7
  6
CONTINUOUS
 10
75.7680584687
 20
34.3951052208
 30
0.0
 11
0.0000043813
 21
0.6398313272
 31
0.0
 40
0.0017048695
 41
-4.7083725047
 42
-4.3065801284
  0
ELLIPSE
  5
464
100
AcDbEntity
  8
A_RUNDUNGEN
100
AcDbEllipse
 62
7
  6
CONTINUOUS
 10
76.2669723906
 20
56.1062996153
 30
0.0
 11
-0.3535601218
 21
0.3535601218
 31
0.0
 40
0.9999809617
 41
-0.7853886442
 42
0.4305805854
  0
ELLIPSE
  5
465
100
AcDbEntity
  8
A_RUNDUNGEN
100
AcDbEllipse
 62
7
  6
CONTINUOUS
 10
106.8506028134
 20
54.4062996153
 30
0.0
 11
-0.1913438501
 21
-0.4619449181
 31
0.0
 40
0.9999888475
 41
2.7488975149
 42
3.5342877923
  0
ELLIPSE
  5
466
100
AcDbEntity
  8
A_RUNDUNGEN
100
AcDbEllipse
 62
7
  6
CONTINUOUS
 10
108.0538728188
 20
53.2030296098
 30
0.0
 11
-0.4619449181
 21
-0.1913438501
 31
0.0
 40
0.9999888475
 41
2.7488975149
 42
3.5342877923
  0
ELLIPSE
  5
467
100
AcDbEntity
  8
A_RUNDUNGEN
100
AcDbEllipse
 62
7
  6
CONTINUOUS
 10
108.0538728188
 20
38.7167291925
 30
0.0
 11
0.4619449181
 21
-0.1913438501
 31
0.0
 40
0.9999888475
 41
-0.3926951387
 42
0.3926951387
  0
ELLIPSE
  5
468
100
AcDbEntity
  8
A_RUNDUNGEN
100
AcDbEllipse
 62
7
  6
CONTINUOUS
 10
100.1648203188
 20
55.4063091346
 30
0.0
 11
0.1913438501
 21
0.4619449181
 31
0.0
 40
0.9999888475
 41
-3.5342877923
 42
-2.7488975149
  0
ELLIPSE
  5
469
100
AcDbEntity
  8
A_RUNDUNGEN
100
AcDbEllipse
 62
7
  6
CONTINUOUS
 10
99.5687619047
 20
29.0193896677
 30
0.0
 11
-0.3187698947
 21
0.3852191236
 31
0.0
 40
0.9999839624
 41
-0.6912795335
 42
0.6702170349
  0
ENDSEC
  0
SECTION
  2
OBJECTS
  0
DICTIONARY
  5
46A
100
AcDbDictionary
  3
ACAD_GROUP
350
46B
  3
ACAD_MLINESTYLE
350
46C
  0
DICTIONARY
  5
46B
102
{ACAD_REACTORS
330
46A
102
}
100
AcDbDictionary
  0
DICTIONARY
  5
46C
102
{ACAD_REACTORS
330
46A
102
}
100
AcDbDictionary
  3
STANDARD
350
46D
  0
MLINESTYLE
  5
46D
102
{ACAD_REACTORS
330
46C
102
}
100
AcDbMlineStyle
  2
STANDARD
 70
0
  3

 62
256
 51
90.0
 52
90.0
 71
2
 49
0.5
 62
256
  6
BYLAYER
 49
-0.5
 62
256
  6
BYLAYER
  0
ENDSEC
  0
EOF
