999
DXF file: d:\tmp\workingDir\0000104229\5_400696_0_00000_mkt_q_03_01.dxf
999
Pro/ENGINEER 2016380 by Parametric Technology Corporation
  0
SECTION
  2
HEADER
  9
$ACADVER
  1
AC1014
  9
$DWGCODEPAGE
  3
ANSI_1252
  9
$EXTMAX
 10
145.034
 20
100.0
 30
0.0
  9
$EXTMIN
 10
0.0
 20
0.0
 30
0.0
  9
$LIMMIN
 10
0.0
 20
0.0
  9
$LIMMAX
 10
145.034
 20
100.0
  9
$VIEWCTR
 10
72.517
 20
50.0
  9
$VIEWSIZE
 40
100.0
  9
$CLAYER
  8
0
  9
$LTSCALE
 40
7.97687
  9
$CELTYPE
  6
BYLAYER
  9
$DIMSCALE
 40
1.0
  9
$DIMASZ
 40
3.5
  9
$DIMEXO
 40
0.0
  9
$DIMDLI
 40
5.511292
  9
$DIMEXE
 40
2.0
  9
$DIMCEN
 40
1.305306
  9
$DIMLFAC
 40
1.0
  9
$DIMBLK
  1
_ARROW_FILLED
  9
$DIMALT
 70
0
  9
$DIMALTF
 40
25.4
  9
$DIMTXT
 40
3.5
  9
$DIMTOL
 70
1
  9
$DIMLIM
 70
0
  9
$DIMTFAC
 40
1.0
  9
$DIMTP
 40
0.01
  9
$DIMTM
 40
0.01
  9
$DIMGAP
 40
0.625
  9
$AUNITS
 70
0
  9
$PDMODE
 70
0
  9
$PDSIZE
 40
0.04
  9
$HANDSEED
  5
4EE
  9
$TILEMODE
 70
1
  9
$MEASUREMENT
 70
1
  0
ENDSEC
  0
SECTION
  2
CLASSES
  0
ENDSEC
  0
SECTION
  2
TABLES
  0
TABLE
  2
VPORT
  5
8
100
AcDbSymbolTable
 70
2
  0
VPORT
  5
1F4
100
AcDbSymbolTableRecord
100
AcDbViewportTableRecord
  2
*ACTIVE
 70
0
 10
0.0
 20
0.0
 11
1.0
 21
1.0
 12
72.517
 22
50.0
 13
0.0
 23
0.0
 14
1.0
 24
1.0
 15
0.0
 25
0.0
 16
0.0
 26
0.0
 36
1.0
 17
0.0
 27
0.0
 37
0.0
 40
100.0
 41
1.45034
 42
50.0
 43
0.0
 44
0.0
 50
0.0
 51
0.0
 71
0
 72
100
 73
1
 74
1
 75
0
 76
0
 77
0
 78
0
  0
ENDTAB
  0
TABLE
  2
LTYPE
  5
5
100
AcDbSymbolTable
 70
6
  0
LTYPE
  5
14
100
AcDbSymbolTableRecord
100
AcDbLinetypeTableRecord
  2
BYBLOCK
 70
0
  3

 72
65
 73
0
 40
0.0
  0
LTYPE
  5
15
100
AcDbSymbolTableRecord
100
AcDbLinetypeTableRecord
  2
BYLAYER
 70
0
  3

 72
65
 73
0
 40
0.0
  0
LTYPE
  5
16
100
AcDbSymbolTableRecord
100
AcDbLinetypeTableRecord
  2
CONTINUOUS
 70
64
  3
Solid line
 72
65
 73
0
 40
0.0
  0
LTYPE
  5
1F5
100
AcDbSymbolTableRecord
100
AcDbLinetypeTableRecord
  2
CENTER
 70
64
  3
____ _ ____ _ ____ _ ____ _ ____ _ ____ _ ____
 72
65
 73
4
 40
0.6
 49
0.375
 74
0
 49
-0.075
 74
0
 49
0.075
 74
0
 49
-0.075
 74
0
  0
LTYPE
  5
1F6
100
AcDbSymbolTableRecord
100
AcDbLinetypeTableRecord
  2
HIDDEN
 70
64
  3
- - - - - - - - - - - - - - - - - - - -
 72
65
 73
2
 40
0.2
 49
0.1
 74
0
 49
-0.1
 74
0
  0
LTYPE
  5
1F7
100
AcDbSymbolTableRecord
100
AcDbLinetypeTableRecord
  2
PHANTOM
 70
64
  3
_____ _ _ _____ _ _ _____ _ _ _____
 72
65
 73
6
 40
0.8
 49
0.45
 74
0
 49
-0.05
 74
0
 49
0.1
 74
0
 49
-0.05
 74
0
 49
0.1
 74
0
 49
-0.05
 74
0
  0
LTYPE
  5
1F8
100
AcDbSymbolTableRecord
100
AcDbLinetypeTableRecord
  2
DOT
 70
64
  3
. . . . . . . . . . . . . . . . . . . .
 72
65
 73
2
 40
0.2
 49
0.1
 74
0
 49
-0.1
 74
0
  0
LTYPE
  5
1F9
100
AcDbSymbolTableRecord
100
AcDbLinetypeTableRecord
  2
DASHED
 70
64
  3
- - - - - - - - - - - - - - - - - - - -
 72
65
 73
2
 40
0.2
 49
0.1
 74
0
 49
-0.1
 74
0
  0
ENDTAB
  0
TABLE
  2
LAYER
  5
2
100
AcDbSymbolTable
 70
36
  0
LAYER
  5
10
100
AcDbSymbolTableRecord
100
AcDbLayerTableRecord
  2
0
 70
0
 62
7
  6
CONTINUOUS
  0
LAYER
  5
1FA
100
AcDbSymbolTableRecord
100
AcDbLayerTableRecord
  2
DEFAULT_1
 70
0
 62
7
  6
CENTER
  0
LAYER
  5
1FB
100
AcDbSymbolTableRecord
100
AcDbLayerTableRecord
  2
DEFAULT_2
 70
0
 62
8
  6
HIDDEN
  0
LAYER
  5
1FC
100
AcDbSymbolTableRecord
100
AcDbLayerTableRecord
  2
DEFAULT_3
 70
0
 62
7
  6
PHANTOM
  0
LAYER
  5
1FD
100
AcDbSymbolTableRecord
100
AcDbLayerTableRecord
  2
A_ACHSEN
 70
0
 62
7
  6
CONTINUOUS
  0
LAYER
  5
1FE
100
AcDbSymbolTableRecord
100
AcDbLayerTableRecord
  2
A_BASISEBENEN
 70
0
 62
7
  6
CONTINUOUS
  0
LAYER
  5
1FF
100
AcDbSymbolTableRecord
100
AcDbLayerTableRecord
  2
A_BEMASSUNGEN
 70
0
 62
7
  6
CONTINUOUS
  0
LAYER
  5
200
100
AcDbSymbolTableRecord
100
AcDbLayerTableRecord
  2
A_BOHRUNGEN
 70
0
 62
7
  6
CONTINUOUS
  0
LAYER
  5
201
100
AcDbSymbolTableRecord
100
AcDbLayerTableRecord
  2
A_EBENEN
 70
0
 62
7
  6
CONTINUOUS
  0
LAYER
  5
202
100
AcDbSymbolTableRecord
100
AcDbLayerTableRecord
  2
A_FASEN
 70
0
 62
7
  6
CONTINUOUS
  0
LAYER
  5
203
100
AcDbSymbolTableRecord
100
AcDbLayerTableRecord
  2
A_FLAECHEN
 70
0
 62
7
  6
CONTINUOUS
  0
LAYER
  5
204
100
AcDbSymbolTableRecord
100
AcDbLayerTableRecord
  2
A_FL_VERBAENDE
 70
0
 62
7
  6
CONTINUOUS
  0
LAYER
  5
205
100
AcDbSymbolTableRecord
100
AcDbLayerTableRecord
  2
A_KURVEN
 70
0
 62
7
  6
CONTINUOUS
  0
LAYER
  5
206
100
AcDbSymbolTableRecord
100
AcDbLayerTableRecord
  2
A_NOTIZEN_SYMB
 70
0
 62
7
  6
CONTINUOUS
  0
LAYER
  5
207
100
AcDbSymbolTableRecord
100
AcDbLayerTableRecord
  2
A_PUNKTE
 70
0
 62
7
  6
CONTINUOUS
  0
LAYER
  5
208
100
AcDbSymbolTableRecord
100
AcDbLayerTableRecord
  2
A_RUNDUNGEN
 70
0
 62
7
  6
CONTINUOUS
  0
LAYER
  5
209
100
AcDbSymbolTableRecord
100
AcDbLayerTableRecord
  2
BASISEBENEN
 70
0
 62
7
  6
CONTINUOUS
  0
LAYER
  5
20A
100
AcDbSymbolTableRecord
100
AcDbLayerTableRecord
  2
XSEC_DATUMS
 70
0
 62
7
  6
CONTINUOUS
  0
ENDTAB
  0
TABLE
  2
STYLE
  5
3
100
AcDbSymbolTable
 70
1
  0
STYLE
  5
11
100
AcDbSymbolTableRecord
100
AcDbTextStyleTableRecord
  2
STANDARD
 70
0
 40
0.0
 41
1.0
 50
0.0
 71
0
 42
0.2
  3
txt
  4

  0
STYLE
  5
20B
100
AcDbSymbolTableRecord
100
AcDbTextStyleTableRecord
  2
TEXTSTYLE_1
 70
0
 40
0.0
 41
0.8
 50
0.0
 71
0
 42
0.2
  3
gdt
  4

  0
STYLE
  5
20C
100
AcDbSymbolTableRecord
100
AcDbTextStyleTableRecord
  2
TEXTSTYLE_2
 70
0
 40
0.0
 41
1.0
 50
0.0
 71
0
 42
0.2
  3
txt
  4

  0
ENDTAB
  0
TABLE
  2
VIEW
  5
6
100
AcDbSymbolTable
 70
0
  0
ENDTAB
  0
TABLE
  2
UCS
  5
7
100
AcDbSymbolTable
 70
0
  0
ENDTAB
  0
TABLE
  2
APPID
  5
9
100
AcDbSymbolTable
 70
1
  0
APPID
  5
20D
100
AcDbSymbolTableRecord
100
AcDbRegAppTableRecord
  2
ACAD
 70
0
  0
ENDTAB
  0
TABLE
  2
BLOCK_RECORD
  5
1
100
AcDbSymbolTable
 70
0
  0
BLOCK_RECORD
  5
1F
100
AcDbSymbolTableRecord
100
AcDbBlockTableRecord
  2
*MODEL_SPACE
  0
BLOCK_RECORD
  5
1B
100
AcDbSymbolTableRecord
100
AcDbBlockTableRecord
  2
*PAPER_SPACE
  0
BLOCK_RECORD
  5
20E
100
AcDbSymbolTableRecord
100
AcDbBlockTableRecord
  2
_ARROW_FILLED
  0
BLOCK_RECORD
  5
20F
100
AcDbSymbolTableRecord
100
AcDbBlockTableRecord
  2
*D0
  0
BLOCK_RECORD
  5
210
100
AcDbSymbolTableRecord
100
AcDbBlockTableRecord
  2
*D1
  0
BLOCK_RECORD
  5
211
100
AcDbSymbolTableRecord
100
AcDbBlockTableRecord
  2
*D2
  0
BLOCK_RECORD
  5
212
100
AcDbSymbolTableRecord
100
AcDbBlockTableRecord
  2
*D3
  0
BLOCK_RECORD
  5
213
100
AcDbSymbolTableRecord
100
AcDbBlockTableRecord
  2
*D4
  0
BLOCK_RECORD
  5
214
100
AcDbSymbolTableRecord
100
AcDbBlockTableRecord
  2
*D5
  0
BLOCK_RECORD
  5
215
100
AcDbSymbolTableRecord
100
AcDbBlockTableRecord
  2
*D6
  0
BLOCK_RECORD
  5
216
100
AcDbSymbolTableRecord
100
AcDbBlockTableRecord
  2
*D7
  0
ENDTAB
  0
TABLE
  2
DIMSTYLE
  5
A
100
AcDbSymbolTable
 70
1
  0
DIMSTYLE
105
217
100
AcDbSymbolTableRecord
100
AcDbDimStyleTableRecord
  2
STANDARD
 70
0
  3

  4

  5
_ARROW_FILLED
  6
_ARROW_FILLED
  7
_ARROW_FILLED
 40
1.0
 41
3.5
 42
0.0
 43
0.38
 44
2.0
 45
0.0
 46
0.0
 47
0.01
 48
0.01
140
3.5
141
0.09
142
0.0
143
25.4
144
1.0
145
0.0
146
1.0
147
0.625
 71
1.0
 72
0.0
 73
0
 74
0
 75
0
 76
0
 77
1
 78
8
170
0
171
1
172
0
173
0
174
0
175
0
176
0
177
0
178
5
270
2
271
2
272
2
273
2
274
2
275
0
280
0
281
0
282
0
283
1
284
8
285
0
286
0
287
3
288
0
340
11
  0
DIMSTYLE
105
218
100
AcDbSymbolTableRecord
100
AcDbDimStyleTableRecord
  2
DIMSTYLE_1
 70
0
  3

  4

  5
_ARROW_FILLED
  6
_ARROW_FILLED
  7
_ARROW_FILLED
 40
1.0
 41
3.5
 42
0.0
 43
0.38
 44
2.0
 45
0.0
 46
0.0
 47
0.3
 48
0.3
140
3.5
141
0.09
142
0.0
143
25.4
144
1.0
145
0.0
146
1.0
147
0.875
 71
0.0
 72
0.0
 73
0
 74
0
 75
0
 76
0
 77
1
 78
8
170
0
171
1
172
0
173
0
174
0
175
0
176
0
177
0
178
5
270
2
271
4
272
-1
273
2
274
2
275
0
280
0
281
0
282
0
283
1
284
8
285
0
286
0
287
3
288
0
340
20C
  0
DIMSTYLE
105
219
100
AcDbSymbolTableRecord
100
AcDbDimStyleTableRecord
  2
DIMSTYLE_2
 70
0
  3

  4

  5
_ARROW_FILLED
  6
_ARROW_FILLED
  7
_ARROW_FILLED
 40
1.0
 41
3.5
 42
0.0
 43
0.38
 44
2.0
 45
0.0
 46
0.0
 47
0.1
 48
0.1
140
3.5
141
0.09
142
0.0
143
25.4
144
1.0
145
0.0
146
1.0
147
0.875
 71
0.0
 72
0.0
 73
0
 74
0
 75
0
 76
0
 77
1
 78
8
170
0
171
1
172
0
173
0
174
0
175
0
176
0
177
0
178
5
270
2
271
4
272
-1
273
2
274
2
275
0
280
0
281
0
282
0
283
1
284
8
285
0
286
0
287
3
288
0
340
20C
  0
DIMSTYLE
105
21A
100
AcDbSymbolTableRecord
100
AcDbDimStyleTableRecord
  2
DIMSTYLE_3
 70
0
  3

  4

  5
_ARROW_FILLED
  6
_ARROW_FILLED
  7
_ARROW_FILLED
 40
1.0
 41
3.5
 42
0.0
 43
0.38
 44
2.0
 45
0.0
 46
0.0
 47
0.3
 48
0.3
140
3.5
141
0.09
142
0.0
143
25.4
144
1.0
145
0.0
146
1.0
147
0.875
 71
0.0
 72
0.0
 73
0
 74
0
 75
0
 76
0
 77
1
 78
8
170
0
171
1
172
0
173
0
174
0
175
0
176
0
177
0
178
5
270
2
271
0
272
-1
273
2
274
2
275
0
280
0
281
0
282
0
283
1
284
8
285
0
286
0
287
3
288
0
340
20C
  0
ENDTAB
  0
ENDSEC
  0
SECTION
  2
BLOCKS
  0
BLOCK
  5
20
100
AcDbEntity
  8
0
100
AcDbBlockBegin
  2
*MODEL_SPACE
 70
0
 10
0.0
 20
0.0
 30
0.0
  3
*MODEL_SPACE
  1

  0
ENDBLK
  5
21
100
AcDbEntity
  8
0
100
AcDbBlockEnd
  0
BLOCK
  5
1C
100
AcDbEntity
  8
0
100
AcDbBlockBegin
  2
*PAPER_SPACE
 70
0
 10
0.0
 20
0.0
 30
0.0
  3
*PAPER_SPACE
  1

  0
ENDBLK
  5
1D
100
AcDbEntity
  8
0
100
AcDbBlockEnd
  0
BLOCK
  5
21B
100
AcDbEntity
  8
0
100
AcDbBlockBegin
  2
_ARROW_FILLED
 70
64
 10
0.0
 20
0.0
  3
_ARROW_FILLED
  1

  0
SOLID
  5
21C
100
AcDbEntity
  8
0
  6
BYBLOCK
 62
0
100
AcDbTrace
 10
0.0
 20
0.0
 11
-1.0
 21
0.1428571429
 12
-1.0
 22
-0.1428571429
 13
-1.0
 23
-0.1428571429
  0
ENDBLK
  5
21D
100
AcDbEntity
  8
0
  6
BYBLOCK
 62
0
100
AcDbBlockEnd
  0
BLOCK
  5
21E
100
AcDbEntity
  8
A_BEMASSUNGEN
100
AcDbBlockBegin
 62
2
  6
CONTINUOUS
  2
*D0
 70
65
 10
0.0
 20
0.0
  3
*D0
  1

  0
MTEXT
  5
21F
100
AcDbEntity
  8
A_BEMASSUNGEN
100
AcDbMText
 62
5
  6
CONTINUOUS
  7
TEXTSTYLE_2
 71
2
 72
1
 10
83.9034281472
 20
9.990747606
 30
0.0
 11
1.0
 21
0.0
 31
0.0
  1
36.5
 40
3.5
 41
14.625
  0
LINE
  5
220
100
AcDbEntity
  8
A_BEMASSUNGEN
100
AcDbLine
 62
2
  6
CONTINUOUS
 10
65.6534281472
 20
22.1304305353
 11
65.6534281472
 21
3.615747606
  0
LINE
  5
221
100
AcDbEntity
  8
A_BEMASSUNGEN
100
AcDbLine
 62
2
  6
CONTINUOUS
 10
102.1534281472
 20
26.1304305353
 11
102.1534281472
 21
3.615747606
  0
LINE
  5
222
100
AcDbEntity
  8
A_BEMASSUNGEN
100
AcDbLine
 62
2
  6
CONTINUOUS
 10
65.6534281472
 20
5.615747606
 11
83.9034281472
 21
5.615747606
  0
LINE
  5
223
100
AcDbEntity
  8
A_BEMASSUNGEN
100
AcDbLine
 62
2
  6
CONTINUOUS
 10
102.1534281472
 20
5.615747606
 11
83.9034281472
 21
5.615747606
  0
INSERT
  5
224
100
AcDbEntity
  8
A_BEMASSUNGEN
100
AcDbBlockReference
 62
2
  6
CONTINUOUS
  2
_ARROW_FILLED
 10
65.6534281472
 20
5.615747606
 41
3.5
 42
3.5
 43
3.5
 50
180.0
  0
INSERT
  5
225
100
AcDbEntity
  8
A_BEMASSUNGEN
100
AcDbBlockReference
 62
2
  6
CONTINUOUS
  2
_ARROW_FILLED
 10
102.1534281472
 20
5.615747606
 41
3.5
 42
3.5
 43
3.5
  0
ENDBLK
  5
226
100
AcDbEntity
  8
0
  6
BYBLOCK
 62
0
100
AcDbBlockEnd
  0
BLOCK
  5
227
100
AcDbEntity
  8
A_BEMASSUNGEN
100
AcDbBlockBegin
 62
2
  6
CONTINUOUS
  2
*D1
 70
65
 10
0.0
 20
0.0
  3
*D1
  1

  0
MTEXT
  5
228
100
AcDbEntity
  8
A_BEMASSUNGEN
100
AcDbMText
 62
5
  6
CONTINUOUS
  7
TEXTSTYLE_2
 71
3
 72
1
 10
134.5468360864
 20
18.8929242002
 30
0.0
 11
0.0
 21
1.0
 31
0.0
  1
4
 40
3.5
 41
4.125
  0
LINE
  5
229
100
AcDbEntity
  8
A_BEMASSUNGEN
100
AcDbLine
 62
2
  6
CONTINUOUS
 10
120.6534281472
 20
22.1304305353
 11
140.9218360864
 21
22.1304305353
  0
LINE
  5
22A
100
AcDbEntity
  8
A_BEMASSUNGEN
100
AcDbLine
 62
2
  6
CONTINUOUS
 10
102.1534281472
 20
26.1304305353
 11
126.2479532348
 21
26.1304305353
  0
LINE
  5
22B
100
AcDbEntity
  8
A_BEMASSUNGEN
100
AcDbLine
 62
2
  6
CONTINUOUS
 10
131.3986201537
 20
26.1304305353
 11
140.9218360864
 21
26.1304305353
  0
LINE
  5
22C
100
AcDbEntity
  8
A_BEMASSUNGEN
100
AcDbLine
 62
2
  6
CONTINUOUS
 10
138.9218360864
 20
22.1304305353
 11
138.9218360864
 21
16.1429242002
  0
LINE
  5
22D
100
AcDbEntity
  8
A_BEMASSUNGEN
100
AcDbLine
 62
2
  6
CONTINUOUS
 10
138.9218360864
 20
16.1429242002
 11
138.9218360864
 21
24.1304305353
  0
LINE
  5
22E
100
AcDbEntity
  8
A_BEMASSUNGEN
100
AcDbLine
 62
2
  6
CONTINUOUS
 10
138.9218360864
 20
26.1304305353
 11
138.9218360864
 21
33.6304305353
  0
LINE
  5
22F
100
AcDbEntity
  8
A_BEMASSUNGEN
100
AcDbLine
 62
2
  6
CONTINUOUS
 10
138.9218360864
 20
33.6304305353
 11
138.9218360864
 21
24.1304305353
  0
INSERT
  5
230
100
AcDbEntity
  8
A_BEMASSUNGEN
100
AcDbBlockReference
 62
2
  6
CONTINUOUS
  2
_ARROW_FILLED
 10
138.9218360864
 20
22.1304305353
 41
3.5
 42
3.5
 43
3.5
 50
90.0
  0
INSERT
  5
231
100
AcDbEntity
  8
A_BEMASSUNGEN
100
AcDbBlockReference
 62
2
  6
CONTINUOUS
  2
_ARROW_FILLED
 10
138.9218360864
 20
26.1304305353
 41
3.5
 42
3.5
 43
3.5
 50
270.0
  0
ENDBLK
  5
232
100
AcDbEntity
  8
0
  6
BYBLOCK
 62
0
100
AcDbBlockEnd
  0
BLOCK
  5
233
100
AcDbEntity
  8
A_BEMASSUNGEN
100
AcDbBlockBegin
 62
2
  6
CONTINUOUS
  2
*D2
 70
65
 10
0.0
 20
0.0
  3
*D2
  1

  0
MTEXT
  5
234
100
AcDbEntity
  8
A_BEMASSUNGEN
100
AcDbMText
 62
5
  6
CONTINUOUS
  7
TEXTSTYLE_2
 71
2
 72
1
 10
134.5468360864
 20
42.1304305353
 30
0.0
 11
0.0
 21
1.0
 31
0.0
  1
32
 40
3.5
 41
7.875
  0
LINE
  5
235
100
AcDbEntity
  8
A_BEMASSUNGEN
100
AcDbLine
 62
2
  6
CONTINUOUS
 10
102.1534281472
 20
58.1304305353
 11
140.9218360864
 21
58.1304305353
  0
LINE
  5
236
100
AcDbEntity
  8
A_BEMASSUNGEN
100
AcDbLine
 62
2
  6
CONTINUOUS
 10
131.6462880391
 20
26.1304305353
 11
140.9218360864
 21
26.1304305353
  0
LINE
  5
237
100
AcDbEntity
  8
A_BEMASSUNGEN
100
AcDbLine
 62
2
  6
CONTINUOUS
 10
138.9218360864
 20
58.1304305353
 11
138.9218360864
 21
42.1304305353
  0
LINE
  5
238
100
AcDbEntity
  8
A_BEMASSUNGEN
100
AcDbLine
 62
2
  6
CONTINUOUS
 10
138.9218360864
 20
26.1304305353
 11
138.9218360864
 21
42.1304305353
  0
INSERT
  5
239
100
AcDbEntity
  8
A_BEMASSUNGEN
100
AcDbBlockReference
 62
2
  6
CONTINUOUS
  2
_ARROW_FILLED
 10
138.9218360864
 20
58.1304305353
 41
3.5
 42
3.5
 43
3.5
 50
90.0
  0
INSERT
  5
23A
100
AcDbEntity
  8
A_BEMASSUNGEN
100
AcDbBlockReference
 62
2
  6
CONTINUOUS
  2
_ARROW_FILLED
 10
138.9218360864
 20
26.1304305353
 41
3.5
 42
3.5
 43
3.5
 50
270.0
  0
ENDBLK
  5
23B
100
AcDbEntity
  8
0
  6
BYBLOCK
 62
0
100
AcDbBlockEnd
  0
BLOCK
  5
23C
100
AcDbEntity
  8
A_BEMASSUNGEN
100
AcDbBlockBegin
 62
2
  6
CONTINUOUS
  2
*D3
 70
65
 10
0.0
 20
0.0
  3
*D3
  1

  0
MTEXT
  5
23D
100
AcDbEntity
  8
A_BEMASSUNGEN
100
AcDbMText
 62
5
  6
CONTINUOUS
  7
TEXTSTYLE_2
 71
1
 72
1
 10
70.0806661058
 20
18.195555445
 30
0.0
 11
1.0
 21
0.0
 31
0.0
  1
3.5
 40
3.5
 41
10.5
  0
LINE
  5
23E
100
AcDbEntity
  8
A_BEMASSUNGEN
100
AcDbLine
 62
2
  6
CONTINUOUS
 10
62.1534422643
 20
23.6304303036
 11
62.1534422643
 21
11.820555445
  0
LINE
  5
23F
100
AcDbEntity
  8
A_BEMASSUNGEN
100
AcDbLine
 62
2
  6
CONTINUOUS
 10
65.6534281472
 20
22.1304305353
 11
65.6534281472
 21
11.820555445
  0
LINE
  5
240
100
AcDbEntity
  8
A_BEMASSUNGEN
100
AcDbLine
 62
2
  6
CONTINUOUS
 10
62.1534422643
 20
13.820555445
 11
54.6534422643
 21
13.820555445
  0
LINE
  5
241
100
AcDbEntity
  8
A_BEMASSUNGEN
100
AcDbLine
 62
2
  6
CONTINUOUS
 10
54.6534422643
 20
13.820555445
 11
63.9034352058
 21
13.820555445
  0
LINE
  5
242
100
AcDbEntity
  8
A_BEMASSUNGEN
100
AcDbLine
 62
2
  6
CONTINUOUS
 10
65.6534281472
 20
13.820555445
 11
77.0806661058
 21
13.820555445
  0
LINE
  5
243
100
AcDbEntity
  8
A_BEMASSUNGEN
100
AcDbLine
 62
2
  6
CONTINUOUS
 10
77.0806661058
 20
13.820555445
 11
63.9034352058
 21
13.820555445
  0
INSERT
  5
244
100
AcDbEntity
  8
A_BEMASSUNGEN
100
AcDbBlockReference
 62
2
  6
CONTINUOUS
  2
_ARROW_FILLED
 10
62.1534422643
 20
13.820555445
 41
3.5
 42
3.5
 43
3.5
  0
INSERT
  5
245
100
AcDbEntity
  8
A_BEMASSUNGEN
100
AcDbBlockReference
 62
2
  6
CONTINUOUS
  2
_ARROW_FILLED
 10
65.6534281472
 20
13.820555445
 41
3.5
 42
3.5
 43
3.5
 50
180.0
  0
ENDBLK
  5
246
100
AcDbEntity
  8
0
  6
BYBLOCK
 62
0
100
AcDbBlockEnd
  0
BLOCK
  5
247
100
AcDbEntity
  8
A_BEMASSUNGEN
100
AcDbBlockBegin
 62
2
  6
CONTINUOUS
  2
*D4
 70
65
 10
0.0
 20
0.0
  3
*D4
  1

  0
MTEXT
  5
248
100
AcDbEntity
  8
A_BEMASSUNGEN
100
AcDbMText
 62
5
  6
CONTINUOUS
  7
TEXTSTYLE_2
 71
2
 72
1
 10
43.1534422643
 20
9.990747606
 30
0.0
 11
1.0
 21
0.0
 31
0.0
  1
38
 40
3.5
 41
7.875
  0
LINE
  5
249
100
AcDbEntity
  8
A_BEMASSUNGEN
100
AcDbLine
 62
2
  6
CONTINUOUS
 10
62.1534422643
 20
23.6304303036
 11
62.1534422643
 21
3.615747606
  0
LINE
  5
24A
100
AcDbEntity
  8
A_BEMASSUNGEN
100
AcDbLine
 62
2
  6
CONTINUOUS
 10
24.1534422643
 20
29.9804303036
 11
24.1534422643
 21
3.615747606
  0
LINE
  5
24B
100
AcDbEntity
  8
A_BEMASSUNGEN
100
AcDbLine
 62
2
  6
CONTINUOUS
 10
62.1534422643
 20
5.615747606
 11
43.1534422643
 21
5.615747606
  0
LINE
  5
24C
100
AcDbEntity
  8
A_BEMASSUNGEN
100
AcDbLine
 62
2
  6
CONTINUOUS
 10
24.1534422643
 20
5.615747606
 11
43.1534422643
 21
5.615747606
  0
INSERT
  5
24D
100
AcDbEntity
  8
A_BEMASSUNGEN
100
AcDbBlockReference
 62
2
  6
CONTINUOUS
  2
_ARROW_FILLED
 10
62.1534422643
 20
5.615747606
 41
3.5
 42
3.5
 43
3.5
  0
INSERT
  5
24E
100
AcDbEntity
  8
A_BEMASSUNGEN
100
AcDbBlockReference
 62
2
  6
CONTINUOUS
  2
_ARROW_FILLED
 10
24.1534422643
 20
5.615747606
 41
3.5
 42
3.5
 43
3.5
 50
180.0
  0
ENDBLK
  5
24F
100
AcDbEntity
  8
0
  6
BYBLOCK
 62
0
100
AcDbBlockEnd
  0
BLOCK
  5
250
100
AcDbEntity
  8
A_BEMASSUNGEN
100
AcDbBlockBegin
 62
2
  6
CONTINUOUS
  2
*D5
 70
65
 10
0.0
 20
0.0
  3
*D5
  1

  0
MTEXT
  5
251
100
AcDbEntity
  8
A_BEMASSUNGEN
100
AcDbMText
 62
5
  6
CONTINUOUS
  7
TEXTSTYLE_2
 71
3
 72
1
 10
5.7784422643
 20
16.3180948833
 30
0.0
 11
0.0
 21
1.0
 31
0.0
  1
5
 40
3.5
 41
3.75
  0
LINE
  5
252
100
AcDbEntity
  8
A_BEMASSUNGEN
100
AcDbLine
 62
2
  6
CONTINUOUS
 10
22.6534422643
 20
21.1304303036
 11
8.1534422643
 21
21.1304303036
  0
LINE
  5
253
100
AcDbEntity
  8
A_BEMASSUNGEN
100
AcDbLine
 62
2
  6
CONTINUOUS
 10
60.6534422643
 20
26.1304303036
 11
8.1534422643
 21
26.1304303036
  0
LINE
  5
254
100
AcDbEntity
  8
A_BEMASSUNGEN
100
AcDbLine
 62
2
  6
CONTINUOUS
 10
10.1534422643
 20
21.1304303036
 11
10.1534422643
 21
13.8180948833
  0
LINE
  5
255
100
AcDbEntity
  8
A_BEMASSUNGEN
100
AcDbLine
 62
2
  6
CONTINUOUS
 10
10.1534422643
 20
13.8180948833
 11
10.1534422643
 21
23.6304303036
  0
LINE
  5
256
100
AcDbEntity
  8
A_BEMASSUNGEN
100
AcDbLine
 62
2
  6
CONTINUOUS
 10
10.1534422643
 20
26.1304303036
 11
10.1534422643
 21
33.6304303036
  0
LINE
  5
257
100
AcDbEntity
  8
A_BEMASSUNGEN
100
AcDbLine
 62
2
  6
CONTINUOUS
 10
10.1534422643
 20
33.6304303036
 11
10.1534422643
 21
23.6304303036
  0
INSERT
  5
258
100
AcDbEntity
  8
A_BEMASSUNGEN
100
AcDbBlockReference
 62
2
  6
CONTINUOUS
  2
_ARROW_FILLED
 10
10.1534422643
 20
21.1304303036
 41
3.5
 42
3.5
 43
3.5
 50
90.0
  0
INSERT
  5
259
100
AcDbEntity
  8
A_BEMASSUNGEN
100
AcDbBlockReference
 62
2
  6
CONTINUOUS
  2
_ARROW_FILLED
 10
10.1534422643
 20
26.1304303036
 41
3.5
 42
3.5
 43
3.5
 50
270.0
  0
ENDBLK
  5
25A
100
AcDbEntity
  8
0
  6
BYBLOCK
 62
0
100
AcDbBlockEnd
  0
BLOCK
  5
25B
100
AcDbEntity
  8
A_BEMASSUNGEN
100
AcDbBlockBegin
 62
2
  6
CONTINUOUS
  2
*D6
 70
65
 10
0.0
 20
0.0
  3
*D6
  1

  0
MTEXT
  5
25C
100
AcDbEntity
  8
A_BEMASSUNGEN
100
AcDbMText
 62
5
  6
CONTINUOUS
  7
TEXTSTYLE_2
 71
2
 72
1
 10
5.7784422643
 20
42.1304303036
 30
0.0
 11
0.0
 21
1.0
 31
0.0
  1
32
 40
3.5
 41
7.875
  0
LINE
  5
25D
100
AcDbEntity
  8
A_BEMASSUNGEN
100
AcDbLine
 62
2
  6
CONTINUOUS
 10
60.6534422643
 20
58.1304303036
 11
8.1534422643
 21
58.1304303036
  0
LINE
  5
25E
100
AcDbEntity
  8
A_BEMASSUNGEN
100
AcDbLine
 62
2
  6
CONTINUOUS
 10
60.6534422643
 20
26.1304303036
 11
8.1534422643
 21
26.1304303036
  0
LINE
  5
25F
100
AcDbEntity
  8
A_BEMASSUNGEN
100
AcDbLine
 62
2
  6
CONTINUOUS
 10
10.1534422643
 20
58.1304303036
 11
10.1534422643
 21
42.1304303036
  0
LINE
  5
260
100
AcDbEntity
  8
A_BEMASSUNGEN
100
AcDbLine
 62
2
  6
CONTINUOUS
 10
10.1534422643
 20
26.1304303036
 11
10.1534422643
 21
42.1304303036
  0
INSERT
  5
261
100
AcDbEntity
  8
A_BEMASSUNGEN
100
AcDbBlockReference
 62
2
  6
CONTINUOUS
  2
_ARROW_FILLED
 10
10.1534422643
 20
58.1304303036
 41
3.5
 42
3.5
 43
3.5
 50
90.0
  0
INSERT
  5
262
100
AcDbEntity
  8
A_BEMASSUNGEN
100
AcDbBlockReference
 62
2
  6
CONTINUOUS
  2
_ARROW_FILLED
 10
10.1534422643
 20
26.1304303036
 41
3.5
 42
3.5
 43
3.5
 50
270.0
  0
ENDBLK
  5
263
100
AcDbEntity
  8
0
  6
BYBLOCK
 62
0
100
AcDbBlockEnd
  0
BLOCK
  5
264
100
AcDbEntity
  8
A_BEMASSUNGEN
100
AcDbBlockBegin
 62
2
  6
CONTINUOUS
  2
*D7
 70
65
 10
0.0
 20
0.0
  3
*D7
  1

  0
MTEXT
  5
265
100
AcDbEntity
  8
A_BEMASSUNGEN
100
AcDbMText
 62
5
  6
CONTINUOUS
  7
TEXTSTYLE_2
 71
3
 72
1
 10
125.0711734257
 20
17.2019818412
 30
0.0
 11
0.0
 21
1.0
 31
0.0
  1
1
 40
3.5
 41
3.0
  0
LINE
  5
266
100
AcDbEntity
  8
A_BEMASSUNGEN
100
AcDbLine
 62
2
  6
CONTINUOUS
 10
120.6534281472
 20
22.1304305353
 11
131.4461734257
 21
22.1304305353
  0
LINE
  5
267
100
AcDbEntity
  8
A_BEMASSUNGEN
100
AcDbLine
 62
2
  6
CONTINUOUS
 10
59.6534422643
 20
21.1304303036
 11
63.998968451
 21
21.1304303036
  0
LINE
  5
268
100
AcDbEntity
  8
A_BEMASSUNGEN
100
AcDbLine
 62
2
  6
CONTINUOUS
 10
67.1740370996
 20
21.1304303036
 11
100.6886506132
 21
21.1304303036
  0
LINE
  5
269
100
AcDbEntity
  8
A_BEMASSUNGEN
100
AcDbLine
 62
2
  6
CONTINUOUS
 10
103.5991302077
 20
21.1304303036
 11
131.4461734257
 21
21.1304303036
  0
LINE
  5
26A
100
AcDbEntity
  8
A_BEMASSUNGEN
100
AcDbLine
 62
2
  6
CONTINUOUS
 10
129.4461734257
 20
22.1304305353
 11
129.4461734257
 21
29.6304305353
  0
LINE
  5
26B
100
AcDbEntity
  8
A_BEMASSUNGEN
100
AcDbLine
 62
2
  6
CONTINUOUS
 10
129.4461734257
 20
29.6304305353
 11
129.4461734257
 21
21.6304304194
  0
LINE
  5
26C
100
AcDbEntity
  8
A_BEMASSUNGEN
100
AcDbLine
 62
2
  6
CONTINUOUS
 10
129.4461734257
 20
21.1304303036
 11
129.4461734257
 21
15.2019818412
  0
LINE
  5
26D
100
AcDbEntity
  8
A_BEMASSUNGEN
100
AcDbLine
 62
2
  6
CONTINUOUS
 10
129.4461734257
 20
15.2019818412
 11
129.4461734257
 21
21.6304304194
  0
INSERT
  5
26E
100
AcDbEntity
  8
A_BEMASSUNGEN
100
AcDbBlockReference
 62
2
  6
CONTINUOUS
  2
_ARROW_FILLED
 10
129.4461734257
 20
22.1304305353
 41
3.5
 42
3.5
 43
3.5
 50
270.0
  0
INSERT
  5
26F
100
AcDbEntity
  8
A_BEMASSUNGEN
100
AcDbBlockReference
 62
2
  6
CONTINUOUS
  2
_ARROW_FILLED
 10
129.4461734257
 20
21.1304303036
 41
3.5
 42
3.5
 43
3.5
 50
90.0
  0
ENDBLK
  5
270
100
AcDbEntity
  8
0
  6
BYBLOCK
 62
0
100
AcDbBlockEnd
  0
ENDSEC
  0
SECTION
  2
ENTITIES
  0
DIMENSION
  5
271
100
AcDbEntity
  8
A_BEMASSUNGEN
100
AcDbDimension
 62
2
  6
CONTINUOUS
  2
*D0
 10
102.1534281472
 20
5.615747606
 11
83.4034287294
 21
5.615747606
 70
160
  3
DIMSTYLE_1
100
AcDbAlignedDimension
 13
65.6534281472
 23
22.1304305353
 14
102.1534281472
 24
26.1304305353
100
AcDbRotatedDimension
  0
DIMENSION
  5
272
100
AcDbEntity
  8
A_BEMASSUNGEN
100
AcDbDimension
 62
2
  6
CONTINUOUS
  2
*D1
 10
138.9218360864
 20
26.1304305353
 11
138.9218360864
 21
17.0179238988
 70
160
  3
DIMSTYLE_2
100
AcDbAlignedDimension
 13
120.6534281472
 23
22.1304305353
 14
102.1534281472
 24
26.1304305353
 50
90.0
100
AcDbRotatedDimension
  0
DIMENSION
  5
273
100
AcDbEntity
  8
A_BEMASSUNGEN
100
AcDbDimension
 62
2
  6
CONTINUOUS
  2
*D2
 10
138.9218360864
 20
26.1304305353
 11
138.9218360864
 21
41.630432284
 70
160
  3
DIMSTYLE_1
100
AcDbAlignedDimension
 13
102.1534281472
 23
58.1304305353
 14
131.6462880391
 24
26.1304305353
 50
270.0
100
AcDbRotatedDimension
  0
DIMENSION
  5
274
100
AcDbEntity
  8
A_BEMASSUNGEN
100
AcDbDimension
 62
2
  6
CONTINUOUS
  2
*D3
 10
65.6534281472
 20
13.820555445
 11
73.0806643194
 21
13.820555445
 70
160
  3
DIMSTYLE_2
100
AcDbAlignedDimension
 13
62.1534422643
 23
23.6304303036
 14
65.6534281472
 24
22.1304305353
100
AcDbRotatedDimension
  0
DIMENSION
  5
275
100
AcDbEntity
  8
A_BEMASSUNGEN
100
AcDbDimension
 62
2
  6
CONTINUOUS
  2
*D4
 10
24.1534422643
 20
5.615747606
 11
42.6534424506
 21
5.615747606
 70
160
  3
DIMSTYLE_3
100
AcDbAlignedDimension
 13
62.1534422643
 23
23.6304303036
 14
24.1534422643
 24
29.9804303036
 50
180.0
100
AcDbRotatedDimension
  0
DIMENSION
  5
276
100
AcDbEntity
  8
A_BEMASSUNGEN
100
AcDbDimension
 62
2
  6
CONTINUOUS
  2
*D5
 10
10.1534422643
 20
26.1304303036
 11
10.1534422643
 21
14.56809473
 70
160
  3
DIMSTYLE_2
100
AcDbAlignedDimension
 13
22.6534422643
 23
21.1304303036
 14
60.6534422643
 24
26.1304303036
 50
90.0
100
AcDbRotatedDimension
  0
DIMENSION
  5
277
100
AcDbEntity
  8
A_BEMASSUNGEN
100
AcDbDimension
 62
2
  6
CONTINUOUS
  2
*D6
 10
10.1534422643
 20
26.1304303036
 11
10.1534422643
 21
41.6304304137
 70
160
  3
DIMSTYLE_1
100
AcDbAlignedDimension
 13
60.6534422643
 23
58.1304303036
 14
60.6534422643
 24
26.1304303036
 50
270.0
100
AcDbRotatedDimension
  0
DIMENSION
  5
278
100
AcDbEntity
  8
A_BEMASSUNGEN
100
AcDbDimension
 62
2
  6
CONTINUOUS
  2
*D7
 10
129.4461734257
 20
21.1304303036
 11
129.4461734257
 21
15.7019816601
 70
160
  3
DIMSTYLE_2
100
AcDbAlignedDimension
 13
120.6534281472
 23
22.1304305353
 14
59.6534422643
 24
21.1304303036
 50
270.0
100
AcDbRotatedDimension
  0
LINE
  5
279
100
AcDbEntity
  8
0
100
AcDbLine
 62
7
  6
CONTINUOUS
 10
26.153461137
 20
25.1875182121
 11
27.4605301729
 21
23.8804491763
  0
LINE
  5
27A
100
AcDbEntity
  8
0
100
AcDbLine
 62
7
  6
CONTINUOUS
 10
20.1534422643
 20
31.1304303036
 11
20.1534422643
 21
23.6304303036
  0
LINE
  5
27B
100
AcDbEntity
  8
0
100
AcDbLine
 62
7
  6
CONTINUOUS
 10
21.6534422643
 20
23.6304303036
 11
21.6534422643
 21
31.1304303036
  0
LINE
  5
27C
100
AcDbEntity
  8
0
100
AcDbLine
 62
7
  6
CONTINUOUS
 10
24.1534422643
 20
54.2804303036
 11
24.1534422643
 21
29.9804303036
  0
LINE
  5
27D
100
AcDbEntity
  8
0
100
AcDbLine
 62
7
  6
CONTINUOUS
 10
25.1534422643
 20
54.2804303036
 11
25.1534422643
 21
29.9804303036
  0
LINE
  5
27E
100
AcDbEntity
  8
0
100
AcDbLine
 62
7
  6
CONTINUOUS
 10
25.1534422643
 20
24.1804303036
 11
25.1534422643
 21
28.5662167412
  0
LINE
  5
27F
100
AcDbEntity
  8
0
100
AcDbLine
 62
7
  6
CONTINUOUS
 10
25.1534422643
 20
55.694643866
 11
25.1534422643
 21
60.0803303036
  0
LINE
  5
280
100
AcDbEntity
  8
0
100
AcDbLine
 62
7
  6
CONTINUOUS
 10
26.1534422643
 20
24.1804303036
 11
26.1534422643
 21
60.0803303036
  0
LINE
  5
281
100
AcDbEntity
  8
0
100
AcDbLine
 62
7
  6
CONTINUOUS
 10
26.7534422643
 20
27.7959501044
 11
26.7534422643
 21
35.0304303036
  0
LINE
  5
282
100
AcDbEntity
  8
A_RUNDUNGEN
100
AcDbLine
 62
7
  6
CONTINUOUS
 10
26.7534422643
 20
35.0304303036
 11
26.7534422643
 21
46.8304303036
  0
LINE
  5
283
100
AcDbEntity
  8
0
100
AcDbLine
 62
7
  6
CONTINUOUS
 10
26.7534422643
 20
46.8304303036
 11
26.7534422643
 21
56.4649105029
  0
LINE
  5
284
100
AcDbEntity
  8
0
100
AcDbLine
 62
7
  6
CONTINUOUS
 10
27.2534422643
 20
45.1804303036
 11
27.2534422643
 21
44.8349388008
  0
LINE
  5
285
100
AcDbEntity
  8
0
100
AcDbLine
 62
7
  6
CONTINUOUS
 10
27.2534422643
 20
37.0259218064
 11
27.2534422643
 21
36.6804303036
  0
LINE
  5
286
100
AcDbEntity
  8
A_RUNDUNGEN
100
AcDbLine
 62
7
  6
CONTINUOUS
 10
27.2534422643
 20
37.0259218064
 11
27.2534422643
 21
44.8349388008
  0
LINE
  5
287
100
AcDbEntity
  8
0
100
AcDbLine
 62
7
  6
CONTINUOUS
 10
27.7534422643
 20
29.0378382399
 11
27.7534422643
 21
36.1804303036
  0
LINE
  5
288
100
AcDbEntity
  8
0
100
AcDbLine
 62
7
  6
CONTINUOUS
 10
27.7534422643
 20
37.5849388008
 11
27.7534422643
 21
44.2759218064
  0
LINE
  5
289
100
AcDbEntity
  8
0
100
AcDbLine
 62
7
  6
CONTINUOUS
 10
27.7534422643
 20
45.6804303036
 11
27.7534422643
 21
54.912071197
  0
LINE
  5
28A
100
AcDbEntity
  8
0
100
AcDbLine
 62
7
  6
CONTINUOUS
 10
28.7534422643
 20
30.6091342718
 11
28.7534422643
 21
52.3517263355
  0
LINE
  5
28B
100
AcDbEntity
  8
0
100
AcDbLine
 62
7
  6
CONTINUOUS
 10
30.6002133429
 20
27.7066270825
 11
28.0916121339
 21
28.5647515577
  0
LINE
  5
28C
100
AcDbEntity
  8
0
100
AcDbLine
 62
7
  6
CONTINUOUS
 10
28.0862373418
 20
28.6623417278
 11
30.3347582067
 21
27.8644794854
  0
LINE
  5
28D
100
AcDbEntity
  8
0
100
AcDbLine
 62
7
  6
CONTINUOUS
 10
31.539498056
 20
45.0602635927
 11
31.539256682
 21
46.1833915401
  0
LINE
  5
28E
100
AcDbEntity
  8
A_RUNDUNGEN
100
AcDbLine
 62
7
  6
CONTINUOUS
 10
28.8534422643
 20
41.0263500561
 11
28.8534422643
 21
35.4772973041
  0
LINE
  5
28F
100
AcDbEntity
  8
A_RUNDUNGEN
100
AcDbLine
 62
7
  6
CONTINUOUS
 10
28.8534422643
 20
41.0330718921
 11
28.8534422643
 21
41.4447111798
  0
LINE
  5
290
100
AcDbEntity
  8
A_RUNDUNGEN
100
AcDbLine
 62
7
  6
CONTINUOUS
 10
28.8534422643
 20
45.193715444
 11
28.8534422643
 21
50.8845226936
  0
LINE
  5
291
100
AcDbEntity
  8
0
100
AcDbLine
 62
7
  6
CONTINUOUS
 10
29.6534422643
 20
23.8804303036
 11
29.6534422643
 21
22.8804303036
  0
LINE
  5
292
100
AcDbEntity
  8
A_RUNDUNGEN
100
AcDbLine
 62
7
  6
CONTINUOUS
 10
30.979554176
 20
51.9536062742
 11
30.979554176
 21
51.5132872648
  0
LINE
  5
293
100
AcDbEntity
  8
A_RUNDUNGEN
100
AcDbLine
 62
7
  6
CONTINUOUS
 10
30.998549031
 20
51.9599378925
 11
30.998549031
 21
51.5218918229
  0
LINE
  5
294
100
AcDbEntity
  8
0
100
AcDbLine
 62
7
  6
CONTINUOUS
 10
32.7534422643
 20
56.1284090373
 11
32.7534422643
 21
55.8696726499
  0
LINE
  5
295
100
AcDbEntity
  8
A_RUNDUNGEN
100
AcDbLine
 62
7
  6
CONTINUOUS
 10
32.7534422643
 20
55.8696726499
 11
32.7534422643
 21
55.1869457931
  0
LINE
  5
296
100
AcDbEntity
  8
0
100
AcDbLine
 62
7
  6
CONTINUOUS
 10
32.7534422643
 20
54.0609933801
 11
32.7534422643
 21
55.1869457931
  0
LINE
  5
297
100
AcDbEntity
  8
A_RUNDUNGEN
100
AcDbLine
 62
7
  6
CONTINUOUS
 10
29.7618317853
 20
50.0337505427
 11
28.7534422643
 21
44.660900502
  0
LINE
  5
298
100
AcDbEntity
  8
0
100
AcDbLine
 62
7
  6
CONTINUOUS
 10
22.6534422643
 20
21.1304303036
 11
59.6534422643
 21
21.1304303036
  0
LINE
  5
299
100
AcDbEntity
  8
0
100
AcDbLine
 62
7
  6
CONTINUOUS
 10
65.6534281472
 20
22.1304305353
 11
120.6534281472
 21
22.1304305353
  0
LINE
  5
29A
100
AcDbEntity
  8
0
100
AcDbLine
 62
7
  6
CONTINUOUS
 10
31.7150493609
 20
29.4173447935
 11
28.9225271991
 21
30.3725909307
  0
LINE
  5
29B
100
AcDbEntity
  8
0
100
AcDbLine
 62
7
  6
CONTINUOUS
 10
32.1522209946
 20
43.8961253356
 11
31.6172894624
 21
44.8221942457
  0
LINE
  5
29C
100
AcDbEntity
  8
0
100
AcDbLine
 62
7
  6
CONTINUOUS
 10
36.5028841415
 20
46.1844582845
 11
36.5031255154
 21
45.0613303371
  0
LINE
  5
29D
100
AcDbEntity
  8
A_ACHSEN
100
AcDbLine
 62
7
  6
CENTER
 10
34.0211910987
 20
40.4362081503
 11
34.0211910987
 21
51.1300157517
  0
LINE
  5
29E
100
AcDbEntity
  8
A_RUNDUNGEN
100
AcDbLine
 62
7
  6
CONTINUOUS
 10
34.3534422643
 20
52.0834552495
 11
34.3534422643
 21
51.640471137
  0
LINE
  5
29F
100
AcDbEntity
  8
A_RUNDUNGEN
100
AcDbLine
 62
7
  6
CONTINUOUS
 10
34.3599872906
 20
52.0835123671
 11
34.3599872906
 21
51.6458046352
  0
LINE
  5
2A0
100
AcDbEntity
  8
A_RUNDUNGEN
100
AcDbLine
 62
7
  6
CONTINUOUS
 10
36.7534422643
 20
34.1853753729
 11
36.7534422643
 21
28.864959756
  0
LINE
  5
2A1
100
AcDbEntity
  8
0
100
AcDbLine
 62
7
  6
CONTINUOUS
 10
36.7534422643
 20
27.8029535368
 11
36.7534422643
 21
28.864959756
  0
LINE
  5
2A2
100
AcDbEntity
  8
0
100
AcDbLine
 62
7
  6
CONTINUOUS
 10
94.5496343361
 20
26.3063841011
 11
100.3621877987
 21
27.1232852165
  0
LINE
  5
2A3
100
AcDbEntity
  8
A_RUNDUNGEN
100
AcDbLine
 62
7
  6
CONTINUOUS
 10
69.0437728273
 20
26.1882424372
 11
67.2534281472
 21
26.1804305353
  0
LINE
  5
2A4
100
AcDbEntity
  8
A_RUNDUNGEN
100
AcDbLine
 62
7
  6
CONTINUOUS
 10
76.083868256
 20
26.2189608434
 11
81.0534281472
 21
26.2406447766
  0
LINE
  5
2A5
100
AcDbEntity
  8
0
100
AcDbLine
 62
7
  6
CONTINUOUS
 10
81.0534281472
 20
26.2406447766
 11
94.4485269924
 21
26.2990922921
  0
LINE
  5
2A6
100
AcDbEntity
  8
0
100
AcDbLine
 62
7
  6
CONTINUOUS
 10
59.6534422643
 20
22.6304303036
 11
22.6534422643
 21
22.6304303036
  0
LINE
  5
2A7
100
AcDbEntity
  8
0
100
AcDbLine
 62
7
  6
CONTINUOUS
 10
57.3534422643
 20
22.8804303036
 11
39.6534033663
 21
22.8804303036
  0
LINE
  5
2A8
100
AcDbEntity
  8
0
100
AcDbLine
 62
7
  6
CONTINUOUS
 10
29.6534422643
 20
22.8804303036
 11
26.4534422643
 21
22.8804303036
  0
LINE
  5
2A9
100
AcDbEntity
  8
A_RUNDUNGEN
100
AcDbLine
 62
7
  6
CONTINUOUS
 10
39.6534033663
 20
22.8804303036
 11
57.3534422643
 21
22.8804303036
  0
LINE
  5
2AA
100
AcDbEntity
  8
A_RUNDUNGEN
100
AcDbLine
 62
7
  6
CONTINUOUS
 10
57.3534422643
 20
23.0804303036
 11
46.6534422643
 21
23.0804303036
  0
LINE
  5
2AB
100
AcDbEntity
  8
0
100
AcDbLine
 62
7
  6
CONTINUOUS
 10
39.6534033663
 20
23.0804303036
 11
46.6534422643
 21
23.0804303036
  0
LINE
  5
2AC
100
AcDbEntity
  8
0
100
AcDbLine
 62
7
  6
CONTINUOUS
 10
29.6534422643
 20
23.8804303036
 11
26.4534422643
 21
23.8804303036
  0
LINE
  5
2AD
100
AcDbEntity
  8
A_RUNDUNGEN
100
AcDbLine
 62
7
  6
CONTINUOUS
 10
27.3605490455
 20
23.9804303036
 11
39.6534033663
 21
23.9804303036
  0
LINE
  5
2AE
100
AcDbEntity
  8
0
100
AcDbLine
 62
7
  6
CONTINUOUS
 10
39.6534033663
 20
26.0804303036
 11
46.6534422643
 21
26.0804303036
  0
LINE
  5
2AF
100
AcDbEntity
  8
A_RUNDUNGEN
100
AcDbLine
 62
7
  6
CONTINUOUS
 10
46.6534422643
 20
26.0804303036
 11
57.3534422643
 21
26.0804303036
  0
LINE
  5
2B0
100
AcDbEntity
  8
0
100
AcDbLine
 62
7
  6
CONTINUOUS
 10
102.1534281472
 20
26.1304305353
 11
65.6534281472
 21
26.1304305353
  0
LINE
  5
2B1
100
AcDbEntity
  8
0
100
AcDbLine
 62
7
  6
CONTINUOUS
 10
60.6534422643
 20
26.1304303036
 11
62.1534422643
 21
26.1304303036
  0
LINE
  5
2B2
100
AcDbEntity
  8
A_RUNDUNGEN
100
AcDbLine
 62
7
  6
CONTINUOUS
 10
75.9062687024
 20
26.1981465049
 11
66.2417000363
 21
26.1981465049
  0
LINE
  5
2B3
100
AcDbEntity
  8
A_RUNDUNGEN
100
AcDbLine
 62
7
  6
CONTINUOUS
 10
62.1534422643
 20
26.2304303036
 11
60.6534422643
 21
26.2304303036
  0
LINE
  5
2B4
100
AcDbEntity
  8
A_RUNDUNGEN
100
AcDbLine
 62
7
  6
CONTINUOUS
 10
65.7534281472
 20
26.2304305353
 11
66.0793361019
 21
26.2304305353
  0
LINE
  5
2B5
100
AcDbEntity
  8
A_RUNDUNGEN
100
AcDbLine
 62
7
  6
CONTINUOUS
 10
66.37477274
 20
26.3312239452
 11
75.7731983071
 21
26.3312239452
  0
LINE
  5
2B6
100
AcDbEntity
  8
A_RUNDUNGEN
100
AcDbLine
 62
7
  6
CONTINUOUS
 10
60.6534422643
 20
26.1804303036
 11
48.7534422643
 21
26.2323541784
  0
LINE
  5
2B7
100
AcDbEntity
  8
0
100
AcDbLine
 62
7
  6
CONTINUOUS
 10
38.9384699616
 20
26.2751803458
 11
48.7534422643
 21
26.2323541784
  0
LINE
  5
2B8
100
AcDbEntity
  8
0
100
AcDbLine
 62
7
  6
CONTINUOUS
 10
27.209864393
 20
27.2978527553
 11
38.8556775281
 21
26.2789761285
  0
LINE
  5
2B9
100
AcDbEntity
  8
0
100
AcDbLine
 62
7
  6
CONTINUOUS
 10
35.8901612028
 20
47.3485965416
 11
36.4250927351
 21
46.4225276315
  0
LINE
  5
2BA
100
AcDbEntity
  8
0
100
AcDbLine
 62
7
  6
CONTINUOUS
 10
39.6534033663
 20
26.0804303036
 11
39.6534033663
 21
23.0804303036
  0
LINE
  5
2BB
100
AcDbEntity
  8
A_RUNDUNGEN
100
AcDbLine
 62
7
  6
CONTINUOUS
 10
39.6534033663
 20
22.8804303036
 11
39.6534033663
 21
22.9375731608
  0
LINE
  5
2BC
100
AcDbEntity
  8
0
100
AcDbLine
 62
7
  6
CONTINUOUS
 10
40.6534033663
 20
23.0804303036
 11
40.6534033663
 21
26.0804303036
  0
LINE
  5
2BD
100
AcDbEntity
  8
0
100
AcDbLine
 62
7
  6
CONTINUOUS
 10
27.4604301785
 20
60.3803114366
 11
26.1534611313
 21
59.0733423894
  0
LINE
  5
2BE
100
AcDbEntity
  8
A_RUNDUNGEN
100
AcDbLine
 62
7
  6
CONTINUOUS
 10
77.1782845196
 20
27.51689067
 11
77.1914160339
 21
27.517198018
  0
LINE
  5
2BF
100
AcDbEntity
  8
0
100
AcDbLine
 62
7
  6
CONTINUOUS
 10
81.3481924253
 20
28.6855756649
 11
84.6452334195
 21
28.7431257295
  0
LINE
  5
2C0
100
AcDbEntity
  8
A_RUNDUNGEN
100
AcDbLine
 62
7
  6
CONTINUOUS
 10
85.9120063429
 20
29.1849440345
 11
98.1708805537
 21
29.3989234798
  0
LINE
  5
2C1
100
AcDbEntity
  8
A_RUNDUNGEN
100
AcDbLine
 62
7
  6
CONTINUOUS
 10
53.9534422643
 20
26.9449023036
 11
61.8578055321
 21
27.0138826368
  0
LINE
  5
2C2
100
AcDbEntity
  8
0
100
AcDbLine
 62
7
  6
CONTINUOUS
 10
99.9056097811
 20
28.9782678572
 11
85.1601912885
 21
28.8495865395
  0
LINE
  5
2C3
100
AcDbEntity
  8
A_RUNDUNGEN
100
AcDbLine
 62
7
  6
CONTINUOUS
 10
81.0534281472
 20
27.5195269239
 11
78.0739840955
 21
27.5195269239
  0
LINE
  5
2C4
100
AcDbEntity
  8
A_RUNDUNGEN
100
AcDbLine
 62
7
  6
CONTINUOUS
 10
77.073185932
 20
27.6312239452
 11
77.6739840956
 21
27.6312239452
  0
LINE
  5
2C5
100
AcDbEntity
  8
0
100
AcDbLine
 62
7
  6
CONTINUOUS
 10
25.6534422643
 20
29.4804303036
 11
26.1534422643
 21
29.4804303036
  0
LINE
  5
2C6
100
AcDbEntity
  8
A_RUNDUNGEN
100
AcDbLine
 62
7
  6
CONTINUOUS
 10
92.0461567155
 20
29.6195269239
 11
89.5967503808
 21
29.6195269239
  0
LINE
  5
2C7
100
AcDbEntity
  8
A_RUNDUNGEN
100
AcDbLine
 62
7
  6
CONTINUOUS
 10
92.0487868694
 20
29.6369755675
 11
89.5823155184
 21
29.6369755675
  0
LINE
  5
2C8
100
AcDbEntity
  8
0
100
AcDbLine
 62
7
  6
CONTINUOUS
 10
25.6534422643
 20
29.8804303036
 11
26.1534422643
 21
29.8804303036
  0
LINE
  5
2C9
100
AcDbEntity
  8
A_RUNDUNGEN
100
AcDbLine
 62
7
  6
CONTINUOUS
 10
86.776862323
 20
30.5282678631
 11
79.1717643021
 21
30.5282678631
  0
LINE
  5
2CA
100
AcDbEntity
  8
0
100
AcDbLine
 62
7
  6
CONTINUOUS
 10
30.4993451474
 20
27.835700212
 11
36.7534422643
 21
27.8029535368
  0
LINE
  5
2CB
100
AcDbEntity
  8
A_RUNDUNGEN
100
AcDbLine
 62
7
  6
CONTINUOUS
 10
36.7534422643
 20
27.8029535368
 11
48.9534422643
 21
27.7390739024
  0
LINE
  5
2CC
100
AcDbEntity
  8
A_RUNDUNGEN
100
AcDbLine
 62
7
  6
CONTINUOUS
 10
81.0534281472
 20
27.6025296101
 11
77.6739840956
 21
27.6312239452
  0
LINE
  5
2CD
100
AcDbEntity
  8
0
100
AcDbLine
 62
7
  6
CONTINUOUS
 10
48.9534422643
 20
26.9885366426
 11
53.9534422643
 21
26.9449023036
  0
LINE
  5
2CE
100
AcDbEntity
  8
0
100
AcDbLine
 62
7
  6
CONTINUOUS
 10
30.9151470683
 20
27.6528385238
 11
48.2578055321
 21
27.5014914362
  0
LINE
  5
2CF
100
AcDbEntity
  8
A_RUNDUNGEN
100
AcDbLine
 62
7
  6
CONTINUOUS
 10
48.2578055321
 20
27.5014914362
 11
48.9534422643
 21
27.4954207064
  0
LINE
  5
2D0
100
AcDbEntity
  8
0
100
AcDbLine
 62
7
  6
CONTINUOUS
 10
31.7937827922
 20
29.4038976538
 11
36.2578055321
 21
29.3649407175
  0
LINE
  5
2D1
100
AcDbEntity
  8
A_RUNDUNGEN
100
AcDbLine
 62
7
  6
CONTINUOUS
 10
36.7534422643
 20
29.3606153613
 11
48.9534422643
 21
29.2541475742
  0
LINE
  5
2D2
100
AcDbEntity
  8
A_RUNDUNGEN
100
AcDbLine
 62
7
  6
CONTINUOUS
 10
36.7534422643
 20
30.185404875
 11
48.9534422643
 21
30.078937088
  0
LINE
  5
2D3
100
AcDbEntity
  8
0
100
AcDbLine
 62
7
  6
CONTINUOUS
 10
27.3916388655
 20
44.611332003
 11
27.6152456632
 21
44.4995286042
  0
LINE
  5
2D4
100
AcDbEntity
  8
0
100
AcDbLine
 62
7
  6
CONTINUOUS
 10
33.2401865713
 20
43.2076540991
 11
32.3488192675
 21
43.7220298625
  0
LINE
  5
2D5
100
AcDbEntity
  8
A_RUNDUNGEN
100
AcDbLine
 62
7
  6
CONTINUOUS
 10
42.9534422643
 20
30.1312982947
 11
42.9534422643
 21
29.5543365836
  0
LINE
  5
2D6
100
AcDbEntity
  8
A_RUNDUNGEN
100
AcDbLine
 62
7
  6
CONTINUOUS
 10
39.5902287434
 20
48.1891331748
 11
38.2805504122
 21
41.2109713345
  0
LINE
  5
2D7
100
AcDbEntity
  8
0
100
AcDbLine
 62
7
  6
CONTINUOUS
 10
31.6169457532
 20
46.4214943017
 11
32.1514791889
 21
47.347793053
  0
LINE
  5
2D8
100
AcDbEntity
  8
A_RUNDUNGEN
100
AcDbLine
 62
7
  6
CONTINUOUS
 10
94.9499970681
 20
36.6694542484
 11
94.9548596246
 21
36.6707261993
  0
LINE
  5
2D9
100
AcDbEntity
  8
0
100
AcDbLine
 62
7
  6
CONTINUOUS
 10
98.670876523
 20
35.1135794612
 11
88.9486621716
 21
34.7740722549
  0
LINE
  5
2DA
100
AcDbEntity
  8
A_RUNDUNGEN
100
AcDbLine
 62
7
  6
CONTINUOUS
 10
98.6708778956
 20
35.1135795092
 11
88.9486621716
 21
34.7740722549
  0
LINE
  5
2DB
100
AcDbEntity
  8
0
100
AcDbLine
 62
7
  6
CONTINUOUS
 10
21.6534422643
 20
31.1304303036
 11
20.1534422643
 21
31.1304303036
  0
LINE
  5
2DC
100
AcDbEntity
  8
A_ACHSEN
100
AcDbLine
 62
7
  6
CONTINUOUS
 10
56.7160272643
 20
32.5949023036
 11
55.9908572643
 21
32.5949023036
  0
LINE
  5
2DD
100
AcDbEntity
  8
A_ACHSEN
100
AcDbLine
 62
7
  6
CENTER
 10
54.5405172643
 20
32.5949023036
 11
50.8034422643
 21
32.5949023036
  0
LINE
  5
2DE
100
AcDbEntity
  8
A_ACHSEN
100
AcDbLine
 62
7
  6
CENTER
 10
58.1663672643
 20
32.5949023036
 11
61.9034422643
 21
32.5949023036
  0
LINE
  5
2DF
100
AcDbEntity
  8
A_ACHSEN
100
AcDbLine
 62
7
  6
CENTER
 10
66.4310476898
 20
32.6304305412
 11
77.1169205015
 21
32.6304305412
  0
LINE
  5
2E0
100
AcDbEntity
  8
A_RUNDUNGEN
100
AcDbLine
 62
7
  6
CONTINUOUS
 10
88.9573857167
 20
30.5718553193
 11
91.6753000147
 21
30.5244139487
  0
LINE
  5
2E1
100
AcDbEntity
  8
0
100
AcDbLine
 62
7
  6
CONTINUOUS
 10
28.9947173902
 20
35.4220047906
 11
35.788341761
 21
35.1847661999
  0
LINE
  5
2E2
100
AcDbEntity
  8
A_RUNDUNGEN
100
AcDbLine
 62
7
  6
CONTINUOUS
 10
28.9947173902
 20
35.4220047906
 11
35.788341761
 21
35.1847661999
  0
LWPOLYLINE
  5
2E3
100
AcDbEntity
  8
0
100
AcDbPolyline
 62
7
  6
CONTINUOUS
 90
7
 70
0
 10
91.6754514858
 20
30.5244112703
 10
91.7665655579
 20
30.514159502
 10
91.8623213409
 20
30.4829151345
 10
91.9453193539
 20
30.432731113
 10
92.009725345
 20
30.3665234502
 10
92.0491844579
 20
30.2895150953
 10
92.0598581599
 20
30.2212577567
  0
LINE
  5
2E4
100
AcDbEntity
  8
0
100
AcDbLine
 62
7
  6
CONTINUOUS
 10
31.7420122692
 20
40.403220181
 11
34.2528446499
 21
39.9319810728
  0
LINE
  5
2E5
100
AcDbEntity
  8
0
100
AcDbLine
 62
7
  6
CONTINUOUS
 10
35.6733710524
 20
39.6653732338
 11
35.945947547
 21
39.6142154165
  0
LINE
  5
2E6
100
AcDbEntity
  8
0
100
AcDbLine
 62
7
  6
CONTINUOUS
 10
34.8021956262
 20
48.0370677781
 11
35.69356293
 21
47.5226920147
  0
LINE
  5
2E7
100
AcDbEntity
  8
0
100
AcDbLine
 62
7
  6
CONTINUOUS
 10
46.6534422643
 20
23.0804303036
 11
46.6534422643
 21
26.0804303036
  0
LINE
  5
2E8
100
AcDbEntity
  8
0
100
AcDbLine
 62
7
  6
CONTINUOUS
 10
48.7534422643
 20
27.0015104747
 11
48.7534422643
 21
26.2323541784
  0
LINE
  5
2E9
100
AcDbEntity
  8
A_RUNDUNGEN
100
AcDbLine
 62
7
  6
CONTINUOUS
 10
48.7534422643
 20
27.7401211095
 11
48.7534422643
 21
28.7602373425
  0
LINE
  5
2EA
100
AcDbEntity
  8
0
100
AcDbLine
 62
7
  6
CONTINUOUS
 10
48.9534422643
 20
26.9885366426
 11
48.9534422643
 21
30.078937088
  0
LINE
  5
2EB
100
AcDbEntity
  8
0
100
AcDbLine
 62
7
  6
CONTINUOUS
 10
49.1534422643
 20
58.0804303036
 11
49.1534422643
 21
58.0302517692
  0
LINE
  5
2EC
100
AcDbEntity
  8
0
100
AcDbLine
 62
7
  6
CONTINUOUS
 10
49.1534422643
 20
26.1804303036
 11
49.1534422643
 21
26.2302105785
  0
LINE
  5
2ED
100
AcDbEntity
  8
0
100
AcDbLine
 62
7
  6
CONTINUOUS
 10
36.4254364443
 20
44.8232275755
 11
35.8909030085
 21
43.8969288242
  0
LINE
  5
2EE
100
AcDbEntity
  8
0
100
AcDbLine
 62
7
  6
CONTINUOUS
 10
93.9217586818
 20
40.0669168346
 11
96.423249495
 21
40.5854621582
  0
LINE
  5
2EF
100
AcDbEntity
  8
0
100
AcDbLine
 62
7
  6
CONTINUOUS
 10
27.3534422643
 20
35.4304303036
 11
27.1534422643
 21
35.4304303036
  0
LINE
  5
2F0
100
AcDbEntity
  8
0
100
AcDbLine
 62
7
  6
CONTINUOUS
 10
99.9056097811
 20
35.9825932134
 11
99.549937533
 21
35.9856971181
  0
LINE
  5
2F1
100
AcDbEntity
  8
0
100
AcDbLine
 62
7
  6
CONTINUOUS
 10
58.4949248006
 20
40.12209118
 11
56.9634834743
 21
41.5626416911
  0
LINE
  5
2F2
100
AcDbEntity
  8
0
100
AcDbLine
 62
7
  6
CONTINUOUS
 10
51.0914198366
 20
35.3200831302
 11
51.1034929225
 21
32.5718391803
  0
LINE
  5
2F3
100
AcDbEntity
  8
A_RUNDUNGEN
100
AcDbLine
 62
7
  6
CONTINUOUS
 10
51.0914198366
 20
35.3200831302
 11
51.0533505577
 21
43.985942605
  0
LINE
  5
2F4
100
AcDbEntity
  8
0
100
AcDbLine
 62
7
  6
CONTINUOUS
 10
50.1534422643
 20
60.3803303036
 11
50.1534422643
 21
61.3803303036
  0
LINE
  5
2F5
100
AcDbEntity
  8
0
100
AcDbLine
 62
7
  6
CONTINUOUS
 10
50.2222033663
 20
58.3804303036
 11
50.2222033663
 21
61.3804303036
  0
LINE
  5
2F6
100
AcDbEntity
  8
0
100
AcDbLine
 62
7
  6
CONTINUOUS
 10
51.2222033663
 20
61.3804303036
 11
51.2222033663
 21
58.3804303036
  0
LINE
  5
2F7
100
AcDbEntity
  8
0
100
AcDbLine
 62
7
  6
CONTINUOUS
 10
52.239228702
 20
58.0804303036
 11
52.239228702
 21
58.1804303036
  0
LINE
  5
2F8
100
AcDbEntity
  8
A_RUNDUNGEN
100
AcDbLine
 62
7
  6
CONTINUOUS
 10
52.2534422643
 20
26.1804303036
 11
52.2534422643
 21
26.0804303036
  0
LINE
  5
2F9
100
AcDbEntity
  8
A_RUNDUNGEN
100
AcDbLine
 62
7
  6
CONTINUOUS
 10
52.2534422643
 20
58.0804303036
 11
52.2534422643
 21
58.1804303036
  0
LINE
  5
2FA
100
AcDbEntity
  8
0
100
AcDbLine
 62
7
  6
CONTINUOUS
 10
31.1921561756
 20
48.4501801344
 11
36.1053134998
 21
53.365449708
  0
LINE
  5
2FB
100
AcDbEntity
  8
0
100
AcDbLine
 62
7
  6
CONTINUOUS
 10
100.3691289341
 20
42.1155310449
 11
100.1885719807
 21
42.1060684559
  0
LINE
  5
2FC
100
AcDbEntity
  8
0
100
AcDbLine
 62
7
  6
CONTINUOUS
 10
94.5654454319
 20
43.2810996726
 11
93.548297925
 21
43.276631325
  0
LINE
  5
2FD
100
AcDbEntity
  8
0
100
AcDbLine
 62
7
  6
CONTINUOUS
 10
34.53030312
 20
43.1406565087
 11
33.5131458219
 21
43.1404379091
  0
LINE
  5
2FE
100
AcDbEntity
  8
A_RUNDUNGEN
100
AcDbLine
 62
7
  6
CONTINUOUS
 10
57.9765802105
 20
41.1731114243
 11
58.4949248006
 21
40.12209118
  0
LINE
  5
2FF
100
AcDbEntity
  8
0
100
AcDbLine
 62
7
  6
CONTINUOUS
 10
61.0619552684
 20
34.9170576151
 11
58.4949248006
 21
40.12209118
  0
LINE
  5
300
100
AcDbEntity
  8
0
100
AcDbLine
 62
7
  6
CONTINUOUS
 10
54.5070223136
 20
58.4804303036
 11
54.5070223136
 21
58.3804303036
  0
LINE
  5
301
100
AcDbEntity
  8
0
100
AcDbLine
 62
7
  6
CONTINUOUS
 10
54.935991682
 20
58.4804303036
 11
54.935991682
 21
58.3804303036
  0
LINE
  5
302
100
AcDbEntity
  8
0
100
AcDbLine
 62
7
  6
CONTINUOUS
 10
55.2534422643
 20
58.0568682092
 11
55.2534422643
 21
57.3160747732
  0
LINE
  5
303
100
AcDbEntity
  8
A_RUNDUNGEN
100
AcDbLine
 62
7
  6
CONTINUOUS
 10
55.2534422643
 20
55.1269242291
 11
55.2534422643
 21
56.5547737291
  0
LINE
  5
304
100
AcDbEntity
  8
0
100
AcDbLine
 62
7
  6
CONTINUOUS
 10
55.5534422643
 20
55.1269887028
 11
55.5534422643
 21
56.7309393151
  0
LINE
  5
305
100
AcDbEntity
  8
A_ACHSEN
100
AcDbLine
 62
7
  6
CONTINUOUS
 10
56.3534422643
 20
32.9574873036
 11
56.3534422643
 21
32.2323173036
  0
LINE
  5
306
100
AcDbEntity
  8
A_ACHSEN
100
AcDbLine
 62
7
  6
CENTER
 10
56.3534422643
 20
30.7819773036
 11
56.3534422643
 21
27.0449023036
  0
LINE
  5
307
100
AcDbEntity
  8
A_ACHSEN
100
AcDbLine
 62
7
  6
CENTER
 10
56.3534422643
 20
34.4078273036
 11
56.3534422643
 21
38.1449023036
  0
LINE
  5
308
100
AcDbEntity
  8
A_RUNDUNGEN
100
AcDbLine
 62
7
  6
CONTINUOUS
 10
57.1534422643
 20
58.1804303036
 11
57.1534422643
 21
58.0651585757
  0
LINE
  5
309
100
AcDbEntity
  8
A_RUNDUNGEN
100
AcDbLine
 62
7
  6
CONTINUOUS
 10
57.1534422643
 20
26.1957020315
 11
57.1534422643
 21
26.0804303036
  0
LINE
  5
30A
100
AcDbEntity
  8
A_RUNDUNGEN
100
AcDbLine
 62
7
  6
CONTINUOUS
 10
57.3534422643
 20
22.9375731608
 11
57.3534422643
 21
22.8804303036
  0
LINE
  5
30B
100
AcDbEntity
  8
A_RUNDUNGEN
100
AcDbLine
 62
7
  6
CONTINUOUS
 10
57.3534422643
 20
23.0804303036
 11
57.3534422643
 21
26.0804303036
  0
LINE
  5
30C
100
AcDbEntity
  8
0
100
AcDbLine
 62
7
  6
CONTINUOUS
 10
39.1415626554
 20
50.0376750336
 11
38.230803654
 21
49.1265244814
  0
LINE
  5
30D
100
AcDbEntity
  8
0
100
AcDbLine
 62
7
  6
CONTINUOUS
 10
94.0160798236
 20
51.4224498083
 11
94.1701795789
 21
51.4543938422
  0
LINE
  5
30E
100
AcDbEntity
  8
0
100
AcDbLine
 62
7
  6
CONTINUOUS
 10
95.5854209041
 20
51.7477656056
 11
95.8569832761
 21
51.8040589956
  0
LINE
  5
30F
100
AcDbEntity
  8
0
100
AcDbLine
 62
7
  6
CONTINUOUS
 10
100.6534281472
 20
44.6104305353
 11
100.3534281472
 21
44.6104305353
  0
LINE
  5
310
100
AcDbEntity
  8
A_ACHSEN
100
AcDbLine
 62
7
  6
CENTER
 10
28.7645260861
 20
45.6223609386
 11
39.4583336875
 21
45.6223609386
  0
LINE
  5
311
100
AcDbEntity
  8
A_ACHSEN
100
AcDbLine
 62
7
  6
CENTER
 10
87.9663269307
 20
45.7606553384
 11
100.12561133
 21
45.7606553384
  0
LINE
  5
312
100
AcDbEntity
  8
0
100
AcDbLine
 62
7
  6
CONTINUOUS
 10
100.6534281472
 20
46.1862801353
 11
100.3534281472
 21
46.1862801353
  0
LINE
  5
313
100
AcDbEntity
  8
0
100
AcDbLine
 62
7
  6
CONTINUOUS
 10
27.3534422643
 20
46.4304303036
 11
27.1534422643
 21
46.4304303036
  0
LINE
  5
314
100
AcDbEntity
  8
0
100
AcDbLine
 62
7
  6
CONTINUOUS
 10
100.6534281472
 20
46.5808104082
 11
100.3534281472
 21
46.5808104082
  0
LINE
  5
315
100
AcDbEntity
  8
0
100
AcDbLine
 62
7
  6
CONTINUOUS
 10
100.6534281472
 20
46.6048837698
 11
100.3534281472
 21
46.6048837698
  0
LINE
  5
316
100
AcDbEntity
  8
0
100
AcDbLine
 62
7
  6
CONTINUOUS
 10
100.6534281472
 20
47.1736177864
 11
100.3534281472
 21
47.1736177864
  0
LINE
  5
317
100
AcDbEntity
  8
0
100
AcDbLine
 62
7
  6
CONTINUOUS
 10
32.0964346505
 20
51.6305064607
 11
32.369011145
 21
51.5793486434
  0
LINE
  5
318
100
AcDbEntity
  8
0
100
AcDbLine
 62
7
  6
CONTINUOUS
 10
33.7895375475
 20
51.3127408044
 11
34.0117914799
 21
51.2710276476
  0
LINE
  5
319
100
AcDbEntity
  8
0
100
AcDbLine
 62
7
  6
CONTINUOUS
 10
69.1266401014
 20
43.9046910061
 11
55.1853080179
 21
50.1081822162
  0
LINE
  5
31A
100
AcDbEntity
  8
A_RUNDUNGEN
100
AcDbLine
 62
7
  6
CONTINUOUS
 10
58.7733613312
 20
43.7722612057
 11
58.7733613312
 21
39.8769395714
  0
LINE
  5
31B
100
AcDbEntity
  8
0
100
AcDbLine
 62
7
  6
CONTINUOUS
 10
58.7999872906
 20
43.7888002316
 11
58.7999872906
 21
39.5035319071
  0
LINE
  5
31C
100
AcDbEntity
  8
0
100
AcDbLine
 62
7
  6
CONTINUOUS
 10
59.1534422643
 20
61.3804303036
 11
59.1534422643
 21
58.3804303036
  0
LINE
  5
31D
100
AcDbEntity
  8
0
100
AcDbLine
 62
7
  6
CONTINUOUS
 10
60.6534422643
 20
23.6304303036
 11
60.6534422643
 21
26.2304303036
  0
LINE
  5
31E
100
AcDbEntity
  8
A_RUNDUNGEN
100
AcDbLine
 62
7
  6
CONTINUOUS
 10
60.6534422643
 20
26.1804303036
 11
60.6534422643
 21
27.0033723178
  0
LINE
  5
31F
100
AcDbEntity
  8
A_RUNDUNGEN
100
AcDbLine
 62
7
  6
CONTINUOUS
 10
60.6534422643
 20
56.6864322894
 11
60.6534422643
 21
58.0804303036
  0
LINE
  5
320
100
AcDbEntity
  8
0
100
AcDbLine
 62
7
  6
CONTINUOUS
 10
60.6534422643
 20
58.0304303036
 11
60.6534422643
 21
78.1304303036
  0
LINE
  5
321
100
AcDbEntity
  8
A_RUNDUNGEN
100
AcDbLine
 62
7
  6
CONTINUOUS
 10
62.1534422643
 20
58.0304303036
 11
62.1534422643
 21
56.5748767374
  0
LINE
  5
322
100
AcDbEntity
  8
A_RUNDUNGEN
100
AcDbLine
 62
7
  6
CONTINUOUS
 10
62.1534422643
 20
27.1149278699
 11
62.1534422643
 21
26.2304303036
  0
LINE
  5
323
100
AcDbEntity
  8
0
100
AcDbLine
 62
7
  6
CONTINUOUS
 10
62.1534422643
 20
23.6304303036
 11
62.1534422643
 21
26.2565950826
  0
LINE
  5
324
100
AcDbEntity
  8
0
100
AcDbLine
 62
7
  6
CONTINUOUS
 10
62.1534422643
 20
58.0042655246
 11
62.1534422643
 21
78.1304303036
  0
LINE
  5
325
100
AcDbEntity
  8
A_RUNDUNGEN
100
AcDbLine
 62
7
  6
CONTINUOUS
 10
62.3534422643
 20
53.5344651265
 11
62.3534422643
 21
53.4691444154
  0
LINE
  5
326
100
AcDbEntity
  8
A_RUNDUNGEN
100
AcDbLine
 62
7
  6
CONTINUOUS
 10
62.3534422643
 20
49.7766164497
 11
62.3534422643
 21
49.7232551229
  0
LINE
  5
327
100
AcDbEntity
  8
A_RUNDUNGEN
100
AcDbLine
 62
7
  6
CONTINUOUS
 10
62.3534422643
 20
45.4150393039
 11
62.3534422643
 21
27.5138635984
  0
LINE
  5
328
100
AcDbEntity
  8
0
100
AcDbLine
 62
7
  6
CONTINUOUS
 10
32.3480026131
 20
47.5219730127
 11
33.2391487433
 21
48.0367318602
  0
LINE
  5
329
100
AcDbEntity
  8
0
100
AcDbLine
 62
7
  6
CONTINUOUS
 10
93.5264928288
 20
48.2402110043
 11
94.5436403357
 21
48.2446793518
  0
LINE
  5
32A
100
AcDbEntity
  8
A_RUNDUNGEN
100
AcDbLine
 62
7
  6
CONTINUOUS
 10
75.2995242983
 20
50.6783501103
 11
85.0661012519
 21
50.7212548612
  0
LINE
  5
32B
100
AcDbEntity
  8
0
100
AcDbLine
 62
7
  6
CONTINUOUS
 10
85.0661012519
 20
50.7212548612
 11
87.4885334075
 21
50.7318966499
  0
LINE
  5
32C
100
AcDbEntity
  8
0
100
AcDbLine
 62
7
  6
CONTINUOUS
 10
33.5120790775
 20
48.1040653685
 11
34.5292363756
 21
48.1042839681
  0
LINE
  5
32D
100
AcDbEntity
  8
0
100
AcDbLine
 62
7
  6
CONTINUOUS
 10
52.744776735
 20
50.6263849822
 11
40.5556502924
 21
50.6237653895
  0
LINE
  5
32E
100
AcDbEntity
  8
0
100
AcDbLine
 62
7
  6
CONTINUOUS
 10
100.6534281472
 20
47.9902504082
 11
100.3534281472
 21
47.9902504082
  0
LINE
  5
32F
100
AcDbEntity
  8
0
100
AcDbLine
 62
7
  6
CONTINUOUS
 10
100.6534281472
 20
50.3822504082
 11
100.3534281472
 21
50.3822504082
  0
LINE
  5
330
100
AcDbEntity
  8
A_ACHSEN
100
AcDbLine
 62
7
  6
CONTINUOUS
 10
100.6534281472
 20
51.2544104082
 11
100.3534281472
 21
51.2544104082
  0
LINE
  5
331
100
AcDbEntity
  8
A_ACHSEN
100
AcDbLine
 62
7
  6
CENTER
 10
59.5230036199
 20
51.6287645325
 11
68.5167982636
 21
51.6287645325
  0
LINE
  5
332
100
AcDbEntity
  8
0
100
AcDbLine
 62
7
  6
CONTINUOUS
 10
63.1534422643
 20
64.6304303036
 11
63.1534422643
 21
75.6304303036
  0
LINE
  5
333
100
AcDbEntity
  8
A_ACHSEN
100
AcDbLine
 62
7
  6
CENTER
 10
64.0199009418
 20
47.1318672106
 11
64.0199009418
 21
56.1256618543
  0
LINE
  5
334
100
AcDbEntity
  8
0
100
AcDbLine
 62
7
  6
CONTINUOUS
 10
65.6534281472
 20
62.1304305353
 11
65.6534281472
 21
56.4551901596
  0
LINE
  5
335
100
AcDbEntity
  8
0
100
AcDbLine
 62
7
  6
CONTINUOUS
 10
65.6534281472
 20
53.5631914684
 11
65.6534281472
 21
53.5049711233
  0
LINE
  5
336
100
AcDbEntity
  8
0
100
AcDbLine
 62
7
  6
CONTINUOUS
 10
65.6534281472
 20
49.6936299783
 11
65.6534281472
 21
49.6807877847
  0
LINE
  5
337
100
AcDbEntity
  8
0
100
AcDbLine
 62
7
  6
CONTINUOUS
 10
65.6534281472
 20
45.4501702831
 11
65.6534281472
 21
22.1304305353
  0
LINE
  5
338
100
AcDbEntity
  8
A_RUNDUNGEN
100
AcDbLine
 62
7
  6
CONTINUOUS
 10
65.7417000593
 20
26.6981465049
 11
65.7417000593
 21
45.4108918248
  0
LINE
  5
339
100
AcDbEntity
  8
A_RUNDUNGEN
100
AcDbLine
 62
7
  6
CONTINUOUS
 10
65.7417000593
 20
49.7725269054
 11
65.7417000593
 21
49.8329583196
  0
LINE
  5
33A
100
AcDbEntity
  8
A_RUNDUNGEN
100
AcDbLine
 62
7
  6
CONTINUOUS
 10
65.7417000593
 20
53.440482949
 11
65.7417000593
 21
53.4856788279
  0
LINE
  5
33B
100
AcDbEntity
  8
A_RUNDUNGEN
100
AcDbLine
 62
7
  6
CONTINUOUS
 10
65.7534281472
 20
26.2304305353
 11
65.7534281472
 21
26.5759220381
  0
LINE
  5
33C
100
AcDbEntity
  8
A_RUNDUNGEN
100
AcDbLine
 62
7
  6
CONTINUOUS
 10
65.7534281472
 20
56.4230828344
 11
65.7534281472
 21
58.0304305353
  0
LINE
  5
33D
100
AcDbEntity
  8
A_RUNDUNGEN
100
AcDbLine
 62
7
  6
CONTINUOUS
 10
65.7805291219
 20
34.5101165083
 11
65.7805291219
 21
45.3936140104
  0
LINE
  5
33E
100
AcDbEntity
  8
A_RUNDUNGEN
100
AcDbLine
 62
7
  6
CONTINUOUS
 10
65.7805291219
 20
49.8072320982
 11
65.7805291219
 21
49.8642329864
  0
LINE
  5
33F
100
AcDbEntity
  8
A_RUNDUNGEN
100
AcDbLine
 62
7
  6
CONTINUOUS
 10
65.7805291219
 20
53.3942389366
 11
65.7805291219
 21
53.4515825554
  0
LINE
  5
340
100
AcDbEntity
  8
A_RUNDUNGEN
100
AcDbLine
 62
7
  6
CONTINUOUS
 10
65.8747774996
 20
33.2593743388
 11
65.8747774996
 21
26.8312191856
  0
LINE
  5
341
100
AcDbEntity
  8
0
100
AcDbLine
 62
7
  6
CONTINUOUS
 10
55.3845363976
 20
50.0195313258
 11
52.2124869161
 21
46.8194891292
  0
LINE
  5
342
100
AcDbEntity
  8
0
100
AcDbLine
 62
7
  6
CONTINUOUS
 10
31.7150493609
 20
53.5435158138
 11
28.9225271991
 21
52.5882696766
  0
LINE
  5
343
100
AcDbEntity
  8
A_RUNDUNGEN
100
AcDbLine
 62
7
  6
CONTINUOUS
 10
29.1953283813
 20
51.3588643426
 11
31.2140163845
 21
52.0317603437
  0
LINE
  5
344
100
AcDbEntity
  8
A_RUNDUNGEN
100
AcDbLine
 62
7
  6
CONTINUOUS
 10
94.5019483809
 20
55.0453706647
 11
94.4884389895
 21
55.0452067737
  0
LINE
  5
345
100
AcDbEntity
  8
0
100
AcDbLine
 62
7
  6
CONTINUOUS
 10
34.8280096628
 20
52.0875967364
 11
34.3599872906
 21
52.0835123671
  0
LINE
  5
346
100
AcDbEntity
  8
A_RUNDUNGEN
100
AcDbLine
 62
7
  6
CONTINUOUS
 10
31.3677669998
 20
52.0573996562
 11
34.3534422643
 21
52.0834552495
  0
LINE
  5
347
100
AcDbEntity
  8
A_RUNDUNGEN
100
AcDbLine
 62
7
  6
CONTINUOUS
 10
36.3873966206
 20
53.597050814
 11
32.2578055321
 21
53.5610124185
  0
LINE
  5
348
100
AcDbEntity
  8
0
100
AcDbLine
 62
7
  6
CONTINUOUS
 10
31.7937827922
 20
53.5569629534
 11
32.2578055321
 21
53.5610124185
  0
LINE
  5
349
100
AcDbEntity
  8
0
100
AcDbLine
 62
7
  6
CONTINUOUS
 10
32.2578055321
 20
55.3696916883
 11
28.2490789966
 21
55.3347080619
  0
LINE
  5
34A
100
AcDbEntity
  8
0
100
AcDbLine
 62
7
  6
CONTINUOUS
 10
28.0021332734
 20
55.16206777
 11
32.7534422643
 21
55.1869457931
  0
LINE
  5
34B
100
AcDbEntity
  8
0
100
AcDbLine
 62
7
  6
CONTINUOUS
 10
87.6758697989
 20
55.2327630437
 11
80.3043680531
 21
55.2003799019
  0
LINE
  5
34C
100
AcDbEntity
  8
A_RUNDUNGEN
100
AcDbLine
 62
7
  6
CONTINUOUS
 10
68.3345551471
 20
55.1477962953
 11
80.3043680531
 21
55.2003799019
  0
LINE
  5
34D
100
AcDbEntity
  8
A_RUNDUNGEN
100
AcDbLine
 62
7
  6
CONTINUOUS
 10
94.4884389895
 20
55.0452067737
 11
94.3805364275
 21
55.0445873025
  0
LINE
  5
34E
100
AcDbEntity
  8
A_RUNDUNGEN
100
AcDbLine
 62
7
  6
CONTINUOUS
 10
94.3805364275
 20
55.0445873025
 11
94.031771514
 21
55.0436392558
  0
LINE
  5
34F
100
AcDbEntity
  8
A_RUNDUNGEN
100
AcDbLine
 62
7
  6
CONTINUOUS
 10
94.031771514
 20
55.0436392558
 11
93.9492583576
 21
55.0434831213
  0
LINE
  5
350
100
AcDbEntity
  8
A_RUNDUNGEN
100
AcDbLine
 62
7
  6
CONTINUOUS
 10
93.9492583576
 20
55.0434831213
 11
93.8634061313
 21
55.0433353234
  0
LINE
  5
351
100
AcDbEntity
  8
A_RUNDUNGEN
100
AcDbLine
 62
7
  6
CONTINUOUS
 10
93.8634061313
 20
55.0433353234
 11
92.4989734767
 21
55.0419587765
  0
LINE
  5
352
100
AcDbEntity
  8
0
100
AcDbLine
 62
7
  6
CONTINUOUS
 10
40.3475764109
 20
55.1237207758
 11
59.6890772453
 21
55.1278775014
  0
LINE
  5
353
100
AcDbEntity
  8
0
100
AcDbLine
 62
7
  6
CONTINUOUS
 10
100.6534281472
 20
52.0680030301
 11
100.3534281472
 21
52.0680030301
  0
LINE
  5
354
100
AcDbEntity
  8
0
100
AcDbLine
 62
7
  6
CONTINUOUS
 10
100.6534281472
 20
52.6367370467
 11
100.3534281472
 21
52.6367370467
  0
LINE
  5
355
100
AcDbEntity
  8
0
100
AcDbLine
 62
7
  6
CONTINUOUS
 10
100.6534281472
 20
52.6608104082
 11
100.3534281472
 21
52.6608104082
  0
LINE
  5
356
100
AcDbEntity
  8
0
100
AcDbLine
 62
7
  6
CONTINUOUS
 10
25.6534422643
 20
54.3804303036
 11
26.1534422643
 21
54.3804303036
  0
LINE
  5
357
100
AcDbEntity
  8
0
100
AcDbLine
 62
7
  6
CONTINUOUS
 10
25.6534422643
 20
54.7804303036
 11
26.1534422643
 21
54.7804303036
  0
LINE
  5
358
100
AcDbEntity
  8
A_RUNDUNGEN
100
AcDbLine
 62
7
  6
CONTINUOUS
 10
90.1783778667
 20
55.023885515
 11
96.8641682473
 21
55.023885515
  0
LINE
  5
359
100
AcDbEntity
  8
A_RUNDUNGEN
100
AcDbLine
 62
7
  6
CONTINUOUS
 10
92.4989734767
 20
55.0419587765
 11
90.3643259819
 21
55.0413368405
  0
LINE
  5
35A
100
AcDbEntity
  8
A_RUNDUNGEN
100
AcDbLine
 62
7
  6
CONTINUOUS
 10
90.3643259819
 20
55.0413368405
 11
90.18560336
 21
55.0413341586
  0
LINE
  5
35B
100
AcDbEntity
  8
A_RUNDUNGEN
100
AcDbLine
 62
7
  6
CONTINUOUS
 10
94.584220249
 20
55.0627145776
 11
96.2834238666
 21
55.0627145776
  0
LINE
  5
35C
100
AcDbEntity
  8
A_RUNDUNGEN
100
AcDbLine
 62
7
  6
CONTINUOUS
 10
96.2870507747
 20
55.0627119334
 11
96.880256034
 21
55.0618491458
  0
LINE
  5
35D
100
AcDbEntity
  8
0
100
AcDbLine
 62
7
  6
CONTINUOUS
 10
98.1708805537
 20
55.2515781102
 11
93.7827172451
 21
55.3281737857
  0
LINE
  5
35E
100
AcDbEntity
  8
0
100
AcDbLine
 62
7
  6
CONTINUOUS
 10
100.3691289341
 20
54.1453300257
 11
99.4147754431
 21
54.1953455728
  0
LINE
  5
35F
100
AcDbEntity
  8
0
100
AcDbLine
 62
7
  6
CONTINUOUS
 10
67.5546749365
 20
55.1650581863
 11
75.8493502082
 21
46.8739474034
  0
LINE
  5
360
100
AcDbEntity
  8
A_RUNDUNGEN
100
AcDbLine
 62
7
  6
CONTINUOUS
 10
69.4175361744
 20
39.7777927156
 11
69.3689392087
 21
43.7553105663
  0
LINE
  5
361
100
AcDbEntity
  8
A_RUNDUNGEN
100
AcDbLine
 62
7
  6
CONTINUOUS
 10
69.4421539937
 20
39.9423156905
 11
69.3957692525
 21
43.7387695077
  0
LINE
  5
362
100
AcDbEntity
  8
0
100
AcDbLine
 62
7
  6
CONTINUOUS
 10
67.2534281472
 20
58.0804305353
 11
67.2534281472
 21
57.4925987282
  0
LINE
  5
363
100
AcDbEntity
  8
A_RUNDUNGEN
100
AcDbLine
 62
7
  6
CONTINUOUS
 10
67.2534281472
 20
26.1804305353
 11
67.2534281472
 21
26.1981465049
  0
LINE
  5
364
100
AcDbEntity
  8
A_RUNDUNGEN
100
AcDbLine
 62
7
  6
CONTINUOUS
 10
67.2534281472
 20
56.7627145776
 11
67.2534281472
 21
57.4925987282
  0
LINE
  5
365
100
AcDbEntity
  8
0
100
AcDbLine
 62
7
  6
CONTINUOUS
 10
72.0682568301
 20
74.9833826909
 11
70.3036899174
 21
68.3979293195
  0
LINE
  5
366
100
AcDbEntity
  8
0
100
AcDbLine
 62
7
  6
CONTINUOUS
 10
71.2696157437
 20
68.1391102744
 11
73.0341826563
 21
74.7245636458
  0
LINE
  5
367
100
AcDbEntity
  8
0
100
AcDbLine
 62
7
  6
CONTINUOUS
 10
74.0147039603
 20
77.8547929478
 11
71.2805094995
 21
68.3195236932
  0
LINE
  5
368
100
AcDbEntity
  8
0
100
AcDbLine
 62
7
  6
CONTINUOUS
 10
72.7224020434
 20
67.9060676594
 11
75.4565965042
 21
77.4413369141
  0
LINE
  5
369
100
AcDbEntity
  8
0
100
AcDbLine
 62
7
  6
CONTINUOUS
 10
35.6943795843
 20
43.7227488645
 11
34.8032334542
 21
43.207990017
  0
LINE
  5
36A
100
AcDbEntity
  8
A_RUNDUNGEN
100
AcDbLine
 62
7
  6
CONTINUOUS
 10
60.157805532
 20
56.8632188977
 11
54.7578055321
 21
56.8160938116
  0
LINE
  5
36B
100
AcDbEntity
  8
0
100
AcDbLine
 62
7
  6
CONTINUOUS
 10
33.2490789966
 20
56.6283899988
 11
54.7578055321
 21
56.8160938116
  0
LINE
  5
36C
100
AcDbEntity
  8
A_RUNDUNGEN
100
AcDbLine
 62
7
  6
CONTINUOUS
 10
32.8796540912
 20
56.4376237776
 11
55.5534422643
 21
56.5563445398
  0
LINE
  5
36D
100
AcDbEntity
  8
0
100
AcDbLine
 62
7
  6
CONTINUOUS
 10
38.9384699616
 20
57.9856802614
 11
55.2534422643
 21
58.0568682092
  0
LINE
  5
36E
100
AcDbEntity
  8
A_RUNDUNGEN
100
AcDbLine
 62
7
  6
CONTINUOUS
 10
55.2534422643
 20
58.0568682092
 11
60.6534422643
 21
58.0804303036
  0
LINE
  5
36F
100
AcDbEntity
  8
A_RUNDUNGEN
100
AcDbLine
 62
7
  6
CONTINUOUS
 10
71.6599702711
 20
56.223885515
 11
69.6739831489
 21
56.223885515
  0
LINE
  5
370
100
AcDbEntity
  8
A_RUNDUNGEN
100
AcDbLine
 62
7
  6
CONTINUOUS
 10
71.5702047816
 20
56.2413341586
 11
70.1739840956
 21
56.2413341586
  0
LINE
  5
371
100
AcDbEntity
  8
A_RUNDUNGEN
100
AcDbLine
 62
7
  6
CONTINUOUS
 10
69.0876932632
 20
56.723885515
 11
66.2805243622
 21
56.723885515
  0
LINE
  5
372
100
AcDbEntity
  8
A_RUNDUNGEN
100
AcDbLine
 62
7
  6
CONTINUOUS
 10
66.2417000593
 20
56.7627145776
 11
68.8879350531
 21
56.7627145776
  0
LINE
  5
373
100
AcDbEntity
  8
A_RUNDUNGEN
100
AcDbLine
 62
7
  6
CONTINUOUS
 10
62.1534422643
 20
58.0304303036
 11
60.6534422643
 21
58.0304303036
  0
LINE
  5
374
100
AcDbEntity
  8
A_RUNDUNGEN
100
AcDbLine
 62
7
  6
CONTINUOUS
 10
65.7534281472
 20
58.0304305353
 11
67.2534281472
 21
58.0304305353
  0
LINE
  5
375
100
AcDbEntity
  8
0
100
AcDbLine
 62
7
  6
CONTINUOUS
 10
60.6534422643
 20
58.1304303036
 11
62.1534422643
 21
58.1304303036
  0
LINE
  5
376
100
AcDbEntity
  8
0
100
AcDbLine
 62
7
  6
CONTINUOUS
 10
102.1534281472
 20
58.1304305353
 11
65.6534281472
 21
58.1304305353
  0
LINE
  5
377
100
AcDbEntity
  8
A_RUNDUNGEN
100
AcDbLine
 62
7
  6
CONTINUOUS
 10
52.2534422643
 20
58.1804303036
 11
57.1534422643
 21
58.1804303036
  0
LINE
  5
378
100
AcDbEntity
  8
0
100
AcDbLine
 62
7
  6
CONTINUOUS
 10
50.2222033663
 20
58.3804303036
 11
59.1534422643
 21
58.3804303036
  0
LINE
  5
379
100
AcDbEntity
  8
0
100
AcDbLine
 62
7
  6
CONTINUOUS
 10
54.5070223136
 20
58.4804303036
 11
54.935991682
 21
58.4804303036
  0
LINE
  5
37A
100
AcDbEntity
  8
0
100
AcDbLine
 62
7
  6
CONTINUOUS
 10
67.2534281472
 20
58.0804305353
 11
94.4485269924
 21
57.9617687784
  0
LINE
  5
37B
100
AcDbEntity
  8
A_RUNDUNGEN
100
AcDbLine
 62
7
  6
CONTINUOUS
 10
61.8578055321
 20
56.6759219704
 11
55.5534422643
 21
56.7309393151
  0
LINE
  5
37C
100
AcDbEntity
  8
0
100
AcDbLine
 62
7
  6
CONTINUOUS
 10
92.8472537906
 20
55.7234871713
 11
72.4417198325
 21
56.0796670914
  0
LINE
  5
37D
100
AcDbEntity
  8
0
100
AcDbLine
 62
7
  6
CONTINUOUS
 10
72.355041538
 20
56.0887773473
 11
67.6580236496
 21
57.0017851365
  0
LINE
  5
37E
100
AcDbEntity
  8
0
100
AcDbLine
 62
7
  6
CONTINUOUS
 10
93.2750602232
 20
43.3427064867
 11
92.3815516037
 21
43.8533535696
  0
LINE
  5
37F
100
AcDbEntity
  8
0
100
AcDbLine
 62
7
  6
CONTINUOUS
 10
101.5802048425
 20
28.85365384
 11
101.5266514519
 21
28.9072072306
  0
LINE
  5
380
100
AcDbEntity
  8
A_ACHSEN
100
AcDbLine
 62
7
  6
CENTER
 10
71.7739840956
 20
27.2874941354
 11
71.7739840956
 21
37.9733669471
  0
LINE
  5
381
100
AcDbEntity
  8
0
100
AcDbLine
 62
7
  6
CONTINUOUS
 10
56.9634834743
 20
41.5626416911
 11
51.0914198366
 21
35.3200831302
  0
LINE
  5
382
100
AcDbEntity
  8
0
100
AcDbLine
 62
7
  6
CONTINUOUS
 10
27.3916388655
 20
37.2495286042
 11
27.6152456632
 21
37.361332003
  0
LINE
  5
383
100
AcDbEntity
  8
0
100
AcDbLine
 62
7
  6
CONTINUOUS
 10
38.8556775281
 20
57.9818844788
 11
27.209864393
 21
56.9630078519
  0
LINE
  5
384
100
AcDbEntity
  8
A_RUNDUNGEN
100
AcDbLine
 62
7
  6
CONTINUOUS
 10
27.3604490455
 20
60.2803303036
 11
49.2534422643
 21
60.2803303036
  0
LINE
  5
385
100
AcDbEntity
  8
0
100
AcDbLine
 62
7
  6
CONTINUOUS
 10
26.4534422643
 20
60.3803303036
 11
50.1534422643
 21
60.3803303036
  0
LINE
  5
386
100
AcDbEntity
  8
0
100
AcDbLine
 62
7
  6
CONTINUOUS
 10
26.4534422643
 20
61.3803303036
 11
50.1534422643
 21
61.3803303036
  0
LINE
  5
387
100
AcDbEntity
  8
0
100
AcDbLine
 62
7
  6
CONTINUOUS
 10
50.2222033663
 20
61.3804303036
 11
59.1534422643
 21
61.3804303036
  0
LINE
  5
388
100
AcDbEntity
  8
0
100
AcDbLine
 62
7
  6
CONTINUOUS
 10
120.6534281472
 20
62.1304305353
 11
64.6534422643
 21
62.1304303036
  0
LINE
  5
389
100
AcDbEntity
  8
0
100
AcDbLine
 62
7
  6
CONTINUOUS
 10
72.0534422643
 20
63.1304303036
 11
64.6534422643
 21
63.1304303036
  0
LINE
  5
38A
100
AcDbEntity
  8
0
100
AcDbLine
 62
7
  6
CONTINUOUS
 10
100.3621877987
 20
57.1375758541
 11
94.5496343361
 21
57.9544769694
  0
LINE
  5
38B
100
AcDbEntity
  8
0
100
AcDbLine
 62
7
  6
CONTINUOUS
 10
94.8168780375
 20
48.1786041902
 11
95.710386657
 21
47.6679571073
  0
LINE
  5
38C
100
AcDbEntity
  8
0
100
AcDbLine
 62
7
  6
CONTINUOUS
 10
85.0661012519
 20
50.7212548612
 11
80.3043680531
 21
55.2003799019
  0
LINE
  5
38D
100
AcDbEntity
  8
0
100
AcDbLine
 62
7
  6
CONTINUOUS
 10
77.02153092
 20
44.0457721294
 11
77.0239839744
 21
32.6315588306
  0
LINE
  5
38E
100
AcDbEntity
  8
0
100
AcDbLine
 62
7
  6
CONTINUOUS
 10
75.6534281472
 20
58.1304305353
 11
75.6534281472
 21
58.0437783884
  0
LINE
  5
38F
100
AcDbEntity
  8
0
100
AcDbLine
 62
7
  6
CONTINUOUS
 10
75.6534281472
 20
26.2170826822
 11
75.6534281472
 21
26.1304305353
  0
LINE
  5
390
100
AcDbEntity
  8
0
100
AcDbLine
 62
7
  6
CONTINUOUS
 10
75.6534422643
 20
98.1304303036
 11
75.6534422643
 21
67.6304303036
  0
LINE
  5
391
100
AcDbEntity
  8
A_RUNDUNGEN
100
AcDbLine
 62
7
  6
CONTINUOUS
 10
76.704956271
 20
26.998152977
 11
76.704956271
 21
26.999470741
  0
LINE
  5
392
100
AcDbEntity
  8
0
100
AcDbLine
 62
7
  6
CONTINUOUS
 10
77.1534422643
 20
67.6304303036
 11
77.1534422643
 21
98.1304303036
  0
LINE
  5
393
100
AcDbEntity
  8
A_RUNDUNGEN
100
AcDbLine
 62
7
  6
CONTINUOUS
 10
77.4854837514
 20
30.0449403198
 11
77.4854837514
 21
35.761503117
  0
LINE
  5
394
100
AcDbEntity
  8
A_RUNDUNGEN
100
AcDbLine
 62
7
  6
CONTINUOUS
 10
77.6718214175
 20
32.0282107477
 11
77.6718214175
 21
35.9618431652
  0
LINE
  5
395
100
AcDbEntity
  8
A_RUNDUNGEN
100
AcDbLine
 62
7
  6
CONTINUOUS
 10
77.6739878958
 20
28.9553925966
 11
77.6739840956
 21
27.6312239452
  0
LINE
  5
396
100
AcDbEntity
  8
A_RUNDUNGEN
100
AcDbLine
 62
7
  6
CONTINUOUS
 10
66.7006527336
 20
36.037990092
 11
65.9207383086
 21
34.2006268488
  0
LINE
  5
397
100
AcDbEntity
  8
A_RUNDUNGEN
100
AcDbLine
 62
7
  6
CONTINUOUS
 10
66.8249348915
 20
35.8538856496
 11
66.0139053678
 21
33.9432198274
  0
LINE
  5
398
100
AcDbEntity
  8
0
100
AcDbLine
 62
7
  6
CONTINUOUS
 10
67.0548208521
 20
34.930864909
 11
70.111335972
 21
41.201069358
  0
LINE
  5
399
100
AcDbEntity
  8
0
100
AcDbLine
 62
7
  6
CONTINUOUS
 10
73.6836637394
 20
65.1304303036
 11
74.6534422643
 21
65.1304303036
  0
LINE
  5
39A
100
AcDbEntity
  8
0
100
AcDbLine
 62
7
  6
CONTINUOUS
 10
74.6534422643
 20
66.6304303036
 11
73.6836637394
 21
66.6304303036
  0
LINE
  5
39B
100
AcDbEntity
  8
0
100
AcDbLine
 62
7
  6
CONTINUOUS
 10
93.5414434483
 20
55.3950849314
 11
93.0885275873
 21
55.6565760256
  0
LINE
  5
39C
100
AcDbEntity
  8
0
100
AcDbLine
 62
7
  6
CONTINUOUS
 10
88.9053066696
 20
50.1523284706
 11
89.8202544799
 21
49.2453842652
  0
LINE
  5
39D
100
AcDbEntity
  8
0
100
AcDbLine
 62
7
  6
CONTINUOUS
 10
81.0534281472
 20
26.2406447766
 11
81.0534281472
 21
28.3856213563
  0
LINE
  5
39E
100
AcDbEntity
  8
0
100
AcDbLine
 62
7
  6
CONTINUOUS
 10
58.948807647
 20
43.8812417361
 11
64.0324743545
 21
46.1714480308
  0
LINE
  5
39F
100
AcDbEntity
  8
0
100
AcDbLine
 62
7
  6
CONTINUOUS
 10
72.6625889728
 20
50.059339185
 11
72.8614067442
 21
50.1489071559
  0
LINE
  5
3A0
100
AcDbEntity
  8
0
100
AcDbLine
 62
7
  6
CONTINUOUS
 10
96.861943751
 20
48.6014803833
 11
91.9261895851
 21
53.494058506
  0
LINE
  5
3A1
100
AcDbEntity
  8
A_RUNDUNGEN
100
AcDbLine
 62
7
  6
CONTINUOUS
 10
89.2081506186
 20
55.7870079534
 11
89.8248278417
 21
55.1703307304
  0
LINE
  5
3A2
100
AcDbEntity
  8
A_RUNDUNGEN
100
AcDbLine
 62
7
  6
CONTINUOUS
 10
89.8320567006
 20
55.1877779799
 11
89.2332651019
 21
55.7865695785
  0
LINE
  5
3A3
100
AcDbEntity
  8
0
100
AcDbLine
 62
7
  6
CONTINUOUS
 10
92.1842276645
 20
44.0266261226
 11
91.6454316245
 21
44.9504519708
  0
LINE
  5
3A4
100
AcDbEntity
  8
A_RUNDUNGEN
100
AcDbLine
 62
7
  6
CONTINUOUS
 10
97.2177182724
 20
54.8774402997
 11
98.4209938541
 21
53.674164718
  0
LINE
  5
3A5
100
AcDbEntity
  8
A_RUNDUNGEN
100
AcDbLine
 62
7
  6
CONTINUOUS
 10
97.2335192213
 20
54.9149648295
 11
98.4571019826
 21
53.6888652768
  0
LINE
  5
3A6
100
AcDbEntity
  8
0
100
AcDbLine
 62
7
  6
CONTINUOUS
 10
95.9077105962
 20
47.4946845543
 11
96.4465066361
 21
46.570858706
  0
LINE
  5
3A7
100
AcDbEntity
  8
A_RUNDUNGEN
100
AcDbLine
 62
7
  6
CONTINUOUS
 10
88.4294775427
 20
48.2218587527
 11
89.8706303719
 21
41.269659207
  0
LINE
  5
3A8
100
AcDbEntity
  8
0
100
AcDbLine
 62
7
  6
CONTINUOUS
 10
91.5666462278
 20
45.1881942223
 11
91.5617123537
 21
46.3113113584
  0
LINE
  5
3A9
100
AcDbEntity
  8
A_RUNDUNGEN
100
AcDbLine
 62
7
  6
CONTINUOUS
 10
88.4661119199
 20
34.2743768414
 11
88.4661119199
 21
31.0717791668
  0
LINE
  5
3AA
100
AcDbEntity
  8
0
100
AcDbLine
 62
7
  6
CONTINUOUS
 10
92.0598581467
 20
29.8004497104
 11
92.0598581467
 21
30.2212577567
  0
LINE
  5
3AB
100
AcDbEntity
  8
0
100
AcDbLine
 62
7
  6
CONTINUOUS
 10
92.3648585447
 20
47.6532601412
 11
93.2538462006
 21
48.1717377628
  0
LINE
  5
3AC
100
AcDbEntity
  8
0
100
AcDbLine
 62
7
  6
CONTINUOUS
 10
65.6534422643
 20
78.1304303036
 11
69.6534422643
 21
78.1304303036
  0
LINE
  5
3AD
100
AcDbEntity
  8
0
100
AcDbLine
 62
7
  6
CONTINUOUS
 10
63.1534422643
 20
79.1304303036
 11
73.0534422643
 21
79.1304303036
  0
LINE
  5
3AE
100
AcDbEntity
  8
0
100
AcDbLine
 62
7
  6
CONTINUOUS
 10
73.0534422643
 20
80.6304303036
 11
63.1534422643
 21
80.6304303036
  0
LINE
  5
3AF
100
AcDbEntity
  8
A_ACHSEN
100
AcDbLine
 62
7
  6
CENTER
 10
94.0459691303
 20
39.6810131388
 11
94.0459691303
 21
51.8402975381
  0
LINE
  5
3B0
100
AcDbEntity
  8
A_RUNDUNGEN
100
AcDbLine
 62
7
  6
CONTINUOUS
 10
94.5674390694
 20
36.2027091596
 11
94.5674390694
 21
34.9702842678
  0
LINE
  5
3B1
100
AcDbEntity
  8
A_RUNDUNGEN
100
AcDbLine
 62
7
  6
CONTINUOUS
 10
94.584887713
 20
36.1882454485
 11
94.584887713
 21
34.9708935879
  0
LWPOLYLINE
  5
3B2
100
AcDbEntity
  8
0
100
AcDbPolyline
 62
7
  6
CONTINUOUS
 90
4
 70
0
 10
92.0598581869
 20
29.8004497104
 10
92.0539082456
 20
29.6709511721
 10
92.0319494481
 20
29.5252748168
 10
91.9980739868
 20
29.4033188714
  0
LINE
  5
3B3
100
AcDbEntity
  8
0
100
AcDbLine
 62
7
  6
CONTINUOUS
 10
91.6384059378
 20
46.5497366319
 11
92.1690645711
 21
47.478260614
  0
LINE
  5
3B4
100
AcDbEntity
  8
A_RUNDUNGEN
100
AcDbLine
 62
7
  6
CONTINUOUS
 10
98.2213078887
 20
50.2516514699
 11
99.662460718
 21
43.2994519242
  0
LINE
  5
3B5
100
AcDbEntity
  8
0
100
AcDbLine
 62
7
  6
CONTINUOUS
 10
96.5252920329
 20
46.3331164546
 11
96.530225907
 21
45.2099993185
  0
LINE
  5
3B6
100
AcDbEntity
  8
A_RUNDUNGEN
100
AcDbLine
 62
7
  6
CONTINUOUS
 10
98.5674390694
 20
38.8343063896
 11
98.5674390694
 21
40.4114983534
  0
LINE
  5
3B7
100
AcDbEntity
  8
A_RUNDUNGEN
100
AcDbLine
 62
7
  6
CONTINUOUS
 10
98.5674390694
 20
52.918853464
 11
98.5674390694
 21
53.3206146929
  0
LINE
  5
3B8
100
AcDbEntity
  8
A_RUNDUNGEN
100
AcDbLine
 62
7
  6
CONTINUOUS
 10
98.5750701737
 20
52.9129030312
 11
98.5750701737
 21
51.8923509094
  0
LINE
  5
3B9
100
AcDbEntity
  8
A_RUNDUNGEN
100
AcDbLine
 62
7
  6
CONTINUOUS
 10
98.5750701737
 20
41.1013508011
 11
98.5750701737
 21
40.4210698803
  0
LINE
  5
3BA
100
AcDbEntity
  8
A_RUNDUNGEN
100
AcDbLine
 62
7
  6
CONTINUOUS
 10
98.5984093409
 20
50.8481969677
 11
98.5984093409
 21
48.4324935767
  0
LINE
  5
3BB
100
AcDbEntity
  8
A_RUNDUNGEN
100
AcDbLine
 62
7
  6
CONTINUOUS
 10
98.6032600247
 20
53.3354512327
 11
98.6032600247
 21
50.8481969677
  0
LINE
  5
3BC
100
AcDbEntity
  8
A_RUNDUNGEN
100
AcDbLine
 62
7
  6
CONTINUOUS
 10
98.6032600247
 20
41.1155357445
 11
98.6032600247
 21
38.8194698498
  0
LINE
  5
3BD
100
AcDbEntity
  8
A_RUNDUNGEN
100
AcDbLine
 62
7
  6
CONTINUOUS
 10
99.1534281472
 20
54.2517304151
 11
99.1534281472
 21
50.6282456058
  0
LINE
  5
3BE
100
AcDbEntity
  8
A_RUNDUNGEN
100
AcDbLine
 62
7
  6
CONTINUOUS
 10
99.1534281472
 20
30.3987711749
 11
99.1534281472
 21
36.3856818873
  0
LINE
  5
3BF
100
AcDbEntity
  8
0
100
AcDbLine
 62
7
  6
CONTINUOUS
 10
99.1534281472
 20
36.3856818873
 11
99.1534281472
 21
40.3326154648
  0
LINE
  5
3C0
100
AcDbEntity
  8
0
100
AcDbLine
 62
7
  6
CONTINUOUS
 10
100.1534281472
 20
29.2282583379
 11
100.1534281472
 21
35.7326027326
  0
LINE
  5
3C1
100
AcDbEntity
  8
0
100
AcDbLine
 62
7
  6
CONTINUOUS
 10
100.3534281472
 20
44.6104305353
 11
100.3534281472
 21
46.1862801353
  0
LINE
  5
3C2
100
AcDbEntity
  8
0
100
AcDbLine
 62
7
  6
CONTINUOUS
 10
100.3534281472
 20
46.5808620575
 11
100.3534281472
 21
47.1736177864
  0
LINE
  5
3C3
100
AcDbEntity
  8
0
100
AcDbLine
 62
7
  6
CONTINUOUS
 10
100.3534281472
 20
47.2381222852
 11
100.3534281472
 21
50.3822504082
  0
LINE
  5
3C4
100
AcDbEntity
  8
A_ACHSEN
100
AcDbLine
 62
7
  6
CONTINUOUS
 10
100.3534281472
 20
50.3822504082
 11
100.3534281472
 21
51.2544104082
  0
LINE
  5
3C5
100
AcDbEntity
  8
0
100
AcDbLine
 62
7
  6
CONTINUOUS
 10
100.3534281472
 20
51.2544104082
 11
100.3534281472
 21
52.0034985313
  0
LINE
  5
3C6
100
AcDbEntity
  8
0
100
AcDbLine
 62
7
  6
CONTINUOUS
 10
100.3534281472
 20
52.0680030301
 11
100.3534281472
 21
52.6607587589
  0
LINE
  5
3C7
100
AcDbEntity
  8
A_RUNDUNGEN
100
AcDbLine
 62
7
  6
CONTINUOUS
 10
94.5848874146
 20
36.1883900757
 11
94.5946101372
 21
36.2865078393
  0
LWPOLYLINE
  5
3C8
100
AcDbEntity
  8
A_RUNDUNGEN
100
AcDbPolyline
 62
7
  6
CONTINUOUS
 90
3
 70
0
 10
94.5946101372
 20
36.2865078393
 10
94.6247087864
 20
36.3839166144
 10
94.6720523301
 20
36.4704439217
  0
LINE
  5
3C9
100
AcDbEntity
  8
0
100
AcDbLine
 62
7
  6
CONTINUOUS
 10
96.4535323229
 20
44.971574045
 11
95.9228736896
 21
44.0430500629
  0
LINE
  5
3CA
100
AcDbEntity
  8
0
100
AcDbLine
 62
7
  6
CONTINUOUS
 10
95.7270797159
 20
43.8680505356
 11
94.8380920601
 21
43.3495729141
  0
LINE
  5
3CB
100
AcDbEntity
  8
0
100
AcDbLine
 62
7
  6
CONTINUOUS
 10
100.6534281472
 20
42.4151199053
 11
100.6534281472
 21
44.6104305353
  0
LINE
  5
3CC
100
AcDbEntity
  8
0
100
AcDbLine
 62
7
  6
CONTINUOUS
 10
100.6534281472
 20
46.1862801353
 11
100.6534281472
 21
46.6048837698
  0
LINE
  5
3CD
100
AcDbEntity
  8
0
100
AcDbLine
 62
7
  6
CONTINUOUS
 10
100.6534281472
 20
47.1736177864
 11
100.6534281472
 21
47.9902504082
  0
LINE
  5
3CE
100
AcDbEntity
  8
0
100
AcDbLine
 62
7
  6
CONTINUOUS
 10
100.6534281472
 20
50.3822504082
 11
100.6534281472
 21
52.0680030301
  0
LINE
  5
3CF
100
AcDbEntity
  8
0
100
AcDbLine
 62
7
  6
CONTINUOUS
 10
100.6534281472
 20
52.6367370467
 11
100.6534281472
 21
53.8457411653
  0
LINE
  5
3D0
100
AcDbEntity
  8
0
100
AcDbLine
 62
7
  6
CONTINUOUS
 10
101.1534281472
 20
29.1804305353
 11
101.1534281472
 21
35.780444565
  0
LINE
  5
3D1
100
AcDbEntity
  8
A_RUNDUNGEN
100
AcDbLine
 62
7
  6
CONTINUOUS
 10
101.6534281472
 20
36.0283619522
 11
101.6534281472
 21
28.7408496076
  0
LINE
  5
3D2
100
AcDbEntity
  8
0
100
AcDbLine
 62
7
  6
CONTINUOUS
 10
101.6534281472
 20
28.6086873196
 11
101.6534281472
 21
28.6768771447
  0
LINE
  5
3D3
100
AcDbEntity
  8
0
100
AcDbLine
 62
7
  6
CONTINUOUS
 10
101.6534281472
 20
36.2839839259
 11
101.6534281472
 21
55.6521737509
  0
LINE
  5
3D4
100
AcDbEntity
  8
0
100
AcDbLine
 62
7
  6
CONTINUOUS
 10
102.1534281472
 20
26.1304305353
 11
102.1534281472
 21
58.1304305353
  0
LWPOLYLINE
  5
3D5
100
AcDbEntity
  8
0
100
AcDbPolyline
 62
7
  6
CONTINUOUS
 90
3
 70
0
 10
91.9980739868
 20
29.4033188714
 10
91.9604925754
 20
29.3161439898
 10
91.944111026
 20
29.2902348134
  0
LWPOLYLINE
  5
3D6
100
AcDbEntity
  8
A_RUNDUNGEN
100
AcDbPolyline
 62
7
  6
CONTINUOUS
 90
3
 70
0
 10
94.6720523301
 20
36.4704439217
 10
94.7324081598
 20
36.5429766583
 10
94.7999187993
 20
36.5991713039
  0
LWPOLYLINE
  5
3D7
100
AcDbEntity
  8
A_RUNDUNGEN
100
AcDbPolyline
 62
7
  6
CONTINUOUS
 90
4
 70
0
 10
94.7999187993
 20
36.5991713039
 10
94.8684418385
 20
36.6389994673
 10
94.9248611194
 20
36.6618619944
 10
94.9499970681
 20
36.6694542484
  0
LINE
  5
3D8
100
AcDbEntity
  8
A_RUNDUNGEN
100
AcDbLine
 62
7
  6
CONTINUOUS
 10
85.1277810131
 20
28.8769480209
 11
85.4294587493
 21
29.0511217431
  0
LINE
  5
3D9
100
AcDbEntity
  8
A_RUNDUNGEN
100
AcDbLine
 62
7
  6
CONTINUOUS
 10
98.4571019824
 20
38.4660558056
 11
97.1939227239
 21
37.2002783094
  0
LINE
  5
3DA
100
AcDbEntity
  8
A_RUNDUNGEN
100
AcDbLine
 62
7
  6
CONTINUOUS
 10
98.4209938541
 20
38.4807563645
 11
97.1749138661
 21
37.2346763765
  0
LINE
  5
3DB
100
AcDbEntity
  8
0
100
AcDbLine
 62
7
  6
CONTINUOUS
 10
77.1534422643
 20
98.1304303036
 11
75.6534422643
 21
98.1304303036
  0
LINE
  5
3DC
100
AcDbEntity
  8
0
100
AcDbLine
 62
7
  6
CONTINUOUS
 10
101.5802048425
 20
36.1072072306
 11
101.5266514519
 21
36.05365384
  0
LINE
  5
3DD
100
AcDbEntity
  8
0
100
AcDbLine
 62
7
  6
CONTINUOUS
 10
120.6534281472
 20
22.1304305353
 11
120.6534281472
 21
62.1304305353
  0
ARC
  5
3DE
100
AcDbEntity
  8
0
100
AcDbCircle
 62
7
  6
CONTINUOUS
 10
22.6534422643
 20
23.6304303036
 40
2.5
100
AcDbArc
 50
180.0
 51
270.0
  0
ARC
  5
3DF
100
AcDbEntity
  8
0
100
AcDbCircle
 62
7
  6
CONTINUOUS
 10
25.6534422643
 20
29.9804303036
 40
1.5
100
AcDbArc
 50
180.0
 51
250.5287793655
  0
ARC
  5
3E0
100
AcDbEntity
  8
0
100
AcDbCircle
 62
7
  6
CONTINUOUS
 10
26.4534422643
 20
24.1804303036
 40
1.3
100
AcDbArc
 50
180.0
 51
270.0
  0
ARC
  5
3E1
100
AcDbEntity
  8
0
100
AcDbCircle
 62
7
  6
CONTINUOUS
 10
22.6534422643
 20
23.6304303036
 40
1.0
100
AcDbArc
 50
180.0
 51
270.0
  0
ARC
  5
3E2
100
AcDbEntity
  8
0
100
AcDbCircle
 62
7
  6
CONTINUOUS
 10
30.5019631293
 20
28.3356933581
 40
0.5
100
AcDbArc
 50
250.4633450619
 51
269.7
  0
ARC
  5
3E3
100
AcDbEntity
  8
0
100
AcDbCircle
 62
7
  6
CONTINUOUS
 10
28.2534422643
 20
29.1335556005
 40
0.5
100
AcDbArc
 50
180.0
 51
250.4633450619
  0
ARC
  5
3E4
100
AcDbEntity
  8
0
100
AcDbCircle
 62
7
  6
CONTINUOUS
 10
28.2534422643
 20
29.0378382399
 40
0.5
100
AcDbArc
 50
180.0
 51
251.115572952
  0
ARC
  5
3E5
100
AcDbEntity
  8
0
100
AcDbCircle
 62
7
  6
CONTINUOUS
 10
27.2534422643
 20
27.7959501044
 40
0.5
100
AcDbArc
 50
180.0
 51
265.0
  0
ARC
  5
3E6
100
AcDbEntity
  8
0
100
AcDbCircle
 62
7
  6
CONTINUOUS
 10
25.6534422643
 20
30.3804303036
 40
0.5
100
AcDbArc
 50
209.8084319914
 51
270.0
  0
ARC
  5
3E7
100
AcDbEntity
  8
0
100
AcDbCircle
 62
7
  6
CONTINUOUS
 10
25.6534422643
 20
29.9804303036
 40
0.5
100
AcDbArc
 50
180.0
 51
270.0
  0
ARC
  5
3E8
100
AcDbEntity
  8
0
100
AcDbCircle
 62
7
  6
CONTINUOUS
 10
26.4534422643
 20
24.1804303036
 40
0.3
100
AcDbArc
 50
180.0
 51
270.0
  0
ARC
  5
3E9
100
AcDbEntity
  8
0
100
AcDbCircle
 62
7
  6
CONTINUOUS
 10
29.0034422643
 20
30.6091342718
 40
0.25
100
AcDbArc
 50
180.0
 51
251.115572952
  0
ARC
  5
3EA
100
AcDbEntity
  8
0
100
AcDbCircle
 62
7
  6
CONTINUOUS
 10
27.3534422643
 20
35.0304303036
 40
0.4
100
AcDbArc
 50
0.0
 51
90.0
  0
ARC
  5
3EB
100
AcDbEntity
  8
0
100
AcDbCircle
 62
7
  6
CONTINUOUS
 10
27.1534422643
 20
35.0304303036
 40
0.4
100
AcDbArc
 50
90.0
 51
180.0
  0
ARC
  5
3EC
100
AcDbEntity
  8
0
100
AcDbCircle
 62
7
  6
CONTINUOUS
 10
27.5034422643
 20
36.1804303036
 40
0.25
100
AcDbArc
 50
0.0
 51
90.0
  0
ARC
  5
3ED
100
AcDbEntity
  8
0
100
AcDbCircle
 62
7
  6
CONTINUOUS
 10
27.5034422643
 20
36.6804303036
 40
0.25
100
AcDbArc
 50
180.0
 51
270.0
  0
ARC
  5
3EE
100
AcDbEntity
  8
0
100
AcDbCircle
 62
7
  6
CONTINUOUS
 10
27.5034422643
 20
37.0259218064
 40
0.25
100
AcDbArc
 50
116.5650511771
 51
180.0
  0
ARC
  5
3EF
100
AcDbEntity
  8
0
100
AcDbCircle
 62
7
  6
CONTINUOUS
 10
27.5034422643
 20
37.5849388008
 40
0.25
100
AcDbArc
 50
296.5650511771
 51
360.0
  0
ARC
  5
3F0
100
AcDbEntity
  8
A_RUNDUNGEN
100
AcDbCircle
 62
7
  6
CONTINUOUS
 10
29.0034422643
 20
35.6718524973
 40
0.25
100
AcDbArc
 50
201.9961529608
 51
268.000017101
  0
ARC
  5
3F1
100
AcDbEntity
  8
0
100
AcDbCircle
 62
7
  6
CONTINUOUS
 10
30.9238736038
 20
28.6528004469
 40
1.0
100
AcDbArc
 50
251.115572952
 51
269.5
  0
ARC
  5
3F2
100
AcDbEntity
  8
0
100
AcDbCircle
 62
7
  6
CONTINUOUS
 10
38.9428332709
 20
27.2751708266
 40
1.0
100
AcDbArc
 50
265.0
 51
269.75
  0
ARC
  5
3F3
100
AcDbEntity
  8
0
100
AcDbCircle
 62
7
  6
CONTINUOUS
 10
36.2534422643
 20
28.864959756
 40
0.5
100
AcDbArc
 50
0.0
 51
89.5
  0
ARC
  5
3F4
100
AcDbEntity
  8
A_RUNDUNGEN
100
AcDbCircle
 62
7
  6
CONTINUOUS
 10
35.0534422453
 20
28.1167432081
 40
0.5
100
AcDbArc
 50
214.7349652739
 51
269.5000021805
  0
ARC
  5
3F5
100
AcDbEntity
  8
0
100
AcDbCircle
 62
7
  6
CONTINUOUS
 10
31.7959644261
 20
29.6538881346
 40
0.25
100
AcDbArc
 50
251.115572952
 51
269.5
  0
ARC
  5
3F6
100
AcDbEntity
  8
A_RUNDUNGEN
100
AcDbCircle
 62
7
  6
CONTINUOUS
 10
36.3148710205
 20
41.5798948081
 40
2.0
100
AcDbArc
 50
259.3702478946
 51
349.3702478946
  0
ARC
  5
3F7
100
AcDbEntity
  8
A_RUNDUNGEN
100
AcDbCircle
 62
7
  6
CONTINUOUS
 10
35.7534422643
 20
34.1853753729
 40
1.0
100
AcDbArc
 50
0.0
 51
88.0
  0
ARC
  5
3F8
100
AcDbEntity
  8
0
100
AcDbCircle
 62
7
  6
CONTINUOUS
 10
32.1666499035
 20
46.5834453289
 40
5.0
100
AcDbArc
 50
71.0600183292
 51
87.6804774599
  0
ARC
  5
3F9
100
AcDbEntity
  8
A_RUNDUNGEN
100
AcDbCircle
 62
7
  6
CONTINUOUS
 10
30.4178328457
 20
42.6866652289
 40
2.0
100
AcDbArc
 50
213.358749708
 51
259.3702478946
  0
ARC
  5
3FA
100
AcDbEntity
  8
A_RUNDUNGEN
100
AcDbCircle
 62
7
  6
CONTINUOUS
 10
31.7275111769
 20
49.6648270691
 40
2.0
100
AcDbArc
 50
79.3702478946
 51
169.3702478946
  0
ARC
  5
3FB
100
AcDbEntity
  8
A_RUNDUNGEN
100
AcDbCircle
 62
7
  6
CONTINUOUS
 10
29.3534422643
 20
50.8845226936
 40
0.5
100
AcDbArc
 50
108.4349488229
 51
180.0
  0
ARC
  5
3FC
100
AcDbEntity
  8
0
100
AcDbCircle
 62
7
  6
CONTINUOUS
 10
27.3534422643
 20
46.8304303036
 40
0.4
100
AcDbArc
 50
270.0
 51
360.0
  0
ARC
  5
3FD
100
AcDbEntity
  8
0
100
AcDbCircle
 62
7
  6
CONTINUOUS
 10
27.1534422643
 20
46.8304303036
 40
0.4
100
AcDbArc
 50
180.0
 51
270.0
  0
ARC
  5
3FE
100
AcDbEntity
  8
0
100
AcDbCircle
 62
7
  6
CONTINUOUS
 10
27.5034422643
 20
45.6804303036
 40
0.25
100
AcDbArc
 50
270.0
 51
360.0
  0
ARC
  5
3FF
100
AcDbEntity
  8
0
100
AcDbCircle
 62
7
  6
CONTINUOUS
 10
27.5034422643
 20
45.1804303036
 40
0.25
100
AcDbArc
 50
90.0
 51
180.0
  0
ARC
  5
400
100
AcDbEntity
  8
0
100
AcDbCircle
 62
7
  6
CONTINUOUS
 10
27.5034422643
 20
44.8349388008
 40
0.25
100
AcDbArc
 50
180.0
 51
243.4349488229
  0
ARC
  5
401
100
AcDbEntity
  8
0
100
AcDbCircle
 62
7
  6
CONTINUOUS
 10
27.5034422643
 20
44.2759218064
 40
0.25
100
AcDbArc
 50
0.0
 51
63.4349488229
  0
ARC
  5
402
100
AcDbEntity
  8
0
100
AcDbCircle
 62
7
  6
CONTINUOUS
 10
25.6534422643
 20
54.2804303036
 40
1.5
100
AcDbArc
 50
109.4712206345
 51
180.0
  0
ARC
  5
403
100
AcDbEntity
  8
0
100
AcDbCircle
 62
7
  6
CONTINUOUS
 10
26.4534422643
 20
60.0803303036
 40
1.3
100
AcDbArc
 50
90.0
 51
180.0
  0
ARC
  5
404
100
AcDbEntity
  8
A_RUNDUNGEN
100
AcDbCircle
 62
7
  6
CONTINUOUS
 10
31.3721302675
 20
51.5574186947
 40
0.5
100
AcDbArc
 50
90.5
 51
108.4349488229
  0
ARC
  5
405
100
AcDbEntity
  8
0
100
AcDbCircle
 62
7
  6
CONTINUOUS
 10
32.2534422643
 20
54.0609933801
 40
0.5
100
AcDbArc
 50
270.5
 51
360.0
  0
ARC
  5
406
100
AcDbEntity
  8
0
100
AcDbCircle
 62
7
  6
CONTINUOUS
 10
28.2534422643
 20
54.8347271003
 40
0.5
100
AcDbArc
 50
90.5
 51
180.0
  0
ARC
  5
407
100
AcDbEntity
  8
0
100
AcDbCircle
 62
7
  6
CONTINUOUS
 10
32.2534422643
 20
55.8696726499
 40
0.5
100
AcDbArc
 50
270.5
 51
360.0
  0
ARC
  5
408
100
AcDbEntity
  8
0
100
AcDbCircle
 62
7
  6
CONTINUOUS
 10
27.2534422643
 20
56.4649105029
 40
0.5
100
AcDbArc
 50
95.0
 51
180.0
  0
ARC
  5
409
100
AcDbEntity
  8
0
100
AcDbCircle
 62
7
  6
CONTINUOUS
 10
25.6534422643
 20
54.2804303036
 40
0.5
100
AcDbArc
 50
90.0
 51
180.0
  0
ARC
  5
40A
100
AcDbEntity
  8
0
100
AcDbCircle
 62
7
  6
CONTINUOUS
 10
25.6534422643
 20
53.8804303036
 40
0.5
100
AcDbArc
 50
90.0
 51
150.1915680086
  0
ARC
  5
40B
100
AcDbEntity
  8
0
100
AcDbCircle
 62
7
  6
CONTINUOUS
 10
26.4534422643
 20
60.0803303036
 40
0.3
100
AcDbArc
 50
90.0
 51
180.0
  0
ARC
  5
40C
100
AcDbEntity
  8
0
100
AcDbCircle
 62
7
  6
CONTINUOUS
 10
28.0034422643
 20
54.912071197
 40
0.25
100
AcDbArc
 50
90.3
 51
180.0
  0
ARC
  5
40D
100
AcDbEntity
  8
0
100
AcDbCircle
 62
7
  6
CONTINUOUS
 10
29.0034422643
 20
52.3517263355
 40
0.25
100
AcDbArc
 50
108.884427048
 51
180.0
  0
ARC
  5
40E
100
AcDbEntity
  8
0
100
AcDbCircle
 62
7
  6
CONTINUOUS
 10
31.7959644261
 20
53.3069724727
 40
0.25
100
AcDbArc
 50
90.5
 51
108.884427048
  0
ARC
  5
40F
100
AcDbEntity
  8
0
100
AcDbCircle
 62
7
  6
CONTINUOUS
 10
40.3488658844
 20
49.1237209143
 40
6.0
100
AcDbArc
 50
90.0123135653
 51
135.0123135653
  0
ARC
  5
410
100
AcDbEntity
  8
0
100
AcDbCircle
 62
7
  6
CONTINUOUS
 10
35.8757322939
 20
44.6612765483
 40
5.0
100
AcDbArc
 50
251.0600183292
 51
267.6804774599
  0
ARC
  5
411
100
AcDbEntity
  8
A_ACHSEN
100
AcDbCircle
 62
7
  6
CONTINUOUS
 10
34.0211910987
 20
45.6223609386
 40
4.75
100
AcDbArc
 50
102.5538110554
 51
37.0156732159
  0
ARC
  5
412
100
AcDbEntity
  8
0
100
AcDbCircle
 62
7
  6
CONTINUOUS
 10
34.0211910987
 20
45.6223609386
 40
4.0
100
AcDbArc
 50
135.0123135653
 51
20.3879952132
  0
CIRCLE
  5
413
100
AcDbEntity
  8
0
100
AcDbCircle
 62
7
  6
CONTINUOUS
 10
34.0211910987
 20
45.6223609386
 40
2.55
  0
CIRCLE
  5
414
100
AcDbEntity
  8
A_ACHSEN
100
AcDbCircle
 62
7
  6
CONTINUOUS
 10
34.0211910987
 20
45.6223609386
 40
2.45
  0
CIRCLE
  5
415
100
AcDbEntity
  8
A_ACHSEN
100
AcDbCircle
 62
7
  6
CONTINUOUS
 10
34.0211910987
 20
45.6223609386
 40
2.0357864376
  0
ARC
  5
416
100
AcDbEntity
  8
A_RUNDUNGEN
100
AcDbCircle
 62
7
  6
CONTINUOUS
 10
37.6245493518
 20
48.5580566484
 40
2.0
100
AcDbArc
 50
349.3702478946
 51
44.279625221
  0
ARC
  5
417
100
AcDbEntity
  8
0
100
AcDbCircle
 62
7
  6
CONTINUOUS
 10
39.6453211155
 20
47.7126148835
 40
2.0
100
AcDbArc
 50
135.0123135653
 51
200.3879952132
  0
ARC
  5
418
100
AcDbEntity
  8
0
100
AcDbCircle
 62
7
  6
CONTINUOUS
 10
40.556080117
 20
48.6237654357
 40
2.0
100
AcDbArc
 50
90.0123135653
 51
135.0123135653
  0
ARC
  5
419
100
AcDbEntity
  8
0
100
AcDbCircle
 62
7
  6
CONTINUOUS
 10
38.9428332709
 20
56.9856897807
 40
1.0
100
AcDbArc
 50
90.25
 51
95.0
  0
ARC
  5
41A
100
AcDbEntity
  8
0
100
AcDbCircle
 62
7
  6
CONTINUOUS
 10
33.2534422643
 20
56.1284090373
 40
0.5
100
AcDbArc
 50
90.5
 51
180.0
  0
ARC
  5
41B
100
AcDbEntity
  8
A_RUNDUNGEN
100
AcDbCircle
 62
7
  6
CONTINUOUS
 10
35.0534422643
 20
56.1441173993
 40
0.5
100
AcDbArc
 50
90.5
 51
145.2650306583
  0
ARC
  5
41C
100
AcDbEntity
  8
A_RUNDUNGEN
100
AcDbCircle
 62
7
  6
CONTINUOUS
 10
34.8502612871
 20
51.6404935589
 40
0.4968190233
100
AcDbArc
 50
180.0025858171
 51
182.8254182603
  0
ARC
  5
41D
100
AcDbEntity
  8
A_RUNDUNGEN
100
AcDbCircle
 62
7
  6
CONTINUOUS
 10
34.8566959121
 20
51.645825213
 40
0.496708622
100
AcDbArc
 50
180.0023736645
 51
182.7012003207
  0
ARC
  5
41E
100
AcDbEntity
  8
0
100
AcDbCircle
 62
7
  6
CONTINUOUS
 10
52.4534422643
 20
26.1804303036
 40
3.3
100
AcDbArc
 50
180.0
 51
181.8161184677
  0
ARC
  5
41F
100
AcDbEntity
  8
A_RUNDUNGEN
100
AcDbCircle
 62
7
  6
CONTINUOUS
 10
48.2534422643
 20
28.7602373425
 40
0.5
100
AcDbArc
 50
0.0
 51
89.5
  0
ARC
  5
420
100
AcDbEntity
  8
0
100
AcDbCircle
 62
7
  6
CONTINUOUS
 10
48.2534422643
 20
27.0015104747
 40
0.5
100
AcDbArc
 50
0.0
 51
89.5
  0
ARC
  5
421
100
AcDbEntity
  8
0
100
AcDbCircle
 62
7
  6
CONTINUOUS
 10
52.4534422643
 20
26.1804303036
 40
0.3
100
AcDbArc
 50
180.0
 51
200.3973358624
  0
ARC
  5
422
100
AcDbEntity
  8
A_RUNDUNGEN
100
AcDbCircle
 62
7
  6
CONTINUOUS
 10
43.2034422643
 20
29.5543365836
 40
0.25
100
AcDbArc
 50
180.0
 51
269.5
  0
ARC
  5
423
100
AcDbEntity
  8
0
100
AcDbCircle
 62
7
  6
CONTINUOUS
 10
59.6534422643
 20
23.6304303036
 40
2.5
100
AcDbArc
 50
270.0
 51
360.0
  0
ARC
  5
424
100
AcDbEntity
  8
0
100
AcDbCircle
 62
7
  6
CONTINUOUS
 10
59.6534422643
 20
23.6304303036
 40
1.0
100
AcDbArc
 50
270.0
 51
360.0
  0
ARC
  5
425
100
AcDbEntity
  8
A_RUNDUNGEN
100
AcDbCircle
 62
7
  6
CONTINUOUS
 10
61.8534422643
 20
27.5138635984
 40
0.5
100
AcDbArc
 50
270.5
 51
360.0
  0
ARC
  5
426
100
AcDbEntity
  8
0
100
AcDbCircle
 62
7
  6
CONTINUOUS
 10
56.3534422643
 20
32.5949023036
 40
5.5
100
AcDbArc
 50
163.2484241838
 51
43.5697347038
  0
ARC
  5
427
100
AcDbEntity
  8
0
100
AcDbCircle
 62
7
  6
CONTINUOUS
 10
56.3534422643
 20
32.5949023036
 40
5.25
100
AcDbArc
 50
180.2516997865
 51
26.2516997865
  0
CIRCLE
  5
428
100
AcDbEntity
  8
0
100
AcDbCircle
 62
7
  6
CONTINUOUS
 10
56.3534422643
 20
32.5949023036
 40
2.75
  0
CIRCLE
  5
429
100
AcDbEntity
  8
0
100
AcDbCircle
 62
7
  6
CONTINUOUS
 10
56.3534422643
 20
32.5949023036
 40
2.575
  0
CIRCLE
  5
42A
100
AcDbEntity
  8
A_RUNDUNGEN
100
AcDbCircle
 62
7
  6
CONTINUOUS
 10
56.3534422643
 20
32.5949023036
 40
2.55
  0
CIRCLE
  5
42B
100
AcDbEntity
  8
A_RUNDUNGEN
100
AcDbCircle
 62
7
  6
CONTINUOUS
 10
56.3534422643
 20
32.5949023036
 40
2.4734119989
  0
CIRCLE
  5
42C
100
AcDbEntity
  8
A_RUNDUNGEN
100
AcDbCircle
 62
7
  6
CONTINUOUS
 10
56.3534422643
 20
32.5949023036
 40
2.4272122138
  0
ARC
  5
42D
100
AcDbEntity
  8
A_RUNDUNGEN
100
AcDbCircle
 62
7
  6
CONTINUOUS
 10
57.2934422643
 20
39.8769395714
 40
1.498913922
100
AcDbArc
 50
348.7404182345
 51
360.0
  0
ARC
  5
42E
100
AcDbEntity
  8
A_RUNDUNGEN
100
AcDbCircle
 62
7
  6
CONTINUOUS
 10
57.2934422643
 20
39.8769395714
 40
1.4799190669
100
AcDbArc
 50
349.8769553143
 51
360.0
  0
ARC
  5
42F
100
AcDbEntity
  8
0
100
AcDbCircle
 62
7
  6
CONTINUOUS
 10
52.7460662085
 20
44.6263851208
 40
6.0
100
AcDbArc
 50
66.0123135653
 51
90.0123135653
  0
ARC
  5
430
100
AcDbEntity
  8
0
100
AcDbCircle
 62
7
  6
CONTINUOUS
 10
55.053311961
 20
44.0035145085
 40
4.0
100
AcDbArc
 50
135.2516997865
 51
180.2516997865
  0
ARC
  5
431
100
AcDbEntity
  8
0
100
AcDbCircle
 62
7
  6
CONTINUOUS
 10
52.4534422643
 20
58.0804303036
 40
3.3
100
AcDbArc
 50
133.1761979441
 51
180.0
  0
ARC
  5
432
100
AcDbEntity
  8
0
100
AcDbCircle
 62
7
  6
CONTINUOUS
 10
59.6886474208
 20
57.1278774553
 40
2.0
100
AcDbArc
 50
270.0123135653
 51
308.2249468864
  0
ARC
  5
433
100
AcDbEntity
  8
A_RUNDUNGEN
100
AcDbCircle
 62
7
  6
CONTINUOUS
 10
59.7702994502
 20
42.0577420192
 40
2.0
100
AcDbArc
 50
114.2516997865
 51
206.2516997865
  0
ARC
  5
434
100
AcDbEntity
  8
A_RUNDUNGEN
100
AcDbCircle
 62
7
  6
CONTINUOUS
 10
49.2534422643
 20
59.2803303036
 40
1.0
100
AcDbArc
 50
53.5339130134
 51
90.0
  0
ARC
  5
435
100
AcDbEntity
  8
A_RUNDUNGEN
100
AcDbCircle
 62
7
  6
CONTINUOUS
 10
61.8534422643
 20
56.1759410089
 40
0.5
100
AcDbArc
 50
29.7860997293
 51
89.5
  0
ARC
  5
436
100
AcDbEntity
  8
0
100
AcDbCircle
 62
7
  6
CONTINUOUS
 10
54.7534422643
 20
57.3160747732
 40
0.5
100
AcDbArc
 50
270.5
 51
360.0
  0
ARC
  5
437
100
AcDbEntity
  8
A_RUNDUNGEN
100
AcDbCircle
 62
7
  6
CONTINUOUS
 10
55.7534422643
 20
56.3247390706
 40
0.5
100
AcDbArc
 50
90.4999755044
 51
152.4828278513
  0
ARC
  5
438
100
AcDbEntity
  8
A_RUNDUNGEN
100
AcDbCircle
 62
7
  6
CONTINUOUS
 10
60.1534422643
 20
57.36317631
 40
0.4999932719
100
AcDbArc
 50
270.5000235417
 51
0.0026985488
  0
ARC
  5
439
100
AcDbEntity
  8
0
100
AcDbCircle
 62
7
  6
CONTINUOUS
 10
52.4534422643
 20
58.0804303036
 40
0.3
100
AcDbArc
 50
90.0
 51
180.0
  0
ARC
  5
43A
100
AcDbEntity
  8
0
100
AcDbCircle
 62
7
  6
CONTINUOUS
 10
60.8842212491
 20
177.9102424598
 40
140.5815450262
100
AcDbArc
 50
256.8297786734
 51
266.0010895849
  0
ARC
  5
43B
100
AcDbEntity
  8
0
100
AcDbCircle
 62
7
  6
CONTINUOUS
 10
60.8842212491
 20
177.9102424598
 40
140.575
100
AcDbArc
 50
256.8291544478
 51
257.142143473
  0
ARC
  5
43C
100
AcDbEntity
  8
0
100
AcDbCircle
 62
7
  6
CONTINUOUS
 10
60.8842212491
 20
177.9102424598
 40
140.575
100
AcDbArc
 50
258.0342036492
 51
259.2496128961
  0
ARC
  5
43D
100
AcDbEntity
  8
0
100
AcDbCircle
 62
7
  6
CONTINUOUS
 10
60.8842212491
 20
177.9102424598
 40
140.575
100
AcDbArc
 50
259.4766338234
 51
266.0008909533
  0
ARC
  5
43E
100
AcDbEntity
  8
A_RUNDUNGEN
100
AcDbCircle
 62
7
  6
CONTINUOUS
 10
60.8842212491
 20
177.9102424598
 40
139.578913922
100
AcDbArc
 50
260.4873315166
 51
265.9695644162
  0
ARC
  5
43F
100
AcDbEntity
  8
A_RUNDUNGEN
100
AcDbCircle
 62
7
  6
CONTINUOUS
 10
60.8842212491
 20
177.9102424598
 40
139.5599190669
100
AcDbArc
 50
260.4922296685
 51
265.9689292547
  0
ARC
  5
440
100
AcDbEntity
  8
A_RUNDUNGEN
100
AcDbCircle
 62
7
  6
CONTINUOUS
 10
60.8842212491
 20
177.9102424598
 40
130.4400809331
100
AcDbArc
 50
260.5532477924
 51
266.5763257085
  0
ARC
  5
441
100
AcDbEntity
  8
A_RUNDUNGEN
100
AcDbCircle
 62
7
  6
CONTINUOUS
 10
60.8842212491
 20
177.9102424598
 40
130.421086078
100
AcDbArc
 50
260.5477764634
 51
266.5831615159
  0
ARC
  5
442
100
AcDbEntity
  8
A_RUNDUNGEN
100
AcDbCircle
 62
7
  6
CONTINUOUS
 10
60.8842212491
 20
177.9102424598
 40
129.425
100
AcDbArc
 50
260.4732035225
 51
266.981835696
  0
ARC
  5
443
100
AcDbEntity
  8
A_RUNDUNGEN
100
AcDbCircle
 62
7
  6
CONTINUOUS
 10
60.8842212491
 20
177.9102424598
 40
129.4184549738
100
AcDbArc
 50
260.4758871022
 51
266.9844204839
  0
ARC
  5
444
100
AcDbEntity
  8
0
100
AcDbCircle
 62
7
  6
CONTINUOUS
 10
71.7739840956
 20
32.6304305412
 40
5.5
100
AcDbArc
 50
136.694278648
 51
17.015589168
  0
ARC
  5
445
100
AcDbEntity
  8
0
100
AcDbCircle
 62
7
  6
CONTINUOUS
 10
71.7739840956
 20
32.6304305412
 40
5.25
100
AcDbArc
 50
154.0123135653
 51
0.0123135653
  0
CIRCLE
  5
446
100
AcDbEntity
  8
0
100
AcDbCircle
 62
7
  6
CONTINUOUS
 10
71.7739840956
 20
32.6304305412
 40
2.75
  0
CIRCLE
  5
447
100
AcDbEntity
  8
0
100
AcDbCircle
 62
7
  6
CONTINUOUS
 10
71.7739840956
 20
32.6304305412
 40
2.575
  0
CIRCLE
  5
448
100
AcDbEntity
  8
A_RUNDUNGEN
100
AcDbCircle
 62
7
  6
CONTINUOUS
 10
71.7739840956
 20
32.6304305412
 40
2.55
  0
CIRCLE
  5
449
100
AcDbEntity
  8
A_RUNDUNGEN
100
AcDbCircle
 62
7
  6
CONTINUOUS
 10
71.7739840956
 20
32.6304305412
 40
2.4737638262
  0
CIRCLE
  5
44A
100
AcDbEntity
  8
A_ACHSEN
100
AcDbCircle
 62
7
  6
CONTINUOUS
 10
71.7739840956
 20
32.6304305412
 40
2.4267240551
  0
ARC
  5
44B
100
AcDbEntity
  8
A_RUNDUNGEN
100
AcDbCircle
 62
7
  6
CONTINUOUS
 10
68.4357498739
 20
35.1701445413
 40
1.7499219441
100
AcDbArc
 50
104.5486219981
 51
157.0002798493
  0
ARC
  5
44C
100
AcDbEntity
  8
A_RUNDUNGEN
100
AcDbCircle
 62
7
  6
CONTINUOUS
 10
66.2417000593
 20
26.6981465049
 40
0.5
100
AcDbArc
 50
180.0478387799
 51
269.9521792871
  0
ARC
  5
44D
100
AcDbEntity
  8
A_ACHSEN
100
AcDbCircle
 62
7
  6
CONTINUOUS
 10
64.0199009418
 20
51.6287645325
 40
5.1
100
AcDbArc
 50
34.2935197731
 51
133.8872019069
  0
ARC
  5
44E
100
AcDbEntity
  8
A_ACHSEN
100
AcDbCircle
 62
7
  6
CONTINUOUS
 10
64.0199009418
 20
51.6287645325
 40
5.1
100
AcDbArc
 50
233.8622236715
 51
258.3859127706
  0
ARC
  5
44F
100
AcDbEntity
  8
0
100
AcDbCircle
 62
7
  6
CONTINUOUS
 10
64.0199009418
 20
51.6287645325
 40
5.0
100
AcDbArc
 50
45.0123135653
 51
128.2249468864
  0
CIRCLE
  5
450
100
AcDbEntity
  8
0
100
AcDbCircle
 62
7
  6
CONTINUOUS
 10
64.0199009418
 20
51.6287645325
 40
2.75
  0
CIRCLE
  5
451
100
AcDbEntity
  8
A_ACHSEN
100
AcDbCircle
 62
7
  6
CONTINUOUS
 10
64.0199009418
 20
51.6287645325
 40
2.55
  0
CIRCLE
  5
452
100
AcDbEntity
  8
0
100
AcDbCircle
 62
7
  6
CONTINUOUS
 10
64.0199009418
 20
51.6287645325
 40
2.5
  0
ARC
  5
453
100
AcDbEntity
  8
0
100
AcDbCircle
 62
7
  6
CONTINUOUS
 10
68.3135594982
 20
42.0774253077
 40
2.0
100
AcDbArc
 50
334.0123135653
 51
66.0123135653
  0
ARC
  5
454
100
AcDbEntity
  8
A_RUNDUNGEN
100
AcDbCircle
 62
7
  6
CONTINUOUS
 10
79.2769472833
 20
30.0430496013
 40
1.7914645297
100
AcDbArc
 50
179.9395298031
 51
197.4294874069
  0
ARC
  5
455
100
AcDbEntity
  8
A_RUNDUNGEN
100
AcDbCircle
 62
7
  6
CONTINUOUS
 10
75.9854563014
 20
35.7614940626
 40
1.5000167495
100
AcDbArc
 50
0.0003458462
 51
46.1139127556
  0
ARC
  5
456
100
AcDbEntity
  8
A_RUNDUNGEN
100
AcDbCircle
 62
7
  6
CONTINUOUS
 10
75.7732071257
 20
27.1311995
 40
0.7999755548
100
AcDbArc
 50
269.9993683949
 51
359.9983206843
  0
ARC
  5
457
100
AcDbEntity
  8
A_RUNDUNGEN
100
AcDbCircle
 62
7
  6
CONTINUOUS
 10
77.0727514398
 20
27.9943833513
 40
0.503688083
100
AcDbArc
 50
284.0042448475
 51
285.8669356907
  0
ARC
  5
458
100
AcDbEntity
  8
A_RUNDUNGEN
100
AcDbCircle
 62
7
  6
CONTINUOUS
 10
77.2050939187
 20
26.998676444
 40
0.5008045153
100
AcDbArc
 50
97.5303883622
 51
106.3159571327
  0
ARC
  5
459
100
AcDbEntity
  8
A_RUNDUNGEN
100
AcDbCircle
 62
7
  6
CONTINUOUS
 10
77.0732197481
 20
27.1311888754
 40
0.5000385243
100
AcDbArc
 50
90.0038747673
 51
180.0014692252
  0
ARC
  5
45A
100
AcDbEntity
  8
A_RUNDUNGEN
100
AcDbCircle
 62
7
  6
CONTINUOUS
 10
77.2049361945
 20
26.9994807942
 40
0.4999893679
100
AcDbArc
 50
106.3245055368
 51
180.0025701851
  0
ARC
  5
45B
100
AcDbEntity
  8
A_RUNDUNGEN
100
AcDbCircle
 62
7
  6
CONTINUOUS
 10
77.0736825324
 20
27.9905280866
 40
0.4997220876
100
AcDbArc
 50
280.0115245096
 51
284.0076307911
  0
ARC
  5
45C
100
AcDbEntity
  8
A_RUNDUNGEN
100
AcDbCircle
 62
7
  6
CONTINUOUS
 10
77.0748979554
 20
27.9837799699
 40
0.4928654296
100
AcDbArc
 50
277.527283209
 51
280.008760008
  0
ARC
  5
45D
100
AcDbEntity
  8
0
100
AcDbCircle
 62
7
  6
CONTINUOUS
 10
81.3534281472
 20
28.3856213563
 40
0.3
100
AcDbArc
 50
91.0
 51
180.0
  0
ARC
  5
45E
100
AcDbEntity
  8
0
100
AcDbCircle
 62
7
  6
CONTINUOUS
 10
75.3258821536
 20
44.6784080053
 40
6.0
100
AcDbArc
 50
90.2516997865
 51
114.2516997865
  0
ARC
  5
45F
100
AcDbEntity
  8
0
100
AcDbCircle
 62
7
  6
CONTINUOUS
 10
73.0215310124
 20
44.0449124803
 40
4.0
100
AcDbArc
 50
0.0123135653
 51
45.0123135653
  0
ARC
  5
460
100
AcDbEntity
  8
0
100
AcDbCircle
 62
7
  6
CONTINUOUS
 10
65.6534422643
 20
75.6304303036
 40
3.5
100
AcDbArc
 50
90.0
 51
180.0
  0
ARC
  5
461
100
AcDbEntity
  8
0
100
AcDbCircle
 62
7
  6
CONTINUOUS
 10
69.6534422643
 20
75.6304303036
 40
3.5
100
AcDbArc
 50
345.0
 51
90.0
  0
ARC
  5
462
100
AcDbEntity
  8
0
100
AcDbCircle
 62
7
  6
CONTINUOUS
 10
73.6844303094
 20
67.4920626616
 40
3.5
100
AcDbArc
 50
165.0
 51
246.5591597538
  0
ARC
  5
463
100
AcDbEntity
  8
0
100
AcDbCircle
 62
7
  6
CONTINUOUS
 10
73.6844303094
 20
67.4920626616
 40
2.5
100
AcDbArc
 50
165.0
 51
246.5591597538
  0
ARC
  5
464
100
AcDbEntity
  8
0
100
AcDbCircle
 62
7
  6
CONTINUOUS
 10
64.6534422643
 20
64.6304303036
 40
2.5
100
AcDbArc
 50
180.0
 51
270.0
  0
ARC
  5
465
100
AcDbEntity
  8
0
100
AcDbCircle
 62
7
  6
CONTINUOUS
 10
69.6534422643
 20
75.6304303036
 40
2.5
100
AcDbArc
 50
345.0
 51
90.0
  0
ARC
  5
466
100
AcDbEntity
  8
0
100
AcDbCircle
 62
7
  6
CONTINUOUS
 10
65.6534422643
 20
75.6304303036
 40
2.5
100
AcDbArc
 50
90.0
 51
180.0
  0
ARC
  5
467
100
AcDbEntity
  8
0
100
AcDbCircle
 62
7
  6
CONTINUOUS
 10
74.6534422643
 20
67.6304303036
 40
2.5
100
AcDbArc
 50
270.0
 51
360.0
  0
ARC
  5
468
100
AcDbEntity
  8
0
100
AcDbCircle
 62
7
  6
CONTINUOUS
 10
73.6836637394
 20
67.6304303036
 40
2.5
100
AcDbArc
 50
164.0
 51
270.0
  0
ARC
  5
469
100
AcDbEntity
  8
0
100
AcDbCircle
 62
7
  6
CONTINUOUS
 10
63.1534422643
 20
78.1304303036
 40
2.5
100
AcDbArc
 50
90.0
 51
180.0
  0
ARC
  5
46A
100
AcDbEntity
  8
0
100
AcDbCircle
 62
7
  6
CONTINUOUS
 10
73.0534422643
 20
78.1304303036
 40
2.5
100
AcDbArc
 50
344.0
 51
90.0
  0
ARC
  5
46B
100
AcDbEntity
  8
0
100
AcDbCircle
 62
7
  6
CONTINUOUS
 10
68.3257691953
 20
57.1477769969
 40
2.0
100
AcDbArc
 50
246.7162711711
 51
270.2516997865
  0
ARC
  5
46C
100
AcDbEntity
  8
0
100
AcDbCircle
 62
7
  6
CONTINUOUS
 10
72.0534422643
 20
63.7304303036
 40
1.6
100
AcDbArc
 50
270.0
 51
66.5591597538
  0
ARC
  5
46D
100
AcDbEntity
  8
0
100
AcDbCircle
 62
7
  6
CONTINUOUS
 10
64.6534422643
 20
64.6304303036
 40
1.5
100
AcDbArc
 50
180.0
 51
270.0
  0
ARC
  5
46E
100
AcDbEntity
  8
0
100
AcDbCircle
 62
7
  6
CONTINUOUS
 10
73.0534422643
 20
78.1304303036
 40
1.0
100
AcDbArc
 50
344.0
 51
90.0
  0
ARC
  5
46F
100
AcDbEntity
  8
0
100
AcDbCircle
 62
7
  6
CONTINUOUS
 10
63.1534422643
 20
78.1304303036
 40
1.0
100
AcDbArc
 50
90.0
 51
180.0
  0
ARC
  5
470
100
AcDbEntity
  8
0
100
AcDbCircle
 62
7
  6
CONTINUOUS
 10
74.6534422643
 20
67.6304303036
 40
1.0
100
AcDbArc
 50
270.0
 51
360.0
  0
ARC
  5
471
100
AcDbEntity
  8
0
100
AcDbCircle
 62
7
  6
CONTINUOUS
 10
73.6836637394
 20
67.6304303036
 40
1.0
100
AcDbArc
 50
164.0
 51
270.0
  0
ARC
  5
472
100
AcDbEntity
  8
0
100
AcDbCircle
 62
7
  6
CONTINUOUS
 10
72.0534422643
 20
63.7304303036
 40
0.6
100
AcDbArc
 50
270.0
 51
66.5591597538
  0
ARC
  5
473
100
AcDbEntity
  8
A_RUNDUNGEN
100
AcDbCircle
 62
7
  6
CONTINUOUS
 10
69.1739418763
 20
56.2238945295
 40
0.5000135989
100
AcDbArc
 50
4.3356809207
 51
62.8946262546
  0
ARC
  5
474
100
AcDbEntity
  8
A_RUNDUNGEN
100
AcDbCircle
 62
7
  6
CONTINUOUS
 10
66.2417000593
 20
56.2627145776
 40
0.5
100
AcDbArc
 50
90.0478387799
 51
162.0894845318
  0
ARC
  5
475
100
AcDbEntity
  8
0
100
AcDbCircle
 62
7
  6
CONTINUOUS
 10
72.4504460357
 20
56.579590939
 40
0.5
100
AcDbArc
 50
259.0
 51
269.0
  0
ARC
  5
476
100
AcDbEntity
  8
0
100
AcDbCircle
 62
7
  6
CONTINUOUS
 10
67.7534281472
 20
57.4925987282
 40
0.5
100
AcDbArc
 50
180.0
 51
259.0
  0
ARC
  5
477
100
AcDbEntity
  8
A_RUNDUNGEN
100
AcDbCircle
 62
7
  6
CONTINUOUS
 10
69.1740949141
 20
56.2627483324
 40
0.4998891827
100
AcDbArc
 50
359.9961311337
 51
51.4335790951
  0
ARC
  5
478
100
AcDbEntity
  8
A_RUNDUNGEN
100
AcDbCircle
 62
7
  6
CONTINUOUS
 10
69.1803226959
 20
56.2238075196
 40
0.4936604591
100
AcDbArc
 50
0.0090523932
 51
4.4017381529
  0
ARC
  5
479
100
AcDbEntity
  8
A_RUNDUNGEN
100
AcDbCircle
 62
7
  6
CONTINUOUS
 10
85.9294587493
 20
28.1850963393
 40
1.0
100
AcDbArc
 50
91.0
 51
120.0
  0
ARC
  5
47A
100
AcDbEntity
  8
0
100
AcDbCircle
 62
7
  6
CONTINUOUS
 10
84.6277810131
 20
29.7429734247
 40
1.0
100
AcDbArc
 50
271.0
 51
292.5063827221
  0
ARC
  5
47B
100
AcDbEntity
  8
A_RUNDUNGEN
100
AcDbCircle
 62
7
  6
CONTINUOUS
 10
89.6002842622
 20
29.1179641175
 40
0.5038056388
100
AcDbArc
 50
145.8893726083
 51
165.8663962047
  0
ARC
  5
47C
100
AcDbEntity
  8
A_RUNDUNGEN
100
AcDbCircle
 62
7
  6
CONTINUOUS
 10
89.5972936599
 20
29.1162015058
 40
0.5033304709
100
AcDbArc
 50
90.0618432734
 51
108.7214917765
  0
ARC
  5
47D
100
AcDbEntity
  8
0
100
AcDbCircle
 62
7
  6
CONTINUOUS
 10
88.9661119199
 20
31.0717791668
 40
0.5
100
AcDbArc
 50
180.0
 51
269.0
  0
ARC
  5
47E
100
AcDbEntity
  8
A_RUNDUNGEN
100
AcDbCircle
 62
7
  6
CONTINUOUS
 10
88.9661119199
 20
34.2743768414
 40
0.5
100
AcDbArc
 50
92.0
 51
180.0
  0
ARC
  5
47F
100
AcDbEntity
  8
A_RUNDUNGEN
100
AcDbCircle
 62
7
  6
CONTINUOUS
 10
88.9661119199
 20
31.0717791668
 40
0.5
100
AcDbArc
 50
180.0
 51
269.0
  0
ARC
  5
480
100
AcDbEntity
  8
A_RUNDUNGEN
100
AcDbCircle
 62
7
  6
CONTINUOUS
 10
89.5967416202
 20
29.1195465557
 40
0.499985524
100
AcDbArc
 50
108.7846133556
 51
145.8118494251
  0
ARC
  5
481
100
AcDbEntity
  8
0
100
AcDbCircle
 62
7
  6
CONTINUOUS
 10
85.1636819027
 20
28.4496017702
 40
0.4
100
AcDbArc
 50
90.5
 51
112.5063827221
  0
ARC
  5
482
100
AcDbEntity
  8
0
100
AcDbCircle
 62
7
  6
CONTINUOUS
 10
91.5700948139
 20
45.4804305353
 40
9.0833333333
100
AcDbArc
 50
327.5092588329
 51
336.949639287
  0
ARC
  5
483
100
AcDbEntity
  8
A_RUNDUNGEN
100
AcDbCircle
 62
7
  6
CONTINUOUS
 10
91.5700948139
 20
45.4804305353
 40
9.0833333333
100
AcDbArc
 50
15.9669379468
 51
32.490741167
  0
ARC
  5
484
100
AcDbEntity
  8
A_RUNDUNGEN
100
AcDbCircle
 62
7
  6
CONTINUOUS
 10
91.5700948139
 20
45.4804305353
 40
9.0833333333
100
AcDbArc
 50
4.4732868708
 51
6.9333275998
  0
ARC
  5
485
100
AcDbEntity
  8
A_RUNDUNGEN
100
AcDbCircle
 62
7
  6
CONTINUOUS
 10
91.5700948139
 20
45.4804305353
 40
9.0833333333
100
AcDbArc
 50
336.9415297867
 51
354.5331394012
  0
ARC
  5
486
100
AcDbEntity
  8
0
100
AcDbCircle
 62
7
  6
CONTINUOUS
 10
87.7022276541
 20
49.2328209387
 40
6.0
100
AcDbArc
 50
45.2516997865
 51
90.2516997865
  0
ARC
  5
487
100
AcDbEntity
  8
A_RUNDUNGEN
100
AcDbCircle
 62
7
  6
CONTINUOUS
 10
91.8289964412
 20
41.6756177504
 40
2.0
100
AcDbArc
 50
191.7112330501
 51
281.7112330501
  0
ARC
  5
488
100
AcDbEntity
  8
A_RUNDUNGEN
100
AcDbCircle
 62
7
  6
CONTINUOUS
 10
90.3878436119
 20
48.6278172961
 40
2.0
100
AcDbArc
 50
134.1306331696
 51
191.7112330501
  0
ARC
  5
489
100
AcDbEntity
  8
0
100
AcDbCircle
 62
7
  6
CONTINUOUS
 10
87.4973193592
 20
48.7319159482
 40
2.0
100
AcDbArc
 50
45.2516997865
 51
90.2516997865
  0
ARC
  5
48A
100
AcDbEntity
  8
0
100
AcDbCircle
 62
7
  6
CONTINUOUS
 10
88.4122671696
 20
47.8249717428
 40
2.0
100
AcDbArc
 50
339.8760181387
 51
45.2516997865
  0
ARC
  5
48B
100
AcDbEntity
  8
0
100
AcDbCircle
 62
7
  6
CONTINUOUS
 10
94.4452545104
 20
27.0490851527
 40
0.75
100
AcDbArc
 50
270.25
 51
278.0
  0
ARC
  5
48C
100
AcDbEntity
  8
A_RUNDUNGEN
100
AcDbCircle
 62
7
  6
CONTINUOUS
 10
96.8398650692
 20
37.5535765533
 40
0.5001739831
100
AcDbArc
 50
282.1775577517
 51
315.0320900501
  0
ARC
  5
48D
100
AcDbEntity
  8
A_RUNDUNGEN
100
AcDbCircle
 62
7
  6
CONTINUOUS
 10
96.82136392
 20
37.5882262566
 40
0.499995082
100
AcDbArc
 50
282.1289234905
 51
315.0000053516
  0
ARC
  5
48E
100
AcDbEntity
  8
A_RUNDUNGEN
100
AcDbCircle
 62
7
  6
CONTINUOUS
 10
95.0674329185
 20
36.2027102997
 40
0.4999938491
100
AcDbArc
 50
101.3333795175
 51
180.0001306482
  0
ARC
  5
48F
100
AcDbEntity
  8
A_RUNDUNGEN
100
AcDbCircle
 62
7
  6
CONTINUOUS
 10
98.1534281472
 20
30.3987711749
 40
1.0
100
AcDbArc
 50
271.0
 51
360.0
  0
ARC
  5
490
100
AcDbEntity
  8
0
100
AcDbCircle
 62
7
  6
CONTINUOUS
 10
100.1534281472
 20
28.6086873196
 40
1.5
100
AcDbArc
 50
278.0
 51
360.0
  0
ARC
  5
491
100
AcDbEntity
  8
0
100
AcDbCircle
 62
7
  6
CONTINUOUS
 10
99.9034281472
 20
29.2282583379
 40
0.25
100
AcDbArc
 50
270.5
 51
360.0
  0
ARC
  5
492
100
AcDbEntity
  8
0
100
AcDbCircle
 62
7
  6
CONTINUOUS
 10
101.4034281472
 20
28.6768771447
 40
0.25
100
AcDbArc
 50
0.0
 51
45.0
  0
ARC
  5
493
100
AcDbEntity
  8
0
100
AcDbCircle
 62
7
  6
CONTINUOUS
 10
101.3498747566
 20
28.7304305353
 40
0.25
100
AcDbArc
 50
45.0
 51
89.5475776611
  0
ARC
  5
494
100
AcDbEntity
  8
0
100
AcDbCircle
 62
7
  6
CONTINUOUS
 10
101.3534281472
 20
29.1804305353
 40
0.2
100
AcDbArc
 50
180.0
 51
269.5475776611
  0
ARC
  5
495
100
AcDbEntity
  8
A_RUNDUNGEN
100
AcDbCircle
 62
7
  6
CONTINUOUS
 10
98.1029689064
 20
38.8194290136
 40
0.5002803219
100
AcDbArc
 50
315.0321202503
 51
338.5675565452
  0
ARC
  5
496
100
AcDbEntity
  8
A_RUNDUNGEN
100
AcDbCircle
 62
7
  6
CONTINUOUS
 10
98.6534281472
 20
35.6132749227
 40
0.5
100
AcDbArc
 50
272.0
 51
360.0
  0
ARC
  5
497
100
AcDbEntity
  8
0
100
AcDbCircle
 62
7
  6
CONTINUOUS
 10
99.5534281472
 20
36.3856818873
 40
0.4
100
AcDbArc
 50
180.0
 51
269.5
  0
ARC
  5
498
100
AcDbEntity
  8
0
100
AcDbCircle
 62
7
  6
CONTINUOUS
 10
99.9034281472
 20
35.7326027326
 40
0.25
100
AcDbArc
 50
0.0
 51
89.5
  0
ARC
  5
499
100
AcDbEntity
  8
0
100
AcDbCircle
 62
7
  6
CONTINUOUS
 10
101.4034281472
 20
36.2839839259
 40
0.25
100
AcDbArc
 50
315.0
 51
360.0
  0
ARC
  5
49A
100
AcDbEntity
  8
0
100
AcDbCircle
 62
7
  6
CONTINUOUS
 10
101.3498747566
 20
36.2304305353
 40
0.25
100
AcDbArc
 50
270.452436444
 51
315.0
  0
ARC
  5
49B
100
AcDbEntity
  8
0
100
AcDbCircle
 62
7
  6
CONTINUOUS
 10
101.3534281472
 20
35.780444565
 40
0.2
100
AcDbArc
 50
90.452436444
 51
180.0
  0
ARC
  5
49C
100
AcDbEntity
  8
A_ACHSEN
100
AcDbCircle
 62
7
  6
CONTINUOUS
 10
94.0459691303
 20
45.7606553384
 40
4.75
100
AcDbArc
 50
143.2483401359
 51
77.7102022964
  0
ARC
  5
49D
100
AcDbEntity
  8
0
100
AcDbCircle
 62
7
  6
CONTINUOUS
 10
94.0459691303
 20
45.7606553384
 40
4.0
100
AcDbArc
 50
159.8760181387
 51
45.2516997865
  0
CIRCLE
  5
49E
100
AcDbEntity
  8
0
100
AcDbCircle
 62
7
  6
CONTINUOUS
 10
94.0459691303
 20
45.7606553384
 40
2.55
  0
CIRCLE
  5
49F
100
AcDbEntity
  8
A_ACHSEN
100
AcDbCircle
 62
7
  6
CONTINUOUS
 10
94.0459691303
 20
45.7606553384
 40
2.45
  0
CIRCLE
  5
4A0
100
AcDbEntity
  8
A_ACHSEN
100
AcDbCircle
 62
7
  6
CONTINUOUS
 10
94.0459691303
 20
45.7606553384
 40
2.0357864376
  0
ARC
  5
4A1
100
AcDbEntity
  8
A_RUNDUNGEN
100
AcDbCircle
 62
7
  6
CONTINUOUS
 10
96.2629418195
 20
49.8456929264
 40
2.0
100
AcDbArc
 50
11.7112330501
 51
101.7112330501
  0
ARC
  5
4A2
100
AcDbEntity
  8
A_RUNDUNGEN
100
AcDbCircle
 62
7
  6
CONTINUOUS
 10
97.7040946488
 20
42.8934933808
 40
2.0
100
AcDbArc
 50
281.7112330501
 51
11.7112330501
  0
ARC
  5
4A3
100
AcDbEntity
  8
A_RUNDUNGEN
100
AcDbCircle
 62
7
  6
CONTINUOUS
 10
98.0742166521
 20
40.4170006612
 40
0.5026955146
100
AcDbArc
 50
88.4893500824
 51
100.107208988
  0
ARC
  5
4A4
100
AcDbEntity
  8
A_RUNDUNGEN
100
AcDbCircle
 62
7
  6
CONTINUOUS
 10
98.0730164256
 20
40.4174060302
 40
0.5024756254
100
AcDbArc
 50
59.8921962601
 51
74.198511741
  0
ARC
  5
4A5
100
AcDbEntity
  8
A_RUNDUNGEN
100
AcDbCircle
 62
7
  6
CONTINUOUS
 10
98.0738629305
 20
40.4188611289
 40
0.5008451805
100
AcDbArc
 50
74.246362819
 51
88.4432881427
  0
ARC
  5
4A6
100
AcDbEntity
  8
A_RUNDUNGEN
100
AcDbCircle
 62
7
  6
CONTINUOUS
 10
99.6534281472
 20
50.6282456058
 40
0.5
100
AcDbArc
 50
180.0000000068
 51
212.4907411728
  0
ARC
  5
4A7
100
AcDbEntity
  8
0
100
AcDbCircle
 62
7
  6
CONTINUOUS
 10
99.6534281472
 20
40.3326154648
 40
0.5
100
AcDbArc
 50
147.5092588329
 51
180.0
  0
ARC
  5
4A8
100
AcDbEntity
  8
A_RUNDUNGEN
100
AcDbCircle
 62
7
  6
CONTINUOUS
 10
98.0674498963
 20
40.4115043545
 40
0.4999884394
100
AcDbArc
 50
359.999312299
 51
82.7171288914
  0
ARC
  5
4A9
100
AcDbEntity
  8
A_RUNDUNGEN
100
AcDbCircle
 62
7
  6
CONTINUOUS
 10
98.0681606263
 20
40.4150591016
 40
0.4963730717
100
AcDbArc
 50
82.7464902628
 51
84.9662296654
  0
ARC
  5
4AA
100
AcDbEntity
  8
0
100
AcDbCircle
 62
7
  6
CONTINUOUS
 10
100.2042727676
 20
41.8064795955
 40
0.3
100
AcDbArc
 50
93.0
 51
156.949639287
  0
ARC
  5
4AB
100
AcDbEntity
  8
0
100
AcDbCircle
 62
7
  6
CONTINUOUS
 10
100.3534281472
 20
42.4151199053
 40
0.3
100
AcDbArc
 50
273.0
 51
360.0
  0
ARC
  5
4AC
100
AcDbEntity
  8
0
100
AcDbCircle
 62
7
  6
CONTINUOUS
 10
100.1534281472
 20
55.6521737509
 40
1.5
100
AcDbArc
 50
0.0
 51
82.0
  0
ARC
  5
4AD
100
AcDbEntity
  8
0
100
AcDbCircle
 62
7
  6
CONTINUOUS
 10
98.1534281472
 20
54.2517304151
 40
1.0
100
AcDbArc
 50
10.7824259673
 51
89.0
  0
ARC
  5
4AE
100
AcDbEntity
  8
A_RUNDUNGEN
100
AcDbCircle
 62
7
  6
CONTINUOUS
 10
98.1534281472
 20
54.2517304151
 40
1.0
100
AcDbArc
 50
0.0
 51
10.7824259669
  0
ARC
  5
4AF
100
AcDbEntity
  8
0
100
AcDbCircle
 62
7
  6
CONTINUOUS
 10
94.4452545104
 20
57.2117759179
 40
0.75
100
AcDbArc
 50
82.0
 51
89.75
  0
ARC
  5
4B0
100
AcDbEntity
  8
A_RUNDUNGEN
100
AcDbCircle
 62
7
  6
CONTINUOUS
 10
98.1002824593
 20
53.3350725571
 40
0.5029753281
100
AcDbArc
 50
0.0431363367
 51
16.5455597862
  0
ARC
  5
4B1
100
AcDbEntity
  8
A_RUNDUNGEN
100
AcDbCircle
 62
7
  6
CONTINUOUS
 10
98.0730634756
 20
52.9160272067
 40
0.5024295518
100
AcDbArc
 50
284.1485934472
 51
300.1046482064
  0
ARC
  5
4B2
100
AcDbEntity
  8
A_RUNDUNGEN
100
AcDbCircle
 62
7
  6
CONTINUOUS
 10
98.0738983398
 20
52.9151092637
 40
0.5012003867
100
AcDbArc
 50
300.0747178387
 51
359.7477771432
  0
ARC
  5
4B3
100
AcDbEntity
  8
A_RUNDUNGEN
100
AcDbCircle
 62
7
  6
CONTINUOUS
 10
94.5843261572
 20
54.5620151473
 40
0.5007037188
100
AcDbArc
 50
94.8269804181
 51
104.456535487
  0
ARC
  5
4B4
100
AcDbEntity
  8
A_RUNDUNGEN
100
AcDbCircle
 62
7
  6
CONTINUOUS
 10
98.1029806055
 20
53.3354979462
 40
0.5002678912
100
AcDbArc
 50
16.5868589876
 51
44.9685024954
  0
ARC
  5
4B5
100
AcDbEntity
  8
A_RUNDUNGEN
100
AcDbCircle
 62
7
  6
CONTINUOUS
 10
94.5841950734
 20
54.5625722484
 40
0.5001375702
100
AcDbArc
 50
89.9971158805
 51
94.8173871076
  0
ARC
  5
4B6
100
AcDbEntity
  8
0
100
AcDbCircle
 62
7
  6
CONTINUOUS
 10
92.8385275873
 20
55.2235633237
 40
0.5
100
AcDbArc
 50
60.0
 51
89.0
  0
ARC
  5
4B7
100
AcDbEntity
  8
0
100
AcDbCircle
 62
7
  6
CONTINUOUS
 10
93.7914434483
 20
55.8280976333
 40
0.5
100
AcDbArc
 50
240.0
 51
269.0
  0
ARC
  5
4B8
100
AcDbEntity
  8
A_RUNDUNGEN
100
AcDbCircle
 62
7
  6
CONTINUOUS
 10
98.0674451029
 20
52.9188524707
 40
0.4999939665
100
AcDbArc
 50
284.1071761648
 51
0.0001138293
  0
ARC
  5
4B9
100
AcDbEntity
  8
A_RUNDUNGEN
100
AcDbCircle
 62
7
  6
CONTINUOUS
 10
96.8795036948
 20
54.5618818861
 40
0.4999652955
100
AcDbArc
 50
44.9722366658
 51
89.9554520652
  0
ARC
  5
4BA
100
AcDbEntity
  8
A_RUNDUNGEN
100
AcDbCircle
 62
7
  6
CONTINUOUS
 10
90.1855701173
 20
55.5412443843
 40
0.4999149864
100
AcDbArc
 50
224.9961900166
 51
270.0038099834
  0
ARC
  5
4BB
100
AcDbEntity
  8
0
100
AcDbCircle
 62
7
  6
CONTINUOUS
 10
99.4304762299
 20
54.4949344332
 40
0.3
100
AcDbArc
 50
190.7824259673
 51
267.0
  0
ARC
  5
4BC
100
AcDbEntity
  8
0
100
AcDbCircle
 62
7
  6
CONTINUOUS
 10
100.3534281472
 20
53.8457411653
 40
0.3
100
AcDbArc
 50
0.0
 51
87.0
  0
ARC
  5
4BD
100
AcDbEntity
  8
A_RUNDUNGEN
100
AcDbCircle
 62
7
  6
CONTINUOUS
 10
70.1385093398
 20
239.7288413662
 40
183.4875153965
100
AcDbArc
 50
269.8549472734
 51
270.0110773411
  0
ARC
  5
4BE
100
AcDbEntity
  8
A_RUNDUNGEN
100
AcDbCircle
 62
7
  6
CONTINUOUS
 10
66.4624145754
 20
177.8789697644
 40
144.0759569275
100
AcDbArc
 50
281.9677571582
 51
282.2147028839
  0
ARC
  5
4BF
100
AcDbEntity
  8
A_RUNDUNGEN
100
AcDbCircle
 62
7
  6
CONTINUOUS
 10
66.6716341189
 20
177.8785210906
 40
144.0322840364
100
AcDbArc
 50
281.3261238209
 51
281.8850500441
  0
ARC
  5
4C0
100
AcDbEntity
  8
A_RUNDUNGEN
100
AcDbCircle
 62
7
  6
CONTINUOUS
 10
66.6716341189
 20
177.8785210906
 40
143.9934549738
100
AcDbArc
 50
281.3335101657
 51
282.128928842
  0
ARC
  5
4C1
100
AcDbEntity
  8
A_RUNDUNGEN
100
AcDbCircle
 62
7
  6
CONTINUOUS
 10
66.6389698582
 20
177.9735088427
 40
140.6065450262
100
AcDbArc
 50
274.2359057614
 51
282.8693524485
  0
ARC
  5
4C2
100
AcDbEntity
  8
A_RUNDUNGEN
100
AcDbCircle
 62
7
  6
CONTINUOUS
 10
66.6389698582
 20
177.9735088427
 40
140.6
100
AcDbArc
 50
274.2378110379
 51
280.4877996179
  0
ARC
  5
4C3
100
AcDbEntity
  8
A_RUNDUNGEN
100
AcDbCircle
 62
7
  6
CONTINUOUS
 10
66.6389698582
 20
177.9735088427
 40
140.6
100
AcDbArc
 50
281.1896897402
 51
282.2311404502
  0
ARC
  5
4C4
100
AcDbEntity
  8
A_RUNDUNGEN
100
AcDbCircle
 62
7
  6
CONTINUOUS
 10
66.6389698582
 20
177.9735088427
 40
139.598913922
100
AcDbArc
 50
274.2675433602
 51
279.7508809627
  0
ARC
  5
4C5
100
AcDbEntity
  8
A_RUNDUNGEN
100
AcDbCircle
 62
7
  6
CONTINUOUS
 10
66.6389698582
 20
177.9735088427
 40
139.5799190669
100
AcDbArc
 50
274.2903724612
 51
279.7757260755
  0
ARC
  5
4C6
100
AcDbEntity
  8
A_RUNDUNGEN
100
AcDbCircle
 62
7
  6
CONTINUOUS
 10
66.6389698582
 20
177.9735088427
 40
130.4600809331
100
AcDbArc
 50
273.6782807997
 51
279.7133303052
  0
ARC
  5
4C7
100
AcDbEntity
  8
A_RUNDUNGEN
100
AcDbCircle
 62
7
  6
CONTINUOUS
 10
66.6389698582
 20
177.9735088427
 40
130.4600809331
100
AcDbArc
 50
283.7697683958
 51
284.006774805
  0
ARC
  5
4C8
100
AcDbEntity
  8
A_RUNDUNGEN
100
AcDbCircle
 62
7
  6
CONTINUOUS
 10
66.6389698582
 20
177.9735088427
 40
130.441086078
100
AcDbArc
 50
283.7490991932
 51
284.0002317909
  0
ARC
  5
4C9
100
AcDbEntity
  8
A_RUNDUNGEN
100
AcDbCircle
 62
7
  6
CONTINUOUS
 10
66.6389698582
 20
177.9735088427
 40
130.441086078
100
AcDbArc
 50
273.6118127335
 51
279.6733791774
  0
ARC
  5
4CA
100
AcDbEntity
  8
A_RUNDUNGEN
100
AcDbCircle
 62
7
  6
CONTINUOUS
 10
66.6389698582
 20
177.9735088427
 40
129.45
100
AcDbArc
 50
282.9152101924
 51
284.1095576978
  0
ARC
  5
4CB
100
AcDbEntity
  8
A_RUNDUNGEN
100
AcDbCircle
 62
7
  6
CONTINUOUS
 10
66.6389698582
 20
177.9735088427
 40
129.45
100
AcDbArc
 50
282.1735911049
 51
282.2752687066
  0
ARC
  5
4CC
100
AcDbEntity
  8
A_RUNDUNGEN
100
AcDbCircle
 62
7
  6
CONTINUOUS
 10
66.6389698582
 20
177.9735088427
 40
129.4434549738
100
AcDbArc
 50
273.2249629385
 51
279.7489464329
  0
ARC
  5
4CD
100
AcDbEntity
  8
A_RUNDUNGEN
100
AcDbCircle
 62
7
  6
CONTINUOUS
 10
66.6389698582
 20
177.9735088427
 40
129.4434549738
100
AcDbArc
 50
282.1717022661
 51
284.107289994
  0
ARC
  5
4CE
100
AcDbEntity
  8
A_RUNDUNGEN
100
AcDbCircle
 62
7
  6
CONTINUOUS
 10
62.9864126303
 20
177.0528307246
 40
126.0
100
AcDbArc
 50
284.4612782277
 51
284.4647923571
  0
LINE
  5
4CF
100
AcDbEntity
  8
A_RUNDUNGEN
100
AcDbLine
 62
7
  6
CONTINUOUS
 10
58.7923561863
 20
39.8769395714
 11
58.7929617469
 21
39.5188211792
  0
SPLINE
  5
4D0
100
AcDbEntity
  8
A_RUNDUNGEN
100
AcDbSpline
 62
7
  6
CONTINUOUS
 70
0
 71
3
 72
11
 73
7
 74
0
 42
0.0000001
 43
0.0000001
 44
0.0000000001
 40
0.0
 40
0.0
 40
0.0
 40
0.0
 40
0.2432025108
 40
0.490017389
 40
0.7426694203
 40
1.0
 40
1.0
 40
1.0
 40
1.0
 10
76.7049486556
 20
26.9994583659
 30
0.0
 10
76.7050702763
 20
26.8982129645
 30
0.0
 10
76.6659623156
 20
26.6920532936
 30
0.0
 10
76.4939148002
 20
26.4260539354
 30
0.0
 10
76.2282042826
 20
26.2420604205
 30
0.0
 10
76.0133979803
 20
26.1981459479
 30
0.0
 10
75.9062709752
 20
26.1981512771
 30
0.0
  0
SPLINE
  5
4D1
100
AcDbEntity
  8
A_RUNDUNGEN
100
AcDbSpline
 62
7
  6
CONTINUOUS
 70
0
 71
3
 72
11
 73
7
 74
0
 42
0.0000001
 43
0.0000001
 44
0.0000000001
 40
0.0
 40
0.0
 40
0.0
 40
0.0
 40
0.0402904805
 40
0.201450125
 40
0.5149657718
 40
1.0
 40
1.0
 40
1.0
 40
1.0
 10
94.9865708177
 20
36.6786508727
 30
0.0
 10
94.9869553631
 20
36.6783390374
 30
0.0
 10
94.9824481139
 20
36.6772347111
 30
0.0
 10
94.9788797173
 20
36.6759652747
 30
0.0
 10
94.9656383125
 20
36.6729948684
 30
0.0
 10
94.9567070113
 20
36.6709262943
 30
0.0
 10
94.9508891786
 20
36.6696316758
 30
0.0
  0
SPLINE
  5
4D2
100
AcDbEntity
  8
A_RUNDUNGEN
100
AcDbSpline
 62
7
  6
CONTINUOUS
 70
0
 71
3
 72
8
 73
4
 74
0
 42
0.0000001
 43
0.0000001
 44
0.0000000001
 40
0.0
 40
0.0
 40
0.0
 40
0.0
 40
1.0
 40
1.0
 40
1.0
 40
1.0
 10
98.6032576449
 20
38.8194698498
 30
0.0
 10
98.6032572883
 20
38.7574396012
 30
0.0
 10
98.5913206497
 20
38.6943653445
 30
0.0
 10
98.5686543723
 20
38.636624617
 30
0.0
  0
SPLINE
  5
4D3
100
AcDbEntity
  8
A_RUNDUNGEN
100
AcDbSpline
 62
7
  6
CONTINUOUS
 70
0
 71
3
 72
9
 73
5
 74
0
 42
0.0000001
 43
0.0000001
 44
0.0000000001
 40
0.0
 40
0.0
 40
0.0
 40
0.0
 40
0.5846997709
 40
1.0
 40
1.0
 40
1.0
 40
1.0
 10
78.0739850496
 20
27.5195316835
 30
0.0
 10
77.9011546666
 20
27.5195369669
 30
0.0
 10
77.6055672109
 20
27.5191497489
 30
0.0
 10
77.3099781594
 20
27.5182219884
 30
0.0
 10
77.187224669
 20
27.5171852083
 30
0.0
  0
SPLINE
  5
4D4
100
AcDbEntity
  8
A_RUNDUNGEN
100
AcDbSpline
 62
7
  6
CONTINUOUS
 70
0
 71
3
 72
9
 73
5
 74
0
 42
0.0000001
 43
0.0000001
 44
0.0000000001
 40
0.0
 40
0.0
 40
0.0
 40
0.0
 40
0.4998514135
 40
1.0
 40
1.0
 40
1.0
 40
1.0
 10
77.6739878958
 20
28.9553925966
 30
0.0
 10
77.6740070236
 20
29.0491897844
 30
0.0
 10
77.6502571747
 20
29.237113856
 30
0.0
 10
77.5958974061
 20
29.4169207835
 30
0.0
 10
77.5677355184
 20
29.5064489081
 30
0.0
  0
SPLINE
  5
4D5
100
AcDbEntity
  8
A_RUNDUNGEN
100
AcDbSpline
 62
7
  6
CONTINUOUS
 70
0
 71
3
 72
11
 73
7
 74
0
 42
0.0000001
 43
0.0000001
 44
0.0000000001
 40
0.0
 40
0.0
 40
0.0
 40
0.0
 40
0.2304543148
 40
0.4691510522
 40
0.7242231618
 40
1.0
 40
1.0
 40
1.0
 40
1.0
 10
98.5750701737
 20
40.4210698803
 30
0.0
 10
98.574946442
 20
40.4610185551
 30
0.0
 10
98.5647849169
 20
40.542648787
 30
0.0
 10
98.5189098414
 20
40.6608638092
 30
0.0
 10
98.4398527602
 20
40.770174261
 30
0.0
 10
98.3664132687
 20
40.8280828257
 30
0.0
 10
98.3250725535
 20
40.852089205
 30
0.0
  0
LINE
  5
4D6
100
AcDbEntity
  8
A_RUNDUNGEN
100
AcDbLine
 62
7
  6
CONTINUOUS
 10
65.7806159945
 20
34.2601052419
 11
65.7816151999
 21
33.5167682101
  0
SPLINE
  5
4D7
100
AcDbEntity
  8
A_RUNDUNGEN
100
AcDbSpline
 62
7
  6
CONTINUOUS
 70
0
 71
3
 72
8
 73
4
 74
0
 42
0.0000001
 43
0.0000001
 44
0.0000000001
 40
0.0
 40
0.0
 40
0.0
 40
0.0
 40
1.0
 40
1.0
 40
1.0
 40
1.0
 10
98.1117138332
 20
40.9095177394
 30
0.0
 10
98.059916927
 20
40.914081617
 30
0.0
 10
98.0067719741
 20
40.9105153018
 30
0.0
 10
97.9560805473
 20
40.898933949
 30
0.0
  0
SPLINE
  5
4D8
100
AcDbEntity
  8
0
100
AcDbSpline
 62
7
  6
CONTINUOUS
 70
0
 71
3
 72
13
 73
9
 74
0
 42
0.0000001
 43
0.0000001
 44
0.0000000001
 40
0.0
 40
0.0
 40
0.0
 40
0.0
 40
0.0830388526
 40
0.1607438731
 40
0.2494268789
 40
0.3608129688
 40
0.6547527452
 40
1.0
 40
1.0
 40
1.0
 40
1.0
 10
26.1534422643
 20
30.600268187
 30
0.0
 10
26.1534422643
 20
30.5905213813
 30
0.0
 10
26.1560182763
 20
30.5712438792
 30
0.0
 10
26.1738212132
 20
30.546334109
 30
0.0
 10
26.2046311409
 20
30.5326286235
 30
0.0
 10
26.2628698915
 20
30.5273132638
 30
0.0
 10
26.3504136467
 20
30.5475056573
 30
0.0
 10
26.4186188615
 20
30.5795433987
 30
0.0
 10
26.4534422643
 20
30.600268187
 30
0.0
  0
SPLINE
  5
4D9
100
AcDbEntity
  8
0
100
AcDbSpline
 62
7
  6
CONTINUOUS
 70
0
 71
3
 72
13
 73
9
 74
0
 42
0.0000001
 43
0.0000001
 44
0.0000000001
 40
0.0
 40
0.0
 40
0.0
 40
0.0
 40
0.345247258
 40
0.6391870314
 40
0.7505731209
 40
0.8392561258
 40
0.9169611469
 40
1.0
 40
1.0
 40
1.0
 40
1.0
 10
26.4534422643
 20
53.6605924202
 30
0.0
 10
26.4186188612
 20
53.6813172087
 30
0.0
 10
26.3504136463
 20
53.7133549501
 30
0.0
 10
26.2628698912
 20
53.7335473431
 30
0.0
 10
26.2046311411
 20
53.7282319841
 30
0.0
 10
26.1738212135
 20
53.7145264985
 30
0.0
 10
26.1560182768
 20
53.6896167281
 30
0.0
 10
26.1534422643
 20
53.670339226
 30
0.0
 10
26.1534422643
 20
53.6605924202
 30
0.0
  0
SPLINE
  5
4DA
100
AcDbEntity
  8
0
100
AcDbSpline
 62
7
  6
CONTINUOUS
 70
0
 71
3
 72
13
 73
9
 74
0
 42
0.0000001
 43
0.0000001
 44
0.0000000001
 40
0.0
 40
0.0
 40
0.0
 40
0.0
 40
0.0830388531
 40
0.1607438742
 40
0.2494268791
 40
0.3608129686
 40
0.654752742
 40
1.0
 40
1.0
 40
1.0
 40
1.0
 10
26.1534422643
 20
50.600268187
 30
0.0
 10
26.1534422643
 20
50.5905213812
 30
0.0
 10
26.1560182768
 20
50.5712438791
 30
0.0
 10
26.1738212135
 20
50.5463341088
 30
0.0
 10
26.2046311411
 20
50.5326286231
 30
0.0
 10
26.2628698912
 20
50.5273132641
 30
0.0
 10
26.3504136463
 20
50.5475056571
 30
0.0
 10
26.4186188612
 20
50.5795433985
 30
0.0
 10
26.4534422643
 20
50.600268187
 30
0.0
  0
SPLINE
  5
4DB
100
AcDbEntity
  8
0
100
AcDbSpline
 62
7
  6
CONTINUOUS
 70
0
 71
3
 72
13
 73
9
 74
0
 42
0.0000001
 43
0.0000001
 44
0.0000000001
 40
0.0
 40
0.0
 40
0.0
 40
0.0
 40
0.3452472548
 40
0.6391870312
 40
0.7505731211
 40
0.8392561269
 40
0.9169611474
 40
1.0
 40
1.0
 40
1.0
 40
1.0
 10
26.4534422643
 20
33.6605924202
 30
0.0
 10
26.4186188615
 20
33.6813172085
 30
0.0
 10
26.3504136467
 20
33.7133549499
 30
0.0
 10
26.2628698915
 20
33.7335473434
 30
0.0
 10
26.2046311409
 20
33.7282319838
 30
0.0
 10
26.1738212132
 20
33.7145264983
 30
0.0
 10
26.1560182763
 20
33.6896167281
 30
0.0
 10
26.1534422643
 20
33.6703392259
 30
0.0
 10
26.1534422643
 20
33.6605924202
 30
0.0
  0
LINE
  5
4DC
100
AcDbEntity
  8
A_RUNDUNGEN
100
AcDbLine
 62
7
  6
CONTINUOUS
 10
56.9634834743
 20
41.5626416911
 11
56.8986386014
 21
43.6829707086
  0
ELLIPSE
  5
4DD
100
AcDbEntity
  8
A_RUNDUNGEN
100
AcDbEllipse
 62
7
  6
CONTINUOUS
 10
66.3747822593
 20
26.8312287049
 30
0.0
 11
-0.3535601218
 21
-0.3535601218
 31
0.0
 40
0.9999809617
 41
-0.7853886442
 42
0.7853886442
  0
ELLIPSE
  5
4DE
100
AcDbEntity
  8
A_RUNDUNGEN
100
AcDbEllipse
 62
7
  6
CONTINUOUS
 10
67.6247941585
 20
33.259282287
 30
0.0
 11
-0.5956397854
 21
1.6456660131
 31
0.0
 40
0.9999178255
 41
0.8220536894
 42
1.2234940964
  0
ELLIPSE
  5
4DF
100
AcDbEntity
  8
A_RUNDUNGEN
100
AcDbEllipse
 62
7
  6
CONTINUOUS
 10
65.7816199596
 20
34.5126863609
 30
0.0
 11
0.0000043813
 21
0.6398313272
 31
0.0
 40
0.0017048695
 41
-4.7083725047
 42
-4.3065801284
  0
ELLIPSE
  5
4E0
100
AcDbEntity
  8
A_RUNDUNGEN
100
AcDbEllipse
 62
7
  6
CONTINUOUS
 10
66.2805338816
 20
56.2238807553
 30
0.0
 11
-0.3535601218
 21
0.3535601218
 31
0.0
 40
0.9999809617
 41
-0.7853886442
 42
0.4305805823
  0
ELLIPSE
  5
4E1
100
AcDbEntity
  8
A_RUNDUNGEN
100
AcDbEllipse
 62
7
  6
CONTINUOUS
 10
96.8641643043
 20
54.5238807553
 30
0.0
 11
-0.1913438501
 21
-0.4619449181
 31
0.0
 40
0.9999888475
 41
2.7488975149
 42
3.5342877923
  0
ELLIPSE
  5
4E2
100
AcDbEntity
  8
A_RUNDUNGEN
100
AcDbEllipse
 62
7
  6
CONTINUOUS
 10
98.0674343097
 20
53.3206107499
 30
0.0
 11
-0.4619449181
 21
-0.1913438501
 31
0.0
 40
0.9999888475
 41
2.7488975149
 42
3.5342877923
  0
ELLIPSE
  5
4E3
100
AcDbEntity
  8
A_RUNDUNGEN
100
AcDbEllipse
 62
7
  6
CONTINUOUS
 10
98.0674343097
 20
38.8343103326
 30
0.0
 11
0.4619449181
 21
-0.1913438501
 31
0.0
 40
0.9999888475
 41
-0.3926951387
 42
0.3926951387
  0
ELLIPSE
  5
4E4
100
AcDbEntity
  8
A_RUNDUNGEN
100
AcDbEllipse
 62
7
  6
CONTINUOUS
 10
90.1783818097
 20
55.5238902747
 30
0.0
 11
0.1913438501
 21
0.4619449181
 31
0.0
 40
0.9999888475
 41
-3.5342877923
 42
-2.7488975149
  0
ELLIPSE
  5
4E5
100
AcDbEntity
  8
A_RUNDUNGEN
100
AcDbEllipse
 62
7
  6
CONTINUOUS
 10
89.5823233956
 20
29.1369708078
 30
0.0
 11
-0.3187698947
 21
0.3852191236
 31
0.0
 40
0.9999839624
 41
-0.6912795335
 42
0.6702165266
  0
ELLIPSE
  5
4E6
100
AcDbEntity
  8
0
100
AcDbEllipse
 62
7
  6
CONTINUOUS
 10
24.6321219208
 20
52.1304303036
 30
0.0
 11
-2.8284271247
 21
0.0
 31
0.0
 40
0.7071067812
 41
8.5536107599
 42
8.6854057599
  0
ELLIPSE
  5
4E7
100
AcDbEntity
  8
0
100
AcDbEllipse
 62
7
  6
CONTINUOUS
 10
24.6321219208
 20
52.1304303036
 30
0.0
 11
-2.8284271247
 21
0.0
 31
0.0
 40
0.7071067812
 41
10.1386359173
 42
10.2959451616
  0
ELLIPSE
  5
4E8
100
AcDbEntity
  8
0
100
AcDbEllipse
 62
7
  6
CONTINUOUS
 10
24.6321219208
 20
32.1304303036
 30
0.0
 11
-2.8284271247
 21
0.0
 31
0.0
 40
0.7071067812
 41
8.5536107599
 42
8.7109204469
  0
ELLIPSE
  5
4E9
100
AcDbEntity
  8
0
100
AcDbEllipse
 62
7
  6
CONTINUOUS
 10
24.6321219208
 20
32.1304303036
 30
0.0
 11
-2.8284271247
 21
0.0
 31
0.0
 40
0.7071067812
 41
3.8554506101
 42
4.0127598544
  0
ENDSEC
  0
SECTION
  2
OBJECTS
  0
DICTIONARY
  5
4EA
100
AcDbDictionary
  3
ACAD_GROUP
350
4EB
  3
ACAD_MLINESTYLE
350
4EC
  0
DICTIONARY
  5
4EB
102
{ACAD_REACTORS
330
4EA
102
}
100
AcDbDictionary
  0
DICTIONARY
  5
4EC
102
{ACAD_REACTORS
330
4EA
102
}
100
AcDbDictionary
  3
STANDARD
350
4ED
  0
MLINESTYLE
  5
4ED
102
{ACAD_REACTORS
330
4EC
102
}
100
AcDbMlineStyle
  2
STANDARD
 70
0
  3

 62
256
 51
90.0
 52
90.0
 71
2
 49
0.5
 62
256
  6
BYLAYER
 49
-0.5
 62
256
  6
BYLAYER
  0
ENDSEC
  0
EOF
