999
DXF file: DXF_5_130656_0_00000_mkt_q_01_drw_1.dxf
999
Pro/ENGINEER 2020184 by Parametric Technology Corporation
  0
SECTION
  2
HEADER
  9
$ACADVER
  1
AC1014
  9
$DWGCODEPAGE
  3
ANSI_1252
  9
$EXTMAX
 10
140.0
 20
120.0
 30
0.0
  9
$EXTMIN
 10
0.0
 20
0.0
 30
0.0
  9
$LIMMIN
 10
0.0
 20
0.0
  9
$LIMMAX
 10
140.0
 20
120.0
  9
$VIEWCTR
 10
70.0
 20
60.0
  9
$VIEWSIZE
 40
120.0
  9
$CLAYER
  8
0
  9
$LTSCALE
 40
7.8222222222
  9
$CELTYPE
  6
BYLAYER
  9
$DIMSCALE
 40
1.0
  9
$DIMASZ
 40
3.5
  9
$DIMEXO
 40
0.0
  9
$DIMDLI
 40
5.4044444444
  9
$DIMEXE
 40
2.0
  9
$DIMCEN
 40
1.28
  9
$DIMLFAC
 40
1.0
  9
$DIMBLK
  1
_ARROW_FILLED
  9
$DIMALT
 70
0
  9
$DIMALTF
 40
0.0393700787
  9
$DIMTXT
 40
3.5
  9
$DIMTOL
 70
1
  9
$DIMLIM
 70
0
  9
$DIMTFAC
 40
1.0
  9
$DIMTP
 40
0.01
  9
$DIMTM
 40
0.01
  9
$DIMGAP
 40
0.625
  9
$AUNITS
 70
0
  9
$PDMODE
 70
0
  9
$PDSIZE
 40
0.04
  9
$HANDSEED
  5
2A0
  9
$TILEMODE
 70
1
  9
$MEASUREMENT
 70
1
  0
ENDSEC
  0
SECTION
  2
CLASSES
  0
ENDSEC
  0
SECTION
  2
TABLES
  0
TABLE
  2
VPORT
  5
8
100
AcDbSymbolTable
 70
2
  0
VPORT
  5
1F4
100
AcDbSymbolTableRecord
100
AcDbViewportTableRecord
  2
*ACTIVE
 70
0
 10
0.0
 20
0.0
 11
1.0
 21
1.0
 12
70.0
 22
60.0
 13
0.0
 23
0.0
 14
1.0
 24
1.0
 15
0.0
 25
0.0
 16
0.0
 26
0.0
 36
1.0
 17
0.0
 27
0.0
 37
0.0
 40
120.0
 41
1.1666666667
 42
50.0
 43
0.0
 44
0.0
 50
0.0
 51
0.0
 71
0
 72
100
 73
1
 74
1
 75
0
 76
0
 77
0
 78
0
  0
ENDTAB
  0
TABLE
  2
LTYPE
  5
5
100
AcDbSymbolTable
 70
6
  0
LTYPE
  5
14
100
AcDbSymbolTableRecord
100
AcDbLinetypeTableRecord
  2
BYBLOCK
 70
0
  3

 72
65
 73
0
 40
0.0
  0
LTYPE
  5
15
100
AcDbSymbolTableRecord
100
AcDbLinetypeTableRecord
  2
BYLAYER
 70
0
  3

 72
65
 73
0
 40
0.0
  0
LTYPE
  5
16
100
AcDbSymbolTableRecord
100
AcDbLinetypeTableRecord
  2
CONTINUOUS
 70
64
  3
Solid line
 72
65
 73
0
 40
0.0
  0
LTYPE
  5
1F5
100
AcDbSymbolTableRecord
100
AcDbLinetypeTableRecord
  2
CENTER
 70
64
  3
____ _ ____ _ ____ _ ____ _ ____ _ ____ _ ____
 72
65
 73
4
 40
0.6
 49
0.375
 74
0
 49
-0.075
 74
0
 49
0.075
 74
0
 49
-0.075
 74
0
  0
LTYPE
  5
1F6
100
AcDbSymbolTableRecord
100
AcDbLinetypeTableRecord
  2
HIDDEN
 70
64
  3
- - - - - - - - - - - - - - - - - - - -
 72
65
 73
2
 40
0.2
 49
0.1
 74
0
 49
-0.1
 74
0
  0
LTYPE
  5
1F7
100
AcDbSymbolTableRecord
100
AcDbLinetypeTableRecord
  2
PHANTOM
 70
64
  3
_____ _ _ _____ _ _ _____ _ _ _____
 72
65
 73
6
 40
0.8
 49
0.45
 74
0
 49
-0.05
 74
0
 49
0.1
 74
0
 49
-0.05
 74
0
 49
0.1
 74
0
 49
-0.05
 74
0
  0
LTYPE
  5
1F8
100
AcDbSymbolTableRecord
100
AcDbLinetypeTableRecord
  2
DOT
 70
64
  3
. . . . . . . . . . . . . . . . . . . .
 72
65
 73
2
 40
0.2
 49
0.1
 74
0
 49
-0.1
 74
0
  0
LTYPE
  5
1F9
100
AcDbSymbolTableRecord
100
AcDbLinetypeTableRecord
  2
DASHED
 70
64
  3
- - - - - - - - - - - - - - - - - - - -
 72
65
 73
2
 40
0.2
 49
0.1
 74
0
 49
-0.1
 74
0
  0
ENDTAB
  0
TABLE
  2
LAYER
  5
2
100
AcDbSymbolTable
 70
36
  0
LAYER
  5
10
100
AcDbSymbolTableRecord
100
AcDbLayerTableRecord
  2
0
 70
0
 62
7
  6
CONTINUOUS
  0
LAYER
  5
1FA
100
AcDbSymbolTableRecord
100
AcDbLayerTableRecord
  2
DEFAULT_1
 70
0
 62
7
  6
CENTER
  0
LAYER
  5
1FB
100
AcDbSymbolTableRecord
100
AcDbLayerTableRecord
  2
DEFAULT_2
 70
0
 62
2
  6
HIDDEN
  0
LAYER
  5
1FC
100
AcDbSymbolTableRecord
100
AcDbLayerTableRecord
  2
DEFAULT_3
 70
0
 62
7
  6
PHANTOM
  0
LAYER
  5
1FD
100
AcDbSymbolTableRecord
100
AcDbLayerTableRecord
  2
ALLE_ACHSEN
 70
0
 62
7
  6
CONTINUOUS
  0
LAYER
  5
1FE
100
AcDbSymbolTableRecord
100
AcDbLayerTableRecord
  2
ALLE_BEMASSUNGEN
 70
0
 62
7
  6
CONTINUOUS
  0
LAYER
  5
1FF
100
AcDbSymbolTableRecord
100
AcDbLayerTableRecord
  2
ALLE_BOHRUNGEN
 70
0
 62
7
  6
CONTINUOUS
  0
LAYER
  5
200
100
AcDbSymbolTableRecord
100
AcDbLayerTableRecord
  2
ALLE_EBENEN
 70
0
 62
7
  6
CONTINUOUS
  0
LAYER
  5
201
100
AcDbSymbolTableRecord
100
AcDbLayerTableRecord
  2
ALLE_FL_VERBAENDE
 70
0
 62
7
  6
CONTINUOUS
  0
LAYER
  5
202
100
AcDbSymbolTableRecord
100
AcDbLayerTableRecord
  2
ALLE_NOTIZEN_SYMB
 70
0
 62
7
  6
CONTINUOUS
  0
LAYER
  5
203
100
AcDbSymbolTableRecord
100
AcDbLayerTableRecord
  2
A_ACHSEN
 70
0
 62
7
  6
CONTINUOUS
  0
LAYER
  5
204
100
AcDbSymbolTableRecord
100
AcDbLayerTableRecord
  2
A_BEMASSUNGEN
 70
0
 62
7
  6
CONTINUOUS
  0
LAYER
  5
205
100
AcDbSymbolTableRecord
100
AcDbLayerTableRecord
  2
A_BOHRUNGEN
 70
0
 62
7
  6
CONTINUOUS
  0
LAYER
  5
206
100
AcDbSymbolTableRecord
100
AcDbLayerTableRecord
  2
A_EBENEN
 70
0
 62
7
  6
CONTINUOUS
  0
LAYER
  5
207
100
AcDbSymbolTableRecord
100
AcDbLayerTableRecord
  2
A_FL_VERBAENDE
 70
0
 62
7
  6
CONTINUOUS
  0
LAYER
  5
208
100
AcDbSymbolTableRecord
100
AcDbLayerTableRecord
  2
A_NOTIZEN_SYMB
 70
0
 62
7
  6
CONTINUOUS
  0
LAYER
  5
209
100
AcDbSymbolTableRecord
100
AcDbLayerTableRecord
  2
BASISEBENEN
 70
0
 62
7
  6
CONTINUOUS
  0
LAYER
  5
20A
100
AcDbSymbolTableRecord
100
AcDbLayerTableRecord
  2
RILLEN
 70
0
 62
7
  6
CONTINUOUS
  0
LAYER
  5
20B
100
AcDbSymbolTableRecord
100
AcDbLayerTableRecord
  2
STD_ASM_ACHSEN
 70
0
 62
7
  6
CONTINUOUS
  0
LAYER
  5
20C
100
AcDbSymbolTableRecord
100
AcDbLayerTableRecord
  2
STD_ASM_BASISEBENEN
 70
0
 62
7
  6
CONTINUOUS
  0
LAYER
  5
20D
100
AcDbSymbolTableRecord
100
AcDbLayerTableRecord
  2
STD_ASM_CS0
 70
0
 62
7
  6
CONTINUOUS
  0
LAYER
  5
20E
100
AcDbSymbolTableRecord
100
AcDbLayerTableRecord
  2
STD_BASISEBENEN
 70
0
 62
7
  6
CONTINUOUS
  0
LAYER
  5
20F
100
AcDbSymbolTableRecord
100
AcDbLayerTableRecord
  2
STD_CS0
 70
0
 62
7
  6
CONTINUOUS
  0
ENDTAB
  0
TABLE
  2
STYLE
  5
3
100
AcDbSymbolTable
 70
1
  0
STYLE
  5
11
100
AcDbSymbolTableRecord
100
AcDbTextStyleTableRecord
  2
STANDARD
 70
0
 40
0.0
 41
1.0
 50
0.0
 71
0
 42
0.2
  3
ARIAL.TTF
  4

  0
STYLE
  5
210
100
AcDbSymbolTableRecord
100
AcDbTextStyleTableRecord
  2
TEXTSTYLE_1
 70
0
 40
0.0
 41
0.8
 50
0.0
 71
0
 42
0.2
  3
gdt
  4

  0
ENDTAB
  0
TABLE
  2
VIEW
  5
6
100
AcDbSymbolTable
 70
0
  0
ENDTAB
  0
TABLE
  2
UCS
  5
7
100
AcDbSymbolTable
 70
0
  0
ENDTAB
  0
TABLE
  2
APPID
  5
9
100
AcDbSymbolTable
 70
1
  0
APPID
  5
211
100
AcDbSymbolTableRecord
100
AcDbRegAppTableRecord
  2
ACAD
 70
0
  0
ENDTAB
  0
TABLE
  2
BLOCK_RECORD
  5
1
100
AcDbSymbolTable
 70
0
  0
BLOCK_RECORD
  5
1F
100
AcDbSymbolTableRecord
100
AcDbBlockTableRecord
  2
*MODEL_SPACE
  0
BLOCK_RECORD
  5
1B
100
AcDbSymbolTableRecord
100
AcDbBlockTableRecord
  2
*PAPER_SPACE
  0
BLOCK_RECORD
  5
212
100
AcDbSymbolTableRecord
100
AcDbBlockTableRecord
  2
_ARROW_FILLED
  0
BLOCK_RECORD
  5
213
100
AcDbSymbolTableRecord
100
AcDbBlockTableRecord
  2
_DOT
  0
BLOCK_RECORD
  5
214
100
AcDbSymbolTableRecord
100
AcDbBlockTableRecord
  2
*D0
  0
BLOCK_RECORD
  5
215
100
AcDbSymbolTableRecord
100
AcDbBlockTableRecord
  2
*D1
  0
BLOCK_RECORD
  5
216
100
AcDbSymbolTableRecord
100
AcDbBlockTableRecord
  2
*D2
  0
BLOCK_RECORD
  5
217
100
AcDbSymbolTableRecord
100
AcDbBlockTableRecord
  2
*D3
  0
ENDTAB
  0
TABLE
  2
DIMSTYLE
  5
A
100
AcDbSymbolTable
 70
1
  0
DIMSTYLE
105
218
100
AcDbSymbolTableRecord
100
AcDbDimStyleTableRecord
  2
STANDARD
 70
0
  3

  4

  5
_ARROW_FILLED
  6
_ARROW_FILLED
  7
_ARROW_FILLED
 40
1.0
 41
3.5
 42
0.0
 43
0.38
 44
2.0
 45
0.0
 46
0.0
 47
0.01
 48
0.01
140
3.5
141
0.09
142
0.0
143
25.4
144
1.0
145
0.0
146
1.0
147
0.625
 71
1
 72
0
 73
0
 74
0
 75
0
 76
0
 77
1
 78
8
 79
2
170
0
171
1
172
0
173
0
174
0
175
0
176
0
177
0
178
2
270
2
271
2
272
2
273
2
274
2
275
0
280
0
281
0
282
0
283
1
284
8
285
0
286
0
287
3
288
0
340
11
  0
DIMSTYLE
105
219
100
AcDbSymbolTableRecord
100
AcDbDimStyleTableRecord
  2
DIMSTYLE_1
 70
0
  3

  4

  5
_ARROW_FILLED
  6
_ARROW_FILLED
  7
_ARROW_FILLED
 40
1.0
 41
3.5
 42
0.0
 43
0.38
 44
2.0
 45
0.0
 46
0.0
 47
0.1
 48
0.1
140
3.5
141
0.09
142
0.0
143
25.4
144
1.0
145
0.0
146
1.0
147
0.875
 71
0
 72
0
 73
0
 74
0
 75
0
 76
0
 77
1
 78
8
 79
2
170
0
171
1
172
0
173
0
174
0
175
0
176
0
177
0
178
2
270
2
271
4
272
4
273
2
274
2
275
0
280
0
281
0
282
0
283
1
284
8
285
0
286
0
287
3
288
0
340
11
  0
DIMSTYLE
105
21A
100
AcDbSymbolTableRecord
100
AcDbDimStyleTableRecord
  2
DIMSTYLE_2
 70
0
  3

  4

  5
_ARROW_FILLED
  6
_ARROW_FILLED
  7
_ARROW_FILLED
 40
1.0
 41
3.5
 42
0.0
 43
0.38
 44
2.0
 45
0.0
 46
0.0
 47
0.2
 48
0.2
140
3.5
141
0.09
142
0.0
143
25.4
144
1.0
145
0.0
146
1.0
147
0.875
 71
0
 72
0
 73
0
 74
0
 75
0
 76
0
 77
1
 78
8
 79
2
170
0
171
1
172
0
173
0
174
0
175
0
176
0
177
0
178
2
270
2
271
1
272
1
273
2
274
2
275
0
280
0
281
0
282
0
283
1
284
8
285
0
286
0
287
3
288
0
340
11
  0
DIMSTYLE
105
21B
100
AcDbSymbolTableRecord
100
AcDbDimStyleTableRecord
  2
DIMSTYLE_3
 70
0
  3

  4

  5
_ARROW_FILLED
  6
_ARROW_FILLED
  7
_ARROW_FILLED
 40
1.0
 41
3.5
 42
0.0
 43
0.38
 44
2.0
 45
0.0
 46
0.0
 47
0.3
 48
0.3
140
3.5
141
0.09
142
0.0
143
25.4
144
1.0
145
0.0
146
1.0
147
0.875
 71
0
 72
0
 73
0
 74
0
 75
0
 76
0
 77
1
 78
8
 79
2
170
0
171
1
172
0
173
0
174
0
175
0
176
0
177
0
178
2
270
2
271
4
272
4
273
2
274
2
275
0
280
0
281
0
282
0
283
1
284
8
285
0
286
0
287
3
288
0
340
11
  0
ENDTAB
  0
ENDSEC
  0
SECTION
  2
BLOCKS
  0
BLOCK
  5
20
100
AcDbEntity
  8
0
100
AcDbBlockBegin
  2
*MODEL_SPACE
 70
0
 10
0.0
 20
0.0
 30
0.0
  3
*MODEL_SPACE
  1

  0
ENDBLK
  5
21
100
AcDbEntity
  8
0
100
AcDbBlockEnd
  0
BLOCK
  5
1C
100
AcDbEntity
  8
0
100
AcDbBlockBegin
  2
*PAPER_SPACE
 70
0
 10
0.0
 20
0.0
 30
0.0
  3
*PAPER_SPACE
  1

  0
ENDBLK
  5
1D
100
AcDbEntity
  8
0
100
AcDbBlockEnd
  0
BLOCK
  5
21C
100
AcDbEntity
  8
0
100
AcDbBlockBegin
  2
_ARROW_FILLED
 70
64
 10
0.0
 20
0.0
  3
_ARROW_FILLED
  1

  0
SOLID
  5
21D
100
AcDbEntity
  8
0
  6
BYBLOCK
 62
0
100
AcDbTrace
 10
0.0
 20
0.0
 11
-1.0
 21
0.1428571429
 12
-1.0
 22
-0.1428571429
 13
-1.0
 23
-0.1428571429
  0
ENDBLK
  5
21E
100
AcDbEntity
  8
0
  6
BYBLOCK
 62
0
100
AcDbBlockEnd
  0
BLOCK
  5
21F
100
AcDbEntity
  8
0
100
AcDbBlockBegin
  2
_DOT
 70
64
 10
0.0
 20
0.0
  3
_DOT
  1

  0
LWPOLYLINE
  5
220
100
AcDbEntity
  8
0
  6
BYBLOCK
 62
0
100
AcDbPolyline
 90
2
 70
1
 43
0.1428571429
 10
-0.0714285714
 20
0.0
 42
1.0
 10
0.0714285714
 20
0.0
 42
1.0
  0
LINE
  5
221
100
AcDbEntity
  8
0
  6
BYBLOCK
 62
0
100
AcDbLine
 10
-0.1428571429
 20
0.0
 11
-1.0
 21
0.0
  0
ENDBLK
  5
222
100
AcDbEntity
  8
0
  6
BYBLOCK
 62
0
100
AcDbBlockEnd
  0
BLOCK
  5
223
100
AcDbEntity
  8
ALLE_BEMASSUNGEN
100
AcDbBlockBegin
 62
2
  6
CONTINUOUS
  2
*D0
 70
65
 10
0.0
 20
0.0
  3
*D0
  1

  0
MTEXT
  5
224
100
AcDbEntity
  8
ALLE_BEMASSUNGEN
100
AcDbMText
 62
2
  6
CONTINUOUS
  7
STANDARD
 71
3
 72
1
 10
64.7100328181
 20
116.6798784806
 30
0.0
 11
1.0
 21
0.0
 31
0.0
  1
2
 40
3.5
 41
4.125
  0
LINE
  5
225
100
AcDbEntity
  8
ALLE_BEMASSUNGEN
100
AcDbLine
 62
2
  6
CONTINUOUS
 10
69.2528565121
 20
87.1506282793
 11
69.2528565121
 21
114.3048784806
  0
LINE
  5
226
100
AcDbEntity
  8
ALLE_BEMASSUNGEN
100
AcDbLine
 62
2
  6
CONTINUOUS
 10
71.2528565121
 20
83.1506282793
 11
71.2528565121
 21
114.3048784806
  0
LINE
  5
227
100
AcDbEntity
  8
ALLE_BEMASSUNGEN
100
AcDbLine
 62
2
  6
CONTINUOUS
 10
69.2528565121
 20
112.3048784806
 11
61.9600328181
 21
112.3048784806
  0
LINE
  5
228
100
AcDbEntity
  8
ALLE_BEMASSUNGEN
100
AcDbLine
 62
2
  6
CONTINUOUS
 10
61.9600328181
 20
112.3048784806
 11
70.2528565121
 21
112.3048784806
  0
LINE
  5
229
100
AcDbEntity
  8
ALLE_BEMASSUNGEN
100
AcDbLine
 62
2
  6
CONTINUOUS
 10
71.2528565121
 20
112.3048784806
 11
78.7528565121
 21
112.3048784806
  0
LINE
  5
22A
100
AcDbEntity
  8
ALLE_BEMASSUNGEN
100
AcDbLine
 62
2
  6
CONTINUOUS
 10
78.7528565121
 20
112.3048784806
 11
70.2528565121
 21
112.3048784806
  0
INSERT
  5
22B
100
AcDbEntity
  8
ALLE_BEMASSUNGEN
100
AcDbBlockReference
 62
2
  6
CONTINUOUS
  2
_ARROW_FILLED
 10
69.2528565121
 20
112.3048784806
 41
3.5
 42
3.5
 43
3.5
  0
INSERT
  5
22C
100
AcDbEntity
  8
ALLE_BEMASSUNGEN
100
AcDbBlockReference
 62
2
  6
CONTINUOUS
  2
_DOT
 10
71.2528565121
 20
112.3048784806
 41
3.5
 42
3.5
 43
3.5
 50
180.0
  0
ENDBLK
  5
22D
100
AcDbEntity
  8
0
  6
BYBLOCK
 62
0
100
AcDbBlockEnd
  0
BLOCK
  5
22E
100
AcDbEntity
  8
ALLE_BEMASSUNGEN
100
AcDbBlockBegin
 62
2
  6
CONTINUOUS
  2
*D1
 70
65
 10
0.0
 20
0.0
  3
*D1
  1

  0
MTEXT
  5
22F
100
AcDbEntity
  8
ALLE_BEMASSUNGEN
100
AcDbMText
 62
2
  6
CONTINUOUS
  7
STANDARD
 71
1
 72
1
 10
79.3962630664
 20
116.6798784806
 30
0.0
 11
1.0
 21
0.0
 31
0.0
  1
4
 40
3.5
 41
4.125
  0
LINE
  5
230
100
AcDbEntity
  8
ALLE_BEMASSUNGEN
100
AcDbLine
 62
2
  6
CONTINUOUS
 10
75.2528565121
 20
76.1506282793
 11
75.2528565121
 21
114.3048784806
  0
LINE
  5
231
100
AcDbEntity
  8
ALLE_BEMASSUNGEN
100
AcDbLine
 62
2
  6
CONTINUOUS
 10
71.2528565121
 20
76.1506282793
 11
71.2528565121
 21
114.3048784806
  0
LINE
  5
232
100
AcDbEntity
  8
ALLE_BEMASSUNGEN
100
AcDbLine
 62
2
  6
CONTINUOUS
 10
75.2528565121
 20
112.3048784806
 11
82.1462630664
 21
112.3048784806
  0
LINE
  5
233
100
AcDbEntity
  8
ALLE_BEMASSUNGEN
100
AcDbLine
 62
2
  6
CONTINUOUS
 10
82.1462630664
 20
112.3048784806
 11
73.2528565121
 21
112.3048784806
  0
LINE
  5
234
100
AcDbEntity
  8
ALLE_BEMASSUNGEN
100
AcDbLine
 62
2
  6
CONTINUOUS
 10
71.2528565121
 20
112.3048784806
 11
63.7528565121
 21
112.3048784806
  0
LINE
  5
235
100
AcDbEntity
  8
ALLE_BEMASSUNGEN
100
AcDbLine
 62
2
  6
CONTINUOUS
 10
63.7528565121
 20
112.3048784806
 11
73.2528565121
 21
112.3048784806
  0
INSERT
  5
236
100
AcDbEntity
  8
ALLE_BEMASSUNGEN
100
AcDbBlockReference
 62
2
  6
CONTINUOUS
  2
_ARROW_FILLED
 10
75.2528565121
 20
112.3048784806
 41
3.5
 42
3.5
 43
3.5
 50
180.0
  0
INSERT
  5
237
100
AcDbEntity
  8
ALLE_BEMASSUNGEN
100
AcDbBlockReference
 62
2
  6
CONTINUOUS
  2
_DOT
 10
71.2528565121
 20
112.3048784806
 41
3.5
 42
3.5
 43
3.5
  0
ENDBLK
  5
238
100
AcDbEntity
  8
0
  6
BYBLOCK
 62
0
100
AcDbBlockEnd
  0
BLOCK
  5
239
100
AcDbEntity
  8
ALLE_BEMASSUNGEN
100
AcDbBlockBegin
 62
2
  6
CONTINUOUS
  2
*D2
 70
65
 10
0.0
 20
0.0
  3
*D2
  1

  0
MTEXT
  5
23A
100
AcDbEntity
  8
ALLE_BEMASSUNGEN
100
AcDbMText
 62
2
  6
CONTINUOUS
  7
STANDARD
 71
2
 72
1
 10
92.5515574092
 20
21.6381282793
 30
0.0
 11
0.0
 21
1.0
 31
0.0
  1
13
 40
3.5
 41
6.75
  0
LINE
  5
23B
100
AcDbEntity
  8
ALLE_BEMASSUNGEN
100
AcDbLine
 62
2
  6
CONTINUOUS
 10
83.3136670563
 20
15.1256282793
 11
98.9265574092
 21
15.1256282793
  0
LINE
  5
23C
100
AcDbEntity
  8
ALLE_BEMASSUNGEN
100
AcDbLine
 62
2
  6
CONTINUOUS
 10
96.9265574092
 20
28.1506282793
 11
96.9265574092
 21
21.6381282793
  0
LINE
  5
23D
100
AcDbEntity
  8
ALLE_BEMASSUNGEN
100
AcDbLine
 62
2
  6
CONTINUOUS
 10
96.9265574092
 20
15.1256282793
 11
96.9265574092
 21
21.6381282793
  0
INSERT
  5
23E
100
AcDbEntity
  8
ALLE_BEMASSUNGEN
100
AcDbBlockReference
 62
2
  6
CONTINUOUS
  2
_ARROW_FILLED
 10
96.9265574092
 20
28.1506282793
 41
3.5
 42
3.5
 43
3.5
 50
90.0
  0
INSERT
  5
23F
100
AcDbEntity
  8
ALLE_BEMASSUNGEN
100
AcDbBlockReference
 62
2
  6
CONTINUOUS
  2
_ARROW_FILLED
 10
96.9265574092
 20
15.1256282793
 41
3.5
 42
3.5
 43
3.5
 50
270.0
  0
ENDBLK
  5
240
100
AcDbEntity
  8
0
  6
BYBLOCK
 62
0
100
AcDbBlockEnd
  0
BLOCK
  5
241
100
AcDbEntity
  8
ALLE_BEMASSUNGEN
100
AcDbBlockBegin
 62
2
  6
CONTINUOUS
  2
*D3
 70
65
 10
0.0
 20
0.0
  3
*D3
  1

  0
MTEXT
  5
242
100
AcDbEntity
  8
ALLE_BEMASSUNGEN
100
AcDbMText
 62
2
  6
CONTINUOUS
  7
STANDARD
 71
2
 72
1
 10
19.776763769
 20
52.1506282793
 30
0.0
 11
0.0
 21
1.0
 31
0.0
  1
48
 40
3.5
 41
8.25
  0
LINE
  5
243
100
AcDbEntity
  8
ALLE_BEMASSUNGEN
100
AcDbLine
 62
2
  6
CONTINUOUS
 10
65.2528565121
 20
76.1506282793
 11
22.151763769
 21
76.1506282793
  0
LINE
  5
244
100
AcDbEntity
  8
ALLE_BEMASSUNGEN
100
AcDbLine
 62
2
  6
CONTINUOUS
 10
24.151763769
 20
28.1506282793
 11
24.151763769
 21
52.1506282793
  0
LINE
  5
245
100
AcDbEntity
  8
ALLE_BEMASSUNGEN
100
AcDbLine
 62
2
  6
CONTINUOUS
 10
24.151763769
 20
76.1506282793
 11
24.151763769
 21
52.1506282793
  0
INSERT
  5
246
100
AcDbEntity
  8
ALLE_BEMASSUNGEN
100
AcDbBlockReference
 62
2
  6
CONTINUOUS
  2
_ARROW_FILLED
 10
24.151763769
 20
28.1506282793
 41
3.5
 42
3.5
 43
3.5
 50
270.0
  0
INSERT
  5
247
100
AcDbEntity
  8
ALLE_BEMASSUNGEN
100
AcDbBlockReference
 62
2
  6
CONTINUOUS
  2
_ARROW_FILLED
 10
24.151763769
 20
76.1506282793
 41
3.5
 42
3.5
 43
3.5
 50
90.0
  0
ENDBLK
  5
248
100
AcDbEntity
  8
0
  6
BYBLOCK
 62
0
100
AcDbBlockEnd
  0
ENDSEC
  0
SECTION
  2
ENTITIES
  0
DIMENSION
  5
249
100
AcDbEntity
  8
ALLE_BEMASSUNGEN
100
AcDbDimension
 62
2
  6
CONTINUOUS
  2
*D0
 10
71.2528565121
 20
112.3048784806
 11
62.8350347222
 21
112.3048784806
 70
160
  3
DIMSTYLE_1
100
AcDbAlignedDimension
 13
69.2528565121
 23
87.1506282793
 14
71.2528565121
 24
83.1506282793
100
AcDbRotatedDimension
1001
ACAD
1000
DSTYLE
1002
{
1070
173
1070
1
1070
7
1000
_DOT
1002
}
  0
DIMENSION
  5
24A
100
AcDbEntity
  8
ALLE_BEMASSUNGEN
100
AcDbDimension
 62
2
  6
CONTINUOUS
  2
*D1
 10
71.2528565121
 20
112.3048784806
 11
80.2712673611
 21
112.3048784806
 70
160
  3
DIMSTYLE_1
100
AcDbAlignedDimension
 13
75.2528565121
 23
76.1506282793
 14
71.2528565121
 24
76.1506282793
 50
180.0
100
AcDbRotatedDimension
1001
ACAD
1000
DSTYLE
1002
{
1070
173
1070
1
1070
7
1000
_DOT
1002
}
  0
DIMENSION
  5
24B
100
AcDbEntity
  8
ALLE_BEMASSUNGEN
100
AcDbDimension
 62
2
  6
CONTINUOUS
  2
*D2
 10
96.9265574092
 20
15.1256282793
 11
96.9265574092
 21
21.1381246896
 70
160
  3
DIMSTYLE_2
100
AcDbAlignedDimension
 13
75.2528565121
 23
28.1506282793
 14
83.3136670563
 24
15.1256282793
 50
270.0
100
AcDbRotatedDimension
  0
DIMENSION
  5
24C
100
AcDbEntity
  8
ALLE_BEMASSUNGEN
100
AcDbDimension
 62
2
  6
CONTINUOUS
  2
*D3
 10
24.151763769
 20
76.1506282793
 11
24.151763769
 21
51.6506288333
 70
160
  3
DIMSTYLE_3
100
AcDbAlignedDimension
 13
4.2528565121
 23
28.1506282793
 14
65.2528565121
 24
76.1506282793
 50
90.0
100
AcDbRotatedDimension
  0
LINE
  5
24D
100
AcDbEntity
  8
0
100
AcDbLine
 62
7
  6
CONTINUOUS
 10
4.2528565121
 20
103.1506282793
 11
4.2528565121
 21
28.1506282793
  0
LINE
  5
24E
100
AcDbEntity
  8
A_ACHSEN
100
AcDbLine
 62
2
  6
CONTINUOUS
 10
70.6084120676
 20
15.1256282793
 11
69.8973009565
 21
15.1256282793
  0
LINE
  5
24F
100
AcDbEntity
  8
A_ACHSEN
100
AcDbLine
 62
2
  6
CENTER
 10
68.4750787343
 20
15.1256282793
 11
56.2528565121
 21
15.1256282793
  0
LINE
  5
250
100
AcDbEntity
  8
A_ACHSEN
100
AcDbLine
 62
2
  6
CENTER
 10
72.0306342899
 20
15.1256282793
 11
84.2528565121
 21
15.1256282793
  0
LINE
  5
251
100
AcDbEntity
  8
0
100
AcDbLine
 62
2
  6
CONTINUOUS
 10
66.4164998578
 20
27.5322720756
 11
65.2528565121
 21
27.3816869259
  0
LINE
  5
252
100
AcDbEntity
  8
0
100
AcDbLine
 62
2
  6
CONTINUOUS
 10
67.7700185268
 20
27.6672903363
 11
66.4164998578
 21
27.5322720756
  0
LINE
  5
253
100
AcDbEntity
  8
0
100
AcDbLine
 62
2
  6
CONTINUOUS
 10
69.0214216241
 20
27.7449583378
 11
67.7700185268
 21
27.6672903363
  0
LINE
  5
254
100
AcDbEntity
  8
0
100
AcDbLine
 62
2
  6
CONTINUOUS
 10
69.2528565121
 20
27.7518694842
 11
69.0214216241
 21
27.7449583378
  0
LINE
  5
255
100
AcDbEntity
  8
0
100
AcDbLine
 62
7
  6
CONTINUOUS
 10
4.2528565121
 20
28.1506282793
 11
65.2528565121
 21
28.1506282793
  0
LINE
  5
256
100
AcDbEntity
  8
0
100
AcDbLine
 62
7
  6
CONTINUOUS
 10
75.2528565121
 20
28.1506282793
 11
136.2528565121
 21
28.1506282793
  0
LINE
  5
257
100
AcDbEntity
  8
ALLE_ACHSEN
100
AcDbLine
 62
2
  6
HIDDEN
 10
68.2528565121
 20
70.3006282793
 11
65.6028565121
 21
67.6506282793
  0
LINE
  5
258
100
AcDbEntity
  8
ALLE_ACHSEN
100
AcDbLine
 62
2
  6
HIDDEN
 10
69.2528565121
 20
38.0006282793
 11
68.2528565121
 21
38.0006282793
  0
LINE
  5
259
100
AcDbEntity
  8
ALLE_ACHSEN
100
AcDbLine
 62
2
  6
HIDDEN
 10
71.2528565121
 20
38.0006282793
 11
72.2528565121
 21
38.0006282793
  0
LINE
  5
25A
100
AcDbEntity
  8
ALLE_ACHSEN
100
AcDbLine
 62
2
  6
HIDDEN
 10
65.6028565121
 20
40.6506282793
 11
65.2528565121
 21
40.6506282793
  0
LINE
  5
25B
100
AcDbEntity
  8
ALLE_ACHSEN
100
AcDbLine
 62
2
  6
HIDDEN
 10
74.9028565121
 20
40.6506282793
 11
75.2528565121
 21
40.6506282793
  0
LINE
  5
25C
100
AcDbEntity
  8
ALLE_ACHSEN
100
AcDbLine
 62
2
  6
HIDDEN
 10
68.2528565121
 20
38.0006282793
 11
65.6028565121
 21
40.6506282793
  0
LINE
  5
25D
100
AcDbEntity
  8
ALLE_ACHSEN
100
AcDbLine
 62
7
  6
CONTINUOUS
 10
75.3858859081
 20
25.8110217779
 11
78.3445583304
 21
22.6139516353
  0
LINE
  5
25E
100
AcDbEntity
  8
ALLE_ACHSEN
100
AcDbLine
 62
7
  6
CONTINUOUS
 10
65.2528565121
 20
28.1506282793
 11
65.2528565121
 21
26.1506282793
  0
LINE
  5
25F
100
AcDbEntity
  8
ALLE_ACHSEN
100
AcDbLine
 62
2
  6
HIDDEN
 10
65.2528565121
 20
40.6506282793
 11
65.2528565121
 21
47.6506282793
  0
LINE
  5
260
100
AcDbEntity
  8
ALLE_ACHSEN
100
AcDbLine
 62
2
  6
HIDDEN
 10
65.2528565121
 20
60.6506282793
 11
65.2528565121
 21
67.6506282793
  0
LINE
  5
261
100
AcDbEntity
  8
0
100
AcDbLine
 62
7
  6
CONTINUOUS
 10
65.2528565121
 20
28.1506282793
 11
65.2528565121
 21
76.1506282793
  0
LINE
  5
262
100
AcDbEntity
  8
ALLE_ACHSEN
100
AcDbLine
 62
2
  6
CENTER
 10
36.668253977
 20
44.1506282793
 11
70.9527803342
 21
44.1506282793
  0
LINE
  5
263
100
AcDbEntity
  8
ALLE_ACHSEN
100
AcDbLine
 62
2
  6
CENTER
 10
71.4506231814
 20
44.1506282793
 11
100.6204784474
 21
44.1506282793
  0
LINE
  5
264
100
AcDbEntity
  8
ALLE_ACHSEN
100
AcDbLine
 62
2
  6
HIDDEN
 10
65.6028565121
 20
47.6506282793
 11
65.2528565121
 21
47.6506282793
  0
LINE
  5
265
100
AcDbEntity
  8
ALLE_ACHSEN
100
AcDbLine
 62
2
  6
HIDDEN
 10
74.9028565121
 20
47.6506282793
 11
75.2528565121
 21
47.6506282793
  0
LINE
  5
266
100
AcDbEntity
  8
ALLE_ACHSEN
100
AcDbLine
 62
2
  6
HIDDEN
 10
71.2528565121
 20
48.0006282793
 11
72.2528565121
 21
48.0006282793
  0
LINE
  5
267
100
AcDbEntity
  8
ALLE_ACHSEN
100
AcDbLine
 62
2
  6
HIDDEN
 10
65.6028565121
 20
67.6506282793
 11
65.6028565121
 21
60.6506282793
  0
LINE
  5
268
100
AcDbEntity
  8
ALLE_ACHSEN
100
AcDbLine
 62
2
  6
HIDDEN
 10
65.6028565121
 20
47.6506282793
 11
65.6028565121
 21
40.6506282793
  0
LINE
  5
269
100
AcDbEntity
  8
ALLE_ACHSEN
100
AcDbLine
 62
2
  6
HIDDEN
 10
68.2528565121
 20
70.3006282793
 11
68.2528565121
 21
58.0006282793
  0
LINE
  5
26A
100
AcDbEntity
  8
ALLE_ACHSEN
100
AcDbLine
 62
2
  6
HIDDEN
 10
68.2528565121
 20
50.3006282793
 11
68.2528565121
 21
38.0006282793
  0
LINE
  5
26B
100
AcDbEntity
  8
ALLE_ACHSEN
100
AcDbLine
 62
7
  6
CONTINUOUS
 10
69.2528565121
 20
76.1506282793
 11
69.2528565121
 21
26.1506282793
  0
LINE
  5
26C
100
AcDbEntity
  8
0
100
AcDbLine
 62
7
  6
CONTINUOUS
 10
69.2528565121
 20
76.1506282793
 11
69.2528565121
 21
87.1506282793
  0
LINE
  5
26D
100
AcDbEntity
  8
A_ACHSEN
100
AcDbLine
 62
2
  6
CONTINUOUS
 10
70.2528565121
 20
15.4811838349
 11
70.2528565121
 21
14.7700727238
  0
LINE
  5
26E
100
AcDbEntity
  8
A_ACHSEN
100
AcDbLine
 62
2
  6
CENTER
 10
70.2528565121
 20
13.3478505016
 11
70.2528565121
 21
1.1256282793
  0
LINE
  5
26F
100
AcDbEntity
  8
A_ACHSEN
100
AcDbLine
 62
2
  6
CENTER
 10
70.2528565121
 20
16.9034060571
 11
70.2528565121
 21
29.1256282793
  0
LINE
  5
270
100
AcDbEntity
  8
ALLE_ACHSEN
100
AcDbLine
 62
2
  6
HIDDEN
 10
72.2528565121
 20
58.0006282793
 11
74.9028565121
 21
60.6506282793
  0
LINE
  5
271
100
AcDbEntity
  8
ALLE_ACHSEN
100
AcDbLine
 62
2
  6
HIDDEN
 10
69.2528565121
 20
50.3006282793
 11
68.2528565121
 21
50.3006282793
  0
LINE
  5
272
100
AcDbEntity
  8
ALLE_ACHSEN
100
AcDbLine
 62
2
  6
HIDDEN
 10
71.2528565121
 20
50.3006282793
 11
72.2528565121
 21
50.3006282793
  0
LINE
  5
273
100
AcDbEntity
  8
ALLE_ACHSEN
100
AcDbLine
 62
2
  6
HIDDEN
 10
74.9028565121
 20
50.6506282793
 11
75.2528565121
 21
50.6506282793
  0
LINE
  5
274
100
AcDbEntity
  8
ALLE_ACHSEN
100
AcDbLine
 62
2
  6
CENTER
 10
70.0815553516
 20
54.1506282793
 11
101.045881271
 21
54.1506282793
  0
LINE
  5
275
100
AcDbEntity
  8
ALLE_ACHSEN
100
AcDbLine
 62
2
  6
HIDDEN
 10
72.2528565121
 20
50.3006282793
 11
74.9028565121
 21
47.6506282793
  0
LINE
  5
276
100
AcDbEntity
  8
0
100
AcDbLine
 62
7
  6
CONTINUOUS
 10
71.2528565121
 20
83.1506282793
 11
71.2528565121
 21
76.1506282793
  0
LINE
  5
277
100
AcDbEntity
  8
ALLE_ACHSEN
100
AcDbLine
 62
7
  6
CONTINUOUS
 10
71.2528565121
 20
76.1506282793
 11
71.2528565121
 21
26.1506282793
  0
LINE
  5
278
100
AcDbEntity
  8
ALLE_ACHSEN
100
AcDbLine
 62
2
  6
HIDDEN
 10
72.2528565121
 20
70.3006282793
 11
72.2528565121
 21
38.0006282793
  0
LINE
  5
279
100
AcDbEntity
  8
ALLE_ACHSEN
100
AcDbLine
 62
2
  6
HIDDEN
 10
74.9028565121
 20
67.6506282793
 11
74.9028565121
 21
60.6506282793
  0
LINE
  5
27A
100
AcDbEntity
  8
ALLE_ACHSEN
100
AcDbLine
 62
2
  6
HIDDEN
 10
74.9028565121
 20
57.6506282793
 11
74.9028565121
 21
50.6506282793
  0
LINE
  5
27B
100
AcDbEntity
  8
ALLE_ACHSEN
100
AcDbLine
 62
2
  6
HIDDEN
 10
74.9028565121
 20
47.6506282793
 11
74.9028565121
 21
40.6506282793
  0
LINE
  5
27C
100
AcDbEntity
  8
ALLE_ACHSEN
100
AcDbLine
 62
7
  6
CONTINUOUS
 10
75.2528565121
 20
76.1506282793
 11
75.2528565121
 21
26.1506282793
  0
LINE
  5
27D
100
AcDbEntity
  8
ALLE_ACHSEN
100
AcDbLine
 62
2
  6
HIDDEN
 10
68.2528565121
 20
50.3006282793
 11
65.6028565121
 21
47.6506282793
  0
LINE
  5
27E
100
AcDbEntity
  8
ALLE_ACHSEN
100
AcDbLine
 62
2
  6
HIDDEN
 10
72.2528565121
 20
48.0006282793
 11
74.9028565121
 21
50.6506282793
  0
LINE
  5
27F
100
AcDbEntity
  8
ALLE_ACHSEN
100
AcDbLine
 62
2
  6
HIDDEN
 10
74.9028565121
 20
57.6506282793
 11
75.2528565121
 21
57.6506282793
  0
LINE
  5
280
100
AcDbEntity
  8
ALLE_ACHSEN
100
AcDbLine
 62
2
  6
HIDDEN
 10
69.2528565121
 20
58.0006282793
 11
68.2528565121
 21
58.0006282793
  0
LINE
  5
281
100
AcDbEntity
  8
ALLE_ACHSEN
100
AcDbLine
 62
2
  6
HIDDEN
 10
71.2528565121
 20
58.0006282793
 11
72.2528565121
 21
58.0006282793
  0
LINE
  5
282
100
AcDbEntity
  8
ALLE_ACHSEN
100
AcDbLine
 62
2
  6
HIDDEN
 10
68.2528565121
 20
58.0006282793
 11
65.6028565121
 21
60.6506282793
  0
LINE
  5
283
100
AcDbEntity
  8
ALLE_ACHSEN
100
AcDbLine
 62
2
  6
HIDDEN
 10
72.2528565121
 20
60.3006282793
 11
74.9028565121
 21
57.6506282793
  0
LINE
  5
284
100
AcDbEntity
  8
ALLE_ACHSEN
100
AcDbLine
 62
2
  6
HIDDEN
 10
71.2528565121
 20
60.3006282793
 11
72.2528565121
 21
60.3006282793
  0
LINE
  5
285
100
AcDbEntity
  8
ALLE_ACHSEN
100
AcDbLine
 62
2
  6
HIDDEN
 10
65.6028565121
 20
60.6506282793
 11
65.2528565121
 21
60.6506282793
  0
LINE
  5
286
100
AcDbEntity
  8
ALLE_ACHSEN
100
AcDbLine
 62
2
  6
HIDDEN
 10
74.9028565121
 20
60.6506282793
 11
75.2528565121
 21
60.6506282793
  0
LINE
  5
287
100
AcDbEntity
  8
ALLE_ACHSEN
100
AcDbLine
 62
2
  6
CENTER
 10
35.7980689354
 20
64.1506282793
 11
101.466240493
 21
64.1506282793
  0
LINE
  5
288
100
AcDbEntity
  8
0
100
AcDbLine
 62
7
  6
CONTINUOUS
 10
84.2528565121
 20
87.1506282793
 11
84.2528565121
 21
103.1506282793
  0
LINE
  5
289
100
AcDbEntity
  8
ALLE_ACHSEN
100
AcDbLine
 62
7
  6
CONTINUOUS
 10
65.1198271161
 20
25.8110217779
 11
62.1611546937
 21
22.6139516353
  0
LINE
  5
28A
100
AcDbEntity
  8
ALLE_ACHSEN
100
AcDbLine
 62
2
  6
HIDDEN
 10
72.2528565121
 20
38.0006282793
 11
74.9028565121
 21
40.6506282793
  0
LINE
  5
28B
100
AcDbEntity
  8
ALLE_ACHSEN
100
AcDbLine
 62
2
  6
HIDDEN
 10
65.6028565121
 20
67.6506282793
 11
65.2528565121
 21
67.6506282793
  0
LINE
  5
28C
100
AcDbEntity
  8
ALLE_ACHSEN
100
AcDbLine
 62
2
  6
HIDDEN
 10
74.9028565121
 20
67.6506282793
 11
75.2528565121
 21
67.6506282793
  0
LINE
  5
28D
100
AcDbEntity
  8
ALLE_ACHSEN
100
AcDbLine
 62
2
  6
HIDDEN
 10
69.2528565121
 20
70.3006282793
 11
68.2528565121
 21
70.3006282793
  0
LINE
  5
28E
100
AcDbEntity
  8
ALLE_ACHSEN
100
AcDbLine
 62
2
  6
HIDDEN
 10
71.2528565121
 20
70.3006282793
 11
72.2528565121
 21
70.3006282793
  0
LINE
  5
28F
100
AcDbEntity
  8
ALLE_ACHSEN
100
AcDbLine
 62
2
  6
HIDDEN
 10
72.2528565121
 20
70.3006282793
 11
74.9028565121
 21
67.6506282793
  0
LINE
  5
290
100
AcDbEntity
  8
ALLE_ACHSEN
100
AcDbLine
 62
7
  6
CONTINUOUS
 10
75.2528565121
 20
76.1506282793
 11
71.2528565121
 21
76.1506282793
  0
LINE
  5
291
100
AcDbEntity
  8
0
100
AcDbLine
 62
7
  6
CONTINUOUS
 10
65.2528565121
 20
76.1506282793
 11
69.2528565121
 21
76.1506282793
  0
LINE
  5
292
100
AcDbEntity
  8
0
100
AcDbLine
 62
7
  6
CONTINUOUS
 10
136.2528565121
 20
83.1506282793
 11
71.2528565121
 21
83.1506282793
  0
LINE
  5
293
100
AcDbEntity
  8
0
100
AcDbLine
 62
7
  6
CONTINUOUS
 10
69.2528565121
 20
87.1506282793
 11
84.2528565121
 21
87.1506282793
  0
LINE
  5
294
100
AcDbEntity
  8
0
100
AcDbLine
 62
7
  6
CONTINUOUS
 10
84.2528565121
 20
103.1506282793
 11
4.2528565121
 21
103.1506282793
  0
LINE
  5
295
100
AcDbEntity
  8
0
100
AcDbLine
 62
7
  6
CONTINUOUS
 10
136.2528565121
 20
28.1506282793
 11
136.2528565121
 21
83.1506282793
  0
ARC
  5
296
100
AcDbEntity
  8
ALLE_ACHSEN
100
AcDbCircle
 62
7
  6
CONTINUOUS
 10
64.7528565121
 20
26.1506282793
 40
4.5
100
AcDbArc
 50
359.624867432
 51
360.0
  0
ARC
  5
297
100
AcDbEntity
  8
ALLE_ACHSEN
100
AcDbCircle
 62
7
  6
CONTINUOUS
 10
64.7528565121
 20
26.1506282793
 40
0.5
100
AcDbArc
 50
317.2178251245
 51
360.0
  0
ARC
  5
298
100
AcDbEntity
  8
ALLE_ACHSEN
100
AcDbCircle
 62
7
  6
CONTINUOUS
 10
70.2528565121
 20
15.1256282793
 40
11.025
100
AcDbArc
 50
137.2178251245
 51
95.2123551342
  0
CIRCLE
  5
299
100
AcDbEntity
  8
A_ACHSEN
100
AcDbCircle
 62
7
  6
CONTINUOUS
 10
70.2528565121
 20
15.1256282793
 40
11.0
  0
ARC
  5
29A
100
AcDbEntity
  8
ALLE_ACHSEN
100
AcDbCircle
 62
7
  6
CONTINUOUS
 10
75.7528565121
 20
26.1506282793
 40
4.5
100
AcDbArc
 50
180.0
 51
180.8951309547
  0
ARC
  5
29B
100
AcDbEntity
  8
ALLE_ACHSEN
100
AcDbCircle
 62
7
  6
CONTINUOUS
 10
75.7528565121
 20
26.1506282793
 40
0.5
100
AcDbArc
 50
180.0
 51
222.7821748755
  0
ENDSEC
  0
SECTION
  2
OBJECTS
  0
DICTIONARY
  5
29C
100
AcDbDictionary
  3
ACAD_GROUP
350
29D
  3
ACAD_MLINESTYLE
350
29E
  0
DICTIONARY
  5
29D
102
{ACAD_REACTORS
330
29C
102
}
100
AcDbDictionary
  0
DICTIONARY
  5
29E
102
{ACAD_REACTORS
330
29C
102
}
100
AcDbDictionary
  3
STANDARD
350
29F
  0
MLINESTYLE
  5
29F
102
{ACAD_REACTORS
330
29E
102
}
100
AcDbMlineStyle
  2
STANDARD
 70
0
  3

 62
256
 51
90.0
 52
90.0
 71
2
 49
0.5
 62
256
  6
BYLAYER
 49
-0.5
 62
256
  6
BYLAYER
  0
ENDSEC
  0
EOF
