999
DXF file: DXF_5_130657_0_00000_mkt_q_01_drw_1.dxf
999
Pro/ENGINEER 2020184 by Parametric Technology Corporation
  0
SECTION
  2
HEADER
  9
$ACADVER
  1
AC1014
  9
$DWGCODEPAGE
  3
ANSI_1252
  9
$EXTMAX
 10
140.0
 20
140.0
 30
0.0
  9
$EXTMIN
 10
0.0
 20
0.0
 30
0.0
  9
$LIMMIN
 10
0.0
 20
0.0
  9
$LIMMAX
 10
140.0
 20
140.0
  9
$VIEWCTR
 10
70.0
 20
70.0
  9
$VIEWSIZE
 40
140.0
  9
$CLAYER
  8
0
  9
$LTSCALE
 40
9.1259259259
  9
$CELTYPE
  6
BYLAYER
  9
$DIMSCALE
 40
1.0
  9
$DIMASZ
 40
3.5
  9
$DIMEXO
 40
0.0
  9
$DIMDLI
 40
6.3051851852
  9
$DIMEXE
 40
2.0
  9
$DIMCEN
 40
1.4933333333
  9
$DIMLFAC
 40
1.0
  9
$DIMBLK
  1
_ARROW_FILLED
  9
$DIMALT
 70
0
  9
$DIMALTF
 40
0.0393700787
  9
$DIMTXT
 40
3.5
  9
$DIMTOL
 70
1
  9
$DIMLIM
 70
0
  9
$DIMTFAC
 40
1.0
  9
$DIMTP
 40
0.01
  9
$DIMTM
 40
0.01
  9
$DIMGAP
 40
0.625
  9
$AUNITS
 70
0
  9
$PDMODE
 70
0
  9
$PDSIZE
 40
0.04
  9
$HANDSEED
  5
29F
  9
$TILEMODE
 70
1
  9
$MEASUREMENT
 70
1
  0
ENDSEC
  0
SECTION
  2
CLASSES
  0
ENDSEC
  0
SECTION
  2
TABLES
  0
TABLE
  2
VPORT
  5
8
100
AcDbSymbolTable
 70
2
  0
VPORT
  5
1F4
100
AcDbSymbolTableRecord
100
AcDbViewportTableRecord
  2
*ACTIVE
 70
0
 10
0.0
 20
0.0
 11
1.0
 21
1.0
 12
70.0
 22
70.0
 13
0.0
 23
0.0
 14
1.0
 24
1.0
 15
0.0
 25
0.0
 16
0.0
 26
0.0
 36
1.0
 17
0.0
 27
0.0
 37
0.0
 40
140.0
 41
1.0
 42
50.0
 43
0.0
 44
0.0
 50
0.0
 51
0.0
 71
0
 72
100
 73
1
 74
1
 75
0
 76
0
 77
0
 78
0
  0
ENDTAB
  0
TABLE
  2
LTYPE
  5
5
100
AcDbSymbolTable
 70
6
  0
LTYPE
  5
14
100
AcDbSymbolTableRecord
100
AcDbLinetypeTableRecord
  2
BYBLOCK
 70
0
  3

 72
65
 73
0
 40
0.0
  0
LTYPE
  5
15
100
AcDbSymbolTableRecord
100
AcDbLinetypeTableRecord
  2
BYLAYER
 70
0
  3

 72
65
 73
0
 40
0.0
  0
LTYPE
  5
16
100
AcDbSymbolTableRecord
100
AcDbLinetypeTableRecord
  2
CONTINUOUS
 70
64
  3
Solid line
 72
65
 73
0
 40
0.0
  0
LTYPE
  5
1F5
100
AcDbSymbolTableRecord
100
AcDbLinetypeTableRecord
  2
CENTER
 70
64
  3
____ _ ____ _ ____ _ ____ _ ____ _ ____ _ ____
 72
65
 73
4
 40
0.6
 49
0.375
 74
0
 49
-0.075
 74
0
 49
0.075
 74
0
 49
-0.075
 74
0
  0
LTYPE
  5
1F6
100
AcDbSymbolTableRecord
100
AcDbLinetypeTableRecord
  2
HIDDEN
 70
64
  3
- - - - - - - - - - - - - - - - - - - -
 72
65
 73
2
 40
0.2
 49
0.1
 74
0
 49
-0.1
 74
0
  0
LTYPE
  5
1F7
100
AcDbSymbolTableRecord
100
AcDbLinetypeTableRecord
  2
PHANTOM
 70
64
  3
_____ _ _ _____ _ _ _____ _ _ _____
 72
65
 73
6
 40
0.8
 49
0.45
 74
0
 49
-0.05
 74
0
 49
0.1
 74
0
 49
-0.05
 74
0
 49
0.1
 74
0
 49
-0.05
 74
0
  0
LTYPE
  5
1F8
100
AcDbSymbolTableRecord
100
AcDbLinetypeTableRecord
  2
DOT
 70
64
  3
. . . . . . . . . . . . . . . . . . . .
 72
65
 73
2
 40
0.2
 49
0.1
 74
0
 49
-0.1
 74
0
  0
LTYPE
  5
1F9
100
AcDbSymbolTableRecord
100
AcDbLinetypeTableRecord
  2
DASHED
 70
64
  3
- - - - - - - - - - - - - - - - - - - -
 72
65
 73
2
 40
0.2
 49
0.1
 74
0
 49
-0.1
 74
0
  0
ENDTAB
  0
TABLE
  2
LAYER
  5
2
100
AcDbSymbolTable
 70
36
  0
LAYER
  5
10
100
AcDbSymbolTableRecord
100
AcDbLayerTableRecord
  2
0
 70
0
 62
7
  6
CONTINUOUS
  0
LAYER
  5
1FA
100
AcDbSymbolTableRecord
100
AcDbLayerTableRecord
  2
DEFAULT_1
 70
0
 62
7
  6
CENTER
  0
LAYER
  5
1FB
100
AcDbSymbolTableRecord
100
AcDbLayerTableRecord
  2
DEFAULT_2
 70
0
 62
2
  6
HIDDEN
  0
LAYER
  5
1FC
100
AcDbSymbolTableRecord
100
AcDbLayerTableRecord
  2
DEFAULT_3
 70
0
 62
7
  6
PHANTOM
  0
LAYER
  5
1FD
100
AcDbSymbolTableRecord
100
AcDbLayerTableRecord
  2
ALLE_ACHSEN
 70
0
 62
7
  6
CONTINUOUS
  0
LAYER
  5
1FE
100
AcDbSymbolTableRecord
100
AcDbLayerTableRecord
  2
ALLE_BEMASSUNGEN
 70
0
 62
7
  6
CONTINUOUS
  0
LAYER
  5
1FF
100
AcDbSymbolTableRecord
100
AcDbLayerTableRecord
  2
ALLE_BOHRUNGEN
 70
0
 62
7
  6
CONTINUOUS
  0
LAYER
  5
200
100
AcDbSymbolTableRecord
100
AcDbLayerTableRecord
  2
ALLE_EBENEN
 70
0
 62
7
  6
CONTINUOUS
  0
LAYER
  5
201
100
AcDbSymbolTableRecord
100
AcDbLayerTableRecord
  2
ALLE_FL_VERBAENDE
 70
0
 62
7
  6
CONTINUOUS
  0
LAYER
  5
202
100
AcDbSymbolTableRecord
100
AcDbLayerTableRecord
  2
ALLE_NOTIZEN_SYMB
 70
0
 62
7
  6
CONTINUOUS
  0
LAYER
  5
203
100
AcDbSymbolTableRecord
100
AcDbLayerTableRecord
  2
A_ACHSEN
 70
0
 62
7
  6
CONTINUOUS
  0
LAYER
  5
204
100
AcDbSymbolTableRecord
100
AcDbLayerTableRecord
  2
A_BEMASSUNGEN
 70
0
 62
7
  6
CONTINUOUS
  0
LAYER
  5
205
100
AcDbSymbolTableRecord
100
AcDbLayerTableRecord
  2
A_BOHRUNGEN
 70
0
 62
7
  6
CONTINUOUS
  0
LAYER
  5
206
100
AcDbSymbolTableRecord
100
AcDbLayerTableRecord
  2
A_EBENEN
 70
0
 62
7
  6
CONTINUOUS
  0
LAYER
  5
207
100
AcDbSymbolTableRecord
100
AcDbLayerTableRecord
  2
A_FLAECHEN
 70
0
 62
7
  6
CONTINUOUS
  0
LAYER
  5
208
100
AcDbSymbolTableRecord
100
AcDbLayerTableRecord
  2
A_FL_VERBAENDE
 70
0
 62
7
  6
CONTINUOUS
  0
LAYER
  5
209
100
AcDbSymbolTableRecord
100
AcDbLayerTableRecord
  2
A_NOTIZEN_SYMB
 70
0
 62
7
  6
CONTINUOUS
  0
LAYER
  5
20A
100
AcDbSymbolTableRecord
100
AcDbLayerTableRecord
  2
BASISEBENEN
 70
0
 62
7
  6
CONTINUOUS
  0
LAYER
  5
20B
100
AcDbSymbolTableRecord
100
AcDbLayerTableRecord
  2
STD_ASM_ACHSEN
 70
0
 62
7
  6
CONTINUOUS
  0
LAYER
  5
20C
100
AcDbSymbolTableRecord
100
AcDbLayerTableRecord
  2
STD_ASM_BASISEBENEN
 70
0
 62
7
  6
CONTINUOUS
  0
LAYER
  5
20D
100
AcDbSymbolTableRecord
100
AcDbLayerTableRecord
  2
STD_ASM_CS0
 70
0
 62
7
  6
CONTINUOUS
  0
LAYER
  5
20E
100
AcDbSymbolTableRecord
100
AcDbLayerTableRecord
  2
STD_BASISEBENEN
 70
0
 62
7
  6
CONTINUOUS
  0
LAYER
  5
20F
100
AcDbSymbolTableRecord
100
AcDbLayerTableRecord
  2
STD_CS0
 70
0
 62
7
  6
CONTINUOUS
  0
ENDTAB
  0
TABLE
  2
STYLE
  5
3
100
AcDbSymbolTable
 70
1
  0
STYLE
  5
11
100
AcDbSymbolTableRecord
100
AcDbTextStyleTableRecord
  2
STANDARD
 70
0
 40
0.0
 41
1.0
 50
0.0
 71
0
 42
0.2
  3
ARIAL.TTF
  4

  0
STYLE
  5
210
100
AcDbSymbolTableRecord
100
AcDbTextStyleTableRecord
  2
TEXTSTYLE_1
 70
0
 40
0.0
 41
0.8
 50
0.0
 71
0
 42
0.2
  3
gdt
  4

  0
ENDTAB
  0
TABLE
  2
VIEW
  5
6
100
AcDbSymbolTable
 70
0
  0
ENDTAB
  0
TABLE
  2
UCS
  5
7
100
AcDbSymbolTable
 70
0
  0
ENDTAB
  0
TABLE
  2
APPID
  5
9
100
AcDbSymbolTable
 70
1
  0
APPID
  5
211
100
AcDbSymbolTableRecord
100
AcDbRegAppTableRecord
  2
ACAD
 70
0
  0
ENDTAB
  0
TABLE
  2
BLOCK_RECORD
  5
1
100
AcDbSymbolTable
 70
0
  0
BLOCK_RECORD
  5
1F
100
AcDbSymbolTableRecord
100
AcDbBlockTableRecord
  2
*MODEL_SPACE
  0
BLOCK_RECORD
  5
1B
100
AcDbSymbolTableRecord
100
AcDbBlockTableRecord
  2
*PAPER_SPACE
  0
BLOCK_RECORD
  5
212
100
AcDbSymbolTableRecord
100
AcDbBlockTableRecord
  2
_ARROW_FILLED
  0
BLOCK_RECORD
  5
213
100
AcDbSymbolTableRecord
100
AcDbBlockTableRecord
  2
_DOT
  0
BLOCK_RECORD
  5
214
100
AcDbSymbolTableRecord
100
AcDbBlockTableRecord
  2
*D0
  0
BLOCK_RECORD
  5
215
100
AcDbSymbolTableRecord
100
AcDbBlockTableRecord
  2
*D1
  0
BLOCK_RECORD
  5
216
100
AcDbSymbolTableRecord
100
AcDbBlockTableRecord
  2
*D2
  0
BLOCK_RECORD
  5
217
100
AcDbSymbolTableRecord
100
AcDbBlockTableRecord
  2
*D3
  0
ENDTAB
  0
TABLE
  2
DIMSTYLE
  5
A
100
AcDbSymbolTable
 70
1
  0
DIMSTYLE
105
218
100
AcDbSymbolTableRecord
100
AcDbDimStyleTableRecord
  2
STANDARD
 70
0
  3

  4

  5
_ARROW_FILLED
  6
_ARROW_FILLED
  7
_ARROW_FILLED
 40
1.0
 41
3.5
 42
0.0
 43
0.38
 44
2.0
 45
0.0
 46
0.0
 47
0.01
 48
0.01
140
3.5
141
0.09
142
0.0
143
25.4
144
1.0
145
0.0
146
1.0
147
0.625
 71
1
 72
0
 73
0
 74
0
 75
0
 76
0
 77
1
 78
8
 79
2
170
0
171
1
172
0
173
0
174
0
175
0
176
0
177
0
178
2
270
2
271
2
272
2
273
2
274
2
275
0
280
0
281
0
282
0
283
1
284
8
285
0
286
0
287
3
288
0
340
11
  0
DIMSTYLE
105
219
100
AcDbSymbolTableRecord
100
AcDbDimStyleTableRecord
  2
DIMSTYLE_1
 70
0
  3

  4

  5
_ARROW_FILLED
  6
_ARROW_FILLED
  7
_ARROW_FILLED
 40
1.0
 41
3.5
 42
0.0
 43
0.38
 44
2.0
 45
0.0
 46
0.0
 47
0.1
 48
0.1
140
3.5
141
0.09
142
0.0
143
25.4
144
1.0
145
0.0
146
1.0
147
0.875
 71
0
 72
0
 73
0
 74
0
 75
0
 76
0
 77
1
 78
8
 79
2
170
0
171
1
172
0
173
0
174
0
175
0
176
0
177
0
178
2
270
2
271
4
272
4
273
2
274
2
275
0
280
0
281
0
282
0
283
1
284
8
285
0
286
0
287
3
288
0
340
11
  0
DIMSTYLE
105
21A
100
AcDbSymbolTableRecord
100
AcDbDimStyleTableRecord
  2
DIMSTYLE_2
 70
0
  3

  4

  5
_ARROW_FILLED
  6
_ARROW_FILLED
  7
_ARROW_FILLED
 40
1.0
 41
3.5
 42
0.0
 43
0.38
 44
2.0
 45
0.0
 46
0.0
 47
0.2
 48
0.2
140
3.5
141
0.09
142
0.0
143
25.4
144
1.0
145
0.0
146
1.0
147
0.875
 71
0
 72
0
 73
0
 74
0
 75
0
 76
0
 77
1
 78
8
 79
2
170
0
171
1
172
0
173
0
174
0
175
0
176
0
177
0
178
2
270
2
271
1
272
1
273
2
274
2
275
0
280
0
281
0
282
0
283
1
284
8
285
0
286
0
287
3
288
0
340
11
  0
DIMSTYLE
105
21B
100
AcDbSymbolTableRecord
100
AcDbDimStyleTableRecord
  2
DIMSTYLE_3
 70
0
  3

  4

  5
_ARROW_FILLED
  6
_ARROW_FILLED
  7
_ARROW_FILLED
 40
1.0
 41
3.5
 42
0.0
 43
0.38
 44
2.0
 45
0.0
 46
0.0
 47
0.3
 48
0.3
140
3.5
141
0.09
142
0.0
143
25.4
144
1.0
145
0.0
146
1.0
147
0.875
 71
0
 72
0
 73
0
 74
0
 75
0
 76
0
 77
1
 78
8
 79
2
170
0
171
1
172
0
173
0
174
0
175
0
176
0
177
0
178
2
270
2
271
4
272
4
273
2
274
2
275
0
280
0
281
0
282
0
283
1
284
8
285
0
286
0
287
3
288
0
340
11
  0
ENDTAB
  0
ENDSEC
  0
SECTION
  2
BLOCKS
  0
BLOCK
  5
20
100
AcDbEntity
  8
0
100
AcDbBlockBegin
  2
*MODEL_SPACE
 70
0
 10
0.0
 20
0.0
 30
0.0
  3
*MODEL_SPACE
  1

  0
ENDBLK
  5
21
100
AcDbEntity
  8
0
100
AcDbBlockEnd
  0
BLOCK
  5
1C
100
AcDbEntity
  8
0
100
AcDbBlockBegin
  2
*PAPER_SPACE
 70
0
 10
0.0
 20
0.0
 30
0.0
  3
*PAPER_SPACE
  1

  0
ENDBLK
  5
1D
100
AcDbEntity
  8
0
100
AcDbBlockEnd
  0
BLOCK
  5
21C
100
AcDbEntity
  8
0
100
AcDbBlockBegin
  2
_ARROW_FILLED
 70
64
 10
0.0
 20
0.0
  3
_ARROW_FILLED
  1

  0
SOLID
  5
21D
100
AcDbEntity
  8
0
  6
BYBLOCK
 62
0
100
AcDbTrace
 10
0.0
 20
0.0
 11
-1.0
 21
0.1428571429
 12
-1.0
 22
-0.1428571429
 13
-1.0
 23
-0.1428571429
  0
ENDBLK
  5
21E
100
AcDbEntity
  8
0
  6
BYBLOCK
 62
0
100
AcDbBlockEnd
  0
BLOCK
  5
21F
100
AcDbEntity
  8
0
100
AcDbBlockBegin
  2
_DOT
 70
64
 10
0.0
 20
0.0
  3
_DOT
  1

  0
LWPOLYLINE
  5
220
100
AcDbEntity
  8
0
  6
BYBLOCK
 62
0
100
AcDbPolyline
 90
2
 70
1
 43
0.1428571429
 10
-0.0714285714
 20
0.0
 42
1.0
 10
0.0714285714
 20
0.0
 42
1.0
  0
LINE
  5
221
100
AcDbEntity
  8
0
  6
BYBLOCK
 62
0
100
AcDbLine
 10
-0.1428571429
 20
0.0
 11
-1.0
 21
0.0
  0
ENDBLK
  5
222
100
AcDbEntity
  8
0
  6
BYBLOCK
 62
0
100
AcDbBlockEnd
  0
BLOCK
  5
223
100
AcDbEntity
  8
ALLE_BEMASSUNGEN
100
AcDbBlockBegin
 62
2
  6
CONTINUOUS
  2
*D0
 70
65
 10
0.0
 20
0.0
  3
*D0
  1

  0
MTEXT
  5
224
100
AcDbEntity
  8
ALLE_BEMASSUNGEN
100
AcDbMText
 62
2
  6
CONTINUOUS
  7
STANDARD
 71
3
 72
1
 10
63.7352528811
 20
137.1036869338
 30
0.0
 11
1.0
 21
0.0
 31
0.0
  1
3
 40
3.5
 41
3.75
  0
LINE
  5
225
100
AcDbEntity
  8
ALLE_BEMASSUNGEN
100
AcDbLine
 62
2
  6
CONTINUOUS
 10
68.2780765751
 20
107.5744367326
 11
68.2780765751
 21
134.7286869338
  0
LINE
  5
226
100
AcDbEntity
  8
ALLE_BEMASSUNGEN
100
AcDbLine
 62
2
  6
CONTINUOUS
 10
71.2780765751
 20
103.5744367326
 11
71.2780765751
 21
134.7286869338
  0
LINE
  5
227
100
AcDbEntity
  8
ALLE_BEMASSUNGEN
100
AcDbLine
 62
2
  6
CONTINUOUS
 10
68.2780765751
 20
132.7286869338
 11
61.2352528811
 21
132.7286869338
  0
LINE
  5
228
100
AcDbEntity
  8
ALLE_BEMASSUNGEN
100
AcDbLine
 62
2
  6
CONTINUOUS
 10
61.2352528811
 20
132.7286869338
 11
69.7780765751
 21
132.7286869338
  0
LINE
  5
229
100
AcDbEntity
  8
ALLE_BEMASSUNGEN
100
AcDbLine
 62
2
  6
CONTINUOUS
 10
71.2780765751
 20
132.7286869338
 11
78.7780765751
 21
132.7286869338
  0
LINE
  5
22A
100
AcDbEntity
  8
ALLE_BEMASSUNGEN
100
AcDbLine
 62
2
  6
CONTINUOUS
 10
78.7780765751
 20
132.7286869338
 11
69.7780765751
 21
132.7286869338
  0
INSERT
  5
22B
100
AcDbEntity
  8
ALLE_BEMASSUNGEN
100
AcDbBlockReference
 62
2
  6
CONTINUOUS
  2
_ARROW_FILLED
 10
68.2780765751
 20
132.7286869338
 41
3.5
 42
3.5
 43
3.5
  0
INSERT
  5
22C
100
AcDbEntity
  8
ALLE_BEMASSUNGEN
100
AcDbBlockReference
 62
2
  6
CONTINUOUS
  2
_DOT
 10
71.2780765751
 20
132.7286869338
 41
3.5
 42
3.5
 43
3.5
 50
180.0
  0
ENDBLK
  5
22D
100
AcDbEntity
  8
0
  6
BYBLOCK
 62
0
100
AcDbBlockEnd
  0
BLOCK
  5
22E
100
AcDbEntity
  8
ALLE_BEMASSUNGEN
100
AcDbBlockBegin
 62
2
  6
CONTINUOUS
  2
*D1
 70
65
 10
0.0
 20
0.0
  3
*D1
  1

  0
MTEXT
  5
22F
100
AcDbEntity
  8
ALLE_BEMASSUNGEN
100
AcDbMText
 62
2
  6
CONTINUOUS
  7
STANDARD
 71
1
 72
1
 10
80.4214831294
 20
137.1036869338
 30
0.0
 11
1.0
 21
0.0
 31
0.0
  1
5
 40
3.5
 41
3.75
  0
LINE
  5
230
100
AcDbEntity
  8
ALLE_BEMASSUNGEN
100
AcDbLine
 62
2
  6
CONTINUOUS
 10
76.2780765751
 20
96.5744367326
 11
76.2780765751
 21
134.7286869338
  0
LINE
  5
231
100
AcDbEntity
  8
ALLE_BEMASSUNGEN
100
AcDbLine
 62
2
  6
CONTINUOUS
 10
71.2780765751
 20
96.5744367326
 11
71.2780765751
 21
134.7286869338
  0
LINE
  5
232
100
AcDbEntity
  8
ALLE_BEMASSUNGEN
100
AcDbLine
 62
2
  6
CONTINUOUS
 10
76.2780765751
 20
132.7286869338
 11
82.9214831294
 21
132.7286869338
  0
LINE
  5
233
100
AcDbEntity
  8
ALLE_BEMASSUNGEN
100
AcDbLine
 62
2
  6
CONTINUOUS
 10
82.9214831294
 20
132.7286869338
 11
73.7780765751
 21
132.7286869338
  0
LINE
  5
234
100
AcDbEntity
  8
ALLE_BEMASSUNGEN
100
AcDbLine
 62
2
  6
CONTINUOUS
 10
71.2780765751
 20
132.7286869338
 11
63.7780765751
 21
132.7286869338
  0
LINE
  5
235
100
AcDbEntity
  8
ALLE_BEMASSUNGEN
100
AcDbLine
 62
2
  6
CONTINUOUS
 10
63.7780765751
 20
132.7286869338
 11
73.7780765751
 21
132.7286869338
  0
INSERT
  5
236
100
AcDbEntity
  8
ALLE_BEMASSUNGEN
100
AcDbBlockReference
 62
2
  6
CONTINUOUS
  2
_ARROW_FILLED
 10
76.2780765751
 20
132.7286869338
 41
3.5
 42
3.5
 43
3.5
 50
180.0
  0
INSERT
  5
237
100
AcDbEntity
  8
ALLE_BEMASSUNGEN
100
AcDbBlockReference
 62
2
  6
CONTINUOUS
  2
_DOT
 10
71.2780765751
 20
132.7286869338
 41
3.5
 42
3.5
 43
3.5
  0
ENDBLK
  5
238
100
AcDbEntity
  8
0
  6
BYBLOCK
 62
0
100
AcDbBlockEnd
  0
BLOCK
  5
239
100
AcDbEntity
  8
ALLE_BEMASSUNGEN
100
AcDbBlockBegin
 62
2
  6
CONTINUOUS
  2
*D2
 70
65
 10
0.0
 20
0.0
  3
*D2
  1

  0
MTEXT
  5
23A
100
AcDbEntity
  8
ALLE_BEMASSUNGEN
100
AcDbMText
 62
2
  6
CONTINUOUS
  7
STANDARD
 71
2
 72
1
 10
90.965219021
 20
26.0619367326
 30
0.0
 11
0.0
 21
1.0
 31
0.0
  1
15
 40
3.5
 41
6.75
  0
LINE
  5
23B
100
AcDbEntity
  8
ALLE_BEMASSUNGEN
100
AcDbLine
 62
2
  6
CONTINUOUS
 10
88.938281759
 20
18.5494367326
 11
97.340219021
 21
18.5494367326
  0
LINE
  5
23C
100
AcDbEntity
  8
ALLE_BEMASSUNGEN
100
AcDbLine
 62
2
  6
CONTINUOUS
 10
95.340219021
 20
33.5744367326
 11
95.340219021
 21
26.0619367326
  0
LINE
  5
23D
100
AcDbEntity
  8
ALLE_BEMASSUNGEN
100
AcDbLine
 62
2
  6
CONTINUOUS
 10
95.340219021
 20
18.5494367326
 11
95.340219021
 21
26.0619367326
  0
INSERT
  5
23E
100
AcDbEntity
  8
ALLE_BEMASSUNGEN
100
AcDbBlockReference
 62
2
  6
CONTINUOUS
  2
_ARROW_FILLED
 10
95.340219021
 20
33.5744367326
 41
3.5
 42
3.5
 43
3.5
 50
90.0
  0
INSERT
  5
23F
100
AcDbEntity
  8
ALLE_BEMASSUNGEN
100
AcDbBlockReference
 62
2
  6
CONTINUOUS
  2
_ARROW_FILLED
 10
95.340219021
 20
18.5494367326
 41
3.5
 42
3.5
 43
3.5
 50
270.0
  0
ENDBLK
  5
240
100
AcDbEntity
  8
0
  6
BYBLOCK
 62
0
100
AcDbBlockEnd
  0
BLOCK
  5
241
100
AcDbEntity
  8
ALLE_BEMASSUNGEN
100
AcDbBlockBegin
 62
2
  6
CONTINUOUS
  2
*D3
 70
65
 10
0.0
 20
0.0
  3
*D3
  1

  0
MTEXT
  5
242
100
AcDbEntity
  8
ALLE_BEMASSUNGEN
100
AcDbMText
 62
2
  6
CONTINUOUS
  7
STANDARD
 71
2
 72
1
 10
18.9527331294
 20
65.0744367326
 30
0.0
 11
0.0
 21
1.0
 31
0.0
  1
63
 40
3.5
 41
7.875
  0
LINE
  5
243
100
AcDbEntity
  8
ALLE_BEMASSUNGEN
100
AcDbLine
 62
2
  6
CONTINUOUS
 10
63.2780765751
 20
96.5744367326
 11
21.3277331294
 21
96.5744367326
  0
LINE
  5
244
100
AcDbEntity
  8
ALLE_BEMASSUNGEN
100
AcDbLine
 62
2
  6
CONTINUOUS
 10
23.3277331294
 20
33.5744367326
 11
23.3277331294
 21
65.0744367326
  0
LINE
  5
245
100
AcDbEntity
  8
ALLE_BEMASSUNGEN
100
AcDbLine
 62
2
  6
CONTINUOUS
 10
23.3277331294
 20
96.5744367326
 11
23.3277331294
 21
65.0744367326
  0
INSERT
  5
246
100
AcDbEntity
  8
ALLE_BEMASSUNGEN
100
AcDbBlockReference
 62
2
  6
CONTINUOUS
  2
_ARROW_FILLED
 10
23.3277331294
 20
33.5744367326
 41
3.5
 42
3.5
 43
3.5
 50
270.0
  0
INSERT
  5
247
100
AcDbEntity
  8
ALLE_BEMASSUNGEN
100
AcDbBlockReference
 62
2
  6
CONTINUOUS
  2
_ARROW_FILLED
 10
23.3277331294
 20
96.5744367326
 41
3.5
 42
3.5
 43
3.5
 50
90.0
  0
ENDBLK
  5
248
100
AcDbEntity
  8
0
  6
BYBLOCK
 62
0
100
AcDbBlockEnd
  0
ENDSEC
  0
SECTION
  2
ENTITIES
  0
DIMENSION
  5
249
100
AcDbEntity
  8
ALLE_BEMASSUNGEN
100
AcDbDimension
 62
2
  6
CONTINUOUS
  2
*D0
 10
71.2780765751
 20
132.7286869338
 11
61.9852531829
 21
132.7286869338
 70
160
  3
DIMSTYLE_1
100
AcDbAlignedDimension
 13
68.2780765751
 23
107.5744367326
 14
71.2780765751
 24
103.5744367326
100
AcDbRotatedDimension
1001
ACAD
1000
DSTYLE
1002
{
1070
173
1070
1
1070
7
1000
_DOT
1002
}
  0
DIMENSION
  5
24A
100
AcDbEntity
  8
ALLE_BEMASSUNGEN
100
AcDbDimension
 62
2
  6
CONTINUOUS
  2
*D1
 10
71.2780765751
 20
132.7286869338
 11
81.1714814815
 21
132.7286869338
 70
160
  3
DIMSTYLE_1
100
AcDbAlignedDimension
 13
76.2780765751
 23
96.5744367326
 14
71.2780765751
 24
96.5744367326
 50
180.0
100
AcDbRotatedDimension
1001
ACAD
1000
DSTYLE
1002
{
1070
173
1070
1
1070
7
1000
_DOT
1002
}
  0
DIMENSION
  5
24B
100
AcDbEntity
  8
ALLE_BEMASSUNGEN
100
AcDbDimension
 62
2
  6
CONTINUOUS
  2
*D2
 10
95.340219021
 20
18.5494367326
 11
95.340219021
 21
25.5619405125
 70
160
  3
DIMSTYLE_2
100
AcDbAlignedDimension
 13
76.2780765751
 23
33.5744367326
 14
88.938281759
 24
18.5494367326
 50
270.0
100
AcDbRotatedDimension
  0
DIMENSION
  5
24C
100
AcDbEntity
  8
ALLE_BEMASSUNGEN
100
AcDbDimension
 62
2
  6
CONTINUOUS
  2
*D3
 10
23.3277331294
 20
96.5744367326
 11
23.3277331294
 21
64.5744370739
 70
160
  3
DIMSTYLE_3
100
AcDbAlignedDimension
 13
3.2780765751
 23
33.5744367326
 14
63.2780765751
 24
96.5744367326
 50
90.0
100
AcDbRotatedDimension
  0
LINE
  5
24D
100
AcDbEntity
  8
0
100
AcDbLine
 62
7
  6
CONTINUOUS
 10
3.2780765751
 20
123.5744367326
 11
3.2780765751
 21
33.5744367326
  0
LINE
  5
24E
100
AcDbEntity
  8
A_ACHSEN
100
AcDbLine
 62
2
  6
CENTER
 10
50.6178713912
 20
18.5494367326
 11
88.938281759
 21
18.5494367326
  0
LINE
  5
24F
100
AcDbEntity
  8
0
100
AcDbLine
 62
2
  6
CONTINUOUS
 10
63.3398302145
 20
32.7998564927
 11
63.2780765751
 21
32.7953636646
  0
LINE
  5
250
100
AcDbEntity
  8
0
100
AcDbLine
 62
2
  6
CONTINUOUS
 10
68.0463050735
 20
33.0067345085
 11
66.2196494541
 21
32.8951466743
  0
LINE
  5
251
100
AcDbEntity
  8
0
100
AcDbLine
 62
2
  6
CONTINUOUS
 10
68.2780765751
 20
33.0198147956
 11
68.0463050735
 21
33.0067345085
  0
LINE
  5
252
100
AcDbEntity
  8
0
100
AcDbLine
 62
2
  6
CONTINUOUS
 10
66.2196494541
 20
32.8951466743
 11
65.3051713644
 21
32.8515759966
  0
LINE
  5
253
100
AcDbEntity
  8
0
100
AcDbLine
 62
2
  6
CONTINUOUS
 10
65.3051713644
 20
32.8515759966
 11
64.649182129
 21
32.830367491
  0
LINE
  5
254
100
AcDbEntity
  8
0
100
AcDbLine
 62
2
  6
CONTINUOUS
 10
64.649182129
 20
32.830367491
 11
63.3398302145
 21
32.7998564927
  0
LINE
  5
255
100
AcDbEntity
  8
0
100
AcDbLine
 62
7
  6
CONTINUOUS
 10
3.2780765751
 20
33.5744367326
 11
63.2780765751
 21
33.5744367326
  0
LINE
  5
256
100
AcDbEntity
  8
0
100
AcDbLine
 62
7
  6
CONTINUOUS
 10
76.2780765751
 20
33.5744367326
 11
136.2780765751
 21
33.5744367326
  0
LINE
  5
257
100
AcDbEntity
  8
ALLE_ACHSEN
100
AcDbLine
 62
2
  6
HIDDEN
 10
67.2780765751
 20
87.7244367326
 11
64.6280765751
 21
85.0744367326
  0
LINE
  5
258
100
AcDbEntity
  8
ALLE_ACHSEN
100
AcDbLine
 62
7
  6
CONTINUOUS
 10
76.3835523468
 20
31.2672712507
 11
80.0554327227
 21
26.5510975362
  0
LINE
  5
259
100
AcDbEntity
  8
ALLE_ACHSEN
100
AcDbLine
 62
7
  6
CONTINUOUS
 10
63.2780765751
 20
33.5744367326
 11
63.2780765751
 21
31.5744367326
  0
LINE
  5
25A
100
AcDbEntity
  8
ALLE_ACHSEN
100
AcDbLine
 62
2
  6
HIDDEN
 10
63.2780765751
 20
58.0744367326
 11
63.2780765751
 21
65.0744367326
  0
LINE
  5
25B
100
AcDbEntity
  8
ALLE_ACHSEN
100
AcDbLine
 62
2
  6
HIDDEN
 10
63.2780765751
 20
78.0744367326
 11
63.2780765751
 21
85.0744367326
  0
LINE
  5
25C
100
AcDbEntity
  8
0
100
AcDbLine
 62
7
  6
CONTINUOUS
 10
63.2780765751
 20
33.5744367326
 11
63.2780765751
 21
96.5744367326
  0
LINE
  5
25D
100
AcDbEntity
  8
ALLE_ACHSEN
100
AcDbLine
 62
2
  6
HIDDEN
 10
64.6280765751
 20
85.0744367326
 11
64.6280765751
 21
78.0744367326
  0
LINE
  5
25E
100
AcDbEntity
  8
ALLE_ACHSEN
100
AcDbLine
 62
2
  6
HIDDEN
 10
64.6280765751
 20
65.0744367326
 11
64.6280765751
 21
58.0744367326
  0
LINE
  5
25F
100
AcDbEntity
  8
ALLE_ACHSEN
100
AcDbLine
 62
2
  6
HIDDEN
 10
72.2780765751
 20
75.4244367326
 11
74.9280765751
 21
78.0744367326
  0
LINE
  5
260
100
AcDbEntity
  8
ALLE_ACHSEN
100
AcDbLine
 62
2
  6
HIDDEN
 10
68.2780765751
 20
55.4244367326
 11
67.2780765751
 21
55.4244367326
  0
LINE
  5
261
100
AcDbEntity
  8
ALLE_ACHSEN
100
AcDbLine
 62
2
  6
HIDDEN
 10
71.2780765751
 20
55.4244367326
 11
72.2780765751
 21
55.4244367326
  0
LINE
  5
262
100
AcDbEntity
  8
ALLE_ACHSEN
100
AcDbLine
 62
2
  6
HIDDEN
 10
64.6280765751
 20
58.0744367326
 11
63.2780765751
 21
58.0744367326
  0
LINE
  5
263
100
AcDbEntity
  8
ALLE_ACHSEN
100
AcDbLine
 62
2
  6
HIDDEN
 10
74.9280765751
 20
58.0744367326
 11
76.2780765751
 21
58.0744367326
  0
LINE
  5
264
100
AcDbEntity
  8
ALLE_ACHSEN
100
AcDbLine
 62
2
  6
HIDDEN
 10
67.2780765751
 20
55.4244367326
 11
64.6280765751
 21
58.0744367326
  0
LINE
  5
265
100
AcDbEntity
  8
ALLE_ACHSEN
100
AcDbLine
 62
2
  6
HIDDEN
 10
67.2780765751
 20
87.7244367326
 11
67.2780765751
 21
75.4244367326
  0
LINE
  5
266
100
AcDbEntity
  8
ALLE_ACHSEN
100
AcDbLine
 62
2
  6
HIDDEN
 10
67.2780765751
 20
67.7244367326
 11
67.2780765751
 21
55.4244367326
  0
LINE
  5
267
100
AcDbEntity
  8
ALLE_ACHSEN
100
AcDbLine
 62
7
  6
CONTINUOUS
 10
68.2780765751
 20
96.5744367326
 11
68.2780765751
 21
31.5744367326
  0
LINE
  5
268
100
AcDbEntity
  8
0
100
AcDbLine
 62
7
  6
CONTINUOUS
 10
68.2780765751
 20
96.5744367326
 11
68.2780765751
 21
107.5744367326
  0
LINE
  5
269
100
AcDbEntity
  8
A_ACHSEN
100
AcDbLine
 62
2
  6
CENTER
 10
69.7780765751
 20
-0.6107684513
 11
69.7780765751
 21
37.7096419164
  0
LINE
  5
26A
100
AcDbEntity
  8
ALLE_ACHSEN
100
AcDbLine
 62
2
  6
HIDDEN
 10
67.2780765751
 20
67.7244367326
 11
64.6280765751
 21
65.0744367326
  0
LINE
  5
26B
100
AcDbEntity
  8
ALLE_ACHSEN
100
AcDbLine
 62
2
  6
CENTER
 10
32.7397675538
 20
61.5744367326
 11
69.4207121322
 21
61.5744367326
  0
LINE
  5
26C
100
AcDbEntity
  8
ALLE_ACHSEN
100
AcDbLine
 62
2
  6
CENTER
 10
70.8112313196
 20
61.5744367326
 11
103.5749820007
 21
61.5744367326
  0
LINE
  5
26D
100
AcDbEntity
  8
ALLE_ACHSEN
100
AcDbLine
 62
2
  6
HIDDEN
 10
64.6280765751
 20
65.0744367326
 11
63.2780765751
 21
65.0744367326
  0
LINE
  5
26E
100
AcDbEntity
  8
ALLE_ACHSEN
100
AcDbLine
 62
2
  6
HIDDEN
 10
74.9280765751
 20
65.0744367326
 11
76.2780765751
 21
65.0744367326
  0
LINE
  5
26F
100
AcDbEntity
  8
0
100
AcDbLine
 62
7
  6
CONTINUOUS
 10
71.2780765751
 20
103.5744367326
 11
71.2780765751
 21
96.5744367326
  0
LINE
  5
270
100
AcDbEntity
  8
ALLE_ACHSEN
100
AcDbLine
 62
7
  6
CONTINUOUS
 10
71.2780765751
 20
96.5744367326
 11
71.2780765751
 21
31.5744367326
  0
LINE
  5
271
100
AcDbEntity
  8
ALLE_ACHSEN
100
AcDbLine
 62
2
  6
HIDDEN
 10
72.2780765751
 20
87.7244367326
 11
72.2780765751
 21
55.4244367326
  0
LINE
  5
272
100
AcDbEntity
  8
ALLE_ACHSEN
100
AcDbLine
 62
2
  6
HIDDEN
 10
74.9280765751
 20
85.0744367326
 11
74.9280765751
 21
78.0744367326
  0
LINE
  5
273
100
AcDbEntity
  8
ALLE_ACHSEN
100
AcDbLine
 62
2
  6
HIDDEN
 10
74.9280765751
 20
75.0744367326
 11
74.9280765751
 21
68.0744367326
  0
LINE
  5
274
100
AcDbEntity
  8
ALLE_ACHSEN
100
AcDbLine
 62
2
  6
HIDDEN
 10
74.9280765751
 20
65.0744367326
 11
74.9280765751
 21
58.0744367326
  0
LINE
  5
275
100
AcDbEntity
  8
ALLE_ACHSEN
100
AcDbLine
 62
7
  6
CONTINUOUS
 10
76.2780765751
 20
96.5744367326
 11
76.2780765751
 21
31.5744367326
  0
LINE
  5
276
100
AcDbEntity
  8
ALLE_ACHSEN
100
AcDbLine
 62
2
  6
HIDDEN
 10
72.2780765751
 20
65.4244367326
 11
74.9280765751
 21
68.0744367326
  0
LINE
  5
277
100
AcDbEntity
  8
ALLE_ACHSEN
100
AcDbLine
 62
2
  6
HIDDEN
 10
71.2780765751
 20
65.4244367326
 11
72.2780765751
 21
65.4244367326
  0
LINE
  5
278
100
AcDbEntity
  8
ALLE_ACHSEN
100
AcDbLine
 62
2
  6
HIDDEN
 10
68.2780765751
 20
67.7244367326
 11
67.2780765751
 21
67.7244367326
  0
LINE
  5
279
100
AcDbEntity
  8
ALLE_ACHSEN
100
AcDbLine
 62
2
  6
HIDDEN
 10
71.2780765751
 20
67.7244367326
 11
72.2780765751
 21
67.7244367326
  0
LINE
  5
27A
100
AcDbEntity
  8
ALLE_ACHSEN
100
AcDbLine
 62
2
  6
HIDDEN
 10
74.9280765751
 20
68.0744367326
 11
76.2780765751
 21
68.0744367326
  0
LINE
  5
27B
100
AcDbEntity
  8
ALLE_ACHSEN
100
AcDbLine
 62
2
  6
HIDDEN
 10
72.2780765751
 20
67.7244367326
 11
74.9280765751
 21
65.0744367326
  0
LINE
  5
27C
100
AcDbEntity
  8
ALLE_ACHSEN
100
AcDbLine
 62
2
  6
HIDDEN
 10
67.2780765751
 20
75.4244367326
 11
64.6280765751
 21
78.0744367326
  0
LINE
  5
27D
100
AcDbEntity
  8
ALLE_ACHSEN
100
AcDbLine
 62
2
  6
HIDDEN
 10
72.2780765751
 20
55.4244367326
 11
74.9280765751
 21
58.0744367326
  0
LINE
  5
27E
100
AcDbEntity
  8
ALLE_ACHSEN
100
AcDbLine
 62
2
  6
CENTER
 10
69.9263554731
 20
71.5744367326
 11
103.0332212784
 21
71.5744367326
  0
LINE
  5
27F
100
AcDbEntity
  8
ALLE_ACHSEN
100
AcDbLine
 62
2
  6
HIDDEN
 10
74.9280765751
 20
75.0744367326
 11
76.2780765751
 21
75.0744367326
  0
LINE
  5
280
100
AcDbEntity
  8
ALLE_ACHSEN
100
AcDbLine
 62
2
  6
HIDDEN
 10
68.2780765751
 20
75.4244367326
 11
67.2780765751
 21
75.4244367326
  0
LINE
  5
281
100
AcDbEntity
  8
ALLE_ACHSEN
100
AcDbLine
 62
2
  6
HIDDEN
 10
71.2780765751
 20
75.4244367326
 11
72.2780765751
 21
75.4244367326
  0
LINE
  5
282
100
AcDbEntity
  8
ALLE_ACHSEN
100
AcDbLine
 62
2
  6
HIDDEN
 10
72.2780765751
 20
77.7244367326
 11
74.9280765751
 21
75.0744367326
  0
LINE
  5
283
100
AcDbEntity
  8
0
100
AcDbLine
 62
7
  6
CONTINUOUS
 10
83.2780765751
 20
107.5744367326
 11
83.2780765751
 21
123.5744367326
  0
LINE
  5
284
100
AcDbEntity
  8
ALLE_ACHSEN
100
AcDbLine
 62
7
  6
CONTINUOUS
 10
63.1726008034
 20
31.2672712507
 11
59.5007204275
 21
26.5510975362
  0
LINE
  5
285
100
AcDbEntity
  8
ALLE_ACHSEN
100
AcDbLine
 62
2
  6
HIDDEN
 10
71.2780765751
 20
77.7244367326
 11
72.2780765751
 21
77.7244367326
  0
LINE
  5
286
100
AcDbEntity
  8
ALLE_ACHSEN
100
AcDbLine
 62
2
  6
HIDDEN
 10
64.6280765751
 20
78.0744367326
 11
63.2780765751
 21
78.0744367326
  0
LINE
  5
287
100
AcDbEntity
  8
ALLE_ACHSEN
100
AcDbLine
 62
2
  6
HIDDEN
 10
74.9280765751
 20
78.0744367326
 11
76.2780765751
 21
78.0744367326
  0
LINE
  5
288
100
AcDbEntity
  8
ALLE_ACHSEN
100
AcDbLine
 62
2
  6
CENTER
 10
33.8232889985
 20
81.5744367326
 11
69.294301297
 21
81.5744367326
  0
LINE
  5
289
100
AcDbEntity
  8
ALLE_ACHSEN
100
AcDbLine
 62
2
  6
CENTER
 10
69.7999446378
 20
81.5744367326
 11
102.491460556
 21
81.5744367326
  0
LINE
  5
28A
100
AcDbEntity
  8
ALLE_ACHSEN
100
AcDbLine
 62
2
  6
HIDDEN
 10
72.2780765751
 20
87.7244367326
 11
74.9280765751
 21
85.0744367326
  0
LINE
  5
28B
100
AcDbEntity
  8
ALLE_ACHSEN
100
AcDbLine
 62
2
  6
HIDDEN
 10
64.6280765751
 20
85.0744367326
 11
63.2780765751
 21
85.0744367326
  0
LINE
  5
28C
100
AcDbEntity
  8
ALLE_ACHSEN
100
AcDbLine
 62
2
  6
HIDDEN
 10
74.9280765751
 20
85.0744367326
 11
76.2780765751
 21
85.0744367326
  0
LINE
  5
28D
100
AcDbEntity
  8
ALLE_ACHSEN
100
AcDbLine
 62
2
  6
HIDDEN
 10
68.2780765751
 20
87.7244367326
 11
67.2780765751
 21
87.7244367326
  0
LINE
  5
28E
100
AcDbEntity
  8
ALLE_ACHSEN
100
AcDbLine
 62
2
  6
HIDDEN
 10
71.2780765751
 20
87.7244367326
 11
72.2780765751
 21
87.7244367326
  0
LINE
  5
28F
100
AcDbEntity
  8
ALLE_ACHSEN
100
AcDbLine
 62
7
  6
CONTINUOUS
 10
76.2780765751
 20
96.5744367326
 11
71.2780765751
 21
96.5744367326
  0
LINE
  5
290
100
AcDbEntity
  8
0
100
AcDbLine
 62
7
  6
CONTINUOUS
 10
63.2780765751
 20
96.5744367326
 11
68.2780765751
 21
96.5744367326
  0
LINE
  5
291
100
AcDbEntity
  8
0
100
AcDbLine
 62
7
  6
CONTINUOUS
 10
136.2780765751
 20
103.5744367326
 11
71.2780765751
 21
103.5744367326
  0
LINE
  5
292
100
AcDbEntity
  8
0
100
AcDbLine
 62
7
  6
CONTINUOUS
 10
68.2780765751
 20
107.5744367326
 11
83.2780765751
 21
107.5744367326
  0
LINE
  5
293
100
AcDbEntity
  8
0
100
AcDbLine
 62
7
  6
CONTINUOUS
 10
83.2780765751
 20
123.5744367326
 11
3.2780765751
 21
123.5744367326
  0
LINE
  5
294
100
AcDbEntity
  8
0
100
AcDbLine
 62
7
  6
CONTINUOUS
 10
136.2780765751
 20
33.5744367326
 11
136.2780765751
 21
103.5744367326
  0
ARC
  5
295
100
AcDbEntity
  8
ALLE_ACHSEN
100
AcDbCircle
 62
7
  6
CONTINUOUS
 10
62.7780765751
 20
31.5744367326
 40
5.5
100
AcDbArc
 50
359.2803935808
 51
360.0
  0
ARC
  5
296
100
AcDbEntity
  8
ALLE_ACHSEN
100
AcDbCircle
 62
7
  6
CONTINUOUS
 10
62.7780765751
 20
31.5744367326
 40
0.5
100
AcDbArc
 50
322.0966769997
 51
360.0
  0
ARC
  5
297
100
AcDbEntity
  8
ALLE_ACHSEN
100
AcDbCircle
 62
7
  6
CONTINUOUS
 10
69.7780765751
 20
18.5494367326
 40
13.025
100
AcDbArc
 50
142.0966769997
 51
96.5413962428
  0
CIRCLE
  5
298
100
AcDbEntity
  8
A_ACHSEN
100
AcDbCircle
 62
7
  6
CONTINUOUS
 10
69.7780765751
 20
18.5494367326
 40
13.0
  0
ARC
  5
299
100
AcDbEntity
  8
ALLE_ACHSEN
100
AcDbCircle
 62
7
  6
CONTINUOUS
 10
76.7780765751
 20
31.5744367326
 40
5.5
100
AcDbArc
 50
180.0
 51
181.3221211755
  0
ARC
  5
29A
100
AcDbEntity
  8
ALLE_ACHSEN
100
AcDbCircle
 62
7
  6
CONTINUOUS
 10
76.7780765751
 20
31.5744367326
 40
0.5
100
AcDbArc
 50
180.0
 51
217.9033230003
  0
ENDSEC
  0
SECTION
  2
OBJECTS
  0
DICTIONARY
  5
29B
100
AcDbDictionary
  3
ACAD_GROUP
350
29C
  3
ACAD_MLINESTYLE
350
29D
  0
DICTIONARY
  5
29C
102
{ACAD_REACTORS
330
29B
102
}
100
AcDbDictionary
  0
DICTIONARY
  5
29D
102
{ACAD_REACTORS
330
29B
102
}
100
AcDbDictionary
  3
STANDARD
350
29E
  0
MLINESTYLE
  5
29E
102
{ACAD_REACTORS
330
29D
102
}
100
AcDbMlineStyle
  2
STANDARD
 70
0
  3

 62
256
 51
90.0
 52
90.0
 71
2
 49
0.5
 62
256
  6
BYLAYER
 49
-0.5
 62
256
  6
BYLAYER
  0
ENDSEC
  0
EOF
