  0
SECTION
  2
HEADER
  9
$ACADVER
  1
AC1018
  9
$ACADMAINTVER
 70
     0
  9
$DWGCODEPAGE
  3
ANSI_1252
  9
$INSBASE
 10
0.0
 20
0.0
 30
0.0
  9
$EXTMIN
 10
97.52500538357626
 20
242.366971597068
 30
0.0
  9
$EXTMAX
 10
250.6391203835763
 20
375.6727356134351
 30
0.0
  9
$LIMMIN
 10
0.0
 20
0.0
  9
$LIMMAX
 10
12.0
 20
9.0
  9
$ORTHOMODE
 70
     0
  9
$REGENMODE
 70
     1
  9
$FILLMODE
 70
     1
  9
$QTEXTMODE
 70
     0
  9
$MIRRTEXT
 70
     1
  9
$LTSCALE
 40
1.0
  9
$ATTMODE
 70
     1
  9
$TEXTSIZE
 40
0.2
  9
$TRACEWID
 40
0.05
  9
$TEXTSTYLE
  7
Standard
  9
$CLAYER
  8
0
  9
$CELTYPE
  6
ByLayer
  9
$CECOLOR
 62
   256
  9
$CELTSCALE
 40
1.0
  9
$DISPSILH
 70
     0
  9
$DIMSCALE
 40
1.0
  9
$DIMASZ
 40
0.18
  9
$DIMEXO
 40
0.0625
  9
$DIMDLI
 40
0.38
  9
$DIMRND
 40
0.0
  9
$DIMDLE
 40
0.0
  9
$DIMEXE
 40
0.18
  9
$DIMTP
 40
0.0
  9
$DIMTM
 40
0.0
  9
$DIMTXT
 40
0.18
  9
$DIMCEN
 40
0.09
  9
$DIMTSZ
 40
0.0
  9
$DIMTOL
 70
     0
  9
$DIMLIM
 70
     0
  9
$DIMTIH
 70
     1
  9
$DIMTOH
 70
     1
  9
$DIMSE1
 70
     0
  9
$DIMSE2
 70
     0
  9
$DIMTAD
 70
     0
  9
$DIMZIN
 70
     0
  9
$DIMBLK
  1

  9
$DIMASO
 70
     1
  9
$DIMSHO
 70
     1
  9
$DIMPOST
  1

  9
$DIMAPOST
  1

  9
$DIMALT
 70
     0
  9
$DIMALTD
 70
     2
  9
$DIMALTF
 40
25.4
  9
$DIMLFAC
 40
1.0
  9
$DIMTOFL
 70
     0
  9
$DIMTVP
 40
0.0
  9
$DIMTIX
 70
     0
  9
$DIMSOXD
 70
     0
  9
$DIMSAH
 70
     0
  9
$DIMBLK1
  1

  9
$DIMBLK2
  1

  9
$DIMSTYLE
  2
Standard
  9
$DIMCLRD
 70
     0
  9
$DIMCLRE
 70
     0
  9
$DIMCLRT
 70
     0
  9
$DIMTFAC
 40
1.0
  9
$DIMGAP
 40
0.09
  9
$DIMJUST
 70
     0
  9
$DIMSD1
 70
     0
  9
$DIMSD2
 70
     0
  9
$DIMTOLJ
 70
     1
  9
$DIMTZIN
 70
     0
  9
$DIMALTZ
 70
     0
  9
$DIMALTTZ
 70
     0
  9
$DIMUPT
 70
     0
  9
$DIMDEC
 70
     4
  9
$DIMTDEC
 70
     4
  9
$DIMALTU
 70
     2
  9
$DIMALTTD
 70
     2
  9
$DIMTXSTY
  7
Standard
  9
$DIMAUNIT
 70
     0
  9
$DIMADEC
 70
     0
  9
$DIMALTRND
 40
0.0
  9
$DIMAZIN
 70
     0
  9
$DIMDSEP
 70
    46
  9
$DIMATFIT
 70
     3
  9
$DIMFRAC
 70
     0
  9
$DIMLDRBLK
  1

  9
$DIMLUNIT
 70
     2
  9
$DIMLWD
 70
    -2
  9
$DIMLWE
 70
    -2
  9
$DIMTMOVE
 70
     0
  9
$LUNITS
 70
     2
  9
$LUPREC
 70
     4
  9
$SKETCHINC
 40
0.1
  9
$FILLETRAD
 40
0.5
  9
$AUNITS
 70
     0
  9
$AUPREC
 70
     0
  9
$MENU
  1
.
  9
$ELEVATION
 40
0.0
  9
$PELEVATION
 40
0.0
  9
$THICKNESS
 40
0.0
  9
$LIMCHECK
 70
     0
  9
$CHAMFERA
 40
0.5
  9
$CHAMFERB
 40
0.5
  9
$CHAMFERC
 40
1.0
  9
$CHAMFERD
 40
0.0
  9
$SKPOLY
 70
     0
  9
$TDCREATE
 40
2454497.512350799
  9
$TDUCREATE
 40
2454497.470684132
  9
$TDUPDATE
 40
2454497.51235081
  9
$TDUUPDATE
 40
2454497.470684144
  9
$TDINDWG
 40
0.0000000116
  9
$TDUSRTIMER
 40
0.0000000116
  9
$USRTIMER
 70
     1
  9
$ANGBASE
 50
0.0
  9
$ANGDIR
 70
     0
  9
$PDMODE
 70
     0
  9
$PDSIZE
 40
0.0
  9
$PLINEWID
 40
0.0
  9
$SPLFRAME
 70
     0
  9
$SPLINETYPE
 70
     6
  9
$SPLINESEGS
 70
     8
  9
$HANDSEED
  5
21E
  9
$SURFTAB1
 70
     6
  9
$SURFTAB2
 70
     6
  9
$SURFTYPE
 70
     6
  9
$SURFU
 70
     6
  9
$SURFV
 70
     6
  9
$UCSBASE
  2

  9
$UCSNAME
  2

  9
$UCSORG
 10
0.0
 20
0.0
 30
0.0
  9
$UCSXDIR
 10
1.0
 20
0.0
 30
0.0
  9
$UCSYDIR
 10
0.0
 20
1.0
 30
0.0
  9
$UCSORTHOREF
  2

  9
$UCSORTHOVIEW
 70
     0
  9
$UCSORGTOP
 10
0.0
 20
0.0
 30
0.0
  9
$UCSORGBOTTOM
 10
0.0
 20
0.0
 30
0.0
  9
$UCSORGLEFT
 10
0.0
 20
0.0
 30
0.0
  9
$UCSORGRIGHT
 10
0.0
 20
0.0
 30
0.0
  9
$UCSORGFRONT
 10
0.0
 20
0.0
 30
0.0
  9
$UCSORGBACK
 10
0.0
 20
0.0
 30
0.0
  9
$PUCSBASE
  2

  9
$PUCSNAME
  2

  9
$PUCSORG
 10
0.0
 20
0.0
 30
0.0
  9
$PUCSXDIR
 10
1.0
 20
0.0
 30
0.0
  9
$PUCSYDIR
 10
0.0
 20
1.0
 30
0.0
  9
$PUCSORTHOREF
  2

  9
$PUCSORTHOVIEW
 70
     0
  9
$PUCSORGTOP
 10
0.0
 20
0.0
 30
0.0
  9
$PUCSORGBOTTOM
 10
0.0
 20
0.0
 30
0.0
  9
$PUCSORGLEFT
 10
0.0
 20
0.0
 30
0.0
  9
$PUCSORGRIGHT
 10
0.0
 20
0.0
 30
0.0
  9
$PUCSORGFRONT
 10
0.0
 20
0.0
 30
0.0
  9
$PUCSORGBACK
 10
0.0
 20
0.0
 30
0.0
  9
$USERI1
 70
     0
  9
$USERI2
 70
     0
  9
$USERI3
 70
     0
  9
$USERI4
 70
     0
  9
$USERI5
 70
     0
  9
$USERR1
 40
14.5
  9
$USERR2
 40
0.0
  9
$USERR3
 40
0.0
  9
$USERR4
 40
0.0
  9
$USERR5
 40
0.0
  9
$WORLDVIEW
 70
     1
  9
$SHADEDGE
 70
     3
  9
$SHADEDIF
 70
    70
  9
$TILEMODE
 70
     1
  9
$MAXACTVP
 70
    64
  9
$PINSBASE
 10
0.0
 20
0.0
 30
0.0
  9
$PLIMCHECK
 70
     0
  9
$PEXTMIN
 10
1.00000000000000E+20
 20
1.00000000000000E+20
 30
1.00000000000000E+20
  9
$PEXTMAX
 10
-1.00000000000000E+20
 20
-1.00000000000000E+20
 30
-1.00000000000000E+20
  9
$PLIMMIN
 10
0.0
 20
0.0
  9
$PLIMMAX
 10
12.0
 20
9.0
  9
$UNITMODE
 70
     0
  9
$VISRETAIN
 70
     1
  9
$PLINEGEN
 70
     0
  9
$PSLTSCALE
 70
     1
  9
$TREEDEPTH
 70
  3020
  9
$CMLSTYLE
  2
Standard
  9
$CMLJUST
 70
     0
  9
$CMLSCALE
 40
1.0
  9
$PROXYGRAPHICS
 70
     1
  9
$MEASUREMENT
 70
     1
  9
$CELWEIGHT
370
    -1
  9
$ENDCAPS
280
     0
  9
$JOINSTYLE
280
     0
  9
$LWDISPLAY
290
     0
  9
$INSUNITS
 70
     1
  9
$HYPERLINKBASE
  1

  9
$STYLESHEET
  1

  9
$XEDIT
290
     1
  9
$CEPSNTYPE
380
     0
  9
$PSTYLEMODE
290
     1
  9
$FINGERPRINTGUID
  2
{86A722C7-C04D-490A-AB3E-7EA9B17CE2DB}
  9
$VERSIONGUID
  2
{FAEB1C32-E019-11D5-929B-00C0DF256EC4}
  9
$EXTNAMES
290
     1
  9
$PSVPSCALE
 40
0.0
  9
$OLESTARTUP
290
     0
  9
$SORTENTS
280
   127
  9
$INDEXCTL
280
     0
  9
$HIDETEXT
280
     1
  9
$XCLIPFRAME
290
     0
  9
$HALOGAP
280
     0
  9
$OBSCOLOR
 70
   257
  9
$OBSLTYPE
280
     0
  9
$INTERSECTIONDISPLAY
280
     0
  9
$INTERSECTIONCOLOR
 70
   257
  9
$DIMASSOC
280
     2
  9
$PROJECTNAME
  1

  0
ENDSEC
  0
SECTION
  2
CLASSES
  0
CLASS
  1
ACDBDICTIONARYWDFLT
  2
AcDbDictionaryWithDefault
  3
ObjectDBX Classes
 90
        0
 91
        3
280
     0
281
     0
  0
CLASS
  1

  2
exOdDbCircle
  3

 90
        0
 91
        3
280
     0
281
     1
  0
ENDSEC
  0
SECTION
  2
TABLES
  0
TABLE
  2
VPORT
  5
8
330
0
100
AcDbSymbolTable
 70
     1
  0
VPORT
  5
29
330
8
100
AcDbSymbolTableRecord
100
AcDbViewportTableRecord
  2
*Active
 70
     0
 10
0.0
 20
0.0
 11
1.0
 21
1.0
 12
174.0820628835763
 22
309.0198536052516
 13
0.0
 23
0.0
 14
0.5
 24
0.5
 15
0.5
 25
0.5
 16
0.0
 26
0.0
 36
1.0
 17
0.0
 27
0.0
 37
0.0
 40
146.6363404180039
 41
1.60267857142857
 42
50.0
 43
0.0
 44
0.0
 50
0.0
 51
0.0
 71
     0
 72
   100
 73
     1
 74
     3
 75
     0
 76
     0
 77
     0
 78
     0
281
     0
 65
     1
110
0.0
120
0.0
130
0.0
111
1.0
121
0.0
131
0.0
112
0.0
122
1.0
132
0.0
 79
     0
146
0.0
  0
ENDTAB
  0
TABLE
  2
LTYPE
  5
5
330
0
100
AcDbSymbolTable
 70
     8
  0
LTYPE
  5
14
330
5
100
AcDbSymbolTableRecord
100
AcDbLinetypeTableRecord
  2
ByBlock
 70
     0
  3

 72
    65
 73
     0
 40
0.0
  0
LTYPE
  5
15
330
5
100
AcDbSymbolTableRecord
100
AcDbLinetypeTableRecord
  2
ByLayer
 70
     0
  3

 72
    65
 73
     0
 40
0.0
  0
LTYPE
  5
16
330
5
100
AcDbSymbolTableRecord
100
AcDbLinetypeTableRecord
  2
Continuous
 70
     0
  3
Solid line
 72
    65
 73
     0
 40
0.0
  0
LTYPE
  5
2A
330
5
100
AcDbSymbolTableRecord
100
AcDbLinetypeTableRecord
  2
DASHED
 70
     0
  3
Dashed
 72
    65
 73
     2
 40
15.0
 49
7.0
 74
     0
 49
-8.0
 74
     0
  0
LTYPE
  5
2B
330
5
100
AcDbSymbolTableRecord
100
AcDbLinetypeTableRecord
  2
DOTTED
 70
     0
  3
Dotted
 72
    65
 73
     2
 40
1.0
 49
0.0
 74
     0
 49
-1.0
 74
     0
  0
LTYPE
  5
2C
330
5
100
AcDbSymbolTableRecord
100
AcDbLinetypeTableRecord
  2
DOT_CENTER
 70
     0
  3
Dot_Center
 72
    65
 73
     4
 40
14.0
 49
12.0
 74
     0
 49
-1.0
 74
     0
 49
0.0
 74
     0
 49
-1.0
 74
     0
  0
LTYPE
  5
2D
330
5
100
AcDbSymbolTableRecord
100
AcDbLinetypeTableRecord
  2
LONG_DASHED
 70
     0
  3
Long_Dashed
 72
    65
 73
     2
 40
15.0
 49
10.0
 74
     0
 49
-5.0
 74
     0
  0
LTYPE
  5
2E
330
5
100
AcDbSymbolTableRecord
100
AcDbLinetypeTableRecord
  2
DASH_CENTER
 70
     0
  3
Dash_Center
 72
    65
 73
     4
 40
14.0
 49
11.0
 74
     0
 49
-1.0
 74
     0
 49
1.0
 74
     0
 49
-1.0
 74
     0
  0
LTYPE
  5
2F
330
5
100
AcDbSymbolTableRecord
100
AcDbLinetypeTableRecord
  2
PHANTOM
 70
     0
  3
Phantom
 72
    65
 73
     6
 40
13.0
 49
10.0
 74
     0
 49
-1.0
 74
     0
 49
0.0
 74
     0
 49
-1.0
 74
     0
 49
0.0
 74
     0
 49
-1.0
 74
     0
  0
LTYPE
  5
30
330
5
100
AcDbSymbolTableRecord
100
AcDbLinetypeTableRecord
  2
CENTER_DASH_DASH
 70
     0
  3
Center_Dash_Dash
 72
    65
 73
     6
 40
14.0
 49
9.0
 74
     0
 49
-1.0
 74
     0
 49
1.0
 74
     0
 49
-1.0
 74
     0
 49
1.0
 74
     0
 49
-1.0
 74
     0
  0
ENDTAB
  0
TABLE
  2
LAYER
  5
2
330
0
100
AcDbSymbolTable
 70
     5
  0
LAYER
  5
10
330
2
100
AcDbSymbolTableRecord
100
AcDbLayerTableRecord
  2
0
 70
     0
 62
     7
  6
Continuous
370
    -3
390
F
  0
LAYER
  5
31
330
2
100
AcDbSymbolTableRecord
100
AcDbLayerTableRecord
  2
1
 70
     0
 62
     7
  6
Continuous
370
    -3
390
F
  0
LAYER
  5
32
330
2
100
AcDbSymbolTableRecord
100
AcDbLayerTableRecord
  2
2
 70
     0
 62
     7
  6
Continuous
370
    -3
390
F
  0
LAYER
  5
33
330
2
100
AcDbSymbolTableRecord
100
AcDbLayerTableRecord
  2
LAYER01
 70
     0
 62
     7
  6
Continuous
370
    -3
390
F
  0
LAYER
  5
34
330
2
100
AcDbSymbolTableRecord
100
AcDbLayerTableRecord
  2
LAYER02
 70
     0
 62
     7
  6
Continuous
370
    -3
390
F
  0
ENDTAB
  0
TABLE
  2
STYLE
  5
3
330
0
100
AcDbSymbolTable
 70
     2
  0
STYLE
  5
11
330
3
100
AcDbSymbolTableRecord
100
AcDbTextStyleTableRecord
  2
Standard
 70
     0
 40
0.0
 41
1.0
 50
0.0
 71
     0
 42
0.2
  3
txt
  4

  0
STYLE
  5
206
330
3
100
AcDbSymbolTableRecord
100
AcDbTextStyleTableRecord
  2
CONVERTER_11
 70
     0
 40
0.0
 41
0.9
 50
0.0
 71
     0
 42
0.2
  3
txt.shx
  4

  0
ENDTAB
  0
TABLE
  2
VIEW
  5
6
330
0
100
AcDbSymbolTable
 70
     0
  0
ENDTAB
  0
TABLE
  2
UCS
  5
7
330
0
100
AcDbSymbolTable
 70
     0
  0
ENDTAB
  0
TABLE
  2
APPID
  5
9
330
0
100
AcDbSymbolTable
 70
     1
  0
APPID
  5
12
330
9
100
AcDbSymbolTableRecord
100
AcDbRegAppTableRecord
  2
ACAD
 70
     0
  0
ENDTAB
  0
TABLE
  2
DIMSTYLE
  5
A
330
0
100
AcDbSymbolTable
 70
     3
100
AcDbDimStyleTable
  0
DIMSTYLE
105
27
330
A
100
AcDbSymbolTableRecord
100
AcDbDimStyleTableRecord
  2
Standard
 70
     0
340
11
  0
DIMSTYLE
105
211
102
{ACAD_REACTORS
330
212
102
}
330
A
100
AcDbSymbolTableRecord
100
AcDbDimStyleTableRecord
  2
ME10_DIM_10
 70
     0
 41
3.5
 42
0.0
 44
2.0
 73
     0
 74
     0
 77
     1
 78
     8
140
3.5
147
2.0
172
     1
173
     1
176
     2
177
     2
178
     2
271
     2
340
206
  0
DIMSTYLE
105
21C
102
{ACAD_REACTORS
330
21D
102
}
330
A
100
AcDbSymbolTableRecord
100
AcDbDimStyleTableRecord
  2
ME10_DIM_11
 70
     0
 41
3.5
 42
0.0
 44
2.0
 73
     0
 74
     0
 77
     1
 78
     8
140
3.5
147
2.0
172
     1
173
     1
176
     2
177
     2
178
     2
271
     2
340
206
  0
ENDTAB
  0
TABLE
  2
BLOCK_RECORD
  5
1
330
0
100
AcDbSymbolTable
 70
     3
  0
BLOCK_RECORD
  5
1F
330
1
100
AcDbSymbolTableRecord
100
AcDbBlockTableRecord
  2
*Model_Space
340
22
  0
BLOCK_RECORD
  5
1B
330
1
100
AcDbSymbolTableRecord
100
AcDbBlockTableRecord
  2
*Paper_Space
340
1E
  0
BLOCK_RECORD
  5
23
330
1
100
AcDbSymbolTableRecord
100
AcDbBlockTableRecord
  2
*Paper_Space0
340
26
  0
BLOCK_RECORD
  5
208
330
1
100
AcDbSymbolTableRecord
100
AcDbBlockTableRecord
  2
*D1
340
0
  0
BLOCK_RECORD
  5
213
330
1
100
AcDbSymbolTableRecord
100
AcDbBlockTableRecord
  2
*D2
340
0
  0
ENDTAB
  0
ENDSEC
  0
SECTION
  2
BLOCKS
  0
BLOCK
  5
20
330
1F
100
AcDbEntity
  8
0
100
AcDbBlockBegin
  2
*Model_Space
 70
     0
 71
     0
 10
0.0
 20
0.0
 30
0.0
  3
*Model_Space
  1

  0
ENDBLK
  5
21
330
1F
100
AcDbEntity
  8
0
100
AcDbBlockEnd
  0
BLOCK
  5
1C
330
1B
100
AcDbEntity
 67
     1
  8
0
100
AcDbBlockBegin
  2
*Paper_Space
 70
     0
 71
     0
 10
0.0
 20
0.0
 30
0.0
  3
*Paper_Space
  1

  0
ENDBLK
  5
1D
330
1B
100
AcDbEntity
 67
     1
  8
0
100
AcDbBlockEnd
  0
BLOCK
  5
24
330
23
100
AcDbEntity
  8
0
100
AcDbBlockBegin
  2
*Paper_Space0
 70
     0
 71
     0
 10
0.0
 20
0.0
 30
0.0
  3
*Paper_Space0
  1

  0
ENDBLK
  5
25
330
23
100
AcDbEntity
  8
0
100
AcDbBlockEnd
  0
BLOCK
  5
20F
330
208
100
AcDbEntity
  8
0
100
AcDbBlockBegin
  2
*D1
 70
     1
 71
     0
 10
0.0
 20
0.0
 30
0.0
  3
*D1
  1

  0
LINE
  5
209
330
208
100
AcDbEntity
  8
1
  6
Continuous
 62
     2
100
AcDbLine
 10
119.6428713835762
 20
271.379359285913
 30
0.0
 11
135.6428713835762
 21
271.379359285913
 31
0.0
  0
LINE
  5
20A
330
208
100
AcDbEntity
  8
1
  6
Continuous
 62
     2
100
AcDbLine
 10
119.6428713835762
 20
277.1740234015141
 30
0.0
 11
119.6428713835762
 21
269.379359285913
 31
0.0
  0
LINE
  5
20B
330
208
100
AcDbEntity
  8
1
  6
Continuous
 62
     2
100
AcDbLine
 10
135.6428713835762
 20
298.6587916134351
 30
0.0
 11
135.6428713835762
 21
269.379359285913
 31
0.0
  0
SOLID
  5
20C
330
208
100
AcDbEntity
  8
1
 62
     2
100
AcDbTrace
 10
123.1428713835762
 20
271.8401430274689
 30
0.0
 11
123.1428713835762
 21
270.9185755443571
 31
0.0
 12
119.6428713835762
 22
271.379359285913
 32
0.0
 13
119.6428713835762
 23
271.379359285913
 33
0.0
  0
SOLID
  5
20D
330
208
100
AcDbEntity
  8
1
 62
     2
100
AcDbTrace
 10
132.1428713835762
 20
270.9185755443571
 30
0.0
 11
132.1428713835762
 21
271.8401430274689
 31
0.0
 12
135.6428713835762
 22
271.379359285913
 32
0.0
 13
135.6428713835762
 23
271.379359285913
 33
0.0
  0
MTEXT
  5
20E
330
208
100
AcDbEntity
  8
1
 62
     2
100
AcDbMText
 10
125.216546993969
 20
273.379359285913
 30
0.0
 40
3.5
 41
0.0
 71
     7
 72
     1
  1
16
  7
CONVERTER_11
 11
0.9999999999970621
 21
2.424068405545307E-6
 31
0.0
 73
     1
 44
0.60024009603842
  0
ENDBLK
  5
210
330
208
100
AcDbEntity
  8
0
100
AcDbBlockEnd
  0
BLOCK
  5
21A
330
213
100
AcDbEntity
  8
0
100
AcDbBlockBegin
  2
*D2
 70
     1
 71
     0
 10
0.0
 20
0.0
 30
0.0
  3
*D2
  1

  0
LINE
  5
214
330
213
100
AcDbEntity
  8
1
  6
Continuous
 62
     2
100
AcDbLine
 10
119.6428713835762
 20
262.670697109077
 30
0.0
 11
143.5263003835763
 21
262.670697109077
 31
0.0
  0
LINE
  5
215
330
213
100
AcDbEntity
  8
1
  6
Continuous
 62
     2
100
AcDbLine
 10
119.6428713835762
 20
277.1740234015141
 30
0.0
 11
119.6428713835762
 21
260.670697109077
 31
0.0
  0
LINE
  5
216
330
213
100
AcDbEntity
  8
1
  6
Continuous
 62
     2
100
AcDbLine
 10
143.5263003835763
 20
316.6635196134351
 30
0.0
 11
143.5263003835763
 21
260.670697109077
 31
0.0
  0
SOLID
  5
217
330
213
100
AcDbEntity
  8
1
 62
     2
100
AcDbTrace
 10
123.1428713835762
 20
263.1314808506329
 30
0.0
 11
123.1428713835762
 21
262.2099133675212
 31
0.0
 12
119.6428713835762
 22
262.670697109077
 32
0.0
 13
119.6428713835762
 23
262.670697109077
 33
0.0
  0
SOLID
  5
218
330
213
100
AcDbEntity
  8
1
 62
     2
100
AcDbTrace
 10
140.0263003835763
 20
262.2099133675212
 30
0.0
 11
140.0263003835763
 21
263.1314808506329
 31
0.0
 12
143.5263003835763
 22
262.670697109077
 32
0.0
 13
143.5263003835763
 23
262.670697109077
 33
0.0
  0
MTEXT
  5
219
330
213
100
AcDbEntity
  8
1
 62
     2
100
AcDbMText
 10
130.09670483885
 20
264.670697109077
 30
0.0
 40
3.5
 41
0.0
 71
     7
 72
     1
  1
 
  7
CONVERTER_11
 11
0.9999999999970621
 21
2.424068405545307E-6
 31
0.0
 73
     1
 44
0.60024009603842
  0
ENDBLK
  5
21B
330
213
100
AcDbEntity
  8
0
100
AcDbBlockEnd
  0
ENDSEC
  0
SECTION
  2
ENTITIES
  0
POINT
  5
35
330
1F
100
AcDbEntity
  8
0
 62
     7
100
AcDbPoint
 10
250.6391203835763
 20
344.616050613435
 30
0.0
  0
POINT
  5
36
330
1F
100
AcDbEntity
  8
0
 62
     7
100
AcDbPoint
 10
161.5260563835763
 20
361.633545613435
 30
0.0
  0
POINT
  5
37
330
1F
100
AcDbEntity
  8
0
 62
     7
100
AcDbPoint
 10
158.5962993835763
 20
361.633545613435
 30
0.0
  0
POINT
  5
38
330
1F
100
AcDbEntity
  8
0
 62
     7
100
AcDbPoint
 10
97.52500538357626
 20
318.3726226134351
 30
0.0
  0
LINE
  5
39
330
1F
100
AcDbEntity
  8
1
  6
Continuous
 62
     7
100
AcDbLine
 10
113.6428713835762
 20
318.660589613435
 30
0.0
 11
113.6428713835762
 21
327.7430785315871
 31
0.0
  0
LINE
  5
3A
330
1F
100
AcDbEntity
  8
1
  6
Continuous
 62
     7
100
AcDbLine
 10
125.6428713835762
 20
318.6598556134351
 30
0.0
 11
125.6428713835762
 21
315.6636189937071
 31
0.0
  0
LINE
  5
3B
330
1F
100
AcDbEntity
  8
1
  6
Continuous
 62
     7
100
AcDbLine
 10
125.6428713835762
 20
327.638395779942
 30
0.0
 11
125.6428713835762
 21
318.6598556134351
 31
0.0
  0
LINE
  5
3C
330
1F
100
AcDbEntity
  8
1
  6
Continuous
 62
     7
100
AcDbLine
 10
125.6428713835762
 20
328.8647212925519
 30
0.0
 11
125.6428713835762
 21
327.638395779942
 31
0.0
  0
LINE
  5
3D
330
1F
100
AcDbEntity
  8
1
  6
Continuous
 62
     7
100
AcDbLine
 10
113.6428713835762
 20
327.7430785315871
 30
0.0
 11
113.6428713835762
 21
328.9542654712106
 31
0.0
  0
LINE
  5
3E
330
1F
100
AcDbEntity
  8
1
  6
Continuous
 62
     7
100
AcDbLine
 10
113.6428713835762
 20
328.9542654712106
 30
0.0
 11
113.6428713835762
 21
329.702872613435
 31
0.0
  0
LINE
  5
3F
330
1F
100
AcDbEntity
  8
1
  6
Continuous
 62
     7
100
AcDbLine
 10
125.6428713835762
 20
329.702872613435
 30
0.0
 11
125.6428713835762
 21
328.8647212925519
 31
0.0
  0
LINE
  5
40
330
1F
100
AcDbEntity
  8
1
  6
Continuous
 62
     7
100
AcDbLine
 10
125.6428713835762
 20
331.202872613435
 30
0.0
 11
125.6428713835762
 21
329.702872613435
 31
0.0
  0
LINE
  5
41
330
1F
100
AcDbEntity
  8
1
  6
Continuous
 62
     7
100
AcDbLine
 10
113.6428713835762
 20
329.702872613435
 30
0.0
 11
113.6428713835762
 21
331.202872613435
 31
0.0
  0
LINE
  5
42
330
1F
100
AcDbEntity
  8
1
  6
Continuous
 62
     7
100
AcDbLine
 10
113.6428713835762
 20
331.202872613435
 30
0.0
 11
113.6428713835762
 21
335.6635887717233
 31
0.0
  0
LINE
  5
43
330
1F
100
AcDbEntity
  8
LAYER02
  6
Continuous
 62
     7
100
AcDbLine
 10
125.6428713835762
 20
329.702872613435
 30
0.0
 11
131.8642863835763
 21
329.702872613435
 31
0.0
  0
LINE
  5
44
330
1F
100
AcDbEntity
  8
LAYER02
  6
Continuous
 62
     7
100
AcDbLine
 10
113.6428713835762
 20
331.202872613435
 30
0.0
 11
110.8642863835763
 21
331.202872613435
 31
0.0
  0
LINE
  5
45
330
1F
100
AcDbEntity
  8
1
  6
Continuous
 62
     7
100
AcDbLine
 10
135.6428713835762
 20
303.1587916134351
 30
0.0
 11
135.6428713835762
 21
298.6587916134351
 31
0.0
  0
LINE
  5
46
330
1F
100
AcDbEntity
  8
1
  6
Continuous
 62
     7
100
AcDbLine
 10
132.6428713835762
 20
310.6587916134351
 30
0.0
 11
135.6428713835762
 21
310.6587916134351
 31
0.0
  0
LINE
  5
47
330
1F
100
AcDbEntity
  8
1
  6
Continuous
 62
     7
100
AcDbLine
 10
132.6428713835762
 20
309.9087916134351
 30
0.0
 11
132.6428713835762
 21
310.6587916134351
 31
0.0
  0
LINE
  5
48
330
1F
100
AcDbEntity
  8
1
  6
Continuous
 62
     7
100
AcDbLine
 10
175.6428713835762
 20
292.3087916134351
 30
0.0
 11
175.6428713835762
 21
295.6587916134351
 31
0.0
  0
LINE
  5
49
330
1F
100
AcDbEntity
  8
1
  6
Continuous
 62
     7
100
AcDbLine
 10
172.6428713835762
 20
292.3087916134351
 30
0.0
 11
175.6428713835762
 21
292.3087916134351
 31
0.0
  0
LINE
  5
4A
330
1F
100
AcDbEntity
  8
1
  6
Continuous
 62
     7
100
AcDbLine
 10
136.6428713835762
 20
289.3087916134351
 30
0.0
 11
136.6428713835762
 21
292.3087916134351
 31
0.0
  0
LINE
  5
4B
330
1F
100
AcDbEntity
  8
1
  6
Continuous
 62
     7
100
AcDbLine
 10
160.6428713835762
 20
289.3087916134351
 30
0.0
 11
136.6428713835762
 21
289.3087916134351
 31
0.0
  0
LINE
  5
4C
330
1F
100
AcDbEntity
  8
1
  6
Continuous
 62
     7
100
AcDbLine
 10
178.6428713835762
 20
295.6587916134351
 30
0.0
 11
178.6428713835762
 21
292.3087916134351
 31
0.0
  0
LINE
  5
4D
330
1F
100
AcDbEntity
  8
1
  6
Continuous
 62
     7
100
AcDbLine
 10
172.6428713835762
 20
298.6587916134351
 30
0.0
 11
175.6428713835762
 21
298.6587916134351
 31
0.0
  0
LINE
  5
4E
330
1F
100
AcDbEntity
  8
1
  6
Continuous
 62
     7
100
AcDbLine
 10
129.6428713835762
 20
305.6636189937071
 30
0.0
 11
129.6428713835762
 21
315.6636189937071
 31
0.0
  0
LINE
  5
4F
330
1F
100
AcDbEntity
  8
1
  6
Continuous
 62
     7
100
AcDbLine
 10
124.1428713835762
 20
305.6636189937071
 30
0.0
 11
129.6428713835762
 21
305.6636189937071
 31
0.0
  0
LINE
  5
50
330
1F
100
AcDbEntity
  8
1
  6
Continuous
 62
     7
100
AcDbLine
 10
109.6428713835762
 20
315.6636189937071
 30
0.0
 11
109.6428713835762
 21
305.6636189937071
 31
0.0
  0
LINE
  5
51
330
1F
100
AcDbEntity
  8
1
  6
Continuous
 62
     7
100
AcDbLine
 10
127.10412044615
 20
292.0702129332321
 30
0.0
 11
129.4419784857565
 21
292.3087916134351
 31
0.0
  0
LINE
  5
52
330
1F
100
AcDbEntity
  8
1
  6
Continuous
 62
     7
100
AcDbLine
 10
129.0821510171076
 20
292.3087916134351
 30
0.0
 11
129.4419784857565
 21
292.3087916134351
 31
0.0
  0
LINE
  5
53
330
1F
100
AcDbEntity
  8
1
  6
Continuous
 62
     7
100
AcDbLine
 10
125.6428713835762
 20
335.6635887717233
 30
0.0
 11
125.6428713835762
 21
331.202872613435
 31
0.0
  0
LINE
  5
54
330
1F
100
AcDbEntity
  8
1
  6
Continuous
 62
     7
100
AcDbLine
 10
113.6428713835762
 20
315.6636189937071
 30
0.0
 11
113.6428713835762
 21
318.660589613435
 31
0.0
  0
LINE
  5
55
330
1F
100
AcDbEntity
  8
1
  6
Continuous
 62
     7
100
AcDbLine
 10
115.1428713835762
 20
335.6635887717233
 30
0.0
 11
113.6428713835762
 21
335.6635887717233
 31
0.0
  0
LINE
  5
56
330
1F
100
AcDbEntity
  8
1
  6
DASHED
 62
     2
100
AcDbLine
 10
124.1428713835762
 20
331.1587916134351
 30
0.0
 11
124.1428713835762
 21
335.6635887717233
 31
0.0
  0
LINE
  5
57
330
1F
100
AcDbEntity
  8
1
  6
Continuous
 62
     7
100
AcDbLine
 10
125.6428713835762
 20
335.6635887717233
 30
0.0
 11
124.1428713835762
 21
335.6635887717233
 31
0.0
  0
LINE
  5
58
330
1F
100
AcDbEntity
  8
1
  6
Continuous
 62
     7
100
AcDbLine
 10
115.1428713835762
 20
305.6636189937071
 30
0.0
 11
124.1428713835762
 21
305.6636189937071
 31
0.0
  0
LINE
  5
59
330
1F
100
AcDbEntity
  8
1
  6
DASHED
 62
     2
100
AcDbLine
 10
115.1428713835762
 20
331.1587916134351
 30
0.0
 11
115.1428713835762
 21
335.6635887717233
 31
0.0
  0
LINE
  5
5A
330
1F
100
AcDbEntity
  8
1
  6
Continuous
 62
     7
100
AcDbLine
 10
115.9428713835762
 20
335.6635887717233
 30
0.0
 11
115.1428713835762
 21
335.6635887717233
 31
0.0
  0
LINE
  5
5B
330
1F
100
AcDbEntity
  8
1
  6
Continuous
 62
     7
100
AcDbLine
 10
109.6428713835762
 20
305.6636189937071
 30
0.0
 11
115.1428713835762
 21
305.6636189937071
 31
0.0
  0
LINE
  5
5C
330
1F
100
AcDbEntity
  8
1
  6
DASHED
 62
     2
100
AcDbLine
 10
115.1428713835762
 20
331.1587916134351
 30
0.0
 11
124.1428713835762
 21
331.1587916134351
 31
0.0
  0
LINE
  5
5D
330
1F
100
AcDbEntity
  8
1
  6
DASHED
 62
     2
100
AcDbLine
 10
124.1428713835762
 20
307.1636189937071
 30
0.0
 11
124.1428713835762
 21
331.1587916134351
 31
0.0
  0
LINE
  5
5E
330
1F
100
AcDbEntity
  8
1
  6
DASHED
 62
     2
100
AcDbLine
 10
115.1428713835762
 20
307.1636189937071
 30
0.0
 11
115.1428713835762
 21
331.1587916134351
 31
0.0
  0
LINE
  5
5F
330
1F
100
AcDbEntity
  8
1
  6
DASHED
 62
     2
100
AcDbLine
 10
123.3428713835762
 20
307.1636189937071
 30
0.0
 11
124.1428713835762
 21
307.1636189937071
 31
0.0
  0
LINE
  5
60
330
1F
100
AcDbEntity
  8
1
  6
DASHED
 62
     2
100
AcDbLine
 10
124.1428713835762
 20
305.6636189937071
 30
0.0
 11
124.1428713835762
 21
307.1636189937071
 31
0.0
  0
LINE
  5
61
330
1F
100
AcDbEntity
  8
1
  6
DASHED
 62
     2
100
AcDbLine
 10
115.1428713835762
 20
305.6636189937071
 30
0.0
 11
115.1428713835762
 21
307.1636189937071
 31
0.0
  0
LINE
  5
62
330
1F
100
AcDbEntity
  8
1
  6
DASHED
 62
     2
100
AcDbLine
 10
123.3428713835762
 20
307.1636189937071
 30
0.0
 11
123.3428713835762
 21
335.6635887717233
 31
0.0
  0
LINE
  5
63
330
1F
100
AcDbEntity
  8
1
  6
Continuous
 62
     7
100
AcDbLine
 10
124.1428713835762
 20
335.6635887717233
 30
0.0
 11
123.3428713835762
 21
335.6635887717233
 31
0.0
  0
LINE
  5
64
330
1F
100
AcDbEntity
  8
1
  6
DASHED
 62
     2
100
AcDbLine
 10
115.9428713835762
 20
307.1636189937071
 30
0.0
 11
123.3428713835762
 21
307.1636189937071
 31
0.0
  0
LINE
  5
65
330
1F
100
AcDbEntity
  8
1
  6
DASHED
 62
     2
100
AcDbLine
 10
115.9428713835762
 20
307.1636189937071
 30
0.0
 11
115.9428713835762
 21
335.6635887717233
 31
0.0
  0
LINE
  5
66
330
1F
100
AcDbEntity
  8
1
  6
Continuous
 62
     7
100
AcDbLine
 10
123.3428713835762
 20
335.6635887717233
 30
0.0
 11
115.9428713835762
 21
335.6635887717233
 31
0.0
  0
LINE
  5
67
330
1F
100
AcDbEntity
  8
1
  6
DASHED
 62
     2
100
AcDbLine
 10
115.1428713835762
 20
307.1636189937071
 30
0.0
 11
115.9428713835762
 21
307.1636189937071
 31
0.0
  0
LINE
  5
68
330
1F
100
AcDbEntity
  8
1
  6
Continuous
 62
     7
100
AcDbLine
 10
123.3428713835762
 20
337.6587916134351
 30
0.0
 11
123.3428713835762
 21
335.6635887717233
 31
0.0
  0
LINE
  5
69
330
1F
100
AcDbEntity
  8
1
  6
Continuous
 62
     7
100
AcDbLine
 10
115.9428713835762
 20
337.6587916134351
 30
0.0
 11
123.3428713835762
 21
337.6587916134351
 31
0.0
  0
LINE
  5
6A
330
1F
100
AcDbEntity
  8
1
  6
Continuous
 62
     7
100
AcDbLine
 10
115.9428713835762
 20
335.6635887717233
 30
0.0
 11
115.9428713835762
 21
337.6587916134351
 31
0.0
  0
LINE
  5
6B
330
1F
100
AcDbEntity
  8
1
  6
Continuous
 62
     7
100
AcDbLine
 10
121.8931239152704
 20
341.1587916134351
 30
0.0
 11
123.3428713835762
 21
337.6587916134351
 31
0.0
  0
LINE
  5
6C
330
1F
100
AcDbEntity
  8
1
  6
Continuous
 62
     7
100
AcDbLine
 10
117.392618851882
 20
341.1587916134351
 30
0.0
 11
121.8931239152704
 21
341.1587916134351
 31
0.0
  0
LINE
  5
6D
330
1F
100
AcDbEntity
  8
1
  6
Continuous
 62
     7
100
AcDbLine
 10
115.9428713835762
 20
337.6587916134351
 30
0.0
 11
117.392618851882
 21
341.1587916134351
 31
0.0
  0
LINE
  5
6E
330
1F
100
AcDbEntity
  8
1
  6
Continuous
 62
     7
100
AcDbLine
 10
124.1428713835762
 20
300.0707833961292
 30
0.0
 11
124.1428713835762
 21
305.6636189937071
 31
0.0
  0
LINE
  5
6F
330
1F
100
AcDbEntity
  8
1
  6
Continuous
 62
     7
100
AcDbLine
 10
115.1428713835762
 20
300.0707833961292
 30
0.0
 11
115.1428713835762
 21
305.6636189937071
 31
0.0
  0
LINE
  5
70
330
1F
100
AcDbEntity
  8
1
  6
DOT_CENTER
 62
     2
100
AcDbLine
 10
119.6428713835762
 20
277.1740234015141
 30
0.0
 11
119.6428713835762
 21
345.00354090388
 31
0.0
  0
LINE
  5
71
330
1F
100
AcDbEntity
  8
1
  6
DOT_CENTER
 62
     2
100
AcDbLine
 10
106.6258453074172
 20
291.3087916134351
 30
0.0
 11
133.0872520008892
 21
291.3087916134351
 31
0.0
  0
LINE
  5
72
330
1F
100
AcDbEntity
  8
1
  6
DASHED
 62
     2
100
AcDbLine
 10
154.6428713835762
 20
292.3087916134351
 30
0.0
 11
157.6428713835762
 21
289.3087916134351
 31
0.0
  0
LINE
  5
73
330
1F
100
AcDbEntity
  8
1
  6
Continuous
 62
     7
100
AcDbLine
 10
148.6428713835762
 20
292.3087916134351
 30
0.0
 11
154.6428713835762
 21
292.3087916134351
 31
0.0
  0
LINE
  5
74
330
1F
100
AcDbEntity
  8
1
  6
DASHED
 62
     2
100
AcDbLine
 10
154.6428713835762
 20
295.6587916134351
 30
0.0
 11
154.6428713835762
 21
292.3087916134351
 31
0.0
  0
LINE
  5
75
330
1F
100
AcDbEntity
  8
1
  6
DASHED
 62
     2
100
AcDbLine
 10
154.6428713835762
 20
297.858791613435
 30
0.0
 11
154.6428713835762
 21
295.6587916134351
 31
0.0
  0
LINE
  5
76
330
1F
100
AcDbEntity
  8
1
  6
DASHED
 62
     2
100
AcDbLine
 10
148.6428713835762
 20
297.858791613435
 30
0.0
 11
154.6428713835762
 21
297.858791613435
 31
0.0
  0
LINE
  5
77
330
1F
100
AcDbEntity
  8
1
  6
DASHED
 62
     2
100
AcDbLine
 10
148.6428713835762
 20
295.6587916134351
 30
0.0
 11
148.6428713835762
 21
297.858791613435
 31
0.0
  0
LINE
  5
78
330
1F
100
AcDbEntity
  8
1
  6
DASHED
 62
     2
100
AcDbLine
 10
148.6428713835762
 20
292.3087916134351
 30
0.0
 11
148.6428713835762
 21
295.6587916134351
 31
0.0
  0
LINE
  5
79
330
1F
100
AcDbEntity
  8
1
  6
Continuous
 62
     7
100
AcDbLine
 10
143.6428713835762
 20
292.3087916134351
 30
0.0
 11
148.6428713835762
 21
292.3087916134351
 31
0.0
  0
LINE
  5
7A
330
1F
100
AcDbEntity
  8
1
  6
DASHED
 62
     2
100
AcDbLine
 10
145.6428713835762
 20
289.3087916134351
 30
0.0
 11
148.6428713835762
 21
292.3087916134351
 31
0.0
  0
LINE
  5
7B
330
1F
100
AcDbEntity
  8
1
  6
DASHED
 62
     2
100
AcDbLine
 10
153.8428713835762
 20
298.6587916134351
 30
0.0
 11
154.6428713835762
 21
297.858791613435
 31
0.0
  0
LINE
  5
7C
330
1F
100
AcDbEntity
  8
1
  6
Continuous
 62
     7
100
AcDbLine
 10
148.6428713835762
 20
298.6587916134351
 30
0.0
 11
154.6428713835762
 21
298.6587916134351
 31
0.0
  0
LINE
  5
7D
330
1F
100
AcDbEntity
  8
1
  6
DASHED
 62
     2
100
AcDbLine
 10
149.4428713835762
 20
298.6587916134351
 30
0.0
 11
148.6428713835762
 21
297.858791613435
 31
0.0
  0
LINE
  5
7E
330
1F
100
AcDbEntity
  8
1
  6
DASHED
 62
     2
100
AcDbLine
 10
154.1428713835762
 20
292.3087916134351
 30
0.0
 11
154.1428713835762
 21
298.6587916134351
 31
0.0
  0
LINE
  5
7F
330
1F
100
AcDbEntity
  8
1
  6
DASHED
 62
     2
100
AcDbLine
 10
149.1428713835762
 20
292.3087916134351
 30
0.0
 11
149.1428713835762
 21
298.6587916134351
 31
0.0
  0
LINE
  5
80
330
1F
100
AcDbEntity
  8
1
  6
DASHED
 62
     2
100
AcDbLine
 10
154.6428713835762
 20
297.858791613435
 30
0.0
 11
154.6428713835762
 21
298.6587916134351
 31
0.0
  0
LINE
  5
81
330
1F
100
AcDbEntity
  8
1
  6
DASHED
 62
     2
100
AcDbLine
 10
148.6428713835762
 20
297.858791613435
 30
0.0
 11
148.6428713835762
 21
298.6587916134351
 31
0.0
  0
LINE
  5
82
330
1F
100
AcDbEntity
  8
1
  6
DOT_CENTER
 62
     2
100
AcDbLine
 10
151.6428713835762
 20
293.1101391201884
 30
0.0
 11
151.6428713835762
 21
299.7876692659241
 31
0.0
  0
LINE
  5
83
330
1F
100
AcDbEntity
  8
1
  6
DASHED
 62
     2
100
AcDbLine
 10
153.8968713835762
 20
291.8087916134351
 30
0.0
 11
153.8968713835762
 21
289.3087916134351
 31
0.0
  0
LINE
  5
84
330
1F
100
AcDbEntity
  8
1
  6
DASHED
 62
     2
100
AcDbLine
 10
151.6428713835762
 20
293.1101391201884
 30
0.0
 11
153.8968713835762
 21
291.8087916134351
 31
0.0
  0
LINE
  5
85
330
1F
100
AcDbEntity
  8
1
  6
DOT_CENTER
 62
     2
100
AcDbLine
 10
151.6428713835762
 20
288.0948384464841
 30
0.0
 11
151.6428713835762
 21
293.1101391201884
 31
0.0
  0
LINE
  5
86
330
1F
100
AcDbEntity
  8
1
  6
DASHED
 62
     2
100
AcDbLine
 10
149.3888713835762
 20
291.8087916134351
 30
0.0
 11
151.6428713835762
 21
293.1101391201884
 31
0.0
  0
LINE
  5
87
330
1F
100
AcDbEntity
  8
1
  6
DASHED
 62
     2
100
AcDbLine
 10
149.3888713835762
 20
289.3087916134351
 30
0.0
 11
149.3888713835762
 21
291.8087916134351
 31
0.0
  0
LINE
  5
88
330
1F
100
AcDbEntity
  8
1
  6
DASHED
 62
     2
100
AcDbLine
 10
149.3888713835762
 20
291.8087916134351
 30
0.0
 11
153.8968713835762
 21
291.8087916134351
 31
0.0
  0
LINE
  5
89
330
1F
100
AcDbEntity
  8
1
  6
DASHED
 62
     2
100
AcDbLine
 10
152.8968713835762
 20
289.3087916134351
 30
0.0
 11
152.8968713835762
 21
291.8087916134351
 31
0.0
  0
LINE
  5
8A
330
1F
100
AcDbEntity
  8
1
  6
DASHED
 62
     2
100
AcDbLine
 10
150.3888713835762
 20
289.3087916134351
 30
0.0
 11
150.3888713835762
 21
291.8087916134351
 31
0.0
  0
LINE
  5
8B
330
1F
100
AcDbEntity
  8
1
  6
Continuous
 62
     7
100
AcDbLine
 10
163.6428713835762
 20
292.3087916134351
 30
0.0
 11
163.6428713835762
 21
295.6587916134351
 31
0.0
  0
LINE
  5
8C
330
1F
100
AcDbEntity
  8
1
  6
Continuous
 62
     7
100
AcDbLine
 10
170.8928713835762
 20
295.6587916134351
 30
0.0
 11
163.6428713835762
 21
295.6587916134351
 31
0.0
  0
LINE
  5
8D
330
1F
100
AcDbEntity
  8
1
  6
Continuous
 62
     7
100
AcDbLine
 10
160.6428713835762
 20
292.3087916134351
 30
0.0
 11
163.6428713835762
 21
292.3087916134351
 31
0.0
  0
LINE
  5
8E
330
1F
100
AcDbEntity
  8
1
  6
DASHED
 62
     2
100
AcDbLine
 10
157.6428713835762
 20
292.3087916134351
 30
0.0
 11
157.6428713835762
 21
295.6587916134351
 31
0.0
  0
LINE
  5
8F
330
1F
100
AcDbEntity
  8
1
  6
Continuous
 62
     7
100
AcDbLine
 10
154.6428713835762
 20
292.3087916134351
 30
0.0
 11
157.6428713835762
 21
292.3087916134351
 31
0.0
  0
LINE
  5
90
330
1F
100
AcDbEntity
  8
1
  6
DASHED
 62
     2
100
AcDbLine
 10
143.6428713835762
 20
292.3087916134351
 30
0.0
 11
143.6428713835762
 21
295.6587916134351
 31
0.0
  0
LINE
  5
91
330
1F
100
AcDbEntity
  8
1
  6
Continuous
 62
     7
100
AcDbLine
 10
157.6428713835762
 20
295.6587916134351
 30
0.0
 11
143.6428713835762
 21
295.6587916134351
 31
0.0
  0
LINE
  5
92
330
1F
100
AcDbEntity
  8
1
  6
Continuous
 62
     7
100
AcDbLine
 10
136.6428713835762
 20
292.3087916134351
 30
0.0
 11
143.6428713835762
 21
292.3087916134351
 31
0.0
  0
LINE
  5
93
330
1F
100
AcDbEntity
  8
1
  6
DASHED
 62
     2
100
AcDbLine
 10
164.1428713835762
 20
297.7443604004749
 30
0.0
 11
164.1428713835762
 21
298.6587916134351
 31
0.0
  0
LINE
  5
94
330
1F
100
AcDbEntity
  8
1
  6
DASHED
 62
     2
100
AcDbLine
 10
162.3928713835762
 20
295.6587916134351
 30
0.0
 11
164.1428713835762
 21
297.7443604004749
 31
0.0
  0
LINE
  5
95
330
1F
100
AcDbEntity
  8
1
  6
Continuous
 62
     7
100
AcDbLine
 10
163.6428713835762
 20
295.6587916134351
 30
0.0
 11
162.3928713835762
 21
295.6587916134351
 31
0.0
  0
LINE
  5
96
330
1F
100
AcDbEntity
  8
1
  6
DASHED
 62
     2
100
AcDbLine
 10
169.1428713835762
 20
297.7443604004749
 30
0.0
 11
169.1428713835762
 21
298.6587916134351
 31
0.0
  0
LINE
  5
97
330
1F
100
AcDbEntity
  8
1
  6
Continuous
 62
     7
100
AcDbLine
 10
164.1428713835762
 20
298.6587916134351
 30
0.0
 11
169.1428713835762
 21
298.6587916134351
 31
0.0
  0
LINE
  5
98
330
1F
100
AcDbEntity
  8
1
  6
DASHED
 62
     2
100
AcDbLine
 10
170.8928713835762
 20
295.6587916134351
 30
0.0
 11
169.1428713835762
 21
297.7443604004749
 31
0.0
  0
LINE
  5
99
330
1F
100
AcDbEntity
  8
1
  6
Continuous
 62
     7
100
AcDbLine
 10
172.6428713835762
 20
295.6587916134351
 30
0.0
 11
170.8928713835762
 21
295.6587916134351
 31
0.0
  0
LINE
  5
9A
330
1F
100
AcDbEntity
  8
1
  6
DASHED
 62
     2
100
AcDbLine
 10
169.1428713835762
 20
297.7443604004749
 30
0.0
 11
164.1428713835762
 21
297.7443604004749
 31
0.0
  0
LINE
  5
9B
330
1F
100
AcDbEntity
  8
1
  6
DASHED
 62
     2
100
AcDbLine
 10
134.7284401706161
 20
308.1587916134351
 30
0.0
 11
135.6428713835762
 21
308.1587916134351
 31
0.0
  0
LINE
  5
9C
330
1F
100
AcDbEntity
  8
1
  6
Continuous
 62
     7
100
AcDbLine
 10
135.6428713835762
 20
310.6587916134351
 30
0.0
 11
135.6428713835762
 21
308.1587916134351
 31
0.0
  0
LINE
  5
9D
330
1F
100
AcDbEntity
  8
1
  6
DASHED
 62
     2
100
AcDbLine
 10
132.6428713835762
 20
309.9087916134351
 30
0.0
 11
134.7284401706161
 21
308.1587916134351
 31
0.0
  0
LINE
  5
9E
330
1F
100
AcDbEntity
  8
1
  6
Continuous
 62
     7
100
AcDbLine
 10
132.6428713835762
 20
301.4087916134351
 30
0.0
 11
132.6428713835762
 21
309.9087916134351
 31
0.0
  0
LINE
  5
9F
330
1F
100
AcDbEntity
  8
1
  6
DASHED
 62
     2
100
AcDbLine
 10
134.7284401706161
 20
303.1587916134351
 30
0.0
 11
135.6428713835762
 21
303.1587916134351
 31
0.0
  0
LINE
  5
A0
330
1F
100
AcDbEntity
  8
1
  6
Continuous
 62
     7
100
AcDbLine
 10
135.6428713835762
 20
308.1587916134351
 30
0.0
 11
135.6428713835762
 21
303.1587916134351
 31
0.0
  0
LINE
  5
A1
330
1F
100
AcDbEntity
  8
1
  6
DASHED
 62
     2
100
AcDbLine
 10
132.6428713835762
 20
301.4087916134351
 30
0.0
 11
134.7284401706161
 21
303.1587916134351
 31
0.0
  0
LINE
  5
A2
330
1F
100
AcDbEntity
  8
1
  6
Continuous
 62
     7
100
AcDbLine
 10
132.6428713835762
 20
298.6587916134351
 30
0.0
 11
132.6428713835762
 21
301.4087916134351
 31
0.0
  0
LINE
  5
A3
330
1F
100
AcDbEntity
  8
1
  6
DASHED
 62
     2
100
AcDbLine
 10
134.7284401706161
 20
303.1587916134351
 30
0.0
 11
134.7284401706161
 21
308.1587916134351
 31
0.0
  0
LINE
  5
A4
330
1F
100
AcDbEntity
  8
1
  6
DOT_CENTER
 62
     2
100
AcDbLine
 10
131.1428713835762
 20
305.6587916134351
 30
0.0
 11
181.2183286033012
 21
305.6587916134351
 31
0.0
  0
LINE
  5
A5
330
1F
100
AcDbEntity
  8
1
  6
DOT_CENTER
 62
     2
100
AcDbLine
 10
166.6428713835762
 20
294.1587916134351
 30
0.0
 11
166.6428713835762
 21
322.397859139452
 31
0.0
  0
LINE
  5
A6
330
1F
100
AcDbEntity
  8
1
  6
Continuous
 62
     7
100
AcDbLine
 10
160.6428713835762
 20
289.3087916134351
 30
0.0
 11
160.6428713835762
 21
292.3087916134351
 31
0.0
  0
LINE
  5
A7
330
1F
100
AcDbEntity
  8
1
  6
Continuous
 62
     7
100
AcDbLine
 10
157.6428713835762
 20
292.3087916134351
 30
0.0
 11
160.6428713835762
 21
292.3087916134351
 31
0.0
  0
LINE
  5
A8
330
1F
100
AcDbEntity
  8
1
  6
Continuous
 62
     7
100
AcDbLine
 10
172.6428713835762
 20
289.3087916134351
 30
0.0
 11
160.6428713835762
 21
289.3087916134351
 31
0.0
  0
LINE
  5
A9
330
1F
100
AcDbEntity
  8
1
  6
Continuous
 62
     7
100
AcDbLine
 10
172.6428713835762
 20
295.6587916134351
 30
0.0
 11
172.6428713835762
 21
298.6587916134351
 31
0.0
  0
LINE
  5
AA
330
1F
100
AcDbEntity
  8
1
  6
Continuous
 62
     7
100
AcDbLine
 10
169.1428713835762
 20
298.6587916134351
 30
0.0
 11
172.6428713835762
 21
298.6587916134351
 31
0.0
  0
LINE
  5
AB
330
1F
100
AcDbEntity
  8
1
  6
Continuous
 62
     7
100
AcDbLine
 10
175.6428713835762
 20
295.6587916134351
 30
0.0
 11
172.6428713835762
 21
295.6587916134351
 31
0.0
  0
LINE
  5
AC
330
1F
100
AcDbEntity
  8
1
  6
DASHED
 62
     2
100
AcDbLine
 10
172.6428713835762
 20
289.3087916134351
 30
0.0
 11
172.6428713835762
 21
292.3087916134351
 31
0.0
  0
LINE
  5
AD
330
1F
100
AcDbEntity
  8
1
  6
Continuous
 62
     7
100
AcDbLine
 10
163.6428713835762
 20
292.3087916134351
 30
0.0
 11
172.6428713835762
 21
292.3087916134351
 31
0.0
  0
LINE
  5
AE
330
1F
100
AcDbEntity
  8
1
  6
Continuous
 62
     7
100
AcDbLine
 10
175.6428713835762
 20
289.3087916134351
 30
0.0
 11
172.6428713835762
 21
289.3087916134351
 31
0.0
  0
LINE
  5
AF
330
1F
100
AcDbEntity
  8
1
  6
Continuous
 62
     7
100
AcDbLine
 10
131.6428713835762
 20
295.6587916134351
 30
0.0
 11
135.6428713835762
 21
295.6587916134351
 31
0.0
  0
LINE
  5
B0
330
1F
100
AcDbEntity
  8
1
  6
Continuous
 62
     7
100
AcDbLine
 10
131.6428713835762
 20
292.3087916134351
 30
0.0
 11
136.6428713835762
 21
292.3087916134351
 31
0.0
  0
LINE
  5
B1
330
1F
100
AcDbEntity
  8
1
  6
Continuous
 62
     7
100
AcDbLine
 10
154.6428713835762
 20
298.6587916134351
 30
0.0
 11
164.1428713835762
 21
298.6587916134351
 31
0.0
  0
LINE
  5
B2
330
1F
100
AcDbEntity
  8
1
  6
Continuous
 62
     7
100
AcDbLine
 10
162.3928713835762
 20
295.6587916134351
 30
0.0
 11
157.6428713835762
 21
295.6587916134351
 31
0.0
  0
LINE
  5
B3
330
1F
100
AcDbEntity
  8
1
  6
Continuous
 62
     7
100
AcDbLine
 10
135.6428713835762
 20
298.6587916134351
 30
0.0
 11
148.6428713835762
 21
298.6587916134351
 31
0.0
  0
LINE
  5
B4
330
1F
100
AcDbEntity
  8
1
  6
Continuous
 62
     7
100
AcDbLine
 10
143.6428713835762
 20
295.6587916134351
 30
0.0
 11
135.6428713835762
 21
295.6587916134351
 31
0.0
  0
LINE
  5
B5
330
1F
100
AcDbEntity
  8
1
  6
DASHED
 62
     2
100
AcDbLine
 10
131.6428713835762
 20
292.3087916134351
 30
0.0
 11
131.6428713835762
 21
295.6587916134351
 31
0.0
  0
LINE
  5
B6
330
1F
100
AcDbEntity
  8
1
  6
Continuous
 62
     7
100
AcDbLine
 10
129.0821510171076
 20
295.6587916134351
 30
0.0
 11
131.6428713835762
 21
295.6587916134351
 31
0.0
  0
LINE
  5
B7
330
1F
100
AcDbEntity
  8
1
  6
Continuous
 62
     7
100
AcDbLine
 10
129.4419784857565
 20
292.3087916134351
 30
0.0
 11
131.6428713835762
 21
292.3087916134351
 31
0.0
  0
LINE
  5
B8
330
1F
100
AcDbEntity
  8
1
  6
Continuous
 62
     7
100
AcDbLine
 10
182.7256094598323
 20
289.4087916134351
 30
0.0
 11
182.7256094598323
 21
298.6587916134351
 31
0.0
  0
LINE
  5
B9
330
1F
100
AcDbEntity
  8
1
  6
Continuous
 62
     7
100
AcDbLine
 10
181.9756094598323
 20
298.6587916134351
 30
0.0
 11
182.7256094598323
 21
298.6587916134351
 31
0.0
  0
LINE
  5
BA
330
1F
100
AcDbEntity
  8
1
  6
Continuous
 62
     7
100
AcDbLine
 10
128.687897641139
 20
287.4087916134351
 30
0.0
 11
180.7256094598323
 21
287.4087916134351
 31
0.0
  0
LINE
  5
BB
330
1F
100
AcDbEntity
  8
1
  6
Continuous
 62
     7
100
AcDbLine
 10
181.9756094598323
 20
289.4087916134351
 30
0.0
 11
181.9756094598323
 21
298.6587916134351
 31
0.0
  0
LINE
  5
BC
330
1F
100
AcDbEntity
  8
1
  6
Continuous
 62
     7
100
AcDbLine
 10
128.9756094598323
 20
288.1587916134351
 30
0.0
 11
180.7256094598323
 21
288.1587916134351
 31
0.0
  0
LINE
  5
BD
330
1F
100
AcDbEntity
  8
1
  6
DOT_CENTER
 62
     2
100
AcDbLine
 10
113.7684613492812
 20
310.6636189937071
 30
0.0
 11
130.5788900389692
 21
310.6635887717233
 31
0.0
  0
LINE
  5
BE
330
1F
100
AcDbEntity
  8
1
  6
Continuous
 62
     7
100
AcDbLine
 10
109.6428713835762
 20
315.6636189937071
 30
0.0
 11
129.6428713835762
 21
315.6636189937071
 31
0.0
  0
LINE
  5
BF
330
1F
100
AcDbEntity
  8
1
  6
Continuous
 62
     7
100
AcDbLine
 10
181.9756094598323
 20
298.6587916134351
 30
0.0
 11
175.6428713835762
 21
298.6587916134351
 31
0.0
  0
LINE
  5
C0
330
1F
100
AcDbEntity
  8
2
  6
Continuous
 62
     7
100
AcDbLine
 10
135.6428713835762
 20
310.6587916134351
 30
0.0
 11
135.6428713835762
 21
312.6587916134351
 31
0.0
  0
LINE
  5
C1
330
1F
100
AcDbEntity
  8
1
  6
Continuous
 62
     7
100
AcDbLine
 10
129.6428713835762
 20
315.6636189937071
 30
0.0
 11
142.5122024877171
 21
315.6636189937071
 31
0.0
  0
LINE
  5
C2
330
1F
100
AcDbEntity
  8
LAYER02
  6
Continuous
 62
     7
100
AcDbLine
 10
219.6792943835763
 20
305.2541706134351
 30
0.0
 11
164.6792943835763
 21
305.2541706134351
 31
0.0
  0
LINE
  5
C3
330
1F
100
AcDbEntity
  8
LAYER02
  6
Continuous
 62
     7
100
AcDbLine
 10
164.1792943835763
 20
305.7541706134351
 30
0.0
 11
164.1792943835763
 21
340.7541706134351
 31
0.0
  0
LINE
  5
C4
330
1F
100
AcDbEntity
  8
LAYER02
  6
Continuous
 62
     7
100
AcDbLine
 10
164.6792943835763
 20
341.2541706134351
 30
0.0
 11
219.6792943835763
 21
341.2541706134351
 31
0.0
  0
LINE
  5
C5
330
1F
100
AcDbEntity
  8
LAYER02
  6
Continuous
 62
     7
100
AcDbLine
 10
220.1792943835763
 20
340.7541706134351
 30
0.0
 11
220.1792943835763
 21
305.7541706134351
 31
0.0
  0
LINE
  5
C6
330
1F
100
AcDbEntity
  8
LAYER02
  6
Continuous
 62
     7
100
AcDbLine
 10
162.1792943835763
 20
305.7541706134351
 30
0.0
 11
162.1792943835763
 21
340.7541706134351
 31
0.0
  0
LINE
  5
C7
330
1F
100
AcDbEntity
  8
LAYER02
  6
Continuous
 62
     7
100
AcDbLine
 10
222.1792943835763
 20
340.7541706134351
 30
0.0
 11
222.1792943835763
 21
305.7541706134351
 31
0.0
  0
LINE
  5
C8
330
1F
100
AcDbEntity
  8
LAYER02
  6
Continuous
 62
     7
100
AcDbLine
 10
164.6792943835763
 20
343.2541706134351
 30
0.0
 11
219.6792943835763
 21
343.2541706134351
 31
0.0
  0
LINE
  5
C9
330
1F
100
AcDbEntity
  8
LAYER02
  6
Continuous
 62
     7
100
AcDbLine
 10
133.8642863835763
 20
359.702872613435
 30
0.0
 11
133.8642863835763
 21
331.702872613435
 31
0.0
  0
LINE
  5
CA
330
1F
100
AcDbEntity
  8
LAYER02
  6
Continuous
 62
     7
100
AcDbLine
 10
132.3642863835763
 20
331.702872613435
 30
0.0
 11
132.3642863835763
 21
359.702872613435
 31
0.0
  0
LINE
  5
CB
330
1F
100
AcDbEntity
  8
LAYER02
  6
Continuous
 62
     7
100
AcDbLine
 10
132.3642863835763
 20
359.702872613435
 30
0.0
 11
133.8642863835763
 21
359.702872613435
 31
0.0
  0
LINE
  5
CC
330
1F
100
AcDbEntity
  8
LAYER02
  6
Continuous
 62
     7
100
AcDbLine
 10
131.8642863835763
 20
331.202872613435
 30
0.0
 11
125.6428713835762
 21
331.202872613435
 31
0.0
  0
LINE
  5
CD
330
1F
100
AcDbEntity
  8
LAYER02
  6
Continuous
 62
     7
100
AcDbLine
 10
110.3642863835763
 20
331.702872613435
 30
0.0
 11
110.3642863835763
 21
359.702872613435
 31
0.0
  0
LINE
  5
CE
330
1F
100
AcDbEntity
  8
LAYER02
  6
Continuous
 62
     7
100
AcDbLine
 10
110.3642863835763
 20
359.702872613435
 30
0.0
 11
108.7104323835763
 21
359.891537613435
 31
0.0
  0
LINE
  5
CF
330
1F
100
AcDbEntity
  8
LAYER02
  6
Continuous
 62
     7
100
AcDbLine
 10
108.7104323835763
 20
359.891537613435
 30
0.0
 11
108.8642863835763
 21
331.702872613435
 31
0.0
  0
LINE
  5
D0
330
1F
100
AcDbEntity
  8
LAYER01
  6
Continuous
 62
     7
100
AcDbLine
 10
97.52596238357626
 20
315.6636556134351
 30
0.0
 11
109.6428713835762
 21
315.6636189937071
 31
0.0
  0
LINE
  5
D1
330
1F
100
AcDbEntity
  8
LAYER01
  6
Continuous
 62
     7
100
AcDbLine
 10
143.5263003835763
 20
320.3582056134351
 30
0.0
 11
143.5263003835763
 21
316.6635196134351
 31
0.0
  0
LINE
  5
D2
330
1F
100
AcDbEntity
  8
LAYER01
  6
Continuous
 62
     7
100
AcDbLine
 10
141.0680273835763
 20
320.0992286134351
 30
0.0
 11
141.0680273835763
 21
318.6591706134351
 31
0.0
  0
LINE
  5
D3
330
1F
100
AcDbEntity
  8
LAYER01
  6
Continuous
 62
     7
100
AcDbLine
 10
137.0309842004627
 20
318.1581945774004
 30
0.0
 11
140.5680273835763
 21
318.1591706134351
 31
0.0
  0
LINE
  5
D4
330
1F
100
AcDbEntity
  8
LAYER01
  6
Continuous
 62
     7
100
AcDbLine
 10
105.5179693835763
 20
332.1739216134351
 30
0.0
 11
105.5179693835763
 21
318.6643846134351
 31
0.0
  0
LINE
  5
D5
330
1F
100
AcDbEntity
  8
LAYER01
  6
Continuous
 62
     7
100
AcDbLine
 10
105.0179693835763
 20
318.1643846134351
 30
0.0
 11
99.42403438357627
 21
318.1678536134351
 31
0.0
  0
LINE
  5
D6
330
1F
100
AcDbEntity
  8
LAYER01
  6
Continuous
 62
     7
100
AcDbLine
 10
108.2104593835763
 20
318.9565446134351
 30
0.0
 11
108.2105003835763
 21
327.475972613435
 31
0.0
  0
LINE
  5
D7
330
1F
100
AcDbEntity
  8
LAYER01
  6
Continuous
 62
     7
100
AcDbLine
 10
133.8257763835763
 20
327.3474396134351
 30
0.0
 11
133.8257763835763
 21
319.1598556134351
 31
0.0
  0
LINE
  5
D8
330
1F
100
AcDbEntity
  8
LAYER01
  6
Continuous
 62
     7
100
AcDbLine
 10
136.5239903835763
 20
325.7427236134351
 30
0.0
 11
136.5300023835765
 21
318.6581931334695
 31
0.0
  0
LINE
  5
D9
330
1F
100
AcDbEntity
  8
LAYER01
  6
Continuous
 62
     7
100
AcDbLine
 10
141.0680273835763
 20
320.0992286134351
 30
0.0
 11
143.1461730404966
 21
320.647306995118
 31
0.0
  0
LINE
  5
DA
330
1F
100
AcDbEntity
  8
LAYER01
  6
Continuous
 62
     7
100
AcDbLine
 10
97.52596238357626
 20
375.6725966134351
 30
0.0
 11
157.3454532090434
 21
375.6727356134351
 31
0.0
  0
LINE
  5
DB
330
1F
100
AcDbEntity
  8
LAYER01
  6
Continuous
 62
     7
100
AcDbLine
 10
108.714431005378
 20
361.6242366143728
 30
0.0
 11
134.6429810053779
 21
361.6257936143728
 31
0.0
  0
LINE
  5
DC
330
1F
100
AcDbEntity
  8
LAYER01
  6
Continuous
 62
     7
100
AcDbLine
 10
108.7104386231284
 20
360.3915376133962
 30
0.0
 11
134.4374516231284
 21
360.3912226133962
 31
0.0
  0
LINE
  5
DD
330
1F
100
AcDbEntity
  8
LAYER01
  6
Continuous
 62
     7
100
AcDbLine
 10
140.0924093835763
 20
372.7757626134351
 30
0.0
 11
108.7144003835763
 21
372.7757626134351
 31
0.0
  0
LINE
  5
DE
330
1F
100
AcDbEntity
  8
LAYER01
  6
Continuous
 62
     7
100
AcDbLine
 10
97.52596238357626
 20
375.6725966134351
 30
0.0
 11
97.52596238357626
 21
372.672072613435
 31
0.0
  0
LINE
  5
DF
330
1F
100
AcDbEntity
  8
LAYER01
  6
Continuous
 62
     7
100
AcDbLine
 10
97.52596238357626
 20
372.672072613435
 30
0.0
 11
98.97372438357627
 21
371.8338996134351
 31
0.0
  0
LINE
  5
E0
330
1F
100
AcDbEntity
  8
LAYER01
  6
Continuous
 62
     7
100
AcDbLine
 10
99.42403438357627
 20
372.0935276134351
 30
0.0
 11
99.42315538357627
 21
373.185351613435
 31
0.0
  0
LINE
  5
E1
330
1F
100
AcDbEntity
  8
LAYER01
  6
Continuous
 62
     7
100
AcDbLine
 10
99.42315538357627
 20
373.185351613435
 30
0.0
 11
105.0179693835763
 21
373.1854506134351
 31
0.0
  0
LINE
  5
E2
330
1F
100
AcDbEntity
  8
LAYER01
  6
Continuous
 62
     7
100
AcDbLine
 10
105.5179693835763
 20
372.6854506134351
 30
0.0
 11
105.5179693835763
 21
359.119256613435
 31
0.0
  0
LINE
  5
E3
330
1F
100
AcDbEntity
  8
LAYER01
  6
Continuous
 62
     7
100
AcDbLine
 10
105.5293983835763
 20
356.2780126134351
 30
0.0
 11
105.5293983835763
 21
335.0225346134351
 31
0.0
  0
LINE
  5
E4
330
1F
100
AcDbEntity
  8
LAYER01
  6
Continuous
 62
     7
100
AcDbLine
 10
108.2104323835763
 20
329.6733636134351
 30
0.0
 11
108.2104323835763
 21
359.891537613435
 31
0.0
  0
LINE
  5
E5
330
1F
100
AcDbEntity
  8
LAYER01
  6
Continuous
 62
     7
100
AcDbLine
 10
99.42389038357626
 20
358.6209266134351
 30
0.0
 11
105.0264033835763
 21
358.6207276134351
 31
0.0
  0
LINE
  5
E6
330
1F
100
AcDbEntity
  8
LAYER01
  6
Continuous
 62
     7
100
AcDbLine
 10
99.42389038357626
 20
356.7678746134351
 30
0.0
 11
105.0950603835763
 21
356.7736816134351
 31
0.0
  0
LINE
  5
E7
330
1F
100
AcDbEntity
  8
LAYER01
  6
Continuous
 62
     7
100
AcDbLine
 10
99.42364138357627
 20
356.015661613435
 30
0.0
 11
99.42389038357626
 21
356.7678746134351
 31
0.0
  0
LINE
  5
E8
330
1F
100
AcDbEntity
  8
LAYER01
  6
Continuous
 62
     7
100
AcDbLine
 10
98.97371238357627
 20
355.7713966134351
 30
0.0
 11
97.52596238357626
 21
356.6096556134351
 31
0.0
  0
LINE
  5
E9
330
1F
100
AcDbEntity
  8
LAYER01
  6
Continuous
 62
     7
100
AcDbLine
 10
98.97371238357627
 20
359.6315956134351
 30
0.0
 11
97.52596238357626
 21
358.793337613435
 31
0.0
  0
LINE
  5
EA
330
1F
100
AcDbEntity
  8
LAYER01
  6
Continuous
 62
     7
100
AcDbLine
 10
97.52596238357626
 20
358.793337613435
 30
0.0
 11
97.52596238357626
 21
356.6096556134351
 31
0.0
  0
LINE
  5
EB
330
1F
100
AcDbEntity
  8
LAYER01
  6
Continuous
 62
     7
100
AcDbLine
 10
99.42364138357627
 20
359.387330613435
 30
0.0
 11
99.42389038357626
 21
358.6209266134351
 31
0.0
  0
LINE
  5
EC
330
1F
100
AcDbEntity
  8
LAYER01
  6
Continuous
 62
     7
100
AcDbLine
 10
108.2144003835763
 20
362.1242366134351
 30
0.0
 11
108.2144003835763
 21
372.2757626134351
 31
0.0
  0
LINE
  5
ED
330
1F
100
AcDbEntity
  8
LAYER01
  6
Continuous
 62
     7
100
AcDbLine
 10
99.42389038357626
 20
334.5277266134351
 30
0.0
 11
105.0949593835763
 21
334.526850613435
 31
0.0
  0
LINE
  5
EE
330
1F
100
AcDbEntity
  8
LAYER01
  6
Continuous
 62
     7
100
AcDbLine
 10
99.42389038357626
 20
332.6754686134351
 30
0.0
 11
105.0179693835763
 21
332.6739216134351
 31
0.0
  0
LINE
  5
EF
330
1F
100
AcDbEntity
  8
LAYER01
  6
Continuous
 62
     7
100
AcDbLine
 10
98.97371238357627
 20
335.4966256134351
 30
0.0
 11
97.52596238357626
 21
334.6498566134351
 31
0.0
  0
LINE
  5
F0
330
1F
100
AcDbEntity
  8
LAYER01
  6
Continuous
 62
     7
100
AcDbLine
 10
99.42364138357627
 20
335.2523606134351
 30
0.0
 11
99.42389038357626
 21
334.5277266134351
 31
0.0
  0
LINE
  5
F1
330
1F
100
AcDbEntity
  8
LAYER01
  6
Continuous
 62
     7
100
AcDbLine
 10
98.97371238357627
 20
331.6364266134351
 30
0.0
 11
97.52596238357626
 21
332.4746856134351
 31
0.0
  0
LINE
  5
F2
330
1F
100
AcDbEntity
  8
LAYER01
  6
Continuous
 62
     7
100
AcDbLine
 10
97.52596238357626
 20
332.4746856134351
 30
0.0
 11
97.52596238357626
 21
334.6498566134351
 31
0.0
  0
LINE
  5
F3
330
1F
100
AcDbEntity
  8
LAYER01
  6
Continuous
 62
     7
100
AcDbLine
 10
99.42364138357627
 20
331.880691613435
 30
0.0
 11
99.42389038357626
 21
332.6754686134351
 31
0.0
  0
LINE
  5
F4
330
1F
100
AcDbEntity
  8
LAYER01
  6
Continuous
 62
     7
100
AcDbLine
 10
159.3133132419271
 20
374.0298456495458
 30
0.0
 11
161.5260563835763
 21
361.633545613435
 31
0.0
  0
LINE
  5
F5
330
1F
100
AcDbEntity
  8
LAYER01
  6
Continuous
 62
     7
100
AcDbLine
 10
155.9359223835763
 20
372.7757626134351
 30
0.0
 11
142.3557373835763
 21
372.7757626134351
 31
0.0
  0
LINE
  5
F6
330
1F
100
AcDbEntity
  8
LAYER01
  6
Continuous
 62
     7
100
AcDbLine
 10
157.0962993835763
 20
363.626770613435
 30
0.0
 11
158.4415083835763
 21
363.6314696134351
 31
0.0
  0
LINE
  5
F7
330
1F
100
AcDbEntity
  8
LAYER01
  6
Continuous
 62
     7
100
AcDbLine
 10
158.9338843835763
 20
364.218455613435
 30
0.0
 11
158.5810693835762
 21
366.2155296134351
 31
0.0
  0
LINE
  5
F8
330
1F
100
AcDbEntity
  8
LAYER01
  6
Continuous
 62
     7
100
AcDbLine
 10
158.0886943835763
 20
366.6285436134351
 30
0.0
 11
152.5445423835763
 21
366.6285436134351
 31
0.0
  0
LINE
  5
F9
330
1F
100
AcDbEntity
  8
LAYER01
  6
Continuous
 62
     7
100
AcDbLine
 10
152.0445423835763
 20
366.1285436134351
 30
0.0
 11
152.0445423835763
 21
364.1314696134351
 31
0.0
  0
LINE
  5
FA
330
1F
100
AcDbEntity
  8
LAYER01
  6
Continuous
 62
     7
100
AcDbLine
 10
152.5445423835763
 20
363.6314696134351
 30
0.0
 11
154.0420013835763
 21
363.626770613435
 31
0.0
  0
LINE
  5
FB
330
1F
100
AcDbEntity
  8
LAYER01
  6
Continuous
 62
     7
100
AcDbLine
 10
156.5224843835763
 20
368.1162746134351
 30
0.0
 11
152.5338503835763
 21
368.1162746134351
 31
0.0
  0
LINE
  5
FC
330
1F
100
AcDbEntity
  8
LAYER01
  6
Continuous
 62
     7
100
AcDbLine
 10
139.5212123835763
 20
345.7768696134351
 30
0.0
 11
137.6842373537916
 21
359.3655382665403
 31
0.0
  0
LINE
  5
FD
330
1F
100
AcDbEntity
  8
LAYER01
  6
Continuous
 62
     7
100
AcDbLine
 10
135.7266688070071
 20
353.567602360201
 30
0.0
 11
136.7797348070071
 21
345.987359360201
 31
0.0
  0
LINE
  5
FE
330
1F
100
AcDbEntity
  8
LAYER01
  6
Continuous
 62
     7
100
AcDbLine
 10
135.4630280987806
 20
353.9485221925318
 30
0.0
 11
134.5211489544537
 21
354.359959665977
 31
0.0
  0
LINE
  5
FF
330
1F
100
AcDbEntity
  8
LAYER01
  6
Continuous
 62
     7
100
AcDbLine
 10
135.2276117991038
 20
355.2557397909717
 30
0.0
 11
134.4950203342597
 21
354.8756617069131
 31
0.0
  0
LINE
  5
100
330
1F
100
AcDbEntity
  8
LAYER01
  6
Continuous
 62
     7
100
AcDbLine
 10
134.933773725403
 20
359.9517054796002
 30
0.0
 11
135.4478567254029
 21
355.7330894796002
 31
0.0
  0
LINE
  5
101
330
1F
100
AcDbEntity
  8
LAYER01
  6
Continuous
 62
     7
100
AcDbLine
 10
139.6668692090434
 20
361.6285406134351
 30
0.0
 11
152.5420013835763
 21
361.633545613435
 31
0.0
  0
LINE
  5
102
330
1F
100
AcDbEntity
  8
LAYER01
  6
Continuous
 62
     7
100
AcDbLine
 10
150.0338503835763
 20
364.308825613435
 30
0.0
 11
142.3557373835763
 21
364.308825613435
 31
0.0
  0
LINE
  5
103
330
1F
100
AcDbEntity
  8
LAYER01
  6
Continuous
 62
     7
100
AcDbLine
 10
140.0924093835763
 20
364.3178386134351
 30
0.0
 11
139.1981843835763
 21
364.3178386134351
 31
0.0
  0
LINE
  5
104
330
1F
100
AcDbEntity
  8
LAYER01
  6
Continuous
 62
     7
100
AcDbLine
 10
140.5924093835763
 20
372.2757626134351
 30
0.0
 11
140.5924093835763
 21
364.8178386134351
 31
0.0
  0
LINE
  5
105
330
1F
100
AcDbEntity
  8
LAYER01
  6
Continuous
 62
     7
100
AcDbLine
 10
141.8557373835763
 20
364.808825613435
 30
0.0
 11
141.8557373835763
 21
372.2757626134351
 31
0.0
  0
LINE
  5
106
330
1F
100
AcDbEntity
  8
LAYER01
  6
Continuous
 62
     7
100
AcDbLine
 10
154.0420013835763
 20
363.626770613435
 30
0.0
 11
154.0420013835763
 21
363.1335456919749
 31
0.0
  0
LINE
  5
107
330
1F
100
AcDbEntity
  8
LAYER01
  6
Continuous
 62
     7
100
AcDbLine
 10
150.5338503835763
 20
366.1162746134351
 30
0.0
 11
150.5338503835763
 21
364.808825613435
 31
0.0
  0
LINE
  5
108
330
1F
100
AcDbEntity
  8
LAYER01
  6
Continuous
 62
     7
100
AcDbLine
 10
136.4149358788445
 20
335.585935638236
 30
0.0
 11
134.6222303243754
 21
335.1936287540028
 31
0.0
  0
LINE
  5
109
330
1F
100
AcDbEntity
  8
LAYER01
  6
Continuous
 62
     7
100
AcDbLine
 10
133.311823423859
 20
327.8472448904332
 30
0.0
 11
125.6428713835762
 21
327.638395779942
 31
0.0
  0
LINE
  5
10A
330
1F
100
AcDbEntity
  8
LAYER01
  6
Continuous
 62
     7
100
AcDbLine
 10
136.3243929090659
 20
329.1720186773742
 30
0.0
 11
125.6428713835762
 21
328.8647212925519
 31
0.0
  0
LINE
  5
10B
330
1F
100
AcDbEntity
  8
LAYER01
  6
Continuous
 62
     7
100
AcDbLine
 10
136.4149358873758
 20
334.2036115867974
 30
0.0
 11
134.6222303191593
 21
334.5959184733244
 31
0.0
  0
LINE
  5
10C
330
1F
100
AcDbEntity
  8
LAYER01
  6
Continuous
 62
     7
100
AcDbLine
 10
136.4149704212142
 20
344.1019201502382
 30
0.0
 11
134.6255303191595
 21
344.4936584733244
 31
0.0
  0
LINE
  5
10D
330
1F
100
AcDbEntity
  8
LAYER01
  6
Continuous
 62
     7
100
AcDbLine
 10
136.3922641056531
 20
345.4376025884496
 30
0.0
 11
134.6255303243755
 21
345.0913687540028
 31
0.0
  0
LINE
  5
10E
330
1F
100
AcDbEntity
  8
LAYER01
  6
Continuous
 62
     7
100
AcDbLine
 10
139.5302990078636
 20
329.0809212564537
 30
0.0
 11
139.5212123835763
 21
345.7768696134351
 31
0.0
  0
LINE
  5
10F
330
1F
100
AcDbEntity
  8
LAYER01
  6
Continuous
 62
     7
100
AcDbLine
 10
143.1682468098392
 20
329.1484399534412
 30
0.0
 11
140.1252321962328
 21
328.6158974430581
 31
0.0
  0
LINE
  5
110
330
1F
100
AcDbEntity
  8
LAYER01
  6
Continuous
 62
     7
100
AcDbLine
 10
143.5219763835763
 20
325.1720126134351
 30
0.0
 11
143.5219763835763
 21
328.8532906134351
 31
0.0
  0
LINE
  5
111
330
1F
100
AcDbEntity
  8
LAYER01
  6
Continuous
 62
     7
100
AcDbLine
 10
142.8926585403466
 20
324.6890251442163
 30
0.0
 11
137.153308226806
 21
326.2257110826539
 31
0.0
  0
LINE
  5
112
330
1F
100
AcDbEntity
  8
LAYER01
  6
Continuous
 62
     7
100
AcDbLine
 10
136.8096953835763
 20
333.7148126134351
 30
0.0
 11
136.8096953835763
 21
329.671802613435
 31
0.0
  0
LINE
  5
113
330
1F
100
AcDbEntity
  8
LAYER01
  6
Continuous
 62
     7
100
AcDbLine
 10
136.8096953835763
 20
343.613128613435
 30
0.0
 11
136.8096953835763
 21
336.0747346134351
 31
0.0
  0
LINE
  5
114
330
1F
100
AcDbEntity
  8
LAYER01
  6
Continuous
 62
     7
100
AcDbLine
 10
156.4296207089317
 20
372.3548951828441
 30
0.0
 11
157.0161827089317
 21
368.6954071828441
 31
0.0
  0
LINE
  5
115
330
1F
100
AcDbEntity
  8
LAYER01
  6
Continuous
 62
     7
100
AcDbLine
 10
157.0962993835763
 20
363.626770613435
 30
0.0
 11
157.0962993835763
 21
363.133545613435
 31
0.0
  0
LINE
  5
116
330
1F
100
AcDbEntity
  8
LAYER01
  6
Continuous
 62
     7
100
AcDbLine
 10
161.5260563835763
 20
361.633545613435
 30
0.0
 11
158.5962993835763
 21
361.633545613435
 31
0.0
  0
LINE
  5
117
330
1F
100
AcDbEntity
  8
LAYER01
  6
Continuous
 62
     7
100
AcDbLine
 10
99.42403438357627
 20
318.1678536134351
 30
0.0
 11
99.42403438357627
 21
319.2415386134351
 31
0.0
  0
LINE
  5
118
330
1F
100
AcDbEntity
  8
LAYER01
  6
Continuous
 62
     7
100
AcDbLine
 10
98.96384138357627
 20
319.4951886134351
 30
0.0
 11
97.52596238357626
 21
318.6508946134351
 31
0.0
  0
LINE
  5
119
330
1F
100
AcDbEntity
  8
LAYER01
  6
Continuous
 62
     7
100
AcDbLine
 10
97.52596238357626
 20
318.6508946134351
 30
0.0
 11
97.52596238357626
 21
315.6636556134351
 31
0.0
  0
LINE
  5
11A
330
1F
100
AcDbEntity
  8
LAYER01
  6
Continuous
 62
     7
100
AcDbLine
 10
133.3257763835763
 20
318.6598556134351
 30
0.0
 11
125.6428713835762
 21
318.6598556134351
 31
0.0
  0
LINE
  5
11B
330
1F
100
AcDbEntity
  8
2
  6
Continuous
 62
     7
100
AcDbLine
 10
155.6428713835762
 20
358.658791613435
 30
0.0
 11
246.4960913835763
 21
358.6587916134351
 31
0.0
  0
LINE
  5
11C
330
1F
100
AcDbEntity
  8
2
  6
Continuous
 62
     7
100
AcDbLine
 10
155.6428713835762
 20
343.7587916134351
 30
0.0
 11
155.6428713835762
 21
358.658791613435
 31
0.0
  0
LINE
  5
11D
330
1F
100
AcDbEntity
  8
2
  6
Continuous
 62
     7
100
AcDbLine
 10
158.3428713835763
 20
343.7587916134351
 30
0.0
 11
155.6428713835762
 21
343.7587916134351
 31
0.0
  0
LINE
  5
11E
330
1F
100
AcDbEntity
  8
2
  6
Continuous
 62
     7
100
AcDbLine
 10
158.6428713835762
 20
319.8587916134351
 30
0.0
 11
158.6428713835762
 21
343.4587916134351
 31
0.0
  0
LINE
  5
11F
330
1F
100
AcDbEntity
  8
2
  6
Continuous
 62
     7
100
AcDbLine
 10
155.6428713835762
 20
319.5587916134351
 30
0.0
 11
158.3428713835763
 21
319.5587916134351
 31
0.0
  0
LINE
  5
120
330
1F
100
AcDbEntity
  8
2
  6
Continuous
 62
     7
100
AcDbLine
 10
155.6428713835762
 20
312.9587916134351
 30
0.0
 11
155.6428713835762
 21
319.5587916134351
 31
0.0
  0
LINE
  5
121
330
1F
100
AcDbEntity
  8
2
  6
Continuous
 62
     7
100
AcDbLine
 10
144.6428713835762
 20
312.6587916134351
 30
0.0
 11
155.3428713835763
 21
312.6587916134351
 31
0.0
  0
LINE
  5
122
330
1F
100
AcDbEntity
  8
2
  6
Continuous
 62
     7
100
AcDbLine
 10
143.1428713835762
 20
310.6587916134351
 30
0.0
 11
143.1428713835762
 21
311.1587916134351
 31
0.0
  0
LINE
  5
123
330
1F
100
AcDbEntity
  8
2
  6
Continuous
 62
     7
100
AcDbLine
 10
144.8428713835763
 20
310.6587916134351
 30
0.0
 11
143.1428713835762
 21
310.6587916134351
 31
0.0
  0
LINE
  5
124
330
1F
100
AcDbEntity
  8
2
  6
Continuous
 62
     7
100
AcDbLine
 10
145.1428713835762
 20
307.9587916134351
 30
0.0
 11
145.1428713835762
 21
310.3587916134351
 31
0.0
  0
LINE
  5
125
330
1F
100
AcDbEntity
  8
2
  6
Continuous
 62
     7
100
AcDbLine
 10
138.1428713835762
 20
310.3587916134351
 30
0.0
 11
138.1428713835762
 21
307.9587916134351
 31
0.0
  0
LINE
  5
126
330
1F
100
AcDbEntity
  8
2
  6
Continuous
 62
     7
100
AcDbLine
 10
140.1428713835762
 20
310.6587916134351
 30
0.0
 11
138.4428713835763
 21
310.6587916134351
 31
0.0
  0
LINE
  5
127
330
1F
100
AcDbEntity
  8
2
  6
Continuous
 62
     7
100
AcDbLine
 10
140.1428713835762
 20
311.1587916134351
 30
0.0
 11
140.1428713835762
 21
310.6587916134351
 31
0.0
  0
LINE
  5
128
330
1F
100
AcDbEntity
  8
2
  6
Continuous
 62
     7
100
AcDbLine
 10
135.6428713835762
 20
312.6587916134351
 30
0.0
 11
138.6428713835762
 21
312.6587916134351
 31
0.0
  0
LINE
  5
129
330
1F
100
AcDbEntity
  8
2
  6
Continuous
 62
     7
100
AcDbLine
 10
138.4428713835763
 20
307.6587916134351
 30
0.0
 11
144.8428713835763
 21
307.6587916134351
 31
0.0
  0
LINE
  5
12A
330
1F
100
AcDbEntity
  8
2
  6
Continuous
 62
     7
100
AcDbLine
 10
231.6428713835762
 20
298.6587916134351
 30
0.0
 11
182.7256094598323
 21
298.6587916134351
 31
0.0
  0
LINE
  5
12B
330
1F
100
AcDbEntity
  8
2
  6
Continuous
 62
     7
100
AcDbLine
 10
232.6428713835762
 20
303.6587916134351
 30
0.0
 11
232.6428713835762
 21
299.6587916134351
 31
0.0
  0
LINE
  5
12C
330
1F
100
AcDbEntity
  8
2
  6
Continuous
 62
     7
100
AcDbLine
 10
230.1428713835762
 20
302.9889216134351
 30
0.0
 11
232.6428713835762
 21
303.6587916134351
 31
0.0
  0
LINE
  5
12D
330
1F
100
AcDbEntity
  8
2
  6
Continuous
 62
     7
100
AcDbLine
 10
230.1428713835762
 20
301.4587916134351
 30
0.0
 11
230.1428713835762
 21
302.9889216134351
 31
0.0
  0
LINE
  5
12E
330
1F
100
AcDbEntity
  8
2
  6
Continuous
 62
     7
100
AcDbLine
 10
226.1428713835762
 20
301.1587916134351
 30
0.0
 11
229.8428713835763
 21
301.1587916134351
 31
0.0
  0
LINE
  5
12F
330
1F
100
AcDbEntity
  8
2
  6
Continuous
 62
     7
100
AcDbLine
 10
225.6428713835762
 20
308.7312116134351
 30
0.0
 11
225.6428713835762
 21
301.6587916134351
 31
0.0
  0
LINE
  5
130
330
1F
100
AcDbEntity
  8
2
  6
Continuous
 62
     7
100
AcDbLine
 10
232.013461861025
 20
307.6758287002906
 30
0.0
 11
226.2722809061276
 21
309.2141745265795
 31
0.0
  0
LINE
  5
131
330
1F
100
AcDbEntity
  8
2
  6
Continuous
 62
     7
100
AcDbLine
 10
232.6428713835762
 20
312.1587916134351
 30
0.0
 11
232.6428713835762
 21
308.1587916134351
 31
0.0
  0
LINE
  5
132
330
1F
100
AcDbEntity
  8
2
  6
Continuous
 62
     7
100
AcDbLine
 10
228.6428713835762
 20
328.6587916134351
 30
0.0
 11
228.6428713835762
 21
312.0493616134351
 31
0.0
  0
LINE
  5
133
330
1F
100
AcDbEntity
  8
2
  6
Continuous
 62
     7
100
AcDbLine
 10
229.2296954724098
 20
311.556957736929
 30
0.0
 11
232.6428713835762
 21
312.1587916134351
 31
0.0
  0
LINE
  5
134
330
1F
100
AcDbEntity
  8
2
  6
Continuous
 62
     7
100
AcDbLine
 10
226.9538190802936
 20
342.4150529266248
 30
0.0
 11
228.6428713835762
 21
328.6587916134351
 31
0.0
  0
LINE
  5
135
330
1F
100
AcDbEntity
  8
2
  6
Continuous
 62
     7
100
AcDbLine
 10
241.6428713835762
 20
344.6587916134351
 30
0.0
 11
228.9389113835763
 21
344.6587916134351
 31
0.0
  0
LINE
  5
136
330
1F
100
AcDbEntity
  8
2
  6
Continuous
 62
     7
100
AcDbLine
 10
243.1428713835762
 20
346.6587916134351
 30
0.0
 11
243.1428713835762
 21
346.1587916134351
 31
0.0
  0
LINE
  5
137
330
1F
100
AcDbEntity
  8
2
  6
Continuous
 62
     7
100
AcDbLine
 10
241.5593613835763
 20
346.6587916134351
 30
0.0
 11
243.1428713835762
 21
346.6587916134351
 31
0.0
  0
LINE
  5
138
330
1F
100
AcDbEntity
  8
2
  6
Continuous
 62
     7
100
AcDbLine
 10
241.2593613835762
 20
349.3587916134351
 30
0.0
 11
241.2593613835762
 21
346.9587916134351
 31
0.0
  0
LINE
  5
139
330
1F
100
AcDbEntity
  8
2
  6
Continuous
 62
     7
100
AcDbLine
 10
248.1972837094799
 20
347.0108860667352
 30
0.0
 11
247.77409370948
 21
349.4108860667352
 31
0.0
  0
LINE
  5
13A
330
1F
100
AcDbEntity
  8
2
  6
Continuous
 62
     7
100
AcDbLine
 10
246.1428713835762
 20
346.6587916134351
 30
0.0
 11
247.9018413835763
 21
346.6587916134351
 31
0.0
  0
LINE
  5
13B
330
1F
100
AcDbEntity
  8
2
  6
Continuous
 62
     7
100
AcDbLine
 10
246.1428713835762
 20
346.1587916134351
 30
0.0
 11
246.1428713835762
 21
346.6587916134351
 31
0.0
  0
LINE
  5
13C
330
1F
100
AcDbEntity
  8
2
  6
Continuous
 62
     7
100
AcDbLine
 10
248.4657068896007
 20
357.006087968769
 30
0.0
 11
250.6391203835763
 21
344.616050613435
 31
0.0
  0
LINE
  5
13D
330
1F
100
AcDbEntity
  8
2
  6
Continuous
 62
     7
100
AcDbLine
 10
250.6391203835763
 20
344.616050613435
 30
0.0
 11
247.6428713835762
 21
344.6587916134351
 31
0.0
  0
LINE
  5
13E
330
1F
100
AcDbEntity
  8
2
  6
Continuous
 62
     7
100
AcDbLine
 10
247.4786513835762
 20
349.6587916134351
 30
0.0
 11
241.5593613835763
 21
349.6587916134351
 31
0.0
  0
LINE
  5
13F
330
1F
100
AcDbEntity
  8
2
  6
Continuous
 62
     7
100
AcDbLine
 10
245.7007037094799
 20
355.4108860667352
 30
0.0
 11
246.4412837094798
 21
351.2108860667352
 31
0.0
  0
LINE
  5
140
330
1F
100
AcDbEntity
  8
2
  6
Continuous
 62
     7
100
AcDbLine
 10
231.1428713835762
 20
355.6587916134351
 30
0.0
 11
245.4052613835763
 21
355.6587916134351
 31
0.0
  0
LINE
  5
141
330
1F
100
AcDbEntity
  8
2
  6
Continuous
 62
     7
100
AcDbLine
 10
246.1458413835763
 20
350.8587916134351
 30
0.0
 11
241.5593613835763
 21
350.8587916134351
 31
0.0
  0
LINE
  5
142
330
1F
100
AcDbEntity
  8
2
  6
Continuous
 62
     7
100
AcDbLine
 10
230.8428713835763
 20
347.9587916134351
 30
0.0
 11
230.8428713835763
 21
355.3587916134351
 31
0.0
  0
LINE
  5
143
330
1F
100
AcDbEntity
  8
2
  6
Continuous
 62
     7
100
AcDbLine
 10
239.7593613835762
 20
347.6587916134351
 30
0.0
 11
231.1428713835762
 21
347.6587916134351
 31
0.0
  0
LINE
  5
144
330
1F
100
AcDbEntity
  8
2
  6
Continuous
 62
     7
100
AcDbLine
 10
240.0593613835763
 20
349.3587916134351
 30
0.0
 11
240.0593613835763
 21
347.9587916134351
 31
0.0
  0
LINE
  5
145
330
1F
100
AcDbEntity
  8
2
  6
Continuous
 62
     7
100
AcDbLine
 10
157.1428713835762
 20
301.6587916134351
 30
0.0
 11
166.6428713835762
 21
301.6587916134351
 31
0.0
  0
LINE
  5
146
330
1F
100
AcDbEntity
  8
2
  6
Continuous
 62
     7
100
AcDbLine
 10
156.8428713835763
 20
309.8411016134351
 30
0.0
 11
156.8428713835763
 21
301.9587916134351
 31
0.0
  0
LINE
  5
147
330
1F
100
AcDbEntity
  8
2
  6
Continuous
 62
     7
100
AcDbLine
 10
158.6428713835762
 20
316.3091416134351
 30
0.0
 11
158.6428713835762
 21
312.9587916134351
 31
0.0
  0
LINE
  5
148
330
1F
100
AcDbEntity
  8
2
  6
Continuous
 62
     7
100
AcDbLine
 10
161.6428713835762
 20
343.3685016134351
 30
0.0
 11
161.6428713835762
 21
319.8587916134351
 31
0.0
  0
LINE
  5
149
330
1F
100
AcDbEntity
  8
2
  6
Continuous
 62
     7
100
AcDbLine
 10
192.6428713835762
 20
344.6587916134351
 30
0.0
 11
161.9332011424042
 21
343.6683457169884
 31
0.0
  0
LINE
  5
14A
330
1F
100
AcDbEntity
  8
2
  6
Continuous
 62
     7
100
AcDbLine
 10
223.4766055442225
 20
343.631431396763
 30
0.0
 11
193.8428713835763
 21
344.6587916134351
 31
0.0
  0
LINE
  5
14B
330
1F
100
AcDbEntity
  8
2
  6
Continuous
 62
     7
100
AcDbLine
 10
192.6428713835762
 20
344.2587916134351
 30
0.0
 11
192.6428713835762
 21
344.6587916134351
 31
0.0
  0
LINE
  5
14C
330
1F
100
AcDbEntity
  8
2
  6
Continuous
 62
     7
100
AcDbLine
 10
193.8428713835763
 20
344.6587916134351
 30
0.0
 11
193.8428713835763
 21
344.2587916134351
 31
0.0
  0
LINE
  5
14D
330
1F
100
AcDbEntity
  8
2
  6
Continuous
 62
     7
100
AcDbLine
 10
224.3925013835763
 20
338.6587916134351
 30
0.0
 11
223.9761806253697
 21
342.0494448964093
 31
0.0
  0
LINE
  5
14E
330
1F
100
AcDbEntity
  8
2
  6
Continuous
 62
     7
100
AcDbLine
 10
223.3928713835762
 20
338.6587916134351
 30
0.0
 11
224.3925013835763
 21
338.6587916134351
 31
0.0
  0
LINE
  5
14F
330
1F
100
AcDbEntity
  8
2
  6
Continuous
 62
     7
100
AcDbLine
 10
224.5766713835763
 20
337.1587916134351
 30
0.0
 11
223.3928713835762
 21
337.1587916134351
 31
0.0
  0
LINE
  5
150
330
1F
100
AcDbEntity
  8
2
  6
Continuous
 62
     7
100
AcDbLine
 10
225.5589513835763
 20
329.1587916134351
 30
0.0
 11
224.5766713835763
 21
337.1587916134351
 31
0.0
  0
LINE
  5
151
330
1F
100
AcDbEntity
  8
2
  6
Continuous
 62
     7
100
AcDbLine
 10
223.3928713835762
 20
329.1587916134351
 30
0.0
 11
225.5589513835763
 21
329.1587916134351
 31
0.0
  0
LINE
  5
152
330
1F
100
AcDbEntity
  8
2
  6
Continuous
 62
     7
100
AcDbLine
 10
225.6428713835762
 20
327.6587916134351
 30
0.0
 11
223.3928713835762
 21
327.6587916134351
 31
0.0
  0
LINE
  5
153
330
1F
100
AcDbEntity
  8
2
  6
Continuous
 62
     7
100
AcDbLine
 10
225.6428713835762
 20
319.1587916134351
 30
0.0
 11
225.6428713835762
 21
327.6587916134351
 31
0.0
  0
LINE
  5
154
330
1F
100
AcDbEntity
  8
2
  6
Continuous
 62
     7
100
AcDbLine
 10
225.6428713835762
 20
312.6041916134351
 30
0.0
 11
225.6428713835762
 21
317.6587916134351
 31
0.0
  0
LINE
  5
155
330
1F
100
AcDbEntity
  8
2
  6
Continuous
 62
     7
100
AcDbLine
 10
223.3928713835762
 20
319.1587916134351
 30
0.0
 11
225.6428713835762
 21
319.1587916134351
 31
0.0
  0
LINE
  5
156
330
1F
100
AcDbEntity
  8
2
  6
Continuous
 62
     7
100
AcDbLine
 10
225.6428713835762
 20
317.6587916134351
 30
0.0
 11
223.3928713835762
 21
317.6587916134351
 31
0.0
  0
LINE
  5
157
330
1F
100
AcDbEntity
  8
2
  6
Continuous
 62
     7
100
AcDbLine
 10
222.6428713835762
 20
301.9587916134351
 30
0.0
 11
222.6428713835762
 21
308.7312116134351
 31
0.0
  0
LINE
  5
158
330
1F
100
AcDbEntity
  8
2
  6
Continuous
 62
     7
100
AcDbLine
 10
217.6428713835762
 20
301.6587916134351
 30
0.0
 11
222.3428713835763
 21
301.6587916134351
 31
0.0
  0
LINE
  5
159
330
1F
100
AcDbEntity
  8
2
  6
Continuous
 62
     7
100
AcDbLine
 10
217.6428713835762
 20
301.9087916134351
 30
0.0
 11
217.6428713835762
 21
301.6587916134351
 31
0.0
  0
LINE
  5
15A
330
1F
100
AcDbEntity
  8
2
  6
Continuous
 62
     7
100
AcDbLine
 10
216.1428713835762
 20
301.6587916134351
 30
0.0
 11
216.1428713835762
 21
301.9087916134351
 31
0.0
  0
LINE
  5
15B
330
1F
100
AcDbEntity
  8
2
  6
Continuous
 62
     7
100
AcDbLine
 10
168.1428713835762
 20
301.9087916134351
 30
0.0
 11
168.1428713835762
 21
301.6587916134351
 31
0.0
  0
LINE
  5
15C
330
1F
100
AcDbEntity
  8
2
  6
Continuous
 62
     7
100
AcDbLine
 10
166.6428713835762
 20
301.6587916134351
 30
0.0
 11
166.6428713835762
 21
301.9087916134351
 31
0.0
  0
LINE
  5
15D
330
1F
100
AcDbEntity
  8
2
  6
Continuous
 62
     7
100
AcDbLine
 10
155.6428713835762
 20
301.9587916134351
 30
0.0
 11
155.6428713835762
 21
309.3587916134351
 31
0.0
  0
LINE
  5
15E
330
1F
100
AcDbEntity
  8
2
  6
Continuous
 62
     7
100
AcDbLine
 10
138.9428713835763
 20
301.6587916134351
 30
0.0
 11
155.3428713835763
 21
301.6587916134351
 31
0.0
  0
LINE
  5
15F
330
1F
100
AcDbEntity
  8
2
  6
Continuous
 62
     7
100
AcDbLine
 10
155.3428713835763
 20
309.6587916134351
 30
0.0
 11
146.6428713835762
 21
309.6587916134351
 31
0.0
  0
LINE
  5
160
330
1F
100
AcDbEntity
  8
2
  6
Continuous
 62
     7
100
AcDbLine
 10
146.3428713835763
 20
309.3587916134351
 30
0.0
 11
146.3428713835763
 21
307.9587916134351
 31
0.0
  0
LINE
  5
161
330
1F
100
AcDbEntity
  8
2
  6
Continuous
 62
     7
100
AcDbLine
 10
138.6428713835762
 20
306.1587916134351
 30
0.0
 11
138.6428713835762
 21
301.9587916134351
 31
0.0
  0
LINE
  5
162
330
1F
100
AcDbEntity
  8
2
  6
Continuous
 62
     7
100
AcDbLine
 10
144.8428713835763
 20
306.4587916134351
 30
0.0
 11
138.9428713835763
 21
306.4587916134351
 31
0.0
  0
LINE
  5
163
330
1F
100
AcDbEntity
  8
2
  6
Continuous
 62
     7
100
AcDbLine
 10
192.3525418864117
 20
345.8500475183208
 30
0.0
 11
161.5275018864117
 21
344.8558875183207
 31
0.0
  0
LINE
  5
164
330
1F
100
AcDbEntity
  8
2
  6
Continuous
 62
     7
100
AcDbLine
 10
192.6428713835762
 20
355.3587916134351
 30
0.0
 11
192.6428713835762
 21
346.1498916134351
 31
0.0
  0
LINE
  5
165
330
1F
100
AcDbEntity
  8
2
  6
Continuous
 62
     7
100
AcDbLine
 10
158.9428713835763
 20
355.658791613435
 30
0.0
 11
192.3428713835763
 21
355.658791613435
 31
0.0
  0
LINE
  5
166
330
1F
100
AcDbEntity
  8
2
  6
Continuous
 62
     7
100
AcDbLine
 10
158.6428713835762
 20
347.0084416134351
 30
0.0
 11
158.6428713835762
 21
355.3587916134351
 31
0.0
  0
LINE
  5
167
330
1F
100
AcDbEntity
  8
2
  6
Continuous
 62
     7
100
AcDbLine
 10
229.3428713835763
 20
347.6587916134351
 30
0.0
 11
228.9389113835763
 21
347.6587916134351
 31
0.0
  0
LINE
  5
168
330
1F
100
AcDbEntity
  8
2
  6
Continuous
 62
     7
100
AcDbLine
 10
229.6428713835762
 20
355.3587916134351
 30
0.0
 11
229.6428713835762
 21
347.9587916134351
 31
0.0
  0
LINE
  5
169
330
1F
100
AcDbEntity
  8
2
  6
Continuous
 62
     7
100
AcDbLine
 10
194.1428713835762
 20
355.658791613435
 30
0.0
 11
229.3428713835763
 21
355.6587916134351
 31
0.0
  0
LINE
  5
16A
330
1F
100
AcDbEntity
  8
2
  6
Continuous
 62
     7
100
AcDbLine
 10
193.8428713835763
 20
345.8594716134351
 30
0.0
 11
193.8428713835763
 21
355.3587916134351
 31
0.0
  0
LINE
  5
16B
330
1F
100
AcDbEntity
  8
2
  6
Continuous
 62
     7
100
AcDbLine
 10
224.1030445489133
 20
344.8108115761755
 30
0.0
 11
193.8428713835763
 21
345.8594716134351
 31
0.0
  0
LINE
  5
16C
330
1F
100
AcDbEntity
  8
2
  6
Continuous
 62
     7
100
AcDbLine
 10
168.1428713835762
 20
301.6587916134351
 30
0.0
 11
216.1428713835762
 21
301.6587916134351
 31
0.0
  0
LINE
  5
16D
330
1F
100
AcDbEntity
  8
LAYER02
  6
Continuous
 62
     7
100
AcDbLine
 10
219.6792943835763
 20
303.2541706134351
 30
0.0
 11
164.6792943835763
 21
303.2541706134351
 31
0.0
  0
LINE
  5
16E
330
1F
100
AcDbEntity
  8
LAYER02
  6
Continuous
 62
     7
100
AcDbLine
 10
110.8642863835763
 20
329.702872613435
 30
0.0
 11
113.6428713835762
 21
329.702872613435
 31
0.0
  0
LINE
  5
16F
330
1F
100
AcDbEntity
  8
LAYER01
  6
Continuous
 62
     7
100
AcDbLine
 10
113.6428713835762
 20
328.9542654712106
 30
0.0
 11
108.6882939260236
 21
329.1738539651827
 31
0.0
  0
LINE
  5
170
330
1F
100
AcDbEntity
  8
LAYER01
  6
Continuous
 62
     7
100
AcDbLine
 10
113.6428713835762
 20
327.7430785315871
 30
0.0
 11
108.7341394096065
 21
327.9754134972725
 31
0.0
  0
LINE
  5
171
330
1F
100
AcDbEntity
  8
LAYER01
  6
Continuous
 62
     7
100
AcDbLine
 10
113.6428713835762
 20
318.660589613435
 30
0.0
 11
108.5104323835763
 21
318.660589613435
 31
0.0
  0
LINE
  5
172
330
1F
100
AcDbEntity
  8
1
  6
Continuous
 62
     2
100
AcDbLine
 10
137.353482784519
 20
248.241027095356
 30
0.0
 11
199.946339256007
 21
248.241027095356
 31
0.0
  0
LINE
  5
173
330
1F
100
AcDbEntity
  8
1
  6
Continuous
 62
     2
100
AcDbLine
 10
137.353482784519
 20
248.241027095356
 30
0.0
 11
132.827139857861
 21
262.670697109077
 31
0.0
  0
ARC
  5
174
330
1F
100
AcDbEntity
  8
1
  6
Continuous
 62
     7
100
AcDbCircle
 10
119.6428713835762
 20
291.3087916134351
 30
0.0
 40
9.849999999999978
100
AcDbArc
 50
29.54372059872665
 51
62.81579037363085
  0
ARC
  5
175
330
1F
100
AcDbEntity
  8
1
  6
Continuous
 62
     7
100
AcDbCircle
 10
119.6428713835762
 20
291.3087916134351
 30
0.0
 40
9.849999999999904
100
AcDbArc
 50
62.81579037363085
 51
117.1842096263691
  0
ARC
  5
176
330
1F
100
AcDbEntity
  8
1
  6
Continuous
 62
     7
100
AcDbCircle
 10
119.6428713835762
 20
291.3087916134351
 30
0.0
 40
9.849999999999904
100
AcDbArc
 50
117.1842096263691
 51
-23.32455534601891
  0
ARC
  5
177
330
1F
100
AcDbEntity
  8
1
  6
Continuous
 62
     7
100
AcDbCircle
 10
119.6428713835762
 20
291.3087916134351
 30
0.0
 40
9.850000000000023
100
AcDbArc
 50
-23.32455534601891
 51
-18.65064599063445
  0
ARC
  5
178
330
1F
100
AcDbEntity
  8
1
  6
Continuous
 62
     7
100
AcDbCircle
 10
119.6428713835762
 20
291.3087916134351
 30
0.0
 40
9.850000000000025
100
AcDbArc
 50
-18.65064599063445
 51
5.82686927492069
  0
ARC
  5
179
330
1F
100
AcDbEntity
  8
LAYER02
  6
Continuous
 62
     7
100
AcDbCircle
 10
164.6792940100387
 20
305.7541702398975
 30
0.0
 40
0.4999996264625369
100
AcDbArc
 50
179.9999571957118
 51
-89.99995719571179
  0
ARC
  5
17A
330
1F
100
AcDbEntity
  8
LAYER02
  6
Continuous
 62
     7
100
AcDbCircle
 10
164.6792940100387
 20
340.7541709869727
 30
0.0
 40
0.4999996264625369
100
AcDbArc
 50
89.99995719571179
 51
-179.9999571957118
  0
ARC
  5
17B
330
1F
100
AcDbEntity
  8
LAYER02
  6
Continuous
 62
     7
100
AcDbCircle
 10
219.6792947571139
 20
340.7541709869727
 30
0.0
 40
0.4999996264625369
100
AcDbArc
 50
-0.00004280428822
 51
90.00004280428823
  0
ARC
  5
17C
330
1F
100
AcDbEntity
  8
LAYER02
  6
Continuous
 62
     7
100
AcDbCircle
 10
219.6792947571139
 20
305.7541702398975
 30
0.0
 40
0.4999996264625369
100
AcDbArc
 50
-90.00004280428823
 51
0.00004280428822
  0
ARC
  5
17D
330
1F
100
AcDbEntity
  8
LAYER02
  6
Continuous
 62
     7
100
AcDbCircle
 10
164.6792925158882
 20
340.7541724811231
 30
0.0
 40
2.499998132312741
100
AcDbArc
 50
89.99995719570983
 51
-179.9999571957131
  0
ARC
  5
17E
330
1F
100
AcDbEntity
  8
LAYER02
  6
Continuous
 62
     7
100
AcDbCircle
 10
164.6792925158882
 20
305.7541687457471
 30
0.0
 40
2.499998132312599
100
AcDbArc
 50
179.9999571957118
 51
-89.99995719570983
  0
ARC
  5
17F
330
1F
100
AcDbEntity
  8
LAYER02
  6
Continuous
 62
     7
100
AcDbCircle
 10
219.6792962512643
 20
340.7541724811231
 30
0.0
 40
2.499998132312685
100
AcDbArc
 50
-0.00004280428692
 51
90.00004280428823
  0
ARC
  5
180
330
1F
100
AcDbEntity
  8
LAYER02
  6
Continuous
 62
     7
100
AcDbCircle
 10
219.6792962512643
 20
305.7541687457471
 30
0.0
 40
2.499998132312685
100
AcDbArc
 50
-90.00004280428823
 51
0.00004280428822
  0
ARC
  5
181
330
1F
100
AcDbEntity
  8
LAYER02
  6
Continuous
 62
     7
100
AcDbCircle
 10
131.8642878777267
 20
331.7028711192847
 30
0.0
 40
1.999998505850261
100
AcDbArc
 50
-90.0000428042874
 51
0.00004280428496
  0
ARC
  5
182
330
1F
100
AcDbEntity
  8
LAYER02
  6
Continuous
 62
     7
100
AcDbCircle
 10
110.8642848894259
 20
331.7028711192847
 30
0.0
 40
1.999998505850162
100
AcDbArc
 50
179.999957195715
 51
-89.9999571957122
  0
ARC
  5
183
330
1F
100
AcDbEntity
  8
LAYER02
  6
Continuous
 62
     7
100
AcDbCircle
 10
131.8642867571139
 20
331.7028722398975
 30
0.0
 40
0.4999996264626506
100
AcDbArc
 50
-90.00004280428497
 51
0.00004280427519
  0
ARC
  5
184
330
1F
100
AcDbEntity
  8
LAYER02
  6
Continuous
 62
     7
100
AcDbCircle
 10
110.8642860100387
 20
331.7028722398975
 30
0.0
 40
0.4999996264625369
100
AcDbArc
 50
179.9999571957248
 51
-89.99995719571179
  0
ARC
  5
185
330
1F
100
AcDbEntity
  8
LAYER01
  6
Continuous
 62
     7
100
AcDbCircle
 10
142.5263003835763
 20
316.6635196134351
 30
0.0
 40
1.000000000000057
100
AcDbArc
 50
-90.80777669194732
 51
0.0
  0
ARC
  5
186
330
1F
100
AcDbEntity
  8
LAYER01
  6
Continuous
 62
     7
100
AcDbCircle
 10
140.5680273835763
 20
318.6591706134351
 30
0.0
 40
0.5
100
AcDbArc
 50
-90.0
 51
0.0
  0
ARC
  5
187
330
1F
100
AcDbEntity
  8
LAYER01
  6
Continuous
 62
     7
100
AcDbCircle
 10
105.0179697571139
 20
332.1739219869727
 30
0.0
 40
0.4999996264625369
100
AcDbArc
 50
-0.00004280428822
 51
90.00004280428823
  0
ARC
  5
188
330
1F
100
AcDbEntity
  8
LAYER01
  6
Continuous
 62
     7
100
AcDbCircle
 10
105.0179697571139
 20
318.6643842398975
 30
0.0
 40
0.4999996264625369
100
AcDbArc
 50
-90.00004280428823
 51
0.00004280428822
  0
ARC
  5
189
330
1F
100
AcDbEntity
  8
LAYER01
  6
Continuous
 62
     7
100
AcDbCircle
 10
143.2263003835763
 20
320.3582056134351
 30
0.0
 40
0.3000000000000114
100
AcDbArc
 50
0.0
 51
105.4912460000022
  0
ARC
  5
18A
330
1F
100
AcDbEntity
  8
LAYER01
  6
Continuous
 62
     7
100
AcDbCircle
 10
99.12403444447108
 20
372.0935279036058
 30
0.0
 40
0.2999999391052368
100
AcDbArc
 50
-120.068408535019
 51
-0.00005541852255
  0
ARC
  5
18B
330
1F
100
AcDbEntity
  8
LAYER01
  6
Continuous
 62
     7
100
AcDbCircle
 10
105.0179697571139
 20
372.6854509869727
 30
0.0
 40
0.4999996264625369
100
AcDbArc
 50
-0.00004280428822
 51
90.00004280428823
  0
ARC
  5
18C
330
1F
100
AcDbEntity
  8
LAYER01
  6
Continuous
 62
     7
100
AcDbCircle
 10
105.0191875588568
 20
359.1194572805007
 30
0.0
 40
0.4987818650850367
100
AcDbArc
 50
-89.17107907513794
 51
-0.02305091075742
  0
ARC
  5
18D
330
1F
100
AcDbEntity
  8
LAYER01
  6
Continuous
 62
     7
100
AcDbCircle
 10
105.029399128293
 20
356.2780125153076
 30
0.0
 40
0.4999992552833089
100
AcDbArc
 50
0.00001124460493
 51
82.45396687434882
  0
ARC
  5
18E
330
1F
100
AcDbEntity
  8
LAYER01
  6
Continuous
 62
     7
100
AcDbCircle
 10
105.0293980489397
 20
335.0225340265505
 30
0.0
 40
0.500000334637052
100
AcDbArc
 50
-82.46553318680105
 51
0.00006725197582
  0
ARC
  5
18F
330
1F
100
AcDbEntity
  8
LAYER01
  6
Continuous
 62
     7
100
AcDbCircle
 10
99.12403483862988
 20
356.0310175814541
 30
0.0
 40
0.299999812547357
100
AcDbArc
 50
-120.071157758982
 51
-2.93405788251327
  0
ARC
  5
190
330
1F
100
AcDbEntity
  8
LAYER01
  6
Continuous
 62
     7
100
AcDbCircle
 10
99.12403483862988
 20
359.3719746454161
 30
0.0
 40
0.2999998125474532
100
AcDbArc
 50
2.9340578824699
 51
120.071157758982
  0
ARC
  5
191
330
1F
100
AcDbEntity
  8
LAYER01
  6
Continuous
 62
     7
100
AcDbCircle
 10
108.7144003835763
 20
372.2757626134351
 30
0.0
 40
0.5
100
AcDbArc
 50
90.0
 51
180.0
  0
ARC
  5
192
330
1F
100
AcDbEntity
  8
LAYER01
  6
Continuous
 62
     7
100
AcDbCircle
 10
108.7144003835763
 20
362.1242366134351
 30
0.0
 40
0.5
100
AcDbArc
 50
180.0
 51
-89.99649100000096
  0
ARC
  5
193
330
1F
100
AcDbEntity
  8
LAYER01
  6
Continuous
 62
     7
100
AcDbCircle
 10
108.7104323835763
 20
359.891537613435
 30
0.0
 40
0.5000000000001648
100
AcDbArc
 50
89.99928499999805
 51
180.0
  0
ARC
  5
194
330
1F
100
AcDbEntity
  8
LAYER01
  6
Continuous
 62
     7
100
AcDbCircle
 10
99.12403483862988
 20
335.2370046454161
 30
0.0
 40
0.299999812547459
100
AcDbArc
 50
2.93405788249159
 51
120.0711577589766
  0
ARC
  5
195
330
1F
100
AcDbEntity
  8
LAYER01
  6
Continuous
 62
     7
100
AcDbCircle
 10
99.12403483862988
 20
331.8960475814541
 30
0.0
 40
0.2999998125474062
100
AcDbArc
 50
-120.0711577589766
 51
-2.93405788252411
  0
ARC
  5
196
330
1F
100
AcDbEntity
  8
LAYER01
  6
Continuous
 62
     7
100
AcDbCircle
 10
108.7104323835763
 20
329.6733636134351
 30
0.0
 40
0.5
100
AcDbArc
 50
180.0
 51
-92.53771000000471
  0
ARC
  5
197
330
1F
100
AcDbEntity
  8
LAYER01
  6
Continuous
 62
     7
100
AcDbCircle
 10
108.7105003835763
 20
327.475972613435
 30
0.0
 40
0.5000000000000474
100
AcDbArc
 50
87.29015700000701
 51
180.0
  0
ARC
  5
198
330
1F
100
AcDbEntity
  8
LAYER01
  6
Continuous
 62
     7
100
AcDbCircle
 10
157.3454533835763
 20
373.6727356134351
 30
0.0
 40
1.999999999999827
100
AcDbArc
 50
10.28560499999689
 51
90.00000499999969
  0
ARC
  5
199
330
1F
100
AcDbEntity
  8
LAYER01
  6
Continuous
 62
     7
100
AcDbCircle
 10
158.441508943865
 20
364.1314697308371
 30
0.0
 40
0.5000001174023238
100
AcDbArc
 50
-90.00006420434025
 51
10.01882438117569
  0
ARC
  5
19A
330
1F
100
AcDbEntity
  8
LAYER01
  6
Continuous
 62
     7
100
AcDbCircle
 10
158.0886941101438
 20
366.1285436448098
 30
0.0
 40
0.4999999686253124
100
AcDbArc
 50
10.01883740374688
 51
89.999968666941
  0
ARC
  5
19B
330
1F
100
AcDbEntity
  8
LAYER01
  6
Continuous
 62
     7
100
AcDbCircle
 10
152.5445420100387
 20
366.1285439869727
 30
0.0
 40
0.4999996264625369
100
AcDbArc
 50
89.99995719571179
 51
-179.9999571957118
  0
ARC
  5
19C
330
1F
100
AcDbEntity
  8
LAYER01
  6
Continuous
 62
     7
100
AcDbCircle
 10
152.5445420100387
 20
364.1314692398975
 30
0.0
 40
0.4999996264625369
100
AcDbArc
 50
179.9999571957118
 51
-89.99995719571179
  0
ARC
  5
19D
330
1F
100
AcDbEntity
  8
LAYER01
  6
Continuous
 62
     7
100
AcDbCircle
 10
139.1981843835763
 20
359.6178386134351
 30
0.0
 40
4.699999999999989
100
AcDbArc
 50
90.0
 51
151.164329
  0
ARC
  5
19E
330
1F
100
AcDbEntity
  8
LAYER01
  6
Continuous
 62
     7
100
AcDbCircle
 10
135.2304923835763
 20
353.5058856134351
 30
0.0
 40
0.4999999999999444
100
AcDbArc
 50
7.09030100000141
 51
62.28515499999997
  0
ARC
  5
19F
330
1F
100
AcDbEntity
  8
LAYER01
  6
Continuous
 62
     7
100
AcDbCircle
 10
134.6606703835763
 20
354.6255416134351
 30
0.0
 40
0.3000000000000794
100
AcDbArc
 50
123.5157940000098
 51
-117.7148449999959
  0
ARC
  5
1A0
330
1F
100
AcDbEntity
  8
LAYER01
  6
Continuous
 62
     7
100
AcDbCircle
 10
134.9515283835763
 20
355.6726066134351
 30
0.0
 40
0.5000000000000907
100
AcDbArc
 50
-56.48420600000922
 51
6.94784100000472
  0
ARC
  5
1A1
330
1F
100
AcDbEntity
  8
LAYER01
  6
Continuous
 62
     7
100
AcDbCircle
 10
134.4374453835763
 20
359.891222613435
 30
0.0
 40
0.500000000000012
100
AcDbArc
 50
6.94784100001608
 51
89.99928499999642
  0
ARC
  5
1A2
330
1F
100
AcDbEntity
  8
LAYER01
  6
Continuous
 62
     7
100
AcDbCircle
 10
134.6429497865781
 20
362.1257937091493
 30
0.0
 40
0.5000000957511235
100
AcDbArc
 50
-89.99642258974383
 51
-28.83560258974909
  0
ARC
  5
1A3
330
1F
100
AcDbEntity
  8
LAYER01
  6
Continuous
 62
     7
100
AcDbCircle
 10
140.0924093835763
 20
372.2757626134351
 30
0.0
 40
0.5
100
AcDbArc
 50
0.0
 51
90.0
  0
ARC
  5
1A4
330
1F
100
AcDbEntity
  8
LAYER01
  6
Continuous
 62
     7
100
AcDbCircle
 10
142.3557373835763
 20
372.2757626134351
 30
0.0
 40
0.5
100
AcDbArc
 50
90.0
 51
180.0
  0
ARC
  5
1A5
330
1F
100
AcDbEntity
  8
LAYER01
  6
Continuous
 62
     7
100
AcDbCircle
 10
139.6668693835763
 20
359.6285406134351
 30
0.0
 40
2.000000000000008
100
AcDbArc
 50
90.00000499999969
 51
-172.4436519999983
  0
ARC
  5
1A6
330
1F
100
AcDbEntity
  8
LAYER01
  6
Continuous
 62
     7
100
AcDbCircle
 10
140.0924093835763
 20
364.8178386134351
 30
0.0
 40
0.5
100
AcDbArc
 50
-90.0
 51
0.0
  0
ARC
  5
1A7
330
1F
100
AcDbEntity
  8
LAYER01
  6
Continuous
 62
     7
100
AcDbCircle
 10
142.3557373835763
 20
364.808825613435
 30
0.0
 40
0.5
100
AcDbArc
 50
180.0
 51
-90.0
  0
ARC
  5
1A8
330
1F
100
AcDbEntity
  8
LAYER01
  6
Continuous
 62
     7
100
AcDbCircle
 10
152.5420013835763
 20
363.133545613435
 30
0.0
 40
1.5
100
AcDbArc
 50
-90.0
 51
0.00000300000421
  0
ARC
  5
1A9
330
1F
100
AcDbEntity
  8
LAYER01
  6
Continuous
 62
     7
100
AcDbCircle
 10
150.0338503835763
 20
364.808825613435
 30
0.0
 40
0.5
100
AcDbArc
 50
-90.0
 51
0.0
  0
ARC
  5
1AA
330
1F
100
AcDbEntity
  8
LAYER01
  6
Continuous
 62
     7
100
AcDbCircle
 10
152.5338503835763
 20
366.1162746134351
 30
0.0
 40
2.0
100
AcDbArc
 50
90.0
 51
180.0
  0
ARC
  5
1AB
330
1F
100
AcDbEntity
  8
LAYER01
  6
Continuous
 62
     7
100
AcDbCircle
 10
136.3096953835763
 20
333.7148126134351
 30
0.0
 40
0.5
100
AcDbArc
 50
0.0
 51
77.8494579999955
  0
ARC
  5
1AC
330
1F
100
AcDbEntity
  8
LAYER01
  6
Continuous
 62
     7
100
AcDbCircle
 10
137.0239903835763
 20
325.7427236134351
 30
0.0
 40
0.4999999999999748
100
AcDbArc
 50
75.01087599999713
 51
180.0
  0
ARC
  5
1AD
330
1F
100
AcDbEntity
  8
LAYER01
  6
Continuous
 62
     7
100
AcDbCircle
 10
136.3096953835763
 20
329.671802613435
 30
0.0
 40
0.4999999999999372
100
AcDbArc
 50
-88.31554500000794
 51
0.0
  0
ARC
  5
1AE
330
1F
100
AcDbEntity
  8
LAYER01
  6
Continuous
 62
     7
100
AcDbCircle
 10
136.3096953835763
 20
336.0747346134351
 30
0.0
 40
0.5000000000000151
100
AcDbArc
 50
-77.84945900001365
 51
0.0
  0
ARC
  5
1AF
330
1F
100
AcDbEntity
  8
LAYER01
  6
Continuous
 62
     7
100
AcDbCircle
 10
136.3096953835763
 20
343.613128613435
 30
0.0
 40
0.5
100
AcDbArc
 50
0.0
 51
77.84541000000175
  0
ARC
  5
1B0
330
1F
100
AcDbEntity
  8
LAYER01
  6
Continuous
 62
     7
100
AcDbCircle
 10
136.2835583835763
 20
345.9256426134351
 30
0.0
 40
0.5000000000001265
100
AcDbArc
 50
-77.44295999999652
 51
7.09030100000141
  0
ARC
  5
1B1
330
1F
100
AcDbEntity
  8
LAYER01
  6
Continuous
 62
     7
100
AcDbCircle
 10
134.6484143835763
 20
334.8947736134351
 30
0.0
 40
0.2999999999999546
100
AcDbArc
 50
95.00715800000964
 51
-95.00715900002584
  0
ARC
  5
1B2
330
1F
100
AcDbEntity
  8
LAYER01
  6
Continuous
 62
     7
100
AcDbCircle
 10
133.3257763835763
 20
327.3474396134351
 30
0.0
 40
0.5
100
AcDbArc
 50
0.0
 51
91.5990989999965
  0
ARC
  5
1B3
330
1F
100
AcDbEntity
  8
LAYER01
  6
Continuous
 62
     7
100
AcDbCircle
 10
134.6517143835763
 20
344.7925136134351
 30
0.0
 40
0.2999999999999471
100
AcDbArc
 50
95.00715799999342
 51
-95.00715899998798
  0
ARC
  5
1B4
330
1F
100
AcDbEntity
  8
LAYER01
  6
Continuous
 62
     7
100
AcDbCircle
 10
140.0296353835763
 20
329.1066736134351
 30
0.0
 40
0.5000000000000077
100
AcDbArc
 50
-177.0476909999903
 51
-78.97754899999937
  0
ARC
  5
1B5
330
1F
100
AcDbEntity
  8
LAYER01
  6
Continuous
 62
     7
100
AcDbCircle
 10
143.2219763835763
 20
328.8532906134351
 30
0.0
 40
0.2999999999999829
100
AcDbArc
 50
0.0
 51
100.3172589999925
  0
ARC
  5
1B6
330
1F
100
AcDbEntity
  8
LAYER01
  6
Continuous
 62
     7
100
AcDbCircle
 10
143.0219763835763
 20
325.1720126134351
 30
0.0
 40
0.4999999999999198
100
AcDbArc
 50
-104.9891240000046
 51
0.0
  0
ARC
  5
1B7
330
1F
100
AcDbEntity
  8
LAYER01
  6
Continuous
 62
     7
100
AcDbCircle
 10
155.9359223835763
 20
372.2757626134351
 30
0.0
 40
0.4999999999999997
100
AcDbArc
 50
9.10621299999808
 51
90.0
  0
ARC
  5
1B8
330
1F
100
AcDbEntity
  8
LAYER01
  6
Continuous
 62
     7
100
AcDbCircle
 10
156.5224843835763
 20
368.6162746134351
 30
0.0
 40
0.5
100
AcDbArc
 50
-90.0
 51
9.10621300000503
  0
ARC
  5
1B9
330
1F
100
AcDbEntity
  8
LAYER01
  6
Continuous
 62
     7
100
AcDbCircle
 10
158.5962993835763
 20
363.133545613435
 30
0.0
 40
1.5
100
AcDbArc
 50
180.0
 51
-90.0
  0
ARC
  5
1BA
330
1F
100
AcDbEntity
  8
LAYER01
  6
Continuous
 62
     7
100
AcDbCircle
 10
108.5104321234231
 20
318.9605896247141
 30
0.0
 40
0.3000000112790658
100
AcDbArc
 50
-179.2274363710975
 51
-89.99995031440052
  0
ARC
  5
1BB
330
1F
100
AcDbEntity
  8
LAYER01
  6
Continuous
 62
     7
100
AcDbCircle
 10
99.12403439345928
 20
319.2415388674173
 30
0.0
 40
0.2999999901170947
100
AcDbArc
 50
-0.00004850702746
 51
122.2745414774273
  0
ARC
  5
1BC
330
1F
100
AcDbEntity
  8
LAYER01
  6
Continuous
 62
     7
100
AcDbCircle
 10
137.0300023835763
 20
318.6581936134351
 30
0.0
 40
0.5000000000000314
100
AcDbArc
 50
-179.9999449999945
 51
-89.88749200000404
  0
ARC
  5
1BD
330
1F
100
AcDbEntity
  8
LAYER01
  6
Continuous
 62
     7
100
AcDbCircle
 10
133.3257763835763
 20
319.1598556134351
 30
0.0
 40
0.5
100
AcDbArc
 50
-90.0
 51
0.0
  0
ARC
  5
1BE
330
1F
100
AcDbEntity
  8
2
  6
Continuous
 62
     7
100
AcDbCircle
 10
158.3428713835763
 20
343.4587916134351
 30
0.0
 40
0.2999999999998977
100
AcDbArc
 50
0.0
 51
90.0
  0
ARC
  5
1BF
330
1F
100
AcDbEntity
  8
2
  6
Continuous
 62
     7
100
AcDbCircle
 10
144.6428713835762
 20
311.1587916134351
 30
0.0
 40
1.5
100
AcDbArc
 50
90.0
 51
180.0
  0
ARC
  5
1C0
330
1F
100
AcDbEntity
  8
2
  6
Continuous
 62
     7
100
AcDbCircle
 10
144.8428713835763
 20
310.3587916134351
 30
0.0
 40
0.2999999999998977
100
AcDbArc
 50
0.0
 51
90.0
  0
ARC
  5
1C1
330
1F
100
AcDbEntity
  8
2
  6
Continuous
 62
     7
100
AcDbCircle
 10
138.4428713835763
 20
310.3587916134351
 30
0.0
 40
0.3000000000000114
100
AcDbArc
 50
90.0
 51
180.0
  0
ARC
  5
1C2
330
1F
100
AcDbEntity
  8
2
  6
Continuous
 62
     7
100
AcDbCircle
 10
138.6428713835762
 20
311.1587916134351
 30
0.0
 40
1.5
100
AcDbArc
 50
0.0
 51
90.0
  0
ARC
  5
1C3
330
1F
100
AcDbEntity
  8
2
  6
Continuous
 62
     7
100
AcDbCircle
 10
137.6428713835762
 20
300.6587916134351
 30
0.0
 40
2.0
100
AcDbArc
 50
180.0
 51
-90.0
  0
ARC
  5
1C4
330
1F
100
AcDbEntity
  8
2
  6
Continuous
 62
     7
100
AcDbCircle
 10
231.6428713835762
 20
299.6587916134351
 30
0.0
 40
1.0
100
AcDbArc
 50
-90.0
 51
0.0
  0
ARC
  5
1C5
330
1F
100
AcDbEntity
  8
2
  6
Continuous
 62
     7
100
AcDbCircle
 10
229.8428713835763
 20
301.4587916134351
 30
0.0
 40
0.3000000000000114
100
AcDbArc
 50
-90.0
 51
0.0
  0
ARC
  5
1C6
330
1F
100
AcDbEntity
  8
2
  6
Continuous
 62
     7
100
AcDbCircle
 10
226.1428713835762
 20
301.6587916134351
 30
0.0
 40
0.5
100
AcDbArc
 50
180.0
 51
-90.0
  0
ARC
  5
1C7
330
1F
100
AcDbEntity
  8
2
  6
Continuous
 62
     7
100
AcDbCircle
 10
226.1428713835762
 20
308.7312116134351
 30
0.0
 40
0.4999999999998873
100
AcDbArc
 50
74.99999999997848
 51
180.0
  0
ARC
  5
1C8
330
1F
100
AcDbEntity
  8
2
  6
Continuous
 62
     7
100
AcDbCircle
 10
232.1428713835762
 20
308.1587916134351
 30
0.0
 40
0.4999999999999383
100
AcDbArc
 50
-104.999999999993
 51
0.0
  0
ARC
  5
1C9
330
1F
100
AcDbEntity
  8
2
  6
Continuous
 62
     7
100
AcDbCircle
 10
229.1428713835762
 20
312.0493616134351
 30
0.0
 40
0.5
100
AcDbArc
 50
180.0
 51
-79.99999999998535
  0
ARC
  5
1CA
330
1F
100
AcDbEntity
  8
2
  6
Continuous
 62
     7
100
AcDbCircle
 10
228.9389113835763
 20
342.6587916134351
 30
0.0
 40
2.0
100
AcDbArc
 50
90.0
 51
-173.0000000000008
  0
ARC
  5
1CB
330
1F
100
AcDbEntity
  8
2
  6
Continuous
 62
     7
100
AcDbCircle
 10
241.6428713835762
 20
346.1587916134351
 30
0.0
 40
1.5
100
AcDbArc
 50
-90.0
 51
0.0
  0
ARC
  5
1CC
330
1F
100
AcDbEntity
  8
2
  6
Continuous
 62
     7
100
AcDbCircle
 10
241.5593613835763
 20
346.9587916134351
 30
0.0
 40
0.3000000000000966
100
AcDbArc
 50
180.0
 51
-90.0
  0
ARC
  5
1CD
330
1F
100
AcDbEntity
  8
2
  6
Continuous
 62
     7
100
AcDbCircle
 10
241.5593613835763
 20
349.3587916134351
 30
0.0
 40
0.3000000000000114
100
AcDbArc
 50
90.0
 51
180.0
  0
ARC
  5
1CE
330
1F
100
AcDbEntity
  8
2
  6
Continuous
 62
     7
100
AcDbCircle
 10
247.4786513835762
 20
349.3587916134351
 30
0.0
 40
0.3000000000001645
100
AcDbArc
 50
10.00000000000402
 51
90.0
  0
ARC
  5
1CF
330
1F
100
AcDbEntity
  8
2
  6
Continuous
 62
     7
100
AcDbCircle
 10
247.9018413835763
 20
346.9587916134351
 30
0.0
 40
0.3000000000000114
100
AcDbArc
 50
-90.0
 51
10.00000000001156
  0
ARC
  5
1D0
330
1F
100
AcDbEntity
  8
2
  6
Continuous
 62
     7
100
AcDbCircle
 10
247.6428713835762
 20
346.1587916134351
 30
0.0
 40
1.5
100
AcDbArc
 50
180.0
 51
-90.0
  0
ARC
  5
1D1
330
1F
100
AcDbEntity
  8
2
  6
Continuous
 62
     7
100
AcDbCircle
 10
246.4960913835763
 20
356.6587916134351
 30
0.0
 40
2.000000000000006
100
AcDbArc
 50
10.00000000000182
 51
90.0
  0
ARC
  5
1D2
330
1F
100
AcDbEntity
  8
2
  6
Continuous
 62
     7
100
AcDbCircle
 10
144.8428713835763
 20
307.9587916134351
 30
0.0
 40
0.3000000000000114
100
AcDbArc
 50
-90.0
 51
0.0
  0
ARC
  5
1D3
330
1F
100
AcDbEntity
  8
2
  6
Continuous
 62
     7
100
AcDbCircle
 10
138.4428713835763
 20
307.9587916134351
 30
0.0
 40
0.3000000000000966
100
AcDbArc
 50
180.0
 51
-90.0
  0
ARC
  5
1D4
330
1F
100
AcDbEntity
  8
2
  6
Continuous
 62
     7
100
AcDbCircle
 10
155.3428713835763
 20
312.9587916134351
 30
0.0
 40
0.3000000000000114
100
AcDbArc
 50
-90.0
 51
0.0
  0
ARC
  5
1D5
330
1F
100
AcDbEntity
  8
2
  6
Continuous
 62
     7
100
AcDbCircle
 10
158.3428713835763
 20
319.8587916134351
 30
0.0
 40
0.2999999999999545
100
AcDbArc
 50
-90.0
 51
0.0
  0
ARC
  5
1D6
330
1F
100
AcDbEntity
  8
2
  6
Continuous
 62
     7
100
AcDbCircle
 10
245.4052613835763
 20
355.3587916134351
 30
0.0
 40
0.2999999999999686
100
AcDbArc
 50
10.00000000001062
 51
90.0
  0
ARC
  5
1D7
330
1F
100
AcDbEntity
  8
2
  6
Continuous
 62
     7
100
AcDbCircle
 10
246.1458413835763
 20
351.1587916134351
 30
0.0
 40
0.3000000000000114
100
AcDbArc
 50
-90.0
 51
10.00000000001533
  0
ARC
  5
1D8
330
1F
100
AcDbEntity
  8
2
  6
Continuous
 62
     7
100
AcDbCircle
 10
241.5593613835763
 20
349.3587916134351
 30
0.0
 40
1.5
100
AcDbArc
 50
90.0
 51
180.0
  0
ARC
  5
1D9
330
1F
100
AcDbEntity
  8
2
  6
Continuous
 62
     7
100
AcDbCircle
 10
231.1428713835762
 20
347.9587916134351
 30
0.0
 40
0.2999999999998977
100
AcDbArc
 50
180.0
 51
-90.0
  0
ARC
  5
1DA
330
1F
100
AcDbEntity
  8
2
  6
Continuous
 62
     7
100
AcDbCircle
 10
239.7593613835762
 20
347.9587916134351
 30
0.0
 40
0.3000000000000114
100
AcDbArc
 50
-90.0
 51
0.0
  0
ARC
  5
1DB
330
1F
100
AcDbEntity
  8
2
  6
Continuous
 62
     7
100
AcDbCircle
 10
231.1428713835762
 20
355.3587916134351
 30
0.0
 40
0.3000000000000114
100
AcDbArc
 50
90.0
 51
180.0
  0
ARC
  5
1DC
330
1F
100
AcDbEntity
  8
2
  6
Continuous
 62
     7
100
AcDbCircle
 10
157.1428713835762
 20
301.9587916134351
 30
0.0
 40
0.2999999999998977
100
AcDbArc
 50
180.0
 51
-90.0
  0
ARC
  5
1DD
330
1F
100
AcDbEntity
  8
2
  6
Continuous
 62
     7
100
AcDbCircle
 10
157.1428701247009
 20
309.8411008866232
 30
0.0
 40
0.2999987411254721
100
AcDbArc
 50
119.9998611885397
 51
179.9998611885714
  0
ARC
  5
1DE
330
1F
100
AcDbEntity
  8
2
  6
Continuous
 62
     7
100
AcDbCircle
 10
155.3428713835763
 20
312.9587916134351
 30
0.0
 40
3.299999999999959
100
AcDbArc
 50
-59.99999999999947
 51
0.0
  0
ARC
  5
1DF
330
1F
100
AcDbEntity
  8
2
  6
Continuous
 62
     7
100
AcDbCircle
 10
158.3428713835763
 20
319.8587916134351
 30
0.0
 40
3.29999999999998
100
AcDbArc
 50
-80.40593000000199
 51
0.0
  0
ARC
  5
1E0
330
1F
100
AcDbEntity
  8
2
  6
Continuous
 62
     7
100
AcDbCircle
 10
158.9428728026254
 20
316.3091425442605
 30
0.0
 40
0.3000014190505464
100
AcDbArc
 50
99.5942777737424
 51
-179.9998222262804
  0
ARC
  5
1E1
330
1F
100
AcDbEntity
  8
2
  6
Continuous
 62
     7
100
AcDbCircle
 10
161.9428713835763
 20
343.3685016134351
 30
0.0
 40
0.3000000000000265
100
AcDbArc
 50
91.84719999999913
 51
180.0
  0
ARC
  5
1E2
330
1F
100
AcDbEntity
  8
2
  6
Continuous
 62
     7
100
AcDbCircle
 10
193.2428713835763
 20
344.2587916134351
 30
0.0
 40
0.600000000000108
100
AcDbArc
 50
180.0
 51
0.0
  0
ARC
  5
1E3
330
1F
100
AcDbEntity
  8
2
  6
Continuous
 62
     7
100
AcDbCircle
 10
223.4592813835763
 20
343.1317316134351
 30
0.0
 40
0.4999999999999928
100
AcDbArc
 50
-4.93288899999732
 51
88.01440000000498
  0
ARC
  5
1E4
330
1F
100
AcDbEntity
  8
2
  6
Continuous
 62
     7
100
AcDbCircle
 10
228.9389128440021
 20
342.6587991538577
 30
0.0
 40
5.000002368491685
100
AcDbArc
 50
175.0671837232621
 51
-172.9999162767382
  0
ARC
  5
1E5
330
1F
100
AcDbEntity
  8
2
  6
Continuous
 62
     7
100
AcDbCircle
 10
223.3928713835762
 20
337.9087916134351
 30
0.0
 40
0.75
100
AcDbArc
 50
90.0
 51
-90.0
  0
ARC
  5
1E6
330
1F
100
AcDbEntity
  8
2
  6
Continuous
 62
     7
100
AcDbCircle
 10
223.3928713835762
 20
328.4087916134351
 30
0.0
 40
0.75
100
AcDbArc
 50
90.0
 51
-90.0
  0
ARC
  5
1E7
330
1F
100
AcDbEntity
  8
2
  6
Continuous
 62
     7
100
AcDbCircle
 10
223.3928713835762
 20
318.4087916134351
 30
0.0
 40
0.75
100
AcDbArc
 50
90.0
 51
-90.0
  0
ARC
  5
1E8
330
1F
100
AcDbEntity
  8
2
  6
Continuous
 62
     7
100
AcDbCircle
 10
225.1428713835762
 20
312.6041916134351
 30
0.0
 40
0.5000000000000205
100
AcDbArc
 50
-75.52248999998758
 51
0.0
  0
ARC
  5
1E9
330
1F
100
AcDbEntity
  8
2
  6
Continuous
 62
     7
100
AcDbCircle
 10
226.1428687307902
 20
308.7312103220673
 30
0.0
 40
3.49999734721418
100
AcDbArc
 50
104.4774788600052
 51
179.9999788600051
  0
ARC
  5
1EA
330
1F
100
AcDbEntity
  8
2
  6
Continuous
 62
     7
100
AcDbCircle
 10
222.3428713835763
 20
301.9587916134351
 30
0.0
 40
0.3000000000000114
100
AcDbArc
 50
-90.0
 51
0.0
  0
ARC
  5
1EB
330
1F
100
AcDbEntity
  8
2
  6
Continuous
 62
     7
100
AcDbCircle
 10
216.8928713835762
 20
301.9087916134351
 30
0.0
 40
0.75
100
AcDbArc
 50
0.0
 51
180.0
  0
ARC
  5
1EC
330
1F
100
AcDbEntity
  8
2
  6
Continuous
 62
     7
100
AcDbCircle
 10
167.3928713835762
 20
301.9087916134351
 30
0.0
 40
0.75
100
AcDbArc
 50
0.0
 51
180.0
  0
ARC
  5
1ED
330
1F
100
AcDbEntity
  8
2
  6
Continuous
 62
     7
100
AcDbCircle
 10
155.3428713835763
 20
301.9587916134351
 30
0.0
 40
0.3000000000000114
100
AcDbArc
 50
-90.0
 51
0.0
  0
ARC
  5
1EE
330
1F
100
AcDbEntity
  8
2
  6
Continuous
 62
     7
100
AcDbCircle
 10
155.3428713835763
 20
309.3587916134351
 30
0.0
 40
0.2999999999998977
100
AcDbArc
 50
0.0
 51
90.0
  0
ARC
  5
1EF
330
1F
100
AcDbEntity
  8
2
  6
Continuous
 62
     7
100
AcDbCircle
 10
146.6428713835762
 20
309.3587916134351
 30
0.0
 40
0.3000000000000114
100
AcDbArc
 50
90.0
 51
180.0
  0
ARC
  5
1F0
330
1F
100
AcDbEntity
  8
2
  6
Continuous
 62
     7
100
AcDbCircle
 10
144.8428713835763
 20
307.9587916134351
 30
0.0
 40
1.5
100
AcDbArc
 50
-90.0
 51
0.0
  0
ARC
  5
1F1
330
1F
100
AcDbEntity
  8
2
  6
Continuous
 62
     7
100
AcDbCircle
 10
138.9428713835763
 20
306.1587916134351
 30
0.0
 40
0.3000000000000114
100
AcDbArc
 50
90.0
 51
180.0
  0
ARC
  5
1F2
330
1F
100
AcDbEntity
  8
2
  6
Continuous
 62
     7
100
AcDbCircle
 10
138.9428713835763
 20
301.9587916134351
 30
0.0
 40
0.3000000000000966
100
AcDbArc
 50
180.0
 51
-90.0
  0
ARC
  5
1F3
330
1F
100
AcDbEntity
  8
2
  6
Continuous
 62
     7
100
AcDbCircle
 10
192.3428713835763
 20
346.1498916134351
 30
0.0
 40
0.2999999999999861
100
AcDbArc
 50
-88.15275000000754
 51
0.0
  0
ARC
  5
1F4
330
1F
100
AcDbEntity
  8
2
  6
Continuous
 62
     7
100
AcDbCircle
 10
192.3428713835763
 20
355.3587916134351
 30
0.0
 40
0.2999999999998977
100
AcDbArc
 50
0.0
 51
90.0
  0
ARC
  5
1F5
330
1F
100
AcDbEntity
  8
2
  6
Continuous
 62
     7
100
AcDbCircle
 10
158.9428713835763
 20
355.3587916134351
 30
0.0
 40
0.2999999999999545
100
AcDbArc
 50
90.0
 51
180.0
  0
ARC
  5
1F6
330
1F
100
AcDbEntity
  8
2
  6
Continuous
 62
     7
100
AcDbCircle
 10
158.9428737319206
 20
347.0084414680074
 30
0.0
 40
0.300002348344442
100
AcDbArc
 50
179.9999722255743
 51
-99.59409777441017
  0
ARC
  5
1F7
330
1F
100
AcDbEntity
  8
2
  6
Continuous
 62
     7
100
AcDbCircle
 10
158.3428713835763
 20
343.4587916134351
 30
0.0
 40
3.300000000000024
100
AcDbArc
 50
28.146764442629
 51
80.40589999999992
  0
ARC
  5
1F8
330
1F
100
AcDbEntity
  8
2
  6
Continuous
 62
     7
100
AcDbCircle
 10
228.9389113835763
 20
342.6587916134351
 30
0.0
 40
5.0
100
AcDbArc
 50
90.0
 51
151.1753
  0
ARC
  5
1F9
330
1F
100
AcDbEntity
  8
2
  6
Continuous
 62
     7
100
AcDbCircle
 10
229.3428713835763
 20
347.9587916134351
 30
0.0
 40
0.3000000000000114
100
AcDbArc
 50
-90.0
 51
0.0
  0
ARC
  5
1FA
330
1F
100
AcDbEntity
  8
2
  6
Continuous
 62
     7
100
AcDbCircle
 10
229.3428713835763
 20
355.3587916134351
 30
0.0
 40
0.2999999999998977
100
AcDbArc
 50
0.0
 51
90.0
  0
ARC
  5
1FB
330
1F
100
AcDbEntity
  8
2
  6
Continuous
 62
     7
100
AcDbCircle
 10
194.1428713835762
 20
355.3587916134351
 30
0.0
 40
0.2999999999999545
100
AcDbArc
 50
90.0
 51
180.0
  0
ARC
  5
1FC
330
1F
100
AcDbEntity
  8
2
  6
Continuous
 62
     7
100
AcDbCircle
 10
224.1203620765522
 20
345.3105179612152
 30
0.0
 40
0.5000063679724194
100
AcDbArc
 50
-91.98481416826634
 51
-28.82477416825564
  0
ARC
  5
1FD
330
1F
100
AcDbEntity
  8
2
  6
Continuous
 62
     7
100
AcDbCircle
 10
161.5178313835763
 20
345.1557316134351
 30
0.0
 40
0.3000000000000568
100
AcDbArc
 50
-152.1331861807312
 51
-88.15275000000824
  0
CIRCLE
  5
1FE
330
1F
100
AcDbEntity
  8
1
  6
Continuous
 62
     7
100
AcDbCircle
 10
119.6428713835762
 20
291.3087916134351
 30
0.0
 40
7.499999999999983
  0
ARC
  5
1FF
330
1F
100
AcDbEntity
  8
1
  6
Continuous
 62
     7
100
AcDbCircle
 10
135.6428713835762
 20
298.6587916134351
 30
0.0
 40
3.0
100
AcDbArc
 50
180.0
 51
-90.0
  0
ARC
  5
200
330
1F
100
AcDbEntity
  8
1
  6
Continuous
 62
     7
100
AcDbCircle
 10
175.6428713835762
 20
295.6587916134351
 30
0.0
 40
3.0
100
AcDbArc
 50
0.0
 51
90.0
  0
ARC
  5
201
330
1F
100
AcDbEntity
  8
1
  6
Continuous
 62
     7
100
AcDbCircle
 10
175.6428713835762
 20
292.3087916134351
 30
0.0
 40
3.0
100
AcDbArc
 50
-90.0
 51
0.0
  0
ARC
  5
202
330
1F
100
AcDbEntity
  8
1
  6
Continuous
 62
     7
100
AcDbCircle
 10
129.0821510171076
 20
296.6587916134351
 30
0.0
 40
4.350000000000087
100
AcDbArc
 50
-118.8519195583417
 51
-90.0
  0
ARC
  5
203
330
1F
100
AcDbEntity
  8
1
  6
Continuous
 62
     7
100
AcDbCircle
 10
129.0821510171076
 20
296.6587916134351
 30
0.0
 40
1.000000000000034
100
AcDbArc
 50
-150.4562794012692
 51
-90.0
  0
ARC
  5
204
330
1F
100
AcDbEntity
  8
1
  6
Continuous
 62
     7
100
AcDbCircle
 10
180.7256094598323
 20
289.4087916134351
 30
0.0
 40
1.25
100
AcDbArc
 50
-90.0
 51
0.0
  0
ARC
  5
205
330
1F
100
AcDbEntity
  8
1
  6
Continuous
 62
     7
100
AcDbCircle
 10
180.7256094598323
 20
289.4087916134351
 30
0.0
 40
2.0
100
AcDbArc
 50
-90.0
 51
0.0
  0
MTEXT
  5
207
330
1F
100
AcDbEntity
  8
1
 62
     2
100
AcDbMText
 10
137.925855521976
 20
249.016971597068
 30
0.0
 40
3.5
 41
0.0
 71
     4
 72
     1
  1
Abstand - Rahmenfalz\PAufschlag + 16mm
  7
CONVERTER_11
 73
     1
 44
1.32052821128451
  0
DIMENSION
  5
212
330
1F
100
AcDbEntity
  8
1
100
AcDbDimension
  2
*D1
 10
119.6428713835762
 20
271.379359285913
 30
0.0
 11
127.316546993969
 21
275.129359285913
 31
0.0
 70
    32
  1
<>
 71
     5
 42
-1.0
 53
0.00013888888889
  3
ME10_DIM_10
100
AcDbAlignedDimension
 13
135.6428713835762
 23
298.6587916134351
 33
0.0
 14
119.6428713835762
 24
277.1740234015141
 34
0.0
100
AcDbRotatedDimension
  0
DIMENSION
  5
21D
330
1F
100
AcDbEntity
  8
1
100
AcDbDimension
  2
*D2
 10
119.6428713835762
 20
262.670697109077
 30
0.0
 11
131.49670483885
 21
266.420697109077
 31
0.0
 70
    32
  1
 
 71
     5
 42
-1.0
 53
0.00013888888889
  3
ME10_DIM_11
100
AcDbAlignedDimension
 13
143.5263003835763
 23
316.6635196134351
 33
0.0
 14
119.6428713835762
 24
277.1740234015141
 34
0.0
100
AcDbRotatedDimension
  0
ENDSEC
  0
SECTION
  2
OBJECTS
  0
DICTIONARY
  5
C
330
0
100
AcDbDictionary
281
     1
  3
ACAD_GROUP
350
D
  3
ACAD_LAYOUT
350
1A
  3
ACAD_MLINESTYLE
350
17
  3
ACAD_PLOTSETTINGS
350
19
  3
ACAD_PLOTSTYLENAME
350
E
  0
DICTIONARY
  5
D
102
{ACAD_REACTORS
330
C
102
}
330
C
100
AcDbDictionary
281
     1
  0
DICTIONARY
  5
1A
102
{ACAD_REACTORS
330
C
102
}
330
C
100
AcDbDictionary
281
     1
  3
Layout1
350
1E
  3
Layout2
350
26
  3
Model
350
22
  0
DICTIONARY
  5
17
102
{ACAD_REACTORS
330
C
102
}
330
C
100
AcDbDictionary
281
     1
  3
Standard
350
18
  0
DICTIONARY
  5
19
102
{ACAD_REACTORS
330
C
102
}
330
C
100
AcDbDictionary
281
     1
  0
ACDBDICTIONARYWDFLT
  5
E
102
{ACAD_REACTORS
330
C
102
}
330
C
100
AcDbDictionary
281
     1
  3
Normal
350
F
100
AcDbDictionaryWithDefault
340
F
  0
LAYOUT
  5
1E
102
{ACAD_REACTORS
330
1A
102
}
330
1A
100
AcDbPlotSettings
  1

  2

  4

  6

 40
0.0
 41
0.0
 42
0.0
 43
0.0
 44
0.0
 45
0.0
 46
0.0
 47
0.0
 48
0.0
 49
0.0
140
0.0
141
0.0
142
1.0
143
1.0
 70
   688
 72
     0
 73
     0
 74
     5
  7

 75
    16
 76
     0
 77
     2
 78
   300
147
1.0
148
0.0
149
0.0
100
AcDbLayout
  1
Layout1
 70
     1
 71
     1
 10
0.0
 20
0.0
 11
0.0
 21
0.0
 12
0.0
 22
0.0
 32
0.0
 14
0.0
 24
0.0
 34
0.0
 15
0.0
 25
0.0
 35
0.0
146
0.0
 13
0.0
 23
0.0
 33
0.0
 16
1.0
 26
0.0
 36
0.0
 17
0.0
 27
1.0
 37
0.0
 76
     0
330
1B
  0
LAYOUT
  5
26
102
{ACAD_REACTORS
330
1A
102
}
330
1A
100
AcDbPlotSettings
  1

  2

  4

  6

 40
0.0
 41
0.0
 42
0.0
 43
0.0
 44
0.0
 45
0.0
 46
0.0
 47
0.0
 48
0.0
 49
0.0
140
0.0
141
0.0
142
1.0
143
1.0
 70
   688
 72
     0
 73
     0
 74
     5
  7

 75
    16
 76
     0
 77
     2
 78
   300
147
1.0
148
0.0
149
0.0
100
AcDbLayout
  1
Layout2
 70
     1
 71
     2
 10
0.0
 20
0.0
 11
0.0
 21
0.0
 12
0.0
 22
0.0
 32
0.0
 14
0.0
 24
0.0
 34
0.0
 15
0.0
 25
0.0
 35
0.0
146
0.0
 13
0.0
 23
0.0
 33
0.0
 16
1.0
 26
0.0
 36
0.0
 17
0.0
 27
1.0
 37
0.0
 76
     0
330
23
  0
LAYOUT
  5
22
102
{ACAD_REACTORS
330
1A
102
}
330
1A
100
AcDbPlotSettings
  1

  2

  4

  6

 40
0.0
 41
0.0
 42
0.0
 43
0.0
 44
0.0
 45
0.0
 46
0.0
 47
0.0
 48
0.0
 49
0.0
140
0.0
141
0.0
142
1.0
143
1.0
 70
  1712
 72
     0
 73
     0
 74
     0
  7

 75
     0
 76
     0
 77
     2
 78
   300
147
1.0
148
0.0
149
0.0
100
AcDbLayout
  1
Model
 70
     1
 71
     0
 10
0.0
 20
0.0
 11
0.0
 21
0.0
 12
0.0
 22
0.0
 32
0.0
 14
97.52500538357626
 24
242.366971597068
 34
0.0
 15
250.6391203835763
 25
375.6727356134351
 35
0.0
146
0.0
 13
0.0
 23
0.0
 33
0.0
 16
1.0
 26
0.0
 36
0.0
 17
0.0
 27
1.0
 37
0.0
 76
     0
330
1F
  0
MLINESTYLE
  5
18
102
{ACAD_REACTORS
330
17
102
}
330
17
100
AcDbMlineStyle
  2
Standard
 70
     0
  3

 62
   256
 51
90.0
 52
90.0
 71
     2
 49
0.5
 62
   256
  6
BYLAYER
 49
-0.5
 62
   256
  6
BYLAYER
  0
ACDBPLACEHOLDER
  5
F
102
{ACAD_REACTORS
330
E
102
}
330
E
  0
ENDSEC
  0
EOF
