  0
SECTION
  2
HEADER
  9
$ACADVER
  1
AC1018
  9
$ACADMAINTVER
 70
     0
  9
$DWGCODEPAGE
  3
ANSI_1252
  9
$INSBASE
 10
0.0
 20
0.0
 30
0.0
  9
$EXTMIN
 10
-78.0750299549473
 20
-33.8846712708462
 30
0.0
  9
$EXTMAX
 10
65.685068299998
 20
72.00559057465091
 30
0.0
  9
$LIMMIN
 10
0.0
 20
0.0
  9
$LIMMAX
 10
12.0
 20
9.0
  9
$ORTHOMODE
 70
     0
  9
$REGENMODE
 70
     1
  9
$FILLMODE
 70
     1
  9
$QTEXTMODE
 70
     0
  9
$MIRRTEXT
 70
     1
  9
$LTSCALE
 40
1.0
  9
$ATTMODE
 70
     1
  9
$TEXTSIZE
 40
0.2
  9
$TRACEWID
 40
0.05
  9
$TEXTSTYLE
  7
Standard
  9
$CLAYER
  8
0
  9
$CELTYPE
  6
ByLayer
  9
$CECOLOR
 62
   256
  9
$CELTSCALE
 40
1.0
  9
$DISPSILH
 70
     0
  9
$DIMSCALE
 40
1.0
  9
$DIMASZ
 40
0.18
  9
$DIMEXO
 40
0.0625
  9
$DIMDLI
 40
0.38
  9
$DIMRND
 40
0.0
  9
$DIMDLE
 40
0.0
  9
$DIMEXE
 40
0.18
  9
$DIMTP
 40
0.0
  9
$DIMTM
 40
0.0
  9
$DIMTXT
 40
0.18
  9
$DIMCEN
 40
0.09
  9
$DIMTSZ
 40
0.0
  9
$DIMTOL
 70
     0
  9
$DIMLIM
 70
     0
  9
$DIMTIH
 70
     1
  9
$DIMTOH
 70
     1
  9
$DIMSE1
 70
     0
  9
$DIMSE2
 70
     0
  9
$DIMTAD
 70
     0
  9
$DIMZIN
 70
     0
  9
$DIMBLK
  1

  9
$DIMASO
 70
     1
  9
$DIMSHO
 70
     1
  9
$DIMPOST
  1

  9
$DIMAPOST
  1

  9
$DIMALT
 70
     0
  9
$DIMALTD
 70
     2
  9
$DIMALTF
 40
25.4
  9
$DIMLFAC
 40
1.0
  9
$DIMTOFL
 70
     0
  9
$DIMTVP
 40
0.0
  9
$DIMTIX
 70
     0
  9
$DIMSOXD
 70
     0
  9
$DIMSAH
 70
     0
  9
$DIMBLK1
  1

  9
$DIMBLK2
  1

  9
$DIMSTYLE
  2
Standard
  9
$DIMCLRD
 70
     0
  9
$DIMCLRE
 70
     0
  9
$DIMCLRT
 70
     0
  9
$DIMTFAC
 40
1.0
  9
$DIMGAP
 40
0.09
  9
$DIMJUST
 70
     0
  9
$DIMSD1
 70
     0
  9
$DIMSD2
 70
     0
  9
$DIMTOLJ
 70
     1
  9
$DIMTZIN
 70
     0
  9
$DIMALTZ
 70
     0
  9
$DIMALTTZ
 70
     0
  9
$DIMUPT
 70
     0
  9
$DIMDEC
 70
     4
  9
$DIMTDEC
 70
     4
  9
$DIMALTU
 70
     2
  9
$DIMALTTD
 70
     2
  9
$DIMTXSTY
  7
Standard
  9
$DIMAUNIT
 70
     0
  9
$DIMADEC
 70
     0
  9
$DIMALTRND
 40
0.0
  9
$DIMAZIN
 70
     0
  9
$DIMDSEP
 70
    46
  9
$DIMATFIT
 70
     3
  9
$DIMFRAC
 70
     0
  9
$DIMLDRBLK
  1

  9
$DIMLUNIT
 70
     2
  9
$DIMLWD
 70
    -2
  9
$DIMLWE
 70
    -2
  9
$DIMTMOVE
 70
     0
  9
$LUNITS
 70
     2
  9
$LUPREC
 70
     4
  9
$SKETCHINC
 40
0.1
  9
$FILLETRAD
 40
0.5
  9
$AUNITS
 70
     0
  9
$AUPREC
 70
     0
  9
$MENU
  1
.
  9
$ELEVATION
 40
0.0
  9
$PELEVATION
 40
0.0
  9
$THICKNESS
 40
0.0
  9
$LIMCHECK
 70
     0
  9
$CHAMFERA
 40
0.5
  9
$CHAMFERB
 40
0.5
  9
$CHAMFERC
 40
1.0
  9
$CHAMFERD
 40
0.0
  9
$SKPOLY
 70
     0
  9
$TDCREATE
 40
2454483.362315
  9
$TDUCREATE
 40
2454483.320648334
  9
$TDUPDATE
 40
2454483.362315012
  9
$TDUUPDATE
 40
2454483.320648345
  9
$TDINDWG
 40
0.0000000116
  9
$TDUSRTIMER
 40
0.0000000116
  9
$USRTIMER
 70
     1
  9
$ANGBASE
 50
0.0
  9
$ANGDIR
 70
     0
  9
$PDMODE
 70
     0
  9
$PDSIZE
 40
0.0
  9
$PLINEWID
 40
0.0
  9
$SPLFRAME
 70
     0
  9
$SPLINETYPE
 70
     6
  9
$SPLINESEGS
 70
     8
  9
$HANDSEED
  5
123
  9
$SURFTAB1
 70
     6
  9
$SURFTAB2
 70
     6
  9
$SURFTYPE
 70
     6
  9
$SURFU
 70
     6
  9
$SURFV
 70
     6
  9
$UCSBASE
  2

  9
$UCSNAME
  2

  9
$UCSORG
 10
0.0
 20
0.0
 30
0.0
  9
$UCSXDIR
 10
1.0
 20
0.0
 30
0.0
  9
$UCSYDIR
 10
0.0
 20
1.0
 30
0.0
  9
$UCSORTHOREF
  2

  9
$UCSORTHOVIEW
 70
     0
  9
$UCSORGTOP
 10
0.0
 20
0.0
 30
0.0
  9
$UCSORGBOTTOM
 10
0.0
 20
0.0
 30
0.0
  9
$UCSORGLEFT
 10
0.0
 20
0.0
 30
0.0
  9
$UCSORGRIGHT
 10
0.0
 20
0.0
 30
0.0
  9
$UCSORGFRONT
 10
0.0
 20
0.0
 30
0.0
  9
$UCSORGBACK
 10
0.0
 20
0.0
 30
0.0
  9
$PUCSBASE
  2

  9
$PUCSNAME
  2

  9
$PUCSORG
 10
0.0
 20
0.0
 30
0.0
  9
$PUCSXDIR
 10
1.0
 20
0.0
 30
0.0
  9
$PUCSYDIR
 10
0.0
 20
1.0
 30
0.0
  9
$PUCSORTHOREF
  2

  9
$PUCSORTHOVIEW
 70
     0
  9
$PUCSORGTOP
 10
0.0
 20
0.0
 30
0.0
  9
$PUCSORGBOTTOM
 10
0.0
 20
0.0
 30
0.0
  9
$PUCSORGLEFT
 10
0.0
 20
0.0
 30
0.0
  9
$PUCSORGRIGHT
 10
0.0
 20
0.0
 30
0.0
  9
$PUCSORGFRONT
 10
0.0
 20
0.0
 30
0.0
  9
$PUCSORGBACK
 10
0.0
 20
0.0
 30
0.0
  9
$USERI1
 70
     0
  9
$USERI2
 70
     0
  9
$USERI3
 70
     0
  9
$USERI4
 70
     0
  9
$USERI5
 70
     0
  9
$USERR1
 40
14.5
  9
$USERR2
 40
0.0
  9
$USERR3
 40
0.0
  9
$USERR4
 40
0.0
  9
$USERR5
 40
0.0
  9
$WORLDVIEW
 70
     1
  9
$SHADEDGE
 70
     3
  9
$SHADEDIF
 70
    70
  9
$TILEMODE
 70
     1
  9
$MAXACTVP
 70
    64
  9
$PINSBASE
 10
0.0
 20
0.0
 30
0.0
  9
$PLIMCHECK
 70
     0
  9
$PEXTMIN
 10
1.00000000000000E+20
 20
1.00000000000000E+20
 30
1.00000000000000E+20
  9
$PEXTMAX
 10
-1.00000000000000E+20
 20
-1.00000000000000E+20
 30
-1.00000000000000E+20
  9
$PLIMMIN
 10
0.0
 20
0.0
  9
$PLIMMAX
 10
12.0
 20
9.0
  9
$UNITMODE
 70
     0
  9
$VISRETAIN
 70
     1
  9
$PLINEGEN
 70
     0
  9
$PSLTSCALE
 70
     1
  9
$TREEDEPTH
 70
  3020
  9
$CMLSTYLE
  2
Standard
  9
$CMLJUST
 70
     0
  9
$CMLSCALE
 40
1.0
  9
$PROXYGRAPHICS
 70
     1
  9
$MEASUREMENT
 70
     1
  9
$CELWEIGHT
370
    -1
  9
$ENDCAPS
280
     0
  9
$JOINSTYLE
280
     0
  9
$LWDISPLAY
290
     0
  9
$INSUNITS
 70
     1
  9
$HYPERLINKBASE
  1

  9
$STYLESHEET
  1

  9
$XEDIT
290
     1
  9
$CEPSNTYPE
380
     0
  9
$PSTYLEMODE
290
     1
  9
$FINGERPRINTGUID
  2
{7708CBD2-A259-4D8B-9614-86A1E08D755E}
  9
$VERSIONGUID
  2
{FAEB1C32-E019-11D5-929B-00C0DF256EC4}
  9
$EXTNAMES
290
     1
  9
$PSVPSCALE
 40
0.0
  9
$OLESTARTUP
290
     0
  9
$SORTENTS
280
   127
  9
$INDEXCTL
280
     0
  9
$HIDETEXT
280
     1
  9
$XCLIPFRAME
290
     0
  9
$HALOGAP
280
     0
  9
$OBSCOLOR
 70
   257
  9
$OBSLTYPE
280
     0
  9
$INTERSECTIONDISPLAY
280
     0
  9
$INTERSECTIONCOLOR
 70
   257
  9
$DIMASSOC
280
     2
  9
$PROJECTNAME
  1

  0
ENDSEC
  0
SECTION
  2
CLASSES
  0
CLASS
  1
ACDBDICTIONARYWDFLT
  2
AcDbDictionaryWithDefault
  3
ObjectDBX Classes
 90
        0
 91
        3
280
     0
281
     0
  0
CLASS
  1

  2
exOdDbSpline
  3

 90
        0
 91
        3
280
     0
281
     1
  0
ENDSEC
  0
SECTION
  2
TABLES
  0
TABLE
  2
VPORT
  5
8
330
0
100
AcDbSymbolTable
 70
     1
  0
VPORT
  5
29
330
8
100
AcDbSymbolTableRecord
100
AcDbViewportTableRecord
  2
*Active
 70
     0
 10
0.0
 20
0.0
 11
1.0
 21
1.0
 12
-6.19498082747465
 22
19.06045965190236
 13
0.0
 23
0.0
 14
0.5
 24
0.5
 15
0.5
 25
0.5
 16
0.0
 26
0.0
 36
1.0
 17
0.0
 27
0.0
 37
0.0
 40
116.4792880300468
 41
1.60267857142857
 42
50.0
 43
0.0
 44
0.0
 50
0.0
 51
0.0
 71
     0
 72
   100
 73
     1
 74
     3
 75
     0
 76
     0
 77
     0
 78
     0
281
     0
 65
     1
110
0.0
120
0.0
130
0.0
111
1.0
121
0.0
131
0.0
112
0.0
122
1.0
132
0.0
 79
     0
146
0.0
  0
ENDTAB
  0
TABLE
  2
LTYPE
  5
5
330
0
100
AcDbSymbolTable
 70
     8
  0
LTYPE
  5
14
330
5
100
AcDbSymbolTableRecord
100
AcDbLinetypeTableRecord
  2
ByBlock
 70
     0
  3

 72
    65
 73
     0
 40
0.0
  0
LTYPE
  5
15
330
5
100
AcDbSymbolTableRecord
100
AcDbLinetypeTableRecord
  2
ByLayer
 70
     0
  3

 72
    65
 73
     0
 40
0.0
  0
LTYPE
  5
16
330
5
100
AcDbSymbolTableRecord
100
AcDbLinetypeTableRecord
  2
Continuous
 70
     0
  3
Solid line
 72
    65
 73
     0
 40
0.0
  0
LTYPE
  5
2A
330
5
100
AcDbSymbolTableRecord
100
AcDbLinetypeTableRecord
  2
DASHED
 70
     0
  3
Dashed
 72
    65
 73
     2
 40
15.0
 49
7.0
 74
     0
 49
-8.0
 74
     0
  0
LTYPE
  5
2B
330
5
100
AcDbSymbolTableRecord
100
AcDbLinetypeTableRecord
  2
DOTTED
 70
     0
  3
Dotted
 72
    65
 73
     2
 40
1.0
 49
0.0
 74
     0
 49
-1.0
 74
     0
  0
LTYPE
  5
2C
330
5
100
AcDbSymbolTableRecord
100
AcDbLinetypeTableRecord
  2
DOT_CENTER
 70
     0
  3
Dot_Center
 72
    65
 73
     4
 40
14.0
 49
12.0
 74
     0
 49
-1.0
 74
     0
 49
0.0
 74
     0
 49
-1.0
 74
     0
  0
LTYPE
  5
2D
330
5
100
AcDbSymbolTableRecord
100
AcDbLinetypeTableRecord
  2
LONG_DASHED
 70
     0
  3
Long_Dashed
 72
    65
 73
     2
 40
15.0
 49
10.0
 74
     0
 49
-5.0
 74
     0
  0
LTYPE
  5
2E
330
5
100
AcDbSymbolTableRecord
100
AcDbLinetypeTableRecord
  2
DASH_CENTER
 70
     0
  3
Dash_Center
 72
    65
 73
     4
 40
14.0
 49
11.0
 74
     0
 49
-1.0
 74
     0
 49
1.0
 74
     0
 49
-1.0
 74
     0
  0
LTYPE
  5
2F
330
5
100
AcDbSymbolTableRecord
100
AcDbLinetypeTableRecord
  2
PHANTOM
 70
     0
  3
Phantom
 72
    65
 73
     6
 40
13.0
 49
10.0
 74
     0
 49
-1.0
 74
     0
 49
0.0
 74
     0
 49
-1.0
 74
     0
 49
0.0
 74
     0
 49
-1.0
 74
     0
  0
LTYPE
  5
30
330
5
100
AcDbSymbolTableRecord
100
AcDbLinetypeTableRecord
  2
CENTER_DASH_DASH
 70
     0
  3
Center_Dash_Dash
 72
    65
 73
     6
 40
14.0
 49
9.0
 74
     0
 49
-1.0
 74
     0
 49
1.0
 74
     0
 49
-1.0
 74
     0
 49
1.0
 74
     0
 49
-1.0
 74
     0
  0
ENDTAB
  0
TABLE
  2
LAYER
  5
2
330
0
100
AcDbSymbolTable
 70
     2
  0
LAYER
  5
10
330
2
100
AcDbSymbolTableRecord
100
AcDbLayerTableRecord
  2
0
 70
     0
 62
     7
  6
Continuous
370
    -3
390
F
  0
LAYER
  5
31
330
2
100
AcDbSymbolTableRecord
100
AcDbLayerTableRecord
  2
1
 70
     0
 62
     7
  6
Continuous
370
    -3
390
F
  0
ENDTAB
  0
TABLE
  2
STYLE
  5
3
330
0
100
AcDbSymbolTable
 70
     2
  0
STYLE
  5
11
330
3
100
AcDbSymbolTableRecord
100
AcDbTextStyleTableRecord
  2
Standard
 70
     0
 40
0.0
 41
1.0
 50
0.0
 71
     0
 42
0.2
  3
txt
  4

  0
STYLE
  5
CB
330
3
100
AcDbSymbolTableRecord
100
AcDbTextStyleTableRecord
  2
CONVERTER_11
 70
     0
 40
0.0
 41
0.9
 50
0.0
 71
     0
 42
0.2
  3
txt.shx
  4

  0
ENDTAB
  0
TABLE
  2
VIEW
  5
6
330
0
100
AcDbSymbolTable
 70
     0
  0
ENDTAB
  0
TABLE
  2
UCS
  5
7
330
0
100
AcDbSymbolTable
 70
     0
  0
ENDTAB
  0
TABLE
  2
APPID
  5
9
330
0
100
AcDbSymbolTable
 70
     1
  0
APPID
  5
12
330
9
100
AcDbSymbolTableRecord
100
AcDbRegAppTableRecord
  2
ACAD
 70
     0
  0
ENDTAB
  0
TABLE
  2
DIMSTYLE
  5
A
330
0
100
AcDbSymbolTable
 70
     9
100
AcDbDimStyleTable
  0
DIMSTYLE
105
27
330
A
100
AcDbSymbolTableRecord
100
AcDbDimStyleTableRecord
  2
Standard
 70
     0
340
11
  0
DIMSTYLE
105
CF
102
{ACAD_REACTORS
330
D0
102
}
330
A
100
AcDbSymbolTableRecord
100
AcDbDimStyleTableRecord
  2
ME10_DIM_10
 70
     0
 41
3.5
 42
0.0
 44
2.0
 73
     0
 74
     0
 77
     1
 78
     8
140
3.5
147
2.0
172
     1
173
     1
176
     2
177
     2
178
     2
271
     2
340
CB
  0
DIMSTYLE
105
DA
102
{ACAD_REACTORS
330
DB
102
}
330
A
100
AcDbSymbolTableRecord
100
AcDbDimStyleTableRecord
  2
ME10_DIM_11
 70
     0
 41
3.5
 42
0.0
 44
2.0
 73
     0
 74
     0
 77
     1
 78
     8
140
3.5
147
2.0
172
     1
173
     1
176
     2
177
     2
178
     2
271
     3
340
CB
  0
DIMSTYLE
105
E5
102
{ACAD_REACTORS
330
E6
102
}
330
A
100
AcDbSymbolTableRecord
100
AcDbDimStyleTableRecord
  2
ME10_DIM_12
 70
     0
 41
3.5
 42
0.0
 44
2.0
 73
     0
 74
     0
 77
     1
 78
     8
140
3.5
147
2.0
172
     1
173
     1
176
     2
177
     2
178
     2
271
     3
340
CB
  0
DIMSTYLE
105
F0
102
{ACAD_REACTORS
330
F1
102
}
330
A
100
AcDbSymbolTableRecord
100
AcDbDimStyleTableRecord
  2
ME10_DIM_13
 70
     0
 41
3.5
 42
0.0
 44
2.0
 73
     0
 74
     0
 77
     1
 78
     8
140
3.5
147
2.0
172
     1
173
     1
176
     2
177
     2
178
     2
271
     3
340
CB
  0
DIMSTYLE
105
FC
102
{ACAD_REACTORS
330
FD
102
}
330
A
100
AcDbSymbolTableRecord
100
AcDbDimStyleTableRecord
  2
ME10_DIM_14
 70
     0
 41
3.5
 42
0.0
 44
2.0
 73
     0
 74
     0
 77
     1
 78
     8
140
3.5
147
2.0
172
     1
173
     1
176
     2
177
     2
178
     2
271
     3
340
CB
  0
DIMSTYLE
105
107
102
{ACAD_REACTORS
330
108
102
}
330
A
100
AcDbSymbolTableRecord
100
AcDbDimStyleTableRecord
  2
ME10_DIM_15
 70
     0
 41
3.5
 42
0.0
 44
2.0
 73
     0
 74
     0
 77
     1
 78
     8
140
3.5
147
2.0
172
     1
173
     1
176
     2
177
     2
178
     2
271
     3
340
CB
  0
DIMSTYLE
105
114
102
{ACAD_REACTORS
330
115
102
}
330
A
100
AcDbSymbolTableRecord
100
AcDbDimStyleTableRecord
  2
ME10_DIM_16
 70
     0
 41
3.5
 42
0.0
 44
2.0
 73
     0
 74
     0
 77
     1
 78
     8
140
3.5
147
2.0
172
     1
173
     1
176
     2
177
     2
178
     2
271
     3
340
CB
  0
DIMSTYLE
105
121
102
{ACAD_REACTORS
330
122
102
}
330
A
100
AcDbSymbolTableRecord
100
AcDbDimStyleTableRecord
  2
ME10_DIM_17
 70
     0
 41
3.5
 42
0.0
 44
2.0
 73
     0
 74
     0
 77
     1
 78
     8
140
3.5
147
2.0
172
     1
173
     1
176
     2
177
     2
178
     2
271
     3
340
CB
  0
ENDTAB
  0
TABLE
  2
BLOCK_RECORD
  5
1
330
0
100
AcDbSymbolTable
 70
     9
  0
BLOCK_RECORD
  5
1F
330
1
100
AcDbSymbolTableRecord
100
AcDbBlockTableRecord
  2
*Model_Space
340
22
  0
BLOCK_RECORD
  5
1B
330
1
100
AcDbSymbolTableRecord
100
AcDbBlockTableRecord
  2
*Paper_Space
340
1E
  0
BLOCK_RECORD
  5
23
330
1
100
AcDbSymbolTableRecord
100
AcDbBlockTableRecord
  2
*Paper_Space0
340
26
  0
BLOCK_RECORD
  5
C5
330
1
100
AcDbSymbolTableRecord
100
AcDbBlockTableRecord
  2
*D1
340
0
  0
BLOCK_RECORD
  5
D1
330
1
100
AcDbSymbolTableRecord
100
AcDbBlockTableRecord
  2
*D2
340
0
  0
BLOCK_RECORD
  5
DC
330
1
100
AcDbSymbolTableRecord
100
AcDbBlockTableRecord
  2
*D3
340
0
  0
BLOCK_RECORD
  5
E7
330
1
100
AcDbSymbolTableRecord
100
AcDbBlockTableRecord
  2
*D4
340
0
  0
BLOCK_RECORD
  5
F2
330
1
100
AcDbSymbolTableRecord
100
AcDbBlockTableRecord
  2
*D5
340
0
  0
BLOCK_RECORD
  5
FE
330
1
100
AcDbSymbolTableRecord
100
AcDbBlockTableRecord
  2
*D6
340
0
  0
BLOCK_RECORD
  5
109
330
1
100
AcDbSymbolTableRecord
100
AcDbBlockTableRecord
  2
*D7
340
0
  0
BLOCK_RECORD
  5
116
330
1
100
AcDbSymbolTableRecord
100
AcDbBlockTableRecord
  2
*D8
340
0
  0
ENDTAB
  0
ENDSEC
  0
SECTION
  2
BLOCKS
  0
BLOCK
  5
20
330
1F
100
AcDbEntity
  8
0
100
AcDbBlockBegin
  2
*Model_Space
 70
     0
 71
     0
 10
0.0
 20
0.0
 30
0.0
  3
*Model_Space
  1

  0
ENDBLK
  5
21
330
1F
100
AcDbEntity
  8
0
100
AcDbBlockEnd
  0
BLOCK
  5
1C
330
1B
100
AcDbEntity
 67
     1
  8
0
100
AcDbBlockBegin
  2
*Paper_Space
 70
     0
 71
     0
 10
0.0
 20
0.0
 30
0.0
  3
*Paper_Space
  1

  0
ENDBLK
  5
1D
330
1B
100
AcDbEntity
 67
     1
  8
0
100
AcDbBlockEnd
  0
BLOCK
  5
24
330
23
100
AcDbEntity
  8
0
100
AcDbBlockBegin
  2
*Paper_Space0
 70
     0
 71
     0
 10
0.0
 20
0.0
 30
0.0
  3
*Paper_Space0
  1

  0
ENDBLK
  5
25
330
23
100
AcDbEntity
  8
0
100
AcDbBlockEnd
  0
BLOCK
  5
CD
330
C5
100
AcDbEntity
  8
0
100
AcDbBlockBegin
  2
*D1
 70
     1
 71
     0
 10
0.0
 20
0.0
 30
0.0
  3
*D1
  1

  0
LINE
  5
C6
330
C5
100
AcDbEntity
  8
1
  6
Continuous
 62
     2
100
AcDbLine
 10
-4.26840572824824
 20
39.03047933855281
 30
0.0
 11
37.73159427175171
 21
39.03047933855281
 31
0.0
  0
LINE
  5
C7
330
C5
100
AcDbEntity
  8
1
  6
Continuous
 62
     2
100
AcDbLine
 10
37.73159427175171
 20
31.28846337586261
 30
0.0
 11
37.73159427175171
 21
41.03047933855281
 31
0.0
  0
LINE
  5
C8
330
C5
100
AcDbEntity
  8
1
  6
Continuous
 62
     2
100
AcDbLine
 10
-4.26840572824824
 20
31.28846337586261
 30
0.0
 11
-4.26840572824824
 21
41.03047933855281
 31
0.0
  0
SOLID
  5
C9
330
C5
100
AcDbEntity
  8
1
 62
     2
100
AcDbTrace
 10
-0.76840572824824
 20
39.49126308010869
 30
0.0
 11
-0.76840572824824
 21
38.56969559699692
 31
0.0
 12
-4.26840572824824
 22
39.03047933855281
 32
0.0
 13
-4.26840572824824
 23
39.03047933855281
 33
0.0
  0
SOLID
  5
CA
330
C5
100
AcDbEntity
  8
1
 62
     2
100
AcDbTrace
 10
34.23159427175171
 20
38.56969559699692
 30
0.0
 11
34.23159427175171
 21
39.49126308010869
 31
0.0
 12
37.73159427175171
 22
39.03047933855281
 32
0.0
 13
37.73159427175171
 23
39.03047933855281
 33
0.0
  0
MTEXT
  5
CC
330
C5
100
AcDbEntity
  8
1
 62
     2
100
AcDbMText
 10
14.16642449765991
 20
41.03047933855281
 30
0.0
 40
3.5
 41
0.0
 71
     7
 72
     1
  1
42
  7
CONVERTER_11
 11
0.9999999999970621
 21
2.424068405545307E-6
 31
0.0
 73
     1
 44
0.60024009603842
  0
ENDBLK
  5
CE
330
C5
100
AcDbEntity
  8
0
100
AcDbBlockEnd
  0
BLOCK
  5
D8
330
D1
100
AcDbEntity
  8
0
100
AcDbBlockBegin
  2
*D2
 70
     1
 71
     0
 10
0.0
 20
0.0
 30
0.0
  3
*D2
  1

  0
LINE
  5
D2
330
D1
100
AcDbEntity
  8
1
  6
Continuous
 62
     2
100
AcDbLine
 10
-62.48199741580861
 20
2.2884633758626
 30
0.0
 11
-62.48199741580861
 21
-11.71153662413741
 31
0.0
  0
LINE
  5
D3
330
D1
100
AcDbEntity
  8
1
  6
Continuous
 62
     2
100
AcDbLine
 10
-47.54079055180546
 20
-11.71153662413741
 30
0.0
 11
-64.4819974158086
 21
-11.71153662413741
 31
0.0
  0
LINE
  5
D4
330
D1
100
AcDbEntity
  8
1
  6
Continuous
 62
     2
100
AcDbLine
 10
-50.7684057282483
 20
2.2884633758626
 30
0.0
 11
-64.4819974158086
 21
2.2884633758626
 31
0.0
  0
SOLID
  5
D5
330
D1
100
AcDbEntity
  8
1
 62
     2
100
AcDbTrace
 10
-62.02121367425272
 20
-1.2115366241374
 30
0.0
 11
-62.94278115736449
 21
-1.2115366241374
 31
0.0
 12
-62.48199741580861
 22
2.2884633758626
 32
0.0
 13
-62.48199741580861
 23
2.2884633758626
 33
0.0
  0
SOLID
  5
D6
330
D1
100
AcDbEntity
  8
1
 62
     2
100
AcDbTrace
 10
-62.94278115736449
 20
-8.21153662413741
 30
0.0
 11
-62.02121367425272
 21
-8.21153662413741
 31
0.0
 12
-62.48199741580861
 22
-11.71153662413741
 32
0.0
 13
-62.48199741580861
 23
-11.71153662413741
 33
0.0
  0
MTEXT
  5
D7
330
D1
100
AcDbEntity
  8
1
 62
     2
100
AcDbMText
 10
-64.4819974158086
 20
-7.13167325080932
 30
0.0
 40
3.5
 41
0.0
 71
     7
 72
     1
  1
14
  7
CONVERTER_11
 11
0.0
 21
1.0
 31
0.0
 73
     1
 44
0.60024009603842
  0
ENDBLK
  5
D9
330
D1
100
AcDbEntity
  8
0
100
AcDbBlockEnd
  0
BLOCK
  5
E3
330
DC
100
AcDbEntity
  8
0
100
AcDbBlockBegin
  2
*D3
 70
     1
 71
     0
 10
0.0
 20
0.0
 30
0.0
  3
*D3
  1

  0
LINE
  5
DD
330
DC
100
AcDbEntity
  8
1
  6
Continuous
 62
     2
100
AcDbLine
 10
-72.5750299549473
 20
-11.71153662413741
 30
0.0
 11
-72.5750299549473
 21
27.7884633758625
 31
0.0
  0
LINE
  5
DE
330
DC
100
AcDbEntity
  8
1
  6
Continuous
 62
     2
100
AcDbLine
 10
-34.76840572824835
 20
27.7884633758625
 30
0.0
 11
-74.5750299549473
 21
27.7884633758625
 31
0.0
  0
LINE
  5
DF
330
DC
100
AcDbEntity
  8
1
  6
Continuous
 62
     2
100
AcDbLine
 10
-47.54079055180546
 20
-11.71153662413741
 30
0.0
 11
-74.5750299549473
 21
-11.71153662413741
 31
0.0
  0
SOLID
  5
E0
330
DC
100
AcDbEntity
  8
1
 62
     2
100
AcDbTrace
 10
-73.03581369650318
 20
-8.21153662413741
 30
0.0
 11
-72.11424621339141
 21
-8.21153662413741
 31
0.0
 12
-72.5750299549473
 22
-11.71153662413741
 32
0.0
 13
-72.5750299549473
 23
-11.71153662413741
 33
0.0
  0
SOLID
  5
E1
330
DC
100
AcDbEntity
  8
1
 62
     2
100
AcDbTrace
 10
-72.11424621339141
 20
24.2884633758625
 30
0.0
 11
-73.03581369650318
 21
24.2884633758625
 31
0.0
 12
-72.5750299549473
 22
27.7884633758625
 32
0.0
 13
-72.5750299549473
 23
27.7884633758625
 33
0.0
  0
MTEXT
  5
E2
330
DC
100
AcDbEntity
  8
1
 62
     2
100
AcDbMText
 10
-74.5750299549473
 20
3.98253516285323
 30
0.0
 40
3.5
 41
0.0
 71
     7
 72
     1
  1
39.5
  7
CONVERTER_11
 11
0.0
 21
1.0
 31
0.0
 73
     1
 44
0.60024009603842
  0
ENDBLK
  5
E4
330
DC
100
AcDbEntity
  8
0
100
AcDbBlockEnd
  0
BLOCK
  5
EE
330
E7
100
AcDbEntity
  8
0
100
AcDbBlockBegin
  2
*D4
 70
     1
 71
     0
 10
0.0
 20
0.0
 30
0.0
  3
*D4
  1

  0
LINE
  5
E8
330
E7
100
AcDbEntity
  8
1
  6
Continuous
 62
     2
100
AcDbLine
 10
63.685068299998
 20
15.28846337586267
 30
0.0
 11
63.685068299998
 21
-11.71153662413741
 31
0.0
  0
LINE
  5
E9
330
E7
100
AcDbEntity
  8
1
  6
Continuous
 62
     2
100
AcDbLine
 10
-25.30729904131696
 20
-11.71153662413741
 30
0.0
 11
65.685068299998
 21
-11.71153662413741
 31
0.0
  0
LINE
  5
EA
330
E7
100
AcDbEntity
  8
1
  6
Continuous
 62
     2
100
AcDbLine
 10
37.73159427175142
 20
15.28846337586267
 30
0.0
 11
65.685068299998
 21
15.28846337586267
 31
0.0
  0
SOLID
  5
EB
330
E7
100
AcDbEntity
  8
1
 62
     2
100
AcDbTrace
 10
64.14585204155388
 20
11.78846337586267
 30
0.0
 11
63.22428455844211
 21
11.78846337586267
 31
0.0
 12
63.685068299998
 22
15.28846337586267
 32
0.0
 13
63.685068299998
 23
15.28846337586267
 33
0.0
  0
SOLID
  5
EC
330
E7
100
AcDbEntity
  8
1
 62
     2
100
AcDbTrace
 10
63.22428455844211
 20
-8.21153662413741
 30
0.0
 11
64.14585204155388
 21
-8.21153662413741
 31
0.0
 12
63.685068299998
 22
-11.71153662413741
 32
0.0
 13
63.685068299998
 23
-11.71153662413741
 33
0.0
  0
MTEXT
  5
ED
330
E7
100
AcDbEntity
  8
1
 62
     2
100
AcDbMText
 10
61.685068299998
 20
-0.93415290289078
 30
0.0
 40
3.5
 41
0.0
 71
     7
 72
     1
  1
27
  7
CONVERTER_11
 11
0.0
 21
1.0
 31
0.0
 73
     1
 44
0.60024009603842
  0
ENDBLK
  5
EF
330
E7
100
AcDbEntity
  8
0
100
AcDbBlockEnd
  0
BLOCK
  5
FA
330
F2
100
AcDbEntity
  8
0
100
AcDbBlockBegin
  2
*D5
 70
     1
 71
     0
 10
0.0
 20
0.0
 30
0.0
  3
*D5
  1

  0
LINE
  5
F3
330
F2
100
AcDbEntity
  8
1
  6
Continuous
 62
     2
100
AcDbLine
 10
-36.26840572824827
 20
-31.8846712708462
 30
0.0
 11
37.73159427175142
 21
-31.8846712708462
 31
0.0
  0
LINE
  5
F4
330
F2
100
AcDbEntity
  8
1
  6
Continuous
 62
     2
100
AcDbLine
 10
37.73159427175142
 20
-14.7646113127972
 30
0.0
 11
37.73159427175142
 21
-33.8846712708462
 31
0.0
  0
LINE
  5
F5
330
F2
100
AcDbEntity
  8
1
  6
Continuous
 62
     2
100
AcDbLine
 10
37.73159427175142
 20
11.78846337586262
 30
0.0
 11
37.73159427175142
 21
-8.8509309467371
 31
0.0
  0
LINE
  5
F6
330
F2
100
AcDbEntity
  8
1
  6
Continuous
 62
     2
100
AcDbLine
 10
-36.26840572824827
 20
-22.78851774600674
 30
0.0
 11
-36.26840572824827
 21
-33.8846712708462
 31
0.0
  0
SOLID
  5
F7
330
F2
100
AcDbEntity
  8
1
 62
     2
100
AcDbTrace
 10
-32.76840572824827
 20
-31.42388752929032
 30
0.0
 11
-32.76840572824827
 21
-32.34545501240208
 31
0.0
 12
-36.26840572824827
 22
-31.8846712708462
 32
0.0
 13
-36.26840572824827
 23
-31.8846712708462
 33
0.0
  0
SOLID
  5
F8
330
F2
100
AcDbEntity
  8
1
 62
     2
100
AcDbTrace
 10
34.23159427175142
 20
-32.34545501240208
 30
0.0
 11
34.23159427175142
 21
-31.42388752929032
 31
0.0
 12
37.73159427175142
 22
-31.8846712708462
 32
0.0
 13
37.73159427175142
 23
-31.8846712708462
 33
0.0
  0
MTEXT
  5
F9
330
F2
100
AcDbEntity
  8
1
 62
     2
100
AcDbMText
 10
-3.75510939301428
 20
-29.8846712708462
 30
0.0
 40
3.5
 41
0.0
 71
     7
 72
     1
  1
74
  7
CONVERTER_11
 11
0.9999999999970621
 21
2.424068405545307E-6
 31
0.0
 73
     1
 44
0.60024009603842
  0
ENDBLK
  5
FB
330
F2
100
AcDbEntity
  8
0
100
AcDbBlockEnd
  0
BLOCK
  5
105
330
FE
100
AcDbEntity
  8
0
100
AcDbBlockBegin
  2
*D6
 70
     1
 71
     0
 10
0.0
 20
0.0
 30
0.0
  3
*D6
  1

  0
LINE
  5
FF
330
FE
100
AcDbEntity
  8
1
  6
Continuous
 62
     2
100
AcDbLine
 10
-21.2684057282483
 20
56.9882458291009
 30
0.0
 11
-31.2684057282483
 21
56.9882458291009
 31
0.0
  0
LINE
  5
100
330
FE
100
AcDbEntity
  8
1
  6
Continuous
 62
     2
100
AcDbLine
 10
-31.2684057282483
 20
-1.54486995747084
 30
0.0
 11
-31.2684057282483
 21
58.9882458291009
 31
0.0
  0
LINE
  5
101
330
FE
100
AcDbEntity
  8
1
  6
Continuous
 62
     2
100
AcDbLine
 10
-21.2684057282483
 20
3.78846337586261
 30
0.0
 11
-21.2684057282483
 21
58.9882458291009
 31
0.0
  0
SOLID
  5
102
330
FE
100
AcDbEntity
  8
1
 62
     2
100
AcDbTrace
 10
-24.7684057282483
 20
56.52746208754501
 30
0.0
 11
-24.7684057282483
 21
57.44902957065678
 31
0.0
 12
-21.2684057282483
 22
56.9882458291009
 32
0.0
 13
-21.2684057282483
 23
56.9882458291009
 33
0.0
  0
SOLID
  5
103
330
FE
100
AcDbEntity
  8
1
 62
     2
100
AcDbTrace
 10
-27.7684057282483
 20
57.44902957065678
 30
0.0
 11
-27.7684057282483
 21
56.52746208754501
 31
0.0
 12
-31.2684057282483
 22
56.9882458291009
 32
0.0
 13
-31.2684057282483
 23
56.9882458291009
 33
0.0
  0
MTEXT
  5
104
330
FE
100
AcDbEntity
  8
1
 62
     2
100
AcDbMText
 10
-28.8503692568977
 20
58.9882458291009
 30
0.0
 40
3.5
 41
0.0
 71
     7
 72
     1
  1
10
  7
CONVERTER_11
 11
0.9999999999970621
 21
2.424068405545307E-6
 31
0.0
 73
     1
 44
0.60024009603842
  0
ENDBLK
  5
106
330
FE
100
AcDbEntity
  8
0
100
AcDbBlockEnd
  0
BLOCK
  5
112
330
109
100
AcDbEntity
  8
0
100
AcDbBlockBegin
  2
*D7
 70
     1
 71
     0
 10
0.0
 20
0.0
 30
0.0
  3
*D7
  1

  0
LINE
  5
10A
330
109
100
AcDbEntity
  8
1
  6
Continuous
 62
     2
100
AcDbLine
 10
-43.26840572824827
 20
66.50559057465091
 30
0.0
 11
-36.26840572824827
 21
66.50559057465091
 31
0.0
  0
LINE
  5
10B
330
109
100
AcDbEntity
  8
1
  6
Continuous
 62
     2
100
AcDbLine
 10
-36.26840572824827
 20
66.50559057465091
 30
0.0
 11
-34.76840572824835
 21
66.50559057465091
 31
0.0
  0
LINE
  5
10C
330
109
100
AcDbEntity
  8
1
  6
Continuous
 62
     2
100
AcDbLine
 10
-34.76840572824835
 20
66.50559057465091
 30
0.0
 11
-25.9423705227873
 21
66.50559057465091
 31
0.0
  0
LINE
  5
10D
330
109
100
AcDbEntity
  8
1
  6
Continuous
 62
     2
100
AcDbLine
 10
-34.76840572824835
 20
27.7884633758625
 30
0.0
 11
-34.76840572824835
 21
68.50559057465091
 31
0.0
  0
LINE
  5
10E
330
109
100
AcDbEntity
  8
1
  6
Continuous
 62
     2
100
AcDbLine
 10
-36.26840572824827
 20
-0.99033976075071
 30
0.0
 11
-36.26840572824827
 21
68.50559057465091
 31
0.0
  0
SOLID
  5
10F
330
109
100
AcDbEntity
  8
1
 62
     2
100
AcDbTrace
 10
-39.76840572824827
 20
66.04480683309502
 30
0.0
 11
-39.76840572824827
 21
66.9663743162068
 31
0.0
 12
-36.26840572824827
 22
66.50559057465091
 32
0.0
 13
-36.26840572824827
 23
66.50559057465091
 33
0.0
  0
SOLID
  5
110
330
109
100
AcDbEntity
  8
1
 62
     2
100
AcDbTrace
 10
-31.26840572824835
 20
66.9663743162068
 30
0.0
 11
-31.26840572824835
 21
66.04480683309502
 31
0.0
 12
-34.76840572824835
 22
66.50559057465091
 32
0.0
 13
-34.76840572824835
 23
66.50559057465091
 33
0.0
  0
MTEXT
  5
111
330
109
100
AcDbEntity
  8
1
 62
     2
100
AcDbMText
 10
-31.2798705227873
 20
68.50559057465091
 30
0.0
 40
3.5
 41
0.0
 71
     7
 72
     1
  1
1.5
  7
CONVERTER_11
 11
0.9999999999970621
 21
2.424068405545307E-6
 31
0.0
 73
     1
 44
0.60024009603842
  0
ENDBLK
  5
113
330
109
100
AcDbEntity
  8
0
100
AcDbBlockEnd
  0
BLOCK
  5
11F
330
116
100
AcDbEntity
  8
0
100
AcDbBlockBegin
  2
*D8
 70
     1
 71
     0
 10
0.0
 20
0.0
 30
0.0
  3
*D8
  1

  0
LINE
  5
117
330
116
100
AcDbEntity
  8
1
  6
Continuous
 62
     2
100
AcDbLine
 10
-21.2684057282483
 20
56.9882458291009
 30
0.0
 11
-28.2684057282483
 21
56.9882458291009
 31
0.0
  0
LINE
  5
118
330
116
100
AcDbEntity
  8
1
  6
Continuous
 62
     2
100
AcDbLine
 10
-17.7684057282483
 20
56.9882458291009
 30
0.0
 11
-21.2684057282483
 21
56.9882458291009
 31
0.0
  0
LINE
  5
119
330
116
100
AcDbEntity
  8
1
  6
Continuous
 62
     2
100
AcDbLine
 10
-10.2656533072867
 20
56.9882458291009
 30
0.0
 11
-17.7684057282483
 21
56.9882458291009
 31
0.0
  0
LINE
  5
11A
330
116
100
AcDbEntity
  8
1
  6
Continuous
 62
     2
100
AcDbLine
 10
-17.7684057282483
 20
16.28846337586261
 30
0.0
 11
-17.7684057282483
 21
58.9882458291009
 31
0.0
  0
LINE
  5
11B
330
116
100
AcDbEntity
  8
1
  6
Continuous
 62
     2
100
AcDbLine
 10
-21.2684057282483
 20
3.78846337586261
 30
0.0
 11
-21.2684057282483
 21
58.9882458291009
 31
0.0
  0
SOLID
  5
11C
330
116
100
AcDbEntity
  8
1
 62
     2
100
AcDbTrace
 10
-14.2684057282483
 20
57.44902957065678
 30
0.0
 11
-14.2684057282483
 21
56.52746208754501
 31
0.0
 12
-17.7684057282483
 22
56.9882458291009
 32
0.0
 13
-17.7684057282483
 23
56.9882458291009
 33
0.0
  0
SOLID
  5
11D
330
116
100
AcDbEntity
  8
1
 62
     2
100
AcDbTrace
 10
-24.7684057282483
 20
56.52746208754501
 30
0.0
 11
-24.7684057282483
 21
57.44902957065678
 31
0.0
 12
-21.2684057282483
 22
56.9882458291009
 32
0.0
 13
-21.2684057282483
 23
56.9882458291009
 33
0.0
  0
MTEXT
  5
11E
330
116
100
AcDbEntity
  8
1
 62
     2
100
AcDbMText
 10
-16.6531533072867
 20
58.9882458291009
 30
0.0
 40
3.5
 41
0.0
 71
     7
 72
     1
  1
3.5
  7
CONVERTER_11
 11
0.9999999999970621
 21
2.424068405545307E-6
 31
0.0
 73
     1
 44
0.60024009603842
  0
ENDBLK
  5
120
330
116
100
AcDbEntity
  8
0
100
AcDbBlockEnd
  0
ENDSEC
  0
SECTION
  2
ENTITIES
  0
POINT
  5
32
330
1F
100
AcDbEntity
  8
1
 62
     3
 60
     1
100
AcDbPoint
 10
-3.2684057282483
 20
27.28846337586261
 30
0.0
  0
POINT
  5
33
330
1F
100
AcDbEntity
  8
1
 62
     3
 60
     1
100
AcDbPoint
 10
-4.2684057282483
 20
26.28846337586261
 30
0.0
  0
POINT
  5
34
330
1F
100
AcDbEntity
  8
1
 62
     3
 60
     1
100
AcDbPoint
 10
-3.2684057282483
 20
26.28846337586261
 30
0.0
  0
POINT
  5
35
330
1F
100
AcDbEntity
  8
1
 62
     3
 60
     1
100
AcDbPoint
 10
-3.2684057282483
 20
16.28846337586261
 30
0.0
  0
POINT
  5
36
330
1F
100
AcDbEntity
  8
1
 62
     3
 60
     1
100
AcDbPoint
 10
-3.2684057282483
 20
15.28846337586261
 30
0.0
  0
POINT
  5
37
330
1F
100
AcDbEntity
  8
1
 62
     3
 60
     1
100
AcDbPoint
 10
-4.26840572824825
 20
27.28846337586261
 30
0.0
  0
LINE
  5
38
330
1F
100
AcDbEntity
  8
1
  6
Continuous
 62
     7
100
AcDbLine
 10
-20.2684057282483
 20
28.28846337586261
 30
0.0
 11
-20.2684057282483
 21
43.2884633758626
 31
0.0
  0
LINE
  5
39
330
1F
100
AcDbEntity
  8
1
  6
Continuous
 62
     7
100
AcDbLine
 10
-19.2684057282483
 20
27.28846337586261
 30
0.0
 11
-13.28549786073637
 21
27.28846337586261
 31
0.0
  0
LINE
  5
3A
330
1F
100
AcDbEntity
  8
1
  6
Continuous
 62
     7
100
AcDbLine
 10
-11.72979411068792
 20
43.02964433076001
 30
0.0
 11
-14.30053439179136
 21
33.4355109886189
 31
0.0
  0
LINE
  5
3B
330
1F
100
AcDbEntity
  8
1
  6
Continuous
 62
     7
100
AcDbLine
 10
-12.69571993697701
 20
44.2884633758626
 30
0.0
 11
-19.2684057282483
 21
44.2884633758626
 31
0.0
  0
LINE
  5
3C
330
1F
100
AcDbEntity
  8
1
  6
Continuous
 62
     7
100
AcDbLine
 10
-19.2684057282483
 20
26.28846337586261
 30
0.0
 11
-17.7684057282483
 21
26.28846337586261
 31
0.0
  0
LINE
  5
3D
330
1F
100
AcDbEntity
  8
1
  6
Continuous
 62
     7
100
AcDbLine
 10
-14.33520956885167
 20
26.28846337586261
 30
0.0
 11
-17.7684057282483
 21
26.28846337586261
 31
0.0
  0
LINE
  5
3E
330
1F
100
AcDbEntity
  8
1
  6
Continuous
 62
     7
100
AcDbLine
 10
-21.2684057282483
 20
30.2884633758626
 30
0.0
 11
-21.2684057282483
 21
43.2884633758626
 31
0.0
  0
LINE
  5
3F
330
1F
100
AcDbEntity
  8
1
  6
Continuous
 62
     7
100
AcDbLine
 10
-10.76386828439894
 20
42.77082528565749
 30
0.0
 11
-13.33460856550226
 21
33.17669194351642
 31
0.0
  0
LINE
  5
40
330
1F
100
AcDbEntity
  8
1
  6
Continuous
 62
     7
100
AcDbLine
 10
-12.69571993697701
 20
45.2884633758626
 30
0.0
 11
-19.2684057282483
 21
45.2884633758626
 31
0.0
  0
LINE
  5
41
330
1F
100
AcDbEntity
  8
1
  6
Continuous
 62
     7
100
AcDbLine
 10
-19.2684057282483
 20
45.2884633758626
 30
0.0
 11
-20.7684057282483
 21
45.2884633758626
 31
0.0
  0
LINE
  5
42
330
1F
100
AcDbEntity
  8
1
  6
Continuous
 62
     7
100
AcDbLine
 10
-21.2684057282483
 20
43.2884633758626
 30
0.0
 11
-21.2684057282483
 21
44.7884633758626
 31
0.0
  0
LINE
  5
43
330
1F
100
AcDbEntity
  8
1
  6
Continuous
 62
     7
100
AcDbLine
 10
-35.2684057282483
 20
3.7884633758626
 30
0.0
 11
-34.76840572824835
 21
3.7884633758626
 31
0.0
  0
LINE
  5
44
330
1F
100
AcDbEntity
  8
1
  6
Continuous
 62
     7
100
AcDbLine
 10
-30.2684057282483
 20
2.2884633758626
 30
0.0
 11
-31.2684057282483
 21
2.2884633758626
 31
0.0
  0
LINE
  5
45
330
1F
100
AcDbEntity
  8
1
  6
Continuous
 62
     7
100
AcDbLine
 10
-27.7684057282483
 20
37.2884633758626
 30
0.0
 11
-24.2684057282483
 21
37.2884633758626
 31
0.0
  0
LINE
  5
46
330
1F
100
AcDbEntity
  8
1
  6
Continuous
 62
     7
100
AcDbLine
 10
-31.64108211350441
 20
38.69800230704142
 30
0.0
 11
-27.7684057282483
 21
37.2884633758626
 31
0.0
  0
LINE
  5
47
330
1F
100
AcDbEntity
  8
1
  6
Continuous
 62
     7
100
AcDbLine
 10
-32.15411232849288
 20
37.2884633758626
 30
0.0
 11
-31.64108211350441
 21
38.69800230704142
 31
0.0
  0
LINE
  5
48
330
1F
100
AcDbEntity
  8
1
  6
Continuous
 62
     7
100
AcDbLine
 10
-28.28143594323677
 20
35.8789244446837
 30
0.0
 11
-32.15411232849288
 21
37.2884633758626
 31
0.0
  0
LINE
  5
49
330
1F
100
AcDbEntity
  8
1
  6
Continuous
 62
     7
100
AcDbLine
 10
-24.2684057282483
 20
5.2884633758626
 30
0.0
 11
-24.2684057282483
 21
3.7884633758626
 31
0.0
  0
LINE
  5
4A
330
1F
100
AcDbEntity
  8
1
  6
Continuous
 62
     7
100
AcDbLine
 10
-22.7684057282483
 20
5.2884633758626
 30
0.0
 11
-24.2684057282483
 21
5.2884633758626
 31
0.0
  0
LINE
  5
4B
330
1F
100
AcDbEntity
  8
1
  6
Continuous
 62
     7
100
AcDbLine
 10
-24.2684057282483
 20
5.2884633758626
 30
0.0
 11
-24.7684057282483
 21
5.2884633758626
 31
0.0
  0
LINE
  5
4C
330
1F
100
AcDbEntity
  8
1
  6
Continuous
 62
     7
100
AcDbLine
 10
-42.2684057282483
 20
35.7884633758626
 30
0.0
 11
-24.7684057282483
 21
35.7884633758626
 31
0.0
  0
LINE
  5
4D
330
1F
100
AcDbEntity
  8
1
  6
Continuous
 62
     7
100
AcDbLine
 10
-24.7684057282483
 20
35.7884633758626
 30
0.0
 11
-22.7684057282483
 21
35.7884633758626
 31
0.0
  0
LINE
  5
4E
330
1F
100
AcDbEntity
  8
1
  6
Continuous
 62
     7
100
AcDbLine
 10
-45.2684057282483
 20
3.7884633758626
 30
0.0
 11
-45.2684057282483
 21
32.7884633758626
 31
0.0
  0
LINE
  5
4F
330
1F
100
AcDbEntity
  8
1
  6
DOT_CENTER
 62
     2
100
AcDbLine
 10
-46.69985481950261
 20
17.2884633758626
 30
0.0
 11
-27.32290664648832
 21
17.2884633758626
 31
0.0
  0
LINE
  5
50
330
1F
100
AcDbEntity
  8
1
  6
Continuous
 62
     7
100
AcDbLine
 10
-24.7684057282483
 20
5.2884633758626
 30
0.0
 11
-24.7684057282483
 21
33.7884633758626
 31
0.0
  0
LINE
  5
51
330
1F
100
AcDbEntity
  8
1
  6
DOT_CENTER
 62
     2
100
AcDbLine
 10
-27.32290664648832
 20
17.2884633758626
 30
0.0
 11
-19.47607565528375
 21
17.2884633758626
 31
0.0
  0
LINE
  5
52
330
1F
100
AcDbEntity
  8
1
  6
Continuous
 62
     7
100
AcDbLine
 10
-30.25498779407536
 20
3.7884633758626
 30
0.0
 11
-22.7684057282483
 21
3.7884633758626
 31
0.0
  0
LINE
  5
53
330
1F
100
AcDbEntity
  8
1
  6
Continuous
 62
     7
100
AcDbLine
 10
-39.2684057282483
 20
3.7884633758626
 30
0.0
 11
-35.2684057282483
 21
3.7884633758626
 31
0.0
  0
LINE
  5
54
330
1F
100
AcDbEntity
  8
1
  6
Continuous
 62
     7
100
AcDbLine
 10
-39.2684057282483
 20
3.7884633758626
 30
0.0
 11
-43.2684057282483
 21
3.7884633758626
 31
0.0
  0
LINE
  5
55
330
1F
100
AcDbEntity
  8
1
  6
Continuous
 62
     7
100
AcDbLine
 10
-50.2684057282483
 20
3.7884633758626
 30
0.0
 11
-45.2684057282483
 21
3.7884633758626
 31
0.0
  0
LINE
  5
56
330
1F
100
AcDbEntity
  8
1
  6
Continuous
 62
     7
100
AcDbLine
 10
-21.2684057282483
 20
3.7884633758626
 30
0.0
 11
-21.2684057282483
 21
30.2884633758626
 31
0.0
  0
LINE
  5
57
330
1F
100
AcDbEntity
  8
1
  6
Continuous
 62
     7
100
AcDbLine
 10
-10.74088187771537
 20
45.2884633758626
 30
0.0
 11
-12.69571993697701
 21
45.2884633758626
 31
0.0
  0
LINE
  5
58
330
1F
100
AcDbEntity
  8
1
  6
Continuous
 62
     7
100
AcDbLine
 10
-10.2579189645707
 20
44.65905385331131
 30
0.0
 11
-10.76386828439894
 21
42.77082528565749
 31
0.0
  0
LINE
  5
59
330
1F
100
AcDbEntity
  8
1
  6
Continuous
 62
     7
100
AcDbLine
 10
-50.7684057282483
 20
12.2884633758626
 30
0.0
 11
-52.2684057282483
 21
12.2884633758626
 31
0.0
  0
LINE
  5
5A
330
1F
100
AcDbEntity
  8
1
  6
Continuous
 62
     7
100
AcDbLine
 10
-52.2684057282483
 20
12.2884633758626
 30
0.0
 11
-52.2684057282483
 21
3.7884633758626
 31
0.0
  0
LINE
  5
5B
330
1F
100
AcDbEntity
  8
1
  6
Continuous
 62
     7
100
AcDbLine
 10
-50.7684057282483
 20
12.2884633758626
 30
0.0
 11
-50.7684057282483
 21
4.2884633758626
 31
0.0
  0
LINE
  5
5C
330
1F
100
AcDbEntity
  8
1
  6
Continuous
 62
     7
100
AcDbLine
 10
-21.2684057282483
 20
46.7884633758626
 30
0.0
 11
-10.74088187771537
 21
46.7884633758626
 31
0.0
  0
LINE
  5
5D
330
1F
100
AcDbEntity
  8
1
  6
Continuous
 62
     7
100
AcDbLine
 10
-8.80903022513706
 20
44.27082528565749
 30
0.0
 11
-11.71707005279251
 21
33.41787289841382
 31
0.0
  0
LINE
  5
5E
330
1F
100
AcDbEntity
  8
1
  6
Continuous
 62
     7
100
AcDbLine
 10
-11.23410713964807
 20
32.7884633758626
 30
0.0
 11
-9.2232437875104
 21
32.7884633758626
 31
0.0
  0
LINE
  5
5F
330
1F
100
AcDbEntity
  8
1
  6
Continuous
 62
     7
100
AcDbLine
 10
-8.7232437875104
 20
33.2884633758626
 30
0.0
 11
-8.7232437875104
 21
68.46104895484201
 31
0.0
  0
LINE
  5
60
330
1F
100
AcDbEntity
  8
1
  6
Continuous
 62
     7
100
AcDbLine
 10
-11.88571982606851
 20
31.2884633758626
 30
0.0
 11
-8.7232437875104
 21
31.2884633758626
 31
0.0
  0
LINE
  5
61
330
1F
100
AcDbEntity
  8
1
  6
Continuous
 62
     7
100
AcDbLine
 10
-7.2232437875104
 20
68.46104895484201
 30
0.0
 11
-7.2232437875104
 21
32.7884633758626
 31
0.0
  0
LINE
  5
62
330
1F
100
AcDbEntity
  8
1
  6
Continuous
 62
     7
100
AcDbLine
 10
-22.7684057282483
 20
2.2884633758626
 30
0.0
 11
-30.2684057282483
 21
2.2884633758626
 31
0.0
  0
LINE
  5
63
330
1F
100
AcDbEntity
  8
1
  6
Continuous
 62
     7
100
AcDbLine
 10
-38.2684057282483
 20
3.7884633758626
 30
0.0
 11
-38.2684057282483
 21
2.2884633758626
 31
0.0
  0
LINE
  5
64
330
1F
100
AcDbEntity
  8
1
  6
Continuous
 62
     7
100
AcDbLine
 10
-39.2684057282483
 20
2.2884633758626
 30
0.0
 11
-50.7684057282483
 21
2.2884633758626
 31
0.0
  0
LINE
  5
65
330
1F
100
AcDbEntity
  8
1
  6
Continuous
 62
     7
100
AcDbLine
 10
-28.2684057282483
 20
3.7884633758626
 30
0.0
 11
-28.2684057282483
 21
2.2884633758626
 31
0.0
  0
LINE
  5
66
330
1F
100
AcDbEntity
  8
1
  6
Continuous
 62
     7
100
AcDbLine
 10
-22.7684057282483
 20
45.2884633758626
 30
0.0
 11
-22.7684057282483
 21
35.7884633758626
 31
0.0
  0
LINE
  5
67
330
1F
100
AcDbEntity
  8
1
  6
Continuous
 62
     7
100
AcDbLine
 10
-22.7684057282483
 20
3.7884633758626
 30
0.0
 11
-22.7684057282483
 21
35.7884633758626
 31
0.0
  0
LINE
  5
68
330
1F
100
AcDbEntity
  8
1
  6
DASHED
 62
     2
100
AcDbLine
 10
-28.2684057282483
 20
3.7884633758626
 30
0.0
 11
-28.25498779407536
 21
3.7884633758626
 31
0.0
  0
LINE
  5
69
330
1F
100
AcDbEntity
  8
1
  6
Continuous
 62
     7
100
AcDbLine
 10
-43.2684057282483
 20
3.7884633758626
 30
0.0
 11
-43.2684057282483
 21
32.7884633758626
 31
0.0
  0
LINE
  5
6A
330
1F
100
AcDbEntity
  8
1
  6
Continuous
 62
     7
100
AcDbLine
 10
-43.2684057282483
 20
3.7884633758626
 30
0.0
 11
-45.2684057282483
 21
3.7884633758626
 31
0.0
  0
LINE
  5
6B
330
1F
100
AcDbEntity
  8
1
  6
Continuous
 62
     7
100
AcDbLine
 10
-42.2684057282483
 20
33.7884633758626
 30
0.0
 11
-24.7684057282483
 21
33.7884633758626
 31
0.0
  0
LINE
  5
6C
330
1F
100
AcDbEntity
  8
1
  6
Continuous
 62
     7
100
AcDbLine
 10
-24.7684057282483
 20
33.7884633758626
 30
0.0
 11
-24.7684057282483
 21
35.7884633758626
 31
0.0
  0
LINE
  5
6D
330
1F
100
AcDbEntity
  8
1
  6
Continuous
 62
     7
100
AcDbLine
 10
24.23159427175171
 20
15.28846337586261
 30
0.0
 11
23.48159427175171
 21
15.28846337586261
 31
0.0
  0
LINE
  5
6E
330
1F
100
AcDbEntity
  8
1
  6
Continuous
 62
     7
100
AcDbLine
 10
23.48159427175171
 20
15.28846337586261
 30
0.0
 11
14.98159427174966
 21
15.28846337586261
 31
0.0
  0
LINE
  5
6F
330
1F
100
AcDbEntity
  8
1
  6
Continuous
 62
     7
100
AcDbLine
 10
14.98159427174966
 20
15.28846337586261
 30
0.0
 11
12.23159427175171
 21
15.28846337586261
 31
0.0
  0
LINE
  5
70
330
1F
100
AcDbEntity
  8
1
  6
DOT_CENTER
 62
     2
100
AcDbLine
 10
53.61202850631475
 20
16.28846337586261
 30
0.0
 11
53.61202850631475
 21
11.2736137115328
 31
0.0
  0
LINE
  5
71
330
1F
100
AcDbEntity
  8
1
  6
DOT_CENTER
 62
     2
100
AcDbLine
 10
53.61202850631475
 20
26.28846337586261
 30
0.0
 11
53.61202850631475
 21
29.37035456924282
 31
0.0
  0
LINE
  5
72
330
1F
100
AcDbEntity
  8
1
  6
DOT_CENTER
 62
     2
100
AcDbLine
 10
53.61202850631475
 20
26.28846337586261
 30
0.0
 11
53.61202850631475
 21
16.28846337586261
 31
0.0
  0
LINE
  5
73
330
1F
100
AcDbEntity
  8
1
  6
Continuous
 62
     7
100
AcDbLine
 10
37.73159427175171
 20
26.28846337586261
 30
0.0
 11
53.61202850631475
 21
26.28846337586261
 31
0.0
  0
LINE
  5
74
330
1F
100
AcDbEntity
  8
1
  6
Continuous
 62
     7
100
AcDbLine
 10
-17.7684057282483
 20
26.28846337586261
 30
0.0
 11
-17.7684057282483
 21
16.28846337586261
 31
0.0
  0
LINE
  5
75
330
1F
100
AcDbEntity
  8
1
  6
Continuous
 62
     7
100
AcDbLine
 10
-4.2684057282483
 20
26.28846337586261
 30
0.0
 11
-14.33520956885167
 21
26.28846337586261
 31
0.0
  0
LINE
  5
76
330
1F
100
AcDbEntity
  8
1
  6
Continuous
 62
     7
100
AcDbLine
 10
18.23159427175171
 20
26.28846337586261
 30
0.0
 11
37.73159427175171
 21
26.28846337586261
 31
0.0
  0
LINE
  5
77
330
1F
100
AcDbEntity
  8
1
  6
DOT_CENTER
 62
     2
100
AcDbLine
 10
17.7315942717517
 20
36.16027612121222
 30
0.0
 11
17.7315942717517
 21
26.28846337586261
 31
0.0
  0
LINE
  5
78
330
1F
100
AcDbEntity
  8
1
  6
Continuous
 62
     7
100
AcDbLine
 10
-17.7684057282483
 20
16.28846337586261
 30
0.0
 11
-4.2684057282483
 21
16.28846337586261
 31
0.0
  0
LINE
  5
79
330
1F
100
AcDbEntity
  8
1
  6
Continuous
 62
     7
100
AcDbLine
 10
11.23159427175176
 20
15.28846337586261
 30
0.0
 11
-3.2684057282483
 21
15.28846337586261
 31
0.0
  0
LINE
  5
7A
330
1F
100
AcDbEntity
  8
1
  6
Continuous
 62
     7
100
AcDbLine
 10
-4.2684057282483
 20
26.28846337586261
 30
0.0
 11
-3.2684057282483
 21
26.28846337586261
 31
0.0
  0
LINE
  5
7B
330
1F
100
AcDbEntity
  8
1
  6
Continuous
 62
     7
100
AcDbLine
 10
36.73159427175176
 20
26.28846337586261
 30
0.0
 11
36.73159427175176
 21
27.28846337586261
 31
0.0
  0
LINE
  5
7C
330
1F
100
AcDbEntity
  8
1
  6
Continuous
 62
     7
100
AcDbLine
 10
37.7315942717517
 20
31.28846337586261
 30
0.0
 11
-4.26840572824824
 21
31.28846337586261
 31
0.0
  0
LINE
  5
7D
330
1F
100
AcDbEntity
  8
1
  6
Continuous
 62
     7
100
AcDbLine
 10
24.23159427175171
 20
15.28846337586261
 30
0.0
 11
23.48159427175171
 21
15.28846337586261
 31
0.0
  0
LINE
  5
7E
330
1F
100
AcDbEntity
  8
1
  6
Continuous
 62
     7
100
AcDbLine
 10
23.48159427175171
 20
15.28846337586261
 30
0.0
 11
14.98159427174966
 21
15.28846337586261
 31
0.0
  0
LINE
  5
7F
330
1F
100
AcDbEntity
  8
1
  6
Continuous
 62
     7
100
AcDbLine
 10
14.98159427174966
 20
15.28846337586261
 30
0.0
 11
12.23159427175171
 21
15.28846337586261
 31
0.0
  0
LINE
  5
80
330
1F
100
AcDbEntity
  8
1
  6
Continuous
 62
     7
100
AcDbLine
 10
36.73159427175176
 20
15.28846337586261
 30
0.0
 11
23.23159427175176
 21
15.28846337586261
 31
0.0
  0
LINE
  5
81
330
1F
100
AcDbEntity
  8
1
  6
Continuous
 62
     7
100
AcDbLine
 10
37.73159427175171
 20
27.28846337586261
 30
0.0
 11
-3.2684057282483
 21
27.28846337586261
 31
0.0
  0
LINE
  5
82
330
1F
100
AcDbEntity
  8
1
  6
Continuous
 62
     7
100
AcDbLine
 10
36.73159427175176
 20
16.28846337586261
 30
0.0
 11
36.73159427175176
 21
15.28846337586261
 31
0.0
  0
LINE
  5
83
330
1F
100
AcDbEntity
  8
1
  6
Continuous
 62
     7
100
AcDbLine
 10
37.73159427175171
 20
16.28846337586261
 30
0.0
 11
53.61202850631475
 21
16.28846337586261
 31
0.0
  0
LINE
  5
84
330
1F
100
AcDbEntity
  8
1
  6
Continuous
 62
     7
100
AcDbLine
 10
-4.2684057282483
 20
16.28846337586261
 30
0.0
 11
-3.2684057282483
 21
16.28846337586261
 31
0.0
  0
LINE
  5
85
330
1F
100
AcDbEntity
  8
1
  6
Continuous
 62
     7
100
AcDbLine
 10
-31.32970610704681
 20
-15.93755674377066
 30
0.0
 11
-26.38894110512672
 21
-10.16357707670398
 31
0.0
  0
LINE
  5
86
330
1F
100
AcDbEntity
  8
1
  6
Continuous
 62
     7
100
AcDbLine
 10
-26.38894110512672
 20
-10.16357707670398
 30
0.0
 11
-24.17797975073581
 21
-7.57975738482179
 31
0.0
  0
LINE
  5
87
330
1F
100
AcDbEntity
  8
1
  6
Continuous
 62
     7
100
AcDbLine
 10
-29.84675372320453
 20
-10.70536291830337
 30
0.0
 11
-26.38894110512672
 21
-10.16357707670398
 31
0.0
  0
LINE
  5
88
330
1F
100
AcDbEntity
  8
1
  6
Continuous
 62
     7
100
AcDbLine
 10
-2.4180851901927
 20
11.613541846604
 30
0.0
 11
-21.51867995470662
 21
-9.85530668001167
 31
0.0
  0
LINE
  5
89
330
1F
100
AcDbEntity
  8
1
  6
Continuous
 62
     7
100
AcDbLine
 10
-2.03818521933141
 20
11.78846337586259
 30
0.0
 11
37.73159427175142
 21
11.78846337586262
 31
0.0
  0
LINE
  5
8A
330
1F
100
AcDbEntity
  8
1
  6
Continuous
 62
     7
100
AcDbLine
 10
37.73159427175142
 20
15.28846337586267
 30
0.0
 11
-2.0381852193313
 21
15.28846337586267
 31
0.0
  0
LINE
  5
8B
330
1F
100
AcDbEntity
  8
1
  6
Continuous
 62
     7
100
AcDbLine
 10
37.73159427175142
 20
11.78846337586262
 30
0.0
 11
37.73159427175142
 21
15.28846337586267
 31
0.0
  0
LINE
  5
8C
330
1F
100
AcDbEntity
  8
1
  6
DOT_CENTER
 62
     2
100
AcDbLine
 10
-25.30729904131696
 20
-11.71153662413741
 30
0.0
 11
-47.54079055180546
 21
-11.71153662413741
 31
0.0
  0
LINE
  5
8D
330
1F
100
AcDbEntity
  8
1
  6
DOT_CENTER
 62
     2
100
AcDbLine
 10
-36.26840572824835
 20
-11.7115366241374
 30
0.0
 11
-36.26840572824827
 21
-0.99033976075072
 31
0.0
  0
LINE
  5
8E
330
1F
100
AcDbEntity
  8
1
  6
DOT_CENTER
 62
     2
100
AcDbLine
 10
-36.26840572824835
 20
-11.7115366241374
 30
0.0
 11
-36.26840572824827
 21
-22.78851774600674
 31
0.0
  0
LINE
  5
8F
330
1F
100
AcDbEntity
  8
1
  6
DOT_CENTER
 62
     2
100
AcDbLine
 10
17.7315942717517
 20
17.11059367575857
 30
0.0
 11
17.7315942717517
 21
10.47944214229081
 31
0.0
  0
LINE
  5
90
330
1F
100
AcDbEntity
  8
1
  6
DASHED
 62
     2
100
AcDbLine
 10
-24.17797975073581
 20
-7.57975738482179
 30
0.0
 11
-21.51867995470662
 21
-9.85530668001167
 31
0.0
  0
LINE
  5
91
330
1F
100
AcDbEntity
  8
1
  6
Continuous
 62
     7
100
AcDbLine
 10
-24.17797975073581
 20
-7.57975738482179
 30
0.0
 11
-5.07738498622183
 21
13.88909114179396
 31
0.0
  0
LINE
  5
92
330
1F
100
AcDbEntity
  8
1
  6
Continuous
 62
     7
100
AcDbLine
 10
-21.51867995470662
 20
-9.85530668001167
 30
0.0
 11
-28.670406311022
 21
-18.21310603896564
 31
0.0
  0
LINE
  5
93
330
1F
100
AcDbEntity
  8
1
  6
Continuous
 62
     7
100
AcDbLine
 10
-28.26840572824833
 20
-5.7115366241375
 30
0.0
 11
-31.16840572824833
 21
-1.84486995747083
 31
0.0
  0
LINE
  5
94
330
1F
100
AcDbEntity
  8
1
  6
Continuous
 62
     7
100
AcDbLine
 10
-34.76840572824835
 20
0.2884633758625
 30
0.0
 11
-34.76840572824835
 21
27.7884633758625
 31
0.0
  0
LINE
  5
95
330
1F
100
AcDbEntity
  8
1
  6
Continuous
 62
     7
100
AcDbLine
 10
-34.76840572824835
 20
27.7884633758625
 30
0.0
 11
-31.26840572824836
 21
27.7884633758625
 31
0.0
  0
LINE
  5
96
330
1F
100
AcDbEntity
  8
1
  6
Continuous
 62
     7
100
AcDbLine
 10
-34.76840572824835
 20
0.2884633758625
 30
0.0
 11
-31.26840572824836
 21
0.2884633758625
 31
0.0
  0
LINE
  5
97
330
1F
100
AcDbEntity
  8
1
  6
Continuous
 62
     7
100
AcDbLine
 10
-34.76840572824835
 20
-1.54486995747082
 30
0.0
 11
-34.76840572824835
 21
0.2884633758625
 31
0.0
  0
LINE
  5
98
330
1F
100
AcDbEntity
  8
1
  6
Continuous
 62
     7
100
AcDbLine
 10
-31.26840572824836
 20
27.7884633758625
 30
0.0
 11
-31.2684057282483
 21
-1.54486995747084
 31
0.0
  0
LINE
  5
99
330
1F
100
AcDbEntity
  8
1
  6
DOT_CENTER
 62
     2
100
AcDbLine
 10
17.7315942717517
 20
17.11059367575857
 30
0.0
 11
17.7315942717517
 21
26.28846337586261
 31
0.0
  0
LINE
  5
9A
330
1F
100
AcDbEntity
  8
1
  6
Continuous
 62
     7
100
AcDbLine
 10
-31.26840572824831
 20
3.78846337586261
 30
0.0
 11
-30.25498779407536
 21
3.7884633758626
 31
0.0
  0
LINE
  5
9B
330
1F
100
AcDbEntity
  8
1
  6
Continuous
 62
     7
100
AcDbLine
 10
-34.76840572824835
 20
2.2884633758626
 30
0.0
 11
-39.2684057282483
 21
2.2884633758626
 31
0.0
  0
LINE
  5
9C
330
1F
100
AcDbEntity
  8
1
  6
Continuous
 62
     7
100
AcDbLine
 10
-3.2684057282483
 20
27.28846337586261
 30
0.0
 11
-3.2684057282483
 21
26.28846337586261
 31
0.0
  0
LINE
  5
9D
330
1F
100
AcDbEntity
  8
1
  6
Continuous
 62
     7
100
AcDbLine
 10
-3.2684057282483
 20
26.28846337586261
 30
0.0
 11
18.23159427175171
 21
26.28846337586261
 31
0.0
  0
LINE
  5
9E
330
1F
100
AcDbEntity
  8
1
  6
Continuous
 62
     7
100
AcDbLine
 10
-3.2684057282483
 20
27.28846337586261
 30
0.0
 11
-4.26840572824825
 21
27.28846337586261
 31
0.0
  0
LINE
  5
9F
330
1F
100
AcDbEntity
  8
1
  6
Continuous
 62
     7
100
AcDbLine
 10
-3.2684057282483
 20
16.28846337586261
 30
0.0
 11
-3.2684057282483
 21
15.28846337586261
 31
0.0
  0
LINE
  5
A0
330
1F
100
AcDbEntity
  8
1
  6
Continuous
 62
     7
100
AcDbLine
 10
-3.2684057282483
 20
16.28846337586261
 30
0.0
 11
37.73159427175171
 21
16.28846337586261
 31
0.0
  0
LINE
  5
A1
330
1F
100
AcDbEntity
  8
1
  6
Continuous
 62
     7
100
AcDbLine
 10
-4.26840572824824
 20
31.28846337586261
 30
0.0
 11
-4.26840572824825
 21
27.28846337586261
 31
0.0
  0
LINE
  5
A2
330
1F
100
AcDbEntity
  8
1
  6
Continuous
 62
     7
100
AcDbLine
 10
37.73159427175171
 20
27.28846337586261
 30
0.0
 11
37.7315942717517
 21
31.28846337586261
 31
0.0
  0
ARC
  5
A3
330
1F
100
AcDbEntity
  8
1
  6
Continuous
 62
     7
100
AcDbCircle
 10
-19.2684057282483
 20
43.2884633758626
 30
0.0
 40
1.0
100
AcDbArc
 50
90.0
 51
180.0
  0
ARC
  5
A4
330
1F
100
AcDbEntity
  8
1
  6
Continuous
 62
     7
100
AcDbCircle
 10
-19.2684057282483
 20
28.2884633758626
 30
0.0
 40
1.0
100
AcDbArc
 50
179.9999999999996
 51
-90.0
  0
ARC
  5
A5
330
1F
100
AcDbEntity
  8
1
  6
Continuous
 62
     7
100
AcDbCircle
 10
-12.69571993697701
 20
43.2884633758626
 30
0.0
 40
1.00000000000004
100
AcDbArc
 50
-15.00000000000355
 51
90.0
  0
ARC
  5
A6
330
1F
100
AcDbEntity
  8
1
  6
Continuous
 62
     7
100
AcDbCircle
 10
-19.2684057282483
 20
28.2884633758626
 30
0.0
 40
2.0
100
AcDbArc
 50
179.9999999999998
 51
-90.0
  0
ARC
  5
A7
330
1F
100
AcDbEntity
  8
1
  6
Continuous
 62
     7
100
AcDbCircle
 10
-12.69571993697701
 20
43.2884633758626
 30
0.0
 40
1.999999999999953
100
AcDbArc
 50
-15.00000000000241
 51
90.0
  0
ARC
  5
A8
330
1F
100
AcDbEntity
  8
1
  6
Continuous
 62
     7
100
AcDbCircle
 10
-19.2684057282483
 20
43.2884633758626
 30
0.0
 40
2.0
100
AcDbArc
 50
90.0
 51
180.0
  0
ARC
  5
A9
330
1F
100
AcDbEntity
  8
1
  6
Continuous
 62
     7
100
AcDbCircle
 10
-13.28549786073637
 20
28.91092453500875
 30
0.0
 40
1.622461159146141
100
AcDbArc
 50
-90.0
 51
70.15059394404017
  0
ARC
  5
AA
330
1F
100
AcDbEntity
  8
1
  6
Continuous
 62
     7
100
AcDbCircle
 10
-11.88571982606851
 20
32.7884633758626
 30
0.0
 40
2.500000000000173
100
AcDbArc
 50
165.000000000001
 51
-109.8494060559622
  0
ARC
  5
AB
330
1F
100
AcDbEntity
  8
1
  6
Continuous
 62
     7
100
AcDbCircle
 10
-13.28549786073637
 20
28.91092453500875
 30
0.0
 40
2.622461159146141
100
AcDbArc
 50
-90.0
 51
70.1505939440399
  0
ARC
  5
AC
330
1F
100
AcDbEntity
  8
1
  6
Continuous
 62
     7
100
AcDbCircle
 10
-36.26840572824835
 20
-11.7115366241374
 30
0.0
 40
6.500000000000103
100
AcDbArc
 50
-40.55343563346504
 51
8.90496249302982
  0
ARC
  5
AD
330
1F
100
AcDbEntity
  8
1
  6
Continuous
 62
     7
100
AcDbCircle
 10
-36.26840572824096
 20
-11.71153662413483
 30
0.0
 40
6.500000000007306
100
AcDbArc
 50
8.90496249301745
 51
-40.55343563346533
  0
ARC
  5
AE
330
1F
100
AcDbEntity
  8
1
  6
Continuous
 62
     7
100
AcDbCircle
 10
-36.26840572824835
 20
-11.7115366241374
 30
0.0
 40
10.0000000000001
100
AcDbArc
 50
8.9049624930298
 51
-40.55343563346518
  0
SPLINE
  5
AF
330
1F
100
AcDbEntity
  8
1
  6
Continuous
 62
     7
100
AcDbSpline
210
0.0
220
0.0
230
1.0
 70
     8
 71
     3
 72
    21
 73
    17
 74
    15
 42
0.0000000001
 43
0.0000000001
 44
0.00000001
 40
0.0
 40
0.0
 40
0.0
 40
0.0
 40
0.2055941652648149
 40
0.3664905725464263
 40
0.5282493060458173
 40
0.6720983026134622
 40
0.7797807341073996
 40
0.8857064111210503
 40
0.9882327233805682
 40
1.109598171382127
 40
1.203206969204907
 40
1.29300254424439
 40
1.416894134579051
 40
1.532052433088639
 40
1.636514903006415
 40
1.759431153385544
 40
1.759431153385544
 40
1.759431153385544
 40
1.759431153385544
 10
-8.723243787510397
 20
68.46104895484201
 30
0.0
 10
-8.670814726981572
 20
68.41746875628691
 30
0.0
 10
-8.577355088248494
 20
68.3397830306265
 30
0.0
 10
-8.377533667599684
 20
68.30731091051578
 30
0.0
 10
-8.279628153520383
 20
68.43731643909418
 30
0.0
 10
-8.150144924588556
 20
68.53219136559858
 30
0.0
 10
-8.042628397749858
 20
68.46147865707279
 30
0.0
 10
-7.943082560614506
 20
68.403092897783
 30
0.0
 10
-7.840471099987346
 20
68.4771149942894
 30
0.0
 10
-7.781382161859662
 20
68.55299366875008
 30
0.0
 10
-7.693143000546947
 20
68.6366088229957
 30
0.0
 10
-7.595480400319905
 20
68.5631909497724
 30
0.0
 10
-7.535535257968628
 20
68.48102378135765
 30
0.0
 10
-7.448365946347707
 20
68.39132850248012
 30
0.0
 10
-7.324618712060259
 20
68.40390962171432
 30
0.0
 10
-7.258815595989658
 20
68.44099913065051
 30
0.0
 10
-7.223243787510397
 20
68.46104895484201
 30
0.0
 11
-8.723243787510397
 21
68.46104895484201
 31
0.0
 11
-8.551740645909739
 21
68.34766627004385
 31
0.0
 11
-8.391371165615567
 21
68.33465536437562
 31
0.0
 11
-8.267014005768603
 21
68.4381018948062
 31
0.0
 11
-8.139843714778463
 21
68.50533470601472
 31
0.0
 11
-8.041334435883787
 21
68.46184415503986
 31
0.0
 11
-7.942215003407398
 21
68.4244865968172
 31
0.0
 11
-7.852201404303572
 21
68.47357016516662
 31
0.0
 11
-7.769130306129728
 21
68.56205047154499
 31
0.0
 11
-7.690687552570294
 21
68.6131321849446
 31
0.0
 11
-7.611430364563321
 21
68.57092385110046
 31
0.0
 11
-7.529354312859979
 21
68.47811949833378
 31
0.0
 11
-7.439160101734215
 21
68.4065203503289
 31
0.0
 11
-7.334734553648749
 21
68.4092974942525
 31
0.0
 11
-7.223243787510397
 21
68.46104895484201
 31
0.0
  0
XLINE
  5
B0
330
1F
100
AcDbEntity
  8
1
  6
DOT_CENTER
 62
     3
 60
     1
100
AcDbXline
 10
-3.2684057282483
 20
26.28846337586261
 30
0.0
 11
-1.0
 21
0.0
 31
0.0
  0
ARC
  5
B1
330
1F
100
AcDbEntity
  8
1
  6
Continuous
 62
     7
100
AcDbCircle
 10
-24.2684057282483
 20
5.2884633758626
 30
0.0
 40
1.5
100
AcDbArc
 50
-90.0
 51
0.0
  0
ARC
  5
B2
330
1F
100
AcDbEntity
  8
1
  6
Continuous
 62
     7
100
AcDbCircle
 10
-24.2684057282483
 20
35.7884633758626
 30
0.0
 40
1.5
100
AcDbArc
 50
0.0
 51
90.0
  0
ARC
  5
B3
330
1F
100
AcDbEntity
  8
1
  6
Continuous
 62
     7
100
AcDbCircle
 10
-42.2684057282483
 20
32.7884633758626
 30
0.0
 40
3.0
100
AcDbArc
 50
90.0
 51
180.0
  0
ARC
  5
B4
330
1F
100
AcDbEntity
  8
1
  6
Continuous
 62
     7
100
AcDbCircle
 10
-11.88571982606851
 20
32.7884633758626
 30
0.0
 40
1.500000000000152
100
AcDbArc
 50
165.0000000000001
 51
-90.0
  0
ARC
  5
B5
330
1F
100
AcDbEntity
  8
1
  6
Continuous
 62
     7
100
AcDbCircle
 10
-20.7684057282483
 20
44.7884633758626
 30
0.0
 40
0.5
100
AcDbArc
 50
90.0
 51
180.0
  0
ARC
  5
B6
330
1F
100
AcDbEntity
  8
1
  6
Continuous
 62
     7
100
AcDbCircle
 10
-50.2684057282483
 20
4.2884633758626
 30
0.0
 40
0.5
100
AcDbArc
 50
180.0
 51
-90.0
  0
ARC
  5
B7
330
1F
100
AcDbEntity
  8
1
  6
Continuous
 62
     7
100
AcDbCircle
 10
-10.74088187771537
 20
44.7884633758626
 30
0.0
 40
2.000000000000183
100
AcDbArc
 50
-15.00000000000065
 51
90.0
  0
ARC
  5
B8
330
1F
100
AcDbEntity
  8
1
  6
Continuous
 62
     7
100
AcDbCircle
 10
-11.23410713964807
 20
33.2884633758626
 30
0.0
 40
0.4999999999998977
100
AcDbArc
 50
165.0000000000015
 51
-90.0
  0
ARC
  5
B9
330
1F
100
AcDbEntity
  8
1
  6
Continuous
 62
     7
100
AcDbCircle
 10
-9.2232437875104
 20
33.2884633758626
 30
0.0
 40
0.5
100
AcDbArc
 50
-90.0
 51
0.0
  0
ARC
  5
BA
330
1F
100
AcDbEntity
  8
1
  6
Continuous
 62
     7
100
AcDbCircle
 10
-10.74088187771537
 20
44.7884633758626
 30
0.0
 40
0.5000000000001373
100
AcDbArc
 50
-14.99999999999868
 51
90.0
  0
ARC
  5
BB
330
1F
100
AcDbEntity
  8
1
  6
Continuous
 62
     7
100
AcDbCircle
 10
-8.7232437875104
 20
32.7884633758626
 30
0.0
 40
1.499999999999996
100
AcDbArc
 50
-90.0
 51
0.0
  0
ARC
  5
BC
330
1F
100
AcDbEntity
  8
1
  6
Continuous
 62
     7
100
AcDbCircle
 10
-50.7684057282483
 20
3.7884633758626
 30
0.0
 40
1.5
100
AcDbArc
 50
180.0
 51
-90.0
  0
ARC
  5
BD
330
1F
100
AcDbEntity
  8
1
  6
Continuous
 62
     7
100
AcDbCircle
 10
-22.7684057282483
 20
3.7884633758626
 30
0.0
 40
1.5
100
AcDbArc
 50
-90.0
 51
0.0
  0
ARC
  5
BE
330
1F
100
AcDbEntity
  8
1
  6
Continuous
 62
     7
100
AcDbCircle
 10
-21.2684057282483
 20
45.2884633758626
 30
0.0
 40
1.5
100
AcDbArc
 50
90.0
 51
180.0
  0
ARC
  5
BF
330
1F
100
AcDbEntity
  8
1
  6
Continuous
 62
     7
100
AcDbCircle
 10
-42.2684057282483
 20
32.7884633758626
 30
0.0
 40
1.0
100
AcDbArc
 50
90.0
 51
180.0
  0
ARC
  5
C0
330
1F
100
AcDbEntity
  8
1
  6
Continuous
 62
     7
100
AcDbCircle
 10
-2.03818521933141
 20
11.28846337586259
 30
0.0
 40
4.00000000000008
100
AcDbArc
 50
89.99999999999837
 51
139.4465643665329
  0
ARC
  5
C1
330
1F
100
AcDbEntity
  8
1
  6
Continuous
 62
     7
100
AcDbCircle
 10
-2.03818521933141
 20
11.28846337586259
 30
0.0
 40
0.4999999999999952
100
AcDbArc
 50
117.4155692383318
 51
139.4465643665327
  0
ARC
  5
C2
330
1F
100
AcDbEntity
  8
1
  6
Continuous
 62
     7
100
AcDbCircle
 10
-2.03818521933141
 20
11.28846337586259
 30
0.0
 40
0.5
100
AcDbArc
 50
90.0
 51
117.4155692383318
  0
ARC
  5
C3
330
1F
100
AcDbEntity
  8
1
  6
Continuous
 62
     7
100
AcDbCircle
 10
-30.76840572824836
 20
-1.54486995747084
 30
0.0
 40
3.999999999999986
100
AcDbArc
 50
179.9999999999996
 51
-175.9671381432756
  0
ARC
  5
C4
330
1F
100
AcDbEntity
  8
1
  6
Continuous
 62
     7
100
AcDbCircle
 10
-30.76840572824836
 20
-1.54486995747084
 30
0.0
 40
0.4999999999999396
100
AcDbArc
 50
180.0
 51
-143.1301023541555
  0
DIMENSION
  5
D0
330
1F
100
AcDbEntity
  8
1
100
AcDbDimension
  2
*D1
 10
-4.26840572824824
 20
39.03047933855281
 30
0.0
 11
16.79142449765991
 21
42.78047933855281
 31
0.0
 70
    32
  1
<>
 71
     5
 42
-1.0
 53
0.00013888888889
  3
ME10_DIM_10
100
AcDbAlignedDimension
 13
37.7315942717517
 23
31.28846337586261
 33
0.0
 14
-4.26840572824824
 24
31.28846337586261
 34
0.0
100
AcDbRotatedDimension
  0
DIMENSION
  5
DB
330
1F
100
AcDbEntity
  8
1
100
AcDbDimension
  2
*D2
 10
-62.48199741580861
 20
2.2884633758626
 30
0.0
 11
-66.2319974158086
 21
-5.03167325080932
 31
0.0
 70
    32
  1
<>
 71
     5
 42
-1.0
 53
90.0
  3
ME10_DIM_11
100
AcDbAlignedDimension
 13
-47.54079055180546
 23
-11.71153662413741
 33
0.0
 14
-50.7684057282483
 24
2.2884633758626
 34
0.0
 50
90.0
100
AcDbRotatedDimension
  0
DIMENSION
  5
E6
330
1F
100
AcDbEntity
  8
1
100
AcDbDimension
  2
*D3
 10
-72.5750299549473
 20
-11.71153662413741
 30
0.0
 11
-76.3250299549473
 21
8.75128516285323
 31
0.0
 70
    32
  1
<>
 71
     5
 42
-1.0
 53
90.0
  3
ME10_DIM_12
100
AcDbAlignedDimension
 13
-34.76840572824835
 23
27.7884633758625
 33
0.0
 14
-47.54079055180546
 24
-11.71153662413741
 34
0.0
 50
90.0
100
AcDbRotatedDimension
  0
DIMENSION
  5
F1
330
1F
100
AcDbEntity
  8
1
100
AcDbDimension
  2
*D4
 10
63.685068299998
 20
15.28846337586267
 30
0.0
 11
59.935068299998
 21
1.69084709710922
 31
0.0
 70
    32
  1
<>
 71
     5
 42
-1.0
 53
90.0
  3
ME10_DIM_13
100
AcDbAlignedDimension
 13
-25.30729904131696
 23
-11.71153662413741
 33
0.0
 14
37.73159427175142
 24
15.28846337586267
 34
0.0
 50
90.0
100
AcDbRotatedDimension
  0
DIMENSION
  5
FD
330
1F
100
AcDbEntity
  8
1
100
AcDbDimension
  2
*D5
 10
-36.26840572824827
 20
-31.8846712708462
 30
0.0
 11
-1.13010939301428
 21
-28.1346712708462
 31
0.0
 70
    32
  1
<>
 71
     5
 42
-1.0
 53
0.00013888888889
  3
ME10_DIM_14
100
AcDbAlignedDimension
 13
37.73159427175142
 23
11.78846337586262
 33
0.0
 14
-36.26840572824827
 24
-22.78851774600674
 34
0.0
100
AcDbRotatedDimension
  0
DIMENSION
  5
108
330
1F
100
AcDbEntity
  8
1
100
AcDbDimension
  2
*D6
 10
-21.2684057282483
 20
56.9882458291009
 30
0.0
 11
-26.7503692568977
 21
60.7382458291009
 31
0.0
 70
    32
  1
<>
 71
     5
 42
-1.0
 53
0.00013888888889
  3
ME10_DIM_15
100
AcDbAlignedDimension
 13
-31.2684057282483
 23
-1.54486995747084
 33
0.0
 14
-21.2684057282483
 24
3.7884633758626
 34
0.0
100
AcDbRotatedDimension
  0
DIMENSION
  5
115
330
1F
100
AcDbEntity
  8
1
100
AcDbDimension
  2
*D7
 10
-36.26840572824827
 20
66.50559057465091
 30
0.0
 11
-28.6111205227873
 21
70.25559057465091
 31
0.0
 70
    32
  1
<>
 71
     5
 42
-1.0
 53
0.00013888888889
  3
ME10_DIM_16
100
AcDbAlignedDimension
 13
-34.76840572824835
 23
27.7884633758625
 33
0.0
 14
-36.26840572824827
 24
-0.99033976075072
 34
0.0
100
AcDbRotatedDimension
  0
DIMENSION
  5
122
330
1F
100
AcDbEntity
  8
1
100
AcDbDimension
  2
*D8
 10
-17.7684057282483
 20
56.9882458291009
 30
0.0
 11
-13.4594033072867
 21
60.7382458291009
 31
0.0
 70
    32
  1
<>
 71
     5
 42
-1.0
 53
0.00013888888889
  3
ME10_DIM_17
100
AcDbAlignedDimension
 13
-21.2684057282483
 23
3.7884633758626
 33
0.0
 14
-17.7684057282483
 24
16.28846337586261
 34
0.0
100
AcDbRotatedDimension
  0
ENDSEC
  0
SECTION
  2
OBJECTS
  0
DICTIONARY
  5
C
330
0
100
AcDbDictionary
281
     1
  3
ACAD_GROUP
350
D
  3
ACAD_LAYOUT
350
1A
  3
ACAD_MLINESTYLE
350
17
  3
ACAD_PLOTSETTINGS
350
19
  3
ACAD_PLOTSTYLENAME
350
E
  0
DICTIONARY
  5
D
102
{ACAD_REACTORS
330
C
102
}
330
C
100
AcDbDictionary
281
     1
  0
DICTIONARY
  5
1A
102
{ACAD_REACTORS
330
C
102
}
330
C
100
AcDbDictionary
281
     1
  3
Layout1
350
1E
  3
Layout2
350
26
  3
Model
350
22
  0
DICTIONARY
  5
17
102
{ACAD_REACTORS
330
C
102
}
330
C
100
AcDbDictionary
281
     1
  3
Standard
350
18
  0
DICTIONARY
  5
19
102
{ACAD_REACTORS
330
C
102
}
330
C
100
AcDbDictionary
281
     1
  0
ACDBDICTIONARYWDFLT
  5
E
102
{ACAD_REACTORS
330
C
102
}
330
C
100
AcDbDictionary
281
     1
  3
Normal
350
F
100
AcDbDictionaryWithDefault
340
F
  0
LAYOUT
  5
1E
102
{ACAD_REACTORS
330
1A
102
}
330
1A
100
AcDbPlotSettings
  1

  2

  4

  6

 40
0.0
 41
0.0
 42
0.0
 43
0.0
 44
0.0
 45
0.0
 46
0.0
 47
0.0
 48
0.0
 49
0.0
140
0.0
141
0.0
142
1.0
143
1.0
 70
   688
 72
     0
 73
     0
 74
     5
  7

 75
    16
 76
     0
 77
     2
 78
   300
147
1.0
148
0.0
149
0.0
100
AcDbLayout
  1
Layout1
 70
     1
 71
     1
 10
0.0
 20
0.0
 11
0.0
 21
0.0
 12
0.0
 22
0.0
 32
0.0
 14
0.0
 24
0.0
 34
0.0
 15
0.0
 25
0.0
 35
0.0
146
0.0
 13
0.0
 23
0.0
 33
0.0
 16
1.0
 26
0.0
 36
0.0
 17
0.0
 27
1.0
 37
0.0
 76
     0
330
1B
  0
LAYOUT
  5
26
102
{ACAD_REACTORS
330
1A
102
}
330
1A
100
AcDbPlotSettings
  1

  2

  4

  6

 40
0.0
 41
0.0
 42
0.0
 43
0.0
 44
0.0
 45
0.0
 46
0.0
 47
0.0
 48
0.0
 49
0.0
140
0.0
141
0.0
142
1.0
143
1.0
 70
   688
 72
     0
 73
     0
 74
     5
  7

 75
    16
 76
     0
 77
     2
 78
   300
147
1.0
148
0.0
149
0.0
100
AcDbLayout
  1
Layout2
 70
     1
 71
     2
 10
0.0
 20
0.0
 11
0.0
 21
0.0
 12
0.0
 22
0.0
 32
0.0
 14
0.0
 24
0.0
 34
0.0
 15
0.0
 25
0.0
 35
0.0
146
0.0
 13
0.0
 23
0.0
 33
0.0
 16
1.0
 26
0.0
 36
0.0
 17
0.0
 27
1.0
 37
0.0
 76
     0
330
23
  0
LAYOUT
  5
22
102
{ACAD_REACTORS
330
1A
102
}
330
1A
100
AcDbPlotSettings
  1

  2

  4

  6

 40
0.0
 41
0.0
 42
0.0
 43
0.0
 44
0.0
 45
0.0
 46
0.0
 47
0.0
 48
0.0
 49
0.0
140
0.0
141
0.0
142
1.0
143
1.0
 70
  1712
 72
     0
 73
     0
 74
     0
  7

 75
     0
 76
     0
 77
     2
 78
   300
147
1.0
148
0.0
149
0.0
100
AcDbLayout
  1
Model
 70
     1
 71
     0
 10
0.0
 20
0.0
 11
0.0
 21
0.0
 12
0.0
 22
0.0
 32
0.0
 14
-78.0750299549473
 24
-33.8846712708462
 34
0.0
 15
65.685068299998
 25
72.00559057465091
 35
0.0
146
0.0
 13
0.0
 23
0.0
 33
0.0
 16
1.0
 26
0.0
 36
0.0
 17
0.0
 27
1.0
 37
0.0
 76
     0
330
1F
  0
MLINESTYLE
  5
18
102
{ACAD_REACTORS
330
17
102
}
330
17
100
AcDbMlineStyle
  2
Standard
 70
     0
  3

 62
   256
 51
90.0
 52
90.0
 71
     2
 49
0.5
 62
   256
  6
BYLAYER
 49
-0.5
 62
   256
  6
BYLAYER
  0
ACDBPLACEHOLDER
  5
F
102
{ACAD_REACTORS
330
E
102
}
330
E
  0
ENDSEC
  0
EOF
