999
DXF file: d:\tmp\workingDir\0000103776\5_071260_0_00000_mkt_q_01_01.dxf
999
Pro/ENGINEER 2016380 by Parametric Technology Corporation
  0
SECTION
  2
HEADER
  9
$ACADVER
  1
AC1014
  9
$DWGCODEPAGE
  3
ANSI_1252
  9
$EXTMAX
 10
100.076
 20
100.0
 30
0.0
  9
$EXTMIN
 10
-0.0
 20
0.0
 30
0.0
  9
$LIMMIN
 10
-0.0
 20
0.0
  9
$LIMMAX
 10
100.076
 20
100.0
  9
$VIEWCTR
 10
50.038
 20
50.0
  9
$VIEWSIZE
 40
100.0
  9
$CLAYER
  8
0
  9
$LTSCALE
 40
6.5185185185
  9
$CELTYPE
  6
BYLAYER
  9
$DIMSCALE
 40
1.0
  9
$DIMASZ
 40
3.5
  9
$DIMEXO
 40
0.0
  9
$DIMDLI
 40
4.5037037037
  9
$DIMEXE
 40
2.0
  9
$DIMCEN
 40
1.0666666667
  9
$DIMLFAC
 40
1.0
  9
$DIMBLK
  1
_ARROW_FILLED
  9
$DIMALT
 70
0
  9
$DIMALTF
 40
25.4
  9
$DIMTXT
 40
3.5
  9
$DIMTOL
 70
1
  9
$DIMLIM
 70
0
  9
$DIMTFAC
 40
1.0
  9
$DIMTP
 40
0.01
  9
$DIMTM
 40
0.01
  9
$DIMGAP
 40
0.625
  9
$AUNITS
 70
0
  9
$PDMODE
 70
0
  9
$PDSIZE
 40
0.04
  9
$HANDSEED
  5
377
  9
$TILEMODE
 70
1
  9
$MEASUREMENT
 70
1
  0
ENDSEC
  0
SECTION
  2
CLASSES
  0
ENDSEC
  0
SECTION
  2
TABLES
  0
TABLE
  2
VPORT
  5
8
100
AcDbSymbolTable
 70
2
  0
VPORT
  5
1F4
100
AcDbSymbolTableRecord
100
AcDbViewportTableRecord
  2
*ACTIVE
 70
0
 10
0.0
 20
0.0
 11
1.0
 21
1.0
 12
50.038
 22
50.0
 13
0.0
 23
0.0
 14
1.0
 24
1.0
 15
0.0
 25
0.0
 16
0.0
 26
0.0
 36
1.0
 17
0.0
 27
0.0
 37
0.0
 40
100.0
 41
1.00076
 42
50.0
 43
0.0
 44
0.0
 50
0.0
 51
0.0
 71
0
 72
100
 73
1
 74
1
 75
0
 76
0
 77
0
 78
0
  0
ENDTAB
  0
TABLE
  2
LTYPE
  5
5
100
AcDbSymbolTable
 70
6
  0
LTYPE
  5
14
100
AcDbSymbolTableRecord
100
AcDbLinetypeTableRecord
  2
BYBLOCK
 70
0
  3

 72
65
 73
0
 40
0.0
  0
LTYPE
  5
15
100
AcDbSymbolTableRecord
100
AcDbLinetypeTableRecord
  2
BYLAYER
 70
0
  3

 72
65
 73
0
 40
0.0
  0
LTYPE
  5
16
100
AcDbSymbolTableRecord
100
AcDbLinetypeTableRecord
  2
CONTINUOUS
 70
64
  3
Solid line
 72
65
 73
0
 40
0.0
  0
LTYPE
  5
1F5
100
AcDbSymbolTableRecord
100
AcDbLinetypeTableRecord
  2
CENTER
 70
64
  3
____ _ ____ _ ____ _ ____ _ ____ _ ____ _ ____
 72
65
 73
4
 40
0.6
 49
0.375
 74
0
 49
-0.075
 74
0
 49
0.075
 74
0
 49
-0.075
 74
0
  0
LTYPE
  5
1F6
100
AcDbSymbolTableRecord
100
AcDbLinetypeTableRecord
  2
HIDDEN
 70
64
  3
- - - - - - - - - - - - - - - - - - - -
 72
65
 73
2
 40
0.2
 49
0.1
 74
0
 49
-0.1
 74
0
  0
LTYPE
  5
1F7
100
AcDbSymbolTableRecord
100
AcDbLinetypeTableRecord
  2
PHANTOM
 70
64
  3
_____ _ _ _____ _ _ _____ _ _ _____
 72
65
 73
6
 40
0.8
 49
0.45
 74
0
 49
-0.05
 74
0
 49
0.1
 74
0
 49
-0.05
 74
0
 49
0.1
 74
0
 49
-0.05
 74
0
  0
LTYPE
  5
1F8
100
AcDbSymbolTableRecord
100
AcDbLinetypeTableRecord
  2
DOT
 70
64
  3
. . . . . . . . . . . . . . . . . . . .
 72
65
 73
2
 40
0.2
 49
0.1
 74
0
 49
-0.1
 74
0
  0
LTYPE
  5
1F9
100
AcDbSymbolTableRecord
100
AcDbLinetypeTableRecord
  2
DASHED
 70
64
  3
- - - - - - - - - - - - - - - - - - - -
 72
65
 73
2
 40
0.2
 49
0.1
 74
0
 49
-0.1
 74
0
  0
ENDTAB
  0
TABLE
  2
LAYER
  5
2
100
AcDbSymbolTable
 70
36
  0
LAYER
  5
10
100
AcDbSymbolTableRecord
100
AcDbLayerTableRecord
  2
0
 70
0
 62
7
  6
CONTINUOUS
  0
LAYER
  5
1FA
100
AcDbSymbolTableRecord
100
AcDbLayerTableRecord
  2
DEFAULT_1
 70
0
 62
7
  6
CENTER
  0
LAYER
  5
1FB
100
AcDbSymbolTableRecord
100
AcDbLayerTableRecord
  2
DEFAULT_2
 70
0
 62
8
  6
HIDDEN
  0
LAYER
  5
1FC
100
AcDbSymbolTableRecord
100
AcDbLayerTableRecord
  2
DEFAULT_3
 70
0
 62
7
  6
PHANTOM
  0
LAYER
  5
1FD
100
AcDbSymbolTableRecord
100
AcDbLayerTableRecord
  2
A_ACHSEN
 70
0
 62
7
  6
CONTINUOUS
  0
LAYER
  5
1FE
100
AcDbSymbolTableRecord
100
AcDbLayerTableRecord
  2
A_BASISEBENEN
 70
0
 62
7
  6
CONTINUOUS
  0
LAYER
  5
1FF
100
AcDbSymbolTableRecord
100
AcDbLayerTableRecord
  2
A_BEMASSUNGEN
 70
0
 62
7
  6
CONTINUOUS
  0
LAYER
  5
200
100
AcDbSymbolTableRecord
100
AcDbLayerTableRecord
  2
A_BOHRUNGEN
 70
0
 62
7
  6
CONTINUOUS
  0
LAYER
  5
201
100
AcDbSymbolTableRecord
100
AcDbLayerTableRecord
  2
A_EBENEN
 70
0
 62
7
  6
CONTINUOUS
  0
LAYER
  5
202
100
AcDbSymbolTableRecord
100
AcDbLayerTableRecord
  2
A_FASEN
 70
0
 62
7
  6
CONTINUOUS
  0
LAYER
  5
203
100
AcDbSymbolTableRecord
100
AcDbLayerTableRecord
  2
A_FLAECHEN
 70
0
 62
7
  6
CONTINUOUS
  0
LAYER
  5
204
100
AcDbSymbolTableRecord
100
AcDbLayerTableRecord
  2
A_FL_VERBAENDE
 70
0
 62
7
  6
CONTINUOUS
  0
LAYER
  5
205
100
AcDbSymbolTableRecord
100
AcDbLayerTableRecord
  2
A_KURVEN
 70
0
 62
7
  6
CONTINUOUS
  0
LAYER
  5
206
100
AcDbSymbolTableRecord
100
AcDbLayerTableRecord
  2
A_NOTIZEN_SYMB
 70
0
 62
7
  6
CONTINUOUS
  0
LAYER
  5
207
100
AcDbSymbolTableRecord
100
AcDbLayerTableRecord
  2
A_PUNKTE
 70
0
 62
7
  6
CONTINUOUS
  0
LAYER
  5
208
100
AcDbSymbolTableRecord
100
AcDbLayerTableRecord
  2
A_RUNDUNGEN
 70
0
 62
7
  6
CONTINUOUS
  0
LAYER
  5
209
100
AcDbSymbolTableRecord
100
AcDbLayerTableRecord
  2
BASISEBENEN
 70
0
 62
7
  6
CONTINUOUS
  0
LAYER
  5
20A
100
AcDbSymbolTableRecord
100
AcDbLayerTableRecord
  2
XSEC_DATUMS
 70
0
 62
7
  6
CONTINUOUS
  0
ENDTAB
  0
TABLE
  2
STYLE
  5
3
100
AcDbSymbolTable
 70
1
  0
STYLE
  5
11
100
AcDbSymbolTableRecord
100
AcDbTextStyleTableRecord
  2
STANDARD
 70
0
 40
0.0
 41
1.0
 50
0.0
 71
0
 42
0.2
  3
txt
  4

  0
STYLE
  5
20B
100
AcDbSymbolTableRecord
100
AcDbTextStyleTableRecord
  2
TEXTSTYLE_1
 70
0
 40
0.0
 41
0.8
 50
0.0
 71
0
 42
0.2
  3
gdt
  4

  0
STYLE
  5
20C
100
AcDbSymbolTableRecord
100
AcDbTextStyleTableRecord
  2
TEXTSTYLE_2
 70
0
 40
0.0
 41
1.0
 50
0.0
 71
0
 42
0.2
  3
txt
  4

  0
ENDTAB
  0
TABLE
  2
VIEW
  5
6
100
AcDbSymbolTable
 70
0
  0
ENDTAB
  0
TABLE
  2
UCS
  5
7
100
AcDbSymbolTable
 70
0
  0
ENDTAB
  0
TABLE
  2
APPID
  5
9
100
AcDbSymbolTable
 70
1
  0
APPID
  5
20D
100
AcDbSymbolTableRecord
100
AcDbRegAppTableRecord
  2
ACAD
 70
0
  0
ENDTAB
  0
TABLE
  2
BLOCK_RECORD
  5
1
100
AcDbSymbolTable
 70
0
  0
BLOCK_RECORD
  5
1F
100
AcDbSymbolTableRecord
100
AcDbBlockTableRecord
  2
*MODEL_SPACE
  0
BLOCK_RECORD
  5
1B
100
AcDbSymbolTableRecord
100
AcDbBlockTableRecord
  2
*PAPER_SPACE
  0
BLOCK_RECORD
  5
20E
100
AcDbSymbolTableRecord
100
AcDbBlockTableRecord
  2
_ARROW_FILLED
  0
BLOCK_RECORD
  5
20F
100
AcDbSymbolTableRecord
100
AcDbBlockTableRecord
  2
*D0
  0
BLOCK_RECORD
  5
210
100
AcDbSymbolTableRecord
100
AcDbBlockTableRecord
  2
*D1
  0
BLOCK_RECORD
  5
211
100
AcDbSymbolTableRecord
100
AcDbBlockTableRecord
  2
*D2
  0
ENDTAB
  0
TABLE
  2
DIMSTYLE
  5
A
100
AcDbSymbolTable
 70
1
  0
DIMSTYLE
105
212
100
AcDbSymbolTableRecord
100
AcDbDimStyleTableRecord
  2
STANDARD
 70
0
  3

  4

  5
_ARROW_FILLED
  6
_ARROW_FILLED
  7
_ARROW_FILLED
 40
1.0
 41
3.5
 42
0.0
 43
0.38
 44
2.0
 45
0.0
 46
0.0
 47
0.01
 48
0.01
140
3.5
141
0.09
142
0.0
143
25.4
144
1.0
145
0.0
146
1.0
147
0.625
 71
1.0
 72
0.0
 73
0
 74
0
 75
0
 76
0
 77
1
 78
8
170
0
171
1
172
0
173
0
174
0
175
0
176
0
177
0
178
5
270
2
271
2
272
2
273
2
274
2
275
0
280
0
281
0
282
0
283
1
284
8
285
0
286
0
287
3
288
0
340
11
  0
DIMSTYLE
105
213
100
AcDbSymbolTableRecord
100
AcDbDimStyleTableRecord
  2
DIMSTYLE_1
 70
0
  3

  4

  5
_ARROW_FILLED
  6
_ARROW_FILLED
  7
_ARROW_FILLED
 40
1.0
 41
3.5
 42
0.0
 43
0.38
 44
2.0
 45
0.0
 46
0.0
 47
0.2
 48
0.2
140
3.5
141
0.09
142
0.0
143
25.4
144
1.0
145
0.0
146
1.0
147
0.875
 71
0.0
 72
0.0
 73
0
 74
0
 75
0
 76
0
 77
1
 78
8
170
0
171
1
172
0
173
0
174
0
175
0
176
0
177
0
178
5
270
2
271
4
272
-1
273
2
274
2
275
0
280
0
281
0
282
0
283
1
284
8
285
0
286
0
287
3
288
0
340
20C
  0
ENDTAB
  0
ENDSEC
  0
SECTION
  2
BLOCKS
  0
BLOCK
  5
20
100
AcDbEntity
  8
0
100
AcDbBlockBegin
  2
*MODEL_SPACE
 70
0
 10
0.0
 20
0.0
 30
0.0
  3
*MODEL_SPACE
  1

  0
ENDBLK
  5
21
100
AcDbEntity
  8
0
100
AcDbBlockEnd
  0
BLOCK
  5
1C
100
AcDbEntity
  8
0
100
AcDbBlockBegin
  2
*PAPER_SPACE
 70
0
 10
0.0
 20
0.0
 30
0.0
  3
*PAPER_SPACE
  1

  0
ENDBLK
  5
1D
100
AcDbEntity
  8
0
100
AcDbBlockEnd
  0
BLOCK
  5
214
100
AcDbEntity
  8
0
100
AcDbBlockBegin
  2
_ARROW_FILLED
 70
64
 10
0.0
 20
0.0
  3
_ARROW_FILLED
  1

  0
SOLID
  5
215
100
AcDbEntity
  8
0
  6
BYBLOCK
 62
0
100
AcDbTrace
 10
0.0
 20
0.0
 11
-1.0
 21
0.1428571429
 12
-1.0
 22
-0.1428571429
 13
-1.0
 23
-0.1428571429
  0
ENDBLK
  5
216
100
AcDbEntity
  8
0
  6
BYBLOCK
 62
0
100
AcDbBlockEnd
  0
BLOCK
  5
217
100
AcDbEntity
  8
A_BEMASSUNGEN
100
AcDbBlockBegin
 62
2
  6
CONTINUOUS
  2
*D0
 70
65
 10
0.0
 20
0.0
  3
*D0
  1

  0
MTEXT
  5
218
100
AcDbEntity
  8
A_BEMASSUNGEN
100
AcDbMText
 62
5
  6
CONTINUOUS
  7
TEXTSTYLE_2
 71
2
 72
1
 10
5.3743894197
 20
37.070422606
 30
0.0
 11
0.0
 21
1.0
 31
0.0
  1
29
 40
3.5
 41
8.25
  0
LINE
  5
219
100
AcDbEntity
  8
A_BEMASSUNGEN
100
AcDbLine
 62
2
  6
CONTINUOUS
 10
50.7363388414
 20
51.570422606
 11
7.7493894197
 21
51.570422606
  0
LINE
  5
21A
100
AcDbEntity
  8
A_BEMASSUNGEN
100
AcDbLine
 62
2
  6
CONTINUOUS
 10
56.7363388414
 20
22.570422606
 11
7.7493894197
 21
22.570422606
  0
LINE
  5
21B
100
AcDbEntity
  8
A_BEMASSUNGEN
100
AcDbLine
 62
2
  6
CONTINUOUS
 10
9.7493894197
 20
51.570422606
 11
9.7493894197
 21
37.070422606
  0
LINE
  5
21C
100
AcDbEntity
  8
A_BEMASSUNGEN
100
AcDbLine
 62
2
  6
CONTINUOUS
 10
9.7493894197
 20
22.570422606
 11
9.7493894197
 21
37.070422606
  0
INSERT
  5
21D
100
AcDbEntity
  8
A_BEMASSUNGEN
100
AcDbBlockReference
 62
2
  6
CONTINUOUS
  2
_ARROW_FILLED
 10
9.7493894197
 20
51.570422606
 41
3.5
 42
3.5
 43
3.5
 50
90.0
  0
INSERT
  5
21E
100
AcDbEntity
  8
A_BEMASSUNGEN
100
AcDbBlockReference
 62
2
  6
CONTINUOUS
  2
_ARROW_FILLED
 10
9.7493894197
 20
22.570422606
 41
3.5
 42
3.5
 43
3.5
 50
270.0
  0
ENDBLK
  5
21F
100
AcDbEntity
  8
0
  6
BYBLOCK
 62
0
100
AcDbBlockEnd
  0
BLOCK
  5
220
100
AcDbEntity
  8
A_BEMASSUNGEN
100
AcDbBlockBegin
 62
2
  6
CONTINUOUS
  2
*D1
 70
65
 10
0.0
 20
0.0
  3
*D1
  1

  0
MTEXT
  5
221
100
AcDbEntity
  8
A_BEMASSUNGEN
100
AcDbMText
 62
5
  6
CONTINUOUS
  7
TEXTSTYLE_2
 71
2
 72
1
 10
69.7363388414
 20
20.0359068439
 30
0.0
 11
1.0
 21
0.0
 31
0.0
  1
10
 40
3.5
 41
7.125
  0
LINE
  5
222
100
AcDbEntity
  8
A_BEMASSUNGEN
100
AcDbLine
 62
2
  6
CONTINUOUS
 10
74.7363388414
 20
22.570422606
 11
74.7363388414
 21
13.6609068439
  0
LINE
  5
223
100
AcDbEntity
  8
A_BEMASSUNGEN
100
AcDbLine
 62
2
  6
CONTINUOUS
 10
64.7363388414
 20
28.070422606
 11
64.7363388414
 21
13.6609068439
  0
LINE
  5
224
100
AcDbEntity
  8
A_BEMASSUNGEN
100
AcDbLine
 62
2
  6
CONTINUOUS
 10
74.7363388414
 20
15.6609068439
 11
69.7363388414
 21
15.6609068439
  0
LINE
  5
225
100
AcDbEntity
  8
A_BEMASSUNGEN
100
AcDbLine
 62
2
  6
CONTINUOUS
 10
64.7363388414
 20
15.6609068439
 11
69.7363388414
 21
15.6609068439
  0
INSERT
  5
226
100
AcDbEntity
  8
A_BEMASSUNGEN
100
AcDbBlockReference
 62
2
  6
CONTINUOUS
  2
_ARROW_FILLED
 10
74.7363388414
 20
15.6609068439
 41
3.5
 42
3.5
 43
3.5
  0
INSERT
  5
227
100
AcDbEntity
  8
A_BEMASSUNGEN
100
AcDbBlockReference
 62
2
  6
CONTINUOUS
  2
_ARROW_FILLED
 10
64.7363388414
 20
15.6609068439
 41
3.5
 42
3.5
 43
3.5
 50
180.0
  0
ENDBLK
  5
228
100
AcDbEntity
  8
0
  6
BYBLOCK
 62
0
100
AcDbBlockEnd
  0
BLOCK
  5
229
100
AcDbEntity
  8
A_BEMASSUNGEN
100
AcDbBlockBegin
 62
2
  6
CONTINUOUS
  2
*D2
 70
65
 10
0.0
 20
0.0
  3
*D2
  1

  0
MTEXT
  5
22A
100
AcDbEntity
  8
A_BEMASSUNGEN
100
AcDbMText
 62
5
  6
CONTINUOUS
  7
TEXTSTYLE_2
 71
2
 72
1
 10
62.7363388414
 20
11.3325751952
 30
0.0
 11
1.0
 21
0.0
 31
0.0
  1
24
 40
3.5
 41
8.25
  0
LINE
  5
22B
100
AcDbEntity
  8
A_BEMASSUNGEN
100
AcDbLine
 62
2
  6
CONTINUOUS
 10
74.7363388414
 20
22.570422606
 11
74.7363388414
 21
4.9575751952
  0
LINE
  5
22C
100
AcDbEntity
  8
A_BEMASSUNGEN
100
AcDbLine
 62
2
  6
CONTINUOUS
 10
50.7363388414
 20
22.570422606
 11
50.7363388414
 21
4.9575751952
  0
LINE
  5
22D
100
AcDbEntity
  8
A_BEMASSUNGEN
100
AcDbLine
 62
2
  6
CONTINUOUS
 10
74.7363388414
 20
6.9575751952
 11
62.7363388414
 21
6.9575751952
  0
LINE
  5
22E
100
AcDbEntity
  8
A_BEMASSUNGEN
100
AcDbLine
 62
2
  6
CONTINUOUS
 10
50.7363388414
 20
6.9575751952
 11
62.7363388414
 21
6.9575751952
  0
INSERT
  5
22F
100
AcDbEntity
  8
A_BEMASSUNGEN
100
AcDbBlockReference
 62
2
  6
CONTINUOUS
  2
_ARROW_FILLED
 10
74.7363388414
 20
6.9575751952
 41
3.5
 42
3.5
 43
3.5
  0
INSERT
  5
230
100
AcDbEntity
  8
A_BEMASSUNGEN
100
AcDbBlockReference
 62
2
  6
CONTINUOUS
  2
_ARROW_FILLED
 10
50.7363388414
 20
6.9575751952
 41
3.5
 42
3.5
 43
3.5
 50
180.0
  0
ENDBLK
  5
231
100
AcDbEntity
  8
0
  6
BYBLOCK
 62
0
100
AcDbBlockEnd
  0
ENDSEC
  0
SECTION
  2
ENTITIES
  0
DIMENSION
  5
232
100
AcDbEntity
  8
A_BEMASSUNGEN
100
AcDbDimension
 62
2
  6
CONTINUOUS
  2
*D0
 10
9.7493894197
 20
22.570422606
 11
9.7493894197
 21
36.5704227986
 70
160
  3
DIMSTYLE_1
100
AcDbAlignedDimension
 13
50.7363388414
 23
51.570422606
 14
56.7363388414
 24
22.570422606
 50
270.0
100
AcDbRotatedDimension
  0
DIMENSION
  5
233
100
AcDbEntity
  8
A_BEMASSUNGEN
100
AcDbDimension
 62
2
  6
CONTINUOUS
  2
*D1
 10
64.7363388414
 20
15.6609068439
 11
69.2363362269
 21
15.6609068439
 70
160
  3
DIMSTYLE_1
100
AcDbAlignedDimension
 13
74.7363388414
 23
22.570422606
 14
64.7363388414
 24
28.070422606
 50
180.0
100
AcDbRotatedDimension
  0
DIMENSION
  5
234
100
AcDbEntity
  8
A_BEMASSUNGEN
100
AcDbDimension
 62
2
  6
CONTINUOUS
  2
*D2
 10
50.7363388414
 20
6.9575751952
 11
62.2363362269
 21
6.9575751952
 70
160
  3
DIMSTYLE_1
100
AcDbAlignedDimension
 13
74.7363388414
 23
22.570422606
 14
50.7363388414
 24
22.570422606
 50
180.0
100
AcDbRotatedDimension
  0
LINE
  5
235
100
AcDbEntity
  8
0
100
AcDbLine
 62
7
  6
CONTINUOUS
 10
17.7363388414
 20
92.570422606
 11
17.7363388414
 21
22.570422606
  0
LINE
  5
236
100
AcDbEntity
  8
0
100
AcDbLine
 62
7
  6
CONTINUOUS
 10
17.7363388414
 20
22.570422606
 11
74.7363388414
 21
22.570422606
  0
LINE
  5
237
100
AcDbEntity
  8
0
100
AcDbLine
 62
7
  6
CONTINUOUS
 10
69.4028864634
 20
25.570422606
 11
50.7363388414
 21
25.570422606
  0
LINE
  5
238
100
AcDbEntity
  8
0
100
AcDbLine
 62
7
  6
CONTINUOUS
 10
50.7363388414
 20
27.570422606
 11
71.9868901997
 21
27.570422606
  0
LINE
  5
239
100
AcDbEntity
  8
0
100
AcDbLine
 62
7
  6
CONTINUOUS
 10
50.7363388414
 20
27.670422606
 11
53.7363388414
 21
27.670422606
  0
LINE
  5
23A
100
AcDbEntity
  8
0
100
AcDbLine
 62
7
  6
CONTINUOUS
 10
61.5363388414
 20
28.070422606
 11
55.5363388414
 21
28.070422606
  0
LINE
  5
23B
100
AcDbEntity
  8
0
100
AcDbLine
 62
7
  6
CONTINUOUS
 10
62.7363388414
 20
28.070422606
 11
69.7363388414
 21
28.070422606
  0
LINE
  5
23C
100
AcDbEntity
  8
DEFAULT_2
100
AcDbLine
 62
8
  6
HIDDEN
 10
29.4929265115
 20
39.6277192461
 11
29.6900464299
 21
39.3992451264
  0
LINE
  5
23D
100
AcDbEntity
  8
0
100
AcDbLine
 62
7
  6
CONTINUOUS
 10
55.5363388414
 20
29.170422606
 11
50.7363388414
 21
29.170422606
  0
LINE
  5
23E
100
AcDbEntity
  8
0
100
AcDbLine
 62
7
  6
CONTINUOUS
 10
71.7363388414
 20
31.320422606
 11
74.7363388414
 21
31.320422606
  0
LINE
  5
23F
100
AcDbEntity
  8
0
100
AcDbLine
 62
7
  6
CONTINUOUS
 10
73.4363388414
 20
31.570422606
 11
70.0363388414
 21
31.570422606
  0
LWPOLYLINE
  5
240
100
AcDbEntity
  8
DEFAULT_2
100
AcDbPolyline
 62
8
  6
HIDDEN
 90
4
 70
0
 10
30.3183865135
 20
39.3431645696
 10
30.4185581346
 20
39.2352721121
 10
30.5949612976
 20
38.934083173
 10
30.7392437086
 20
38.6040993233
  0
LWPOLYLINE
  5
241
100
AcDbEntity
  8
DEFAULT_2
100
AcDbPolyline
 62
8
  6
HIDDEN
 90
4
 70
0
 10
32.9117887994
 20
40.2691505393
 10
32.8609966681
 20
40.3444444633
 10
32.6698721102
 20
40.6790771286
 10
32.5146844455
 20
41.0017110648
  0
LWPOLYLINE
  5
242
100
AcDbEntity
  8
DEFAULT_2
100
AcDbPolyline
 62
8
  6
HIDDEN
 90
4
 70
0
 10
32.8722192884
 20
38.8876081663
 10
32.9714022542
 20
38.7067885192
 10
33.1710580297
 20
38.2844897908
 10
33.3311688813
 20
37.904358421
  0
LINE
  5
243
100
AcDbEntity
  8
0
100
AcDbLine
 62
7
  6
CONTINUOUS
 10
50.7363388414
 20
32.070422606
 11
55.5363388414
 21
32.070422606
  0
LINE
  5
244
100
AcDbEntity
  8
0
100
AcDbLine
 62
7
  6
CONTINUOUS
 10
58.5363388414
 20
32.320422606
 11
61.5363388414
 21
32.320422606
  0
LINE
  5
245
100
AcDbEntity
  8
0
100
AcDbLine
 62
7
  6
CONTINUOUS
 10
60.8363388414
 20
32.570422606
 11
58.5363388414
 21
32.570422606
  0
LINE
  5
246
100
AcDbEntity
  8
0
100
AcDbLine
 62
7
  6
CONTINUOUS
 10
64.7363388414
 20
33.470422606
 11
69.6461449496
 21
33.470422606
  0
LINE
  5
247
100
AcDbEntity
  8
0
100
AcDbLine
 62
7
  6
CONTINUOUS
 10
69.4363388414
 20
33.570422606
 11
53.7363388414
 21
33.570422606
  0
LINE
  5
248
100
AcDbEntity
  8
0
100
AcDbLine
 62
2
  6
CONTINUOUS
 10
53.7363388414
 20
34.070422606
 11
69.7363388414
 21
34.070422606
  0
LINE
  5
249
100
AcDbEntity
  8
DEFAULT_2
100
AcDbLine
 62
8
  6
HIDDEN
 10
73.7363388414
 20
34.2610215293
 11
71.4923219055
 21
34.2610215293
  0
LINE
  5
24A
100
AcDbEntity
  8
DEFAULT_2
100
AcDbLine
 62
8
  6
HIDDEN
 10
35.0513307465
 20
38.170422606
 11
33.850572018
 21
38.4366244073
  0
LINE
  5
24B
100
AcDbEntity
  8
DEFAULT_2
100
AcDbLine
 62
8
  6
HIDDEN
 10
28.7363388414
 20
39.570422606
 11
30.6628251277
 21
39.1433308787
  0
LINE
  5
24C
100
AcDbEntity
  8
DEFAULT_2
100
AcDbLine
 62
8
  6
HIDDEN
 10
31.4987299785
 20
38.9580152348
 11
33.162961788
 21
38.5890639252
  0
LWPOLYLINE
  5
24D
100
AcDbEntity
  8
DEFAULT_2
100
AcDbPolyline
 62
8
  6
HIDDEN
 90
4
 70
0
 10
30.4360480595
 20
40.1036174087
 10
30.3473795171
 20
40.1465744475
 10
30.1997503093
 20
40.3013405466
 10
30.0930435024
 20
40.4796991108
  0
LWPOLYLINE
  5
24E
100
AcDbEntity
  8
DEFAULT_2
100
AcDbPolyline
 62
8
  6
HIDDEN
 90
4
 70
0
 10
35.3626219864
 20
40.6893205864
 10
35.3058520821
 20
40.8030510687
 10
35.1079467357
 20
41.232103953
 10
34.9619367919
 20
41.5744572866
  0
LWPOLYLINE
  5
24F
100
AcDbEntity
  8
DEFAULT_2
100
AcDbPolyline
 62
8
  6
HIDDEN
 90
4
 70
0
 10
35.4067854614
 20
38.4507102867
 10
35.5146518502
 20
38.2150252362
 10
35.70177107
 20
37.7762349364
 10
35.8362000996
 20
37.4434385782
  0
LINE
  5
250
100
AcDbEntity
  8
DEFAULT_2
100
AcDbLine
 62
8
  6
HIDDEN
 10
29.6900464299
 20
39.3992451264
 11
29.5514957734
 21
40.3787328957
  0
LINE
  5
251
100
AcDbEntity
  8
DEFAULT_2
100
AcDbLine
 62
8
  6
HIDDEN
 10
53.4363388414
 20
35.170422606
 11
53.7363388414
 21
35.170422606
  0
LINE
  5
252
100
AcDbEntity
  8
DEFAULT_2
100
AcDbLine
 62
8
  6
HIDDEN
 10
73.7363388414
 20
35.4157220677
 11
71.4923219055
 21
35.4157220677
  0
LINE
  5
253
100
AcDbEntity
  8
0
100
AcDbLine
 62
7
  6
CONTINUOUS
 10
50.7363388414
 20
35.670422606
 11
53.7363388414
 21
35.670422606
  0
LINE
  5
254
100
AcDbEntity
  8
A_ACHSEN
100
AcDbLine
 62
7
  6
CENTER
 10
50.7363388414
 20
36.570422606
 11
76.7363388414
 21
36.570422606
  0
LINE
  5
255
100
AcDbEntity
  8
DEFAULT_2
100
AcDbLine
 62
8
  6
HIDDEN
 10
73.7363388414
 20
37.7251231444
 11
71.4923219055
 21
37.7251231444
  0
LINE
  5
256
100
AcDbEntity
  8
DEFAULT_2
100
AcDbLine
 62
8
  6
HIDDEN
 10
53.7363388414
 20
38.1562090437
 11
53.5363388414
 21
38.1562090437
  0
LINE
  5
257
100
AcDbEntity
  8
DEFAULT_2
100
AcDbLine
 62
8
  6
HIDDEN
 10
35.0513307465
 20
38.170422606
 11
49.0463388414
 21
38.170422606
  0
LWPOLYLINE
  5
258
100
AcDbEntity
  8
DEFAULT_2
100
AcDbPolyline
 62
8
  6
HIDDEN
 90
4
 70
0
 10
38.1621342
 20
38.1707309855
 10
38.3944590911
 20
38.1695296245
 10
38.7115685026
 20
38.163549033
 10
38.8772263155
 20
38.1584382956
  0
LWPOLYLINE
  5
259
100
AcDbEntity
  8
DEFAULT_2
100
AcDbPolyline
 62
8
  6
HIDDEN
 90
4
 70
0
 10
35.6624807958
 20
38.1705534225
 10
35.8946627279
 20
38.169294726
 10
36.2117038252
 20
38.1632473155
 10
36.3774260455
 20
38.1581052957
  0
LWPOLYLINE
  5
25A
100
AcDbEntity
  8
DEFAULT_2
100
AcDbPolyline
 62
8
  6
HIDDEN
 90
4
 70
0
 10
45.6628177991
 20
38.1706446439
 10
45.894563712
 20
38.169322286
 10
46.2116472485
 20
38.1631660176
 10
46.3778964179
 20
38.1579489794
  0
LWPOLYLINE
  5
25B
100
AcDbEntity
  8
DEFAULT_2
100
AcDbPolyline
 62
8
  6
HIDDEN
 90
4
 70
0
 10
43.1630514074
 20
38.170646027
 10
43.3945084296
 20
38.1692870582
 10
43.7115066929
 20
38.1630936755
 10
43.8779541939
 20
38.1578592965
  0
LWPOLYLINE
  5
25C
100
AcDbEntity
  8
DEFAULT_2
100
AcDbPolyline
 62
8
  6
HIDDEN
 90
4
 70
0
 10
40.6634095611
 20
38.1705163638
 10
40.8978772574
 20
38.1690808838
 10
41.2144294645
 20
38.1628821165
 10
41.3772825569
 20
38.1578165576
  0
LWPOLYLINE
  5
25D
100
AcDbEntity
  8
DEFAULT_2
100
AcDbPolyline
 62
8
  6
HIDDEN
 90
4
 70
0
 10
48.1635826477
 20
38.170828371
 10
48.3943920207
 20
38.1693899888
 10
48.7112224925
 20
38.1631170102
 10
48.8781289588
 20
38.1578417094
  0
LINE
  5
25E
100
AcDbEntity
  8
DEFAULT_2
100
AcDbLine
 62
8
  6
HIDDEN
 10
53.7363388414
 20
37.145422606
 11
51.9363388414
 21
37.4628111713
  0
LWPOLYLINE
  5
25F
100
AcDbEntity
  8
DEFAULT_2
100
AcDbPolyline
 62
8
  6
HIDDEN
 90
4
 70
0
 10
37.8644524704
 20
40.7478381601
 10
37.7632974923
 20
40.9535732914
 10
37.5711942755
 20
41.379193951
 10
37.4296268737
 20
41.7153586063
  0
LWPOLYLINE
  5
260
100
AcDbEntity
  8
DEFAULT_2
100
AcDbPolyline
 62
8
  6
HIDDEN
 90
4
 70
0
 10
37.9063846348
 20
38.4515477719
 10
38.020080582
 20
38.2029516743
 10
38.2070262406
 20
37.7637310447
 10
38.3364999611
 20
37.4429148326
  0
LINE
  5
261
100
AcDbEntity
  8
DEFAULT_2
100
AcDbLine
 62
8
  6
HIDDEN
 10
35.0513307465
 20
40.9659191189
 11
35.0513307465
 21
38.170422606
  0
LINE
  5
262
100
AcDbEntity
  8
DEFAULT_2
100
AcDbLine
 62
8
  6
HIDDEN
 10
29.5514957734
 20
40.3787328957
 11
29.4129451169
 21
39.720422606
  0
LINE
  5
263
100
AcDbEntity
  8
DEFAULT_2
100
AcDbLine
 62
8
  6
HIDDEN
 10
53.7363388414
 20
40.070422606
 11
51.9363388414
 21
39.7530340408
  0
LINE
  5
264
100
AcDbEntity
  8
DEFAULT_2
100
AcDbLine
 62
8
  6
HIDDEN
 10
49.3547090233
 20
39.1977822534
 11
49.0689388875
 21
39.172747047
  0
LINE
  5
265
100
AcDbEntity
  8
DEFAULT_2
100
AcDbLine
 62
8
  6
HIDDEN
 10
35.6937178424
 20
39.7870494824
 11
35.3625116492
 21
39.7717774507
  0
LINE
  5
266
100
AcDbEntity
  8
DEFAULT_2
100
AcDbLine
 62
8
  6
HIDDEN
 10
41.9047865751
 20
40.9701283078
 11
41.9128561209
 21
40.970418532
  0
LWPOLYLINE
  5
267
100
AcDbEntity
  8
DEFAULT_2
100
AcDbPolyline
 62
8
  6
HIDDEN
 90
4
 70
0
 10
45.1279217593
 20
40.9830082923
 10
44.9614516745
 20
40.9777767201
 10
44.6444811169
 20
40.9715856585
 10
44.4130794147
 20
40.9702246891
  0
LWPOLYLINE
  5
268
100
AcDbEntity
  8
DEFAULT_2
100
AcDbPolyline
 62
8
  6
HIDDEN
 90
4
 70
0
 10
37.627870059
 20
40.9827960173
 10
37.4616802757
 20
40.9775862584
 10
37.1445531239
 20
40.9714474375
 10
36.9127000332
 20
40.9701425446
  0
LWPOLYLINE
  5
269
100
AcDbEntity
  8
DEFAULT_2
100
AcDbPolyline
 62
8
  6
HIDDEN
 90
4
 70
0
 10
42.6274115296
 20
40.9829529482
 10
42.4619533703
 20
40.9778138321
 10
42.1450813743
 20
40.9717308258
 10
41.9128561209
 20
40.970418532
  0
LWPOLYLINE
  5
26A
100
AcDbEntity
  8
DEFAULT_2
100
AcDbPolyline
 62
8
  6
HIDDEN
 90
4
 70
0
 10
47.6273493515
 20
40.9829264314
 10
47.4619450836
 20
40.9777987726
 10
47.1450798542
 20
40.9717339369
 10
46.9128138897
 20
40.97043219
  0
LWPOLYLINE
  5
26B
100
AcDbEntity
  8
DEFAULT_2
100
AcDbPolyline
 62
8
  6
HIDDEN
 90
4
 70
0
 10
40.1273076669
 20
40.9826575794
 10
39.9616771893
 20
40.9775326313
 10
39.6446421444
 20
40.971512012
 10
39.4123818585
 20
40.9702706873
  0
LINE
  5
26C
100
AcDbEntity
  8
DEFAULT_2
100
AcDbLine
 62
8
  6
HIDDEN
 10
35.4058343549
 20
39.4564260725
 11
35.0732343088
 21
39.4464173517
  0
LINE
  5
26D
100
AcDbEntity
  8
DEFAULT_2
100
AcDbLine
 62
8
  6
HIDDEN
 10
73.7363388414
 20
38.8798236828
 11
71.4923219055
 21
38.8798236828
  0
LINE
  5
26E
100
AcDbEntity
  8
0
100
AcDbLine
 62
2
  6
CONTINUOUS
 10
53.7363388414
 20
39.070422606
 11
69.7363388414
 21
39.070422606
  0
LINE
  5
26F
100
AcDbEntity
  8
0
100
AcDbLine
 62
7
  6
CONTINUOUS
 10
69.4363388414
 20
39.570422606
 11
54.2363388414
 21
39.570422606
  0
LINE
  5
270
100
AcDbEntity
  8
A_ACHSEN
100
AcDbLine
 62
7
  6
CENTER
 10
25.7363388414
 20
39.570422606
 11
56.7363388414
 21
39.570422606
  0
LINE
  5
271
100
AcDbEntity
  8
0
100
AcDbLine
 62
7
  6
CONTINUOUS
 10
64.7363388414
 20
39.670422606
 11
69.6461449496
 21
39.670422606
  0
LINE
  5
272
100
AcDbEntity
  8
0
100
AcDbLine
 62
7
  6
CONTINUOUS
 10
50.7363388414
 20
40.070422606
 11
53.7363388414
 21
40.070422606
  0
LINE
  5
273
100
AcDbEntity
  8
0
100
AcDbLine
 62
7
  6
CONTINUOUS
 10
60.8363388414
 20
40.570422606
 11
58.5363388414
 21
40.570422606
  0
LINE
  5
274
100
AcDbEntity
  8
0
100
AcDbLine
 62
7
  6
CONTINUOUS
 10
58.5363388414
 20
40.820422606
 11
61.5363388414
 21
40.820422606
  0
LINE
  5
275
100
AcDbEntity
  8
DEFAULT_2
100
AcDbLine
 62
8
  6
HIDDEN
 10
35.0857294884
 20
40.970422606
 11
49.0463388414
 21
40.970422606
  0
LINE
  5
276
100
AcDbEntity
  8
DEFAULT_2
100
AcDbLine
 62
8
  6
HIDDEN
 10
53.7363388414
 20
40.9846361684
 11
53.5363388414
 21
40.9846361684
  0
LINE
  5
277
100
AcDbEntity
  8
DEFAULT_2
100
AcDbLine
 62
8
  6
HIDDEN
 10
53.7363388414
 20
39.070422606
 11
51.9363388414
 21
39.3878111713
  0
LINE
  5
278
100
AcDbEntity
  8
DEFAULT_2
100
AcDbLine
 62
8
  6
HIDDEN
 10
48.7363388414
 20
39.3893502753
 11
49.0525168771
 21
39.3002455772
  0
LINE
  5
279
100
AcDbEntity
  8
DEFAULT_2
100
AcDbLine
 62
8
  6
HIDDEN
 10
49.0463388414
 20
38.170422606
 11
51.6508356479
 21
36.9559257995
  0
LINE
  5
27A
100
AcDbEntity
  8
DEFAULT_2
100
AcDbLine
 62
8
  6
HIDDEN
 10
49.0689388875
 20
39.172747047
 11
48.7363388414
 21
39.3893502753
  0
LWPOLYLINE
  5
27B
100
AcDbEntity
  8
DEFAULT_2
100
AcDbPolyline
 62
8
  6
HIDDEN
 90
4
 70
0
 10
42.8644714814
 20
40.7477433354
 10
42.7559950956
 20
40.9689763123
 10
42.5666930204
 20
41.3897632759
 10
42.4297057861
 20
41.7153338874
  0
LWPOLYLINE
  5
27C
100
AcDbEntity
  8
DEFAULT_2
100
AcDbPolyline
 62
8
  6
HIDDEN
 90
4
 70
0
 10
40.3642235002
 20
40.7481134539
 10
40.2559591738
 20
40.9690299131
 10
40.0669006296
 20
41.3893743137
 10
39.9299740322
 20
41.7147247755
  0
LWPOLYLINE
  5
27D
100
AcDbEntity
  8
DEFAULT_2
100
AcDbPolyline
 62
8
  6
HIDDEN
 90
4
 70
0
 10
40.4069582889
 20
38.45054086
 10
40.5160697236
 20
38.2119689429
 10
40.7019634717
 20
37.7756513629
 10
40.8360848486
 20
37.4435822942
  0
LWPOLYLINE
  5
27E
100
AcDbEntity
  8
DEFAULT_2
100
AcDbPolyline
 62
8
  6
HIDDEN
 90
4
 70
0
 10
42.9063500236
 20
38.4517791741
 10
43.021410372
 20
38.2000794957
 10
43.2083822592
 20
37.7603489489
 10
43.3367759215
 20
37.4419843866
  0
LINE
  5
27F
100
AcDbEntity
  8
DEFAULT_2
100
AcDbLine
 62
8
  6
HIDDEN
 10
53.7363388414
 20
41.995422606
 11
51.9363388414
 21
41.6780340408
  0
LINE
  5
280
100
AcDbEntity
  8
0
100
AcDbLine
 62
7
  6
CONTINUOUS
 10
73.4363388414
 20
41.570422606
 11
70.0363388414
 21
41.570422606
  0
LINE
  5
281
100
AcDbEntity
  8
0
100
AcDbLine
 62
7
  6
CONTINUOUS
 10
71.7363388414
 20
41.820422606
 11
74.7363388414
 21
41.820422606
  0
LINE
  5
282
100
AcDbEntity
  8
0
100
AcDbLine
 62
7
  6
CONTINUOUS
 10
58.5363388414
 20
42.070422606
 11
55.5363388414
 21
42.070422606
  0
LINE
  5
283
100
AcDbEntity
  8
0
100
AcDbLine
 62
7
  6
CONTINUOUS
 10
50.7363388414
 20
42.070422606
 11
53.7363388414
 21
42.070422606
  0
LINE
  5
284
100
AcDbEntity
  8
DEFAULT_2
100
AcDbLine
 62
8
  6
HIDDEN
 10
53.4363388414
 20
43.970422606
 11
53.7363388414
 21
43.970422606
  0
LINE
  5
285
100
AcDbEntity
  8
0
100
AcDbLine
 62
7
  6
CONTINUOUS
 10
69.4028864634
 20
25.570422606
 11
71.6782402667
 21
23.8607542277
  0
LINE
  5
286
100
AcDbEntity
  8
0
100
AcDbLine
 62
7
  6
CONTINUOUS
 10
54.2363388414
 20
33.570422606
 11
53.7363388414
 21
34.070422606
  0
LINE
  5
287
100
AcDbEntity
  8
DEFAULT_2
100
AcDbLine
 62
8
  6
HIDDEN
 10
51.6508356479
 20
36.9559257995
 11
53.4363388414
 21
35.170422606
  0
LWPOLYLINE
  5
288
100
AcDbEntity
  8
DEFAULT_2
100
AcDbPolyline
 62
8
  6
HIDDEN
 90
4
 70
0
 10
45.3646893677
 20
40.7474060028
 10
45.2561172484
 20
40.9686682253
 10
45.0666779885
 20
41.3893904161
 10
44.9297177331
 20
41.71472881
  0
LWPOLYLINE
  5
289
100
AcDbEntity
  8
DEFAULT_2
100
AcDbPolyline
 62
8
  6
HIDDEN
 90
4
 70
0
 10
45.4063086291
 20
38.4517857793
 10
45.5197348869
 20
38.2038184958
 10
45.7068016226
 20
37.7642711659
 10
45.8366798717
 20
37.4423699886
  0
LWPOLYLINE
  5
28A
100
AcDbEntity
  8
DEFAULT_2
100
AcDbPolyline
 62
8
  6
HIDDEN
 90
4
 70
0
 10
34.6015335974
 20
41.5438685272
 10
34.4572923047
 20
41.1917235962
 10
34.2671649644
 20
40.7594738869
 10
34.1595979504
 20
40.5369999926
  0
LWPOLYLINE
  5
28B
100
AcDbEntity
  8
DEFAULT_2
100
AcDbPolyline
 62
8
  6
HIDDEN
 90
4
 70
0
 10
32.0503180598
 20
40.913498806
 10
31.9053519143
 20
40.5761927776
 10
31.7042091068
 20
40.1807319568
 10
31.5831953934
 20
39.9969230241
  0
LWPOLYLINE
  5
28C
100
AcDbEntity
  8
DEFAULT_2
100
AcDbPolyline
 62
8
  6
HIDDEN
 90
4
 70
0
 10
31.2987661554
 20
38.4142399269
 10
31.4410248844
 20
38.6808331962
 10
31.6340117512
 20
38.9543233096
 10
31.7082101647
 20
39.0296777046
  0
LINE
  5
28D
100
AcDbEntity
  8
DEFAULT_2
100
AcDbLine
 62
8
  6
HIDDEN
 10
35.0732343088
 20
39.4464173517
 11
35.7384344011
 21
39.6347276385
  0
LINE
  5
28E
100
AcDbEntity
  8
DEFAULT_2
100
AcDbLine
 62
8
  6
HIDDEN
 10
28.7363388414
 20
39.570422606
 11
29.4129451169
 21
39.720422606
  0
LINE
  5
28F
100
AcDbEntity
  8
DEFAULT_2
100
AcDbLine
 62
8
  6
HIDDEN
 10
29.9462909378
 20
39.8386625279
 11
31.9129458646
 21
40.2746594284
  0
LINE
  5
290
100
AcDbEntity
  8
DEFAULT_2
100
AcDbLine
 62
8
  6
HIDDEN
 10
32.6391488229
 20
40.4356547483
 11
34.4129410421
 21
40.8288950159
  0
LINE
  5
291
100
AcDbEntity
  8
0
100
AcDbLine
 62
2
  6
CONTINUOUS
 10
53.7363388414
 20
44.955422606
 11
58.5363388414
 21
44.955422606
  0
LINE
  5
292
100
AcDbEntity
  8
A_RUNDUNGEN
100
AcDbLine
 62
7
  6
CONTINUOUS
 10
71.7363388414
 20
45.070422606
 11
70.0363388414
 21
45.070422606
  0
LINE
  5
293
100
AcDbEntity
  8
0
100
AcDbLine
 62
7
  6
CONTINUOUS
 10
53.7363388414
 20
45.570422606
 11
58.5363388414
 21
45.570422606
  0
LINE
  5
294
100
AcDbEntity
  8
0
100
AcDbLine
 62
7
  6
CONTINUOUS
 10
69.7363388414
 20
45.570422606
 11
71.5363388414
 21
45.570422606
  0
LINE
  5
295
100
AcDbEntity
  8
0
100
AcDbLine
 62
7
  6
CONTINUOUS
 10
84.2363388414
 20
47.570422606
 11
78.2363388414
 21
47.570422606
  0
LINE
  5
296
100
AcDbEntity
  8
0
100
AcDbLine
 62
7
  6
CONTINUOUS
 10
71.6782402667
 20
23.8607542277
 11
72.2439256916
 21
23.2950688028
  0
LWPOLYLINE
  5
297
100
AcDbEntity
  8
DEFAULT_2
100
AcDbPolyline
 62
8
  6
HIDDEN
 90
4
 70
0
 10
47.8642550669
 20
40.7479636568
 10
47.7558839413
 20
40.9690800326
 10
47.5667102292
 20
41.389728323
 10
47.4297419217
 20
41.7152782867
  0
LWPOLYLINE
  5
298
100
AcDbEntity
  8
DEFAULT_2
100
AcDbPolyline
 62
8
  6
HIDDEN
 90
4
 70
0
 10
47.906879738
 20
38.4506739619
 10
48.0156486692
 20
38.2129082369
 10
48.2016295267
 20
37.7764500828
 10
48.3360567462
 20
37.4436121415
  0
LWPOLYLINE
  5
299
100
AcDbEntity
  8
DEFAULT_2
100
AcDbPolyline
 62
8
  6
HIDDEN
 90
4
 70
0
 10
37.086499525
 20
41.6982028548
 10
36.9590729522
 20
41.3823196134
 10
36.7723324648
 20
40.9430897911
 10
36.6565248627
 20
40.6896232167
  0
LWPOLYLINE
  5
29A
100
AcDbEntity
  8
DEFAULT_2
100
AcDbPolyline
 62
8
  6
HIDDEN
 90
4
 70
0
 10
39.5862582311
 20
41.6974665097
 10
39.4569957949
 20
41.3772303826
 10
39.2717353338
 20
40.9417738679
 10
39.156600864
 20
40.689763836
  0
LWPOLYLINE
  5
29B
100
AcDbEntity
  8
DEFAULT_2
100
AcDbPolyline
 62
8
  6
HIDDEN
 90
4
 70
0
 10
36.1798332266
 20
37.4257747777
 10
36.3200995432
 20
37.7589022195
 10
36.5117493678
 20
38.183939162
 10
36.614320808
 20
38.3927535546
  0
LWPOLYLINE
  5
29C
100
AcDbEntity
  8
DEFAULT_2
100
AcDbPolyline
 62
8
  6
HIDDEN
 90
4
 70
0
 10
33.7360274914
 20
37.8553379562
 10
33.8835575064
 20
38.1850688528
 10
34.077477515
 20
38.5728809914
 10
34.1195120172
 20
38.6487209123
  0
LINE
  5
29D
100
AcDbEntity
  8
0
100
AcDbLine
 62
7
  6
CONTINUOUS
 10
83.9707744043
 20
48.570422606
 11
78.5019032784
 21
48.570422606
  0
LINE
  5
29E
100
AcDbEntity
  8
0
100
AcDbLine
 62
7
  6
CONTINUOUS
 10
61.5363388414
 20
51.070422606
 11
58.5363388414
 21
51.070422606
  0
LINE
  5
29F
100
AcDbEntity
  8
A_RUNDUNGEN
100
AcDbLine
 62
7
  6
CONTINUOUS
 10
61.5363388414
 20
51.070422606
 11
62.5363388414
 21
51.070422606
  0
LINE
  5
2A0
100
AcDbEntity
  8
0
100
AcDbLine
 62
7
  6
CONTINUOUS
 10
62.5363388414
 20
51.070422606
 11
69.7363388414
 21
51.070422606
  0
LINE
  5
2A1
100
AcDbEntity
  8
0
100
AcDbLine
 62
7
  6
CONTINUOUS
 10
74.0116926446
 20
25.0628357558
 11
73.4460072197
 21
25.6285211807
  0
LINE
  5
2A2
100
AcDbEntity
  8
0
100
AcDbLine
 62
7
  6
CONTINUOUS
 10
61.3363388414
 20
40.070422606
 11
60.8363388414
 21
40.570422606
  0
LINE
  5
2A3
100
AcDbEntity
  8
DEFAULT_2
100
AcDbLine
 62
8
  6
HIDDEN
 10
49.0463388414
 20
40.970422606
 11
49.0463388414
 21
38.170422606
  0
LWPOLYLINE
  5
2A4
100
AcDbEntity
  8
DEFAULT_2
100
AcDbPolyline
 62
8
  6
HIDDEN
 90
4
 70
0
 10
42.0861987187
 20
41.696455801
 10
41.956853572
 20
41.3762128414
 10
41.7699312539
 20
40.9373999446
 10
41.6561481775
 20
40.6887759506
  0
LWPOLYLINE
  5
2A5
100
AcDbEntity
  8
DEFAULT_2
100
AcDbPolyline
 62
8
  6
HIDDEN
 90
4
 70
0
 10
38.6803218623
 20
37.4270024805
 10
38.8171991084
 20
37.7520500758
 10
39.0061446103
 20
38.1719797246
 10
39.1142948911
 20
38.3926376127
  0
LINE
  5
2A6
100
AcDbEntity
  8
0
100
AcDbLine
 62
7
  6
CONTINUOUS
 10
50.7363388414
 20
51.470422606
 11
53.7363388414
 21
51.470422606
  0
LINE
  5
2A7
100
AcDbEntity
  8
0
100
AcDbLine
 62
7
  6
CONTINUOUS
 10
50.7363388414
 20
51.570422606
 11
74.7363388414
 21
51.570422606
  0
LINE
  5
2A8
100
AcDbEntity
  8
0
100
AcDbLine
 62
7
  6
CONTINUOUS
 10
75.7363388414
 20
51.570422606
 11
86.7363388414
 21
51.570422606
  0
LINE
  5
2A9
100
AcDbEntity
  8
0
100
AcDbLine
 62
7
  6
CONTINUOUS
 10
74.7363388414
 20
52.570422606
 11
87.7363388414
 21
52.570422606
  0
LINE
  5
2AA
100
AcDbEntity
  8
0
100
AcDbLine
 62
7
  6
CONTINUOUS
 10
50.7363388414
 20
22.570422606
 11
50.7363388414
 21
51.570422606
  0
LINE
  5
2AB
100
AcDbEntity
  8
DEFAULT_2
100
AcDbLine
 62
8
  6
HIDDEN
 10
51.6508356479
 20
42.1849194126
 11
51.6508356479
 21
36.9559257995
  0
LINE
  5
2AC
100
AcDbEntity
  8
DEFAULT_2
100
AcDbLine
 62
8
  6
HIDDEN
 10
51.9363388414
 20
41.6780340408
 11
51.9363388414
 21
37.4628111713
  0
LINE
  5
2AD
100
AcDbEntity
  8
0
100
AcDbLine
 62
7
  6
CONTINUOUS
 10
52.2363388414
 20
35.670422606
 11
52.2363388414
 21
40.070422606
  0
LWPOLYLINE
  5
2AE
100
AcDbEntity
  8
DEFAULT_2
100
AcDbPolyline
 62
8
  6
HIDDEN
 90
4
 70
0
 10
44.5869124462
 20
41.6991642852
 10
44.4592549263
 20
41.3825352038
 10
44.2723007025
 20
40.9426318282
 10
44.1563838418
 20
40.6889862094
  0
LWPOLYLINE
  5
2AF
100
AcDbEntity
  8
DEFAULT_2
100
AcDbPolyline
 62
8
  6
HIDDEN
 90
4
 70
0
 10
43.6796230851
 20
37.4259033188
 10
43.8166204608
 20
37.7513755676
 10
44.0061242842
 20
38.1722686546
 10
44.114762979
 20
38.3936386022
  0
LWPOLYLINE
  5
2B0
100
AcDbEntity
  8
DEFAULT_2
100
AcDbPolyline
 62
8
  6
HIDDEN
 90
4
 70
0
 10
41.1801553146
 20
37.4274725704
 10
41.3170132502
 20
37.7522999573
 10
41.506199197
 20
38.1722280311
 10
41.6146180151
 20
38.3932121452
  0
LINE
  5
2B1
100
AcDbEntity
  8
DEFAULT_2
100
AcDbLine
 62
8
  6
HIDDEN
 10
42.0861987187
 20
41.696455801
 11
42.2373866212
 21
41.9179905046
  0
LWPOLYLINE
  5
2B2
100
AcDbEntity
  8
DEFAULT_2
100
AcDbPolyline
 62
8
  6
HIDDEN
 90
3
 70
0
 10
30.1411589843
 20
40.0175575389
 10
30.0278910715
 20
39.9279472416
 10
29.7939488858
 20
39.7884514884
  0
LINE
  5
2B3
100
AcDbEntity
  8
0
100
AcDbLine
 62
7
  6
CONTINUOUS
 10
73.4460072197
 20
25.6285211807
 11
71.7363388414
 21
27.903874984
  0
LINE
  5
2B4
100
AcDbEntity
  8
DEFAULT_2
100
AcDbLine
 62
8
  6
HIDDEN
 10
53.4363388414
 20
43.970422606
 11
53.4363388414
 21
35.170422606
  0
LINE
  5
2B5
100
AcDbEntity
  8
DEFAULT_2
100
AcDbLine
 62
8
  6
HIDDEN
 10
53.5363388414
 20
40.9846361684
 11
53.5363388414
 21
40.0818090133
  0
LINE
  5
2B6
100
AcDbEntity
  8
DEFAULT_2
100
AcDbLine
 62
8
  6
HIDDEN
 10
53.5363388414
 20
39.0590361987
 11
53.5363388414
 21
38.1562090437
  0
LINE
  5
2B7
100
AcDbEntity
  8
0
100
AcDbLine
 62
7
  6
CONTINUOUS
 10
53.7363388414
 20
27.670422606
 11
53.7363388414
 21
29.170422606
  0
LINE
  5
2B8
100
AcDbEntity
  8
0
100
AcDbLine
 62
7
  6
CONTINUOUS
 10
53.7363388414
 20
32.070422606
 11
53.7363388414
 21
51.470422606
  0
LINE
  5
2B9
100
AcDbEntity
  8
0
100
AcDbLine
 62
7
  6
CONTINUOUS
 10
54.2363388414
 20
33.570422606
 11
54.2363388414
 21
45.570422606
  0
LINE
  5
2BA
100
AcDbEntity
  8
0
100
AcDbLine
 62
7
  6
CONTINUOUS
 10
55.5363388414
 20
28.070422606
 11
55.5363388414
 21
33.570422606
  0
LINE
  5
2BB
100
AcDbEntity
  8
0
100
AcDbLine
 62
7
  6
CONTINUOUS
 10
55.5363388414
 20
39.570422606
 11
55.5363388414
 21
42.070422606
  0
LWPOLYLINE
  5
2BC
100
AcDbEntity
  8
DEFAULT_2
100
AcDbPolyline
 62
8
  6
HIDDEN
 90
4
 70
0
 10
47.0862388843
 20
41.6967261293
 10
46.9581314217
 20
41.3794472882
 10
46.7712974512
 20
40.9405436474
 10
46.6561889032
 20
40.6888848699
  0
LWPOLYLINE
  5
2BD
100
AcDbEntity
  8
DEFAULT_2
100
AcDbPolyline
 62
8
  6
HIDDEN
 90
4
 70
0
 10
46.179534031
 20
37.4255020091
 10
46.3227324731
 20
37.765460161
 10
46.5113492041
 20
38.1833655675
 10
46.6146515332
 20
38.3935312865
  0
LINE
  5
2BE
100
AcDbEntity
  8
A_FASEN
100
AcDbLine
 62
7
  6
CONTINUOUS
 10
73.7363388414
 20
41.270422606
 11
73.4363388414
 21
41.570422606
  0
LINE
  5
2BF
100
AcDbEntity
  8
0
100
AcDbLine
 62
7
  6
CONTINUOUS
 10
56.7363388414
 20
22.570422606
 11
56.7363388414
 21
25.570422606
  0
LINE
  5
2C0
100
AcDbEntity
  8
0
100
AcDbLine
 62
7
  6
CONTINUOUS
 10
57.7363388414
 20
42.070422606
 11
57.7363388414
 21
42.7327002662
  0
LINE
  5
2C1
100
AcDbEntity
  8
0
100
AcDbLine
 62
7
  6
CONTINUOUS
 10
58.5363388414
 20
28.070422606
 11
58.5363388414
 21
32.570422606
  0
LINE
  5
2C2
100
AcDbEntity
  8
0
100
AcDbLine
 62
7
  6
CONTINUOUS
 10
58.5363388414
 20
40.570422606
 11
58.5363388414
 21
51.070422606
  0
LWPOLYLINE
  5
2C3
100
AcDbEntity
  8
DEFAULT_2
100
AcDbPolyline
 62
8
  6
HIDDEN
 90
4
 70
0
 10
48.6797496394
 20
37.4263464138
 10
48.8242585706
 20
37.7691230008
 10
49.0168238162
 20
38.194776519
 10
49.1067400663
 20
38.3778472387
  0
LINE
  5
2C4
100
AcDbEntity
  8
DEFAULT_2
100
AcDbLine
 62
8
  6
HIDDEN
 10
49.1067140865
 20
38.3778614097
 11
49.0728965442
 21
38.3182969961
  0
LINE
  5
2C5
100
AcDbEntity
  8
0
100
AcDbLine
 62
7
  6
CONTINUOUS
 10
78.2363388414
 20
47.570422606
 11
74.7363388414
 21
49.570422606
  0
LINE
  5
2C6
100
AcDbEntity
  8
0
100
AcDbLine
 62
7
  6
CONTINUOUS
 10
78.5019032784
 20
48.570422606
 11
75.7363388414
 21
50.1507451415
  0
LINE
  5
2C7
100
AcDbEntity
  8
0
100
AcDbLine
 62
7
  6
CONTINUOUS
 10
71.2363388414
 20
45.570422606
 11
71.7363388414
 21
45.070422606
  0
LINE
  5
2C8
100
AcDbEntity
  8
DEFAULT_2
100
AcDbLine
 62
8
  6
HIDDEN
 10
70.1589885722
 20
36.570422606
 11
71.4923219055
 21
34.2610215293
  0
LINE
  5
2C9
100
AcDbEntity
  8
0
100
AcDbLine
 62
7
  6
CONTINUOUS
 10
61.3363388414
 20
40.070422606
 11
61.3363388414
 21
39.570422606
  0
LINE
  5
2CA
100
AcDbEntity
  8
0
100
AcDbLine
 62
7
  6
CONTINUOUS
 10
61.3363388414
 20
33.570422606
 11
61.3363388414
 21
33.070422606
  0
LINE
  5
2CB
100
AcDbEntity
  8
0
100
AcDbLine
 62
7
  6
CONTINUOUS
 10
61.5363388414
 20
28.070422606
 11
61.5363388414
 21
33.570422606
  0
LINE
  5
2CC
100
AcDbEntity
  8
0
100
AcDbLine
 62
7
  6
CONTINUOUS
 10
61.5363388414
 20
39.570422606
 11
61.5363388414
 21
51.070422606
  0
LINE
  5
2CD
100
AcDbEntity
  8
0
100
AcDbLine
 62
7
  6
CONTINUOUS
 10
62.5363388414
 20
39.570422606
 11
62.5363388414
 21
51.070422606
  0
LINE
  5
2CE
100
AcDbEntity
  8
0
100
AcDbLine
 62
7
  6
CONTINUOUS
 10
62.7363388414
 20
33.570422606
 11
62.7363388414
 21
28.070422606
  0
LINE
  5
2CF
100
AcDbEntity
  8
0
100
AcDbLine
 62
7
  6
CONTINUOUS
 10
53.7363388414
 20
45.070422606
 11
54.2363388414
 21
45.570422606
  0
LINE
  5
2D0
100
AcDbEntity
  8
DEFAULT_2
100
AcDbLine
 62
8
  6
HIDDEN
 10
51.6508356479
 20
42.1849194126
 11
53.4363388414
 21
43.970422606
  0
LINE
  5
2D1
100
AcDbEntity
  8
DEFAULT_2
100
AcDbLine
 62
8
  6
HIDDEN
 10
35.3625116492
 20
39.7717774507
 11
35.029946386
 21
39.5984696172
  0
LINE
  5
2D2
100
AcDbEntity
  8
DEFAULT_2
100
AcDbLine
 62
8
  6
HIDDEN
 10
29.9462909378
 20
39.8386625279
 11
29.7939500345
 21
39.7884509899
  0
LINE
  5
2D3
100
AcDbEntity
  8
0
100
AcDbLine
 62
7
  6
CONTINUOUS
 10
64.7363388414
 20
28.070422606
 11
64.7363388414
 21
33.570422606
  0
LINE
  5
2D4
100
AcDbEntity
  8
0
100
AcDbLine
 62
7
  6
CONTINUOUS
 10
64.7363388414
 20
39.570422606
 11
64.7363388414
 21
51.070422606
  0
LINE
  5
2D5
100
AcDbEntity
  8
DEFAULT_2
100
AcDbLine
 62
8
  6
HIDDEN
 10
49.0463388414
 20
40.970422606
 11
51.6508356479
 21
42.1849194126
  0
LINE
  5
2D6
100
AcDbEntity
  8
DEFAULT_2
100
AcDbLine
 62
8
  6
HIDDEN
 10
42.5699866673
 20
40.9662521061
 11
42.6274115296
 21
40.9829529482
  0
LINE
  5
2D7
100
AcDbEntity
  8
0
100
AcDbLine
 62
7
  6
CONTINUOUS
 10
66.7363388414
 20
22.570422606
 11
66.7363388414
 21
25.570422606
  0
LINE
  5
2D8
100
AcDbEntity
  8
0
100
AcDbLine
 62
7
  6
CONTINUOUS
 10
54.2363388414
 20
39.570422606
 11
53.7363388414
 21
39.070422606
  0
LINE
  5
2D9
100
AcDbEntity
  8
DEFAULT_2
100
AcDbLine
 62
8
  6
HIDDEN
 10
69.7363388414
 20
39.570422606
 11
69.7363388414
 21
33.570422606
  0
LINE
  5
2DA
100
AcDbEntity
  8
A_RUNDUNGEN
100
AcDbLine
 62
7
  6
CONTINUOUS
 10
69.7363388414
 20
41.2704225897
 11
69.7363388414
 21
31.8704226224
  0
LINE
  5
2DB
100
AcDbEntity
  8
0
100
AcDbLine
 62
7
  6
CONTINUOUS
 10
69.7363388414
 20
28.070422606
 11
69.7363388414
 21
31.870422606
  0
LINE
  5
2DC
100
AcDbEntity
  8
0
100
AcDbLine
 62
7
  6
CONTINUOUS
 10
69.7363388414
 20
41.2704225897
 11
69.7363388414
 21
51.070422606
  0
LINE
  5
2DD
100
AcDbEntity
  8
0
100
AcDbLine
 62
7
  6
CONTINUOUS
 10
71.2363388414
 20
45.070422606
 11
71.2363388414
 21
45.570422606
  0
LINE
  5
2DE
100
AcDbEntity
  8
0
100
AcDbLine
 62
7
  6
CONTINUOUS
 10
71.5363388414
 20
45.270422606
 11
71.5363388414
 21
45.570422606
  0
LINE
  5
2DF
100
AcDbEntity
  8
0
100
AcDbLine
 62
7
  6
CONTINUOUS
 10
71.7363388414
 20
27.570422606
 11
71.7363388414
 21
31.570422606
  0
LINE
  5
2E0
100
AcDbEntity
  8
0
100
AcDbLine
 62
7
  6
CONTINUOUS
 10
71.7363388414
 20
41.570422606
 11
71.7363388414
 21
51.570422606
  0
LINE
  5
2E1
100
AcDbEntity
  8
A_FASEN
100
AcDbLine
 62
7
  6
CONTINUOUS
 10
73.4363388414
 20
31.570422606
 11
73.4363388414
 21
41.570422606
  0
LINE
  5
2E2
100
AcDbEntity
  8
A_FASEN
100
AcDbLine
 62
7
  6
CONTINUOUS
 10
73.7363388414
 20
31.8720415367
 11
73.7363388414
 21
41.2688036754
  0
LINE
  5
2E3
100
AcDbEntity
  8
DEFAULT_2
100
AcDbLine
 62
8
  6
HIDDEN
 10
73.7363388414
 20
34.2610215293
 11
73.7363388414
 21
38.8798236828
  0
LINE
  5
2E4
100
AcDbEntity
  8
0
100
AcDbLine
 62
7
  6
CONTINUOUS
 10
74.7363388414
 20
22.570422606
 11
74.7363388414
 21
52.570422606
  0
LINE
  5
2E5
100
AcDbEntity
  8
0
100
AcDbLine
 62
7
  6
CONTINUOUS
 10
75.7363388414
 20
50.1507451415
 11
75.7363388414
 21
51.570422606
  0
LINE
  5
2E6
100
AcDbEntity
  8
0
100
AcDbLine
 62
7
  6
CONTINUOUS
 10
61.3363388414
 20
33.070422606
 11
60.8363388414
 21
32.570422606
  0
LINE
  5
2E7
100
AcDbEntity
  8
0
100
AcDbLine
 62
7
  6
CONTINUOUS
 10
86.7363388414
 20
50.1507451415
 11
83.9707744043
 21
48.570422606
  0
LINE
  5
2E8
100
AcDbEntity
  8
DEFAULT_2
100
AcDbLine
 62
8
  6
HIDDEN
 10
70.1589885722
 20
36.570422606
 11
71.4923219055
 21
38.8798236828
  0
LINE
  5
2E9
100
AcDbEntity
  8
0
100
AcDbLine
 62
7
  6
CONTINUOUS
 10
87.7363388414
 20
49.570422606
 11
84.2363388414
 21
47.570422606
  0
LINE
  5
2EA
100
AcDbEntity
  8
A_FASEN
100
AcDbLine
 62
7
  6
CONTINUOUS
 10
73.7363388414
 20
31.870422606
 11
73.4363388414
 21
31.570422606
  0
LINE
  5
2EB
100
AcDbEntity
  8
0
100
AcDbLine
 62
7
  6
CONTINUOUS
 10
86.7363388414
 20
51.570422606
 11
86.7363388414
 21
50.1507451415
  0
LINE
  5
2EC
100
AcDbEntity
  8
0
100
AcDbLine
 62
7
  6
CONTINUOUS
 10
87.7363388414
 20
49.570422606
 11
87.7363388414
 21
92.570422606
  0
LINE
  5
2ED
100
AcDbEntity
  8
0
100
AcDbLine
 62
7
  6
CONTINUOUS
 10
87.7363388414
 20
92.570422606
 11
17.7363388414
 21
92.570422606
  0
LINE
  5
2EE
100
AcDbEntity
  8
0
100
AcDbLine
 62
7
  6
CONTINUOUS
 10
72.5267684041
 20
23.2950688028
 11
74.0116926446
 21
24.7799930433
  0
ARC
  5
2EF
100
AcDbEntity
  8
DEFAULT_2
100
AcDbCircle
 62
8
  6
HIDDEN
 10
19.9005310631
 20
35.2128973978
 40
16.4435934278
100
AcDbArc
 50
15.5993562257
 51
16.0511576388
  0
ARC
  5
2F0
100
AcDbEntity
  8
DEFAULT_2
100
AcDbCircle
 62
8
  6
HIDDEN
 10
42.2130215082
 20
41.6506258183
 40
7.4704694208
100
AcDbArc
 50
195.9442686566
 51
196.5308311001
  0
ARC
  5
2F1
100
AcDbEntity
  8
DEFAULT_2
100
AcDbCircle
 62
8
  6
HIDDEN
 10
29.4114120622
 20
37.6397942871
 40
6.6391318081
100
AcDbArc
 50
18.6188518685
 51
18.8700730028
  0
ARC
  5
2F2
100
AcDbEntity
  8
DEFAULT_2
100
AcDbCircle
 62
8
  6
HIDDEN
 10
41.3299897451
 20
41.2317724268
 40
6.5064953188
100
AcDbArc
 50
195.2072631744
 51
195.9260118286
  0
ARC
  5
2F3
100
AcDbEntity
  8
0
100
AcDbCircle
 62
7
  6
CONTINUOUS
 10
62.2363388414
 20
39.570422606
 40
5.5
100
AcDbArc
 50
132.3957204106
 51
144.9031987724
  0
ARC
  5
2F4
100
AcDbEntity
  8
DEFAULT_2
100
AcDbCircle
 62
8
  6
HIDDEN
 10
75.6511930569
 20
36.570422606
 40
2.2360679775
100
AcDbArc
 50
148.9090696423
 51
211.0909303577
  0
ARC
  5
2F5
100
AcDbEntity
  8
A_RUNDUNGEN
100
AcDbCircle
 62
7
  6
CONTINUOUS
 10
70.0363388414
 20
45.370422606
 40
0.3
100
AcDbArc
 50
180.0000000744
 51
270.0
  0
ARC
  5
2F6
100
AcDbEntity
  8
A_RUNDUNGEN
100
AcDbCircle
 62
7
  6
CONTINUOUS
 10
70.0363388414
 20
31.870422606
 40
0.3
100
AcDbArc
 50
180.0
 51
270.0
  0
ARC
  5
2F7
100
AcDbEntity
  8
A_RUNDUNGEN
100
AcDbCircle
 62
7
  6
CONTINUOUS
 10
70.0363388414
 20
41.270422606
 40
0.3
100
AcDbArc
 50
90.0
 51
180.0
  0
ARC
  5
2F8
100
AcDbEntity
  8
A_RUNDUNGEN
100
AcDbCircle
 62
7
  6
CONTINUOUS
 10
69.4363388414
 20
39.870422606
 40
0.3
100
AcDbArc
 50
270.0
 51
360.0
  0
ARC
  5
2F9
100
AcDbEntity
  8
A_RUNDUNGEN
100
AcDbCircle
 62
7
  6
CONTINUOUS
 10
69.4363388414
 20
33.270422606
 40
0.3
100
AcDbArc
 50
0.0
 51
90.0
  0
ARC
  5
2FA
100
AcDbEntity
  8
0
100
AcDbCircle
 62
7
  6
CONTINUOUS
 10
73.8702712884
 20
24.9214143995
 40
0.2
100
AcDbArc
 50
315.0
 51
45.0
  0
ARC
  5
2FB
100
AcDbEntity
  8
0
100
AcDbCircle
 62
7
  6
CONTINUOUS
 10
72.3853470479
 20
23.436490159
 40
0.2
100
AcDbArc
 50
225.0
 51
315.0
  0
SPLINE
  5
2FC
100
AcDbEntity
  8
DEFAULT_2
100
AcDbSpline
 62
8
  6
HIDDEN
 70
0
 71
3
 72
10
 73
6
 74
0
 42
0.0000001
 43
0.0000001
 44
0.0000000001
 40
0.0
 40
0.0
 40
0.0
 40
0.0
 40
0.1813876336
 40
0.5510784582
 40
1.0
 40
1.0
 40
1.0
 40
1.0
 10
49.0728965442
 20
38.3182969961
 30
0.0
 10
49.0704616033
 20
38.3776433751
 30
0.0
 10
49.0642205615
 20
38.5579912203
 30
0.0
 10
49.0557158413
 20
38.8853448724
 30
0.0
 10
49.0525634942
 20
39.1533912342
 30
0.0
 10
49.0509723682
 20
39.3003842817
 30
0.0
  0
SPLINE
  5
2FD
100
AcDbEntity
  8
DEFAULT_2
100
AcDbSpline
 62
8
  6
HIDDEN
 70
0
 71
3
 72
12
 73
8
 74
0
 42
0.0000001
 43
0.0000001
 44
0.0000000001
 40
0.0
 40
0.0
 40
0.0
 40
0.0
 40
0.3961703047
 40
0.569004113
 40
0.7178649482
 40
0.9273345364
 40
1.0
 40
1.0
 40
1.0
 40
1.0
 10
49.0494278592
 20
39.3008003953
 30
0.0
 10
49.0494278592
 20
39.1515248378
 30
0.0
 10
49.0462152974
 20
38.9371386358
 30
0.0
 10
49.0457655366
 20
38.6666478385
 30
0.0
 10
49.0465499607
 20
38.4665081949
 30
0.0
 10
49.0463388431
 20
38.3041101745
 30
0.0
 10
49.0463222104
 20
38.1978026692
 30
0.0
 10
49.0463388414
 20
38.170422606
 30
0.0
  0
SPLINE
  5
2FE
100
AcDbEntity
  8
DEFAULT_2
100
AcDbSpline
 62
8
  6
HIDDEN
 70
0
 71
3
 72
13
 73
9
 74
0
 42
0.0000001
 43
0.0000001
 44
0.0000000001
 40
0.0
 40
0.0
 40
0.0
 40
0.0
 40
0.3445606686
 40
0.6192832964
 40
0.731924357
 40
0.8304894137
 40
0.9182564174
 40
1.0
 40
1.0
 40
1.0
 40
1.0
 10
47.906879738
 20
38.4506739619
 30
0.0
 10
47.9263513581
 20
38.4095199362
 30
0.0
 10
47.9639437563
 20
38.3367579944
 30
0.0
 10
48.0193400546
 20
38.2566923254
 30
0.0
 10
48.0651560108
 20
38.2114235023
 30
0.0
 10
48.0975047771
 20
38.1883628591
 30
0.0
 10
48.1302833531
 20
38.1741282809
 30
0.0
 10
48.152781587
 20
38.1708323868
 30
0.0
 10
48.1635826477
 20
38.170828371
 30
0.0
  0
SPLINE
  5
2FF
100
AcDbEntity
  8
DEFAULT_2
100
AcDbSpline
 62
8
  6
HIDDEN
 70
0
 71
3
 72
11
 73
7
 74
0
 42
0.0000001
 43
0.0000001
 44
0.0000000001
 40
0.0
 40
0.0
 40
0.0
 40
0.0
 40
0.0802778338
 40
0.3057399309
 40
0.6332153745
 40
1.0
 40
1.0
 40
1.0
 40
1.0
 10
49.0463388414
 20
40.970422606
 30
0.0
 10
49.0463243796
 20
40.9257444799
 30
0.0
 10
49.0463388425
 20
40.7555869924
 30
0.0
 10
49.0465750972
 20
40.4031757341
 30
0.0
 10
49.0449354121
 20
39.8913067649
 30
0.0
 10
49.0496906088
 20
39.5049317644
 30
0.0
 10
49.0494278592
 20
39.3008003953
 30
0.0
  0
SPLINE
  5
300
100
AcDbEntity
  8
DEFAULT_2
100
AcDbSpline
 62
8
  6
HIDDEN
 70
0
 71
3
 72
11
 73
7
 74
0
 42
0.0000001
 43
0.0000001
 44
0.0000000001
 40
0.0
 40
0.0
 40
0.0
 40
0.0
 40
0.301792134
 40
0.5749877603
 40
0.8100544641
 40
1.0
 40
1.0
 40
1.0
 40
1.0
 10
49.3547090233
 20
39.1977822534
 30
0.0
 10
49.3354812144
 20
39.113630661
 30
0.0
 10
49.2973169994
 20
38.9536482714
 30
0.0
 10
49.2373422657
 20
38.7297801452
 30
0.0
 10
49.17707734
 20
38.5393451151
 30
0.0
 10
49.1312857385
 20
38.4263603223
 30
0.0
 10
49.1067180187
 20
38.3779031037
 30
0.0
  0
SPLINE
  5
301
100
AcDbEntity
  8
DEFAULT_2
100
AcDbSpline
 62
8
  6
HIDDEN
 70
0
 71
3
 72
13
 73
9
 74
0
 42
0.0000001
 43
0.0000001
 44
0.0000000001
 40
0.0
 40
0.0
 40
0.0
 40
0.0
 40
0.3434856208
 40
0.6188785592
 40
0.7321040915
 40
0.8308501384
 40
0.9184752898
 40
1.0
 40
1.0
 40
1.0
 40
1.0
 10
45.4063086291
 20
38.4517857793
 30
0.0
 10
45.4257719504
 20
38.4106896974
 30
0.0
 10
45.4635197576
 20
38.3378899998
 30
0.0
 10
45.5187839997
 20
38.2575389181
 30
0.0
 10
45.5644083515
 20
38.2116419279
 30
0.0
 10
45.5967300345
 20
38.1882546901
 30
0.0
 10
45.629526839
 20
38.1739212846
 30
0.0
 10
45.6520252164
 20
38.1706424659
 30
0.0
 10
45.6628177991
 20
38.1706446439
 30
0.0
  0
SPLINE
  5
302
100
AcDbEntity
  8
DEFAULT_2
100
AcDbSpline
 62
8
  6
HIDDEN
 70
0
 71
3
 72
13
 73
9
 74
0
 42
0.0000001
 43
0.0000001
 44
0.0000000001
 40
0.0
 40
0.0
 40
0.0
 40
0.0
 40
0.3437661864
 40
0.6192196774
 40
0.7322477765
 40
0.8308423212
 40
0.9184524608
 40
1.0
 40
1.0
 40
1.0
 40
1.0
 10
42.9063500236
 20
38.4517791741
 30
0.0
 10
42.9258353516
 20
38.4106287379
 30
0.0
 10
42.9635981777
 20
38.337749725
 30
0.0
 10
43.0188482204
 20
38.2572937926
 30
0.0
 10
43.0645699649
 20
38.2114953539
 30
0.0
 10
43.0969392984
 20
38.1882290785
 30
0.0
 10
43.1297423276
 20
38.1739303271
 30
0.0
 10
43.1522507257
 20
38.1706457514
 30
0.0
 10
43.1630514074
 20
38.170646027
 30
0.0
  0
SPLINE
  5
303
100
AcDbEntity
  8
DEFAULT_2
100
AcDbSpline
 62
8
  6
HIDDEN
 70
0
 71
3
 72
13
 73
9
 74
0
 42
0.0000001
 43
0.0000001
 44
0.0000000001
 40
0.0
 40
0.0
 40
0.0
 40
0.0
 40
0.0793556023
 40
0.1744512982
 40
0.2844987517
 40
0.4082129125
 40
0.6887999133
 40
1.0
 40
1.0
 40
1.0
 40
1.0
 10
48.6797496394
 20
37.4263464138
 30
0.0
 10
48.6977978294
 20
37.4701674007
 30
0.0
 10
48.7326976375
 20
37.5684563633
 30
0.0
 10
48.7805457926
 20
37.7315274326
 30
0.0
 10
48.8285121966
 20
37.9220189881
 30
0.0
 10
48.8953611216
 20
38.2218555238
 30
0.0
 10
48.9764765148
 20
38.6414581982
 30
0.0
 10
49.037497425
 20
38.9895733366
 30
0.0
 10
49.0689388875
 20
39.172747047
 30
0.0
  0
SPLINE
  5
304
100
AcDbEntity
  8
DEFAULT_2
100
AcDbSpline
 62
8
  6
HIDDEN
 70
0
 71
3
 72
19
 73
15
 74
0
 42
0.0000001
 43
0.0000001
 44
0.0000000001
 40
0.0
 40
0.0
 40
0.0
 40
0.0
 40
0.0385476296
 40
0.085750011
 40
0.1409656036
 40
0.2032973991
 40
0.3441024675
 40
0.4972718265
 40
0.6508575157
 40
0.7927496962
 40
0.8559141874
 40
0.9121969071
 40
0.9604393654
 40
1.0
 40
1.0
 40
1.0
 40
1.0
 10
46.179534031
 20
37.4255020091
 30
0.0
 10
46.2009141103
 20
37.4774475019
 30
0.0
 10
46.2417617839
 20
37.5957298177
 30
0.0
 10
46.2972305864
 20
37.793563384
 30
0.0
 10
46.3529302925
 20
38.0271469828
 30
0.0
 10
46.4304821066
 20
38.3955796763
 30
0.0
 10
46.5241012022
 20
38.906358546
 30
0.0
 10
46.6330424903
 20
39.5493940221
 30
0.0
 10
46.7419275562
 20
40.1940458326
 30
0.0
 10
46.8355234369
 20
40.7082843567
 30
0.0
 10
46.9130244775
 20
41.0811712971
 30
0.0
 10
46.9686093348
 20
41.3191779621
 30
0.0
 10
47.0241021327
 20
41.5217263513
 30
0.0
 10
47.0649542121
 20
41.6431497394
 30
0.0
 10
47.0862388843
 20
41.6967261293
 30
0.0
  0
SPLINE
  5
305
100
AcDbEntity
  8
DEFAULT_2
100
AcDbSpline
 62
8
  6
HIDDEN
 70
0
 71
3
 72
19
 73
15
 74
0
 42
0.0000001
 43
0.0000001
 44
0.0000000001
 40
0.0
 40
0.0
 40
0.0
 40
0.0
 40
0.0385212594
 40
0.0857231738
 40
0.1410113186
 40
0.2033752644
 40
0.3442375739
 40
0.4974830699
 40
0.6510202065
 40
0.7929461495
 40
0.8560167025
 40
0.9121080352
 40
0.960351351
 40
1.0
 40
1.0
 40
1.0
 40
1.0
 10
43.6796230851
 20
37.4259033188
 30
0.0
 10
43.701011571
 20
37.4778331509
 30
0.0
 10
43.7419140617
 20
37.5961189301
 30
0.0
 10
43.7974385576
 20
37.7941115897
 30
0.0
 10
43.8530975354
 20
38.0279804389
 30
0.0
 10
43.9307399668
 20
38.3968203953
 30
0.0
 10
44.0244238018
 20
38.908089134
 30
0.0
 10
44.1333581206
 20
39.551570864
 30
0.0
 10
44.2424376508
 20
40.1966008682
 30
0.0
 10
44.335970948
 20
40.710946092
 30
0.0
 10
44.413509138
 20
41.0836412802
 30
0.0
 10
44.4693125783
 20
41.3212929015
 30
0.0
 10
44.5248172829
 20
41.5237815072
 30
0.0
 10
44.5655909018
 20
41.6454344733
 30
0.0
 10
44.5869124462
 20
41.6991642852
 30
0.0
  0
SPLINE
  5
306
100
AcDbEntity
  8
DEFAULT_2
100
AcDbSpline
 62
8
  6
HIDDEN
 70
0
 71
3
 72
16
 73
12
 74
0
 42
0.0000001
 43
0.0000001
 44
0.0000000001
 40
0.0
 40
0.0
 40
0.0
 40
0.0
 40
0.0969722079
 40
0.1457450823
 40
0.196599906
 40
0.3083451244
 40
0.435735548
 40
0.5755187242
 40
0.7212443685
 40
0.8651519698
 40
1.0
 40
1.0
 40
1.0
 40
1.0
 10
30.6628244676
 20
39.1433310251
 30
0.0
 10
30.7045366275
 20
39.1340836618
 30
0.0
 10
30.770600293
 20
39.131136414
 30
0.0
 10
30.8550106985
 20
39.1522496658
 30
0.0
 10
30.9403130065
 20
39.1907232316
 30
0.0
 10
31.043131524
 20
39.2688463354
 30
0.0
 10
31.1564643404
 20
39.3919026734
 30
0.0
 10
31.2662311889
 20
39.5371833965
 30
0.0
 10
31.3727750713
 20
39.6935436911
 30
0.0
 10
31.4766220751
 20
39.8490668246
 30
0.0
 10
31.547300295
 20
39.9495802189
 30
0.0
 10
31.5831940748
 20
39.9969246217
 30
0.0
  0
SPLINE
  5
307
100
AcDbEntity
  8
DEFAULT_2
100
AcDbSpline
 62
8
  6
HIDDEN
 70
0
 71
3
 72
19
 73
15
 74
0
 42
0.0000001
 43
0.0000001
 44
0.0000000001
 40
0.0
 40
0.0
 40
0.0
 40
0.0
 40
0.071993962
 40
0.1172169258
 40
0.1694267582
 40
0.2284215707
 40
0.2936360569
 40
0.4388673838
 40
0.5948112555
 40
0.7486310134
 40
0.8205766688
 40
0.8871888279
 40
0.9472098528
 40
1.0
 40
1.0
 40
1.0
 40
1.0
 10
32.6391488229
 20
40.4356547483
 30
0.0
 10
32.5990856271
 20
40.4267729516
 30
0.0
 10
32.5396113631
 20
40.3895199037
 30
0.0
 10
32.4719334897
 20
40.3210931076
 30
0.0
 10
32.4167886273
 20
40.2506481874
 30
0.0
 10
32.3612777279
 20
40.1667801343
 30
0.0
 10
32.2836590461
 20
40.0341740138
 30
0.0
 10
32.1884942956
 20
39.8481690368
 30
0.0
 10
32.0757592985
 20
39.6146539625
 30
0.0
 10
31.9782289754
 20
39.420075933
 30
0.0
 10
31.896193514
 20
39.2749642826
 30
0.0
 10
31.8356253784
 20
39.1792542361
 30
0.0
 10
31.7746403916
 20
39.0970305623
 30
0.0
 10
31.7306736999
 20
39.0497491612
 30
0.0
 10
31.7082715194
 20
39.0296607334
 30
0.0
  0
SPLINE
  5
308
100
AcDbEntity
  8
DEFAULT_2
100
AcDbSpline
 62
8
  6
HIDDEN
 70
0
 71
3
 72
20
 73
16
 74
0
 42
0.0000001
 43
0.0000001
 44
0.0000000001
 40
0.0
 40
0.0
 40
0.0
 40
0.0
 40
0.0275528374
 40
0.0569125729
 40
0.0916717453
 40
0.1338587704
 40
0.1841197382
 40
0.2424735395
 40
0.3083508728
 40
0.3806381393
 40
0.5390620324
 40
0.7047478598
 40
0.8631730294
 40
0.9350724708
 40
1.0
 40
1.0
 40
1.0
 40
1.0
 10
33.1629487657
 20
38.5891018973
 30
0.0
 10
33.1832323904
 20
38.5846408162
 30
0.0
 10
33.2274574592
 20
38.5834258621
 30
0.0
 10
33.2930624912
 20
38.6093971317
 30
0.0
 10
33.3558643757
 20
38.6604380829
 30
0.0
 10
33.417472765
 20
38.7343621721
 30
0.0
 10
33.4789753837
 20
38.8301872173
 30
0.0
 10
33.5403914696
 20
38.9466130039
 30
0.0
 10
33.601798372
 20
39.0814737404
 30
0.0
 10
33.6864553818
 20
39.2884244283
 30
0.0
 10
33.7884458365
 20
39.5693499801
 30
0.0
 10
33.9077684471
 20
39.9128975125
 30
0.0
 10
34.0094774112
 20
40.1936251121
 30
0.0
 10
34.0940960524
 20
40.3994995749
 30
0.0
 10
34.137419696
 20
40.4931654308
 30
0.0
 10
34.1595142201
 20
40.5368343537
 30
0.0
  0
SPLINE
  5
309
100
AcDbEntity
  8
DEFAULT_2
100
AcDbSpline
 62
8
  6
HIDDEN
 70
0
 71
3
 72
9
 73
5
 74
0
 42
0.0000001
 43
0.0000001
 44
0.0000000001
 40
0.0
 40
0.0
 40
0.0
 40
0.0
 40
0.7460357168
 40
1.0
 40
1.0
 40
1.0
 40
1.0
 10
35.0857294884
 20
40.970422606
 30
0.0
 10
35.0770890253
 20
40.970422606
 30
0.0
 10
35.0654661241
 20
40.9692569707
 30
0.0
 10
35.0541763676
 20
40.9666635068
 30
0.0
 10
35.0513307465
 20
40.9659191189
 30
0.0
  0
SPLINE
  5
30A
100
AcDbEntity
  8
DEFAULT_2
100
AcDbSpline
 62
8
  6
HIDDEN
 70
0
 71
3
 72
13
 73
9
 74
0
 42
0.0000001
 43
0.0000001
 44
0.0000000001
 40
0.0
 40
0.0
 40
0.0
 40
0.0
 40
0.08519298
 40
0.1752467543
 40
0.2749038225
 40
0.3876332288
 40
0.6601704094
 40
1.0
 40
1.0
 40
1.0
 40
1.0
 10
47.6273493515
 20
40.9829264314
 30
0.0
 10
47.6372596462
 20
40.9832748829
 30
0.0
 10
47.6578339951
 20
40.9812278664
 30
0.0
 10
47.6881119102
 20
40.9700514147
 30
0.0
 10
47.7180378353
 20
40.9511206358
 30
0.0
 10
47.7602610583
 20
40.913370316
 30
0.0
 10
47.8114361062
 20
40.8454683535
 30
0.0
 10
47.8462835701
 20
40.783201442
 30
0.0
 10
47.8642550669
 20
40.7479636568
 30
0.0
  0
SPLINE
  5
30B
100
AcDbEntity
  8
DEFAULT_2
100
AcDbSpline
 62
8
  6
HIDDEN
 70
0
 71
3
 72
9
 73
5
 74
0
 42
0.0000001
 43
0.0000001
 44
0.0000000001
 40
0.0
 40
0.0
 40
0.0
 40
0.0
 40
0.4558063186
 40
1.0
 40
1.0
 40
1.0
 40
1.0
 10
30.6628251277
 20
39.1433308787
 30
0.0
 10
30.603381598
 20
39.156509192
 30
0.0
 10
30.4802523102
 20
39.2154012711
 30
0.0
 10
30.3747776052
 20
39.2973160184
 30
0.0
 10
30.3184291422
 20
39.3432421709
 30
0.0
  0
SPLINE
  5
30C
100
AcDbEntity
  8
DEFAULT_2
100
AcDbSpline
 62
8
  6
HIDDEN
 70
0
 71
3
 72
16
 73
12
 74
0
 42
0.0000001
 43
0.0000001
 44
0.0000000001
 40
0.0
 40
0.0
 40
0.0
 40
0.0
 40
0.1230618304
 40
0.2541291349
 40
0.3897336912
 40
0.5249844853
 40
0.654661822
 40
0.7750508524
 40
0.8321025942
 40
0.8879446317
 40
1.0
 40
1.0
 40
1.0
 40
1.0
 10
31.3376705848
 20
39.0624006157
 30
0.0
 10
31.2799412136
 20
39.0973454198
 30
0.0
 10
31.1650393142
 20
39.1766662589
 30
0.0
 10
30.9989438774
 20
39.311310184
 30
0.0
 10
30.8338631526
 20
39.4573330257
 30
0.0
 10
30.6662473298
 20
39.59938988
 30
0.0
 10
30.4949482473
 20
39.7235929719
 30
0.0
 10
30.3446900181
 20
39.8022504603
 30
0.0
 10
30.2220912497
 20
39.8401807159
 30
0.0
 10
30.0998538431
 20
39.8592043203
 30
0.0
 10
30.0062809186
 20
39.8519619864
 30
0.0
 10
29.9462909378
 20
39.8386625279
 30
0.0
  0
SPLINE
  5
30D
100
AcDbEntity
  8
DEFAULT_2
100
AcDbSpline
 62
8
  6
HIDDEN
 70
0
 71
3
 72
19
 73
15
 74
0
 42
0.0000001
 43
0.0000001
 44
0.0000000001
 40
0.0
 40
0.0
 40
0.0
 40
0.0
 40
0.0270003625
 40
0.0613796149
 40
0.1039092602
 40
0.1546271988
 40
0.2129595891
 40
0.2780910737
 40
0.4243842691
 40
0.5825518371
 40
0.739828975
 40
0.882958421
 40
0.9453618668
 40
1.0
 40
1.0
 40
1.0
 40
1.0
 10
35.0513307465
 20
40.9659191189
 30
0.0
 10
35.0311165681
 20
40.9556861631
 30
0.0
 10
34.9903117366
 20
40.922669153
 30
0.0
 10
34.936125176
 20
40.8540522657
 30
0.0
 10
34.8813380643
 20
40.7617404414
 30
0.0
 10
34.8263159654
 20
40.6469664187
 30
0.0
 10
34.7706664143
 20
40.5117549673
 30
0.0
 10
34.6927434027
 20
40.2991896735
 30
0.0
 10
34.5976280208
 20
40.0039215923
 30
0.0
 10
34.4850208322
 20
39.6331974659
 30
0.0
 10
34.370695968
 20
39.2657947665
 30
0.0
 10
34.270706068
 20
38.9780028709
 30
0.0
 10
34.1859249428
 20
38.776740563
 30
0.0
 10
34.1420295344
 20
38.688733523
 30
0.0
 10
34.1194400575
 20
38.6488364007
 30
0.0
  0
SPLINE
  5
30E
100
AcDbEntity
  8
DEFAULT_2
100
AcDbSpline
 62
8
  6
HIDDEN
 70
0
 71
3
 72
13
 73
9
 74
0
 42
0.0000001
 43
0.0000001
 44
0.0000000001
 40
0.0
 40
0.0
 40
0.0
 40
0.0
 40
0.0851264197
 40
0.175322029
 40
0.275436689
 40
0.3886851578
 40
0.6611364534
 40
1.0
 40
1.0
 40
1.0
 40
1.0
 10
45.1279217593
 20
40.9830082923
 30
0.0
 10
45.1378275125
 20
40.9833608019
 30
0.0
 10
45.1584275689
 20
40.9812967773
 30
0.0
 10
45.1886968879
 20
40.9698475771
 30
0.0
 10
45.2185546167
 20
40.9505510193
 30
0.0
 10
45.2606180145
 20
40.9124596043
 30
0.0
 10
45.3118445614
 20
40.8446875034
 30
0.0
 10
45.3467487644
 20
40.7825482938
 30
0.0
 10
45.3646893677
 20
40.7474060028
 30
0.0
  0
SPLINE
  5
30F
100
AcDbEntity
  8
DEFAULT_2
100
AcDbSpline
 62
8
  6
HIDDEN
 70
0
 71
3
 72
9
 73
5
 74
0
 42
0.0000001
 43
0.0000001
 44
0.0000000001
 40
0.0
 40
0.0
 40
0.0
 40
0.0
 40
0.750175034
 40
1.0
 40
1.0
 40
1.0
 40
1.0
 10
35.0732343088
 20
39.4464173517
 30
0.0
 10
35.2305663623
 20
39.525031703
 30
0.0
 10
35.4402704531
 20
39.6298747834
 30
0.0
 10
35.6505072095
 20
39.7336443646
 30
0.0
 10
35.703074367
 20
39.7594774255
 30
0.0
  0
SPLINE
  5
310
100
AcDbEntity
  8
DEFAULT_2
100
AcDbSpline
 62
8
  6
HIDDEN
 70
0
 71
3
 72
13
 73
9
 74
0
 42
0.0000001
 43
0.0000001
 44
0.0000000001
 40
0.0
 40
0.0
 40
0.0
 40
0.0
 40
0.0851852054
 40
0.1752482218
 40
0.2749554466
 40
0.3877990962
 40
0.6604119481
 40
1.0
 40
1.0
 40
1.0
 40
1.0
 10
42.6274115296
 20
40.9829529482
 30
0.0
 10
42.6373283869
 20
40.9833021993
 30
0.0
 10
42.6579191495
 20
40.9812511161
 30
0.0
 10
42.6882195895
 20
40.9700450058
 30
0.0
 10
42.7181677972
 20
40.9510590568
 30
0.0
 10
42.7603862929
 20
40.9131981528
 30
0.0
 10
42.8115871366
 20
40.8452558626
 30
0.0
 10
42.8464929705
 20
40.7829795071
 30
0.0
 10
42.8644714814
 20
40.7477433354
 30
0.0
  0
LINE
  5
311
100
AcDbEntity
  8
DEFAULT_2
100
AcDbLine
 62
8
  6
HIDDEN
 10
49.0525168771
 20
39.3002455772
 11
49.3547090233
 21
39.1977822534
  0
SPLINE
  5
312
100
AcDbEntity
  8
DEFAULT_2
100
AcDbSpline
 62
8
  6
HIDDEN
 70
0
 71
3
 72
13
 73
9
 74
0
 42
0.0000001
 43
0.0000001
 44
0.0000000001
 40
0.0
 40
0.0
 40
0.0
 40
0.0
 40
0.3443642155
 40
0.618987916
 40
0.7317661418
 40
0.8304679409
 40
0.9182910247
 40
1.0
 40
1.0
 40
1.0
 40
1.0
 10
40.4069582889
 20
38.45054086
 30
0.0
 10
40.42640843
 20
38.4094237325
 30
0.0
 10
40.4639589176
 20
38.336711109
 30
0.0
 10
40.5193569364
 20
38.2567288917
 30
0.0
 10
40.5650827711
 20
38.2113761071
 30
0.0
 10
40.5973847389
 20
38.1882029753
 30
0.0
 10
40.6301233857
 20
38.1738545887
 30
0.0
 10
40.6526170071
 20
38.1705190824
 30
0.0
 10
40.6634095611
 20
38.1705163638
 30
0.0
  0
SPLINE
  5
313
100
AcDbEntity
  8
DEFAULT_2
100
AcDbSpline
 62
8
  6
HIDDEN
 70
0
 71
3
 72
13
 73
9
 74
0
 42
0.0000001
 43
0.0000001
 44
0.0000000001
 40
0.0
 40
0.0
 40
0.0
 40
0.0
 40
0.3431606639
 40
0.6183721437
 40
0.7317388917
 40
0.8307699323
 40
0.9185163395
 40
1.0
 40
1.0
 40
1.0
 40
1.0
 10
37.9063846348
 20
38.4515477719
 30
0.0
 10
37.9257793753
 20
38.4105844383
 30
0.0
 10
37.9634279628
 20
38.3380208722
 30
0.0
 10
38.01857274
 20
38.2579298383
 30
0.0
 10
38.0640497992
 20
38.212067255
 30
0.0
 10
38.0962159095
 20
38.1885162699
 30
0.0
 10
38.1289069656
 20
38.1740036738
 30
0.0
 10
38.1513722971
 20
38.1707233951
 30
0.0
 10
38.1621342
 20
38.1707309855
 30
0.0
  0
SPLINE
  5
314
100
AcDbEntity
  8
DEFAULT_2
100
AcDbSpline
 62
8
  6
HIDDEN
 70
0
 71
3
 72
13
 73
9
 74
0
 42
0.0000001
 43
0.0000001
 44
0.0000000001
 40
0.0
 40
0.0
 40
0.0
 40
0.0
 40
0.3435723401
 40
0.6184243108
 40
0.7316089706
 40
0.8305859526
 40
0.9184199597
 40
1.0
 40
1.0
 40
1.0
 40
1.0
 10
35.4067854614
 20
38.4507102867
 30
0.0
 10
35.4261616337
 20
38.4097450042
 30
0.0
 10
35.4637230262
 20
38.3372460444
 30
0.0
 10
35.5189385803
 20
38.2573689867
 30
0.0
 10
35.564432967
 20
38.211752661
 30
0.0
 10
35.5966049427
 20
38.1883414201
 30
0.0
 10
35.6292620974
 20
38.1738425647
 30
0.0
 10
35.65172054
 20
38.1705486481
 30
0.0
 10
35.6624807958
 20
38.1705534225
 30
0.0
  0
SPLINE
  5
315
100
AcDbEntity
  8
DEFAULT_2
100
AcDbSpline
 62
8
  6
HIDDEN
 70
0
 71
3
 72
19
 73
15
 74
0
 42
0.0000001
 43
0.0000001
 44
0.0000000001
 40
0.0
 40
0.0
 40
0.0
 40
0.0
 40
0.0384806832
 40
0.0857402157
 40
0.141129154
 40
0.2035043293
 40
0.3442890998
 40
0.4974929433
 40
0.6509929059
 40
0.7928215346
 40
0.8559834455
 40
0.9122486304
 40
0.9604576525
 40
1.0
 40
1.0
 40
1.0
 40
1.0
 10
41.1801553146
 20
37.4274725704
 30
0.0
 10
41.2015165812
 20
37.4792879772
 30
0.0
 10
41.2424388708
 20
37.5974604695
 30
0.0
 10
41.297818711
 20
37.7954580053
 30
0.0
 10
41.3533375013
 20
38.0293610924
 30
0.0
 10
41.430905791
 20
38.3978758801
 30
0.0
 10
41.5245028945
 20
38.9084638571
 30
0.0
 10
41.6332753512
 20
39.5510694115
 30
0.0
 10
41.7421470687
 20
40.1952007741
 30
0.0
 10
41.8356891303
 20
40.7089404657
 30
0.0
 10
41.913103186
 20
41.0815135285
 30
0.0
 10
41.9686417047
 20
41.3193175574
 30
0.0
 10
42.0241140135
 20
41.5216512091
 30
0.0
 10
42.0649340325
 20
41.6429331946
 30
0.0
 10
42.0861987187
 20
41.696455801
 30
0.0
  0
SPLINE
  5
316
100
AcDbEntity
  8
DEFAULT_2
100
AcDbSpline
 62
8
  6
HIDDEN
 70
0
 71
3
 72
19
 73
15
 74
0
 42
0.0000001
 43
0.0000001
 44
0.0000000001
 40
0.0
 40
0.0
 40
0.0
 40
0.0
 40
0.0385904906
 40
0.0859677692
 40
0.1412956194
 40
0.2036472726
 40
0.3444860846
 40
0.4975427334
 40
0.6510308573
 40
0.7927572185
 40
0.8558239377
 40
0.9120914119
 40
0.9604132267
 40
1.0
 40
1.0
 40
1.0
 40
1.0
 10
38.6803218623
 20
37.4270024805
 30
0.0
 10
38.7017589977
 20
37.4789787476
 30
0.0
 10
38.7425509678
 20
37.5975967714
 30
0.0
 10
38.7978612178
 20
37.7959220593
 30
0.0
 10
38.8535227832
 20
38.0299197718
 30
0.0
 10
38.9310696758
 20
38.3985160573
 30
0.0
 10
39.0245227535
 20
38.9091228078
 30
0.0
 10
39.1334669571
 20
39.5517518751
 30
0.0
 10
39.2422058889
 20
40.1957281409
 30
0.0
 10
39.3357293257
 20
40.7093297705
 30
0.0
 10
39.4132227202
 20
41.0817189542
 30
0.0
 10
39.4687954233
 20
41.3196213265
 30
0.0
 10
39.5241439996
 20
41.5222965403
 30
0.0
 10
39.5649738338
 20
41.6438625687
 30
0.0
 10
39.5862582311
 20
41.6974665097
 30
0.0
  0
SPLINE
  5
317
100
AcDbEntity
  8
DEFAULT_2
100
AcDbSpline
 62
8
  6
HIDDEN
 70
0
 71
3
 72
19
 73
15
 74
0
 42
0.0000001
 43
0.0000001
 44
0.0000000001
 40
0.0
 40
0.0
 40
0.0
 40
0.0
 40
0.0385813187
 40
0.0858833988
 40
0.1411598024
 40
0.2035111794
 40
0.3443210849
 40
0.497448095
 40
0.6509741543
 40
0.7927348348
 40
0.8558466778
 40
0.9121145887
 40
0.960397842
 40
1.0
 40
1.0
 40
1.0
 40
1.0
 10
36.1798332266
 20
37.4257747777
 30
0.0
 10
36.2012515015
 20
37.4777734587
 30
0.0
 10
36.2420830954
 20
37.5963064191
 30
0.0
 10
36.2974902055
 20
37.794503735
 30
0.0
 10
36.3532017656
 20
38.0284181668
 30
0.0
 10
36.4307614737
 20
38.3970760563
 30
0.0
 10
36.5243655662
 20
38.9079682833
 30
0.0
 10
36.6333225269
 20
39.5510295058
 30
0.0
 10
36.7421651025
 20
40.1955161305
 30
0.0
 10
36.8357981649
 20
40.709525242
 30
0.0
 10
36.9133065887
 20
41.0822154931
 30
0.0
 10
36.9689077715
 20
41.3202435482
 30
0.0
 10
37.0243792567
 20
41.5229541184
 30
0.0
 10
37.0651992285
 20
41.6445514034
 30
0.0
 10
37.086499525
 20
41.6982028548
 30
0.0
  0
SPLINE
  5
318
100
AcDbEntity
  8
DEFAULT_2
100
AcDbSpline
 62
8
  6
HIDDEN
 70
0
 71
3
 72
13
 73
9
 74
0
 42
0.0000001
 43
0.0000001
 44
0.0000000001
 40
0.0
 40
0.0
 40
0.0
 40
0.0
 40
0.0852499712
 40
0.1753111904
 40
0.2749130359
 40
0.3875455119
 40
0.6599706032
 40
1.0
 40
1.0
 40
1.0
 40
1.0
 10
40.1273076669
 20
40.9826575794
 30
0.0
 10
40.1372176566
 20
40.9830057465
 30
0.0
 10
40.1577838317
 20
40.9809788132
 30
0.0
 10
40.1880631926
 20
40.9698723174
 30
0.0
 10
40.217995595
 20
40.951029442
 30
0.0
 10
40.260238502
 20
40.9134047357
 30
0.0
 10
40.3114337639
 20
40.8455841186
 30
0.0
 10
40.3462563488
 20
40.783348451
 30
0.0
 10
40.3642235002
 20
40.7481134539
 30
0.0
  0
SPLINE
  5
319
100
AcDbEntity
  8
DEFAULT_2
100
AcDbSpline
 62
8
  6
HIDDEN
 70
0
 71
3
 72
13
 73
9
 74
0
 42
0.0000001
 43
0.0000001
 44
0.0000000001
 40
0.0
 40
0.0
 40
0.0
 40
0.0
 40
0.0851472131
 40
0.1751807823
 40
0.2750137349
 40
0.3881363903
 40
0.6608104904
 40
1.0
 40
1.0
 40
1.0
 40
1.0
 10
37.627870059
 20
40.9827960173
 30
0.0
 10
37.6377661032
 20
40.9831478
 30
0.0
 10
37.6583164294
 20
40.9811260914
 30
0.0
 10
37.6885822079
 20
40.9699399056
 30
0.0
 10
37.7184627176
 20
40.9508629898
 30
0.0
 10
37.7605065535
 20
40.9128742699
 30
0.0
 10
37.8116455259
 20
40.8450967034
 30
0.0
 10
37.8465129895
 20
40.7829692961
 30
0.0
 10
37.8644524704
 20
40.7478381601
 30
0.0
  0
SPLINE
  5
31A
100
AcDbEntity
  8
DEFAULT_2
100
AcDbSpline
 62
8
  6
HIDDEN
 70
0
 71
3
 72
11
 73
7
 74
0
 42
0.0000001
 43
0.0000001
 44
0.0000000001
 40
0.0
 40
0.0
 40
0.0
 40
0.0
 40
0.3285476945
 40
0.6027820662
 40
0.82322717
 40
1.0
 40
1.0
 40
1.0
 40
1.0
 10
34.1595142201
 20
40.5368343537
 30
0.0
 10
34.1791071422
 20
40.5755589625
 30
0.0
 10
34.2172198443
 20
40.6455797245
 30
0.0
 10
34.2794642643
 20
40.7351727575
 30
0.0
 10
34.3421453887
 20
40.7987238846
 30
0.0
 10
34.3901462398
 20
40.8238427089
 30
0.0
 10
34.4129426542
 20
40.8288996136
 30
0.0
  0
SPLINE
  5
31B
100
AcDbEntity
  8
DEFAULT_2
100
AcDbSpline
 62
8
  6
HIDDEN
 70
0
 71
3
 72
11
 73
7
 74
0
 42
0.0000001
 43
0.0000001
 44
0.0000000001
 40
0.0
 40
0.0
 40
0.0
 40
0.0
 40
0.3165144482
 40
0.5880508757
 40
0.8134216451
 40
1.0
 40
1.0
 40
1.0
 40
1.0
 10
32.8721982468
 20
38.8876441333
 30
0.0
 10
32.8949561248
 20
38.8488774408
 30
0.0
 10
32.9393708034
 20
38.7780313414
 30
0.0
 10
33.0109199192
 20
38.6868992846
 30
0.0
 10
33.0829829923
 20
38.6209791824
 30
0.0
 10
33.1370684616
 20
38.5947938847
 30
0.0
 10
33.1629487656
 20
38.5891018974
 30
0.0
  0
SPLINE
  5
31C
100
AcDbEntity
  8
DEFAULT_2
100
AcDbSpline
 62
8
  6
HIDDEN
 70
0
 71
3
 72
11
 73
7
 74
0
 42
0.0000001
 43
0.0000001
 44
0.0000000001
 40
0.0
 40
0.0
 40
0.0
 40
0.0
 40
0.3064191689
 40
0.5749587717
 40
0.804156541
 40
1.0
 40
1.0
 40
1.0
 40
1.0
 10
31.5831940748
 20
39.9969246217
 30
0.0
 10
31.6102626482
 20
40.0326284526
 30
0.0
 10
31.6628897598
 20
40.0982839743
 30
0.0
 10
31.7450873965
 20
40.1828070092
 30
0.0
 10
31.8267559678
 20
40.2438259649
 30
0.0
 10
31.8849883013
 20
40.2684613859
 30
0.0
 10
31.9129458646
 20
40.2746594284
 30
0.0
  0
SPLINE
  5
31D
100
AcDbEntity
  8
DEFAULT_2
100
AcDbSpline
 62
8
  6
HIDDEN
 70
0
 71
3
 72
13
 73
9
 74
0
 42
0.0000001
 43
0.0000001
 44
0.0000000001
 40
0.0
 40
0.0
 40
0.0
 40
0.0
 40
0.33774484
 40
0.6108828443
 40
0.7245618902
 40
0.825102858
 40
0.9154852313
 40
1.0
 40
1.0
 40
1.0
 40
1.0
 10
35.3626688306
 20
40.6893106357
 30
0.0
 10
35.3416199076
 20
40.7305763875
 30
0.0
 10
35.300728618
 20
40.8038078653
 30
0.0
 10
35.2409575215
 20
40.8840456274
 30
0.0
 10
35.191642803
 20
40.9294761272
 30
0.0
 10
35.1566792693
 20
40.9527486366
 30
0.0
 10
35.1214054461
 20
40.9670943744
 30
0.0
 10
35.0973212807
 20
40.970422606
 30
0.0
 10
35.0857294884
 20
40.970422606
 30
0.0
  0
SPLINE
  5
31E
100
AcDbEntity
  8
DEFAULT_2
100
AcDbSpline
 62
8
  6
HIDDEN
 70
0
 71
3
 72
12
 73
8
 74
0
 42
0.0000001
 43
0.0000001
 44
0.0000000001
 40
0.0
 40
0.0
 40
0.0
 40
0.0
 40
0.3328939364
 40
0.599451958
 40
0.8110345085
 40
0.9056856975
 40
1.0
 40
1.0
 40
1.0
 40
1.0
 10
34.1194400575
 20
38.6488364007
 30
0.0
 10
34.0995000343
 20
38.6136186953
 30
0.0
 10
34.0605898685
 20
38.5516979037
 30
0.0
 10
33.9947182859
 20
38.4775505289
 30
0.0
 10
33.933477092
 20
38.4402712491
 30
0.0
 10
33.8849568981
 20
38.4318672274
 30
0.0
 10
33.8617890453
 20
38.434145662
 30
0.0
 10
33.8505994933
 20
38.4366485518
 30
0.0
  0
SPLINE
  5
31F
100
AcDbEntity
  8
DEFAULT_2
100
AcDbSpline
 62
8
  6
HIDDEN
 70
0
 71
3
 72
19
 73
15
 74
0
 42
0.0000001
 43
0.0000001
 44
0.0000000001
 40
0.0
 40
0.0
 40
0.0
 40
0.0
 40
0.0400821522
 40
0.0879422689
 40
0.1430604184
 40
0.2045222733
 40
0.3423995169
 40
0.492218424
 40
0.6434033821
 40
0.7850428113
 40
0.8489566645
 40
0.9067617684
 40
0.95742609
 40
1.0
 40
1.0
 40
1.0
 40
1.0
 10
33.7360274914
 20
37.8553379562
 30
0.0
 10
33.7560791486
 20
37.9018825333
 30
0.0
 10
33.7949108387
 20
38.0062159967
 30
0.0
 10
33.8481427892
 20
38.1791402029
 30
0.0
 10
33.9014323515
 20
38.3801573793
 30
0.0
 10
33.9756007528
 20
38.6932520566
 30
0.0
 10
34.0652274119
 20
39.1255995516
 30
0.0
 10
34.16959971
 20
39.6706142284
 30
0.0
 10
34.2739245589
 20
40.220479233
 30
0.0
 10
34.363038037
 20
40.6626958982
 30
0.0
 10
34.4367672334
 20
40.987441381
 30
0.0
 10
34.4899925603
 20
41.1988398488
 30
0.0
 10
34.5429290499
 20
41.3823726387
 30
0.0
 10
34.5815247626
 20
41.493894701
 30
0.0
 10
34.6015335974
 20
41.5438685272
 30
0.0
  0
SPLINE
  5
320
100
AcDbEntity
  8
DEFAULT_2
100
AcDbSpline
 62
8
  6
HIDDEN
 70
0
 71
3
 72
11
 73
7
 74
0
 42
0.0000001
 43
0.0000001
 44
0.0000000001
 40
0.0
 40
0.0
 40
0.0
 40
0.0
 40
0.3140921977
 40
0.5751262112
 40
0.7951171051
 40
1.0
 40
1.0
 40
1.0
 40
1.0
 10
32.9118591103
 20
40.269154676
 30
0.0
 10
32.8914862057
 20
40.2980726352
 30
0.0
 10
32.8513312741
 20
40.3492161781
 30
0.0
 10
32.7833342425
 20
40.4086943831
 30
0.0
 10
32.7112960191
 20
40.4409457016
 30
0.0
 10
32.6616762408
 20
40.4406489566
 30
0.0
 10
32.6391488229
 20
40.4356547483
 30
0.0
  0
SPLINE
  5
321
100
AcDbEntity
  8
DEFAULT_2
100
AcDbSpline
 62
8
  6
HIDDEN
 70
0
 71
3
 72
11
 73
7
 74
0
 42
0.0000001
 43
0.0000001
 44
0.0000000001
 40
0.0
 40
0.0
 40
0.0
 40
0.0
 40
0.2854737591
 40
0.5375965028
 40
0.7697883818
 40
1.0
 40
1.0
 40
1.0
 40
1.0
 10
30.1411589843
 20
40.0175575389
 30
0.0
 10
30.1644683621
 20
40.0371399861
 30
0.0
 10
30.2109788987
 20
40.0712061988
 30
0.0
 10
30.2864957187
 20
40.1053692542
 30
0.0
 10
30.3628046425
 20
40.1171946086
 30
0.0
 10
30.4123927198
 20
40.1101850621
 30
0.0
 10
30.4360480595
 20
40.1036174087
 30
0.0
  0
SPLINE
  5
322
100
AcDbEntity
  8
DEFAULT_2
100
AcDbSpline
 62
8
  6
HIDDEN
 70
0
 71
3
 72
11
 73
7
 74
0
 42
0.0000001
 43
0.0000001
 44
0.0000000001
 40
0.0
 40
0.0
 40
0.0
 40
0.0
 40
0.2829188841
 40
0.5355921386
 40
0.769345686
 40
1.0
 40
1.0
 40
1.0
 40
1.0
 10
31.7082715194
 20
39.0296607334
 30
0.0
 10
31.6921216583
 20
39.0151788699
 30
0.0
 10
31.6596415502
 20
38.9896894259
 30
0.0
 10
31.6064822184
 20
38.962983657
 30
0.0
 10
31.5520709532
 20
38.9512904326
 30
0.0
 10
31.515995533
 20
38.9541875535
 30
0.0
 10
31.4987299785
 20
38.9580152348
 30
0.0
  0
SPLINE
  5
323
100
AcDbEntity
  8
DEFAULT_2
100
AcDbSpline
 62
8
  6
HIDDEN
 70
0
 71
3
 72
16
 73
12
 74
0
 42
0.0000001
 43
0.0000001
 44
0.0000000001
 40
0.0
 40
0.0
 40
0.0
 40
0.0
 40
0.0445855507
 40
0.0951803302
 40
0.2118973508
 40
0.3445408538
 40
0.4864164975
 40
0.6303872045
 40
0.7687477403
 40
0.8941121112
 40
1.0
 40
1.0
 40
1.0
 40
1.0
 10
31.2987661554
 20
38.4142399269
 30
0.0
 10
31.3157879632
 20
38.4491333352
 30
0.0
 10
31.3491302153
 20
38.5250857346
 30
0.0
 10
31.4146175188
 20
38.6976340493
 30
0.0
 10
31.4938147406
 20
38.9466944212
 30
0.0
 10
31.5853063649
 20
39.2748686325
 30
0.0
 10
31.6769094386
 20
39.6275904386
 30
0.0
 10
31.7682149776
 20
39.9855069109
 30
0.0
 10
31.8591423188
 20
40.3287079299
 30
0.0
 10
31.9495448838
 20
40.6376081941
 30
0.0
 10
32.0154094949
 20
40.8281582431
 30
0.0
 10
32.0503180598
 20
40.913498806
 30
0.0
  0
SPLINE
  5
324
100
AcDbEntity
  8
DEFAULT_2
100
AcDbSpline
 62
8
  6
HIDDEN
 70
0
 71
3
 72
9
 73
5
 74
0
 42
0.0000001
 43
0.0000001
 44
0.0000000001
 40
0.0
 40
0.0
 40
0.0
 40
0.0
 40
0.2402297078
 40
1.0
 40
1.0
 40
1.0
 40
1.0
 10
29.7939527814
 20
39.7884493713
 30
0.0
 10
29.7688108664
 20
39.7777118568
 30
0.0
 10
29.6657576647
 20
39.7291945913
 30
0.0
 10
29.5681720779
 20
39.6703117293
 30
0.0
 10
29.4929265115
 20
39.6277192461
 30
0.0
  0
SPLINE
  5
325
100
AcDbEntity
  8
DEFAULT_2
100
AcDbSpline
 62
8
  6
HIDDEN
 70
0
 71
3
 72
18
 73
14
 74
0
 42
0.0000001
 43
0.0000001
 44
0.0000000001
 40
0.0
 40
0.0
 40
0.0
 40
0.0
 40
0.1815441283
 40
0.323374815
 40
0.3804655335
 40
0.4294066539
 40
0.509197513
 40
0.5466424691
 40
0.5869972438
 40
0.6333213452
 40
0.687676118
 40
0.8241274082
 40
1.0
 40
1.0
 40
1.0
 40
1.0
 10
48.3360567462
 20
37.4436121415
 30
0.0
 10
48.3489299403
 20
37.4112074476
 30
0.0
 10
48.3738760778
 20
37.3542617568
 30
0.0
 10
48.4109859993
 20
37.2908799947
 30
0.0
 10
48.441849962
 20
37.2543836103
 30
0.0
 10
48.4685917083
 20
37.2307860009
 30
0.0
 10
48.4995570421
 20
37.2171214208
 30
0.0
 10
48.5302440315
 20
37.2202011748
 30
0.0
 10
48.5523933426
 20
37.2297953856
 30
0.0
 10
48.5740819992
 20
37.2463458064
 30
0.0
 10
48.6049704611
 20
37.2800316878
 30
0.0
 10
48.642072794
 20
37.340453959
 30
0.0
 10
48.6668857803
 20
37.3951129772
 30
0.0
 10
48.6797496394
 20
37.4263464138
 30
0.0
  0
SPLINE
  5
326
100
AcDbEntity
  8
DEFAULT_2
100
AcDbSpline
 62
8
  6
HIDDEN
 70
0
 71
3
 72
19
 73
15
 74
0
 42
0.0000001
 43
0.0000001
 44
0.0000000001
 40
0.0
 40
0.0
 40
0.0
 40
0.0
 40
0.1818467796
 40
0.324526613
 40
0.3819019832
 40
0.4309001214
 40
0.4730760843
 40
0.5110987869
 40
0.5485430293
 40
0.589043942
 40
0.6354439178
 40
0.6895966098
 40
0.8250171291
 40
1.0
 40
1.0
 40
1.0
 40
1.0
 10
47.0862388843
 20
41.6967261293
 30
0.0
 10
47.0991498203
 20
41.7292246963
 30
0.0
 10
47.1241239859
 20
41.7864641887
 30
0.0
 10
47.1611542557
 20
41.8503452782
 30
0.0
 10
47.1918844745
 20
41.8872464063
 30
0.0
 10
47.213408002
 20
41.9062589361
 30
0.0
 10
47.2353463355
 20
41.9184720048
 30
0.0
 10
47.257814999
 20
41.9234213434
 30
0.0
 10
47.2803567613
 20
41.9207626603
 30
0.0
 10
47.3024305144
 20
41.9108395709
 30
0.0
 10
47.324070042
 20
41.8941966867
 30
0.0
 10
47.3549434446
 20
41.8607321045
 30
0.0
 10
47.3921607407
 20
41.8007600743
 30
0.0
 10
47.4169259805
 20
41.7463914471
 30
0.0
 10
47.4297419217
 20
41.7152782867
 30
0.0
  0
SPLINE
  5
327
100
AcDbEntity
  8
DEFAULT_2
100
AcDbSpline
 62
8
  6
HIDDEN
 70
0
 71
3
 72
18
 73
14
 74
0
 42
0.0000001
 43
0.0000001
 44
0.0000000001
 40
0.0
 40
0.0
 40
0.0
 40
0.0
 40
0.18223235
 40
0.3244644318
 40
0.3813983301
 40
0.4300739734
 40
0.5095231784
 40
0.5470431369
 40
0.5875341498
 40
0.6338783205
 40
0.6880329974
 40
0.8240556544
 40
1.0
 40
1.0
 40
1.0
 40
1.0
 10
45.8366798717
 20
37.4423699886
 30
0.0
 10
45.8495506948
 20
37.4099416329
 30
0.0
 10
45.8744083684
 20
37.3529588473
 30
0.0
 10
45.9113184563
 20
37.2894974465
 30
0.0
 10
45.9421847726
 20
37.2532004913
 30
0.0
 10
45.9689011638
 20
37.2299408275
 30
0.0
 10
45.9999065518
 20
37.2168504372
 30
0.0
 10
46.0304072721
 20
37.2203432191
 30
0.0
 10
46.0524526477
 20
37.2300505222
 30
0.0
 10
46.0740770246
 20
37.2465106259
 30
0.0
 10
46.1049640677
 20
37.2798400566
 30
0.0
 10
46.1420313315
 20
37.339918149
 30
0.0
 10
46.1667130849
 20
37.3943519675
 30
0.0
 10
46.179534031
 20
37.4255020091
 30
0.0
  0
SPLINE
  5
328
100
AcDbEntity
  8
DEFAULT_2
100
AcDbSpline
 62
8
  6
HIDDEN
 70
0
 71
3
 72
18
 73
14
 74
0
 42
0.0000001
 43
0.0000001
 44
0.0000000001
 40
0.0
 40
0.0
 40
0.0
 40
0.0
 40
0.1819945304
 40
0.3236787692
 40
0.3805015191
 40
0.4291488808
 40
0.5086087885
 40
0.5461229834
 40
0.5866358126
 40
0.6330875998
 40
0.687490998
 40
0.8240344604
 40
1.0
 40
1.0
 40
1.0
 40
1.0
 10
44.5869124462
 20
41.6991642852
 30
0.0
 10
44.5997643878
 20
41.7315508888
 30
0.0
 10
44.6245577249
 20
41.7884060714
 30
0.0
 10
44.6615779119
 20
41.8516027268
 30
0.0
 10
44.6924172222
 20
41.8877461936
 30
0.0
 10
44.7191274969
 20
41.9109686696
 30
0.0
 10
44.7501076825
 20
41.9240973933
 30
0.0
 10
44.7806203899
 20
41.9206163788
 30
0.0
 10
44.8026743358
 20
41.9108587987
 30
0.0
 10
44.8243020615
 20
41.8942779908
 30
0.0
 10
44.8551346634
 20
41.8606696693
 30
0.0
 10
44.8921323488
 20
41.8003922053
 30
0.0
 10
44.9168862088
 20
41.745878632
 30
0.0
 10
44.9297177331
 20
41.71472881
 30
0.0
  0
SPLINE
  5
329
100
AcDbEntity
  8
DEFAULT_2
100
AcDbSpline
 62
8
  6
HIDDEN
 70
0
 71
3
 72
18
 73
14
 74
0
 42
0.0000001
 43
0.0000001
 44
0.0000000001
 40
0.0
 40
0.0
 40
0.0
 40
0.0
 40
0.1820544062
 40
0.3238657418
 40
0.3807286055
 40
0.4294058504
 40
0.5089000888
 40
0.5464091724
 40
0.5868931961
 40
0.6332865999
 40
0.6876010078
 40
0.8240350153
 40
1.0
 40
1.0
 40
1.0
 40
1.0
 10
43.3367759215
 20
37.4419843866
 30
0.0
 10
43.3496344066
 20
37.4095846705
 30
0.0
 10
43.3744412138
 20
37.3526917889
 30
0.0
 10
43.4114464271
 20
37.2894288534
 30
0.0
 10
43.4422925812
 20
37.2532357857
 30
0.0
 10
43.4690050292
 20
37.229980662
 30
0.0
 10
43.4999808591
 20
37.2168146424
 30
0.0
 10
43.5305009913
 20
37.2202448255
 30
0.0
 10
43.5525583563
 20
37.2299559099
 30
0.0
 10
43.574190069
 20
37.2464796052
 30
0.0
 10
43.6050500572
 20
37.280003048
 30
0.0
 10
43.6420471731
 20
37.3402515072
 30
0.0
 10
43.6667919505
 20
37.3947501707
 30
0.0
 10
43.6796230851
 20
37.4259033188
 30
0.0
  0
SPLINE
  5
32A
100
AcDbEntity
  8
DEFAULT_2
100
AcDbSpline
 62
8
  6
HIDDEN
 70
0
 71
3
 72
23
 73
19
 74
0
 42
0.0000001
 43
0.0000001
 44
0.0000000001
 40
0.0
 40
0.0
 40
0.0
 40
0.0
 40
0.0538580674
 40
0.116274228
 40
0.1861655069
 40
0.2618973458
 40
0.4238068253
 40
0.5872772719
 40
0.6647978742
 40
0.7370269577
 40
0.8024752942
 40
0.8598360087
 40
0.9079758506
 40
0.9464907957
 40
0.9623747866
 40
0.9762819183
 40
0.988615406
 40
1.0
 40
1.0
 40
1.0
 40
1.0
 10
47.8642550669
 20
40.7479636568
 30
0.0
 10
47.8873121437
 20
40.7027542718
 30
0.0
 10
47.9322085803
 20
40.6026690738
 30
0.0
 10
47.9945257259
 20
40.4386401457
 30
0.0
 10
48.056857914
 20
40.2527426303
 30
0.0
 10
48.1421097251
 20
39.9757666276
 30
0.0
 10
48.2450479325
 20
39.6120720956
 30
0.0
 10
48.3474972243
 20
39.2465046399
 30
0.0
 10
48.4323387209
 20
38.9638054352
 30
0.0
 10
48.494849977
 20
38.7708760333
 30
0.0
 10
48.5572007782
 20
38.5979552916
 30
0.0
 10
48.6192371364
 20
38.4491638388
 30
0.0
 10
48.6810913747
 20
38.3282317377
 30
0.0
 10
48.7358762223
 20
38.2479356298
 30
0.0
 10
48.7809557293
 20
38.2017473703
 30
0.0
 10
48.8128246319
 20
38.1777442015
 30
0.0
 10
48.8451012412
 20
38.1623782987
 30
0.0
 10
48.8674082878
 20
38.1582247633
 30
0.0
 10
48.8781289588
 20
38.1578417094
 30
0.0
  0
SPLINE
  5
32B
100
AcDbEntity
  8
DEFAULT_2
100
AcDbSpline
 62
8
  6
HIDDEN
 70
0
 71
3
 72
22
 73
18
 74
0
 42
0.0000001
 43
0.0000001
 44
0.0000000001
 40
0.0
 40
0.0
 40
0.0
 40
0.0
 40
0.0538411941
 40
0.1163561501
 40
0.2618218832
 40
0.4237221789
 40
0.5870466845
 40
0.6644855763
 40
0.7367786937
 40
0.8022608164
 40
0.8594656956
 40
0.907611314
 40
0.9463792145
 40
0.9623647973
 40
0.9763076104
 40
0.9886276385
 40
1.0
 40
1.0
 40
1.0
 40
1.0
 10
46.6146515332
 20
38.3935312865
 30
0.0
 10
46.6377158062
 20
38.4386910603
 30
0.0
 10
46.6826015771
 20
38.538812285
 30
0.0
 10
46.769831105
 20
38.7695278081
 30
0.0
 10
46.8742407194
 20
39.1020871621
 30
0.0
 10
46.9949668438
 20
39.5286013335
 30
0.0
 10
47.0973039999
 20
39.8937901364
 30
0.0
 10
47.182147297
 20
40.1761737252
 30
0.0
 10
47.2445156409
 20
40.3690582271
 30
0.0
 10
47.3066651693
 20
40.5418997539
 30
0.0
 10
47.3688296854
 20
40.6904414893
 30
0.0
 10
47.4307781297
 20
40.8113381214
 30
0.0
 10
47.4852693073
 20
40.8921539298
 30
0.0
 10
47.5302277344
 20
40.9389272259
 30
0.0
 10
47.5620549754
 20
40.9631683483
 30
0.0
 10
47.5943638599
 20
40.9784856683
 30
0.0
 10
47.6166452645
 20
40.9825500697
 30
0.0
 10
47.6273493515
 20
40.9829264314
 30
0.0
  0
SPLINE
  5
32C
100
AcDbEntity
  8
DEFAULT_2
100
AcDbSpline
 62
8
  6
HIDDEN
 70
0
 71
3
 72
22
 73
18
 74
0
 42
0.0000001
 43
0.0000001
 44
0.0000000001
 40
0.0
 40
0.0
 40
0.0
 40
0.0
 40
0.0539393476
 40
0.1165103881
 40
0.2619875001
 40
0.4239437732
 40
0.5873252434
 40
0.6647764552
 40
0.737049514
 40
0.8024721227
 40
0.8597037847
 40
0.9078991261
 40
0.9465672473
 40
0.962446205
 40
0.9763198879
 40
0.9886247068
 40
1.0
 40
1.0
 40
1.0
 40
1.0
 10
45.3646893677
 20
40.7474060028
 30
0.0
 10
45.3877928031
 20
40.7021506881
 30
0.0
 10
45.4326241539
 20
40.6018194747
 30
0.0
 10
45.5199197839
 20
40.3709136033
 30
0.0
 10
45.6244342958
 20
40.0381873723
 30
0.0
 10
45.7451936571
 20
39.6114665526
 30
0.0
 10
45.8475753209
 20
39.2460861689
 30
0.0
 10
45.9324596455
 20
38.9636035091
 30
0.0
 10
45.9948405078
 20
38.7707443854
 30
0.0
 10
46.0570986055
 20
38.5979557285
 30
0.0
 10
46.1192772734
 20
38.4493665043
 30
0.0
 10
46.1811281261
 20
38.3284259468
 30
0.0
 10
46.2356125278
 20
38.2477141051
 30
0.0
 10
46.2807518423
 20
38.2014432951
 30
0.0
 10
46.3126347972
 20
38.1775732843
 30
0.0
 10
46.3449182276
 20
38.1623984051
 30
0.0
 10
46.367187523
 20
38.1583299047
 30
0.0
 10
46.3778964179
 20
38.1579489794
 30
0.0
  0
SPLINE
  5
32D
100
AcDbEntity
  8
DEFAULT_2
100
AcDbSpline
 62
8
  6
HIDDEN
 70
0
 71
3
 72
22
 73
18
 74
0
 42
0.0000001
 43
0.0000001
 44
0.0000000001
 40
0.0
 40
0.0
 40
0.0
 40
0.0
 40
0.0539103547
 40
0.11646033
 40
0.2620164808
 40
0.4239820218
 40
0.587332875
 40
0.6648198538
 40
0.7370628479
 40
0.8024114416
 40
0.8596852296
 40
0.907924773
 40
0.9465465174
 40
0.9624226193
 40
0.9763075188
 40
0.988622494
 40
1.0
 40
1.0
 40
1.0
 40
1.0
 10
44.114762979
 20
38.3936386022
 30
0.0
 10
44.1378570604
 20
38.4388647316
 30
0.0
 10
44.1827047706
 20
38.5391292833
 30
0.0
 10
44.2700360156
 20
38.7700378292
 30
0.0
 10
44.3744490274
 20
39.1028423565
 30
0.0
 10
44.4952283742
 20
39.529585851
 30
0.0
 10
44.5976711489
 20
39.8949401492
 30
0.0
 10
44.6824775672
 20
40.1774035583
 30
0.0
 10
44.7448498877
 20
40.3701867989
 30
0.0
 10
44.8072065102
 20
40.542867334
 30
0.0
 10
44.8693355411
 20
40.6914715373
 30
0.0
 10
44.9310718078
 20
40.8125145849
 30
0.0
 10
44.9856728366
 20
40.8931382479
 30
0.0
 10
45.0307991225
 20
40.9393603702
 30
0.0
 10
45.0626640503
 20
40.9632745643
 30
0.0
 10
45.0949335025
 20
40.9785241604
 30
0.0
 10
45.1172114061
 20
40.9826271499
 30
0.0
 10
45.1279217593
 20
40.9830082923
 30
0.0
  0
SPLINE
  5
32E
100
AcDbEntity
  8
DEFAULT_2
100
AcDbSpline
 62
8
  6
HIDDEN
 70
0
 71
3
 72
22
 73
18
 74
0
 42
0.0000001
 43
0.0000001
 44
0.0000000001
 40
0.0
 40
0.0
 40
0.0
 40
0.0
 40
0.0538715039
 40
0.1163877686
 40
0.2619086684
 40
0.42387247
 40
0.5872611534
 40
0.664741914
 40
0.7370260686
 40
0.8024271331
 40
0.8596964037
 40
0.9079210579
 40
0.9465481891
 40
0.9624239252
 40
0.9763073836
 40
0.9886217137
 40
1.0
 40
1.0
 40
1.0
 40
1.0
 10
42.8644714814
 20
40.7477433354
 30
0.0
 10
42.8875394917
 20
40.7025322289
 30
0.0
 10
42.9324592771
 20
40.6023508149
 30
0.0
 10
43.0197968721
 20
40.371489583
 30
0.0
 10
43.1242558598
 20
40.0386901314
 30
0.0
 10
43.2450810244
 20
39.6118543449
 30
0.0
 10
43.347508428
 20
39.2463781041
 30
0.0
 10
43.432390956
 20
38.9637969378
 30
0.0
 10
43.4947711648
 20
38.7708828018
 30
0.0
 10
43.5571045288
 20
38.5980606818
 30
0.0
 10
43.6192750221
 20
38.4493983824
 30
0.0
 10
43.6810606595
 20
38.3283634306
 30
0.0
 10
43.7356546617
 20
38.24772012
 30
0.0
 10
43.780799109
 20
38.2014897667
 30
0.0
 10
43.812676362
 20
38.177580479
 30
0.0
 10
43.8449575982
 20
38.1623399653
 30
0.0
 10
43.8672407182
 20
38.1582408404
 30
0.0
 10
43.8779541939
 20
38.1578592965
 30
0.0
  0
SPLINE
  5
32F
100
AcDbEntity
  8
DEFAULT_2
100
AcDbSpline
 62
8
  6
HIDDEN
 70
0
 71
3
 72
17
 73
13
 74
0
 42
0.0000001
 43
0.0000001
 44
0.0000000001
 40
0.0
 40
0.0
 40
0.0
 40
0.0
 40
0.026125684
 40
0.0546908078
 40
0.0876223506
 40
0.1259980327
 40
0.2205653605
 40
0.3391993761
 40
0.480456506
 40
0.6408759446
 40
0.8157073868
 40
1.0
 40
1.0
 40
1.0
 40
1.0
 10
48.1635826477
 20
38.170828371
 30
0.0
 10
48.175661393
 20
38.1708238803
 30
0.0
 10
48.2010896042
 20
38.1750030702
 30
0.0
 10
48.2377887045
 20
38.1931776659
 30
0.0
 10
48.2737268303
 20
38.2226126979
 30
0.0
 10
48.3247622211
 20
38.2801392899
 30
0.0
 10
48.3862283695
 20
38.3796478354
 30
0.0
 10
48.4560815293
 20
38.5280006018
 30
0.0
 10
48.5260091655
 20
38.7094553471
 30
0.0
 10
48.5961669842
 20
38.9183184069
 30
0.0
 10
48.666601657
 20
39.1479818898
 30
0.0
 10
48.7128633912
 20
39.3074436462
 30
0.0
 10
48.7363388414
 20
39.3893502753
 30
0.0
  0
SPLINE
  5
330
100
AcDbEntity
  8
DEFAULT_2
100
AcDbSpline
 62
8
  6
HIDDEN
 70
0
 71
3
 72
22
 73
18
 74
0
 42
0.0000001
 43
0.0000001
 44
0.0000000001
 40
0.0
 40
0.0
 40
0.0
 40
0.0
 40
0.0113781885
 40
0.0235689585
 40
0.0372084203
 40
0.0527267082
 40
0.0903251444
 40
0.137325619
 40
0.1932777265
 40
0.257265323
 40
0.3281952158
 40
0.4046096821
 40
0.5667840917
 40
0.729378852
 40
0.8780860326
 40
0.9430142389
 40
1.0
 40
1.0
 40
1.0
 40
1.0
 10
46.9128138897
 20
40.97043219
 30
0.0
 10
46.9232676411
 20
40.9704300542
 30
0.0
 10
46.9450158957
 20
40.9672865332
 30
0.0
 10
46.9767241573
 20
40.9537455123
 30
0.0
 10
47.0080322641
 20
40.9318626199
 30
0.0
 10
47.0522787577
 20
40.8891222007
 30
0.0
 10
47.1060113573
 20
40.8137102008
 30
0.0
 10
47.1666066336
 20
40.6995358108
 30
0.0
 10
47.2275543991
 20
40.558649909
 30
0.0
 10
47.288746649
 20
40.3942652197
 30
0.0
 10
47.3500061915
 20
40.2099895286
 30
0.0
 10
47.4333942228
 20
39.9381045838
 30
0.0
 10
47.5342215707
 20
39.5835497522
 30
0.0
 10
47.6531542421
 20
39.165151155
 30
0.0
 10
47.755282231
 20
38.834757051
 30
0.0
 10
47.8407619918
 20
38.6012227799
 30
0.0
 10
47.8844879371
 20
38.497999903
 30
0.0
 10
47.906879738
 20
38.4506739619
 30
0.0
  0
SPLINE
  5
331
100
AcDbEntity
  8
DEFAULT_2
100
AcDbSpline
 62
8
  6
HIDDEN
 70
0
 71
3
 72
22
 73
18
 74
0
 42
0.0000001
 43
0.0000001
 44
0.0000000001
 40
0.0
 40
0.0
 40
0.0
 40
0.0
 40
0.0113725807
 40
0.0235391286
 40
0.0371493258
 40
0.0526673706
 40
0.0903475405
 40
0.1372709694
 40
0.1930820612
 40
0.2570668139
 40
0.328025816
 40
0.4043655102
 40
0.5664893586
 40
0.729170784
 40
0.8778249806
 40
0.9429231043
 40
1.0
 40
1.0
 40
1.0
 40
1.0
 10
45.6628177991
 20
38.1706446439
 30
0.0
 10
45.6732606445
 20
38.1706467513
 30
0.0
 10
45.6949700672
 20
38.1737098208
 30
0.0
 10
45.7266816468
 20
38.187058859
 30
0.0
 10
45.7580069169
 20
38.2088068666
 30
0.0
 10
45.8022429164
 20
38.2515925047
 30
0.0
 10
45.8557197385
 20
38.3271234107
 30
0.0
 10
45.9164279487
 20
38.4409935126
 30
0.0
 10
45.9774254557
 20
38.5815568813
 30
0.0
 10
46.0384962553
 20
38.7457712513
 30
0.0
 10
46.0996525497
 20
38.9299207945
 30
0.0
 10
46.1830832481
 20
39.2015358965
 30
0.0
 10
46.2838653346
 20
39.5558560774
 30
0.0
 10
46.4025198994
 20
39.9740726069
 30
0.0
 10
46.504877679
 20
40.3043869369
 30
0.0
 10
46.5900984421
 20
40.5380670991
 30
0.0
 10
46.63375847
 20
40.6415165273
 30
0.0
 10
46.6561889032
 20
40.6888848699
 30
0.0
  0
SPLINE
  5
332
100
AcDbEntity
  8
DEFAULT_2
100
AcDbSpline
 62
8
  6
HIDDEN
 70
0
 71
3
 72
22
 73
18
 74
0
 42
0.0000001
 43
0.0000001
 44
0.0000000001
 40
0.0
 40
0.0
 40
0.0
 40
0.0
 40
0.0113711874
 40
0.0235433151
 40
0.0371820445
 40
0.0527495259
 40
0.090454491
 40
0.1373434543
 40
0.1931745562
 40
0.2572506484
 40
0.3282240666
 40
0.4045360699
 40
0.5666168585
 40
0.7292822286
 40
0.877931352
 40
0.9429877367
 40
1.0
 40
1.0
 40
1.0
 40
1.0
 10
44.4130794147
 20
40.9702246891
 30
0.0
 10
44.4235209142
 20
40.9702245902
 30
0.0
 10
44.4452360348
 20
40.967162774
 30
0.0
 10
44.4769618458
 20
40.9537555684
 30
0.0
 10
44.5082731117
 20
40.9318455924
 30
0.0
 10
44.5524026372
 20
40.8888233808
 30
0.0
 10
44.6059254511
 20
40.8133096324
 30
0.0
 10
44.6666925525
 20
40.6994482008
 30
0.0
 10
44.7276789132
 20
40.5588044521
 30
0.0
 10
44.7886548714
 20
40.3944323964
 30
0.0
 10
44.8498385792
 20
40.2102195165
 30
0.0
 10
44.9332772357
 20
39.9386622584
 30
0.0
 10
45.0340472274
 20
39.5844241426
 30
0.0
 10
45.1526844303
 20
39.1662666877
 30
0.0
 10
45.2549961682
 20
38.8360017897
 30
0.0
 10
45.3401997023
 20
38.6024229305
 30
0.0
 10
45.3839009126
 20
38.4990988426
 30
0.0
 10
45.4063086291
 20
38.4517857793
 30
0.0
  0
SPLINE
  5
333
100
AcDbEntity
  8
DEFAULT_2
100
AcDbSpline
 62
8
  6
HIDDEN
 70
0
 71
3
 72
22
 73
18
 74
0
 42
0.0000001
 43
0.0000001
 44
0.0000000001
 40
0.0
 40
0.0
 40
0.0
 40
0.0
 40
0.0113722932
 40
0.0235436886
 40
0.0371771659
 40
0.0527407891
 40
0.0904584697
 40
0.1373668588
 40
0.1931909335
 40
0.2572369096
 40
0.328201125
 40
0.4045432043
 40
0.5667221847
 40
0.7293387561
 40
0.8780377185
 40
0.9430474401
 40
1.0
 40
1.0
 40
1.0
 40
1.0
 10
43.1630514074
 20
38.170646027
 30
0.0
 10
43.1734938408
 20
38.1706462935
 30
0.0
 10
43.1952089498
 20
38.1737059422
 30
0.0
 10
43.2269345277
 20
38.1870979529
 30
0.0
 10
43.2582580077
 20
38.2089739123
 30
0.0
 10
43.3024055502
 20
38.2519848741
 30
0.0
 10
43.3559165143
 20
38.3275412738
 30
0.0
 10
43.4166725476
 20
38.4414307425
 30
0.0
 10
43.4776729444
 20
38.5820488108
 30
0.0
 10
43.5386785406
 20
38.7463630917
 30
0.0
 10
43.5998721454
 20
38.9305626339
 30
0.0
 10
43.6833160999
 20
39.2022305697
 30
0.0
 10
43.7840021135
 20
39.5565656649
 30
0.0
 10
43.9028024355
 20
39.9747670699
 30
0.0
 10
44.0050040763
 20
40.305018427
 30
0.0
 10
44.0902424705
 20
40.5385316815
 30
0.0
 10
44.1340038244
 20
40.6417211395
 30
0.0
 10
44.1563838418
 20
40.6889862094
 30
0.0
  0
SPLINE
  5
334
100
AcDbEntity
  8
DEFAULT_2
100
AcDbSpline
 62
8
  6
HIDDEN
 70
0
 71
3
 72
22
 73
18
 74
0
 42
0.0000001
 43
0.0000001
 44
0.0000000001
 40
0.0
 40
0.0
 40
0.0
 40
0.0
 40
0.0113764052
 40
0.0235636042
 40
0.0371984275
 40
0.0527132673
 40
0.0903162081
 40
0.1372663251
 40
0.1931484714
 40
0.2571514204
 40
0.3281155054
 40
0.4044644287
 40
0.5666014765
 40
0.7292733587
 40
0.8779537158
 40
0.9430113336
 40
1.0
 40
1.0
 40
1.0
 40
1.0
 10
41.9128561209
 20
40.970418532
 30
0.0
 10
41.9233035196
 20
40.9704168115
 30
0.0
 10
41.9450371641
 20
40.9672820917
 30
0.0
 10
41.9767290297
 20
40.9537654966
 30
0.0
 10
42.0080214929
 20
40.9319085137
 30
0.0
 10
42.052251962
 20
40.8891942394
 30
0.0
 10
42.1058941277
 20
40.8138255394
 30
0.0
 10
42.1665022856
 20
40.6998511079
 30
0.0
 10
42.2274687807
 20
40.5591493693
 30
0.0
 10
42.288578032
 20
40.3948371221
 30
0.0
 10
42.3497463484
 20
40.2106400017
 30
0.0
 10
42.4331841606
 20
39.9389708711
 30
0.0
 10
42.5339667744
 20
39.5846006259
 30
0.0
 10
42.6526719364
 20
39.1663243208
 30
0.0
 10
42.7549971149
 20
38.835989564
 30
0.0
 10
42.8401986385
 20
38.6023708053
 30
0.0
 10
42.8839527129
 20
38.4990793327
 30
0.0
 10
42.9063500236
 20
38.4517791741
 30
0.0
  0
SPLINE
  5
335
100
AcDbEntity
  8
DEFAULT_2
100
AcDbSpline
 62
8
  6
HIDDEN
 70
0
 71
3
 72
11
 73
7
 74
0
 42
0.0000001
 43
0.0000001
 44
0.0000000001
 40
0.0
 40
0.0
 40
0.0
 40
0.0
 40
0.2805091684
 40
0.5498397895
 40
0.7927588903
 40
1.0
 40
1.0
 40
1.0
 40
1.0
 10
29.6900464299
 20
39.3992451264
 30
0.0
 10
29.7281714175
 20
39.460092505
 30
0.0
 10
29.8017610484
 20
39.5800585381
 30
0.0
 10
29.9116822548
 20
39.7507339333
 30
0.0
 10
30.0210218386
 20
39.8990887727
 30
0.0
 10
30.1005408771
 20
39.9834338507
 30
0.0
 10
30.1411589843
 20
40.0175575389
 30
0.0
  0
SPLINE
  5
336
100
AcDbEntity
  8
DEFAULT_2
100
AcDbSpline
 62
8
  6
HIDDEN
 70
0
 71
3
 72
18
 73
14
 74
0
 42
0.0000001
 43
0.0000001
 44
0.0000000001
 40
0.0
 40
0.0
 40
0.0
 40
0.0
 40
0.187170847
 40
0.3374520393
 40
0.3991424136
 40
0.4526398985
 40
0.5407076959
 40
0.5807655895
 40
0.6220629632
 40
0.6674380334
 40
0.7188381596
 40
0.843523361
 40
1.0
 40
1.0
 40
1.0
 40
1.0
 10
29.5514957734
 20
40.3787328957
 30
0.0
 10
29.5722506791
 20
40.4272095651
 30
0.0
 10
29.6125460586
 20
40.5134158634
 30
0.0
 10
29.6711673476
 20
40.6099431151
 30
0.0
 10
29.7196541601
 20
40.6672205519
 30
0.0
 10
29.7621762952
 20
40.7055366611
 30
0.0
 10
29.8098554458
 20
40.7297468
 30
0.0
 10
29.8582730633
 20
40.7310008501
 30
0.0
 10
29.893170312
 20
40.7216054446
 30
0.0
 10
29.9273896609
 20
40.702478073
 30
0.0
 10
29.9754605461
 20
40.6622998995
 30
0.0
 10
30.0336247288
 20
40.5878164336
 30
0.0
 10
30.0728202815
 20
40.5188721102
 30
0.0
 10
30.0930435024
 20
40.4796991108
 30
0.0
  0
SPLINE
  5
337
100
AcDbEntity
  8
DEFAULT_2
100
AcDbSpline
 62
8
  6
HIDDEN
 70
0
 71
3
 72
11
 73
7
 74
0
 42
0.0000001
 43
0.0000001
 44
0.0000000001
 40
0.0
 40
0.0
 40
0.0
 40
0.0
 40
0.2847239691
 40
0.553068308
 40
0.7943194182
 40
1.0
 40
1.0
 40
1.0
 40
1.0
 10
35.0732343088
 20
39.4464173517
 30
0.0
 10
35.1006030276
 20
39.3504967262
 30
0.0
 10
35.1542129912
 20
39.1643021023
 30
0.0
 10
35.2356592467
 20
38.8981699799
 30
0.0
 10
35.3169611412
 20
38.6611023493
 30
0.0
 10
35.3759757379
 20
38.5158484884
 30
0.0
 10
35.4067854614
 20
38.4507102867
 30
0.0
  0
SPLINE
  5
338
100
AcDbEntity
  8
DEFAULT_2
100
AcDbSpline
 62
8
  6
HIDDEN
 70
0
 71
3
 72
19
 73
15
 74
0
 42
0.0000001
 43
0.0000001
 44
0.0000000001
 40
0.0
 40
0.0
 40
0.0
 40
0.0
 40
0.1779993495
 40
0.3508937414
 40
0.5122386836
 40
0.6564681838
 40
0.7206070051
 40
0.7786943004
 40
0.8304511115
 40
0.8757528719
 40
0.9146427238
 40
0.9474771121
 40
0.9752660109
 40
1.0
 40
1.0
 40
1.0
 40
1.0
 10
35.7384344011
 20
39.6347276385
 30
0.0
 10
35.7650064748
 20
39.5404807489
 30
0.0
 10
35.8171726873
 20
39.3546302937
 30
0.0
 10
35.895462862
 20
39.0839195559
 30
0.0
 10
35.9736968386
 20
38.832578862
 30
0.0
 10
36.0409222812
 20
38.6405239215
 30
0.0
 10
36.0958978115
 20
38.5046068774
 30
0.0
 10
36.1355203935
 20
38.4174414409
 30
0.0
 10
36.175106247
 20
38.3417641028
 30
0.0
 10
36.2146599322
 20
38.2781810067
 30
0.0
 10
36.2542421068
 20
38.2272097223
 30
0.0
 10
36.2941531124
 20
38.1892931996
 30
0.0
 10
36.3349884581
 20
38.16505314
 30
0.0
 10
36.363827794
 20
38.1585842119
 30
0.0
 10
36.3774260455
 20
38.1581052957
 30
0.0
  0
SPLINE
  5
339
100
AcDbEntity
  8
DEFAULT_2
100
AcDbSpline
 62
8
  6
HIDDEN
 70
0
 71
3
 72
18
 73
14
 74
0
 42
0.0000001
 43
0.0000001
 44
0.0000000001
 40
0.0
 40
0.0
 40
0.0
 40
0.0
 40
0.181403862
 40
0.3232773194
 40
0.3803666854
 40
0.4292557522
 40
0.5088084369
 40
0.5462335799
 40
0.5867702717
 40
0.6334140133
 40
0.6880053538
 40
0.8245046144
 40
1.0
 40
1.0
 40
1.0
 40
1.0
 10
40.8360848486
 20
37.4435822942
 30
0.0
 10
40.8489837266
 20
37.4111136577
 30
0.0
 10
40.8739733811
 20
37.3540230106
 30
0.0
 10
40.9110905902
 20
37.2904379553
 30
0.0
 10
40.941985697
 20
37.2537955329
 30
0.0
 10
40.9687260708
 20
37.2301406032
 30
0.0
 10
40.999804972
 20
37.2165090146
 30
0.0
 10
41.0305462478
 20
37.2199620882
 30
0.0
 10
41.0526835871
 20
37.2299794181
 30
0.0
 10
41.074337576
 20
37.2469090397
 30
0.0
 10
41.1052241286
 20
37.2809100489
 30
0.0
 10
41.1423931975
 20
37.3414806526
 30
0.0
 10
41.1672731741
 20
37.3962247348
 30
0.0
 10
41.1801553146
 20
37.4274725704
 30
0.0
  0
SPLINE
  5
33A
100
AcDbEntity
  8
DEFAULT_2
100
AcDbSpline
 62
8
  6
HIDDEN
 70
0
 71
3
 72
13
 73
9
 74
0
 42
0.0000001
 43
0.0000001
 44
0.0000000001
 40
0.0
 40
0.0
 40
0.0
 40
0.0
 40
0.0806245384
 40
0.1612815848
 40
0.251332695
 40
0.3574763919
 40
0.6317842415
 40
1.0
 40
1.0
 40
1.0
 40
1.0
 10
42.2373866212
 20
41.9179905046
 30
0.0
 10
42.2450483425
 20
41.9207381345
 30
0.0
 10
42.2614515627
 20
41.9238378072
 30
0.0
 10
42.2868779076
 20
41.9189189256
 30
0.0
 10
42.3115359266
 20
41.9050150747
 30
0.0
 10
42.3466534573
 20
41.8726229502
 30
0.0
 10
42.3884823127
 20
41.8086866228
 30
0.0
 10
42.4155497099
 20
41.7497064125
 30
0.0
 10
42.4297057861
 20
41.7153338874
 30
0.0
  0
SPLINE
  5
33B
100
AcDbEntity
  8
DEFAULT_2
100
AcDbSpline
 62
8
  6
HIDDEN
 70
0
 71
3
 72
19
 73
15
 74
0
 42
0.0000001
 43
0.0000001
 44
0.0000000001
 40
0.0
 40
0.0
 40
0.0
 40
0.0
 40
0.1820239408
 40
0.3245134363
 40
0.38169076
 40
0.4304629547
 40
0.4724968454
 40
0.5105104045
 40
0.5480316985
 40
0.5886385729
 40
0.635134927
 40
0.689361691
 40
0.8248853321
 40
1.0
 40
1.0
 40
1.0
 40
1.0
 10
39.5862582311
 20
41.6974665097
 30
0.0
 10
39.5991655156
 20
41.7299730128
 30
0.0
 10
39.6241198637
 20
41.7871637482
 30
0.0
 10
39.6611823676
 20
41.850922713
 30
0.0
 10
39.6919537972
 20
41.8875914057
 30
0.0
 10
39.7135180151
 20
41.9063670205
 30
0.0
 10
39.7354946326
 20
41.9183194665
 30
0.0
 10
39.7579668374
 20
41.9230697749
 30
0.0
 10
39.780501412
 20
41.9202820395
 30
0.0
 10
39.8025769285
 20
41.9102917072
 30
0.0
 10
39.8242290263
 20
41.893616718
 30
0.0
 10
39.8551188648
 20
41.8601465609
 30
0.0
 10
39.8923717137
 20
41.8001938439
 30
0.0
 10
39.9171534031
 20
41.74583424
 30
0.0
 10
39.9299740322
 20
41.7147247755
 30
0.0
  0
SPLINE
  5
33C
100
AcDbEntity
  8
DEFAULT_2
100
AcDbSpline
 62
8
  6
HIDDEN
 70
0
 71
3
 72
19
 73
15
 74
0
 42
0.0000001
 43
0.0000001
 44
0.0000000001
 40
0.0
 40
0.0
 40
0.0
 40
0.0
 40
0.1821153246
 40
0.3245028313
 40
0.3815050037
 40
0.4300575745
 40
0.4719486236
 40
0.5099181485
 40
0.5474862498
 40
0.5881983623
 40
0.6348208832
 40
0.6891678648
 40
0.8248594169
 40
1.0
 40
1.0
 40
1.0
 40
1.0
 10
38.3364999611
 20
37.4429148326
 30
0.0
 10
38.3494109292
 20
37.4103944084
 30
0.0
 10
38.3743537903
 20
37.3532093913
 30
0.0
 10
38.411405731
 20
37.289485138
 30
0.0
 10
38.4422088381
 20
37.2529653801
 30
0.0
 10
38.4638113557
 20
37.234390069
 30
0.0
 10
38.4858072217
 20
37.2226397758
 30
0.0
 10
38.5082894948
 20
37.218083318
 30
0.0
 10
38.5308174827
 20
37.2210377295
 30
0.0
 10
38.5528856691
 20
37.2311569755
 30
0.0
 10
38.5745384319
 20
37.2479333798
 30
0.0
 10
38.6054253677
 20
37.2815060497
 30
0.0
 10
38.6426860309
 20
37.3415110771
 30
0.0
 10
38.667491826
 20
37.3958949007
 30
0.0
 10
38.6803218623
 20
37.4270024805
 30
0.0
  0
SPLINE
  5
33D
100
AcDbEntity
  8
DEFAULT_2
100
AcDbSpline
 62
8
  6
HIDDEN
 70
0
 71
3
 72
18
 73
14
 74
0
 42
0.0000001
 43
0.0000001
 44
0.0000000001
 40
0.0
 40
0.0
 40
0.0
 40
0.0
 40
0.1822682962
 40
0.3246222293
 40
0.3816041932
 40
0.4302967373
 40
0.5097586505
 40
0.547300252
 40
0.5878158593
 40
0.634168934
 40
0.6882967521
 40
0.8241317633
 40
1.0
 40
1.0
 40
1.0
 40
1.0
 10
37.086499525
 20
41.6982028548
 30
0.0
 10
37.0993801251
 20
41.7306466704
 30
0.0
 10
37.1242757548
 20
41.7876670022
 30
0.0
 10
37.1611989061
 20
41.8511912549
 30
0.0
 10
37.1920827342
 20
41.8875407185
 30
0.0
 10
37.2188224403
 20
41.9108162704
 30
0.0
 10
37.2498649283
 20
41.9238822082
 30
0.0
 10
37.2803815452
 20
41.9203548878
 30
0.0
 10
37.3024393503
 20
41.9106348402
 30
0.0
 10
37.3240782836
 20
41.8941792358
 30
0.0
 10
37.3549804815
 20
41.8608997372
 30
0.0
 10
37.3921241299
 20
41.8009078069
 30
0.0
 10
37.4168027947
 20
41.7465031767
 30
0.0
 10
37.4296268737
 20
41.7153586063
 30
0.0
  0
SPLINE
  5
33E
100
AcDbEntity
  8
DEFAULT_2
100
AcDbSpline
 62
8
  6
HIDDEN
 70
0
 71
3
 72
19
 73
15
 74
0
 42
0.0000001
 43
0.0000001
 44
0.0000000001
 40
0.0
 40
0.0
 40
0.0
 40
0.0
 40
0.1820331477
 40
0.324530439
 40
0.3817284632
 40
0.4305363265
 40
0.4726124287
 40
0.5106497884
 40
0.54815736
 40
0.5887138121
 40
0.635140057
 40
0.6892981313
 40
0.824762194
 40
1.0
 40
1.0
 40
1.0
 40
1.0
 10
35.8362000996
 20
37.4434385782
 30
0.0
 10
35.8491028478
 20
37.4109384224
 30
0.0
 10
35.8740514929
 20
37.3537591853
 30
0.0
 10
35.911111468
 20
37.290014174
 30
0.0
 10
35.9418741717
 20
37.2533393649
 30
0.0
 10
35.9634329624
 20
37.2345422224
 30
0.0
 10
35.9853967956
 20
37.2225448826
 30
0.0
 10
36.0078557733
 20
37.2177243388
 30
0.0
 10
36.0303866728
 20
37.2204283007
 30
0.0
 10
36.0524644078
 20
37.2303393722
 30
0.0
 10
36.0741166824
 20
37.2469449883
 30
0.0
 10
36.1050117365
 20
37.2803437382
 30
0.0
 10
36.142267135
 20
37.3402780626
 30
0.0
 10
36.1670126794
 20
37.3946494165
 30
0.0
 10
36.1798332266
 20
37.4257747777
 30
0.0
  0
SPLINE
  5
33F
100
AcDbEntity
  8
DEFAULT_2
100
AcDbSpline
 62
8
  6
HIDDEN
 70
0
 71
3
 72
19
 73
15
 74
0
 42
0.0000001
 43
0.0000001
 44
0.0000000001
 40
0.0
 40
0.0
 40
0.0
 40
0.0
 40
0.0517624387
 40
0.1113680624
 40
0.2496349183
 40
0.4043927979
 40
0.5627543619
 40
0.7117756359
 40
0.7790095691
 40
0.8394725732
 40
0.8921024981
 40
0.9363903156
 40
0.9721651765
 40
1.0
 40
1.0
 40
1.0
 40
1.0
 10
41.6146180151
 20
38.3932121452
 30
0.0
 10
41.6362926412
 20
38.4357191406
 30
0.0
 10
41.6784623694
 20
38.5294428109
 30
0.0
 10
41.7609095001
 20
38.74433715
 30
0.0
 10
41.8598763115
 20
39.0541622441
 30
0.0
 10
41.9741897361
 20
39.4542165537
 30
0.0
 10
42.0888350313
 20
39.8644894024
 30
0.0
 10
42.1870492755
 20
40.1956192701
 30
0.0
 10
42.2683057438
 20
40.4374421524
 30
0.0
 10
42.327064662
 20
40.5930012604
 30
0.0
 10
42.3857833108
 20
40.7257471774
 30
0.0
 10
42.4443875614
 20
40.8334145319
 30
0.0
 10
42.5026915124
 20
40.9142481084
 30
0.0
 10
42.5474781515
 20
40.9539357643
 30
0.0
 10
42.5699866673
 20
40.9662521061
 30
0.0
  0
SPLINE
  5
340
100
AcDbEntity
  8
DEFAULT_2
100
AcDbSpline
 62
8
  6
HIDDEN
 70
0
 71
3
 72
23
 73
19
 74
0
 42
0.0000001
 43
0.0000001
 44
0.0000000001
 40
0.0
 40
0.0
 40
0.0
 40
0.0
 40
0.0538339352
 40
0.1162111733
 40
0.1860517166
 40
0.2617286328
 40
0.4235101576
 40
0.5869006217
 40
0.664382632
 40
0.7366007506
 40
0.8020872408
 40
0.8595059562
 40
0.9077163563
 40
0.9463701869
 40
0.9623190369
 40
0.9762703403
 40
0.988620367
 40
1.0
 40
1.0
 40
1.0
 40
1.0
 10
40.3642235002
 20
40.7481134539
 30
0.0
 10
40.3872630988
 20
40.7029309891
 30
0.0
 10
40.4321151391
 20
40.6029129007
 30
0.0
 10
40.4943867821
 20
40.4390157984
 30
0.0
 10
40.5566721867
 20
40.2532835924
 30
0.0
 10
40.6418493617
 20
39.9765698848
 30
0.0
 10
40.7447361016
 20
39.6131893395
 30
0.0
 10
40.8470732258
 20
39.2479028923
 30
0.0
 10
40.9318609085
 20
38.9653707843
 30
0.0
 10
40.9943357113
 20
38.7724796349
 30
0.0
 10
41.0566284994
 20
38.5994896935
 30
0.0
 10
41.1186006029
 20
38.4505315601
 30
0.0
 10
41.1804804242
 20
38.3293608684
 30
0.0
 10
41.235160488
 20
38.2487193015
 30
0.0
 10
41.2801740408
 20
38.2021602324
 30
0.0
 10
41.3120015603
 20
38.177919172
 30
0.0
 10
41.3442493949
 20
38.1623738195
 30
0.0
 10
41.3665680965
 20
38.1581879831
 30
0.0
 10
41.3772825569
 20
38.1578165576
 30
0.0
  0
SPLINE
  5
341
100
AcDbEntity
  8
DEFAULT_2
100
AcDbSpline
 62
8
  6
HIDDEN
 70
0
 71
3
 72
23
 73
19
 74
0
 42
0.0000001
 43
0.0000001
 44
0.0000000001
 40
0.0
 40
0.0
 40
0.0
 40
0.0
 40
0.0538620895
 40
0.1163222905
 40
0.1861583222
 40
0.2617785018
 40
0.4236093229
 40
0.5869732541
 40
0.6643885272
 40
0.736660369
 40
0.8022015345
 40
0.8595349137
 40
0.9077310501
 40
0.9464717515
 40
0.9624213683
 40
0.9763258469
 40
0.9886297748
 40
1.0
 40
1.0
 40
1.0
 40
1.0
 10
39.1142948911
 20
38.3926376127
 30
0.0
 10
39.1373463842
 20
38.4378443508
 30
0.0
 10
39.1822134504
 20
38.5379739354
 30
0.0
 10
39.2443970406
 20
38.7020128506
 30
0.0
 10
39.306715052
 20
38.8877558425
 30
0.0
 10
39.3919746578
 20
39.1644363366
 30
0.0
 10
39.494752226
 20
39.5278190811
 30
0.0
 10
39.5970681235
 20
39.8930732119
 30
0.0
 10
39.6819648437
 20
40.1755365944
 30
0.0
 10
39.7443908462
 20
40.3684850903
 30
0.0
 10
39.806577826
 20
40.541539466
 30
0.0
 10
39.8686665525
 20
40.6904121208
 30
0.0
 10
39.9306233351
 20
40.8115164193
 30
0.0
 10
39.9851423526
 20
40.8923467428
 30
0.0
 10
40.0301435198
 20
40.9389844588
 30
0.0
 10
40.0620187367
 20
40.9630443409
 30
0.0
 10
40.0943309642
 20
40.9782432541
 30
0.0
 10
40.1166021325
 20
40.9822814625
 30
0.0
 10
40.1273076669
 20
40.9826575794
 30
0.0
  0
SPLINE
  5
342
100
AcDbEntity
  8
DEFAULT_2
100
AcDbSpline
 62
8
  6
HIDDEN
 70
0
 71
3
 72
22
 73
18
 74
0
 42
0.0000001
 43
0.0000001
 44
0.0000000001
 40
0.0
 40
0.0
 40
0.0
 40
0.0
 40
0.0538654358
 40
0.1163867339
 40
0.2617810995
 40
0.4236462563
 40
0.5869750377
 40
0.6644154101
 40
0.7367211627
 40
0.8022316485
 40
0.8595128985
 40
0.9077436831
 40
0.9465131414
 40
0.9624503111
 40
0.9763356439
 40
0.9886311534
 40
1.0
 40
1.0
 40
1.0
 40
1.0
 10
37.8644524704
 20
40.7478381601
 30
0.0
 10
37.8875263947
 20
40.7026521718
 30
0.0
 10
37.9323909588
 20
40.6024777717
 30
0.0
 10
38.0196143938
 20
40.3717776614
 30
0.0
 10
38.1240875053
 20
40.0393018387
 30
0.0
 10
38.2448108012
 20
39.6128417173
 30
0.0
 10
38.3471385562
 20
39.2476409658
 30
0.0
 10
38.4319967592
 20
38.9652141561
 30
0.0
 10
38.4943688768
 20
38.772268007
 30
0.0
 10
38.5565480195
 20
38.5993017709
 30
0.0
 10
38.6187061338
 20
38.4505470914
 30
0.0
 10
38.6805977754
 20
38.3294403698
 30
0.0
 10
38.7350521546
 20
38.2485281022
 30
0.0
 10
38.7800730266
 20
38.2019258102
 30
0.0
 10
38.811965505
 20
38.1779652382
 30
0.0
 10
38.8442668237
 20
38.1628322892
 30
0.0
 10
38.8665244634
 20
38.1588134648
 30
0.0
 10
38.8772263155
 20
38.1584382956
 30
0.0
  0
SPLINE
  5
343
100
AcDbEntity
  8
DEFAULT_2
100
AcDbSpline
 62
8
  6
HIDDEN
 70
0
 71
3
 72
22
 73
18
 74
0
 42
0.0000001
 43
0.0000001
 44
0.0000000001
 40
0.0
 40
0.0
 40
0.0
 40
0.0
 40
0.0538647005
 40
0.116377753
 40
0.2618653872
 40
0.4238090145
 40
0.5871838547
 40
0.664619682
 40
0.7369166645
 40
0.8024335225
 40
0.8597170592
 40
0.9079039879
 40
0.9465706027
 40
0.9624514852
 40
0.9763222478
 40
0.9886245149
 40
1.0
 40
1.0
 40
1.0
 40
1.0
 10
36.614320808
 20
38.3927535546
 30
0.0
 10
36.6373931789
 20
38.4379602491
 30
0.0
 10
36.6823149554
 20
38.5381414176
 30
0.0
 10
36.7696450467
 20
38.768984724
 30
0.0
 10
36.8741314115
 20
39.1017513731
 30
0.0
 10
36.994963928
 20
39.5285600792
 30
0.0
 10
37.0973575633
 20
39.8940033889
 30
0.0
 10
37.1822970347
 20
40.1765498906
 30
0.0
 10
37.2447272061
 20
40.3695480623
 30
0.0
 10
37.3069472775
 20
40.5425691524
 30
0.0
 10
37.3691233473
 20
40.6913468881
 30
0.0
 10
37.4310406073
 20
40.8123392042
 30
0.0
 10
37.4855452743
 20
40.8930543531
 30
0.0
 10
37.530686297
 20
40.9393440748
 30
0.0
 10
37.5625863873
 20
40.9632047046
 30
0.0
 10
37.5948848274
 20
40.9783578129
 30
0.0
 10
37.6171582541
 20
40.9824152361
 30
0.0
 10
37.627870059
 20
40.9827960173
 30
0.0
  0
SPLINE
  5
344
100
AcDbEntity
  8
DEFAULT_2
100
AcDbSpline
 62
8
  6
HIDDEN
 70
0
 71
3
 72
22
 73
18
 74
0
 42
0.0000001
 43
0.0000001
 44
0.0000000001
 40
0.0
 40
0.0
 40
0.0
 40
0.0
 40
0.0113716333
 40
0.0235762062
 40
0.0372735961
 40
0.0528745838
 40
0.0905564226
 40
0.1373878684
 40
0.1932557802
 40
0.2573504308
 40
0.3282897657
 40
0.4045814082
 40
0.5667023168
 40
0.7292837466
 40
0.8778540201
 40
0.9429467276
 40
1.0
 40
1.0
 40
1.0
 40
1.0
 10
40.6634095611
 20
38.1705163638
 30
0.0
 10
40.6738488303
 20
38.1705137341
 30
0.0
 10
40.69559759
 20
38.1736166877
 30
0.0
 10
40.7272870775
 20
38.187327759
 30
0.0
 10
40.758514952
 20
38.209518164
 30
0.0
 10
40.8025967543
 20
38.252642095
 30
0.0
 10
40.8561512066
 20
38.3280395944
 30
0.0
 10
40.9169686041
 20
38.4418013576
 30
0.0
 10
40.9778294249
 20
38.5824562582
 30
0.0
 10
41.0387759706
 20
38.746810283
 30
0.0
 10
41.0999619345
 20
38.9309363489
 30
0.0
 10
41.1833794655
 20
39.2024115692
 30
0.0
 10
41.2840101473
 20
39.5565314129
 30
0.0
 10
41.4026426669
 20
39.9744595124
 30
0.0
 10
41.5049645891
 20
40.3045073925
 30
0.0
 10
41.5900888515
 20
40.5380433831
 30
0.0
 10
41.6337263896
 20
40.6414425384
 30
0.0
 10
41.6561481775
 20
40.6887759506
 30
0.0
  0
SPLINE
  5
345
100
AcDbEntity
  8
DEFAULT_2
100
AcDbSpline
 62
8
  6
HIDDEN
 70
0
 71
3
 72
22
 73
18
 74
0
 42
0.0000001
 43
0.0000001
 44
0.0000000001
 40
0.0
 40
0.0
 40
0.0
 40
0.0
 40
0.0113809555
 40
0.0235634768
 40
0.0371796114
 40
0.0526616763
 40
0.0901708742
 40
0.137115679
 40
0.1930574888
 40
0.2570555794
 40
0.3279934349
 40
0.4044219154
 40
0.5666573467
 40
0.729339209
 40
0.8780479736
 40
0.9429838268
 40
1.0
 40
1.0
 40
1.0
 40
1.0
 10
39.4123818585
 20
40.9702706873
 30
0.0
 10
39.4228396939
 20
40.9702653073
 30
0.0
 10
39.4445843251
 20
40.9671468092
 30
0.0
 10
39.4763085694
 20
40.9537045341
 30
0.0
 10
39.5076398376
 20
40.931954325
 30
0.0
 10
39.5519187426
 20
40.8894304162
 30
0.0
 10
39.6057215709
 20
40.8142478506
 30
0.0
 10
39.6663331596
 20
40.7002173987
 30
0.0
 10
39.7272936445
 20
40.5593675325
 30
0.0
 10
39.788504521
 20
40.394954041
 30
0.0
 10
39.8498017476
 20
40.2106293369
 30
0.0
 10
39.9332384422
 20
39.938635492
 30
0.0
 10
40.0341245297
 20
39.5838858737
 30
0.0
 10
40.1530616702
 20
39.1652785955
 30
0.0
 10
40.2552852107
 20
38.834766889
 30
0.0
 10
40.340822298
 20
38.6011765332
 30
0.0
 10
40.3845550164
 20
38.4979008356
 30
0.0
 10
40.4069582889
 20
38.45054086
 30
0.0
  0
SPLINE
  5
346
100
AcDbEntity
  8
DEFAULT_2
100
AcDbSpline
 62
8
  6
HIDDEN
 70
0
 71
3
 72
22
 73
18
 74
0
 42
0.0000001
 43
0.0000001
 44
0.0000000001
 40
0.0
 40
0.0
 40
0.0
 40
0.0
 40
0.0113815007
 40
0.0235594437
 40
0.0371618396
 40
0.0526188181
 40
0.0900402428
 40
0.136887996
 40
0.192780867
 40
0.2567926189
 40
0.3277703402
 40
0.4041638244
 40
0.5663536554
 40
0.7291341123
 40
0.8778058204
 40
0.9428749027
 40
1.0
 40
1.0
 40
1.0
 40
1.0
 10
38.1621342
 20
38.1707309855
 30
0.0
 10
38.1725904404
 20
38.1707383603
 30
0.0
 10
38.1943258428
 20
38.1738477242
 30
0.0
 10
38.2260436839
 20
38.1872408015
 30
0.0
 10
38.2573722595
 20
38.2089100961
 30
0.0
 10
38.3016363047
 20
38.2512625153
 30
0.0
 10
38.3554664241
 20
38.3261654643
 30
0.0
 10
38.4160962337
 20
38.4399191421
 30
0.0
 10
38.4770441294
 20
38.5806100791
 30
0.0
 10
38.5382275675
 20
38.7450017788
 30
0.0
 10
38.5994668793
 20
38.929322109
 30
0.0
 10
38.6829504099
 20
39.2012022581
 30
0.0
 10
38.7838897169
 20
39.5558771402
 30
0.0
 10
38.9026241622
 20
39.9744699198
 30
0.0
 10
39.0050808213
 20
40.3050206637
 30
0.0
 10
39.0904752208
 20
40.5388062548
 30
0.0
 10
39.1341722476
 20
40.6423167595
 30
0.0
 10
39.156600864
 20
40.689763836
 30
0.0
  0
SPLINE
  5
347
100
AcDbEntity
  8
DEFAULT_2
100
AcDbSpline
 62
8
  6
HIDDEN
 70
0
 71
3
 72
22
 73
18
 74
0
 42
0.0000001
 43
0.0000001
 44
0.0000000001
 40
0.0
 40
0.0
 40
0.0
 40
0.0
 40
0.0113739158
 40
0.0235394273
 40
0.0371409808
 40
0.0526366328
 40
0.0902708845
 40
0.1371864744
 40
0.1930293734
 40
0.2570689458
 40
0.3280505549
 40
0.4043885278
 40
0.5665082299
 40
0.7292068938
 40
0.8778348236
 40
0.9429261412
 40
1.0
 40
1.0
 40
1.0
 40
1.0
 10
36.9127000332
 20
40.9701425446
 30
0.0
 10
36.9231461233
 20
40.970139574
 30
0.0
 10
36.9448591489
 20
40.967075264
 30
0.0
 10
36.9765753278
 20
40.9537438914
 30
0.0
 10
37.0079052281
 20
40.9320449126
 30
0.0
 10
37.0521800081
 20
40.8893846619
 30
0.0
 10
37.1056974401
 20
40.8139364642
 30
0.0
 10
37.1664106251
 20
40.7000627884
 30
0.0
 10
37.2274166464
 20
40.5593908845
 30
0.0
 10
37.2884766357
 20
40.3950297536
 30
0.0
 10
37.3496632859
 20
40.2107780633
 30
0.0
 10
37.4331304082
 20
39.9391005128
 30
0.0
 10
37.5339568138
 20
39.5847081673
 30
0.0
 10
37.6526108961
 20
39.1664161805
 30
0.0
 10
37.7550327412
 20
38.8360672518
 30
0.0
 10
37.8402716227
 20
38.6023773953
 30
0.0
 10
37.8839536242
 20
38.4989239648
 30
0.0
 10
37.9063846348
 20
38.4515477719
 30
0.0
  0
SPLINE
  5
348
100
AcDbEntity
  8
DEFAULT_2
100
AcDbSpline
 62
8
  6
HIDDEN
 70
0
 71
3
 72
22
 73
18
 74
0
 42
0.0000001
 43
0.0000001
 44
0.0000000001
 40
0.0
 40
0.0
 40
0.0
 40
0.0
 40
0.0113778295
 40
0.0235554402
 40
0.0371667714
 40
0.0526481499
 40
0.0901833744
 40
0.1370977799
 40
0.1929727558
 40
0.2569842007
 40
0.3279614898
 40
0.4043224404
 40
0.5664824702
 40
0.7292028245
 40
0.8778155509
 40
0.9429007657
 40
1.0
 40
1.0
 40
1.0
 40
1.0
 10
35.6624807958
 20
38.1705534225
 30
0.0
 10
35.6729326125
 20
38.17055806
 30
0.0
 10
35.6946636282
 20
38.1736660618
 30
0.0
 10
35.7263743084
 20
38.1870845966
 30
0.0
 10
35.757692514
 20
38.2088178201
 30
0.0
 10
35.8019655523
 20
38.2513514547
 30
0.0
 10
35.855660247
 20
38.3265717789
 30
0.0
 10
35.9162842662
 20
38.4404677763
 30
0.0
 10
35.9772753185
 20
38.5811747821
 30
0.0
 10
36.0384118575
 20
38.7455469045
 30
0.0
 10
36.0996121869
 20
38.9298269219
 30
0.0
 10
36.1830946535
 20
39.2016171238
 30
0.0
 10
36.2839568613
 20
39.5561585433
 30
0.0
 10
36.4026440148
 20
39.9745780671
 30
0.0
 10
36.5051135213
 20
40.3049872919
 30
0.0
 10
36.5904059776
 20
40.5387153473
 30
0.0
 10
36.6340912763
 20
40.6422106171
 30
0.0
 10
36.6565248627
 20
40.6896232167
 30
0.0
  0
SPLINE
  5
349
100
AcDbEntity
  8
DEFAULT_2
100
AcDbSpline
 62
8
  6
HIDDEN
 70
0
 71
3
 72
20
 73
16
 74
0
 42
0.0000001
 43
0.0000001
 44
0.0000000001
 40
0.0
 40
0.0
 40
0.0
 40
0.0
 40
0.182203985
 40
0.2590207543
 40
0.3264404059
 40
0.384820904
 40
0.4348942352
 40
0.4780333032
 40
0.5166340759
 40
0.5541054017
 40
0.5941071364
 40
0.6396523809
 40
0.6927846944
 40
0.8262274497
 40
1.0
 40
1.0
 40
1.0
 40
1.0
 10
34.6015335974
 20
41.5438685272
 30
0.0
 10
34.6151304817
 20
41.5778279425
 30
0.0
 10
34.6360037846
 20
41.6255793834
 30
0.0
 10
34.6676719617
 20
41.6830097457
 30
0.0
 10
34.6900523187
 20
41.7170427144
 30
0.0
 10
34.7124654827
 20
41.7444364604
 30
0.0
 10
34.7350145359
 20
41.7650871556
 30
0.0
 10
34.7579335995
 20
41.7788089445
 30
0.0
 10
34.7814161497
 20
41.7851109902
 30
0.0
 10
34.8050854067
 20
41.7835370311
 30
0.0
 10
34.828334111
 20
41.7742846622
 30
0.0
 10
34.8510991886
 20
41.757910034
 30
0.0
 10
34.8835753971
 20
41.7242434801
 30
0.0
 10
34.9226990009
 20
41.6627367131
 30
0.0
 10
34.948542283
 20
41.6066710681
 30
0.0
 10
34.9619367919
 20
41.5744572866
 30
0.0
  0
SPLINE
  5
34A
100
AcDbEntity
  8
DEFAULT_2
100
AcDbSpline
 62
8
  6
HIDDEN
 70
0
 71
3
 72
18
 73
14
 74
0
 42
0.0000001
 43
0.0000001
 44
0.0000000001
 40
0.0
 40
0.0
 40
0.0
 40
0.0
 40
0.1831654464
 40
0.3294473451
 40
0.3890065187
 40
0.4402073593
 40
0.5231924707
 40
0.5609818528
 40
0.6006899943
 40
0.6454880449
 40
0.6976739293
 40
0.8291545454
 40
1.0
 40
1.0
 40
1.0
 40
1.0
 10
33.3311688813
 20
37.904358421
 30
0.0
 10
33.3465348627
 20
37.8664751192
 30
0.0
 10
33.3763247308
 20
37.7991841595
 30
0.0
 10
33.4197798642
 20
37.7236096832
 30
0.0
 10
33.455917922
 20
37.6787829701
 30
0.0
 10
33.4873480263
 20
37.6491652679
 30
0.0
 10
33.5232214645
 20
37.6305236492
 30
0.0
 10
33.5596858883
 20
37.6309686611
 30
0.0
 10
33.5858953463
 20
37.6398385928
 30
0.0
 10
33.6115665013
 20
37.6567850969
 30
0.0
 10
33.6481269149
 20
37.6926459634
 30
0.0
 10
33.691892484
 20
37.7593653129
 30
0.0
 10
33.7209407679
 20
37.8203181493
 30
0.0
 10
33.7360274914
 20
37.8553379562
 30
0.0
  0
SPLINE
  5
34B
100
AcDbEntity
  8
DEFAULT_2
100
AcDbSpline
 62
8
  6
HIDDEN
 70
0
 71
3
 72
18
 73
14
 74
0
 42
0.0000001
 43
0.0000001
 44
0.0000000001
 40
0.0
 40
0.0
 40
0.0
 40
0.0
 40
0.1853932211
 40
0.335584716
 40
0.3974403396
 40
0.4508807967
 40
0.5370999886
 40
0.5753615587
 40
0.6146242341
 40
0.6581621779
 40
0.7084532116
 40
0.8349661523
 40
1.0
 40
1.0
 40
1.0
 40
1.0
 10
32.0503180598
 20
40.913498806
 30
0.0
 10
32.0680976303
 20
40.9569643152
 30
0.0
 10
32.1026168083
 20
41.0347192502
 30
0.0
 10
32.1524347917
 20
41.1225905506
 30
0.0
 10
32.1936995573
 20
41.1759649549
 30
0.0
 10
32.2296585651
 20
41.2120732037
 30
0.0
 10
32.2702167879
 20
41.2361993023
 30
0.0
 10
32.3123055918
 20
41.2391014068
 30
0.0
 10
32.3424717798
 20
41.2314669927
 30
0.0
 10
32.3720289809
 20
41.2146041371
 30
0.0
 10
32.4140203236
 20
41.1774062803
 30
0.0
 10
32.4642986537
 20
41.1058476955
 30
0.0
 10
32.4974415
 20
41.0397934337
 30
0.0
 10
32.5146844455
 20
41.0017110648
 30
0.0
  0
SPLINE
  5
34C
100
AcDbEntity
  8
DEFAULT_2
100
AcDbSpline
 62
8
  6
HIDDEN
 70
0
 71
3
 72
19
 73
15
 74
0
 42
0.0000001
 43
0.0000001
 44
0.0000000001
 40
0.0
 40
0.0
 40
0.0
 40
0.0
 40
0.1921298748
 40
0.3512874812
 40
0.4177707479
 40
0.4754863582
 40
0.5249709604
 40
0.5677782151
 40
0.6065446181
 40
0.6446514571
 40
0.6855433108
 40
0.7319625376
 40
0.8477580932
 40
1.0
 40
1.0
 40
1.0
 40
1.0
 10
30.7392437086
 20
38.6040993233
 30
0.0
 10
30.7610975746
 20
38.5493650607
 30
0.0
 10
30.8034701964
 20
38.4502408152
 30
0.0
 10
30.8635160933
 20
38.3366345058
 30
0.0
 10
30.9129585384
 20
38.2650102567
 30
0.0
 10
30.947798953
 20
38.2245202721
 30
0.0
 10
30.9829361082
 20
38.1944280612
 30
0.0
 10
31.0186916334
 20
38.1751753631
 30
0.0
 10
31.0551286645
 20
38.1672672919
 30
0.0
 10
31.0916395335
 20
38.1711786492
 30
0.0
 10
31.1274580396
 20
38.1864101498
 30
0.0
 10
31.1779487739
 20
38.2235987127
 30
0.0
 10
31.238820566
 20
38.3000206428
 30
0.0
 10
31.2782910733
 20
38.3722675695
 30
0.0
 10
31.2987661554
 20
38.4142399269
 30
0.0
  0
LINE
  5
34D
100
AcDbEntity
  8
DEFAULT_2
100
AcDbLine
 62
8
  6
HIDDEN
 10
53.5363388414
 20
38.9410247161
 11
53.7363388414
 21
38.9174542891
  0
LINE
  5
34E
100
AcDbEntity
  8
DEFAULT_2
100
AcDbLine
 62
8
  6
HIDDEN
 10
53.7363388414
 20
40.223390923
 11
53.5363388414
 21
40.199820496
  0
SPLINE
  5
34F
100
AcDbEntity
  8
DEFAULT_2
100
AcDbSpline
 62
8
  6
HIDDEN
 70
0
 71
3
 72
15
 73
11
 74
0
 42
0.0000001
 43
0.0000001
 44
0.0000000001
 40
0.0
 40
0.0
 40
0.0
 40
0.0
 40
0.0935179912
 40
0.2047244646
 40
0.3335570366
 40
0.4745222109
 40
0.6198753883
 40
0.7610297117
 40
0.8897290097
 40
1.0
 40
1.0
 40
1.0
 40
1.0
 10
30.4360480595
 20
40.1036174087
 30
0.0
 10
30.4778975252
 20
40.0919983497
 30
0.0
 10
30.5634587263
 20
40.0455171739
 30
0.0
 10
30.6765286501
 20
39.9387200805
 30
0.0
 10
30.7874840888
 20
39.8004462779
 30
0.0
 10
30.897222323
 20
39.641866764
 30
0.0
 10
31.0059333774
 20
39.4757529748
 30
0.0
 10
31.1135977459
 20
39.3157233307
 30
0.0
 10
31.220127427
 20
39.1748043519
 30
0.0
 10
31.2979914107
 20
39.094778706
 30
0.0
 10
31.3376705848
 20
39.0624006157
 30
0.0
  0
SPLINE
  5
350
100
AcDbEntity
  8
DEFAULT_2
100
AcDbSpline
 62
8
  6
HIDDEN
 70
0
 71
3
 72
19
 73
15
 74
0
 42
0.0000001
 43
0.0000001
 44
0.0000000001
 40
0.0
 40
0.0
 40
0.0
 40
0.0
 40
0.0385496393
 40
0.0857882449
 40
0.1410678092
 40
0.2034360037
 40
0.3442255035
 40
0.4973678046
 40
0.6509329994
 40
0.792760018
 40
0.8558966415
 40
0.9121553862
 40
0.9604071112
 40
1.0
 40
1.0
 40
1.0
 40
1.0
 10
37.4296268737
 20
41.7153586063
 30
0.0
 10
37.4510216928
 20
41.6633991286
 30
0.0
 10
37.4918844096
 20
41.5450247531
 30
0.0
 10
37.5473574227
 20
41.34697829
 30
0.0
 10
37.6030352605
 20
41.1131161908
 30
0.0
 10
37.6805915392
 20
40.7444519213
 30
0.0
 10
37.7742593762
 20
40.233544766
 30
0.0
 10
37.8832245837
 20
39.5904226457
 30
0.0
 10
37.9921010818
 20
38.9457516048
 30
0.0
 10
38.0857411737
 20
38.4315415467
 30
0.0
 10
38.1632518169
 20
38.0587227604
 30
0.0
 10
38.2188645729
 20
37.8207162667
 30
0.0
 10
38.2743763445
 20
37.6180877596
 30
0.0
 10
38.3152043394
 20
37.4965547027
 30
0.0
 10
38.3364999611
 20
37.4429148326
 30
0.0
  0
LINE
  5
351
100
AcDbEntity
  8
DEFAULT_2
100
AcDbLine
 62
8
  6
HIDDEN
 10
35.3625116492
 20
39.7717774507
 11
35.4058343549
 21
39.4564260725
  0
SPLINE
  5
352
100
AcDbEntity
  8
DEFAULT_2
100
AcDbSpline
 62
8
  6
HIDDEN
 70
0
 71
3
 72
9
 73
5
 74
0
 42
0.0000001
 43
0.0000001
 44
0.0000000001
 40
0.0
 40
0.0
 40
0.0
 40
0.0
 40
0.2202548162
 40
1.0
 40
1.0
 40
1.0
 40
1.0
 10
31.4987299785
 20
38.9580152348
 30
0.0
 10
31.484844452
 20
38.9610935819
 30
0.0
 10
31.4232076631
 20
38.9818533701
 30
0.0
 10
31.3720330265
 20
39.0255978155
 30
0.0
 10
31.3376705848
 20
39.0624006157
 30
0.0
  0
SPLINE
  5
353
100
AcDbEntity
  8
DEFAULT_2
100
AcDbSpline
 62
8
  6
HIDDEN
 70
0
 71
3
 72
11
 73
7
 74
0
 42
0.0000001
 43
0.0000001
 44
0.0000000001
 40
0.0
 40
0.0
 40
0.0
 40
0.0
 40
0.1885085308
 40
0.4068967787
 40
0.6746256845
 40
1.0
 40
1.0
 40
1.0
 40
1.0
 10
48.8781289588
 20
38.1578417094
 30
0.0
 10
48.8946279965
 20
38.1572521921
 30
0.0
 10
48.9308044757
 20
38.1647204476
 30
0.0
 10
48.9805329835
 20
38.198234632
 30
0.0
 10
49.0289096017
 20
38.2507901542
 30
0.0
 10
49.058042045
 20
38.2939786718
 30
0.0
 10
49.0728965442
 20
38.3182969961
 30
0.0
  0
SPLINE
  5
354
100
AcDbEntity
  8
DEFAULT_2
100
AcDbSpline
 62
8
  6
HIDDEN
 70
0
 71
3
 72
13
 73
9
 74
0
 42
0.0000001
 43
0.0000001
 44
0.0000000001
 40
0.0
 40
0.0
 40
0.0
 40
0.0
 40
0.0850960305
 40
0.1752456434
 40
0.2753450425
 40
0.3886196942
 40
0.6611719152
 40
1.0
 40
1.0
 40
1.0
 40
1.0
 10
43.8779541939
 20
38.1578592965
 30
0.0
 10
43.8878613903
 20
38.1575064669
 30
0.0
 10
43.9084619677
 20
38.1595642499
 30
0.0
 10
43.9387463673
 20
38.1709925466
 30
0.0
 10
43.9686084187
 20
38.1903121699
 30
0.0
 10
44.0106762564
 20
38.2284600246
 30
0.0
 10
44.0618928272
 20
38.2963053373
 30
0.0
 10
44.096811796
 20
38.3584840314
 30
0.0
 10
44.114762979
 20
38.3936386022
 30
0.0
  0
SPLINE
  5
355
100
AcDbEntity
  8
DEFAULT_2
100
AcDbSpline
 62
8
  6
HIDDEN
 70
0
 71
3
 72
13
 73
9
 74
0
 42
0.0000001
 43
0.0000001
 44
0.0000000001
 40
0.0
 40
0.0
 40
0.0
 40
0.0
 40
0.085297063
 40
0.1756609524
 40
0.2757765139
 40
0.3888602973
 40
0.6608592218
 40
1.0
 40
1.0
 40
1.0
 40
1.0
 10
41.3772825569
 20
38.1578165576
 30
0.0
 10
41.3872147756
 20
38.1574722492
 30
0.0
 10
41.4078605612
 20
38.1596276271
 30
0.0
 10
41.438172048
 20
38.1710968672
 30
0.0
 10
41.4681118528
 20
38.1903023418
 30
0.0
 10
41.5102951133
 20
38.2282083651
 30
0.0
 10
41.561729027
 20
38.2958537955
 30
0.0
 10
41.5966682819
 20
38.3580101896
 30
0.0
 10
41.6146180151
 20
38.3932121452
 30
0.0
  0
SPLINE
  5
356
100
AcDbEntity
  8
DEFAULT_2
100
AcDbSpline
 62
8
  6
HIDDEN
 70
0
 71
3
 72
13
 73
9
 74
0
 42
0.0000001
 43
0.0000001
 44
0.0000000001
 40
0.0
 40
0.0
 40
0.0
 40
0.0
 40
0.3069466244
 40
0.5882343037
 40
0.7130357105
 40
0.8244927892
 40
0.9206448469
 40
1.0
 40
1.0
 40
1.0
 40
1.0
 10
35.4058343549
 20
39.4564260725
 30
0.0
 10
35.4410477076
 20
39.2485254317
 30
0.0
 10
35.5089365587
 20
38.8501777123
 30
0.0
 10
35.598030812
 20
38.3684557083
 30
0.0
 10
35.6718183855
 20
38.0206386509
 30
0.0
 10
35.7247170977
 20
37.7984542185
 30
0.0
 10
35.7773661775
 20
37.6084375438
 30
0.0
 10
35.8160848719
 20
37.4941059264
 30
0.0
 10
35.8362000996
 20
37.4434385782
 30
0.0
  0
SPLINE
  5
357
100
AcDbEntity
  8
DEFAULT_2
100
AcDbSpline
 62
8
  6
HIDDEN
 70
0
 71
3
 72
17
 73
13
 74
0
 42
0.0000001
 43
0.0000001
 44
0.0000000001
 40
0.0
 40
0.0
 40
0.0
 40
0.0
 40
0.0268730937
 40
0.0544943973
 40
0.0851939085
 40
0.1206642104
 40
0.2096629336
 40
0.3251177343
 40
0.4656558683
 40
0.6283900445
 40
0.8084547738
 40
1.0
 40
1.0
 40
1.0
 40
1.0
 10
34.4129426542
 20
40.8288996136
 30
0.0
 10
34.4255186288
 20
40.8316893288
 30
0.0
 10
34.452095532
 20
40.8335083769
 30
0.0
 10
34.4921963546
 20
40.8230928565
 30
0.0
 10
34.5314729696
 20
40.8003648959
 30
0.0
 10
34.5872536816
 20
40.7506152935
 30
0.0
 10
34.6540968741
 20
40.6556613577
 30
0.0
 10
34.7287750757
 20
40.5079879068
 30
0.0
 10
34.8041261417
 20
40.3217264892
 30
0.0
 10
34.879509788
 20
40.1026008999
 30
0.0
 10
34.9551590558
 20
39.8578575348
 30
0.0
 10
35.0047316711
 20
39.6867590802
 30
0.0
 10
35.0299458897
 20
39.5984713551
 30
0.0
  0
SPLINE
  5
358
100
AcDbEntity
  8
DEFAULT_2
100
AcDbSpline
 62
8
  6
HIDDEN
 70
0
 71
3
 72
13
 73
9
 74
0
 42
0.0000001
 43
0.0000001
 44
0.0000000001
 40
0.0
 40
0.0
 40
0.0
 40
0.0
 40
0.0853307784
 40
0.1754449627
 40
0.2750484062
 40
0.3876179086
 40
0.6598336618
 40
1.0
 40
1.0
 40
1.0
 40
1.0
 10
38.8772263155
 20
38.1584382956
 30
0.0
 10
38.8871423855
 20
38.1580906731
 30
0.0
 10
38.907716281
 20
38.1601103583
 30
0.0
 10
38.9380122697
 20
38.1711817734
 30
0.0
 10
38.967963958
 20
38.1899684592
 30
0.0
 10
39.0102384166
 20
38.2274812037
 30
0.0
 10
39.0615132467
 20
38.2951926787
 30
0.0
 10
39.0963268543
 20
38.357400141
 30
0.0
 10
39.1142948911
 20
38.3926376127
 30
0.0
  0
SPLINE
  5
359
100
AcDbEntity
  8
DEFAULT_2
100
AcDbSpline
 62
8
  6
HIDDEN
 70
0
 71
3
 72
19
 73
15
 74
0
 42
0.0000001
 43
0.0000001
 44
0.0000000001
 40
0.0
 40
0.0
 40
0.0
 40
0.0
 40
0.0385120333
 40
0.0857235422
 40
0.1410500146
 40
0.2034360974
 40
0.3442291561
 40
0.4973994911
 40
0.6509885971
 40
0.7928636583
 40
0.8559743833
 40
0.9121623371
 40
0.9603893839
 40
1.0
 40
1.0
 40
1.0
 40
1.0
 10
44.9297177331
 20
41.71472881
 30
0.0
 10
44.951098949
 20
41.6628237479
 30
0.0
 10
44.9920004263
 20
41.5445656314
 30
0.0
 10
45.0475055439
 20
41.3465546516
 30
0.0
 10
45.1031174055
 20
41.1126234507
 30
0.0
 10
45.1807036638
 20
40.7438691671
 30
0.0
 10
45.274395736
 20
40.2328989128
 30
0.0
 10
45.3833530079
 20
39.5897014583
 30
0.0
 10
45.4922671666
 20
38.9448972091
 30
0.0
 10
45.5858663918
 20
38.4306178296
 30
0.0
 10
45.6633845831
 20
38.0578769765
 30
0.0
 10
45.7190542539
 20
37.8200679737
 30
0.0
 10
45.774583297
 20
37.6175661421
 30
0.0
 10
45.8153801091
 20
37.4960352648
 30
0.0
 10
45.8366798717
 20
37.4423699886
 30
0.0
  0
SPLINE
  5
35A
100
AcDbEntity
  8
DEFAULT_2
100
AcDbSpline
 62
8
  6
HIDDEN
 70
0
 71
3
 72
13
 73
9
 74
0
 42
0.0000001
 43
0.0000001
 44
0.0000000001
 40
0.0
 40
0.0
 40
0.0
 40
0.0
 40
0.0852368838
 40
0.1753017076
 40
0.2749574502
 40
0.3877327642
 40
0.6603025275
 40
1.0
 40
1.0
 40
1.0
 40
1.0
 10
36.3774260455
 20
38.1581052957
 30
0.0
 10
36.3873351904
 20
38.157756306
 30
0.0
 10
36.4079025402
 20
38.1597836914
 30
0.0
 10
36.438183628
 20
38.1709110275
 30
0.0
 10
36.4681182239
 20
38.1898025233
 30
0.0
 10
36.5103208532
 20
38.2275379226
 30
0.0
 10
36.5614863529
 20
38.2953659865
 30
0.0
 10
36.596357301
 20
38.3575568779
 30
0.0
 10
36.614320808
 20
38.3927535546
 30
0.0
  0
SPLINE
  5
35B
100
AcDbEntity
  8
DEFAULT_2
100
AcDbSpline
 62
8
  6
HIDDEN
 70
0
 71
3
 72
13
 73
9
 74
0
 42
0.0000001
 43
0.0000001
 44
0.0000000001
 40
0.0
 40
0.0
 40
0.0
 40
0.0
 40
0.3438173503
 40
0.6193307585
 40
0.7323137732
 40
0.8308787772
 40
0.9184707881
 40
1.0
 40
1.0
 40
1.0
 40
1.0
 10
44.1563838418
 20
40.6889862094
 30
0.0
 10
44.1758757575
 20
40.7301518057
 30
0.0
 10
44.2136383022
 20
40.8030635771
 30
0.0
 10
44.2688589927
 20
40.8835808555
 30
0.0
 10
44.3146024141
 20
40.9293757223
 30
0.0
 10
44.3469704124
 20
40.9526360765
 30
0.0
 10
44.379770669
 20
40.9669373428
 30
0.0
 10
44.4022788497
 20
40.9702247914
 30
0.0
 10
44.4130794147
 20
40.9702246891
 30
0.0
  0
SPLINE
  5
35C
100
AcDbEntity
  8
DEFAULT_2
100
AcDbSpline
 62
8
  6
HIDDEN
 70
0
 71
3
 72
13
 73
9
 74
0
 42
0.0000001
 43
0.0000001
 44
0.0000000001
 40
0.0
 40
0.0
 40
0.0
 40
0.0
 40
0.3434613347
 40
0.6183754647
 40
0.7316117712
 40
0.8306208572
 40
0.9184518473
 40
1.0
 40
1.0
 40
1.0
 40
1.0
 10
39.156600864
 20
40.689763836
 30
0.0
 10
39.1759761438
 20
40.7307516691
 30
0.0
 10
39.2135804691
 20
40.8032916592
 30
0.0
 10
39.2687983657
 20
40.8832521756
 30
0.0
 10
39.314299355
 20
40.9289579807
 30
0.0
 10
39.346478128
 20
40.9524288574
 30
0.0
 10
39.379145506
 20
40.9669743206
 30
0.0
 10
39.4016175829
 20
40.9702762248
 30
0.0
 10
39.4123818585
 20
40.9702706873
 30
0.0
  0
SPLINE
  5
35D
100
AcDbEntity
  8
DEFAULT_2
100
AcDbSpline
 62
8
  6
HIDDEN
 70
0
 71
3
 72
10
 73
6
 74
0
 42
0.0000001
 43
0.0000001
 44
0.0000000001
 40
0.0
 40
0.0
 40
0.0
 40
0.0
 40
0.5514877624
 40
0.7924372215
 40
1.0
 40
1.0
 40
1.0
 40
1.0
 10
35.6937198793
 20
39.7870436104
 30
0.0
 10
35.6412761926
 20
39.9559275983
 30
0.0
 10
35.5643459303
 20
40.1982477791
 30
0.0
 10
35.4513201652
 20
40.4983910306
 30
0.0
 10
35.3929111839
 20
40.630021453
 30
0.0
 10
35.3626688306
 20
40.6893106357
 30
0.0
  0
SPLINE
  5
35E
100
AcDbEntity
  8
DEFAULT_2
100
AcDbSpline
 62
8
  6
HIDDEN
 70
0
 71
3
 72
13
 73
9
 74
0
 42
0.0000001
 43
0.0000001
 44
0.0000000001
 40
0.0
 40
0.0
 40
0.0
 40
0.0
 40
0.3435991381
 40
0.6188013786
 40
0.7319925707
 40
0.8307800807
 40
0.918438647
 40
1.0
 40
1.0
 40
1.0
 40
1.0
 10
36.6565248627
 20
40.6896232167
 30
0.0
 10
36.6759447793
 20
40.7306665305
 30
0.0
 10
36.7136238553
 20
40.803328833
 30
0.0
 10
36.7688614407
 20
40.883473602
 30
0.0
 10
36.8144326923
 20
40.9292220004
 30
0.0
 10
36.8466962738
 20
40.9525756027
 30
0.0
 10
36.8794539929
 20
40.9668795649
 30
0.0
 10
36.9019218967
 20
40.9701456096
 30
0.0
 10
36.9127000332
 20
40.9701425446
 30
0.0
  0
SPLINE
  5
35F
100
AcDbEntity
  8
DEFAULT_2
100
AcDbSpline
 62
8
  6
HIDDEN
 70
0
 71
3
 72
13
 73
9
 74
0
 42
0.0000001
 43
0.0000001
 44
0.0000000001
 40
0.0
 40
0.0
 40
0.0
 40
0.0
 40
0.2632994286
 40
0.3950864572
 40
0.52200478
 40
0.6433185948
 40
0.7610029725
 40
1.0
 40
1.0
 40
1.0
 40
1.0
 10
30.3184291422
 20
39.3432421709
 30
0.0
 10
30.248638658
 20
39.4001240847
 30
0.0
 10
30.146810039
 20
39.488996364
 30
0.0
 10
30.0043215522
 20
39.5967562914
 30
0.0
 10
29.8933140071
 20
39.6648778144
 30
0.0
 10
29.777939156
 20
39.7148076931
 30
0.0
 10
29.6172810371
 20
39.7504305663
 30
0.0
 10
29.4927325443
 20
39.7381110529
 30
0.0
 10
29.4129451169
 20
39.720422606
 30
0.0
  0
SPLINE
  5
360
100
AcDbEntity
  8
DEFAULT_2
100
AcDbSpline
 62
8
  6
HIDDEN
 70
0
 71
3
 72
13
 73
9
 74
0
 42
0.0000001
 43
0.0000001
 44
0.0000000001
 40
0.0
 40
0.0
 40
0.0
 40
0.0
 40
0.0850854036
 40
0.1751122429
 40
0.2750390303
 40
0.3882613827
 40
0.6610039221
 40
1.0
 40
1.0
 40
1.0
 40
1.0
 10
46.3778964179
 20
38.1579489794
 30
0.0
 10
46.3878002638
 20
38.1575966905
 30
0.0
 10
46.4083752521
 20
38.1596331585
 30
0.0
 10
46.4386698298
 20
38.1709022017
 30
0.0
 10
46.4685521043
 20
38.1901156132
 30
0.0
 10
46.5106140273
 20
38.2282518173
 30
0.0
 10
46.5617820972
 20
38.2961586221
 30
0.0
 10
46.5966927916
 20
38.3583681271
 30
0.0
 10
46.6146515332
 20
38.3935312865
 30
0.0
  0
SPLINE
  5
361
100
AcDbEntity
  8
DEFAULT_2
100
AcDbSpline
 62
8
  6
HIDDEN
 70
0
 71
3
 72
19
 73
15
 74
0
 42
0.0000001
 43
0.0000001
 44
0.0000000001
 40
0.0
 40
0.0
 40
0.0
 40
0.0
 40
0.0385836014
 40
0.0858756753
 40
0.1411397938
 40
0.2034863344
 40
0.3443252679
 40
0.4975003407
 40
0.6510468127
 40
0.7929090221
 40
0.8560035705
 40
0.9121372582
 40
0.9603713806
 40
1.0
 40
1.0
 40
1.0
 40
1.0
 10
42.4297057861
 20
41.7153338874
 30
0.0
 10
42.4511276515
 20
41.6633192193
 30
0.0
 10
42.4919771058
 20
41.5447748447
 30
0.0
 10
42.547415246
 20
41.3465674961
 30
0.0
 10
42.6031559259
 20
41.1126442923
 30
0.0
 10
42.6807591676
 20
40.7438898722
 30
0.0
 10
42.7743987428
 20
40.2327763321
 30
0.0
 10
42.8833775352
 20
39.5894238834
 30
0.0
 10
42.9923342836
 20
38.9445541208
 30
0.0
 10
43.0859351911
 20
38.4302638674
 30
0.0
 10
43.1634303274
 20
38.0575549552
 30
0.0
 10
43.2191733689
 20
37.8198021485
 30
0.0
 10
43.2746852959
 20
37.6172934257
 30
0.0
 10
43.3154631294
 20
37.4956865456
 30
0.0
 10
43.3367759215
 20
37.4419843866
 30
0.0
  0
SPLINE
  5
362
100
AcDbEntity
  8
DEFAULT_2
100
AcDbSpline
 62
8
  6
HIDDEN
 70
0
 71
3
 72
13
 73
9
 74
0
 42
0.0000001
 43
0.0000001
 44
0.0000000001
 40
0.0
 40
0.0
 40
0.0
 40
0.0
 40
0.0788302748
 40
0.1736525045
 40
0.2833762262
 40
0.4067826969
 40
0.6878063481
 40
1.0
 40
1.0
 40
1.0
 40
1.0
 10
34.9619367919
 20
41.5744572866
 30
0.0
 10
34.9805923674
 20
41.5295906453
 30
0.0
 10
35.0165334762
 20
41.4286291874
 30
0.0
 10
35.0657013165
 20
41.2609802799
 30
0.0
 10
35.1151000423
 20
41.064917891
 30
0.0
 10
35.1840823818
 20
40.7555691529
 30
0.0
 10
35.2674307923
 20
40.3217071336
 30
0.0
 10
35.3301471532
 20
39.9614709668
 30
0.0
 10
35.3625116492
 20
39.7717774507
 30
0.0
  0
SPLINE
  5
363
100
AcDbEntity
  8
DEFAULT_2
100
AcDbSpline
 62
8
  6
HIDDEN
 70
0
 71
3
 72
13
 73
9
 74
0
 42
0.0000001
 43
0.0000001
 44
0.0000000001
 40
0.0
 40
0.0
 40
0.0
 40
0.0
 40
0.3430675058
 40
0.6179756091
 40
0.7313138726
 40
0.830459267
 40
0.9184169128
 40
1.0
 40
1.0
 40
1.0
 40
1.0
 10
46.6561889032
 20
40.6888848699
 30
0.0
 10
46.6756313362
 20
40.7299431864
 30
0.0
 10
46.7133933179
 20
40.8026359336
 30
0.0
 10
46.7687822129
 20
40.8827981198
 30
0.0
 10
46.8144153312
 20
40.9287041188
 30
0.0
 10
46.8466962623
 20
40.9523265346
 30
0.0
 10
46.8794485625
 20
40.9670473039
 30
0.0
 10
46.9020106586
 20
40.9704343972
 30
0.0
 10
46.9128138897
 20
40.97043219
 30
0.0
  0
LINE
  5
364
100
AcDbEntity
  8
DEFAULT_2
100
AcDbLine
 62
8
  6
HIDDEN
 10
53.7363388414
 20
39.0319215242
 11
53.5363388414
 21
39.0590361987
  0
SPLINE
  5
365
100
AcDbEntity
  8
DEFAULT_2
100
AcDbSpline
 62
8
  6
HIDDEN
 70
0
 71
3
 72
11
 73
7
 74
0
 42
0.0000001
 43
0.0000001
 44
0.0000000001
 40
0.0
 40
0.0
 40
0.0
 40
0.0
 40
0.3431368204
 40
0.4900042939
 40
0.6206700509
 40
1.0
 40
1.0
 40
1.0
 40
1.0
 10
41.6561481775
 20
40.6887759506
 30
0.0
 10
41.6750454775
 20
40.728669009
 30
0.0
 10
41.7039715372
 20
40.7847031041
 30
0.0
 10
41.7477144121
 20
40.8519632724
 30
0.0
 10
41.7984985529
 20
40.9179884287
 30
0.0
 10
41.8561144915
 20
40.9666169891
 30
0.0
 10
41.9047865751
 20
40.9701283078
 30
0.0
  0
LINE
  5
366
100
AcDbEntity
  8
DEFAULT_2
100
AcDbLine
 62
8
  6
HIDDEN
 10
53.5363388414
 20
40.0818090133
 11
53.7363388414
 21
40.1089236879
  0
SPLINE
  5
367
100
AcDbEntity
  8
DEFAULT_2
100
AcDbSpline
 62
8
  6
HIDDEN
 70
0
 71
3
 72
19
 73
15
 74
0
 42
0.0000001
 43
0.0000001
 44
0.0000000001
 40
0.0
 40
0.0
 40
0.0
 40
0.0
 40
0.0341771706
 40
0.0688602113
 40
0.1065406607
 40
0.1492608241
 40
0.1981888736
 40
0.2537531438
 40
0.3158866312
 40
0.383968402
 40
0.5343698725
 40
0.6952641291
 40
0.8546588345
 40
1.0
 40
1.0
 40
1.0
 40
1.0
 10
31.9129455154
 20
40.27465836
 30
0.0
 10
31.9325291605
 20
40.2789791073
 30
0.0
 10
31.9733832198
 20
40.2825707036
 30
0.0
 10
32.0354352803
 20
40.2701860452
 30
0.0
 10
32.0966655924
 20
40.2402639834
 30
0.0
 10
32.1568419048
 20
40.1933902009
 30
0.0
 10
32.2165075199
 20
40.1306211258
 30
0.0
 10
32.2759986273
 20
40.0528610019
 30
0.0
 10
32.3353316373
 20
39.9613194313
 30
0.0
 10
32.4172548896
 20
39.8184171594
 30
0.0
 10
32.5163761204
 20
39.6189421309
 30
0.0
 10
32.6318659979
 20
39.3680647646
 30
0.0
 10
32.7469849455
 20
39.1203067564
 30
0.0
 10
32.8290225242
 20
38.9611914104
 30
0.0
 10
32.8721982468
 20
38.8876441333
 30
0.0
  0
SPLINE
  5
368
100
AcDbEntity
  8
DEFAULT_2
100
AcDbSpline
 62
8
  6
HIDDEN
 70
0
 71
3
 72
19
 73
15
 74
0
 42
0.0000001
 43
0.0000001
 44
0.0000000001
 40
0.0
 40
0.0
 40
0.0
 40
0.0
 40
0.0386029636
 40
0.0859570482
 40
0.1412160005
 40
0.20345739
 40
0.3442920895
 40
0.49734117
 40
0.6507902254
 40
0.7926705819
 40
0.8556875081
 40
0.9119061312
 40
0.9603201355
 40
1.0
 40
1.0
 40
1.0
 40
1.0
 10
39.9299740322
 20
41.7147247755
 30
0.0
 10
39.9514069054
 20
41.6627175611
 30
0.0
 10
39.9921923244
 20
41.5440944871
 30
0.0
 10
40.0475158631
 20
41.3458601508
 30
0.0
 10
40.1031899839
 20
41.1121304411
 30
0.0
 10
40.1808702646
 20
40.7437742816
 30
0.0
 10
40.2742187293
 20
40.233243942
 30
0.0
 10
40.3831799215
 20
39.5905900777
 30
0.0
 10
40.4920845425
 20
38.9463805575
 30
0.0
 10
40.5854089301
 20
38.4325619938
 30
0.0
 10
40.6630055973
 20
38.0600499474
 30
0.0
 10
40.7186818459
 20
37.822141602
 30
0.0
 10
40.7740000103
 20
37.6192254356
 30
0.0
 10
40.8147375798
 20
37.4973169458
 30
0.0
 10
40.8360848486
 20
37.4435822942
 30
0.0
  0
SPLINE
  5
369
100
AcDbEntity
  8
DEFAULT_2
100
AcDbSpline
 62
8
  6
HIDDEN
 70
0
 71
3
 72
17
 73
13
 74
0
 42
0.0000001
 43
0.0000001
 44
0.0000000001
 40
0.0
 40
0.0
 40
0.0
 40
0.0
 40
0.0422959966
 40
0.0915221748
 40
0.2081578542
 40
0.3436628583
 40
0.4899028375
 40
0.6378000588
 40
0.7779144992
 40
0.9012531998
 40
0.9541269196
 40
1.0
 40
1.0
 40
1.0
 40
1.0
 10
32.5146844455
 20
41.0017110648
 30
0.0
 10
32.5333320465
 20
40.9605264066
 30
0.0
 10
32.5697413338
 20
40.8696249023
 30
0.0
 10
32.6410180191
 20
40.6587930836
 30
0.0
 10
32.7267347709
 20
40.3480714452
 30
0.0
 10
32.8253563735
 20
39.9338175076
 30
0.0
 10
32.9242294512
 20
39.4853363865
 30
0.0
 10
33.0229834647
 20
39.0317941912
 30
0.0
 10
33.1213768203
 20
38.6032593991
 30
0.0
 10
33.2062683017
 20
38.2758231997
 30
0.0
 10
33.2767317951
 20
38.0490923457
 30
0.0
 10
33.3127387686
 20
37.9497960342
 30
0.0
 10
33.3311688813
 20
37.904358421
 30
0.0
  0
SPLINE
  5
36A
100
AcDbEntity
  8
DEFAULT_2
100
AcDbSpline
 62
8
  6
HIDDEN
 70
0
 71
3
 72
19
 73
15
 74
0
 42
0.0000001
 43
0.0000001
 44
0.0000000001
 40
0.0
 40
0.0
 40
0.0
 40
0.0
 40
0.0617559556
 40
0.1029948282
 40
0.1520561079
 40
0.2086691616
 40
0.2722549472
 40
0.4163984145
 40
0.4942931085
 40
0.5741075913
 40
0.7326950812
 40
0.8786893599
 40
0.9430523211
 40
1.0
 40
1.0
 40
1.0
 40
1.0
 10
33.8505994933
 20
38.4366485518
 30
0.0
 10
33.8086994065
 20
38.446020804
 30
0.0
 10
33.7474328694
 20
38.492035471
 30
0.0
 10
33.681053421
 20
38.5733611217
 30
0.0
 10
33.6256365056
 20
38.6596883596
 30
0.0
 10
33.5698706212
 20
38.7632876667
 30
0.0
 10
33.4913290217
 20
38.9295485581
 30
0.0
 10
33.4163601505
 20
39.1135195379
 30
0.0
 10
33.3406088733
 20
39.3092223096
 30
0.0
 10
33.2624444799
 20
39.5147726138
 30
0.0
 10
33.1663369279
 20
39.7641121554
 30
0.0
 10
33.0649462431
 20
40.0000038967
 30
0.0
 10
32.9791126113
 20
40.1649332531
 30
0.0
 10
32.934661755
 20
40.2367878654
 30
0.0
 10
32.9118591103
 20
40.269154676
 30
0.0
  0
SPLINE
  5
36B
100
AcDbEntity
  8
DEFAULT_2
100
AcDbSpline
 62
8
  6
HIDDEN
 70
0
 71
3
 72
19
 73
15
 74
0
 42
0.0000001
 43
0.0000001
 44
0.0000000001
 40
0.0
 40
0.0
 40
0.0
 40
0.0
 40
0.0385998383
 40
0.0859221698
 40
0.1411413506
 40
0.2033560651
 40
0.344170622
 40
0.4972163852
 40
0.650670404
 40
0.7926271497
 40
0.8556756079
 40
0.9118930822
 40
0.9603031596
 40
1.0
 40
1.0
 40
1.0
 40
1.0
 10
47.4297419217
 20
41.7152782867
 30
0.0
 10
47.4511669263
 20
41.6632649704
 30
0.0
 10
47.4919605117
 20
41.5446832129
 30
0.0
 10
47.5473094701
 20
41.3465410275
 30
0.0
 10
47.6030062412
 20
41.1129322288
 30
0.0
 10
47.6807065526
 20
40.744659707
 30
0.0
 10
47.7740704261
 20
40.2341387656
 30
0.0
 10
47.8830485848
 20
39.591430512
 30
0.0
 10
47.9920128415
 20
38.9470310678
 30
0.0
 10
48.0853258274
 20
38.432975613
 30
0.0
 10
48.1629226628
 20
38.0602549106
 30
0.0
 10
48.2186217798
 20
37.8222793305
 30
0.0
 10
48.2739799076
 20
37.6193294442
 30
0.0
 10
48.3146980144
 20
37.4973768219
 30
0.0
 10
48.3360567462
 20
37.4436121415
 30
0.0
  0
SPLINE
  5
36C
100
AcDbEntity
  8
DEFAULT_2
100
AcDbSpline
 62
8
  6
HIDDEN
 70
0
 71
3
 72
14
 73
10
 74
0
 42
0.0000001
 43
0.0000001
 44
0.0000000001
 40
0.0
 40
0.0
 40
0.0
 40
0.0
 40
0.0996047779
 40
0.2157878171
 40
0.3445705821
 40
0.4810421145
 40
0.7562276305
 40
0.8843940163
 40
1.0
 40
1.0
 40
1.0
 40
1.0
 10
30.0930435024
 20
40.4796991108
 30
0.0
 10
30.1232808077
 20
40.4211285223
 30
0.0
 10
30.1812193713
 20
40.2903694171
 30
0.0
 10
30.260859021
 20
40.0766597628
 30
0.0
 10
30.340312722
 20
39.8370239012
 30
0.0
 10
30.4464290954
 20
39.4954851097
 30
0.0
 10
30.5487404897
 20
39.153182624
 30
0.0
 10
30.6556541875
 20
38.8267983605
 30
0.0
 10
30.7108753374
 20
38.6751495382
 30
0.0
 10
30.7392437086
 20
38.6040993233
 30
0.0
  0
SPLINE
  5
36D
100
AcDbEntity
  8
DEFAULT_2
100
AcDbSpline
 62
8
  6
HIDDEN
 70
0
 71
3
 72
11
 73
7
 74
0
 42
0.0000001
 43
0.0000001
 44
0.0000000001
 40
0.0
 40
0.0
 40
0.0
 40
0.0
 40
0.2500126786
 40
0.5000007917
 40
0.7499880028
 40
1.0
 40
1.0
 40
1.0
 40
1.0
 10
71.4923219055
 20
35.4157220677
 30
0.0
 10
71.4381711732
 20
35.6033057068
 30
0.0
 10
71.3477795041
 20
35.984259783
 30
0.0
 10
71.2966444646
 20
36.5704237657
 30
0.0
 10
71.3477807028
 20
37.156586983
 30
0.0
 10
71.4381713208
 20
37.5375400165
 30
0.0
 10
71.4923219055
 20
37.7251231444
 30
0.0
  0
SPLINE
  5
36E
100
AcDbEntity
  8
DEFAULT_2
100
AcDbSpline
 62
8
  6
HIDDEN
 70
0
 71
3
 72
11
 73
7
 74
0
 42
0.0000001
 43
0.0000001
 44
0.0000000001
 40
0.0
 40
0.0
 40
0.0
 40
0.0
 40
0.2574278162
 40
0.5000007908
 40
0.7425729806
 40
1.0
 40
1.0
 40
1.0
 40
1.0
 10
71.4923219055
 20
37.7251231444
 30
0.0
 10
71.440004317
 20
37.8157398658
 30
0.0
 10
71.3505864168
 20
38.0000198105
 30
0.0
 10
71.2957882912
 20
38.302474078
 30
0.0
 10
71.3505875663
 20
38.6049275852
 30
0.0
 10
71.440004479
 20
38.7892072419
 30
0.0
 10
71.4923219055
 20
38.8798236828
 30
0.0
  0
SPLINE
  5
36F
100
AcDbEntity
  8
DEFAULT_2
100
AcDbSpline
 62
8
  6
HIDDEN
 70
0
 71
3
 72
15
 73
11
 74
0
 42
0.0000001
 43
0.0000001
 44
0.0000000001
 40
0.0
 40
0.0
 40
0.0
 40
0.0
 40
0.1417099404
 40
0.2702338757
 40
0.3880850351
 40
0.5
 40
0.6119149649
 40
0.7297661243
 40
0.8582900596
 40
1.0
 40
1.0
 40
1.0
 40
1.0
 10
73.7363388414
 20
34.2610215293
 30
0.0
 10
73.6867845783
 20
34.3021097536
 30
0.0
 10
73.597676074
 20
34.3874658653
 30
0.0
 10
73.4937991441
 20
34.531348811
 30
0.0
 10
73.4297606087
 20
34.6827471304
 30
0.0
 10
73.4079963751
 20
34.8383717985
 30
0.0
 10
73.4297606087
 20
34.9939964665
 30
0.0
 10
73.4937991441
 20
35.1453947859
 30
0.0
 10
73.597676074
 20
35.2892777317
 30
0.0
 10
73.6867845783
 20
35.3746338433
 30
0.0
 10
73.7363388414
 20
35.4157220677
 30
0.0
  0
SPLINE
  5
370
100
AcDbEntity
  8
DEFAULT_2
100
AcDbSpline
 62
8
  6
HIDDEN
 70
0
 71
3
 72
15
 73
11
 74
0
 42
0.0000001
 43
0.0000001
 44
0.0000000001
 40
0.0
 40
0.0
 40
0.0
 40
0.0
 40
0.1417099404
 40
0.2702338757
 40
0.3880850351
 40
0.5
 40
0.6119149649
 40
0.7297661243
 40
0.8582900596
 40
1.0
 40
1.0
 40
1.0
 40
1.0
 10
73.7363388414
 20
37.7251231444
 30
0.0
 10
73.6867845783
 20
37.7662113688
 30
0.0
 10
73.597676074
 20
37.8515674804
 30
0.0
 10
73.4937991441
 20
37.9954504262
 30
0.0
 10
73.4297606087
 20
38.1468487456
 30
0.0
 10
73.4079963751
 20
38.3024734136
 30
0.0
 10
73.4297606087
 20
38.4580980817
 30
0.0
 10
73.4937991441
 20
38.6094964011
 30
0.0
 10
73.597676074
 20
38.7533793468
 30
0.0
 10
73.6867845783
 20
38.8387354585
 30
0.0
 10
73.7363388414
 20
38.8798236828
 30
0.0
  0
SPLINE
  5
371
100
AcDbEntity
  8
DEFAULT_2
100
AcDbSpline
 62
8
  6
HIDDEN
 70
0
 71
3
 72
11
 73
7
 74
0
 42
0.0000001
 43
0.0000001
 44
0.0000000001
 40
0.0
 40
0.0
 40
0.0
 40
0.0
 40
0.2574278162
 40
0.5000007908
 40
0.7425729806
 40
1.0
 40
1.0
 40
1.0
 40
1.0
 10
71.4923219055
 20
34.2610215293
 30
0.0
 10
71.440004317
 20
34.3516382507
 30
0.0
 10
71.3505864168
 20
34.5359181954
 30
0.0
 10
71.2957882912
 20
34.8383724628
 30
0.0
 10
71.3505875663
 20
35.14082597
 30
0.0
 10
71.440004479
 20
35.3251056268
 30
0.0
 10
71.4923219055
 20
35.4157220677
 30
0.0
  0
ELLIPSE
  5
372
100
AcDbEntity
  8
DEFAULT_2
100
AcDbEllipse
 62
8
  6
HIDDEN
 10
29.4529358142
 20
39.5626145903
 30
0.0
 11
-0.0406865246
 21
0.1576411457
 31
0.0
 40
0.3572681643
 41
-1.2389227987
 42
-0.012300511
  0
ENDSEC
  0
SECTION
  2
OBJECTS
  0
DICTIONARY
  5
373
100
AcDbDictionary
  3
ACAD_GROUP
350
374
  3
ACAD_MLINESTYLE
350
375
  0
DICTIONARY
  5
374
102
{ACAD_REACTORS
330
373
102
}
100
AcDbDictionary
  0
DICTIONARY
  5
375
102
{ACAD_REACTORS
330
373
102
}
100
AcDbDictionary
  3
STANDARD
350
376
  0
MLINESTYLE
  5
376
102
{ACAD_REACTORS
330
375
102
}
100
AcDbMlineStyle
  2
STANDARD
 70
0
  3

 62
256
 51
90.0
 52
90.0
 71
2
 49
0.5
 62
256
  6
BYLAYER
 49
-0.5
 62
256
  6
BYLAYER
  0
ENDSEC
  0
EOF
