  0
SECTION
  2
HEADER
  9
$ACADVER
  1
AC1018
  9
$ACADMAINTVER
 70
     0
  9
$DWGCODEPAGE
  3
ANSI_1252
  9
$INSBASE
 10
0.0
 20
0.0
 30
0.0
  9
$EXTMIN
 10
307.58515780381
 20
197.740577699286
 30
0.0
  9
$EXTMAX
 10
429.886621016929
 20
450.778747468259
 30
0.0
  9
$LIMMIN
 10
0.0
 20
0.0
  9
$LIMMAX
 10
12.0
 20
9.0
  9
$ORTHOMODE
 70
     0
  9
$REGENMODE
 70
     1
  9
$FILLMODE
 70
     1
  9
$QTEXTMODE
 70
     0
  9
$MIRRTEXT
 70
     1
  9
$LTSCALE
 40
1.0
  9
$ATTMODE
 70
     1
  9
$TEXTSIZE
 40
0.2
  9
$TRACEWID
 40
0.05
  9
$TEXTSTYLE
  7
Standard
  9
$CLAYER
  8
0
  9
$CELTYPE
  6
ByLayer
  9
$CECOLOR
 62
   256
  9
$CELTSCALE
 40
1.0
  9
$DISPSILH
 70
     0
  9
$DIMSCALE
 40
1.0
  9
$DIMASZ
 40
0.18
  9
$DIMEXO
 40
0.0625
  9
$DIMDLI
 40
0.38
  9
$DIMRND
 40
0.0
  9
$DIMDLE
 40
0.0
  9
$DIMEXE
 40
0.18
  9
$DIMTP
 40
0.0
  9
$DIMTM
 40
0.0
  9
$DIMTXT
 40
0.18
  9
$DIMCEN
 40
0.09
  9
$DIMTSZ
 40
0.0
  9
$DIMTOL
 70
     0
  9
$DIMLIM
 70
     0
  9
$DIMTIH
 70
     1
  9
$DIMTOH
 70
     1
  9
$DIMSE1
 70
     0
  9
$DIMSE2
 70
     0
  9
$DIMTAD
 70
     0
  9
$DIMZIN
 70
     0
  9
$DIMBLK
  1

  9
$DIMASO
 70
     1
  9
$DIMSHO
 70
     1
  9
$DIMPOST
  1

  9
$DIMAPOST
  1

  9
$DIMALT
 70
     0
  9
$DIMALTD
 70
     2
  9
$DIMALTF
 40
25.4
  9
$DIMLFAC
 40
1.0
  9
$DIMTOFL
 70
     0
  9
$DIMTVP
 40
0.0
  9
$DIMTIX
 70
     0
  9
$DIMSOXD
 70
     0
  9
$DIMSAH
 70
     0
  9
$DIMBLK1
  1

  9
$DIMBLK2
  1

  9
$DIMSTYLE
  2
Standard
  9
$DIMCLRD
 70
     0
  9
$DIMCLRE
 70
     0
  9
$DIMCLRT
 70
     0
  9
$DIMTFAC
 40
1.0
  9
$DIMGAP
 40
0.09
  9
$DIMJUST
 70
     0
  9
$DIMSD1
 70
     0
  9
$DIMSD2
 70
     0
  9
$DIMTOLJ
 70
     1
  9
$DIMTZIN
 70
     0
  9
$DIMALTZ
 70
     0
  9
$DIMALTTZ
 70
     0
  9
$DIMUPT
 70
     0
  9
$DIMDEC
 70
     4
  9
$DIMTDEC
 70
     4
  9
$DIMALTU
 70
     2
  9
$DIMALTTD
 70
     2
  9
$DIMTXSTY
  7
Standard
  9
$DIMAUNIT
 70
     0
  9
$DIMADEC
 70
     0
  9
$DIMALTRND
 40
0.0
  9
$DIMAZIN
 70
     0
  9
$DIMDSEP
 70
    46
  9
$DIMATFIT
 70
     3
  9
$DIMFRAC
 70
     0
  9
$DIMLDRBLK
  1

  9
$DIMLUNIT
 70
     2
  9
$DIMLWD
 70
    -2
  9
$DIMLWE
 70
    -2
  9
$DIMTMOVE
 70
     0
  9
$LUNITS
 70
     2
  9
$LUPREC
 70
     4
  9
$SKETCHINC
 40
0.1
  9
$FILLETRAD
 40
0.5
  9
$AUNITS
 70
     0
  9
$AUPREC
 70
     0
  9
$MENU
  1
.
  9
$ELEVATION
 40
0.0
  9
$PELEVATION
 40
0.0
  9
$THICKNESS
 40
0.0
  9
$LIMCHECK
 70
     0
  9
$CHAMFERA
 40
0.5
  9
$CHAMFERB
 40
0.5
  9
$CHAMFERC
 40
1.0
  9
$CHAMFERD
 40
0.0
  9
$SKPOLY
 70
     0
  9
$TDCREATE
 40
2456603.461099433
  9
$TDUCREATE
 40
2456603.419432766
  9
$TDUPDATE
 40
2456603.461099444
  9
$TDUUPDATE
 40
2456603.419432778
  9
$TDINDWG
 40
0.0000000116
  9
$TDUSRTIMER
 40
0.0000000116
  9
$USRTIMER
 70
     1
  9
$ANGBASE
 50
0.0
  9
$ANGDIR
 70
     0
  9
$PDMODE
 70
     0
  9
$PDSIZE
 40
0.0
  9
$PLINEWID
 40
0.0
  9
$SPLFRAME
 70
     0
  9
$SPLINETYPE
 70
     6
  9
$SPLINESEGS
 70
     8
  9
$HANDSEED
  5
2E4
  9
$SURFTAB1
 70
     6
  9
$SURFTAB2
 70
     6
  9
$SURFTYPE
 70
     6
  9
$SURFU
 70
     6
  9
$SURFV
 70
     6
  9
$UCSBASE
  2

  9
$UCSNAME
  2

  9
$UCSORG
 10
0.0
 20
0.0
 30
0.0
  9
$UCSXDIR
 10
1.0
 20
0.0
 30
0.0
  9
$UCSYDIR
 10
0.0
 20
1.0
 30
0.0
  9
$UCSORTHOREF
  2

  9
$UCSORTHOVIEW
 70
     0
  9
$UCSORGTOP
 10
0.0
 20
0.0
 30
0.0
  9
$UCSORGBOTTOM
 10
0.0
 20
0.0
 30
0.0
  9
$UCSORGLEFT
 10
0.0
 20
0.0
 30
0.0
  9
$UCSORGRIGHT
 10
0.0
 20
0.0
 30
0.0
  9
$UCSORGFRONT
 10
0.0
 20
0.0
 30
0.0
  9
$UCSORGBACK
 10
0.0
 20
0.0
 30
0.0
  9
$PUCSBASE
  2

  9
$PUCSNAME
  2

  9
$PUCSORG
 10
0.0
 20
0.0
 30
0.0
  9
$PUCSXDIR
 10
1.0
 20
0.0
 30
0.0
  9
$PUCSYDIR
 10
0.0
 20
1.0
 30
0.0
  9
$PUCSORTHOREF
  2

  9
$PUCSORTHOVIEW
 70
     0
  9
$PUCSORGTOP
 10
0.0
 20
0.0
 30
0.0
  9
$PUCSORGBOTTOM
 10
0.0
 20
0.0
 30
0.0
  9
$PUCSORGLEFT
 10
0.0
 20
0.0
 30
0.0
  9
$PUCSORGRIGHT
 10
0.0
 20
0.0
 30
0.0
  9
$PUCSORGFRONT
 10
0.0
 20
0.0
 30
0.0
  9
$PUCSORGBACK
 10
0.0
 20
0.0
 30
0.0
  9
$USERI1
 70
     0
  9
$USERI2
 70
     0
  9
$USERI3
 70
     0
  9
$USERI4
 70
     0
  9
$USERI5
 70
     0
  9
$USERR1
 40
14.5
  9
$USERR2
 40
0.0
  9
$USERR3
 40
0.0
  9
$USERR4
 40
0.0
  9
$USERR5
 40
0.0
  9
$WORLDVIEW
 70
     1
  9
$SHADEDGE
 70
     3
  9
$SHADEDIF
 70
    70
  9
$TILEMODE
 70
     1
  9
$MAXACTVP
 70
    64
  9
$PINSBASE
 10
0.0
 20
0.0
 30
0.0
  9
$PLIMCHECK
 70
     0
  9
$PEXTMIN
 10
1.00000000000000E+20
 20
1.00000000000000E+20
 30
1.00000000000000E+20
  9
$PEXTMAX
 10
-1.00000000000000E+20
 20
-1.00000000000000E+20
 30
-1.00000000000000E+20
  9
$PLIMMIN
 10
0.0
 20
0.0
  9
$PLIMMAX
 10
12.0
 20
9.0
  9
$UNITMODE
 70
     0
  9
$VISRETAIN
 70
     1
  9
$PLINEGEN
 70
     0
  9
$PSLTSCALE
 70
     1
  9
$TREEDEPTH
 70
  3020
  9
$CMLSTYLE
  2
Standard
  9
$CMLJUST
 70
     0
  9
$CMLSCALE
 40
1.0
  9
$PROXYGRAPHICS
 70
     1
  9
$MEASUREMENT
 70
     1
  9
$CELWEIGHT
370
    -1
  9
$ENDCAPS
280
     0
  9
$JOINSTYLE
280
     0
  9
$LWDISPLAY
290
     0
  9
$INSUNITS
 70
     1
  9
$HYPERLINKBASE
  1

  9
$STYLESHEET
  1

  9
$XEDIT
290
     1
  9
$CEPSNTYPE
380
     0
  9
$PSTYLEMODE
290
     1
  9
$FINGERPRINTGUID
  2
{5A0498A6-A649-4676-94E1-AE49850639E2}
  9
$VERSIONGUID
  2
{FAEB1C32-E019-11D5-929B-00C0DF256EC4}
  9
$EXTNAMES
290
     1
  9
$PSVPSCALE
 40
0.0
  9
$OLESTARTUP
290
     0
  9
$SORTENTS
280
   127
  9
$INDEXCTL
280
     0
  9
$HIDETEXT
280
     1
  9
$XCLIPFRAME
290
     0
  9
$HALOGAP
280
     0
  9
$OBSCOLOR
 70
   257
  9
$OBSLTYPE
280
     0
  9
$INTERSECTIONDISPLAY
280
     0
  9
$INTERSECTIONCOLOR
 70
   257
  9
$DIMASSOC
280
     2
  9
$PROJECTNAME
  1

  0
ENDSEC
  0
SECTION
  2
CLASSES
  0
CLASS
  1
ACDBDICTIONARYWDFLT
  2
AcDbDictionaryWithDefault
  3
ObjectDBX Classes
 90
        0
 91
        3
280
     0
281
     0
  0
CLASS
  1

  2
exOdDbCircle
  3

 90
        0
 91
        3
280
     0
281
     1
  0
ENDSEC
  0
SECTION
  2
TABLES
  0
TABLE
  2
VPORT
  5
8
330
0
100
AcDbSymbolTable
 70
     1
  0
VPORT
  5
29
330
8
100
AcDbSymbolTableRecord
100
AcDbViewportTableRecord
  2
*Active
 70
     0
 10
0.0
 20
0.0
 11
1.0
 21
1.0
 12
368.7358894103695
 22
324.2596625837725
 13
0.0
 23
0.0
 14
0.5
 24
0.5
 15
0.5
 25
0.5
 16
0.0
 26
0.0
 36
1.0
 17
0.0
 27
0.0
 37
0.0
 40
278.3419867458703
 41
1.60267857142857
 42
50.0
 43
0.0
 44
0.0
 50
0.0
 51
0.0
 71
     0
 72
   100
 73
     1
 74
     3
 75
     0
 76
     0
 77
     0
 78
     0
281
     0
 65
     1
110
0.0
120
0.0
130
0.0
111
1.0
121
0.0
131
0.0
112
0.0
122
1.0
132
0.0
 79
     0
146
0.0
  0
ENDTAB
  0
TABLE
  2
LTYPE
  5
5
330
0
100
AcDbSymbolTable
 70
     9
  0
LTYPE
  5
14
330
5
100
AcDbSymbolTableRecord
100
AcDbLinetypeTableRecord
  2
ByBlock
 70
     0
  3

 72
    65
 73
     0
 40
0.0
  0
LTYPE
  5
15
330
5
100
AcDbSymbolTableRecord
100
AcDbLinetypeTableRecord
  2
ByLayer
 70
     0
  3

 72
    65
 73
     0
 40
0.0
  0
LTYPE
  5
16
330
5
100
AcDbSymbolTableRecord
100
AcDbLinetypeTableRecord
  2
Continuous
 70
     0
  3
Solid line
 72
    65
 73
     0
 40
0.0
  0
LTYPE
  5
2A
330
5
100
AcDbSymbolTableRecord
100
AcDbLinetypeTableRecord
  2
DASHED
 70
     0
  3
Dashed
 72
    65
 73
     2
 40
15.0
 49
7.0
 74
     0
 49
-8.0
 74
     0
  0
LTYPE
  5
2B
330
5
100
AcDbSymbolTableRecord
100
AcDbLinetypeTableRecord
  2
DOTTED
 70
     0
  3
Dotted
 72
    65
 73
     2
 40
1.0
 49
0.0
 74
     0
 49
-1.0
 74
     0
  0
LTYPE
  5
2C
330
5
100
AcDbSymbolTableRecord
100
AcDbLinetypeTableRecord
  2
DOT_CENTER
 70
     0
  3
Dot_Center
 72
    65
 73
     4
 40
14.0
 49
12.0
 74
     0
 49
-1.0
 74
     0
 49
0.0
 74
     0
 49
-1.0
 74
     0
  0
LTYPE
  5
2D
330
5
100
AcDbSymbolTableRecord
100
AcDbLinetypeTableRecord
  2
LONG_DASHED
 70
     0
  3
Long_Dashed
 72
    65
 73
     2
 40
15.0
 49
10.0
 74
     0
 49
-5.0
 74
     0
  0
LTYPE
  5
2E
330
5
100
AcDbSymbolTableRecord
100
AcDbLinetypeTableRecord
  2
DASH_CENTER
 70
     0
  3
Dash_Center
 72
    65
 73
     4
 40
14.0
 49
11.0
 74
     0
 49
-1.0
 74
     0
 49
1.0
 74
     0
 49
-1.0
 74
     0
  0
LTYPE
  5
2F
330
5
100
AcDbSymbolTableRecord
100
AcDbLinetypeTableRecord
  2
PHANTOM
 70
     0
  3
Phantom
 72
    65
 73
     6
 40
13.0
 49
10.0
 74
     0
 49
-1.0
 74
     0
 49
0.0
 74
     0
 49
-1.0
 74
     0
 49
0.0
 74
     0
 49
-1.0
 74
     0
  0
LTYPE
  5
30
330
5
100
AcDbSymbolTableRecord
100
AcDbLinetypeTableRecord
  2
CENTER_DASH_DASH
 70
     0
  3
Center_Dash_Dash
 72
    65
 73
     6
 40
14.0
 49
9.0
 74
     0
 49
-1.0
 74
     0
 49
1.0
 74
     0
 49
-1.0
 74
     0
 49
1.0
 74
     0
 49
-1.0
 74
     0
  0
LTYPE
  5
31
330
5
100
AcDbSymbolTableRecord
100
AcDbLinetypeTableRecord
  2
CENTER
 70
     0
  3
CENTER
 72
    65
 73
     4
 40
14.0
 49
8.0
 74
     0
 49
-2.0
 74
     0
 49
2.0
 74
     0
 49
-2.0
 74
     0
  0
ENDTAB
  0
TABLE
  2
LAYER
  5
2
330
0
100
AcDbSymbolTable
 70
     6
  0
LAYER
  5
10
330
2
100
AcDbSymbolTableRecord
100
AcDbLayerTableRecord
  2
0
 70
     0
 62
     7
  6
Continuous
370
    -3
390
F
  0
LAYER
  5
32
330
2
100
AcDbSymbolTableRecord
100
AcDbLayerTableRecord
  2
1
 70
     0
 62
     7
  6
Continuous
370
    -3
390
F
  0
LAYER
  5
33
330
2
100
AcDbSymbolTableRecord
100
AcDbLayerTableRecord
  2
A_ACHSEN
 70
     0
 62
     7
  6
Continuous
370
    -3
390
F
  0
LAYER
  5
34
330
2
100
AcDbSymbolTableRecord
100
AcDbLayerTableRecord
  2
A_BEMASSUNGEN
 70
     0
 62
     7
  6
Continuous
370
    -3
390
F
  0
LAYER
  5
35
330
2
100
AcDbSymbolTableRecord
100
AcDbLayerTableRecord
  2
A_FASEN
 70
     0
 62
     7
  6
Continuous
370
    -3
390
F
  0
LAYER
  5
36
330
2
100
AcDbSymbolTableRecord
100
AcDbLayerTableRecord
  2
DEFAULT_1
 70
     0
 62
     7
  6
Continuous
370
    -3
390
F
  0
ENDTAB
  0
TABLE
  2
STYLE
  5
3
330
0
100
AcDbSymbolTable
 70
     2
  0
STYLE
  5
11
330
3
100
AcDbSymbolTableRecord
100
AcDbTextStyleTableRecord
  2
Standard
 70
     0
 40
0.0
 41
1.0
 50
0.0
 71
     0
 42
0.2
  3
txt
  4

  0
STYLE
  5
2BD
330
3
100
AcDbSymbolTableRecord
100
AcDbTextStyleTableRecord
  2
CONVERTER_11
 70
     0
 40
0.0
 41
0.9
 50
0.0
 71
     0
 42
0.2
  3
txt.shx
  4

  0
ENDTAB
  0
TABLE
  2
VIEW
  5
6
330
0
100
AcDbSymbolTable
 70
     0
  0
ENDTAB
  0
TABLE
  2
UCS
  5
7
330
0
100
AcDbSymbolTable
 70
     0
  0
ENDTAB
  0
TABLE
  2
APPID
  5
9
330
0
100
AcDbSymbolTable
 70
     1
  0
APPID
  5
12
330
9
100
AcDbSymbolTableRecord
100
AcDbRegAppTableRecord
  2
ACAD
 70
     0
  0
ENDTAB
  0
TABLE
  2
DIMSTYLE
  5
A
330
0
100
AcDbSymbolTable
 70
     5
100
AcDbDimStyleTable
  0
DIMSTYLE
105
27
330
A
100
AcDbSymbolTableRecord
100
AcDbDimStyleTableRecord
  2
Standard
 70
     0
340
11
  0
DIMSTYLE
105
2C1
102
{ACAD_REACTORS
330
2C2
102
}
330
A
100
AcDbSymbolTableRecord
100
AcDbDimStyleTableRecord
  2
ME10_DIM_10
 70
     0
 41
3.5
 42
0.0
 44
2.0
 73
     0
 74
     0
 77
     1
 78
     8
140
3.5
147
2.0
172
     1
173
     1
176
     2
177
     2
178
     2
271
     3
340
2BD
  0
DIMSTYLE
105
2CC
102
{ACAD_REACTORS
330
2CD
102
}
330
A
100
AcDbSymbolTableRecord
100
AcDbDimStyleTableRecord
  2
ME10_DIM_11
 70
     0
 41
3.5
 42
0.0
 44
2.0
 73
     0
 74
     0
 77
     1
 78
     8
140
3.5
147
2.0
172
     1
173
     1
176
     2
177
     2
178
     2
271
     3
340
2BD
  0
DIMSTYLE
105
2D7
102
{ACAD_REACTORS
330
2D8
102
}
330
A
100
AcDbSymbolTableRecord
100
AcDbDimStyleTableRecord
  2
ME10_DIM_12
 70
     0
 41
3.5
 42
0.0
 44
2.0
 73
     0
 74
     0
 77
     1
 78
     8
140
3.5
147
2.0
172
     1
173
     1
176
     2
177
     2
178
     2
271
     3
340
2BD
  0
DIMSTYLE
105
2E2
102
{ACAD_REACTORS
330
2E3
102
}
330
A
100
AcDbSymbolTableRecord
100
AcDbDimStyleTableRecord
  2
ME10_DIM_13
 70
     0
 41
3.5
 42
0.0
 44
2.0
 73
     0
 74
     0
 77
     1
 78
     8
140
3.5
147
2.0
172
     1
173
     1
176
     2
177
     2
178
     2
271
     3
340
2BD
  0
ENDTAB
  0
TABLE
  2
BLOCK_RECORD
  5
1
330
0
100
AcDbSymbolTable
 70
     5
  0
BLOCK_RECORD
  5
1F
330
1
100
AcDbSymbolTableRecord
100
AcDbBlockTableRecord
  2
*Model_Space
340
22
  0
BLOCK_RECORD
  5
1B
330
1
100
AcDbSymbolTableRecord
100
AcDbBlockTableRecord
  2
*Paper_Space
340
1E
  0
BLOCK_RECORD
  5
23
330
1
100
AcDbSymbolTableRecord
100
AcDbBlockTableRecord
  2
*Paper_Space0
340
26
  0
BLOCK_RECORD
  5
2B7
330
1
100
AcDbSymbolTableRecord
100
AcDbBlockTableRecord
  2
*D1
340
0
  0
BLOCK_RECORD
  5
2C3
330
1
100
AcDbSymbolTableRecord
100
AcDbBlockTableRecord
  2
*D2
340
0
  0
BLOCK_RECORD
  5
2CE
330
1
100
AcDbSymbolTableRecord
100
AcDbBlockTableRecord
  2
*D3
340
0
  0
BLOCK_RECORD
  5
2D9
330
1
100
AcDbSymbolTableRecord
100
AcDbBlockTableRecord
  2
*D4
340
0
  0
ENDTAB
  0
ENDSEC
  0
SECTION
  2
BLOCKS
  0
BLOCK
  5
20
330
1F
100
AcDbEntity
  8
0
100
AcDbBlockBegin
  2
*Model_Space
 70
     0
 71
     0
 10
0.0
 20
0.0
 30
0.0
  3
*Model_Space
  1

  0
ENDBLK
  5
21
330
1F
100
AcDbEntity
  8
0
100
AcDbBlockEnd
  0
BLOCK
  5
1C
330
1B
100
AcDbEntity
 67
     1
  8
0
100
AcDbBlockBegin
  2
*Paper_Space
 70
     0
 71
     0
 10
0.0
 20
0.0
 30
0.0
  3
*Paper_Space
  1

  0
ENDBLK
  5
1D
330
1B
100
AcDbEntity
 67
     1
  8
0
100
AcDbBlockEnd
  0
BLOCK
  5
24
330
23
100
AcDbEntity
  8
0
100
AcDbBlockBegin
  2
*Paper_Space0
 70
     0
 71
     0
 10
0.0
 20
0.0
 30
0.0
  3
*Paper_Space0
  1

  0
ENDBLK
  5
25
330
23
100
AcDbEntity
  8
0
100
AcDbBlockEnd
  0
BLOCK
  5
2BF
330
2B7
100
AcDbEntity
  8
0
100
AcDbBlockBegin
  2
*D1
 70
     1
 71
     0
 10
0.0
 20
0.0
 30
0.0
  3
*D1
  1

  0
LINE
  5
2B8
330
2B7
100
AcDbEntity
  8
1
  6
Continuous
 62
     2
100
AcDbLine
 10
323.236621016929
 20
288.868534190121
 30
0.0
 11
347.036621016929
 21
288.868534190121
 31
0.0
  0
LINE
  5
2B9
330
2B7
100
AcDbEntity
  8
1
  6
Continuous
 62
     2
100
AcDbLine
 10
323.236621016929
 20
258.428747468259
 30
0.0
 11
323.236621016929
 21
290.868534190121
 31
0.0
  0
LINE
  5
2BA
330
2B7
100
AcDbEntity
  8
1
  6
Continuous
 62
     2
100
AcDbLine
 10
347.036621016929
 20
258.428747468259
 30
0.0
 11
347.036621016929
 21
290.868534190121
 31
0.0
  0
SOLID
  5
2BB
330
2B7
100
AcDbEntity
  8
1
 62
     2
100
AcDbTrace
 10
326.736621016929
 20
289.3293179316769
 30
0.0
 11
326.736621016929
 21
288.4077504485651
 31
0.0
 12
323.236621016929
 22
288.868534190121
 32
0.0
 13
323.236621016929
 23
288.868534190121
 33
0.0
  0
SOLID
  5
2BC
330
2B7
100
AcDbEntity
  8
1
 62
     2
100
AcDbTrace
 10
343.536621016929
 20
288.4077504485651
 30
0.0
 11
343.536621016929
 21
289.3293179316769
 31
0.0
 12
347.036621016929
 22
288.868534190121
 32
0.0
 13
347.036621016929
 23
288.868534190121
 33
0.0
  0
MTEXT
  5
2BE
330
2B7
100
AcDbEntity
  8
1
 62
     2
100
AcDbMText
 10
331.993291852122
 20
290.868534190121
 30
0.0
 40
3.5
 41
0.0
 71
     7
 72
     1
  1
24
  7
CONVERTER_11
 11
0.9999999999970621
 21
2.424068405545307E-6
 31
0.0
 73
     1
 44
0.60024009603842
  0
ENDBLK
  5
2C0
330
2B7
100
AcDbEntity
  8
0
100
AcDbBlockEnd
  0
BLOCK
  5
2CA
330
2C3
100
AcDbEntity
  8
0
100
AcDbBlockBegin
  2
*D2
 70
     1
 71
     0
 10
0.0
 20
0.0
 30
0.0
  3
*D2
  1

  0
LINE
  5
2C4
330
2C3
100
AcDbEntity
  8
1
  6
Continuous
 62
     2
100
AcDbLine
 10
427.886621016929
 20
450.778747468259
 30
0.0
 11
427.886621016929
 21
210.778747468259
 31
0.0
  0
LINE
  5
2C5
330
2C3
100
AcDbEntity
  8
1
  6
Continuous
 62
     2
100
AcDbLine
 10
414.136621016929
 20
450.778747468259
 30
0.0
 11
429.886621016929
 21
450.778747468259
 31
0.0
  0
LINE
  5
2C6
330
2C3
100
AcDbEntity
  8
1
  6
Continuous
 62
     2
100
AcDbLine
 10
414.136621016929
 20
210.778747468259
 30
0.0
 11
429.886621016929
 21
210.778747468259
 31
0.0
  0
SOLID
  5
2C7
330
2C3
100
AcDbEntity
  8
1
 62
     2
100
AcDbTrace
 10
428.3474047584849
 20
447.278747468259
 30
0.0
 11
427.4258372753731
 21
447.278747468259
 31
0.0
 12
427.886621016929
 22
450.778747468259
 32
0.0
 13
427.886621016929
 23
450.778747468259
 33
0.0
  0
SOLID
  5
2C8
330
2C3
100
AcDbEntity
  8
1
 62
     2
100
AcDbTrace
 10
427.4258372753731
 20
214.278747468259
 30
0.0
 11
428.3474047584849
 21
214.278747468259
 31
0.0
 12
427.886621016929
 22
210.778747468259
 32
0.0
 13
427.886621016929
 23
210.778747468259
 33
0.0
  0
MTEXT
  5
2C9
330
2C3
100
AcDbEntity
  8
1
 62
     2
100
AcDbMText
 10
425.886621016929
 20
326.058602685375
 30
0.0
 40
3.5
 41
0.0
 71
     7
 72
     1
  1
240
  7
CONVERTER_11
 11
0.0
 21
1.0
 31
0.0
 73
     1
 44
0.60024009603842
  0
ENDBLK
  5
2CB
330
2C3
100
AcDbEntity
  8
0
100
AcDbBlockEnd
  0
BLOCK
  5
2D5
330
2CE
100
AcDbEntity
  8
0
100
AcDbBlockBegin
  2
*D3
 70
     1
 71
     0
 10
0.0
 20
0.0
 30
0.0
  3
*D3
  1

  0
LINE
  5
2CF
330
2CE
100
AcDbEntity
  8
1
  6
Continuous
 62
     2
100
AcDbLine
 10
313.08515780381
 20
435.278747468259
 30
0.0
 11
313.08515780381
 21
226.278747468259
 31
0.0
  0
LINE
  5
2D0
330
2CE
100
AcDbEntity
  8
1
  6
Continuous
 62
     2
100
AcDbLine
 10
335.882474464329
 20
435.278747468259
 30
0.0
 11
311.08515780381
 21
435.278747468259
 31
0.0
  0
LINE
  5
2D1
330
2CE
100
AcDbEntity
  8
1
  6
Continuous
 62
     2
100
AcDbLine
 10
340.136621016929
 20
226.278747468259
 30
0.0
 11
311.08515780381
 21
226.278747468259
 31
0.0
  0
SOLID
  5
2D2
330
2CE
100
AcDbEntity
  8
1
 62
     2
100
AcDbTrace
 10
313.5459415453658
 20
431.778747468259
 30
0.0
 11
312.6243740622541
 21
431.778747468259
 31
0.0
 12
313.08515780381
 22
435.278747468259
 32
0.0
 13
313.08515780381
 23
435.278747468259
 33
0.0
  0
SOLID
  5
2D3
330
2CE
100
AcDbEntity
  8
1
 62
     2
100
AcDbTrace
 10
312.6243740622541
 20
229.778747468259
 30
0.0
 11
313.5459415453658
 21
229.778747468259
 31
0.0
 12
313.08515780381
 22
226.278747468259
 32
0.0
 13
313.08515780381
 23
226.278747468259
 33
0.0
  0
MTEXT
  5
2D4
330
2CE
100
AcDbEntity
  8
1
 62
     2
100
AcDbMText
 10
311.08515780381
 20
326.47975624293
 30
0.0
 40
3.5
 41
0.0
 71
     7
 72
     1
  1
209
  7
CONVERTER_11
 11
0.0
 21
1.0
 31
0.0
 73
     1
 44
0.60024009603842
  0
ENDBLK
  5
2D6
330
2CE
100
AcDbEntity
  8
0
100
AcDbBlockEnd
  0
BLOCK
  5
2E0
330
2D9
100
AcDbEntity
  8
0
100
AcDbBlockBegin
  2
*D4
 70
     1
 71
     0
 10
0.0
 20
0.0
 30
0.0
  3
*D4
  1

  0
LINE
  5
2DA
330
2D9
100
AcDbEntity
  8
1
  6
Continuous
 62
     2
100
AcDbLine
 10
340.136621016929
 20
199.740577699286
 30
0.0
 11
414.136621016929
 21
199.740577699286
 31
0.0
  0
LINE
  5
2DB
330
2D9
100
AcDbEntity
  8
1
  6
Continuous
 62
     2
100
AcDbLine
 10
340.136621016929
 20
210.778747468259
 30
0.0
 11
340.136621016929
 21
197.740577699286
 31
0.0
  0
LINE
  5
2DC
330
2D9
100
AcDbEntity
  8
1
  6
Continuous
 62
     2
100
AcDbLine
 10
414.136621016929
 20
210.778747468259
 30
0.0
 11
414.136621016929
 21
197.740577699286
 31
0.0
  0
SOLID
  5
2DD
330
2D9
100
AcDbEntity
  8
1
 62
     2
100
AcDbTrace
 10
343.636621016929
 20
200.2013614408419
 30
0.0
 11
343.636621016929
 21
199.2797939577301
 31
0.0
 12
340.136621016929
 22
199.740577699286
 32
0.0
 13
340.136621016929
 23
199.740577699286
 33
0.0
  0
SOLID
  5
2DE
330
2D9
100
AcDbEntity
  8
1
 62
     2
100
AcDbTrace
 10
410.636621016929
 20
199.2797939577301
 30
0.0
 11
410.636621016929
 21
200.2013614408419
 31
0.0
 12
414.136621016929
 22
199.740577699286
 32
0.0
 13
414.136621016929
 23
199.740577699286
 33
0.0
  0
MTEXT
  5
2DF
330
2D9
100
AcDbEntity
  8
1
 62
     2
100
AcDbMText
 10
371.855834618847
 20
201.740577699286
 30
0.0
 40
3.5
 41
0.0
 71
     7
 72
     1
  1
74
  7
CONVERTER_11
 11
0.9999999999970621
 21
2.424068405545307E-6
 31
0.0
 73
     1
 44
0.60024009603842
  0
ENDBLK
  5
2E1
330
2D9
100
AcDbEntity
  8
0
100
AcDbBlockEnd
  0
ENDSEC
  0
SECTION
  2
ENTITIES
  0
POINT
  5
37
330
1F
100
AcDbEntity
  8
A_BEMASSUNGEN
 62
     7
100
AcDbPoint
 10
414.136621016929
 20
210.778747468259
 30
0.0
  0
POINT
  5
38
330
1F
100
AcDbEntity
  8
A_BEMASSUNGEN
 62
     7
100
AcDbPoint
 10
323.136621016929
 20
238.278747468259
 30
0.0
  0
POINT
  5
39
330
1F
100
AcDbEntity
  8
A_BEMASSUNGEN
 62
     7
100
AcDbPoint
 10
347.036621016929
 20
258.428747468259
 30
0.0
  0
POINT
  5
3A
330
1F
100
AcDbEntity
  8
A_BEMASSUNGEN
 62
     7
100
AcDbPoint
 10
323.136621016929
 20
271.397055238759
 30
0.0
  0
POINT
  5
3B
330
1F
100
AcDbEntity
  8
A_BEMASSUNGEN
 62
     7
100
AcDbPoint
 10
335.136621016929
 20
226.248747468259
 30
0.0
  0
POINT
  5
3C
330
1F
100
AcDbEntity
  8
A_BEMASSUNGEN
 62
     7
100
AcDbPoint
 10
335.136621016929
 20
435.308747468259
 30
0.0
  0
POINT
  5
3D
330
1F
100
AcDbEntity
  8
A_BEMASSUNGEN
 62
     7
100
AcDbPoint
 10
414.136621016929
 20
210.778747468259
 30
0.0
  0
POINT
  5
3E
330
1F
100
AcDbEntity
  8
A_BEMASSUNGEN
 62
     7
100
AcDbPoint
 10
414.136621016929
 20
450.778747468259
 30
0.0
  0
LINE
  5
3F
330
1F
100
AcDbEntity
  8
A_ACHSEN
  6
CENTER
 62
     2
100
AcDbLine
 10
320.636621016929
 20
330.778747468259
 30
0.0
 11
353.881929357629
 21
330.778747468259
 31
0.0
  0
LINE
  5
40
330
1F
100
AcDbEntity
  8
0
  6
Continuous
 62
     7
100
AcDbLine
 10
414.136621016929
 20
450.778747468259
 30
0.0
 11
340.136621016929
 21
450.778747468259
 31
0.0
  0
LINE
  5
41
330
1F
100
AcDbEntity
  8
A_ACHSEN
  6
Continuous
 62
     7
100
AcDbLine
 10
358.136621016929
 20
443.778747468259
 30
0.0
 11
375.136621016929
 21
443.778747468259
 31
0.0
  0
LINE
  5
42
330
1F
100
AcDbEntity
  8
0
  6
Continuous
 62
     7
100
AcDbLine
 10
350.278559241429
 20
443.203444830359
 30
0.0
 11
349.434257265129
 21
443.176618380159
 31
0.0
  0
LINE
  5
43
330
1F
100
AcDbEntity
  8
0
  6
Continuous
 62
     7
100
AcDbLine
 10
344.838984768729
 20
443.176618380159
 30
0.0
 11
343.994682792429
 21
443.203444830359
 31
0.0
  0
LINE
  5
44
330
1F
100
AcDbEntity
  8
0
  6
Continuous
 62
     7
100
AcDbLine
 10
349.434257265129
 20
438.380876556359
 30
0.0
 11
350.278559241429
 21
438.354050106159
 31
0.0
  0
LINE
  5
45
330
1F
100
AcDbEntity
  8
A_ACHSEN
  6
CENTER
 62
     2
100
AcDbLine
 10
340.704571333929
 20
440.778747468259
 30
0.0
 11
353.964952329629
 21
440.778747468259
 31
0.0
  0
LINE
  5
46
330
1F
100
AcDbEntity
  8
A_ACHSEN
  6
CENTER
 62
     2
100
AcDbLine
 10
382.653586328529
 20
439.778747468259
 30
0.0
 11
352.339286574229
 21
439.778747468259
 31
0.0
  0
LINE
  5
47
330
1F
100
AcDbEntity
  8
A_ACHSEN
  6
Continuous
 62
     7
100
AcDbLine
 10
375.136621016929
 20
435.778747468259
 30
0.0
 11
358.136621016929
 21
435.778747468259
 31
0.0
  0
LINE
  5
48
330
1F
100
AcDbEntity
  8
0
  6
Continuous
 62
     7
100
AcDbLine
 10
340.136621016929
 20
435.278747468259
 30
0.0
 11
335.882474464329
 21
435.278747468259
 31
0.0
  0
LINE
  5
49
330
1F
100
AcDbEntity
  8
0
  6
Continuous
 62
     7
100
AcDbLine
 10
343.994682792329
 20
438.354050106159
 30
0.0
 11
344.838984768729
 21
438.380876556359
 31
0.0
  0
LINE
  5
4A
330
1F
100
AcDbEntity
  8
0
  6
Continuous
 62
     7
100
AcDbLine
 10
368.838984768729
 20
426.426618380159
 30
0.0
 11
367.994682792429
 21
426.453444830359
 31
0.0
  0
LINE
  5
4B
330
1F
100
AcDbEntity
  8
A_ACHSEN
  6
CENTER
 62
     2
100
AcDbLine
 10
336.966277339129
 20
426.778747468259
 30
0.0
 11
343.568081239429
 21
426.778747468259
 31
0.0
  0
LINE
  5
4C
330
1F
100
AcDbEntity
  8
0
  6
Continuous
 62
     7
100
AcDbLine
 10
374.278559241429
 20
426.453444830359
 30
0.0
 11
373.434257265129
 21
426.426618380159
 31
0.0
  0
LINE
  5
4D
330
1F
100
AcDbEntity
  8
0
  6
Continuous
 62
     7
100
AcDbLine
 10
381.838984768729
 20
423.176618380159
 30
0.0
 11
380.994682792429
 21
423.203444830359
 31
0.0
  0
LINE
  5
4E
330
1F
100
AcDbEntity
  8
0
  6
Continuous
 62
     7
100
AcDbLine
 10
373.434257265129
 20
421.630876556359
 30
0.0
 11
374.278559241429
 21
421.604050106159
 31
0.0
  0
LINE
  5
4F
330
1F
100
AcDbEntity
  8
0
  6
Continuous
 62
     7
100
AcDbLine
 10
386.434257265129
 20
418.380876556359
 30
0.0
 11
387.278559241429
 21
418.354050106159
 31
0.0
  0
LINE
  5
50
330
1F
100
AcDbEntity
  8
A_ACHSEN
  6
CENTER
 62
     2
100
AcDbLine
 10
363.792042016629
 20
424.028747468259
 30
0.0
 11
378.116418159029
 21
424.028747468259
 31
0.0
  0
LINE
  5
51
330
1F
100
AcDbEntity
  8
A_ACHSEN
  6
CENTER
 62
     2
100
AcDbLine
 10
320.618201368029
 20
423.808747468259
 30
0.0
 11
348.325181057429
 21
423.808747468259
 31
0.0
  0
LINE
  5
52
330
1F
100
AcDbEntity
  8
A_ACHSEN
  6
CENTER
 62
     2
100
AcDbLine
 10
350.736621016929
 20
423.778747468259
 30
0.0
 11
359.536621016929
 21
423.778747468259
 31
0.0
  0
LINE
  5
53
330
1F
100
AcDbEntity
  8
A_ACHSEN
  6
Continuous
 62
     2
100
AcDbLine
 10
330.136621016529
 20
421.778747468259
 30
0.0
 11
330.143947354329
 21
421.778747468259
 31
0.0
  0
LINE
  5
54
330
1F
100
AcDbEntity
  8
A_ACHSEN
  6
CENTER
 62
     2
100
AcDbLine
 10
325.995452161729
 20
421.778747468259
 30
0.0
 11
330.136621016529
 21
421.778747468259
 31
0.0
  0
LINE
  5
55
330
1F
100
AcDbEntity
  8
A_ACHSEN
  6
CENTER
 62
     2
100
AcDbLine
 10
334.291398825129
 20
421.778747468259
 30
0.0
 11
330.143947354329
 21
421.778747468259
 31
0.0
  0
LINE
  5
56
330
1F
100
AcDbEntity
  8
A_ACHSEN
  6
Continuous
 62
     2
100
AcDbLine
 10
383.624429047229
 20
420.778747468259
 30
0.0
 11
384.136621016929
 21
420.778747467859
 31
0.0
  0
LINE
  5
57
330
1F
100
AcDbEntity
  8
A_ACHSEN
  6
CENTER
 62
     2
100
AcDbLine
 10
377.516479581729
 20
420.778747468259
 30
0.0
 11
383.624429047229
 21
420.778747468259
 31
0.0
  0
LINE
  5
58
330
1F
100
AcDbEntity
  8
A_ACHSEN
  6
CENTER
 62
     2
100
AcDbLine
 10
388.536621016929
 20
420.778747468259
 30
0.0
 11
384.136621016929
 21
420.778747467859
 31
0.0
  0
LINE
  5
59
330
1F
100
AcDbEntity
  8
A_ACHSEN
  6
Continuous
 62
     7
100
AcDbLine
 10
333.136621016929
 20
419.808747468259
 30
0.0
 11
335.136621016929
 21
419.808747468259
 31
0.0
  0
LINE
  5
5A
330
1F
100
AcDbEntity
  8
A_ACHSEN
  6
Continuous
 62
     7
100
AcDbLine
 10
324.354691690529
 20
419.808747468259
 30
0.0
 11
327.136621016929
 21
419.808747468259
 31
0.0
  0
LINE
  5
5B
330
1F
100
AcDbEntity
  8
0
  6
Continuous
 62
     7
100
AcDbLine
 10
387.278559241429
 20
423.203444830359
 30
0.0
 11
386.434257265129
 21
423.176618380159
 31
0.0
  0
LINE
  5
5C
330
1F
100
AcDbEntity
  8
0
  6
Continuous
 62
     7
100
AcDbLine
 10
367.994682792429
 20
421.604050106159
 30
0.0
 11
368.838984768729
 21
421.630876556359
 31
0.0
  0
LINE
  5
5D
330
1F
100
AcDbEntity
  8
0
  6
Continuous
 62
     7
100
AcDbLine
 10
380.994682792329
 20
418.354050106159
 30
0.0
 11
381.838984768729
 21
418.380876556359
 31
0.0
  0
LINE
  5
5E
330
1F
100
AcDbEntity
  8
0
  6
Continuous
 62
     7
100
AcDbLine
 10
391.838984768729
 20
409.176618380159
 30
0.0
 11
390.994682792329
 21
409.203444830359
 31
0.0
  0
LINE
  5
5F
330
1F
100
AcDbEntity
  8
0
  6
Continuous
 62
     7
100
AcDbLine
 10
323.136621016929
 20
412.028747468259
 30
0.0
 11
325.600505455529
 21
412.028747468259
 31
0.0
  0
LINE
  5
60
330
1F
100
AcDbEntity
  8
0
  6
Continuous
 62
     7
100
AcDbLine
 10
396.434257265129
 20
404.380876556359
 30
0.0
 11
397.278559241429
 21
404.354050106159
 31
0.0
  0
LINE
  5
61
330
1F
100
AcDbEntity
  8
A_ACHSEN
  6
CENTER
 62
     2
100
AcDbLine
 10
327.557508920729
 20
408.528747468259
 30
0.0
 11
342.715733113129
 21
408.528747468259
 31
0.0
  0
LINE
  5
62
330
1F
100
AcDbEntity
  8
A_ACHSEN
  6
CENTER
 62
     2
100
AcDbLine
 10
386.605365692929
 20
406.778747468259
 30
0.0
 11
400.967165561529
 21
406.778747468259
 31
0.0
  0
LINE
  5
63
330
1F
100
AcDbEntity
  8
0
  6
Continuous
 62
     7
100
AcDbLine
 10
397.278559241429
 20
409.203444830359
 30
0.0
 11
396.434257265129
 21
409.176618380159
 31
0.0
  0
LINE
  5
64
330
1F
100
AcDbEntity
  8
0
  6
Continuous
 62
     7
100
AcDbLine
 10
390.994682792429
 20
404.354050106159
 30
0.0
 11
391.838984768729
 21
404.380876556359
 31
0.0
  0
LINE
  5
65
330
1F
100
AcDbEntity
  8
0
  6
Continuous
 62
     7
100
AcDbLine
 10
405.064420017529
 20
396.967494283759
 30
0.0
 11
404.665501416629
 21
397.712094468859
 31
0.0
  0
LINE
  5
66
330
1F
100
AcDbEntity
  8
0
  6
Continuous
 62
     7
100
AcDbLine
 10
407.807439641229
 20
392.270097829759
 30
0.0
 11
407.362056265729
 21
392.987871564659
 31
0.0
  0
LINE
  5
67
330
1F
100
AcDbEntity
  8
0
  6
Continuous
 62
     7
100
AcDbLine
 10
397.807439641229
 20
405.270097829759
 30
0.0
 11
397.362056265729
 21
405.987871564659
 31
0.0
  0
LINE
  5
68
330
1F
100
AcDbEntity
  8
0
  6
Continuous
 62
     7
100
AcDbLine
 10
387.807439641229
 20
419.270097829759
 30
0.0
 11
387.362056265729
 21
419.987871564659
 31
0.0
  0
LINE
  5
69
330
1F
100
AcDbEntity
  8
0
  6
Continuous
 62
     7
100
AcDbLine
 10
400.465802392629
 20
395.287397106759
 30
0.0
 11
400.911185768129
 21
394.569623371959
 31
0.0
  0
LINE
  5
6A
330
1F
100
AcDbEntity
  8
0
  6
Continuous
 62
     7
100
AcDbLine
 10
401.838984768729
 20
396.176618380159
 30
0.0
 11
400.994682792429
 21
396.203444830359
 31
0.0
  0
LINE
  5
6B
330
1F
100
AcDbEntity
  8
0
  6
Continuous
 62
     7
100
AcDbLine
 10
406.434257265129
 20
391.380876556359
 30
0.0
 11
407.278559241429
 21
391.354050106159
 31
0.0
  0
LINE
  5
6C
330
1F
100
AcDbEntity
  8
A_ACHSEN
  6
Continuous
 62
     7
100
AcDbLine
 10
372.136621016929
 20
397.278747468259
 30
0.0
 11
379.136621016929
 21
397.278747468259
 31
0.0
  0
LINE
  5
6D
330
1F
100
AcDbEntity
  8
0
  6
Continuous
 62
     3
100
AcDbLine
 10
336.291321555329
 20
396.778747468259
 30
0.0
 11
333.981920478529
 21
396.778747468259
 31
0.0
  0
LINE
  5
6E
330
1F
100
AcDbEntity
  8
A_ACHSEN
  6
Continuous
 62
     2
100
AcDbLine
 10
335.071178466129
 20
394.778747468259
 30
0.0
 11
335.136621017329
 21
394.778747468259
 31
0.0
  0
LINE
  5
6F
330
1F
100
AcDbEntity
  8
A_ACHSEN
  6
CENTER
 62
     2
100
AcDbLine
 10
326.610754603729
 20
394.778747468259
 30
0.0
 11
335.071178466129
 21
394.778747468259
 31
0.0
  0
LINE
  5
70
330
1F
100
AcDbEntity
  8
A_ACHSEN
  6
CENTER
 62
     2
100
AcDbLine
 10
343.044671458729
 20
394.778747468259
 30
0.0
 11
335.136621017329
 21
394.778747468259
 31
0.0
  0
LINE
  5
71
330
1F
100
AcDbEntity
  8
A_ACHSEN
  6
Continuous
 62
     2
100
AcDbLine
 10
404.136621016929
 20
393.778747468659
 30
0.0
 11
404.863170190629
 21
393.778747468259
 31
0.0
  0
LINE
  5
72
330
1F
100
AcDbEntity
  8
A_ACHSEN
  6
CENTER
 62
     2
100
AcDbLine
 10
397.143582061029
 20
393.778747468259
 30
0.0
 11
404.136621016929
 21
393.778747468659
 31
0.0
  0
LINE
  5
73
330
1F
100
AcDbEntity
  8
A_ACHSEN
  6
CENTER
 62
     2
100
AcDbLine
 10
410.429326121329
 20
393.778747468259
 30
0.0
 11
404.863170190629
 21
393.778747468259
 31
0.0
  0
LINE
  5
74
330
1F
100
AcDbEntity
  8
A_ACHSEN
  6
CENTER
 62
     2
100
AcDbLine
 10
388.840794348129
 20
393.278747468259
 30
0.0
 11
363.038451193329
 21
393.278747468259
 31
0.0
  0
LINE
  5
75
330
1F
100
AcDbEntity
  8
0
  6
Continuous
 62
     3
100
AcDbLine
 10
333.981920478529
 20
392.778747468259
 30
0.0
 11
336.291321555329
 21
392.778747468259
 31
0.0
  0
LINE
  5
76
330
1F
100
AcDbEntity
  8
0
  6
Continuous
 62
     7
100
AcDbLine
 10
407.278559241429
 20
396.203444830359
 30
0.0
 11
406.434257265129
 21
396.176618380159
 31
0.0
  0
LINE
  5
77
330
1F
100
AcDbEntity
  8
0
  6
Continuous
 62
     7
100
AcDbLine
 10
407.807439641229
 20
269.287397106759
 30
0.0
 11
407.362056265729
 21
268.569623371959
 31
0.0
  0
LINE
  5
78
330
1F
100
AcDbEntity
  8
0
  6
Continuous
 62
     7
100
AcDbLine
 10
397.807439641229
 20
256.287397106759
 30
0.0
 11
397.362056265729
 21
255.569623371959
 31
0.0
  0
LINE
  5
79
330
1F
100
AcDbEntity
  8
0
  6
Continuous
 62
     7
100
AcDbLine
 10
387.807439641229
 20
242.287397106759
 30
0.0
 11
387.362056265729
 21
241.569623371959
 31
0.0
  0
LINE
  5
7A
330
1F
100
AcDbEntity
  8
0
  6
Continuous
 62
     7
100
AcDbLine
 10
400.465802392629
 20
266.270097829759
 30
0.0
 11
400.911185768129
 21
266.987871564659
 31
0.0
  0
LINE
  5
7B
330
1F
100
AcDbEntity
  8
0
  6
Continuous
 62
     7
100
AcDbLine
 10
405.064420017529
 20
264.590000652759
 30
0.0
 11
404.665501416629
 21
263.845400467659
 31
0.0
  0
LINE
  5
7C
330
1F
100
AcDbEntity
  8
0
  6
Continuous
 62
     7
100
AcDbLine
 10
395.064420017529
 20
409.967494283759
 30
0.0
 11
394.665501416629
 21
410.712094468859
 31
0.0
  0
LINE
  5
7D
330
1F
100
AcDbEntity
  8
0
  6
Continuous
 62
     7
100
AcDbLine
 10
403.208822016329
 20
390.590000652759
 30
0.0
 11
403.607740617129
 21
389.845400467659
 31
0.0
  0
LINE
  5
7E
330
1F
100
AcDbEntity
  8
0
  6
Continuous
 62
     7
100
AcDbLine
 10
385.064420017529
 20
423.967494283759
 30
0.0
 11
384.665501416629
 21
424.712094468859
 31
0.0
  0
LINE
  5
7F
330
1F
100
AcDbEntity
  8
0
  6
Continuous
 62
     7
100
AcDbLine
 10
393.208822016329
 20
403.590000652759
 30
0.0
 11
393.607740617129
 21
402.845400467659
 31
0.0
  0
LINE
  5
80
330
1F
100
AcDbEntity
  8
0
  6
Continuous
 62
     7
100
AcDbLine
 10
383.208822016329
 20
417.590000652759
 30
0.0
 11
383.607740617129
 21
416.845400467659
 31
0.0
  0
LINE
  5
81
330
1F
100
AcDbEntity
  8
0
  6
Continuous
 62
     7
100
AcDbLine
 10
390.465802392629
 20
408.287397106759
 30
0.0
 11
390.911185768129
 21
407.569623371959
 31
0.0
  0
LINE
  5
82
330
1F
100
AcDbEntity
  8
0
  6
Continuous
 62
     7
100
AcDbLine
 10
380.465802392629
 20
422.287397106759
 30
0.0
 11
380.911185768129
 21
421.569623371959
 31
0.0
  0
LINE
  5
83
330
1F
100
AcDbEntity
  8
0
  6
Continuous
 62
     7
100
AcDbLine
 10
374.807439641229
 20
422.520097829759
 30
0.0
 11
374.362056265729
 21
423.237871564659
 31
0.0
  0
LINE
  5
84
330
1F
100
AcDbEntity
  8
0
  6
Continuous
 62
     3
100
AcDbLine
 10
337.136621016929
 20
409.683448006659
 30
0.0
 11
335.136621016929
 21
410.838148545059
 31
0.0
  0
LINE
  5
85
330
1F
100
AcDbEntity
  8
A_ACHSEN
  6
Continuous
 62
     7
100
AcDbLine
 10
379.136621016929
 20
389.278747468259
 30
0.0
 11
372.136621016929
 21
389.278747468259
 31
0.0
  0
LINE
  5
86
330
1F
100
AcDbEntity
  8
0
  6
Continuous
 62
     3
100
AcDbLine
 10
336.291321555329
 20
384.778747468259
 30
0.0
 11
333.981920478529
 21
384.778747468259
 31
0.0
  0
LINE
  5
87
330
1F
100
AcDbEntity
  8
0
  6
Continuous
 62
     7
100
AcDbLine
 10
400.994682792329
 20
391.354050106159
 30
0.0
 11
401.838984768729
 21
391.380876556359
 31
0.0
  0
LINE
  5
88
330
1F
100
AcDbEntity
  8
0
  6
Continuous
 62
     3
100
AcDbLine
 10
335.136621016929
 20
250.719346391459
 30
0.0
 11
337.136621016929
 21
251.874046929859
 31
0.0
  0
LINE
  5
89
330
1F
100
AcDbEntity
  8
0
  6
Continuous
 62
     7
100
AcDbLine
 10
390.465802392629
 20
253.270097829759
 30
0.0
 11
390.911185768129
 21
253.987871564659
 31
0.0
  0
LINE
  5
8A
330
1F
100
AcDbEntity
  8
0
  6
Continuous
 62
     7
100
AcDbLine
 10
380.465802392629
 20
239.270097829759
 30
0.0
 11
380.911185768129
 21
239.987871564659
 31
0.0
  0
LINE
  5
8B
330
1F
100
AcDbEntity
  8
0
  6
Continuous
 62
     7
100
AcDbLine
 10
374.807439641229
 20
239.037397106759
 30
0.0
 11
374.362056265729
 21
238.319623371959
 31
0.0
  0
LINE
  5
8C
330
1F
100
AcDbEntity
  8
0
  6
Continuous
 62
     7
100
AcDbLine
 10
395.064420017529
 20
251.590000652759
 30
0.0
 11
394.665501416629
 21
250.845400467659
 31
0.0
  0
LINE
  5
8D
330
1F
100
AcDbEntity
  8
0
  6
Continuous
 62
     7
100
AcDbLine
 10
403.208822016329
 20
270.967494283759
 30
0.0
 11
403.607740617129
 21
271.712094468859
 31
0.0
  0
LINE
  5
8E
330
1F
100
AcDbEntity
  8
0
  6
Continuous
 62
     7
100
AcDbLine
 10
385.064420017529
 20
237.590000652759
 30
0.0
 11
384.665501416629
 21
236.845400467659
 31
0.0
  0
LINE
  5
8F
330
1F
100
AcDbEntity
  8
0
  6
Continuous
 62
     7
100
AcDbLine
 10
393.208822016329
 20
257.967494283759
 30
0.0
 11
393.607740617129
 21
258.712094468859
 31
0.0
  0
LINE
  5
90
330
1F
100
AcDbEntity
  8
0
  6
Continuous
 62
     7
100
AcDbLine
 10
383.208822016329
 20
243.967494283759
 30
0.0
 11
383.607740617129
 21
244.712094468859
 31
0.0
  0
LINE
  5
91
330
1F
100
AcDbEntity
  8
0
  6
Continuous
 62
     7
100
AcDbLine
 10
372.064420017529
 20
427.217494283759
 30
0.0
 11
371.665501416629
 21
427.962094468859
 31
0.0
  0
LINE
  5
92
330
1F
100
AcDbEntity
  8
0
  6
Continuous
 62
     7
100
AcDbLine
 10
367.465802392629
 20
425.537397106759
 30
0.0
 11
367.911185768129
 21
424.819623371959
 31
0.0
  0
LINE
  5
93
330
1F
100
AcDbEntity
  8
0
  6
Continuous
 62
     3
100
AcDbLine
 10
333.136621016929
 20
407.374046929859
 30
0.0
 11
335.136621016929
 21
406.219346391459
 31
0.0
  0
LINE
  5
94
330
1F
100
AcDbEntity
  8
A_ACHSEN
  6
CENTER
 62
     2
100
AcDbLine
 10
326.636621016929
 20
382.778747468259
 30
0.0
 11
343.636621016929
 21
382.778747468259
 31
0.0
  0
LINE
  5
95
330
1F
100
AcDbEntity
  8
0
  6
Continuous
 62
     3
100
AcDbLine
 10
333.981920478529
 20
380.778747468259
 30
0.0
 11
336.291321555329
 21
380.778747468259
 31
0.0
  0
LINE
  5
96
330
1F
100
AcDbEntity
  8
0
  6
Continuous
 62
     7
100
AcDbLine
 10
323.236621016929
 20
380.778747468259
 30
0.0
 11
323.636621016929
 21
380.778747468259
 31
0.0
  0
LINE
  5
97
330
1F
100
AcDbEntity
  8
0
  6
Continuous
 62
     3
100
AcDbLine
 10
335.136621016929
 20
255.338148545059
 30
0.0
 11
333.136621016929
 21
254.183448006659
 31
0.0
  0
LINE
  5
98
330
1F
100
AcDbEntity
  8
0
  6
Continuous
 62
     7
100
AcDbLine
 10
367.465802392629
 20
236.020097829759
 30
0.0
 11
367.911185768129
 21
236.737871564659
 31
0.0
  0
LINE
  5
99
330
1F
100
AcDbEntity
  8
0
  6
Continuous
 62
     7
100
AcDbLine
 10
372.064420017529
 20
234.340000652759
 30
0.0
 11
371.665501416629
 21
233.595400467659
 31
0.0
  0
LINE
  5
9A
330
1F
100
AcDbEntity
  8
0
  6
Continuous
 62
     7
100
AcDbLine
 10
414.136621016929
 20
210.778747468259
 30
0.0
 11
414.136621016929
 21
450.778747468259
 31
0.0
  0
LINE
  5
9B
330
1F
100
AcDbEntity
  8
0
  6
Continuous
 62
     7
100
AcDbLine
 10
370.208822016329
 20
420.840000652759
 30
0.0
 11
370.607740617129
 21
420.095400467659
 31
0.0
  0
LINE
  5
9C
330
1F
100
AcDbEntity
  8
0
  6
Continuous
 62
     7
100
AcDbLine
 10
350.807439641229
 20
439.270097829759
 30
0.0
 11
350.362056265729
 21
439.987871564659
 31
0.0
  0
LINE
  5
9D
330
1F
100
AcDbEntity
  8
0
  6
Continuous
 62
     7
100
AcDbLine
 10
343.465802392629
 20
442.287397106759
 30
0.0
 11
343.911185768129
 21
441.569623371959
 31
0.0
  0
LINE
  5
9E
330
1F
100
AcDbEntity
  8
0
  6
Continuous
 62
     7
100
AcDbLine
 10
368.838984768729
 20
371.176618380159
 30
0.0
 11
367.994682792429
 21
371.203444830359
 31
0.0
  0
LINE
  5
9F
330
1F
100
AcDbEntity
  8
0
  6
Continuous
 62
     7
100
AcDbLine
 10
373.434257265129
 20
366.380876556359
 30
0.0
 11
374.278559241429
 21
366.354050106159
 31
0.0
  0
LINE
  5
A0
330
1F
100
AcDbEntity
  8
A_ACHSEN
  6
Continuous
 62
     2
100
AcDbLine
 10
354.786544208329
 20
372.778747468259
 30
0.0
 11
355.136621017329
 21
372.778747468259
 31
0.0
  0
LINE
  5
A1
330
1F
100
AcDbEntity
  8
A_ACHSEN
  6
CENTER
 62
     2
100
AcDbLine
 10
350.736621016929
 20
372.778747468259
 30
0.0
 11
354.786544208329
 21
372.778747468259
 31
0.0
  0
LINE
  5
A2
330
1F
100
AcDbEntity
  8
A_ACHSEN
  6
CENTER
 62
     2
100
AcDbLine
 10
359.536621016929
 20
372.778747468259
 30
0.0
 11
355.136621017329
 21
372.778747468259
 31
0.0
  0
LINE
  5
A3
330
1F
100
AcDbEntity
  8
A_ACHSEN
  6
CENTER
 62
     2
100
AcDbLine
 10
370.476508196429
 20
368.778747468259
 30
0.0
 11
363.374030156329
 21
368.778747468259
 31
0.0
  0
LINE
  5
A4
330
1F
100
AcDbEntity
  8
A_ACHSEN
  6
Continuous
 62
     2
100
AcDbLine
 10
371.638517199629
 20
368.778747468259
 30
0.0
 11
370.476508196429
 21
368.778747468259
 31
0.0
  0
LINE
  5
A5
330
1F
100
AcDbEntity
  8
A_ACHSEN
  6
CENTER
 62
     2
100
AcDbLine
 10
377.324677559929
 20
368.778747468259
 30
0.0
 11
371.638517199629
 21
368.778747468259
 31
0.0
  0
LINE
  5
A6
330
1F
100
AcDbEntity
  8
0
  6
Continuous
 62
     7
100
AcDbLine
 10
374.278559241429
 20
371.203444830359
 30
0.0
 11
373.434257265129
 21
371.176618380159
 31
0.0
  0
LINE
  5
A7
330
1F
100
AcDbEntity
  8
0
  6
Continuous
 62
     7
100
AcDbLine
 10
367.994682792429
 20
366.354050106159
 30
0.0
 11
368.838984768729
 21
366.380876556359
 31
0.0
  0
LINE
  5
A8
330
1F
100
AcDbEntity
  8
0
  6
Continuous
 62
     7
100
AcDbLine
 10
350.807439641229
 20
222.287397106759
 30
0.0
 11
350.362056265729
 21
221.569623371959
 31
0.0
  0
LINE
  5
A9
330
1F
100
AcDbEntity
  8
0
  6
Continuous
 62
     7
100
AcDbLine
 10
343.465802392629
 20
219.270097829759
 30
0.0
 11
343.911185768129
 21
219.987871564659
 31
0.0
  0
LINE
  5
AA
330
1F
100
AcDbEntity
  8
0
  6
Continuous
 62
     7
100
AcDbLine
 10
370.208822016329
 20
240.717494283759
 30
0.0
 11
370.607740617129
 21
241.462094468859
 31
0.0
  0
LINE
  5
AB
330
1F
100
AcDbEntity
  8
A_ACHSEN
  6
CENTER
 62
     2
100
AcDbLine
 10
406.136621016929
 20
342.278747468259
 30
0.0
 11
406.136621016929
 21
359.278747468259
 31
0.0
  0
LINE
  5
AC
330
1F
100
AcDbEntity
  8
A_ACHSEN
  6
CENTER
 62
     2
100
AcDbLine
 10
406.136621016929
 20
302.278747468259
 30
0.0
 11
406.136621016929
 21
319.278747468259
 31
0.0
  0
LINE
  5
AD
330
1F
100
AcDbEntity
  8
A_ACHSEN
  6
Continuous
 62
     2
100
AcDbLine
 10
404.136621016929
 20
393.156830764959
 30
0.0
 11
404.136621016929
 21
393.778747468659
 31
0.0
  0
LINE
  5
AE
330
1F
100
AcDbEntity
  8
A_ACHSEN
  6
CENTER
 62
     2
100
AcDbLine
 10
404.136621016929
 20
387.060234365459
 30
0.0
 11
404.136621016929
 21
393.156830764959
 31
0.0
  0
LINE
  5
AF
330
1F
100
AcDbEntity
  8
A_ACHSEN
  6
CENTER
 62
     2
100
AcDbLine
 10
404.136621016929
 20
260.325121637859
 30
0.0
 11
404.136621016929
 21
274.615358568159
 31
0.0
  0
LINE
  5
B0
330
1F
100
AcDbEntity
  8
A_ACHSEN
  6
CENTER
 62
     2
100
AcDbLine
 10
404.136621016929
 20
400.603791572959
 30
0.0
 11
404.136621016929
 21
393.778747468659
 31
0.0
  0
LINE
  5
B1
330
1F
100
AcDbEntity
  8
0
  6
Continuous
 62
     7
100
AcDbLine
 10
348.064420017529
 20
443.967494283759
 30
0.0
 11
347.665501416629
 21
444.712094468859
 31
0.0
  0
LINE
  5
B2
330
1F
100
AcDbEntity
  8
0
  6
Continuous
 62
     7
100
AcDbLine
 10
346.208822016329
 20
437.590000652759
 30
0.0
 11
346.607740617129
 21
436.845400467659
 31
0.0
  0
LINE
  5
B3
330
1F
100
AcDbEntity
  8
0
  6
Continuous
 62
     3
100
AcDbLine
 10
333.291321555329
 20
360.778747468259
 30
0.0
 11
330.981920478529
 21
360.778747468259
 31
0.0
  0
LINE
  5
B4
330
1F
100
AcDbEntity
  8
A_ACHSEN
  6
CENTER
 62
     2
100
AcDbLine
 10
325.136621016929
 20
358.778747468259
 30
0.0
 11
339.136621016929
 21
358.778747468259
 31
0.0
  0
LINE
  5
B5
330
1F
100
AcDbEntity
  8
0
  6
Continuous
 62
     7
100
AcDbLine
 10
348.064420017529
 20
217.590000652759
 30
0.0
 11
347.665501416629
 21
216.845400467659
 31
0.0
  0
LINE
  5
B6
330
1F
100
AcDbEntity
  8
0
  6
Continuous
 62
     7
100
AcDbLine
 10
346.208822016329
 20
223.967494283759
 30
0.0
 11
346.607740617129
 21
224.712094468859
 31
0.0
  0
LINE
  5
B7
330
1F
100
AcDbEntity
  8
0
  6
Continuous
 62
     7
100
AcDbLine
 10
372.064420017529
 20
371.967494283759
 30
0.0
 11
371.665501416629
 21
372.712094468859
 31
0.0
  0
LINE
  5
B8
330
1F
100
AcDbEntity
  8
0
  6
Continuous
 62
     7
100
AcDbLine
 10
374.807439641229
 20
367.270097829759
 30
0.0
 11
374.362056265729
 21
367.987871564659
 31
0.0
  0
LINE
  5
B9
330
1F
100
AcDbEntity
  8
0
  6
Continuous
 62
     7
100
AcDbLine
 10
367.465802392629
 20
370.287397106759
 30
0.0
 11
367.911185768129
 21
369.569623371959
 31
0.0
  0
LINE
  5
BA
330
1F
100
AcDbEntity
  8
0
  6
Continuous
 62
     3
100
AcDbLine
 10
330.981920478529
 20
356.778747468259
 30
0.0
 11
333.291321555329
 21
356.778747468259
 31
0.0
  0
LINE
  5
BB
330
1F
100
AcDbEntity
  8
A_ACHSEN
  6
CENTER
 62
     2
100
AcDbLine
 10
397.636621016929
 20
350.778747468259
 30
0.0
 11
414.636621016929
 21
350.778747468259
 31
0.0
  0
LINE
  5
BC
330
1F
100
AcDbEntity
  8
A_ACHSEN
  6
CENTER
 62
     2
100
AcDbLine
 10
383.074131088629
 20
350.778747468259
 30
0.0
 11
391.636621016929
 21
350.778747468259
 31
0.0
  0
LINE
  5
BD
330
1F
100
AcDbEntity
  8
A_ACHSEN
  6
Continuous
 62
     2
100
AcDbLine
 10
382.700168180629
 20
350.778747468259
 30
0.0
 11
383.074131088629
 21
350.778747468259
 31
0.0
  0
LINE
  5
BE
330
1F
100
AcDbEntity
  8
A_ACHSEN
  6
CENTER
 62
     2
100
AcDbLine
 10
382.700168180629
 20
350.778747468259
 30
0.0
 11
374.636621016929
 21
350.778747468259
 31
0.0
  0
LINE
  5
BF
330
1F
100
AcDbEntity
  8
0
  6
Continuous
 62
     7
100
AcDbLine
 10
374.807439641229
 20
294.287397106759
 30
0.0
 11
374.362056265729
 21
293.569623371959
 31
0.0
  0
LINE
  5
C0
330
1F
100
AcDbEntity
  8
0
  6
Continuous
 62
     7
100
AcDbLine
 10
367.465802392629
 20
291.270097829759
 30
0.0
 11
367.911185768129
 21
291.987871564659
 31
0.0
  0
LINE
  5
C1
330
1F
100
AcDbEntity
  8
0
  6
Continuous
 62
     7
100
AcDbLine
 10
372.064420017529
 20
289.590000652759
 30
0.0
 11
371.665501416629
 21
288.845400467659
 31
0.0
  0
LINE
  5
C2
330
1F
100
AcDbEntity
  8
A_ACHSEN
  6
CENTER
 62
     2
100
AcDbLine
 10
394.136621016929
 20
399.178379574959
 30
0.0
 11
394.136621016929
 21
414.325685538959
 31
0.0
  0
LINE
  5
C3
330
1F
100
AcDbEntity
  8
A_ACHSEN
  6
Continuous
 62
     2
100
AcDbLine
 10
394.136621016929
 20
254.778747467859
 30
0.0
 11
394.136621016929
 21
254.930390998559
 31
0.0
  0
LINE
  5
C4
330
1F
100
AcDbEntity
  8
A_ACHSEN
  6
CENTER
 62
     2
100
AcDbLine
 10
394.136621016929
 20
247.519915267359
 30
0.0
 11
394.136621016929
 21
254.778747467859
 31
0.0
  0
LINE
  5
C5
330
1F
100
AcDbEntity
  8
A_ACHSEN
  6
CENTER
 62
     2
100
AcDbLine
 10
394.136621016929
 20
261.844095753359
 30
0.0
 11
394.136621016929
 21
254.930390998559
 31
0.0
  0
LINE
  5
C6
330
1F
100
AcDbEntity
  8
A_ACHSEN
  6
CENTER
 62
     2
100
AcDbLine
 10
391.136621016929
 20
326.378747468259
 30
0.0
 11
391.136621016929
 21
327.778647468259
 31
0.0
  0
LINE
  5
C7
330
1F
100
AcDbEntity
  8
A_ACHSEN
  6
CENTER
 62
     2
100
AcDbLine
 10
391.136621016929
 20
335.178747468259
 30
0.0
 11
391.136621016929
 21
327.778647468259
 31
0.0
  0
LINE
  5
C8
330
1F
100
AcDbEntity
  8
0
  6
Continuous
 62
     7
100
AcDbLine
 10
370.208822016329
 20
365.590000652759
 30
0.0
 11
370.607740617129
 21
364.845400467659
 31
0.0
  0
LINE
  5
C9
330
1F
100
AcDbEntity
  8
0
  6
Continuous
 62
     7
100
AcDbLine
 10
370.208822016329
 20
295.967494283759
 30
0.0
 11
370.607740617129
 21
296.712094468859
 31
0.0
  0
LINE
  5
CA
330
1F
100
AcDbEntity
  8
A_ACHSEN
  6
Continuous
 62
     2
100
AcDbLine
 10
384.136621016929
 20
420.778747467859
 30
0.0
 11
384.136621016929
 21
421.658747468259
 31
0.0
  0
LINE
  5
CB
330
1F
100
AcDbEntity
  8
A_ACHSEN
  6
CENTER
 62
     2
100
AcDbLine
 10
384.136621016929
 20
413.783315254559
 30
0.0
 11
384.136621016929
 21
420.778747467859
 31
0.0
  0
LINE
  5
CC
330
1F
100
AcDbEntity
  8
A_ACHSEN
  6
CENTER
 62
     2
100
AcDbLine
 10
384.136621016929
 20
233.157548281359
 30
0.0
 11
384.136621016929
 21
249.068589994159
 31
0.0
  0
LINE
  5
CD
330
1F
100
AcDbEntity
  8
A_ACHSEN
  6
CENTER
 62
     2
100
AcDbLine
 10
384.136621016929
 20
427.043696250259
 30
0.0
 11
384.136621016929
 21
422.048347245059
 31
0.0
  0
LINE
  5
CE
330
1F
100
AcDbEntity
  8
A_ACHSEN
  6
CENTER
 62
     2
100
AcDbLine
 10
383.136621016929
 20
342.278747468259
 30
0.0
 11
383.136621016929
 21
359.278747468259
 31
0.0
  0
LINE
  5
CF
330
1F
100
AcDbEntity
  8
A_ACHSEN
  6
CENTER
 62
     2
100
AcDbLine
 10
383.136621016929
 20
303.571358113459
 30
0.0
 11
383.136621016929
 21
317.657294314359
 31
0.0
  0
LINE
  5
D0
330
1F
100
AcDbEntity
  8
A_ACHSEN
  6
CENTER
 62
     2
100
AcDbLine
 10
379.136621016929
 20
388.878747468259
 30
0.0
 11
379.136621016929
 21
390.278647468259
 31
0.0
  0
LINE
  5
D1
330
1F
100
AcDbEntity
  8
A_ACHSEN
  6
CENTER
 62
     2
100
AcDbLine
 10
379.136621016929
 20
263.878747468259
 30
0.0
 11
379.136621016929
 21
265.278647468259
 31
0.0
  0
LINE
  5
D2
330
1F
100
AcDbEntity
  8
A_ACHSEN
  6
CENTER
 62
     2
100
AcDbLine
 10
379.136621016929
 20
272.678747468259
 30
0.0
 11
379.136621016929
 21
265.278647468259
 31
0.0
  0
LINE
  5
D3
330
1F
100
AcDbEntity
  8
A_ACHSEN
  6
CENTER
 62
     2
100
AcDbLine
 10
379.136621016929
 20
397.678747468259
 30
0.0
 11
379.136621016929
 21
390.278647468259
 31
0.0
  0
LINE
  5
D4
330
1F
100
AcDbEntity
  8
0
  6
Continuous
 62
     7
100
AcDbLine
 10
404.665501416629
 20
271.712094468859
 30
0.0
 11
405.064420017529
 21
270.967494283759
 31
0.0
  0
LINE
  5
D5
330
1F
100
AcDbEntity
  8
0
  6
Continuous
 62
     3
100
AcDbLine
 10
337.446022093629
 20
394.778747468259
 30
0.0
 11
336.291321555329
 21
396.778747468259
 31
0.0
  0
LINE
  5
D6
330
1F
100
AcDbEntity
  8
0
  6
Continuous
 62
     7
100
AcDbLine
 10
366.636621016929
 20
334.778747468259
 30
0.0
 11
391.136621016929
 21
334.778747468259
 31
0.0
  0
LINE
  5
D7
330
1F
100
AcDbEntity
  8
0
  6
Continuous
 62
     3
100
AcDbLine
 10
330.981920478529
 20
332.778747468259
 30
0.0
 11
333.291321555329
 21
332.778747468259
 31
0.0
  0
LINE
  5
D8
330
1F
100
AcDbEntity
  8
0
  6
Continuous
 62
     3
100
AcDbLine
 10
334.093671824529
 20
331.389036036559
 30
0.0
 11
333.105209308229
 21
331.155359632059
 31
0.0
  0
LINE
  5
D9
330
1F
100
AcDbEntity
  8
0
  6
Continuous
 62
     3
100
AcDbLine
 10
330.179570209329
 20
330.168458899959
 30
0.0
 11
331.168032725629
 21
330.402135304459
 31
0.0
  0
LINE
  5
DA
330
1F
100
AcDbEntity
  8
0
  6
Continuous
 62
     3
100
AcDbLine
 10
336.291321555329
 20
264.778747468259
 30
0.0
 11
337.446022093629
 21
266.778747468259
 31
0.0
  0
LINE
  5
DB
330
1F
100
AcDbEntity
  8
0
  6
Continuous
 62
     7
100
AcDbLine
 10
404.665501416629
 20
389.845400467659
 30
0.0
 11
405.064420017529
 21
390.590000652759
 31
0.0
  0
LINE
  5
DC
330
1F
100
AcDbEntity
  8
A_ACHSEN
  6
CENTER
 62
     2
100
AcDbLine
 10
375.136621016929
 20
435.378747468259
 30
0.0
 11
375.136621016929
 21
436.778647468259
 31
0.0
  0
LINE
  5
DD
330
1F
100
AcDbEntity
  8
A_ACHSEN
  6
CENTER
 62
     2
100
AcDbLine
 10
375.136621016929
 20
217.378747468259
 30
0.0
 11
375.136621016929
 21
218.778647468259
 31
0.0
  0
LINE
  5
DE
330
1F
100
AcDbEntity
  8
A_ACHSEN
  6
CENTER
 62
     2
100
AcDbLine
 10
375.136621016929
 20
226.178747468259
 30
0.0
 11
375.136621016929
 21
218.778647468259
 31
0.0
  0
LINE
  5
DF
330
1F
100
AcDbEntity
  8
A_ACHSEN
  6
CENTER
 62
     2
100
AcDbLine
 10
375.136621016929
 20
444.178747468259
 30
0.0
 11
375.136621016929
 21
436.778647468259
 31
0.0
  0
LINE
  5
E0
330
1F
100
AcDbEntity
  8
A_ACHSEN
  6
CENTER
 62
     2
100
AcDbLine
 10
372.136621016929
 20
388.878747468259
 30
0.0
 11
372.136621016929
 21
396.278847468259
 31
0.0
  0
LINE
  5
E1
330
1F
100
AcDbEntity
  8
A_ACHSEN
  6
CENTER
 62
     2
100
AcDbLine
 10
372.136621016929
 20
263.878747468259
 30
0.0
 11
372.136621016929
 21
271.278847468259
 31
0.0
  0
LINE
  5
E2
330
1F
100
AcDbEntity
  8
A_ACHSEN
  6
CENTER
 62
     2
100
AcDbLine
 10
372.136621016929
 20
272.678747468259
 30
0.0
 11
372.136621016929
 21
271.278847468259
 31
0.0
  0
LINE
  5
E3
330
1F
100
AcDbEntity
  8
A_ACHSEN
  6
CENTER
 62
     2
100
AcDbLine
 10
372.136621016929
 20
397.678747468259
 30
0.0
 11
372.136621016929
 21
396.278847468259
 31
0.0
  0
LINE
  5
E4
330
1F
100
AcDbEntity
  8
A_ACHSEN
  6
CENTER
 62
     2
100
AcDbLine
 10
371.136621016929
 20
415.538428289259
 30
0.0
 11
371.136621016929
 21
431.681068895559
 31
0.0
  0
LINE
  5
E5
330
1F
100
AcDbEntity
  8
A_ACHSEN
  6
CENTER
 62
     2
100
AcDbLine
 10
371.136621016929
 20
360.866572819559
 30
0.0
 11
371.136621016929
 21
375.954797428459
 31
0.0
  0
LINE
  5
E6
330
1F
100
AcDbEntity
  8
A_ACHSEN
  6
CENTER
 62
     2
100
AcDbLine
 10
371.136621016929
 20
283.100082993559
 30
0.0
 11
371.136621016929
 21
301.255010186459
 31
0.0
  0
LINE
  5
E7
330
1F
100
AcDbEntity
  8
A_ACHSEN
  6
CENTER
 62
     2
100
AcDbLine
 10
371.136621016929
 20
229.909043931659
 30
0.0
 11
371.136621016929
 21
244.626757515959
 31
0.0
  0
LINE
  5
E8
330
1F
100
AcDbEntity
  8
0
  6
Continuous
 62
     7
100
AcDbLine
 10
403.607740617129
 20
263.845400467659
 30
0.0
 11
403.208822016329
 21
264.590000652759
 31
0.0
  0
LINE
  5
E9
330
1F
100
AcDbEntity
  8
0
  6
Continuous
 62
     3
100
AcDbLine
 10
332.827219940129
 20
394.778747468259
 30
0.0
 11
333.981920478529
 21
392.778747468259
 31
0.0
  0
LINE
  5
EA
330
1F
100
AcDbEntity
  8
0
  6
Continuous
 62
     3
100
AcDbLine
 10
337.446022093629
 20
382.778747468259
 30
0.0
 11
336.291321555329
 21
384.778747468259
 31
0.0
  0
LINE
  5
EB
330
1F
100
AcDbEntity
  8
0
  6
Continuous
 62
     3
100
AcDbLine
 10
332.827219940129
 20
382.778747468259
 30
0.0
 11
333.981920478529
 21
380.778747468259
 31
0.0
  0
LINE
  5
EC
330
1F
100
AcDbEntity
  8
0
  6
Continuous
 62
     7
100
AcDbLine
 10
407.362056265729
 20
266.987871564659
 30
0.0
 11
407.807439641229
 21
266.270097829759
 31
0.0
  0
LINE
  5
ED
330
1F
100
AcDbEntity
  8
0
  6
Continuous
 62
     7
100
AcDbLine
 10
400.911185768129
 20
268.569623371959
 30
0.0
 11
400.465802392629
 21
269.287397106759
 31
0.0
  0
LINE
  5
EE
330
1F
100
AcDbEntity
  8
A_ACHSEN
  6
Continuous
 62
     2
100
AcDbLine
 10
355.136621017329
 20
330.778747468259
 30
0.0
 11
354.256621016929
 21
330.778747468259
 31
0.0
  0
LINE
  5
EF
330
1F
100
AcDbEntity
  8
A_ACHSEN
  6
CENTER
 62
     2
100
AcDbLine
 10
418.839977329629
 20
330.778747468259
 30
0.0
 11
355.136621017329
 21
330.778747468259
 31
0.0
  0
LINE
  5
F0
330
1F
100
AcDbEntity
  8
0
  6
Continuous
 62
     3
100
AcDbLine
 10
333.291321555329
 20
328.778747468259
 30
0.0
 11
330.981920478529
 21
328.778747468259
 31
0.0
  0
LINE
  5
F1
330
1F
100
AcDbEntity
  8
0
  6
Continuous
 62
     7
100
AcDbLine
 10
391.136621016929
 20
326.778747468259
 30
0.0
 11
366.636621016929
 21
326.778747468259
 31
0.0
  0
LINE
  5
F2
330
1F
100
AcDbEntity
  8
0
  6
Continuous
 62
     7
100
AcDbLine
 10
407.362056265729
 20
394.569623371959
 30
0.0
 11
407.807439641229
 21
395.287397106759
 31
0.0
  0
LINE
  5
F3
330
1F
100
AcDbEntity
  8
0
  6
Continuous
 62
     7
100
AcDbLine
 10
400.911185768129
 20
392.987871564659
 30
0.0
 11
400.465802392629
 21
392.270097829759
 31
0.0
  0
LINE
  5
F4
330
1F
100
AcDbEntity
  8
0
  6
Continuous
 62
     3
100
AcDbLine
 10
333.981920478529
 20
268.778747468259
 30
0.0
 11
332.827219940129
 21
266.778747468259
 31
0.0
  0
LINE
  5
F5
330
1F
100
AcDbEntity
  8
0
  6
Continuous
 62
     3
100
AcDbLine
 10
336.291321555329
 20
276.778747468259
 30
0.0
 11
337.446022093629
 21
278.778747468259
 31
0.0
  0
LINE
  5
F6
330
1F
100
AcDbEntity
  8
0
  6
Continuous
 62
     3
100
AcDbLine
 10
333.981920478529
 20
280.778747468259
 30
0.0
 11
332.827219940129
 21
278.778747468259
 31
0.0
  0
LINE
  5
F7
330
1F
100
AcDbEntity
  8
0
  6
Continuous
 62
     7
100
AcDbLine
 10
403.607740617129
 20
397.712094468859
 30
0.0
 11
403.208822016329
 21
396.967494283759
 31
0.0
  0
LINE
  5
F8
330
1F
100
AcDbEntity
  8
A_ACHSEN
  6
CENTER
 62
     2
100
AcDbLine
 10
366.636621016929
 20
326.378747468259
 30
0.0
 11
366.636621016929
 21
333.778847468259
 31
0.0
  0
LINE
  5
F9
330
1F
100
AcDbEntity
  8
A_ACHSEN
  6
CENTER
 62
     2
100
AcDbLine
 10
366.636621016929
 20
335.178747468259
 30
0.0
 11
366.636621016929
 21
333.778847468259
 31
0.0
  0
LINE
  5
FA
330
1F
100
AcDbEntity
  8
0
  6
Continuous
 62
     7
100
AcDbLine
 10
394.665501416629
 20
258.712094468859
 30
0.0
 11
395.064420017529
 21
257.967494283759
 31
0.0
  0
LINE
  5
FB
330
1F
100
AcDbEntity
  8
0
  6
Continuous
 62
     7
100
AcDbLine
 10
371.665501416629
 20
296.712094468859
 30
0.0
 11
372.064420017529
 21
295.967494283759
 31
0.0
  0
LINE
  5
FC
330
1F
100
AcDbEntity
  8
0
  6
Continuous
 62
     7
100
AcDbLine
 10
393.607740617129
 20
250.845400467659
 30
0.0
 11
393.208822016329
 21
251.590000652759
 31
0.0
  0
LINE
  5
FD
330
1F
100
AcDbEntity
  8
0
  6
Continuous
 62
     3
100
AcDbLine
 10
334.446022093629
 20
358.778747468259
 30
0.0
 11
333.291321555329
 21
360.778747468259
 31
0.0
  0
LINE
  5
FE
330
1F
100
AcDbEntity
  8
0
  6
Continuous
 62
     7
100
AcDbLine
 10
374.362056265729
 20
291.987871564659
 30
0.0
 11
374.807439641229
 21
291.270097829759
 31
0.0
  0
LINE
  5
FF
330
1F
100
AcDbEntity
  8
0
  6
Continuous
 62
     3
100
AcDbLine
 10
331.168032725629
 20
331.155359632059
 30
0.0
 11
330.179570209329
 21
331.389036036559
 31
0.0
  0
LINE
  5
100
330
1F
100
AcDbEntity
  8
0
  6
Continuous
 62
     3
100
AcDbLine
 10
333.105209308229
 20
330.402135304459
 30
0.0
 11
334.093671824529
 21
330.168458899959
 31
0.0
  0
LINE
  5
101
330
1F
100
AcDbEntity
  8
0
  6
Continuous
 62
     7
100
AcDbLine
 10
374.362056265729
 20
369.569623371959
 30
0.0
 11
374.807439641229
 21
370.287397106759
 31
0.0
  0
LINE
  5
102
330
1F
100
AcDbEntity
  8
0
  6
Continuous
 62
     3
100
AcDbLine
 10
333.291321555329
 20
300.778747468259
 30
0.0
 11
334.446022093629
 21
302.778747468259
 31
0.0
  0
LINE
  5
103
330
1F
100
AcDbEntity
  8
0
  6
Continuous
 62
     7
100
AcDbLine
 10
394.665501416629
 20
402.845400467659
 30
0.0
 11
395.064420017529
 21
403.590000652759
 31
0.0
  0
LINE
  5
104
330
1F
100
AcDbEntity
  8
0
  6
Continuous
 62
     7
100
AcDbLine
 10
371.665501416629
 20
364.845400467659
 30
0.0
 11
372.064420017529
 21
365.590000652759
 31
0.0
  0
LINE
  5
105
330
1F
100
AcDbEntity
  8
0
  6
Continuous
 62
     7
100
AcDbLine
 10
393.607740617129
 20
410.712094468859
 30
0.0
 11
393.208822016329
 21
409.967494283759
 31
0.0
  0
LINE
  5
106
330
1F
100
AcDbEntity
  8
A_ACHSEN
  6
CENTER
 62
     2
100
AcDbLine
 10
358.136621016929
 20
435.378747468259
 30
0.0
 11
358.136621016929
 21
436.778647468259
 31
0.0
  0
LINE
  5
107
330
1F
100
AcDbEntity
  8
A_ACHSEN
  6
CENTER
 62
     2
100
AcDbLine
 10
358.136621016929
 20
217.378747468259
 30
0.0
 11
358.136621016929
 21
224.778847468259
 31
0.0
  0
LINE
  5
108
330
1F
100
AcDbEntity
  8
A_ACHSEN
  6
CENTER
 62
     2
100
AcDbLine
 10
358.136621016929
 20
226.178747468259
 30
0.0
 11
358.136621016929
 21
224.778847468259
 31
0.0
  0
LINE
  5
109
330
1F
100
AcDbEntity
  8
A_ACHSEN
  6
CENTER
 62
     2
100
AcDbLine
 10
358.136621016929
 20
444.178747468259
 30
0.0
 11
358.136621016929
 21
436.778647468259
 31
0.0
  0
LINE
  5
10A
330
1F
100
AcDbEntity
  8
A_ACHSEN
  6
CENTER
 62
     2
100
AcDbLine
 10
355.136621016929
 20
419.378747468259
 30
0.0
 11
355.136621016929
 21
428.178747468259
 31
0.0
  0
LINE
  5
10B
330
1F
100
AcDbEntity
  8
A_ACHSEN
  6
CENTER
 62
     2
100
AcDbLine
 10
355.136621016929
 20
368.378747468259
 30
0.0
 11
355.136621016929
 21
377.178747468259
 31
0.0
  0
LINE
  5
10C
330
1F
100
AcDbEntity
  8
A_ACHSEN
  6
CENTER
 62
     2
100
AcDbLine
 10
355.136621016929
 20
326.378747468259
 30
0.0
 11
355.136621016929
 21
335.178747468259
 31
0.0
  0
LINE
  5
10D
330
1F
100
AcDbEntity
  8
A_ACHSEN
  6
CENTER
 62
     2
100
AcDbLine
 10
355.136621016929
 20
284.378747468259
 30
0.0
 11
355.136621016929
 21
293.178747468259
 31
0.0
  0
LINE
  5
10E
330
1F
100
AcDbEntity
  8
A_ACHSEN
  6
CENTER
 62
     2
100
AcDbLine
 10
355.136621016929
 20
233.378747468259
 30
0.0
 11
355.136621016929
 21
242.178747468259
 31
0.0
  0
LINE
  5
10F
330
1F
100
AcDbEntity
  8
0
  6
Continuous
 62
     7
100
AcDbLine
 10
370.607740617129
 20
288.845400467659
 30
0.0
 11
370.208822016329
 21
289.590000652759
 31
0.0
  0
LINE
  5
110
330
1F
100
AcDbEntity
  8
0
  6
Continuous
 62
     3
100
AcDbLine
 10
329.827219940129
 20
358.778747468259
 30
0.0
 11
330.981920478529
 21
356.778747468259
 31
0.0
  0
LINE
  5
111
330
1F
100
AcDbEntity
  8
0
  6
Continuous
 62
     7
100
AcDbLine
 10
397.362056265729
 20
253.987871564659
 30
0.0
 11
397.807439641229
 21
253.270097829759
 31
0.0
  0
LINE
  5
112
330
1F
100
AcDbEntity
  8
0
  6
Continuous
 62
     7
100
AcDbLine
 10
367.911185768129
 20
293.569623371959
 30
0.0
 11
367.465802392629
 21
294.287397106759
 31
0.0
  0
LINE
  5
113
330
1F
100
AcDbEntity
  8
0
  6
Continuous
 62
     7
100
AcDbLine
 10
390.911185768129
 20
255.569623371959
 30
0.0
 11
390.465802392629
 21
256.287397106759
 31
0.0
  0
LINE
  5
114
330
1F
100
AcDbEntity
  8
A_ACHSEN
  6
CENTER
 62
     2
100
AcDbLine
 10
397.636621016929
 20
310.778747468259
 30
0.0
 11
414.636621016929
 21
310.778747468259
 31
0.0
  0
LINE
  5
115
330
1F
100
AcDbEntity
  8
A_ACHSEN
  6
CENTER
 62
     2
100
AcDbLine
 10
375.320560423329
 20
310.778747468259
 30
0.0
 11
391.307474739929
 21
310.778747468259
 31
0.0
  0
LINE
  5
116
330
1F
100
AcDbEntity
  8
0
  6
Continuous
 62
     7
100
AcDbLine
 10
397.362056265729
 20
407.569623371959
 30
0.0
 11
397.807439641229
 21
408.287397106759
 31
0.0
  0
LINE
  5
117
330
1F
100
AcDbEntity
  8
0
  6
Continuous
 62
     7
100
AcDbLine
 10
367.911185768129
 20
367.987871564659
 30
0.0
 11
367.465802392629
 21
367.270097829759
 31
0.0
  0
LINE
  5
118
330
1F
100
AcDbEntity
  8
0
  6
Continuous
 62
     7
100
AcDbLine
 10
390.911185768129
 20
405.987871564659
 30
0.0
 11
390.465802392629
 21
405.270097829759
 31
0.0
  0
LINE
  5
119
330
1F
100
AcDbEntity
  8
0
  6
Continuous
 62
     3
100
AcDbLine
 10
330.981920478529
 20
304.778747468259
 30
0.0
 11
329.827219940129
 21
302.778747468259
 31
0.0
  0
LINE
  5
11A
330
1F
100
AcDbEntity
  8
0
  6
Continuous
 62
     7
100
AcDbLine
 10
370.607740617129
 20
372.712094468859
 30
0.0
 11
370.208822016329
 21
371.967494283759
 31
0.0
  0
LINE
  5
11B
330
1F
100
AcDbEntity
  8
0
  6
Continuous
 62
     7
100
AcDbLine
 10
349.136621016929
 20
401.778747468259
 30
0.0
 11
349.136621016929
 21
259.778747468259
 31
0.0
  0
LINE
  5
11C
330
1F
100
AcDbEntity
  8
A_ACHSEN
  6
Continuous
 62
     2
100
AcDbLine
 10
347.136621016929
 20
440.520725674159
 30
0.0
 11
347.136621016929
 21
441.483465664259
 31
0.0
  0
LINE
  5
11D
330
1F
100
AcDbEntity
  8
A_ACHSEN
  6
CENTER
 62
     2
100
AcDbLine
 10
347.136621016929
 20
433.817875554459
 30
0.0
 11
347.136621016929
 21
440.520725674159
 31
0.0
  0
LINE
  5
11E
330
1F
100
AcDbEntity
  8
A_ACHSEN
  6
CENTER
 62
     2
100
AcDbLine
 10
347.136621016929
 20
214.550666782159
 30
0.0
 11
347.136621016929
 21
228.622093262459
 31
0.0
  0
LINE
  5
11F
330
1F
100
AcDbEntity
  8
A_ACHSEN
  6
CENTER
 62
     2
100
AcDbLine
 10
347.136621016929
 20
447.750358052559
 30
0.0
 11
347.136621016929
 21
441.483465664259
 31
0.0
  0
LINE
  5
120
330
1F
100
AcDbEntity
  8
0
  6
Continuous
 62
     7
100
AcDbLine
 10
347.036621016929
 20
258.428747468259
 30
0.0
 11
347.036621016929
 21
403.128747468259
 31
0.0
  0
LINE
  5
121
330
1F
100
AcDbEntity
  8
0
  6
Continuous
 62
     7
100
AcDbLine
 10
346.636621016929
 20
270.778747468259
 30
0.0
 11
346.636621016929
 21
390.778747468259
 31
0.0
  0
LINE
  5
122
330
1F
100
AcDbEntity
  8
0
  6
Continuous
 62
     7
100
AcDbLine
 10
384.665501416629
 20
244.712094468859
 30
0.0
 11
385.064420017529
 21
243.967494283759
 31
0.0
  0
LINE
  5
123
330
1F
100
AcDbEntity
  8
0
  6
Continuous
 62
     7
100
AcDbLine
 10
383.607740617129
 20
236.845400467659
 30
0.0
 11
383.208822016329
 21
237.590000652759
 31
0.0
  0
LINE
  5
124
330
1F
100
AcDbEntity
  8
0
  6
Continuous
 62
     3
100
AcDbLine
 10
333.291321555329
 20
332.778747468259
 30
0.0
 11
334.446022093629
 21
330.778747468259
 31
0.0
  0
LINE
  5
125
330
1F
100
AcDbEntity
  8
0
  6
Continuous
 62
     7
100
AcDbLine
 10
387.362056265729
 20
239.987871564659
 30
0.0
 11
387.807439641229
 21
239.270097829759
 31
0.0
  0
LINE
  5
126
330
1F
100
AcDbEntity
  8
0
  6
Continuous
 62
     3
100
AcDbLine
 10
333.643671824529
 20
329.389036036559
 30
0.0
 11
332.947070863829
 21
330.128231484059
 31
0.0
  0
LINE
  5
127
330
1F
100
AcDbEntity
  8
0
  6
Continuous
 62
     3
100
AcDbLine
 10
330.629570209329
 20
332.168458899959
 30
0.0
 11
331.326171170029
 21
331.429263452459
 31
0.0
  0
LINE
  5
128
330
1F
100
AcDbEntity
  8
0
  6
Continuous
 62
     3
100
AcDbLine
 10
333.291321555329
 20
304.778747468259
 30
0.0
 11
330.981920478529
 21
304.778747468259
 31
0.0
  0
LINE
  5
129
330
1F
100
AcDbEntity
  8
A_ACHSEN
  6
CENTER
 62
     2
100
AcDbLine
 10
329.136521016929
 20
302.778747468259
 30
0.0
 11
339.136621016929
 21
302.778747468259
 31
0.0
  0
LINE
  5
12A
330
1F
100
AcDbEntity
  8
A_ACHSEN
  6
CENTER
 62
     2
100
AcDbLine
 10
325.136621016929
 20
302.778747468259
 30
0.0
 11
329.136521016929
 21
302.778747468259
 31
0.0
  0
LINE
  5
12B
330
1F
100
AcDbEntity
  8
0
  6
Continuous
 62
     3
100
AcDbLine
 10
330.981920478529
 20
300.778747468259
 30
0.0
 11
333.291321555329
 21
300.778747468259
 31
0.0
  0
LINE
  5
12C
330
1F
100
AcDbEntity
  8
0
  6
Continuous
 62
     3
100
AcDbLine
 10
332.947070863829
 20
331.429263452459
 30
0.0
 11
333.643671824529
 21
332.168458899959
 31
0.0
  0
LINE
  5
12D
330
1F
100
AcDbEntity
  8
0
  6
Continuous
 62
     3
100
AcDbLine
 10
331.326171170029
 20
330.128231484059
 30
0.0
 11
330.629570209329
 21
329.389036036559
 31
0.0
  0
LINE
  5
12E
330
1F
100
AcDbEntity
  8
0
  6
Continuous
 62
     7
100
AcDbLine
 10
387.362056265729
 20
421.569623371959
 30
0.0
 11
387.807439641229
 21
422.287397106759
 31
0.0
  0
LINE
  5
12F
330
1F
100
AcDbEntity
  8
0
  6
Continuous
 62
     3
100
AcDbLine
 10
334.446022093629
 20
330.778747468259
 30
0.0
 11
333.291321555329
 21
328.778747468259
 31
0.0
  0
LINE
  5
130
330
1F
100
AcDbEntity
  8
0
  6
Continuous
 62
     7
100
AcDbLine
 10
384.665501416629
 20
416.845400467659
 30
0.0
 11
385.064420017529
 21
417.590000652759
 31
0.0
  0
LINE
  5
131
330
1F
100
AcDbEntity
  8
0
  6
Continuous
 62
     7
100
AcDbLine
 10
383.607740617129
 20
424.712094468859
 30
0.0
 11
383.208822016329
 21
423.967494283759
 31
0.0
  0
LINE
  5
132
330
1F
100
AcDbEntity
  8
A_ACHSEN
  6
Continuous
 62
     7
100
AcDbLine
 10
343.136621016929
 20
233.378747468259
 30
0.0
 11
343.136621016929
 21
235.378747468259
 31
0.0
  0
LINE
  5
133
330
1F
100
AcDbEntity
  8
A_ACHSEN
  6
Continuous
 62
     7
100
AcDbLine
 10
343.136621016929
 20
428.178747468259
 30
0.0
 11
343.136621016929
 21
426.178747468259
 31
0.0
  0
LINE
  5
134
330
1F
100
AcDbEntity
  8
A_ACHSEN
  6
CENTER
 62
     2
100
AcDbLine
 10
340.136621016929
 20
422.378747468259
 30
0.0
 11
340.136621016929
 21
424.813965029759
 31
0.0
  0
LINE
  5
135
330
1F
100
AcDbEntity
  8
A_ACHSEN
  6
Continuous
 62
     2
100
AcDbLine
 10
340.136621016929
 20
234.778747467859
 30
0.0
 11
340.136621016929
 21
235.658747468259
 31
0.0
  0
LINE
  5
136
330
1F
100
AcDbEntity
  8
A_ACHSEN
  6
CENTER
 62
     2
100
AcDbLine
 10
340.136621016929
 20
230.378747468259
 30
0.0
 11
340.136621016929
 21
234.778747467859
 31
0.0
  0
LINE
  5
137
330
1F
100
AcDbEntity
  8
0
  6
Continuous
 62
     7
100
AcDbLine
 10
340.136621016929
 20
226.278747468259
 30
0.0
 11
340.136621016929
 21
210.778747468259
 31
0.0
  0
LINE
  5
138
330
1F
100
AcDbEntity
  8
A_ACHSEN
  6
Continuous
 62
     2
100
AcDbLine
 10
340.136621016929
 20
427.658747468259
 30
0.0
 11
340.136621016929
 21
425.898747468259
 31
0.0
  0
LINE
  5
139
330
1F
100
AcDbEntity
  8
A_ACHSEN
  6
CENTER
 62
     2
100
AcDbLine
 10
340.136621016929
 20
430.454572225259
 30
0.0
 11
340.136621016929
 21
427.743341142359
 31
0.0
  0
LINE
  5
13A
330
1F
100
AcDbEntity
  8
0
  6
Continuous
 62
     7
100
AcDbLine
 10
340.136621016929
 20
450.778747468259
 30
0.0
 11
340.136621016929
 21
435.278747468259
 31
0.0
  0
LINE
  5
13B
330
1F
100
AcDbEntity
  8
A_ACHSEN
  6
Continuous
 62
     7
100
AcDbLine
 10
337.136621016929
 20
426.178747468259
 30
0.0
 11
337.136621016929
 21
428.178747468259
 31
0.0
  0
LINE
  5
13C
330
1F
100
AcDbEntity
  8
0
  6
Continuous
 62
     3
100
AcDbLine
 10
337.136621016929
 20
407.374046929859
 30
0.0
 11
337.136621016929
 21
409.683448006659
 31
0.0
  0
LINE
  5
13D
330
1F
100
AcDbEntity
  8
A_ACHSEN
  6
Continuous
 62
     7
100
AcDbLine
 10
337.136621016929
 20
327.778747468259
 30
0.0
 11
337.136621016929
 21
333.778747468259
 31
0.0
  0
LINE
  5
13E
330
1F
100
AcDbEntity
  8
0
  6
Continuous
 62
     3
100
AcDbLine
 10
337.136621016929
 20
251.874046929859
 30
0.0
 11
337.136621016929
 21
254.183448006659
 31
0.0
  0
LINE
  5
13F
330
1F
100
AcDbEntity
  8
A_ACHSEN
  6
Continuous
 62
     7
100
AcDbLine
 10
337.136621016929
 20
235.378747468259
 30
0.0
 11
337.136621016929
 21
233.378747468259
 31
0.0
  0
LINE
  5
140
330
1F
100
AcDbEntity
  8
0
  6
Continuous
 62
     3
100
AcDbLine
 10
331.978482572529
 20
331.805875616259
 30
0.0
 11
331.686621016929
 21
332.778747468259
 31
0.0
  0
LINE
  5
141
330
1F
100
AcDbEntity
  8
0
  6
Continuous
 62
     3
100
AcDbLine
 10
332.294759461329
 20
329.751619320259
 30
0.0
 11
332.586621016929
 21
328.778747468259
 31
0.0
  0
LINE
  5
142
330
1F
100
AcDbEntity
  8
0
  6
Continuous
 62
     7
100
AcDbLine
 10
371.665501416629
 20
241.462094468859
 30
0.0
 11
372.064420017529
 21
240.717494283759
 31
0.0
  0
LINE
  5
143
330
1F
100
AcDbEntity
  8
0
  6
Continuous
 62
     3
100
AcDbLine
 10
330.981920478529
 20
328.778747468259
 30
0.0
 11
329.827219940129
 21
330.778747468259
 31
0.0
  0
LINE
  5
144
330
1F
100
AcDbEntity
  8
0
  6
Continuous
 62
     7
100
AcDbLine
 10
380.911185768129
 20
241.569623371959
 30
0.0
 11
380.465802392629
 21
242.287397106759
 31
0.0
  0
LINE
  5
145
330
1F
100
AcDbEntity
  8
0
  6
Continuous
 62
     7
100
AcDbLine
 10
367.994682792429
 20
295.203444830359
 30
0.0
 11
368.838984768729
 21
295.176618380159
 31
0.0
  0
LINE
  5
146
330
1F
100
AcDbEntity
  8
0
  6
Continuous
 62
     7
100
AcDbLine
 10
374.278559241429
 20
290.354050106159
 30
0.0
 11
373.434257265129
 21
290.380876556359
 31
0.0
  0
LINE
  5
147
330
1F
100
AcDbEntity
  8
A_ACHSEN
  6
CENTER
 62
     2
100
AcDbLine
 10
363.591812228129
 20
292.778747468259
 30
0.0
 11
378.351352274229
 21
292.778747468259
 31
0.0
  0
LINE
  5
148
330
1F
100
AcDbEntity
  8
0
  6
Continuous
 62
     7
100
AcDbLine
 10
373.434257265129
 20
295.176618380159
 30
0.0
 11
374.278559241429
 21
295.203444830359
 31
0.0
  0
LINE
  5
149
330
1F
100
AcDbEntity
  8
0
  6
Continuous
 62
     7
100
AcDbLine
 10
368.838984768729
 20
290.380876556359
 30
0.0
 11
367.994682792429
 21
290.354050106159
 31
0.0
  0
LINE
  5
14A
330
1F
100
AcDbEntity
  8
0
  6
Continuous
 62
     7
100
AcDbLine
 10
380.911185768129
 20
419.987871564659
 30
0.0
 11
380.465802392629
 21
419.270097829759
 31
0.0
  0
LINE
  5
14B
330
1F
100
AcDbEntity
  8
0
  6
Continuous
 62
     3
100
AcDbLine
 10
329.827219940129
 20
330.778747468259
 30
0.0
 11
330.981920478529
 21
332.778747468259
 31
0.0
  0
LINE
  5
14C
330
1F
100
AcDbEntity
  8
0
  6
Continuous
 62
     7
100
AcDbLine
 10
371.665501416629
 20
420.095400467659
 30
0.0
 11
372.064420017529
 21
420.840000652759
 31
0.0
  0
LINE
  5
14D
330
1F
100
AcDbEntity
  8
0
  6
Continuous
 62
     3
100
AcDbLine
 10
331.686621016929
 20
328.778747468259
 30
0.0
 11
331.978482572529
 21
329.751619320259
 31
0.0
  0
LINE
  5
14E
330
1F
100
AcDbEntity
  8
0
  6
Continuous
 62
     3
100
AcDbLine
 10
332.586621016929
 20
332.778747468259
 30
0.0
 11
332.294759461329
 21
331.805875616259
 31
0.0
  0
LINE
  5
14F
330
1F
100
AcDbEntity
  8
A_ACHSEN
  6
CENTER
 62
     2
100
AcDbLine
 10
335.136621016929
 20
400.949635372059
 30
0.0
 11
335.136621016929
 21
438.314412028459
 31
0.0
  0
LINE
  5
150
330
1F
100
AcDbEntity
  8
A_ACHSEN
  6
CENTER
 62
     2
100
AcDbLine
 10
335.136621016929
 20
374.278747468259
 30
0.0
 11
335.136621016929
 21
399.178747468259
 31
0.0
  0
LINE
  5
151
330
1F
100
AcDbEntity
  8
A_ACHSEN
  6
CENTER
 62
     2
100
AcDbLine
 10
335.136621016929
 20
283.178747468259
 30
0.0
 11
335.136621016929
 21
287.278747468259
 31
0.0
  0
LINE
  5
152
330
1F
100
AcDbEntity
  8
A_ACHSEN
  6
CENTER
 62
     2
100
AcDbLine
 10
335.136621016929
 20
262.378747468259
 30
0.0
 11
335.136621016929
 21
283.178747468259
 31
0.0
  0
LINE
  5
153
330
1F
100
AcDbEntity
  8
DEFAULT_1
  6
CENTER
 62
     2
100
AcDbLine
 10
335.136621016929
 20
244.028747468259
 30
0.0
 11
335.136621016929
 21
262.028747468259
 31
0.0
  0
LINE
  5
154
330
1F
100
AcDbEntity
  8
A_ACHSEN
  6
CENTER
 62
     2
100
AcDbLine
 10
335.136621016929
 20
223.243082908059
 30
0.0
 11
335.136621016929
 21
248.381559968259
 31
0.0
  0
LINE
  5
155
330
1F
100
AcDbEntity
  8
A_ACHSEN
  6
Continuous
 62
     7
100
AcDbLine
 10
333.136621016929
 20
239.378747468259
 30
0.0
 11
333.136621016929
 21
241.748747468259
 31
0.0
  0
LINE
  5
156
330
1F
100
AcDbEntity
  8
0
  6
Continuous
 62
     3
100
AcDbLine
 10
333.136621016929
 20
254.183448006659
 30
0.0
 11
333.136621016929
 21
251.874046929859
 31
0.0
  0
LINE
  5
157
330
1F
100
AcDbEntity
  8
0
  6
Continuous
 62
     3
100
AcDbLine
 10
333.136621016929
 20
409.683448006659
 30
0.0
 11
333.136621016929
 21
407.374046929859
 31
0.0
  0
LINE
  5
158
330
1F
100
AcDbEntity
  8
A_ACHSEN
  6
Continuous
 62
     7
100
AcDbLine
 10
333.136621016929
 20
422.178747468259
 30
0.0
 11
333.136621016929
 21
419.808747468259
 31
0.0
  0
LINE
  5
159
330
1F
100
AcDbEntity
  8
DEFAULT_1
  6
CENTER
 62
     2
100
AcDbLine
 10
332.136621016929
 20
351.378747468259
 30
0.0
 11
332.136621016929
 21
364.778847468259
 31
0.0
  0
LINE
  5
15A
330
1F
100
AcDbEntity
  8
A_ACHSEN
  6
CENTER
 62
     2
100
AcDbLine
 10
332.136621016929
 20
315.595971031959
 30
0.0
 11
332.136621016929
 21
343.370507844159
 31
0.0
  0
LINE
  5
15B
330
1F
100
AcDbEntity
  8
DEFAULT_1
  6
CENTER
 62
     2
100
AcDbLine
 10
332.136621016929
 20
326.378747468259
 30
0.0
 11
332.136621016929
 21
327.778647468259
 31
0.0
  0
LINE
  5
15C
330
1F
100
AcDbEntity
  8
DEFAULT_1
  6
CENTER
 62
     2
100
AcDbLine
 10
332.136621016929
 20
299.778647468259
 30
0.0
 11
332.136621016929
 21
305.778847468259
 31
0.0
  0
LINE
  5
15D
330
1F
100
AcDbEntity
  8
A_ACHSEN
  6
CENTER
 62
     2
100
AcDbLine
 10
332.136621016929
 20
295.778747468259
 30
0.0
 11
332.136621016929
 21
299.778647468259
 31
0.0
  0
LINE
  5
15E
330
1F
100
AcDbEntity
  8
DEFAULT_1
  6
CENTER
 62
     2
100
AcDbLine
 10
332.136621016929
 20
295.378747468259
 30
0.0
 11
332.136621016929
 21
296.778647468259
 31
0.0
  0
LINE
  5
15F
330
1F
100
AcDbEntity
  8
DEFAULT_1
  6
CENTER
 62
     2
100
AcDbLine
 10
332.136621016929
 20
308.778847468259
 30
0.0
 11
332.136621016929
 21
305.778847468259
 31
0.0
  0
LINE
  5
160
330
1F
100
AcDbEntity
  8
DEFAULT_1
  6
CENTER
 62
     2
100
AcDbLine
 10
332.136621016929
 20
310.178747468259
 30
0.0
 11
332.136621016929
 21
308.778847468259
 31
0.0
  0
LINE
  5
161
330
1F
100
AcDbEntity
  8
DEFAULT_1
  6
CENTER
 62
     2
100
AcDbLine
 10
332.136621016929
 20
335.178747468259
 30
0.0
 11
332.136621016929
 21
333.778847468259
 31
0.0
  0
LINE
  5
162
330
1F
100
AcDbEntity
  8
DEFAULT_1
  6
CENTER
 62
     2
100
AcDbLine
 10
332.136621016929
 20
366.178747468259
 30
0.0
 11
332.136621016929
 21
364.778847468259
 31
0.0
  0
LINE
  5
163
330
1F
100
AcDbEntity
  8
A_ACHSEN
  6
Continuous
 62
     2
100
AcDbLine
 10
330.136621016929
 20
421.778747467859
 30
0.0
 11
330.136621016929
 21
422.658747468259
 31
0.0
  0
LINE
  5
164
330
1F
100
AcDbEntity
  8
A_ACHSEN
  6
CENTER
 62
     2
100
AcDbLine
 10
330.136621016929
 20
417.768503843259
 30
0.0
 11
330.136621016929
 21
421.778747467859
 31
0.0
  0
LINE
  5
165
330
1F
100
AcDbEntity
  8
A_ACHSEN
  6
Continuous
 62
     2
100
AcDbLine
 10
330.136621016929
 20
239.283698932659
 30
0.0
 11
330.136621016929
 21
240.658747468259
 31
0.0
  0
LINE
  5
166
330
1F
100
AcDbEntity
  8
A_ACHSEN
  6
CENTER
 62
     2
100
AcDbLine
 10
330.136621016929
 20
235.972569018159
 30
0.0
 11
330.136621016929
 21
239.283698932659
 31
0.0
  0
LINE
  5
167
330
1F
100
AcDbEntity
  8
A_ACHSEN
  6
CENTER
 62
     2
100
AcDbLine
 10
330.136621016929
 20
243.334963769159
 30
0.0
 11
330.136621016929
 21
240.958741124659
 31
0.0
  0
LINE
  5
168
330
1F
100
AcDbEntity
  8
A_ACHSEN
  6
CENTER
 62
     2
100
AcDbLine
 10
330.136621016929
 20
425.905936721159
 30
0.0
 11
330.136621016929
 21
422.894288768759
 31
0.0
  0
LINE
  5
169
330
1F
100
AcDbEntity
  8
A_ACHSEN
  6
Continuous
 62
     7
100
AcDbLine
 10
327.136621016929
 20
419.808747468259
 30
0.0
 11
327.136621016929
 21
422.178747468259
 31
0.0
  0
LINE
  5
16A
330
1F
100
AcDbEntity
  8
A_ACHSEN
  6
Continuous
 62
     7
100
AcDbLine
 10
327.136621016929
 20
241.748747468259
 30
0.0
 11
327.136621016929
 21
239.378747468259
 31
0.0
  0
LINE
  5
16B
330
1F
100
AcDbEntity
  8
A_ACHSEN
  6
Continuous
 62
     7
100
AcDbLine
 10
327.136621016929
 20
333.778747468259
 30
0.0
 11
327.136621016929
 21
327.778747468259
 31
0.0
  0
LINE
  5
16C
330
1F
100
AcDbEntity
  8
0
  6
Continuous
 62
     7
100
AcDbLine
 10
370.607740617129
 20
233.595400467659
 30
0.0
 11
370.208822016329
 21
234.340000652759
 31
0.0
  0
LINE
  5
16D
330
1F
100
AcDbEntity
  8
0
  6
Continuous
 62
     3
100
AcDbLine
 10
334.446022093629
 20
302.778747468259
 30
0.0
 11
333.291321555329
 21
304.778747468259
 31
0.0
  0
LINE
  5
16E
330
1F
100
AcDbEntity
  8
0
  6
Continuous
 62
     3
100
AcDbLine
 10
329.827219940129
 20
302.778747468259
 30
0.0
 11
330.981920478529
 21
300.778747468259
 31
0.0
  0
LINE
  5
16F
330
1F
100
AcDbEntity
  8
0
  6
Continuous
 62
     7
100
AcDbLine
 10
374.362056265729
 20
236.737871564659
 30
0.0
 11
374.807439641229
 21
236.020097829759
 31
0.0
  0
LINE
  5
170
330
1F
100
AcDbEntity
  8
0
  6
Continuous
 62
     7
100
AcDbLine
 10
367.911185768129
 20
238.319623371959
 30
0.0
 11
367.465802392629
 21
239.037397106759
 31
0.0
  0
LINE
  5
171
330
1F
100
AcDbEntity
  8
A_ACHSEN
  6
CENTER
 62
     2
100
AcDbLine
 10
350.736621016929
 20
288.778747468259
 30
0.0
 11
359.536621016929
 21
288.778747468259
 31
0.0
  0
LINE
  5
172
330
1F
100
AcDbEntity
  8
0
  6
Continuous
 62
     7
100
AcDbLine
 10
323.236621016929
 20
280.778747468259
 30
0.0
 11
323.636621016929
 21
280.778747468259
 31
0.0
  0
LINE
  5
173
330
1F
100
AcDbEntity
  8
0
  6
Continuous
 62
     3
100
AcDbLine
 10
336.291321555329
 20
280.778747468259
 30
0.0
 11
333.981920478529
 21
280.778747468259
 31
0.0
  0
LINE
  5
174
330
1F
100
AcDbEntity
  8
0
  6
Continuous
 62
     7
100
AcDbLine
 10
374.362056265729
 20
424.819623371959
 30
0.0
 11
374.807439641229
 21
425.537397106759
 31
0.0
  0
LINE
  5
175
330
1F
100
AcDbEntity
  8
0
  6
Continuous
 62
     7
100
AcDbLine
 10
367.911185768129
 20
423.237871564659
 30
0.0
 11
367.465802392629
 21
422.520097829759
 31
0.0
  0
LINE
  5
176
330
1F
100
AcDbEntity
  8
0
  6
Continuous
 62
     3
100
AcDbLine
 10
333.291321555329
 20
356.778747468259
 30
0.0
 11
334.446022093629
 21
358.778747468259
 31
0.0
  0
LINE
  5
177
330
1F
100
AcDbEntity
  8
0
  6
Continuous
 62
     3
100
AcDbLine
 10
330.981920478529
 20
360.778747468259
 30
0.0
 11
329.827219940129
 21
358.778747468259
 31
0.0
  0
LINE
  5
178
330
1F
100
AcDbEntity
  8
0
  6
Continuous
 62
     7
100
AcDbLine
 10
370.607740617129
 20
427.962094468859
 30
0.0
 11
370.208822016329
 21
427.217494283759
 31
0.0
  0
LINE
  5
179
330
1F
100
AcDbEntity
  8
0
  6
Continuous
 62
     7
100
AcDbLine
 10
323.636621016929
 20
270.778747468259
 30
0.0
 11
323.636621016929
 21
390.778747468259
 31
0.0
  0
LINE
  5
17A
330
1F
100
AcDbEntity
  8
0
  6
Continuous
 62
     7
100
AcDbLine
 10
323.236621016929
 20
280.778747468259
 30
0.0
 11
323.236621016929
 21
258.428747468259
 31
0.0
  0
LINE
  5
17B
330
1F
100
AcDbEntity
  8
0
  6
Continuous
 62
     7
100
AcDbLine
 10
323.236621016929
 20
403.128747468259
 30
0.0
 11
323.236621016929
 21
380.778747468259
 31
0.0
  0
LINE
  5
17C
330
1F
100
AcDbEntity
  8
0
  6
Continuous
 62
     7
100
AcDbLine
 10
323.136621016929
 20
249.528747468259
 30
0.0
 11
323.136621016929
 21
238.278747468259
 31
0.0
  0
LINE
  5
17D
330
1F
100
AcDbEntity
  8
0
  6
Continuous
 62
     7
100
AcDbLine
 10
323.136621016929
 20
423.278747468259
 30
0.0
 11
323.136621016929
 21
412.028747468259
 31
0.0
  0
LINE
  5
17E
330
1F
100
AcDbEntity
  8
0
  6
Continuous
 62
     3
100
AcDbLine
 10
337.446022093629
 20
278.778747468259
 30
0.0
 11
336.291321555329
 21
280.778747468259
 31
0.0
  0
LINE
  5
17F
330
1F
100
AcDbEntity
  8
0
  6
Continuous
 62
     3
100
AcDbLine
 10
332.827219940129
 20
278.778747468259
 30
0.0
 11
333.981920478529
 21
276.778747468259
 31
0.0
  0
LINE
  5
180
330
1F
100
AcDbEntity
  8
A_ACHSEN
  6
CENTER
 62
     2
100
AcDbLine
 10
335.118394022229
 20
278.778747468259
 30
0.0
 11
341.076869689529
 21
278.778747468259
 31
0.0
  0
LINE
  5
181
330
1F
100
AcDbEntity
  8
A_ACHSEN
  6
CENTER
 62
     2
100
AcDbLine
 10
335.118394022229
 20
278.778747468259
 30
0.0
 11
327.838582746729
 21
278.778747468259
 31
0.0
  0
LINE
  5
182
330
1F
100
AcDbEntity
  8
0
  6
Continuous
 62
     3
100
AcDbLine
 10
333.981920478529
 20
276.778747468259
 30
0.0
 11
336.291321555329
 21
276.778747468259
 31
0.0
  0
LINE
  5
183
330
1F
100
AcDbEntity
  8
A_ACHSEN
  6
Continuous
 62
     7
100
AcDbLine
 10
372.136621016929
 20
272.278747468259
 30
0.0
 11
379.136621016929
 21
272.278747468259
 31
0.0
  0
LINE
  5
184
330
1F
100
AcDbEntity
  8
0
  6
Continuous
 62
     3
100
AcDbLine
 10
336.291321555329
 20
380.778747468259
 30
0.0
 11
337.446022093629
 21
382.778747468259
 31
0.0
  0
LINE
  5
185
330
1F
100
AcDbEntity
  8
0
  6
Continuous
 62
     3
100
AcDbLine
 10
333.981920478529
 20
384.778747468259
 30
0.0
 11
332.827219940129
 21
382.778747468259
 31
0.0
  0
LINE
  5
186
330
1F
100
AcDbEntity
  8
0
  6
Continuous
 62
     3
100
AcDbLine
 10
337.446022093629
 20
266.778747468259
 30
0.0
 11
336.291321555329
 21
268.778747468259
 31
0.0
  0
LINE
  5
187
330
1F
100
AcDbEntity
  8
0
  6
Continuous
 62
     3
100
AcDbLine
 10
332.827219940129
 20
266.778747468259
 30
0.0
 11
333.981920478529
 21
264.778747468259
 31
0.0
  0
LINE
  5
188
330
1F
100
AcDbEntity
  8
0
  6
Continuous
 62
     7
100
AcDbLine
 10
400.994682792329
 20
270.203444830359
 30
0.0
 11
401.838984768729
 21
270.176618380159
 31
0.0
  0
LINE
  5
189
330
1F
100
AcDbEntity
  8
0
  6
Continuous
 62
     7
100
AcDbLine
 10
407.278559241429
 20
265.354050106159
 30
0.0
 11
406.434257265129
 21
265.380876556359
 31
0.0
  0
LINE
  5
18A
330
1F
100
AcDbEntity
  8
0
  6
Continuous
 62
     3
100
AcDbLine
 10
336.291321555329
 20
268.778747468259
 30
0.0
 11
333.981920478529
 21
268.778747468259
 31
0.0
  0
LINE
  5
18B
330
1F
100
AcDbEntity
  8
A_ACHSEN
  6
CENTER
 62
     2
100
AcDbLine
 10
364.898042911829
 20
268.278747468259
 30
0.0
 11
385.212190135429
 21
268.278747468259
 31
0.0
  0
LINE
  5
18C
330
1F
100
AcDbEntity
  8
A_ACHSEN
  6
CENTER
 62
     2
100
AcDbLine
 10
397.648824516129
 20
267.778747468259
 30
0.0
 11
411.599625889829
 21
267.778747468259
 31
0.0
  0
LINE
  5
18D
330
1F
100
AcDbEntity
  8
A_ACHSEN
  6
Continuous
 62
     2
100
AcDbLine
 10
334.594845951029
 20
266.778747468259
 30
0.0
 11
335.567149511829
 21
266.778747468259
 31
0.0
  0
LINE
  5
18E
330
1F
100
AcDbEntity
  8
A_ACHSEN
  6
CENTER
 62
     2
100
AcDbLine
 10
327.115587791229
 20
266.778747468259
 30
0.0
 11
334.594845951029
 21
266.778747468259
 31
0.0
  0
LINE
  5
18F
330
1F
100
AcDbEntity
  8
A_ACHSEN
  6
CENTER
 62
     2
100
AcDbLine
 10
343.121200253229
 20
266.778747468259
 30
0.0
 11
335.567149511829
 21
266.778747468259
 31
0.0
  0
LINE
  5
190
330
1F
100
AcDbEntity
  8
0
  6
Continuous
 62
     3
100
AcDbLine
 10
333.981920478529
 20
264.778747468259
 30
0.0
 11
336.291321555329
 21
264.778747468259
 31
0.0
  0
LINE
  5
191
330
1F
100
AcDbEntity
  8
A_ACHSEN
  6
Continuous
 62
     7
100
AcDbLine
 10
379.136621016929
 20
264.278747468259
 30
0.0
 11
372.136621016929
 21
264.278747468259
 31
0.0
  0
LINE
  5
192
330
1F
100
AcDbEntity
  8
0
  6
Continuous
 62
     7
100
AcDbLine
 10
406.434257265129
 20
270.176618380159
 30
0.0
 11
407.278559241429
 21
270.203444830359
 31
0.0
  0
LINE
  5
193
330
1F
100
AcDbEntity
  8
0
  6
Continuous
 62
     7
100
AcDbLine
 10
401.838984768729
 20
265.380876556359
 30
0.0
 11
400.994682792429
 21
265.354050106159
 31
0.0
  0
LINE
  5
194
330
1F
100
AcDbEntity
  8
0
  6
Continuous
 62
     3
100
AcDbLine
 10
336.291321555329
 20
392.778747468259
 30
0.0
 11
337.446022093629
 21
394.778747468259
 31
0.0
  0
LINE
  5
195
330
1F
100
AcDbEntity
  8
0
  6
Continuous
 62
     3
100
AcDbLine
 10
333.981920478529
 20
396.778747468259
 30
0.0
 11
332.827219940129
 21
394.778747468259
 31
0.0
  0
LINE
  5
196
330
1F
100
AcDbEntity
  8
0
  6
Continuous
 62
     7
100
AcDbLine
 10
347.665501416629
 20
224.712094468859
 30
0.0
 11
348.064420017529
 21
223.967494283759
 31
0.0
  0
LINE
  5
197
330
1F
100
AcDbEntity
  8
0
  6
Continuous
 62
     7
100
AcDbLine
 10
346.607740617129
 20
216.845400467659
 30
0.0
 11
346.208822016329
 21
217.590000652759
 31
0.0
  0
LINE
  5
198
330
1F
100
AcDbEntity
  8
0
  6
Continuous
 62
     7
100
AcDbLine
 10
350.362056265729
 20
219.987871564659
 30
0.0
 11
350.807439641229
 21
219.270097829759
 31
0.0
  0
LINE
  5
199
330
1F
100
AcDbEntity
  8
0
  6
Continuous
 62
     7
100
AcDbLine
 10
390.994682792429
 20
257.203444830359
 30
0.0
 11
391.838984768729
 21
257.176618380159
 31
0.0
  0
LINE
  5
19A
330
1F
100
AcDbEntity
  8
0
  6
Continuous
 62
     7
100
AcDbLine
 10
396.434257265129
 20
257.176618380159
 30
0.0
 11
397.278559241429
 21
257.203444830359
 31
0.0
  0
LINE
  5
19B
330
1F
100
AcDbEntity
  8
0
  6
Continuous
 62
     7
100
AcDbLine
 10
350.362056265729
 20
441.569623371959
 30
0.0
 11
350.807439641229
 21
442.287397106759
 31
0.0
  0
LINE
  5
19C
330
1F
100
AcDbEntity
  8
0
  6
Continuous
 62
     7
100
AcDbLine
 10
347.665501416629
 20
436.845400467659
 30
0.0
 11
348.064420017529
 21
437.590000652759
 31
0.0
  0
LINE
  5
19D
330
1F
100
AcDbEntity
  8
0
  6
Continuous
 62
     7
100
AcDbLine
 10
346.607740617129
 20
444.712094468859
 30
0.0
 11
346.208822016329
 21
443.967494283759
 31
0.0
  0
LINE
  5
19E
330
1F
100
AcDbEntity
  8
0
  6
Continuous
 62
     7
100
AcDbLine
 10
343.911185768129
 20
221.569623371959
 30
0.0
 11
343.465802392629
 21
222.287397106759
 31
0.0
  0
LINE
  5
19F
330
1F
100
AcDbEntity
  8
0
  6
Continuous
 62
     3
100
AcDbLine
 10
337.136621016929
 20
254.183448006659
 30
0.0
 11
335.136621016929
 21
255.338148545059
 31
0.0
  0
LINE
  5
1A0
330
1F
100
AcDbEntity
  8
0
  6
Continuous
 62
     7
100
AcDbLine
 10
397.278559241429
 20
252.354050106159
 30
0.0
 11
396.434257265129
 21
252.380876556359
 31
0.0
  0
LINE
  5
1A1
330
1F
100
AcDbEntity
  8
A_ACHSEN
  6
CENTER
 62
     2
100
AcDbLine
 10
386.786886706829
 20
254.778747468259
 30
0.0
 11
401.111067192829
 21
254.778747468259
 31
0.0
  0
LINE
  5
1A2
330
1F
100
AcDbEntity
  8
DEFAULT_1
  6
CENTER
 62
     2
100
AcDbLine
 10
326.136621016929
 20
253.028747468259
 30
0.0
 11
344.136621016929
 21
253.028747468259
 31
0.0
  0
LINE
  5
1A3
330
1F
100
AcDbEntity
  8
0
  6
Continuous
 62
     7
100
AcDbLine
 10
325.600505455529
 20
249.528747468259
 30
0.0
 11
323.136621016929
 21
249.528747468259
 31
0.0
  0
LINE
  5
1A4
330
1F
100
AcDbEntity
  8
0
  6
Continuous
 62
     7
100
AcDbLine
 10
391.838984768729
 20
252.380876556359
 30
0.0
 11
390.994682792329
 21
252.354050106159
 31
0.0
  0
LINE
  5
1A5
330
1F
100
AcDbEntity
  8
0
  6
Continuous
 62
     3
100
AcDbLine
 10
335.136621016929
 20
406.219346391459
 30
0.0
 11
337.136621016929
 21
407.374046929859
 31
0.0
  0
LINE
  5
1A6
330
1F
100
AcDbEntity
  8
0
  6
Continuous
 62
     7
100
AcDbLine
 10
343.911185768129
 20
439.987871564659
 30
0.0
 11
343.465802392629
 21
439.270097829759
 31
0.0
  0
LINE
  5
1A7
330
1F
100
AcDbEntity
  8
0
  6
Continuous
 62
     3
100
AcDbLine
 10
333.136621016929
 20
251.874046929859
 30
0.0
 11
335.136621016929
 21
250.719346391459
 31
0.0
  0
LINE
  5
1A8
330
1F
100
AcDbEntity
  8
0
  6
Continuous
 62
     7
100
AcDbLine
 10
380.994682792329
 20
243.203444830359
 30
0.0
 11
381.838984768729
 21
243.176618380159
 31
0.0
  0
LINE
  5
1A9
330
1F
100
AcDbEntity
  8
0
  6
Continuous
 62
     7
100
AcDbLine
 10
367.994682792429
 20
239.953444830359
 30
0.0
 11
368.838984768729
 21
239.926618380159
 31
0.0
  0
LINE
  5
1AA
330
1F
100
AcDbEntity
  8
0
  6
Continuous
 62
     7
100
AcDbLine
 10
387.278559241429
 20
238.354050106159
 30
0.0
 11
386.434257265129
 21
238.380876556359
 31
0.0
  0
LINE
  5
1AB
330
1F
100
AcDbEntity
  8
A_ACHSEN
  6
Continuous
 62
     7
100
AcDbLine
 10
333.136621016929
 20
241.748747468259
 30
0.0
 11
335.136621016929
 21
241.748747468259
 31
0.0
  0
LINE
  5
1AC
330
1F
100
AcDbEntity
  8
A_ACHSEN
  6
Continuous
 62
     7
100
AcDbLine
 10
324.354691690529
 20
241.748747468259
 30
0.0
 11
327.136621016929
 21
241.748747468259
 31
0.0
  0
LINE
  5
1AD
330
1F
100
AcDbEntity
  8
A_ACHSEN
  6
CENTER
 62
     2
100
AcDbLine
 10
377.022810775829
 20
240.778747468259
 30
0.0
 11
391.409044324429
 21
240.778747468259
 31
0.0
  0
LINE
  5
1AE
330
1F
100
AcDbEntity
  8
A_ACHSEN
  6
Continuous
 62
     2
100
AcDbLine
 10
330.136621016529
 20
239.778747468259
 30
0.0
 11
330.195240434729
 21
239.778747468259
 31
0.0
  0
LINE
  5
1AF
330
1F
100
AcDbEntity
  8
A_ACHSEN
  6
CENTER
 62
     2
100
AcDbLine
 10
326.432665177629
 20
239.778747468259
 30
0.0
 11
330.136621016529
 21
239.778747468259
 31
0.0
  0
LINE
  5
1B0
330
1F
100
AcDbEntity
  8
A_ACHSEN
  6
CENTER
 62
     2
100
AcDbLine
 10
334.024073512529
 20
239.778747468259
 30
0.0
 11
330.195240434729
 21
239.778747468259
 31
0.0
  0
LINE
  5
1B1
330
1F
100
AcDbEntity
  8
0
  6
Continuous
 62
     7
100
AcDbLine
 10
386.434257265129
 20
243.176618380159
 30
0.0
 11
387.278559241429
 21
243.203444830359
 31
0.0
  0
LINE
  5
1B2
330
1F
100
AcDbEntity
  8
0
  6
Continuous
 62
     7
100
AcDbLine
 10
373.434257265129
 20
239.926618380159
 30
0.0
 11
374.278559241429
 21
239.953444830359
 31
0.0
  0
LINE
  5
1B3
330
1F
100
AcDbEntity
  8
0
  6
Continuous
 62
     7
100
AcDbLine
 10
381.838984768729
 20
238.380876556359
 30
0.0
 11
380.994682792429
 21
238.354050106159
 31
0.0
  0
LINE
  5
1B4
330
1F
100
AcDbEntity
  8
0
  6
Continuous
 62
     3
100
AcDbLine
 10
335.136621016929
 20
410.838148545059
 30
0.0
 11
333.136621016929
 21
409.683448006659
 31
0.0
  0
LINE
  5
1B5
330
1F
100
AcDbEntity
  8
0
  6
Continuous
 62
     7
100
AcDbLine
 10
374.278559241429
 20
235.104050106159
 30
0.0
 11
373.434257265129
 21
235.130876556359
 31
0.0
  0
LINE
  5
1B6
330
1F
100
AcDbEntity
  8
A_ACHSEN
  6
CENTER
 62
     2
100
AcDbLine
 10
350.736621016929
 20
237.778747468259
 30
0.0
 11
359.536621016929
 21
237.778747468259
 31
0.0
  0
LINE
  5
1B7
330
1F
100
AcDbEntity
  8
A_ACHSEN
  6
CENTER
 62
     2
100
AcDbLine
 10
321.560125627529
 20
237.748747468259
 30
0.0
 11
347.268749817629
 21
237.748747468259
 31
0.0
  0
LINE
  5
1B8
330
1F
100
AcDbEntity
  8
A_ACHSEN
  6
CENTER
 62
     2
100
AcDbLine
 10
362.901761255729
 20
237.528747468259
 30
0.0
 11
378.348730918529
 21
237.528747468259
 31
0.0
  0
LINE
  5
1B9
330
1F
100
AcDbEntity
  8
A_ACHSEN
  6
CENTER
 62
     2
100
AcDbLine
 10
335.736621016929
 20
234.778747468259
 30
0.0
 11
344.536621016929
 21
234.778747468259
 31
0.0
  0
LINE
  5
1BA
330
1F
100
AcDbEntity
  8
0
  6
Continuous
 62
     7
100
AcDbLine
 10
368.838984768729
 20
235.130876556359
 30
0.0
 11
367.994682792429
 21
235.104050106159
 31
0.0
  0
LINE
  5
1BB
330
1F
100
AcDbEntity
  8
0
  6
Continuous
 62
     7
100
AcDbLine
 10
343.994682792329
 20
223.203444830359
 30
0.0
 11
344.838984768729
 21
223.176618380159
 31
0.0
  0
LINE
  5
1BC
330
1F
100
AcDbEntity
  8
0
  6
Continuous
 62
     7
100
AcDbLine
 10
335.882474464329
 20
226.278747468259
 30
0.0
 11
340.136621016929
 21
226.278747468259
 31
0.0
  0
LINE
  5
1BD
330
1F
100
AcDbEntity
  8
A_ACHSEN
  6
Continuous
 62
     7
100
AcDbLine
 10
358.136621016929
 20
225.778747468259
 30
0.0
 11
375.136621016929
 21
225.778747468259
 31
0.0
  0
LINE
  5
1BE
330
1F
100
AcDbEntity
  8
A_ACHSEN
  6
CENTER
 62
     2
100
AcDbLine
 10
351.512736931429
 20
221.778747468259
 30
0.0
 11
380.731632436129
 21
221.778747468259
 31
0.0
  0
LINE
  5
1BF
330
1F
100
AcDbEntity
  8
A_ACHSEN
  6
CENTER
 62
     2
100
AcDbLine
 10
339.956278102529
 20
220.778747468259
 30
0.0
 11
353.885281237829
 21
220.778747468259
 31
0.0
  0
LINE
  5
1C0
330
1F
100
AcDbEntity
  8
0
  6
Continuous
 62
     7
100
AcDbLine
 10
349.434257265129
 20
223.176618380159
 30
0.0
 11
350.278559241429
 21
223.203444830359
 31
0.0
  0
LINE
  5
1C1
330
1F
100
AcDbEntity
  8
0
  6
Continuous
 62
     7
100
AcDbLine
 10
350.278559241429
 20
218.354050106159
 30
0.0
 11
349.434257265129
 21
218.380876556359
 31
0.0
  0
LINE
  5
1C2
330
1F
100
AcDbEntity
  8
A_ACHSEN
  6
Continuous
 62
     7
100
AcDbLine
 10
375.136621016929
 20
217.778747468259
 30
0.0
 11
358.136621016929
 21
217.778747468259
 31
0.0
  0
LINE
  5
1C3
330
1F
100
AcDbEntity
  8
0
  6
Continuous
 62
     7
100
AcDbLine
 10
344.838984768729
 20
218.380876556359
 30
0.0
 11
343.994682792429
 21
218.354050106159
 31
0.0
  0
LINE
  5
1C4
330
1F
100
AcDbEntity
  8
0
  6
Continuous
 62
     7
100
AcDbLine
 10
340.136621016929
 20
210.778747468259
 30
0.0
 11
414.136621016929
 21
210.778747468259
 31
0.0
  0
ARC
  5
1C5
330
1F
100
AcDbEntity
  8
0
  6
Continuous
 62
     7
100
AcDbCircle
 10
394.136621016929
 20
410.428747468259
 30
0.0
 40
0.5999999999465533
100
AcDbArc
 50
28.18012336397879
 51
151.8198766405277
  0
ARC
  5
1C6
330
1F
100
AcDbEntity
  8
0
  6
Continuous
 62
     7
100
AcDbCircle
 10
397.297613740729
 20
408.603747468259
 30
0.0
 40
0.6000000000348433
100
AcDbArc
 50
-31.81987664158742
 51
91.81987664104591
  0
ARC
  5
1C7
330
1F
100
AcDbEntity
  8
0
  6
Continuous
 62
     7
100
AcDbCircle
 10
397.297613740729
 20
404.953747468259
 30
0.0
 40
0.6000000000444105
100
AcDbArc
 50
-91.81987664104591
 51
31.81987664158742
  0
ARC
  5
1C8
330
1F
100
AcDbEntity
  8
0
  6
Continuous
 62
     7
100
AcDbCircle
 10
394.136621016929
 20
403.128747468259
 30
0.0
 40
0.6000000000346658
100
AcDbArc
 50
-151.8198766405229
 51
-28.18012336398358
  0
ARC
  5
1C9
330
1F
100
AcDbEntity
  8
0
  6
Continuous
 62
     7
100
AcDbCircle
 10
390.975628293129
 20
404.953747468259
 30
0.0
 40
0.6000000000348433
100
AcDbArc
 50
148.1801233584126
 51
-88.18012335895409
  0
ARC
  5
1CA
330
1F
100
AcDbEntity
  8
0
  6
Continuous
 62
     7
100
AcDbCircle
 10
390.975628293129
 20
408.603747468259
 30
0.0
 40
0.6000000000412351
100
AcDbArc
 50
88.18012336849739
 51
-148.1801233584126
  0
ARC
  5
1CB
330
1F
100
AcDbEntity
  8
0
  6
Continuous
 62
     7
100
AcDbCircle
 10
404.136621016929
 20
397.428747468259
 30
0.0
 40
0.5999999999465533
100
AcDbArc
 50
28.18012336397879
 51
151.8198766405277
  0
ARC
  5
1CC
330
1F
100
AcDbEntity
  8
0
  6
Continuous
 62
     7
100
AcDbCircle
 10
407.297613740729
 20
395.603747468259
 30
0.0
 40
0.6000000000348433
100
AcDbArc
 50
-31.81987664158742
 51
91.81987664104591
  0
ARC
  5
1CD
330
1F
100
AcDbEntity
  8
0
  6
Continuous
 62
     7
100
AcDbCircle
 10
407.297613740729
 20
391.953747468259
 30
0.0
 40
0.6000000000444105
100
AcDbArc
 50
-91.81987664104591
 51
31.81987664158742
  0
ARC
  5
1CE
330
1F
100
AcDbEntity
  8
0
  6
Continuous
 62
     7
100
AcDbCircle
 10
404.136621016929
 20
390.128747468259
 30
0.0
 40
0.6000000000346658
100
AcDbArc
 50
-151.8198766405229
 51
-28.18012336398358
  0
ARC
  5
1CF
330
1F
100
AcDbEntity
  8
0
  6
Continuous
 62
     7
100
AcDbCircle
 10
400.975628293129
 20
391.953747468259
 30
0.0
 40
0.6000000000348433
100
AcDbArc
 50
148.1801233584126
 51
-88.18012336849739
  0
ARC
  5
1D0
330
1F
100
AcDbEntity
  8
0
  6
Continuous
 62
     7
100
AcDbCircle
 10
400.975628293129
 20
395.603747468259
 30
0.0
 40
0.6000000000444105
100
AcDbArc
 50
88.18012335895409
 51
-148.1801233584126
  0
ARC
  5
1D1
330
1F
100
AcDbEntity
  8
0
  6
Continuous
 62
     7
100
AcDbCircle
 10
396.386621016929
 20
410.675861785259
 30
0.0
 40
1.499999999998539
100
AcDbArc
 50
-151.8198766387232
 51
-88.18012336068068
  0
ARC
  5
1D2
330
1F
100
AcDbEntity
  8
0
  6
Continuous
 62
     7
100
AcDbCircle
 10
398.636621016929
 20
406.778747468259
 30
0.0
 40
1.50000000001826
100
AcDbArc
 50
148.1801233590269
 51
-148.1801233622721
  0
ARC
  5
1D3
330
1F
100
AcDbEntity
  8
0
  6
Continuous
 62
     7
100
AcDbCircle
 10
396.386621016929
 20
402.881633151259
 30
0.0
 40
1.499999999959476
100
AcDbArc
 50
88.18012336068075
 51
151.8198766387232
  0
ARC
  5
1D4
330
1F
100
AcDbEntity
  8
0
  6
Continuous
 62
     7
100
AcDbCircle
 10
391.886621016929
 20
402.881633151259
 30
0.0
 40
1.499999999998589
100
AcDbArc
 50
28.18012336127579
 51
91.81987663931709
  0
ARC
  5
1D5
330
1F
100
AcDbEntity
  8
0
  6
Continuous
 62
     7
100
AcDbCircle
 10
391.886621016929
 20
410.675861785259
 30
0.0
 40
1.499999999959417
100
AcDbArc
 50
-91.81987663931716
 51
-28.18012336127579
  0
ARC
  5
1D6
330
1F
100
AcDbEntity
  8
0
  6
Continuous
 62
     7
100
AcDbCircle
 10
406.386621016929
 20
397.675861785259
 30
0.0
 40
1.499999999998539
100
AcDbArc
 50
-151.8198766387232
 51
-88.18012336068068
  0
ARC
  5
1D7
330
1F
100
AcDbEntity
  8
0
  6
Continuous
 62
     7
100
AcDbCircle
 10
408.636621016929
 20
393.778747468259
 30
0.0
 40
1.50000000001826
100
AcDbArc
 50
148.1801233590269
 51
-148.1801233622721
  0
ARC
  5
1D8
330
1F
100
AcDbEntity
  8
0
  6
Continuous
 62
     7
100
AcDbCircle
 10
406.386621016929
 20
389.881633151259
 30
0.0
 40
1.499999999959476
100
AcDbArc
 50
88.18012336068075
 51
151.8198766387232
  0
ARC
  5
1D9
330
1F
100
AcDbEntity
  8
0
  6
Continuous
 62
     7
100
AcDbCircle
 10
401.886621016929
 20
389.881633151259
 30
0.0
 40
1.499999999998589
100
AcDbArc
 50
28.18012336127579
 51
91.81987663931709
  0
ARC
  5
1DA
330
1F
100
AcDbEntity
  8
0
  6
Continuous
 62
     7
100
AcDbCircle
 10
399.636621016929
 20
393.778747468259
 30
0.0
 40
1.499999999965541
100
AcDbArc
 50
-31.81987663772789
 51
31.81987664097315
  0
ARC
  5
1DB
330
1F
100
AcDbEntity
  8
0
  6
Continuous
 62
     7
100
AcDbCircle
 10
401.886621016929
 20
397.675861785259
 30
0.0
 40
1.499999999959417
100
AcDbArc
 50
-91.81987663931716
 51
-28.18012336127579
  0
ARC
  5
1DC
330
1F
100
AcDbEntity
  8
0
  6
Continuous
 62
     7
100
AcDbCircle
 10
391.136621016929
 20
330.778747468259
 30
0.0
 40
4.0
100
AcDbArc
 50
-90.0
 51
90.0
  0
ARC
  5
1DD
330
1F
100
AcDbEntity
  8
0
  6
Continuous
 62
     7
100
AcDbCircle
 10
371.136621016929
 20
427.678747468259
 30
0.0
 40
0.5999999999465533
100
AcDbArc
 50
28.18012336397879
 51
151.8198766405277
  0
ARC
  5
1DE
330
1F
100
AcDbEntity
  8
0
  6
Continuous
 62
     7
100
AcDbCircle
 10
374.297613740729
 20
425.853747468259
 30
0.0
 40
0.6000000000348433
100
AcDbArc
 50
-31.81987664158742
 51
91.81987664104591
  0
ARC
  5
1DF
330
1F
100
AcDbEntity
  8
0
  6
Continuous
 62
     7
100
AcDbCircle
 10
374.297613740729
 20
422.203747468259
 30
0.0
 40
0.6000000000444105
100
AcDbArc
 50
-91.81987664104591
 51
31.81987664158742
  0
ARC
  5
1E0
330
1F
100
AcDbEntity
  8
0
  6
Continuous
 62
     7
100
AcDbCircle
 10
371.136621016929
 20
420.378747468259
 30
0.0
 40
0.6000000000346658
100
AcDbArc
 50
-151.8198766405229
 51
-28.18012336398358
  0
ARC
  5
1E1
330
1F
100
AcDbEntity
  8
0
  6
Continuous
 62
     7
100
AcDbCircle
 10
384.136621016929
 20
424.428747468259
 30
0.0
 40
0.5999999999465533
100
AcDbArc
 50
28.18012336397879
 51
151.8198766405277
  0
ARC
  5
1E2
330
1F
100
AcDbEntity
  8
0
  6
Continuous
 62
     7
100
AcDbCircle
 10
387.297613740729
 20
422.603747468259
 30
0.0
 40
0.6000000000348433
100
AcDbArc
 50
-31.81987664158742
 51
91.81987664104591
  0
ARC
  5
1E3
330
1F
100
AcDbEntity
  8
0
  6
Continuous
 62
     7
100
AcDbCircle
 10
387.297613740729
 20
418.953747468259
 30
0.0
 40
0.6000000000444105
100
AcDbArc
 50
-91.81987664104591
 51
31.81987664158742
  0
ARC
  5
1E4
330
1F
100
AcDbEntity
  8
0
  6
Continuous
 62
     7
100
AcDbCircle
 10
384.136621016929
 20
417.128747468259
 30
0.0
 40
0.6000000000346658
100
AcDbArc
 50
-151.8198766405229
 51
-28.18012336398358
  0
ARC
  5
1E5
330
1F
100
AcDbEntity
  8
0
  6
Continuous
 62
     7
100
AcDbCircle
 10
380.975628293129
 20
418.953747468259
 30
0.0
 40
0.6000000000348433
100
AcDbArc
 50
148.1801233584126
 51
-88.18012336849739
  0
ARC
  5
1E6
330
1F
100
AcDbEntity
  8
0
  6
Continuous
 62
     7
100
AcDbCircle
 10
380.975628293129
 20
422.603747468259
 30
0.0
 40
0.6000000000444105
100
AcDbArc
 50
88.18012335895409
 51
-148.1801233584126
  0
ARC
  5
1E7
330
1F
100
AcDbEntity
  8
0
  6
Continuous
 62
     7
100
AcDbCircle
 10
373.386621016929
 20
427.925861785259
 30
0.0
 40
1.499999999998539
100
AcDbArc
 50
-151.8198766387232
 51
-88.18012336068068
  0
ARC
  5
1E8
330
1F
100
AcDbEntity
  8
0
  6
Continuous
 62
     7
100
AcDbCircle
 10
375.636621016929
 20
424.028747468259
 30
0.0
 40
1.50000000001826
100
AcDbArc
 50
148.1801233590269
 51
-148.1801233622721
  0
ARC
  5
1E9
330
1F
100
AcDbEntity
  8
0
  6
Continuous
 62
     7
100
AcDbCircle
 10
373.386621016929
 20
420.131633151259
 30
0.0
 40
1.499999999959476
100
AcDbArc
 50
88.18012336068075
 51
151.8198766387232
  0
ARC
  5
1EA
330
1F
100
AcDbEntity
  8
0
  6
Continuous
 62
     7
100
AcDbCircle
 10
386.386621016929
 20
424.675861785259
 30
0.0
 40
1.499999999998539
100
AcDbArc
 50
-151.8198766387232
 51
-88.18012336068068
  0
ARC
  5
1EB
330
1F
100
AcDbEntity
  8
0
  6
Continuous
 62
     7
100
AcDbCircle
 10
388.636621016929
 20
420.778747468259
 30
0.0
 40
1.50000000001826
100
AcDbArc
 50
148.1801233590269
 51
-148.1801233622721
  0
ARC
  5
1EC
330
1F
100
AcDbEntity
  8
0
  6
Continuous
 62
     7
100
AcDbCircle
 10
386.386621016929
 20
416.881633151259
 30
0.0
 40
1.499999999959476
100
AcDbArc
 50
88.18012336068075
 51
151.8198766387232
  0
ARC
  5
1ED
330
1F
100
AcDbEntity
  8
0
  6
Continuous
 62
     7
100
AcDbCircle
 10
381.886621016929
 20
416.881633151259
 30
0.0
 40
1.499999999998589
100
AcDbArc
 50
28.18012336127579
 51
91.81987663931709
  0
ARC
  5
1EE
330
1F
100
AcDbEntity
  8
0
  6
Continuous
 62
     7
100
AcDbCircle
 10
379.636621016929
 20
420.778747468259
 30
0.0
 40
1.499999999965541
100
AcDbArc
 50
-31.81987663772789
 51
31.81987664097315
  0
ARC
  5
1EF
330
1F
100
AcDbEntity
  8
0
  6
Continuous
 62
     7
100
AcDbCircle
 10
381.886621016929
 20
424.675861785259
 30
0.0
 40
1.499999999959417
100
AcDbArc
 50
-91.81987663931716
 51
-28.18012336127579
  0
ARC
  5
1F0
330
1F
100
AcDbEntity
  8
0
  6
Continuous
 62
     7
100
AcDbCircle
 10
389.636621016929
 20
406.778747468259
 30
0.0
 40
1.499999999965541
100
AcDbArc
 50
-31.81987663772789
 51
31.81987664097315
  0
ARC
  5
1F1
330
1F
100
AcDbEntity
  8
A_ACHSEN
  6
Continuous
 62
     7
100
AcDbCircle
 10
379.136621016929
 20
393.278747468259
 30
0.0
 40
4.0
100
AcDbArc
 50
-90.0
 51
90.0
  0
ARC
  5
1F2
330
1F
100
AcDbEntity
  8
A_ACHSEN
  6
Continuous
 62
     7
100
AcDbCircle
 10
372.136621016929
 20
393.278747468259
 30
0.0
 40
4.0
100
AcDbArc
 50
90.0
 51
-90.0
  0
ARC
  5
1F3
330
1F
100
AcDbEntity
  8
A_ACHSEN
  6
Continuous
 62
     7
100
AcDbCircle
 10
375.136621016929
 20
439.778747468259
 30
0.0
 40
4.0
100
AcDbArc
 50
-90.0
 51
90.0
  0
ARC
  5
1F4
330
1F
100
AcDbEntity
  8
0
  6
Continuous
 62
     7
100
AcDbCircle
 10
371.136621016929
 20
372.428747468259
 30
0.0
 40
0.5999999999465533
100
AcDbArc
 50
28.18012336397879
 51
151.8198766405277
  0
ARC
  5
1F5
330
1F
100
AcDbEntity
  8
0
  6
Continuous
 62
     7
100
AcDbCircle
 10
374.297613740729
 20
370.603747468259
 30
0.0
 40
0.6000000000348433
100
AcDbArc
 50
-31.81987664158742
 51
91.81987664104591
  0
ARC
  5
1F6
330
1F
100
AcDbEntity
  8
0
  6
Continuous
 62
     7
100
AcDbCircle
 10
374.297613740729
 20
366.953747468259
 30
0.0
 40
0.6000000000444105
100
AcDbArc
 50
-91.81987664104591
 51
31.81987664158742
  0
ARC
  5
1F7
330
1F
100
AcDbEntity
  8
0
  6
Continuous
 62
     7
100
AcDbCircle
 10
371.136621016929
 20
365.128747468259
 30
0.0
 40
0.6000000000346658
100
AcDbArc
 50
-151.8198766405229
 51
-28.18012336398358
  0
ARC
  5
1F8
330
1F
100
AcDbEntity
  8
0
  6
Continuous
 62
     7
100
AcDbCircle
 10
373.386621016929
 20
372.675861785259
 30
0.0
 40
1.499999999998539
100
AcDbArc
 50
-151.8198766387232
 51
-88.18012336068068
  0
ARC
  5
1F9
330
1F
100
AcDbEntity
  8
0
  6
Continuous
 62
     7
100
AcDbCircle
 10
375.636621016929
 20
368.778747468259
 30
0.0
 40
1.50000000001826
100
AcDbArc
 50
148.1801233590269
 51
-148.1801233622721
  0
ARC
  5
1FA
330
1F
100
AcDbEntity
  8
0
  6
Continuous
 62
     7
100
AcDbCircle
 10
373.386621016929
 20
364.881633151259
 30
0.0
 40
1.499999999959476
100
AcDbArc
 50
88.18012336068075
 51
151.8198766387232
  0
ARC
  5
1FB
330
1F
100
AcDbEntity
  8
0
  6
Continuous
 62
     7
100
AcDbCircle
 10
400.975628293129
 20
269.603747468259
 30
0.0
 40
0.6000000000412351
100
AcDbArc
 50
88.18012336849739
 51
-148.1801233584126
  0
ARC
  5
1FC
330
1F
100
AcDbEntity
  8
0
  6
Continuous
 62
     7
100
AcDbCircle
 10
404.136621016929
 20
271.428747468259
 30
0.0
 40
0.5999999999465533
100
AcDbArc
 50
28.18012336397879
 51
151.8198766405277
  0
ARC
  5
1FD
330
1F
100
AcDbEntity
  8
0
  6
Continuous
 62
     7
100
AcDbCircle
 10
407.297613740729
 20
269.603747468259
 30
0.0
 40
0.6000000000348433
100
AcDbArc
 50
-31.81987664158742
 51
91.81987664104591
  0
ARC
  5
1FE
330
1F
100
AcDbEntity
  8
0
  6
Continuous
 62
     7
100
AcDbCircle
 10
399.636621016929
 20
267.778747468259
 30
0.0
 40
1.499999999965541
100
AcDbArc
 50
-31.81987663772789
 51
31.81987664097315
  0
ARC
  5
1FF
330
1F
100
AcDbEntity
  8
0
  6
Continuous
 62
     7
100
AcDbCircle
 10
401.886621016929
 20
271.675861785259
 30
0.0
 40
1.499999999959417
100
AcDbArc
 50
-91.81987663931716
 51
-28.18012336127579
  0
ARC
  5
200
330
1F
100
AcDbEntity
  8
0
  6
Continuous
 62
     7
100
AcDbCircle
 10
406.386621016929
 20
271.675861785259
 30
0.0
 40
1.499999999998539
100
AcDbArc
 50
-151.8198766387232
 51
-88.18012336068068
  0
ARC
  5
201
330
1F
100
AcDbEntity
  8
0
  6
Continuous
 62
     7
100
AcDbCircle
 10
408.636621016929
 20
267.778747468259
 30
0.0
 40
1.50000000001826
100
AcDbArc
 50
148.1801233590269
 51
-148.1801233622721
  0
ARC
  5
202
330
1F
100
AcDbEntity
  8
0
  6
Continuous
 62
     7
100
AcDbCircle
 10
390.975628293129
 20
252.953747468259
 30
0.0
 40
0.6000000000348583
100
AcDbArc
 50
148.1801233584103
 51
-88.18012336849729
  0
ARC
  5
203
330
1F
100
AcDbEntity
  8
0
  6
Continuous
 62
     7
100
AcDbCircle
 10
390.975628293129
 20
256.603747468259
 30
0.0
 40
0.6000000000444105
100
AcDbArc
 50
88.18012335895409
 51
-148.1801233584126
  0
ARC
  5
204
330
1F
100
AcDbEntity
  8
0
  6
Continuous
 62
     7
100
AcDbCircle
 10
394.136621016929
 20
258.428747468259
 30
0.0
 40
0.5999999999465533
100
AcDbArc
 50
28.18012336397879
 51
151.8198766405277
  0
ARC
  5
205
330
1F
100
AcDbEntity
  8
0
  6
Continuous
 62
     7
100
AcDbCircle
 10
397.297613740729
 20
256.603747468259
 30
0.0
 40
0.6000000000348433
100
AcDbArc
 50
-31.81987664158742
 51
91.81987664104591
  0
ARC
  5
206
330
1F
100
AcDbEntity
  8
0
  6
Continuous
 62
     7
100
AcDbCircle
 10
397.297613740729
 20
252.953747468259
 30
0.0
 40
0.600000000044382
100
AcDbArc
 50
-91.819876641046
 51
31.81987664158973
  0
ARC
  5
207
330
1F
100
AcDbEntity
  8
0
  6
Continuous
 62
     7
100
AcDbCircle
 10
394.136621016929
 20
251.128747468259
 30
0.0
 40
0.6000000000346524
100
AcDbArc
 50
-151.8198766405253
 51
-28.18012336398118
  0
ARC
  5
208
330
1F
100
AcDbEntity
  8
0
  6
Continuous
 62
     7
100
AcDbCircle
 10
400.975628293129
 20
265.953747468259
 30
0.0
 40
0.6000000000348433
100
AcDbArc
 50
148.1801233584126
 51
-88.18012335895409
  0
ARC
  5
209
330
1F
100
AcDbEntity
  8
0
  6
Continuous
 62
     7
100
AcDbCircle
 10
407.297613740729
 20
265.953747468259
 30
0.0
 40
0.6000000000444105
100
AcDbArc
 50
-91.81987664104591
 51
31.81987664158742
  0
ARC
  5
20A
330
1F
100
AcDbEntity
  8
0
  6
Continuous
 62
     7
100
AcDbCircle
 10
404.136621016929
 20
264.128747468259
 30
0.0
 40
0.6000000000346658
100
AcDbArc
 50
-151.8198766405229
 51
-28.18012336398358
  0
ARC
  5
20B
330
1F
100
AcDbEntity
  8
0
  6
Continuous
 62
     7
100
AcDbCircle
 10
391.886621016929
 20
250.881633151259
 30
0.0
 40
1.499999999998589
100
AcDbArc
 50
28.18012336127579
 51
91.81987663931709
  0
ARC
  5
20C
330
1F
100
AcDbEntity
  8
0
  6
Continuous
 62
     7
100
AcDbCircle
 10
391.886621016929
 20
258.675861785259
 30
0.0
 40
1.499999999959417
100
AcDbArc
 50
-91.81987663931716
 51
-28.18012336127579
  0
ARC
  5
20D
330
1F
100
AcDbEntity
  8
0
  6
Continuous
 62
     7
100
AcDbCircle
 10
396.386621016929
 20
258.675861785259
 30
0.0
 40
1.499999999998539
100
AcDbArc
 50
-151.8198766387232
 51
-88.18012336068068
  0
ARC
  5
20E
330
1F
100
AcDbEntity
  8
0
  6
Continuous
 62
     7
100
AcDbCircle
 10
398.636621016929
 20
254.778747468259
 30
0.0
 40
1.50000000001826
100
AcDbArc
 50
148.1801233590269
 51
-148.1801233622721
  0
ARC
  5
20F
330
1F
100
AcDbEntity
  8
0
  6
Continuous
 62
     7
100
AcDbCircle
 10
396.386621016929
 20
250.881633151259
 30
0.0
 40
1.499999999959476
100
AcDbArc
 50
88.18012336068075
 51
151.8198766387232
  0
ARC
  5
210
330
1F
100
AcDbEntity
  8
0
  6
Continuous
 62
     7
100
AcDbCircle
 10
401.886621016929
 20
263.881633151259
 30
0.0
 40
1.499999999998589
100
AcDbArc
 50
28.18012336127579
 51
91.81987663931709
  0
ARC
  5
211
330
1F
100
AcDbEntity
  8
0
  6
Continuous
 62
     7
100
AcDbCircle
 10
406.386621016929
 20
263.881633151259
 30
0.0
 40
1.499999999959476
100
AcDbArc
 50
88.18012336068075
 51
151.8198766387232
  0
ARC
  5
212
330
1F
100
AcDbEntity
  8
0
  6
Continuous
 62
     7
100
AcDbCircle
 10
371.136621016929
 20
296.428747468259
 30
0.0
 40
0.5999999999465533
100
AcDbArc
 50
28.18012336397879
 51
151.8198766405277
  0
ARC
  5
213
330
1F
100
AcDbEntity
  8
0
  6
Continuous
 62
     7
100
AcDbCircle
 10
374.297613740729
 20
294.603747468259
 30
0.0
 40
0.6000000000348433
100
AcDbArc
 50
-31.81987664158742
 51
91.81987664104591
  0
ARC
  5
214
330
1F
100
AcDbEntity
  8
0
  6
Continuous
 62
     7
100
AcDbCircle
 10
374.297613740729
 20
290.953747468259
 30
0.0
 40
0.6000000000444105
100
AcDbArc
 50
-91.81987664104591
 51
31.81987664158742
  0
ARC
  5
215
330
1F
100
AcDbEntity
  8
0
  6
Continuous
 62
     7
100
AcDbCircle
 10
371.136621016929
 20
289.128747468259
 30
0.0
 40
0.6000000000346658
100
AcDbArc
 50
-151.8198766405229
 51
-28.18012336398358
  0
ARC
  5
216
330
1F
100
AcDbEntity
  8
0
  6
Continuous
 62
     7
100
AcDbCircle
 10
373.386621016929
 20
296.675861785259
 30
0.0
 40
1.499999999998539
100
AcDbArc
 50
-151.8198766387232
 51
-88.18012336068068
  0
ARC
  5
217
330
1F
100
AcDbEntity
  8
0
  6
Continuous
 62
     7
100
AcDbCircle
 10
375.636621016929
 20
292.778747468259
 30
0.0
 40
1.50000000001826
100
AcDbArc
 50
148.1801233590269
 51
-148.1801233622721
  0
ARC
  5
218
330
1F
100
AcDbEntity
  8
0
  6
Continuous
 62
     7
100
AcDbCircle
 10
373.386621016929
 20
288.881633151259
 30
0.0
 40
1.499999999959476
100
AcDbArc
 50
88.18012336068075
 51
151.8198766387232
  0
ARC
  5
219
330
1F
100
AcDbEntity
  8
A_ACHSEN
  6
Continuous
 62
     7
100
AcDbCircle
 10
379.136621016929
 20
268.278747468259
 30
0.0
 40
4.0
100
AcDbArc
 50
-90.0
 51
90.0
  0
ARC
  5
21A
330
1F
100
AcDbEntity
  8
A_ACHSEN
  6
Continuous
 62
     7
100
AcDbCircle
 10
372.136621016929
 20
268.278747468259
 30
0.0
 40
4.0
100
AcDbArc
 50
90.0
 51
-90.0
  0
ARC
  5
21B
330
1F
100
AcDbEntity
  8
0
  6
Continuous
 62
     7
100
AcDbCircle
 10
371.136621016929
 20
241.178747468259
 30
0.0
 40
0.5999999999465667
100
AcDbArc
 50
28.18012336398118
 51
151.8198766405253
  0
ARC
  5
21C
330
1F
100
AcDbEntity
  8
0
  6
Continuous
 62
     7
100
AcDbCircle
 10
374.297613740729
 20
239.353747468259
 30
0.0
 40
0.6000000000348583
100
AcDbArc
 50
-31.81987664158973
 51
91.819876641046
  0
ARC
  5
21D
330
1F
100
AcDbEntity
  8
0
  6
Continuous
 62
     7
100
AcDbCircle
 10
374.297613740729
 20
235.703747468259
 30
0.0
 40
0.600000000044382
100
AcDbArc
 50
-91.819876641046
 51
31.81987664158973
  0
ARC
  5
21E
330
1F
100
AcDbEntity
  8
0
  6
Continuous
 62
     7
100
AcDbCircle
 10
371.136621016929
 20
233.878747468259
 30
0.0
 40
0.6000000000346524
100
AcDbArc
 50
-151.8198766405253
 51
-28.18012336398118
  0
ARC
  5
21F
330
1F
100
AcDbEntity
  8
0
  6
Continuous
 62
     7
100
AcDbCircle
 10
380.975628293129
 20
238.953747468259
 30
0.0
 40
0.6000000000348583
100
AcDbArc
 50
148.1801233584103
 51
-88.180123358954
  0
ARC
  5
220
330
1F
100
AcDbEntity
  8
0
  6
Continuous
 62
     7
100
AcDbCircle
 10
380.975628293129
 20
242.603747468259
 30
0.0
 40
0.6000000000412067
100
AcDbArc
 50
88.18012336849729
 51
-148.1801233584103
  0
ARC
  5
221
330
1F
100
AcDbEntity
  8
0
  6
Continuous
 62
     7
100
AcDbCircle
 10
384.136621016929
 20
244.428747468259
 30
0.0
 40
0.5999999999465667
100
AcDbArc
 50
28.18012336398118
 51
151.8198766405253
  0
ARC
  5
222
330
1F
100
AcDbEntity
  8
0
  6
Continuous
 62
     7
100
AcDbCircle
 10
387.297613740729
 20
242.603747468259
 30
0.0
 40
0.6000000000348583
100
AcDbArc
 50
-31.81987664158973
 51
91.819876641046
  0
ARC
  5
223
330
1F
100
AcDbEntity
  8
0
  6
Continuous
 62
     7
100
AcDbCircle
 10
387.297613740729
 20
238.953747468259
 30
0.0
 40
0.600000000044382
100
AcDbArc
 50
-91.819876641046
 51
31.81987664158973
  0
ARC
  5
224
330
1F
100
AcDbEntity
  8
0
  6
Continuous
 62
     7
100
AcDbCircle
 10
384.136621016929
 20
237.128747468259
 30
0.0
 40
0.6000000000346524
100
AcDbArc
 50
-151.8198766405253
 51
-28.18012336398118
  0
ARC
  5
225
330
1F
100
AcDbEntity
  8
0
  6
Continuous
 62
     7
100
AcDbCircle
 10
373.386621016929
 20
241.425861785259
 30
0.0
 40
1.499999999998539
100
AcDbArc
 50
-151.8198766387232
 51
-88.18012336068075
  0
ARC
  5
226
330
1F
100
AcDbEntity
  8
0
  6
Continuous
 62
     7
100
AcDbCircle
 10
375.636621016929
 20
237.528747468259
 30
0.0
 40
1.50000000001826
100
AcDbArc
 50
148.1801233590269
 51
-148.1801233622721
  0
ARC
  5
227
330
1F
100
AcDbEntity
  8
0
  6
Continuous
 62
     7
100
AcDbCircle
 10
373.386621016929
 20
233.631633151259
 30
0.0
 40
1.499999999959476
100
AcDbArc
 50
88.18012336068075
 51
151.8198766387232
  0
ARC
  5
228
330
1F
100
AcDbEntity
  8
0
  6
Continuous
 62
     7
100
AcDbCircle
 10
381.886621016929
 20
236.881633151259
 30
0.0
 40
1.499999999998589
100
AcDbArc
 50
28.18012336127579
 51
91.81987663931709
  0
ARC
  5
229
330
1F
100
AcDbEntity
  8
0
  6
Continuous
 62
     7
100
AcDbCircle
 10
379.636621016929
 20
240.778747468259
 30
0.0
 40
1.499999999965541
100
AcDbArc
 50
-31.81987663772789
 51
31.81987664097315
  0
ARC
  5
22A
330
1F
100
AcDbEntity
  8
0
  6
Continuous
 62
     7
100
AcDbCircle
 10
381.886621016929
 20
244.675861785259
 30
0.0
 40
1.499999999959474
100
AcDbArc
 50
-91.81987663931709
 51
-28.18012336127579
  0
ARC
  5
22B
330
1F
100
AcDbEntity
  8
0
  6
Continuous
 62
     7
100
AcDbCircle
 10
386.386621016929
 20
244.675861785259
 30
0.0
 40
1.499999999998539
100
AcDbArc
 50
-151.8198766387232
 51
-88.18012336068075
  0
ARC
  5
22C
330
1F
100
AcDbEntity
  8
0
  6
Continuous
 62
     7
100
AcDbCircle
 10
388.636621016929
 20
240.778747468259
 30
0.0
 40
1.50000000001826
100
AcDbArc
 50
148.1801233590269
 51
-148.1801233622721
  0
ARC
  5
22D
330
1F
100
AcDbEntity
  8
0
  6
Continuous
 62
     7
100
AcDbCircle
 10
386.386621016929
 20
236.881633151259
 30
0.0
 40
1.499999999959476
100
AcDbArc
 50
88.18012336068075
 51
151.8198766387232
  0
ARC
  5
22E
330
1F
100
AcDbEntity
  8
0
  6
Continuous
 62
     7
100
AcDbCircle
 10
389.636621016929
 20
254.778747468259
 30
0.0
 40
1.499999999965541
100
AcDbArc
 50
-31.81987663772789
 51
31.81987664097315
  0
ARC
  5
22F
330
1F
100
AcDbEntity
  8
A_ACHSEN
  6
Continuous
 62
     7
100
AcDbCircle
 10
375.136621016929
 20
221.778747468259
 30
0.0
 40
4.0
100
AcDbArc
 50
-90.0
 51
90.0
  0
ARC
  5
230
330
1F
100
AcDbEntity
  8
0
  6
Continuous
 62
     7
100
AcDbCircle
 10
350.297613740729
 20
442.603747468259
 30
0.0
 40
0.6000000000348433
100
AcDbArc
 50
-31.81987664158742
 51
91.81987664104591
  0
ARC
  5
231
330
1F
100
AcDbEntity
  8
0
  6
Continuous
 62
     7
100
AcDbCircle
 10
350.297613740729
 20
438.953747468259
 30
0.0
 40
0.6000000000444105
100
AcDbArc
 50
-91.81987664104591
 51
31.81987664158742
  0
ARC
  5
232
330
1F
100
AcDbEntity
  8
0
  6
Continuous
 62
     7
100
AcDbCircle
 10
367.975628293129
 20
422.203747468259
 30
0.0
 40
0.6000000000348433
100
AcDbArc
 50
148.1801233584126
 51
-88.18012335895409
  0
ARC
  5
233
330
1F
100
AcDbEntity
  8
0
  6
Continuous
 62
     7
100
AcDbCircle
 10
367.975628293129
 20
425.853747468259
 30
0.0
 40
0.6000000000444105
100
AcDbArc
 50
88.18012335895409
 51
-148.1801233584126
  0
ARC
  5
234
330
1F
100
AcDbEntity
  8
0
  6
Continuous
 62
     7
100
AcDbCircle
 10
351.636621016929
 20
440.778747468259
 30
0.0
 40
1.50000000001826
100
AcDbArc
 50
148.1801233590269
 51
-148.1801233622721
  0
ARC
  5
235
330
1F
100
AcDbEntity
  8
0
  6
Continuous
 62
     7
100
AcDbCircle
 10
368.886621016929
 20
420.131633151259
 30
0.0
 40
1.499999999998589
100
AcDbArc
 50
28.18012336127579
 51
91.81987663931709
  0
ARC
  5
236
330
1F
100
AcDbEntity
  8
0
  6
Continuous
 62
     7
100
AcDbCircle
 10
366.636621016929
 20
424.028747468259
 30
0.0
 40
1.499999999965541
100
AcDbArc
 50
-31.81987663772789
 51
31.81987664097315
  0
ARC
  5
237
330
1F
100
AcDbEntity
  8
0
  6
Continuous
 62
     7
100
AcDbCircle
 10
368.886621016929
 20
427.925861785259
 30
0.0
 40
1.499999999959417
100
AcDbArc
 50
-91.81987663931716
 51
-28.18012336127579
  0
ARC
  5
238
330
1F
100
AcDbEntity
  8
0
  6
Continuous
 62
     2
100
AcDbCircle
 10
355.136621016929
 20
423.778747468259
 30
0.0
 40
2.500000000000281
100
AcDbArc
 50
-104.9999999999981
 51
-165.0000000000065
  0
ARC
  5
239
330
1F
100
AcDbEntity
  8
A_ACHSEN
  6
Continuous
 62
     7
100
AcDbCircle
 10
358.136621016929
 20
439.778747468259
 30
0.0
 40
4.0
100
AcDbArc
 50
90.0
 51
-90.0
  0
ARC
  5
23A
330
1F
100
AcDbEntity
  8
0
  6
Continuous
 62
     7
100
AcDbCircle
 10
367.975628293129
 20
366.953747468259
 30
0.0
 40
0.6000000000348433
100
AcDbArc
 50
148.1801233584126
 51
-88.18012335895409
  0
ARC
  5
23B
330
1F
100
AcDbEntity
  8
0
  6
Continuous
 62
     7
100
AcDbCircle
 10
367.975628293129
 20
370.603747468259
 30
0.0
 40
0.6000000000444105
100
AcDbArc
 50
88.18012335895409
 51
-148.1801233584126
  0
ARC
  5
23C
330
1F
100
AcDbEntity
  8
0
  6
Continuous
 62
     7
100
AcDbCircle
 10
368.886621016929
 20
364.881633151259
 30
0.0
 40
1.499999999998589
100
AcDbArc
 50
28.18012336127579
 51
91.81987663931709
  0
ARC
  5
23D
330
1F
100
AcDbEntity
  8
0
  6
Continuous
 62
     7
100
AcDbCircle
 10
366.636621016929
 20
368.778747468259
 30
0.0
 40
1.499999999965541
100
AcDbArc
 50
-31.81987663772789
 51
31.81987664097315
  0
ARC
  5
23E
330
1F
100
AcDbEntity
  8
0
  6
Continuous
 62
     7
100
AcDbCircle
 10
368.886621016929
 20
372.675861785259
 30
0.0
 40
1.499999999959417
100
AcDbArc
 50
-91.81987663931716
 51
-28.18012336127579
  0
ARC
  5
23F
330
1F
100
AcDbEntity
  8
0
  6
Continuous
 62
     2
100
AcDbCircle
 10
355.136621016929
 20
330.778747468259
 30
0.0
 40
2.500000000000281
100
AcDbArc
 50
-104.9999999999981
 51
-165.0000000000065
  0
ARC
  5
240
330
1F
100
AcDbEntity
  8
0
  6
Continuous
 62
     2
100
AcDbCircle
 10
355.136621016929
 20
372.778747468259
 30
0.0
 40
2.500000000000281
100
AcDbArc
 50
-104.9999999999981
 51
-165.0000000000065
  0
ARC
  5
241
330
1F
100
AcDbEntity
  8
0
  6
Continuous
 62
     7
100
AcDbCircle
 10
366.636621016929
 20
330.778747468259
 30
0.0
 40
4.0
100
AcDbArc
 50
90.0
 51
-90.0
  0
ARC
  5
242
330
1F
100
AcDbEntity
  8
0
  6
Continuous
 62
     7
100
AcDbCircle
 10
347.136621016929
 20
444.428747468259
 30
0.0
 40
0.5999999999465533
100
AcDbArc
 50
28.18012336397879
 51
151.8198766405277
  0
ARC
  5
243
330
1F
100
AcDbEntity
  8
0
  6
Continuous
 62
     7
100
AcDbCircle
 10
347.136621016929
 20
437.128747468259
 30
0.0
 40
0.6000000000346658
100
AcDbArc
 50
-151.8198766405229
 51
-28.18012336398358
  0
ARC
  5
244
330
1F
100
AcDbEntity
  8
0
  6
Continuous
 62
     7
100
AcDbCircle
 10
343.975628293129
 20
438.953747468259
 30
0.0
 40
0.6000000000348433
100
AcDbArc
 50
148.1801233584126
 51
-88.18012336849739
  0
ARC
  5
245
330
1F
100
AcDbEntity
  8
0
  6
Continuous
 62
     7
100
AcDbCircle
 10
343.975628293129
 20
442.603747468259
 30
0.0
 40
0.6000000000444105
100
AcDbArc
 50
88.18012335895409
 51
-148.1801233584126
  0
ARC
  5
246
330
1F
100
AcDbEntity
  8
0
  6
Continuous
 62
     7
100
AcDbCircle
 10
349.386621016929
 20
444.675861785259
 30
0.0
 40
1.499999999998539
100
AcDbArc
 50
-151.8198766387232
 51
-88.18012336068068
  0
ARC
  5
247
330
1F
100
AcDbEntity
  8
0
  6
Continuous
 62
     7
100
AcDbCircle
 10
349.386621016929
 20
436.881633151259
 30
0.0
 40
1.499999999959476
100
AcDbArc
 50
88.18012336068075
 51
151.8198766387232
  0
ARC
  5
248
330
1F
100
AcDbEntity
  8
0
  6
Continuous
 62
     7
100
AcDbCircle
 10
344.886621016929
 20
436.881633151259
 30
0.0
 40
1.499999999998589
100
AcDbArc
 50
28.18012336127579
 51
91.81987663931709
  0
ARC
  5
249
330
1F
100
AcDbEntity
  8
0
  6
Continuous
 62
     7
100
AcDbCircle
 10
342.636621016929
 20
440.778747468259
 30
0.0
 40
1.499999999965541
100
AcDbArc
 50
-31.81987663772789
 51
31.81987664097315
  0
ARC
  5
24A
330
1F
100
AcDbEntity
  8
0
  6
Continuous
 62
     7
100
AcDbCircle
 10
344.886621016929
 20
444.675861785259
 30
0.0
 40
1.499999999959417
100
AcDbArc
 50
-91.81987663931716
 51
-28.18012336127579
  0
ARC
  5
24B
330
1F
100
AcDbEntity
  8
0
  6
Continuous
 62
     7
100
AcDbCircle
 10
340.136621016929
 20
420.778747468259
 30
0.0
 40
1.999999999999989
100
AcDbArc
 50
-121.9766341578007
 51
-95.65090832380133
  0
ARC
  5
24C
330
1F
100
AcDbEntity
  8
0
  6
Continuous
 62
     2
100
AcDbCircle
 10
340.136621016929
 20
426.778747468259
 30
0.0
 40
2.500000000000281
100
AcDbArc
 50
-104.9999999999981
 51
-165.0000000000065
  0
ARC
  5
24D
330
1F
100
AcDbEntity
  8
A_ACHSEN
  6
Continuous
 62
     7
100
AcDbCircle
 10
340.136621016929
 20
428.178747468259
 30
0.0
 40
3.0
100
AcDbArc
 50
0.0
 51
180.0
  0
ARC
  5
24E
330
1F
100
AcDbEntity
  8
A_ACHSEN
  6
Continuous
 62
     7
100
AcDbCircle
 10
340.136621016929
 20
426.178747468259
 30
0.0
 40
3.0
100
AcDbArc
 50
180.0
 51
0.0
  0
ARC
  5
24F
330
1F
100
AcDbEntity
  8
0
  6
Continuous
 62
     2
100
AcDbCircle
 10
330.136621016929
 20
421.778747467859
 30
0.0
 40
2.499999999613904
100
AcDbArc
 50
-105.0000000023709
 51
-165.0000000088616
  0
ARC
  5
250
330
1F
100
AcDbEntity
  8
A_ACHSEN
  6
Continuous
 62
     7
100
AcDbCircle
 10
330.136621016929
 20
422.178747468259
 30
0.0
 40
3.0
100
AcDbArc
 50
0.0
 51
180.0
  0
ARC
  5
251
330
1F
100
AcDbEntity
  8
A_ACHSEN
  6
Continuous
 62
     7
100
AcDbCircle
 10
335.136621016929
 20
423.808747468259
 30
0.0
 40
11.49999999999323
100
AcDbArc
 50
-41.58441854097625
 51
-159.6455936017213
  0
ARC
  5
252
330
1F
100
AcDbEntity
  8
0
  6
Continuous
 62
     7
100
AcDbCircle
 10
335.136621016929
 20
423.278747468259
 30
0.0
 40
11.99999999999985
100
AcDbArc
 50
102.4369260644998
 51
180.0
  0
ARC
  5
253
330
1F
100
AcDbEntity
  8
0
  6
Continuous
 62
     2
100
AcDbCircle
 10
335.136621016929
 20
394.778747468259
 30
0.0
 40
5.385000000000369
100
AcDbArc
 50
-104.9999999999992
 51
-165.0000000000009
  0
ARC
  5
254
330
1F
100
AcDbEntity
  8
0
  6
Continuous
 62
     7
100
AcDbCircle
 10
335.136621016929
 20
390.778747468259
 30
0.0
 40
11.5
100
AcDbArc
 50
0.0
 51
180.0
  0
ARC
  5
255
330
1F
100
AcDbEntity
  8
0
  6
Continuous
 62
     7
100
AcDbCircle
 10
335.136621016929
 20
403.128747468259
 30
0.0
 40
11.90000000000003
100
AcDbArc
 50
0.0
 51
180.0
  0
ARC
  5
256
330
1F
100
AcDbEntity
  8
A_ACHSEN
  6
Continuous
 62
     7
100
AcDbCircle
 10
335.136621016929
 20
407.808747468259
 30
0.0
 40
12.00000000000018
100
AcDbArc
 50
44.20803431750055
 51
90.0
  0
ARC
  5
257
330
1F
100
AcDbEntity
  8
0
  6
Continuous
 62
     7
100
AcDbCircle
 10
335.136621016929
 20
401.778747468259
 30
0.0
 40
14.0
100
AcDbArc
 50
0.0
 51
132.933660575399
  0
ARC
  5
258
330
1F
100
AcDbEntity
  8
0
  6
Continuous
 62
     2
100
AcDbCircle
 10
335.136621016929
 20
382.778747468259
 30
0.0
 40
3.999999999999723
100
AcDbArc
 50
-105.0000000000014
 51
-165.0000000000012
  0
ARC
  5
259
330
1F
100
AcDbEntity
  8
0
  6
Continuous
 62
     3
100
AcDbCircle
 10
332.136621016929
 20
330.778747468259
 30
0.0
 40
1.03923048452479
100
AcDbArc
 50
21.24736796279334
 51
38.7526320374639
  0
ARC
  5
25A
330
1F
100
AcDbEntity
  8
0
  6
Continuous
 62
     3
100
AcDbCircle
 10
332.136621016929
 20
330.778747468259
 30
0.0
 40
1.039230484560533
100
AcDbArc
 50
141.2473679625342
 51
158.7526320372055
  0
ARC
  5
25B
330
1F
100
AcDbEntity
  8
0
  6
Continuous
 62
     3
100
AcDbCircle
 10
332.136621016929
 20
330.778747468259
 30
0.0
 40
1.039230484560577
100
AcDbArc
 50
-38.7526320374639
 51
-21.24736796279042
  0
ARC
  5
25C
330
1F
100
AcDbEntity
  8
0
  6
Continuous
 62
     3
100
AcDbCircle
 10
332.136621016929
 20
330.778747468259
 30
0.0
 40
1.039230484546733
100
AcDbArc
 50
81.24736796437034
 51
98.75263203562656
  0
ARC
  5
25D
330
1F
100
AcDbEntity
  8
0
  6
Continuous
 62
     3
100
AcDbCircle
 10
332.136621016929
 20
330.778747468259
 30
0.0
 40
1.039230484546668
100
AcDbArc
 50
-98.75263203562704
 51
-81.24736796436987
  0
ARC
  5
25E
330
1F
100
AcDbEntity
  8
0
  6
Continuous
 62
     3
100
AcDbCircle
 10
332.136621016929
 20
330.778747468259
 30
0.0
 40
1.039230484524716
100
AcDbArc
 50
-158.7526320372084
 51
-141.2473679625342
  0
ARC
  5
25F
330
1F
100
AcDbEntity
  8
A_ACHSEN
  6
Continuous
 62
     7
100
AcDbCircle
 10
332.136621016929
 20
333.778747468259
 30
0.0
 40
5.0
100
AcDbArc
 50
0.0
 51
180.0
  0
ARC
  5
260
330
1F
100
AcDbEntity
  8
0
  6
Continuous
 62
     7
100
AcDbCircle
 10
367.975628293129
 20
290.953747468259
 30
0.0
 40
0.6000000000348433
100
AcDbArc
 50
148.1801233584126
 51
-88.18012335895409
  0
ARC
  5
261
330
1F
100
AcDbEntity
  8
0
  6
Continuous
 62
     7
100
AcDbCircle
 10
367.975628293129
 20
294.603747468259
 30
0.0
 40
0.6000000000444105
100
AcDbArc
 50
88.18012335895409
 51
-148.1801233584126
  0
ARC
  5
262
330
1F
100
AcDbEntity
  8
0
  6
Continuous
 62
     7
100
AcDbCircle
 10
368.886621016929
 20
288.881633151259
 30
0.0
 40
1.499999999998589
100
AcDbArc
 50
28.18012336127579
 51
91.81987663931709
  0
ARC
  5
263
330
1F
100
AcDbEntity
  8
0
  6
Continuous
 62
     7
100
AcDbCircle
 10
366.636621016929
 20
292.778747468259
 30
0.0
 40
1.499999999965541
100
AcDbArc
 50
-31.81987663772789
 51
31.81987664097315
  0
ARC
  5
264
330
1F
100
AcDbEntity
  8
0
  6
Continuous
 62
     7
100
AcDbCircle
 10
368.886621016929
 20
296.675861785259
 30
0.0
 40
1.499999999959417
100
AcDbArc
 50
-91.81987663931716
 51
-28.18012336127579
  0
ARC
  5
265
330
1F
100
AcDbEntity
  8
0
  6
Continuous
 62
     2
100
AcDbCircle
 10
355.136621016929
 20
288.778747468259
 30
0.0
 40
2.500000000000281
100
AcDbArc
 50
-104.9999999999981
 51
-165.0000000000065
  0
ARC
  5
266
330
1F
100
AcDbEntity
  8
0
  6
Continuous
 62
     7
100
AcDbCircle
 10
350.297613740729
 20
222.603747468259
 30
0.0
 40
0.6000000000348583
100
AcDbArc
 50
-31.81987664158973
 51
91.819876641046
  0
ARC
  5
267
330
1F
100
AcDbEntity
  8
0
  6
Continuous
 62
     7
100
AcDbCircle
 10
350.297613740729
 20
218.953747468259
 30
0.0
 40
0.600000000044382
100
AcDbArc
 50
-91.819876641046
 51
31.81987664158973
  0
ARC
  5
268
330
1F
100
AcDbEntity
  8
0
  6
Continuous
 62
     7
100
AcDbCircle
 10
367.975628293129
 20
235.703747468259
 30
0.0
 40
0.6000000000348583
100
AcDbArc
 50
148.1801233584103
 51
-88.180123358954
  0
ARC
  5
269
330
1F
100
AcDbEntity
  8
0
  6
Continuous
 62
     7
100
AcDbCircle
 10
367.975628293129
 20
239.353747468259
 30
0.0
 40
0.600000000044382
100
AcDbArc
 50
88.180123358954
 51
-148.1801233584103
  0
ARC
  5
26A
330
1F
100
AcDbEntity
  8
0
  6
Continuous
 62
     7
100
AcDbCircle
 10
351.636621016929
 20
220.778747468259
 30
0.0
 40
1.50000000001826
100
AcDbArc
 50
148.1801233590269
 51
-148.1801233622721
  0
ARC
  5
26B
330
1F
100
AcDbEntity
  8
0
  6
Continuous
 62
     7
100
AcDbCircle
 10
368.886621016929
 20
233.631633151259
 30
0.0
 40
1.499999999998589
100
AcDbArc
 50
28.18012336127579
 51
91.81987663931709
  0
ARC
  5
26C
330
1F
100
AcDbEntity
  8
0
  6
Continuous
 62
     7
100
AcDbCircle
 10
366.636621016929
 20
237.528747468259
 30
0.0
 40
1.499999999965541
100
AcDbArc
 50
-31.81987663772789
 51
31.81987664097315
  0
ARC
  5
26D
330
1F
100
AcDbEntity
  8
0
  6
Continuous
 62
     7
100
AcDbCircle
 10
368.886621016929
 20
241.425861785259
 30
0.0
 40
1.499999999959474
100
AcDbArc
 50
-91.81987663931709
 51
-28.18012336127579
  0
ARC
  5
26E
330
1F
100
AcDbEntity
  8
0
  6
Continuous
 62
     2
100
AcDbCircle
 10
355.136621016929
 20
237.778747468259
 30
0.0
 40
2.500000000000034
100
AcDbArc
 50
-104.9999999999996
 51
-164.9999999999995
  0
ARC
  5
26F
330
1F
100
AcDbEntity
  8
A_ACHSEN
  6
Continuous
 62
     7
100
AcDbCircle
 10
358.136621016929
 20
221.778747468259
 30
0.0
 40
4.0
100
AcDbArc
 50
90.0
 51
-90.0
  0
ARC
  5
270
330
1F
100
AcDbEntity
  8
0
  6
Continuous
 62
     2
100
AcDbCircle
 10
335.136621016929
 20
278.778747468259
 30
0.0
 40
3.999999999999997
100
AcDbArc
 50
-105.0000000000004
 51
-165.0000000000012
  0
ARC
  5
271
330
1F
100
AcDbEntity
  8
A_ACHSEN
  6
Continuous
 62
     7
100
AcDbCircle
 10
332.136621016929
 20
327.778747468259
 30
0.0
 40
5.0
100
AcDbArc
 50
180.0
 51
0.0
  0
ARC
  5
272
330
1F
100
AcDbEntity
  8
0
  6
Continuous
 62
     7
100
AcDbCircle
 10
347.136621016929
 20
217.128747468259
 30
0.0
 40
0.6000000000346524
100
AcDbArc
 50
-151.8198766405253
 51
-28.18012336398118
  0
ARC
  5
273
330
1F
100
AcDbEntity
  8
0
  6
Continuous
 62
     7
100
AcDbCircle
 10
343.975628293129
 20
218.953747468259
 30
0.0
 40
0.6000000000348583
100
AcDbArc
 50
148.1801233584103
 51
-88.180123358954
  0
ARC
  5
274
330
1F
100
AcDbEntity
  8
0
  6
Continuous
 62
     7
100
AcDbCircle
 10
343.975628293129
 20
222.603747468259
 30
0.0
 40
0.6000000000412067
100
AcDbArc
 50
88.18012336849729
 51
-148.1801233584103
  0
ARC
  5
275
330
1F
100
AcDbEntity
  8
0
  6
Continuous
 62
     7
100
AcDbCircle
 10
347.136621016929
 20
224.428747468259
 30
0.0
 40
0.5999999999465667
100
AcDbArc
 50
28.18012336398118
 51
151.8198766405253
  0
ARC
  5
276
330
1F
100
AcDbEntity
  8
0
  6
Continuous
 62
     7
100
AcDbCircle
 10
349.386621016929
 20
224.675861785259
 30
0.0
 40
1.499999999998539
100
AcDbArc
 50
-151.8198766387232
 51
-88.18012336068075
  0
ARC
  5
277
330
1F
100
AcDbEntity
  8
0
  6
Continuous
 62
     7
100
AcDbCircle
 10
349.386621016929
 20
216.881633151259
 30
0.0
 40
1.499999999959476
100
AcDbArc
 50
88.18012336068075
 51
151.8198766387232
  0
ARC
  5
278
330
1F
100
AcDbEntity
  8
0
  6
Continuous
 62
     7
100
AcDbCircle
 10
344.886621016929
 20
216.881633151259
 30
0.0
 40
1.499999999998589
100
AcDbArc
 50
28.18012336127579
 51
91.81987663931709
  0
ARC
  5
279
330
1F
100
AcDbEntity
  8
0
  6
Continuous
 62
     7
100
AcDbCircle
 10
342.636621016929
 20
220.778747468259
 30
0.0
 40
1.499999999965541
100
AcDbArc
 50
-31.81987663772789
 51
31.81987664097315
  0
ARC
  5
27A
330
1F
100
AcDbEntity
  8
0
  6
Continuous
 62
     7
100
AcDbCircle
 10
344.886621016929
 20
224.675861785259
 30
0.0
 40
1.499999999959474
100
AcDbArc
 50
-91.81987663931709
 51
-28.18012336127579
  0
ARC
  5
27B
330
1F
100
AcDbEntity
  8
A_ACHSEN
  6
Continuous
 62
     7
100
AcDbCircle
 10
340.136621016929
 20
240.778747468259
 30
0.0
 40
1.999999999999962
100
AcDbArc
 50
95.65090832380022
 51
121.9766341576986
  0
ARC
  5
27C
330
1F
100
AcDbEntity
  8
0
  6
Continuous
 62
     2
100
AcDbCircle
 10
340.136621016929
 20
234.778747468259
 30
0.0
 40
2.500000000000034
100
AcDbArc
 50
-104.9999999999996
 51
-164.9999999999995
  0
ARC
  5
27D
330
1F
100
AcDbEntity
  8
A_ACHSEN
  6
Continuous
 62
     7
100
AcDbCircle
 10
340.136621016929
 20
235.378747468259
 30
0.0
 40
3.0
100
AcDbArc
 50
0.0
 51
180.0
  0
ARC
  5
27E
330
1F
100
AcDbEntity
  8
A_ACHSEN
  6
Continuous
 62
     7
100
AcDbCircle
 10
340.136621016929
 20
233.378747468259
 30
0.0
 40
3.0
100
AcDbArc
 50
180.0
 51
0.0
  0
ARC
  5
27F
330
1F
100
AcDbEntity
  8
0
  6
Continuous
 62
     2
100
AcDbCircle
 10
335.136621016929
 20
266.778747468259
 30
0.0
 40
5.384999999999986
100
AcDbArc
 50
-105.0000000000003
 51
-164.9999999999997
  0
ARC
  5
280
330
1F
100
AcDbEntity
  8
0
  6
Continuous
 62
     7
100
AcDbCircle
 10
335.136621016929
 20
270.778747468259
 30
0.0
 40
11.5
100
AcDbArc
 50
180.0
 51
0.0
  0
ARC
  5
281
330
1F
100
AcDbEntity
  8
0
  6
Continuous
 62
     7
100
AcDbCircle
 10
335.136621016929
 20
258.428747468259
 30
0.0
 40
11.89999999999998
100
AcDbArc
 50
180.0
 51
0.0
  0
ARC
  5
282
330
1F
100
AcDbEntity
  8
A_ACHSEN
  6
Continuous
 62
     7
100
AcDbCircle
 10
335.136621016929
 20
253.748747468259
 30
0.0
 40
12.0
100
AcDbArc
 50
-90.0
 51
-44.20803431746658
  0
ARC
  5
283
330
1F
100
AcDbEntity
  8
0
  6
Continuous
 62
     7
100
AcDbCircle
 10
335.136621016929
 20
259.778747468259
 30
0.0
 40
14.00000000001337
100
AcDbArc
 50
-132.933660575399
 51
0.0
  0
ARC
  5
284
330
1F
100
AcDbEntity
  8
0
  6
Continuous
 62
     2
100
AcDbCircle
 10
330.136621016929
 20
239.778747468259
 30
0.0
 40
2.500000000000034
100
AcDbArc
 50
-104.9999999999996
 51
-164.9999999999995
  0
ARC
  5
285
330
1F
100
AcDbEntity
  8
A_ACHSEN
  6
Continuous
 62
     7
100
AcDbCircle
 10
330.136621016929
 20
239.378747468259
 30
0.0
 40
3.0
100
AcDbArc
 50
180.0
 51
0.0
  0
ARC
  5
286
330
1F
100
AcDbEntity
  8
A_ACHSEN
  6
Continuous
 62
     7
100
AcDbCircle
 10
335.136621016929
 20
237.748747468259
 30
0.0
 40
11.49999999997755
100
AcDbArc
 50
159.6455936017213
 51
41.58441854100023
  0
ARC
  5
287
330
1F
100
AcDbEntity
  8
0
  6
Continuous
 62
     7
100
AcDbCircle
 10
335.136621016929
 20
238.278747468259
 30
0.0
 40
12.0
100
AcDbArc
 50
180.0
 51
-102.4369260644997
  0
CIRCLE
  5
288
330
1F
100
AcDbEntity
  8
1
  6
DASHED
 62
     2
100
AcDbCircle
 10
347.136621016929
 20
220.520725674159
 30
0.0
 40
5.25
  0
CIRCLE
  5
289
330
1F
100
AcDbEntity
  8
1
  6
DASHED
 62
     2
100
AcDbCircle
 10
371.136621016929
 20
237.270725674159
 30
0.0
 40
5.25
  0
CIRCLE
  5
28A
330
1F
100
AcDbEntity
  8
1
  6
DASHED
 62
     2
100
AcDbCircle
 10
384.136621016929
 20
240.520725674159
 30
0.0
 40
5.25
  0
CIRCLE
  5
28B
330
1F
100
AcDbEntity
  8
1
  6
DASHED
 62
     2
100
AcDbCircle
 10
394.136621016929
 20
254.520725673759
 30
0.0
 40
5.25
  0
CIRCLE
  5
28C
330
1F
100
AcDbEntity
  8
1
  6
DASHED
 62
     2
100
AcDbCircle
 10
404.136621016929
 20
267.520725674159
 30
0.0
 40
5.25
  0
CIRCLE
  5
28D
330
1F
100
AcDbEntity
  8
1
  6
DASHED
 62
     2
100
AcDbCircle
 10
371.136621016929
 20
292.520725674159
 30
0.0
 40
5.25
  0
CIRCLE
  5
28E
330
1F
100
AcDbEntity
  8
1
  6
DASHED
 62
     2
100
AcDbCircle
 10
371.136621016929
 20
368.520725674159
 30
0.0
 40
5.25
  0
CIRCLE
  5
28F
330
1F
100
AcDbEntity
  8
1
  6
DASHED
 62
     2
100
AcDbCircle
 10
404.136621016929
 20
393.520725674559
 30
0.0
 40
5.25
  0
CIRCLE
  5
290
330
1F
100
AcDbEntity
  8
1
  6
DASHED
 62
     2
100
AcDbCircle
 10
394.136621016929
 20
406.520725674159
 30
0.0
 40
5.25
  0
CIRCLE
  5
291
330
1F
100
AcDbEntity
  8
1
  6
DASHED
 62
     2
100
AcDbCircle
 10
384.136621016929
 20
420.5207256737591
 30
0.0
 40
5.25
  0
CIRCLE
  5
292
330
1F
100
AcDbEntity
  8
1
  6
DASHED
 62
     2
100
AcDbCircle
 10
371.136621016929
 20
423.770725674159
 30
0.0
 40
5.25
  0
CIRCLE
  5
293
330
1F
100
AcDbEntity
  8
1
  6
DASHED
 62
     2
100
AcDbCircle
 10
347.136621016929
 20
440.520725674159
 30
0.0
 40
5.25
  0
CIRCLE
  5
294
330
1F
100
AcDbEntity
  8
A_ACHSEN
  6
Continuous
 62
     7
100
AcDbCircle
 10
406.136621016929
 20
350.778747468259
 30
0.0
 40
5.5
  0
CIRCLE
  5
295
330
1F
100
AcDbEntity
  8
A_ACHSEN
  6
Continuous
 62
     7
100
AcDbCircle
 10
383.136621016929
 20
350.778747468259
 30
0.0
 40
5.5
  0
CIRCLE
  5
296
330
1F
100
AcDbEntity
  8
A_ACHSEN
  6
Continuous
 62
     7
100
AcDbCircle
 10
406.136621016929
 20
310.778747468259
 30
0.0
 40
5.5
  0
CIRCLE
  5
297
330
1F
100
AcDbEntity
  8
A_ACHSEN
  6
Continuous
 62
     7
100
AcDbCircle
 10
383.136621016929
 20
310.778747468259
 30
0.0
 40
5.5
  0
CIRCLE
  5
298
330
1F
100
AcDbEntity
  8
A_ACHSEN
  6
Continuous
 62
     7
100
AcDbCircle
 10
355.136621016929
 20
423.778747468259
 30
0.0
 40
1.800000000000011
  0
CIRCLE
  5
299
330
1F
100
AcDbEntity
  8
A_ACHSEN
  6
Continuous
 62
     7
100
AcDbCircle
 10
355.136621016929
 20
372.778747468259
 30
0.0
 40
1.800000000000011
  0
CIRCLE
  5
29A
330
1F
100
AcDbEntity
  8
A_ACHSEN
  6
Continuous
 62
     7
100
AcDbCircle
 10
355.136621016929
 20
330.778747468259
 30
0.0
 40
1.800000000000011
  0
CIRCLE
  5
29B
330
1F
100
AcDbEntity
  8
A_ACHSEN
  6
Continuous
 62
     7
100
AcDbCircle
 10
340.136621016929
 20
426.778747468259
 30
0.0
 40
1.800000000000011
  0
CIRCLE
  5
29C
330
1F
100
AcDbEntity
  8
A_ACHSEN
  6
Continuous
 62
     7
100
AcDbCircle
 10
330.136621016929
 20
421.778747467859
 30
0.0
 40
1.800000000000011
  0
CIRCLE
  5
29D
330
1F
100
AcDbEntity
  8
0
  6
Continuous
 62
     2
100
AcDbCircle
 10
335.136621016929
 20
394.778747468259
 30
0.0
 40
2.0
  0
CIRCLE
  5
29E
330
1F
100
AcDbEntity
  8
0
  6
Continuous
 62
     2
100
AcDbCircle
 10
335.136621016929
 20
408.528747468259
 30
0.0
 40
2.309401076800043
  0
CIRCLE
  5
29F
330
1F
100
AcDbEntity
  8
0
  6
Continuous
 62
     7
100
AcDbCircle
 10
335.136621016929
 20
394.778747468259
 30
0.0
 40
3.949999999999989
  0
CIRCLE
  5
2A0
330
1F
100
AcDbEntity
  8
0
  6
Continuous
 62
     7
100
AcDbCircle
 10
335.136621016929
 20
394.778747468259
 30
0.0
 40
6.0
  0
CIRCLE
  5
2A1
330
1F
100
AcDbEntity
  8
0
  6
Continuous
 62
     7
100
AcDbCircle
 10
335.136621016929
 20
408.528747468259
 30
0.0
 40
6.0
  0
CIRCLE
  5
2A2
330
1F
100
AcDbEntity
  8
0
  6
Continuous
 62
     2
100
AcDbCircle
 10
335.136621016929
 20
382.778747468259
 30
0.0
 40
2.309401076800043
  0
CIRCLE
  5
2A3
330
1F
100
AcDbEntity
  8
0
  6
Continuous
 62
     7
100
AcDbCircle
 10
335.136621016929
 20
382.778747468259
 30
0.0
 40
3.400000000000034
  0
CIRCLE
  5
2A4
330
1F
100
AcDbEntity
  8
A_ACHSEN
  6
Continuous
 62
     7
100
AcDbCircle
 10
335.136621016929
 20
382.778747468259
 30
0.0
 40
5.5
  0
CIRCLE
  5
2A5
330
1F
100
AcDbEntity
  8
0
  6
Continuous
 62
     2
100
AcDbCircle
 10
332.136621016929
 20
358.778747468259
 30
0.0
 40
2.309401076800043
  0
CIRCLE
  5
2A6
330
1F
100
AcDbEntity
  8
A_FASEN
  6
Continuous
 62
     7
100
AcDbCircle
 10
332.136621016929
 20
358.778747468259
 30
0.0
 40
5.0
  0
CIRCLE
  5
2A7
330
1F
100
AcDbEntity
  8
0
  6
Continuous
 62
     2
100
AcDbCircle
 10
332.136621016929
 20
330.778747468259
 30
0.0
 40
2.5
  0
CIRCLE
  5
2A8
330
1F
100
AcDbEntity
  8
0
  6
Continuous
 62
     7
100
AcDbCircle
 10
332.136621016929
 20
330.778747468259
 30
0.0
 40
5.0
  0
CIRCLE
  5
2A9
330
1F
100
AcDbEntity
  8
A_ACHSEN
  6
Continuous
 62
     7
100
AcDbCircle
 10
355.136621016929
 20
288.778747468259
 30
0.0
 40
1.800000000000011
  0
CIRCLE
  5
2AA
330
1F
100
AcDbEntity
  8
A_ACHSEN
  6
Continuous
 62
     7
100
AcDbCircle
 10
355.136621016929
 20
237.778747468259
 30
0.0
 40
1.800000000000011
  0
CIRCLE
  5
2AB
330
1F
100
AcDbEntity
  8
0
  6
Continuous
 62
     2
100
AcDbCircle
 10
332.136621016929
 20
302.778747468259
 30
0.0
 40
2.309401076800043
  0
CIRCLE
  5
2AC
330
1F
100
AcDbEntity
  8
0
  6
Continuous
 62
     2
100
AcDbCircle
 10
335.136621016929
 20
278.778747468259
 30
0.0
 40
2.309401076800043
  0
CIRCLE
  5
2AD
330
1F
100
AcDbEntity
  8
0
  6
Continuous
 62
     7
100
AcDbCircle
 10
335.136621016929
 20
278.778747468259
 30
0.0
 40
3.400000000000034
  0
CIRCLE
  5
2AE
330
1F
100
AcDbEntity
  8
A_FASEN
  6
Continuous
 62
     7
100
AcDbCircle
 10
332.136621016929
 20
302.778747468259
 30
0.0
 40
5.0
  0
CIRCLE
  5
2AF
330
1F
100
AcDbEntity
  8
A_ACHSEN
  6
Continuous
 62
     7
100
AcDbCircle
 10
335.136621016929
 20
278.778747468259
 30
0.0
 40
5.5
  0
CIRCLE
  5
2B0
330
1F
100
AcDbEntity
  8
A_ACHSEN
  6
Continuous
 62
     7
100
AcDbCircle
 10
340.136621016929
 20
234.778747468259
 30
0.0
 40
1.800000000000011
  0
CIRCLE
  5
2B1
330
1F
100
AcDbEntity
  8
0
  6
Continuous
 62
     2
100
AcDbCircle
 10
335.136621016929
 20
266.778747468259
 30
0.0
 40
2.0
  0
CIRCLE
  5
2B2
330
1F
100
AcDbEntity
  8
0
  6
Continuous
 62
     2
100
AcDbCircle
 10
335.136621016929
 20
253.028747468259
 30
0.0
 40
2.309401076800043
  0
CIRCLE
  5
2B3
330
1F
100
AcDbEntity
  8
0
  6
Continuous
 62
     7
100
AcDbCircle
 10
335.136621016929
 20
266.778747468259
 30
0.0
 40
3.949999999999989
  0
CIRCLE
  5
2B4
330
1F
100
AcDbEntity
  8
0
  6
Continuous
 62
     7
100
AcDbCircle
 10
335.136621016929
 20
266.778747468259
 30
0.0
 40
6.0
  0
CIRCLE
  5
2B5
330
1F
100
AcDbEntity
  8
0
  6
Continuous
 62
     7
100
AcDbCircle
 10
335.136621016929
 20
253.028747468259
 30
0.0
 40
6.0
  0
CIRCLE
  5
2B6
330
1F
100
AcDbEntity
  8
A_ACHSEN
  6
Continuous
 62
     7
100
AcDbCircle
 10
330.136621016929
 20
239.778747468259
 30
0.0
 40
1.800000000000011
  0
DIMENSION
  5
2C2
330
1F
100
AcDbEntity
  8
1
100
AcDbDimension
  2
*D1
 10
323.236621016929
 20
288.868534190121
 30
0.0
 11
334.618291852122
 21
292.618534190121
 31
0.0
 70
    32
  1
24
 71
     5
 42
-1.0
 53
0.00013888888889
  3
ME10_DIM_10
100
AcDbAlignedDimension
 13
347.036621016929
 23
258.428747468259
 33
0.0
 14
323.236621016929
 24
258.428747468259
 34
0.0
100
AcDbRotatedDimension
  0
DIMENSION
  5
2CD
330
1F
100
AcDbEntity
  8
1
100
AcDbDimension
  2
*D2
 10
427.886621016929
 20
450.778747468259
 30
0.0
 11
424.136621016929
 21
330.258602685375
 31
0.0
 70
    32
  1
<>
 71
     5
 42
-1.0
 53
90.0
  3
ME10_DIM_11
100
AcDbAlignedDimension
 13
414.136621016929
 23
210.778747468259
 33
0.0
 14
414.136621016929
 24
450.778747468259
 34
0.0
 50
90.0
100
AcDbRotatedDimension
  0
DIMENSION
  5
2D8
330
1F
100
AcDbEntity
  8
1
100
AcDbDimension
  2
*D3
 10
313.08515780381
 20
435.278747468259
 30
0.0
 11
309.33515780381
 21
330.67975624293
 31
0.0
 70
    32
  1
<>
 71
     5
 42
-1.0
 53
90.0
  3
ME10_DIM_12
100
AcDbAlignedDimension
 13
340.136621016929
 23
226.278747468259
 33
0.0
 14
335.882474464329
 24
435.278747468259
 34
0.0
 50
90.0
100
AcDbRotatedDimension
  0
DIMENSION
  5
2E3
330
1F
100
AcDbEntity
  8
1
100
AcDbDimension
  2
*D4
 10
340.136621016929
 20
199.740577699286
 30
0.0
 11
374.480834618847
 21
203.490577699286
 31
0.0
 70
    32
  1
<>
 71
     5
 42
-1.0
 53
0.00013888888889
  3
ME10_DIM_13
100
AcDbAlignedDimension
 13
414.136621016929
 23
210.778747468259
 33
0.0
 14
340.136621016929
 24
210.778747468259
 34
0.0
100
AcDbRotatedDimension
  0
ENDSEC
  0
SECTION
  2
OBJECTS
  0
DICTIONARY
  5
C
330
0
100
AcDbDictionary
281
     1
  3
ACAD_GROUP
350
D
  3
ACAD_LAYOUT
350
1A
  3
ACAD_MLINESTYLE
350
17
  3
ACAD_PLOTSETTINGS
350
19
  3
ACAD_PLOTSTYLENAME
350
E
  0
DICTIONARY
  5
D
102
{ACAD_REACTORS
330
C
102
}
330
C
100
AcDbDictionary
281
     1
  0
DICTIONARY
  5
1A
102
{ACAD_REACTORS
330
C
102
}
330
C
100
AcDbDictionary
281
     1
  3
Layout1
350
1E
  3
Layout2
350
26
  3
Model
350
22
  0
DICTIONARY
  5
17
102
{ACAD_REACTORS
330
C
102
}
330
C
100
AcDbDictionary
281
     1
  3
Standard
350
18
  0
DICTIONARY
  5
19
102
{ACAD_REACTORS
330
C
102
}
330
C
100
AcDbDictionary
281
     1
  0
ACDBDICTIONARYWDFLT
  5
E
102
{ACAD_REACTORS
330
C
102
}
330
C
100
AcDbDictionary
281
     1
  3
Normal
350
F
100
AcDbDictionaryWithDefault
340
F
  0
LAYOUT
  5
1E
102
{ACAD_REACTORS
330
1A
102
}
330
1A
100
AcDbPlotSettings
  1

  2

  4

  6

 40
0.0
 41
0.0
 42
0.0
 43
0.0
 44
0.0
 45
0.0
 46
0.0
 47
0.0
 48
0.0
 49
0.0
140
0.0
141
0.0
142
1.0
143
1.0
 70
   688
 72
     0
 73
     0
 74
     5
  7

 75
    16
 76
     0
 77
     2
 78
   300
147
1.0
148
0.0
149
0.0
100
AcDbLayout
  1
Layout1
 70
     1
 71
     1
 10
0.0
 20
0.0
 11
0.0
 21
0.0
 12
0.0
 22
0.0
 32
0.0
 14
0.0
 24
0.0
 34
0.0
 15
0.0
 25
0.0
 35
0.0
146
0.0
 13
0.0
 23
0.0
 33
0.0
 16
1.0
 26
0.0
 36
0.0
 17
0.0
 27
1.0
 37
0.0
 76
     0
330
1B
  0
LAYOUT
  5
26
102
{ACAD_REACTORS
330
1A
102
}
330
1A
100
AcDbPlotSettings
  1

  2

  4

  6

 40
0.0
 41
0.0
 42
0.0
 43
0.0
 44
0.0
 45
0.0
 46
0.0
 47
0.0
 48
0.0
 49
0.0
140
0.0
141
0.0
142
1.0
143
1.0
 70
   688
 72
     0
 73
     0
 74
     5
  7

 75
    16
 76
     0
 77
     2
 78
   300
147
1.0
148
0.0
149
0.0
100
AcDbLayout
  1
Layout2
 70
     1
 71
     2
 10
0.0
 20
0.0
 11
0.0
 21
0.0
 12
0.0
 22
0.0
 32
0.0
 14
0.0
 24
0.0
 34
0.0
 15
0.0
 25
0.0
 35
0.0
146
0.0
 13
0.0
 23
0.0
 33
0.0
 16
1.0
 26
0.0
 36
0.0
 17
0.0
 27
1.0
 37
0.0
 76
     0
330
23
  0
LAYOUT
  5
22
102
{ACAD_REACTORS
330
1A
102
}
330
1A
100
AcDbPlotSettings
  1

  2

  4

  6

 40
0.0
 41
0.0
 42
0.0
 43
0.0
 44
0.0
 45
0.0
 46
0.0
 47
0.0
 48
0.0
 49
0.0
140
0.0
141
0.0
142
1.0
143
1.0
 70
  1712
 72
     0
 73
     0
 74
     0
  7

 75
     0
 76
     0
 77
     2
 78
   300
147
1.0
148
0.0
149
0.0
100
AcDbLayout
  1
Model
 70
     1
 71
     0
 10
0.0
 20
0.0
 11
0.0
 21
0.0
 12
0.0
 22
0.0
 32
0.0
 14
307.58515780381
 24
197.740577699286
 34
0.0
 15
429.886621016929
 25
450.778747468259
 35
0.0
146
0.0
 13
0.0
 23
0.0
 33
0.0
 16
1.0
 26
0.0
 36
0.0
 17
0.0
 27
1.0
 37
0.0
 76
     0
330
1F
  0
MLINESTYLE
  5
18
102
{ACAD_REACTORS
330
17
102
}
330
17
100
AcDbMlineStyle
  2
Standard
 70
     0
  3

 62
   256
 51
90.0
 52
90.0
 71
     2
 49
0.5
 62
   256
  6
BYLAYER
 49
-0.5
 62
   256
  6
BYLAYER
  0
ACDBPLACEHOLDER
  5
F
102
{ACAD_REACTORS
330
E
102
}
330
E
  0
ENDSEC
  0
EOF
