999
DXF file: d:\tmp\workingDir\0000109852\5_071261_0_00000_mkt_q_01_01.dxf
999
Pro/ENGINEER 2020184 by Parametric Technology Corporation
  0
SECTION
  2
HEADER
  9
$ACADVER
  1
AC1014
  9
$DWGCODEPAGE
  3
ANSI_1252
  9
$EXTMAX
 10
100.076
 20
130.0
 30
0.0
  9
$EXTMIN
 10
-0.0
 20
0.0
 30
0.0
  9
$LIMMIN
 10
-0.0
 20
0.0
  9
$LIMMAX
 10
100.076
 20
130.0
  9
$VIEWCTR
 10
50.038
 20
65.0
  9
$VIEWSIZE
 40
130.0
  9
$CLAYER
  8
0
  9
$LTSCALE
 40
8.4740740741
  9
$CELTYPE
  6
BYLAYER
  9
$DIMSCALE
 40
1.0
  9
$DIMASZ
 40
3.5
  9
$DIMEXO
 40
0.0
  9
$DIMDLI
 40
5.8548148148
  9
$DIMEXE
 40
2.0
  9
$DIMCEN
 40
1.3866666667
  9
$DIMLFAC
 40
1.0
  9
$DIMBLK
  1
_ARROW_FILLED
  9
$DIMALT
 70
0
  9
$DIMALTF
 40
0.0393700787
  9
$DIMTXT
 40
3.5
  9
$DIMTOL
 70
1
  9
$DIMLIM
 70
0
  9
$DIMTFAC
 40
1.0
  9
$DIMTP
 40
0.01
  9
$DIMTM
 40
0.01
  9
$DIMGAP
 40
0.625
  9
$AUNITS
 70
0
  9
$PDMODE
 70
0
  9
$PDSIZE
 40
0.04
  9
$HANDSEED
  5
45B
  9
$TILEMODE
 70
1
  9
$MEASUREMENT
 70
1
  0
ENDSEC
  0
SECTION
  2
CLASSES
  0
ENDSEC
  0
SECTION
  2
TABLES
  0
TABLE
  2
VPORT
  5
8
100
AcDbSymbolTable
 70
2
  0
VPORT
  5
1F4
100
AcDbSymbolTableRecord
100
AcDbViewportTableRecord
  2
*ACTIVE
 70
0
 10
0.0
 20
0.0
 11
1.0
 21
1.0
 12
50.038
 22
65.0
 13
0.0
 23
0.0
 14
1.0
 24
1.0
 15
0.0
 25
0.0
 16
0.0
 26
0.0
 36
1.0
 17
0.0
 27
0.0
 37
0.0
 40
130.0
 41
0.7698153846
 42
50.0
 43
0.0
 44
0.0
 50
0.0
 51
0.0
 71
0
 72
100
 73
1
 74
1
 75
0
 76
0
 77
0
 78
0
  0
ENDTAB
  0
TABLE
  2
LTYPE
  5
5
100
AcDbSymbolTable
 70
6
  0
LTYPE
  5
14
100
AcDbSymbolTableRecord
100
AcDbLinetypeTableRecord
  2
BYBLOCK
 70
0
  3

 72
65
 73
0
 40
0.0
  0
LTYPE
  5
15
100
AcDbSymbolTableRecord
100
AcDbLinetypeTableRecord
  2
BYLAYER
 70
0
  3

 72
65
 73
0
 40
0.0
  0
LTYPE
  5
16
100
AcDbSymbolTableRecord
100
AcDbLinetypeTableRecord
  2
CONTINUOUS
 70
64
  3
Solid line
 72
65
 73
0
 40
0.0
  0
LTYPE
  5
1F5
100
AcDbSymbolTableRecord
100
AcDbLinetypeTableRecord
  2
CENTER
 70
64
  3
____ _ ____ _ ____ _ ____ _ ____ _ ____ _ ____
 72
65
 73
4
 40
0.6
 49
0.375
 74
0
 49
-0.075
 74
0
 49
0.075
 74
0
 49
-0.075
 74
0
  0
LTYPE
  5
1F6
100
AcDbSymbolTableRecord
100
AcDbLinetypeTableRecord
  2
HIDDEN
 70
64
  3
- - - - - - - - - - - - - - - - - - - -
 72
65
 73
2
 40
0.2
 49
0.1
 74
0
 49
-0.1
 74
0
  0
LTYPE
  5
1F7
100
AcDbSymbolTableRecord
100
AcDbLinetypeTableRecord
  2
PHANTOM
 70
64
  3
_____ _ _ _____ _ _ _____ _ _ _____
 72
65
 73
6
 40
0.8
 49
0.45
 74
0
 49
-0.05
 74
0
 49
0.1
 74
0
 49
-0.05
 74
0
 49
0.1
 74
0
 49
-0.05
 74
0
  0
LTYPE
  5
1F8
100
AcDbSymbolTableRecord
100
AcDbLinetypeTableRecord
  2
DOT
 70
64
  3
. . . . . . . . . . . . . . . . . . . .
 72
65
 73
2
 40
0.2
 49
0.1
 74
0
 49
-0.1
 74
0
  0
LTYPE
  5
1F9
100
AcDbSymbolTableRecord
100
AcDbLinetypeTableRecord
  2
DASHED
 70
64
  3
- - - - - - - - - - - - - - - - - - - -
 72
65
 73
2
 40
0.2
 49
0.1
 74
0
 49
-0.1
 74
0
  0
ENDTAB
  0
TABLE
  2
LAYER
  5
2
100
AcDbSymbolTable
 70
36
  0
LAYER
  5
10
100
AcDbSymbolTableRecord
100
AcDbLayerTableRecord
  2
0
 70
0
 62
7
  6
CONTINUOUS
  0
LAYER
  5
1FA
100
AcDbSymbolTableRecord
100
AcDbLayerTableRecord
  2
DEFAULT_1
 70
0
 62
7
  6
CENTER
  0
LAYER
  5
1FB
100
AcDbSymbolTableRecord
100
AcDbLayerTableRecord
  2
DEFAULT_2
 70
0
 62
8
  6
HIDDEN
  0
LAYER
  5
1FC
100
AcDbSymbolTableRecord
100
AcDbLayerTableRecord
  2
DEFAULT_3
 70
0
 62
7
  6
PHANTOM
  0
LAYER
  5
1FD
100
AcDbSymbolTableRecord
100
AcDbLayerTableRecord
  2
A_ACHSEN
 70
0
 62
7
  6
CONTINUOUS
  0
LAYER
  5
1FE
100
AcDbSymbolTableRecord
100
AcDbLayerTableRecord
  2
A_BASISEBENEN
 70
0
 62
7
  6
CONTINUOUS
  0
LAYER
  5
1FF
100
AcDbSymbolTableRecord
100
AcDbLayerTableRecord
  2
A_BEMASSUNGEN
 70
0
 62
7
  6
CONTINUOUS
  0
LAYER
  5
200
100
AcDbSymbolTableRecord
100
AcDbLayerTableRecord
  2
A_BOHRUNGEN
 70
0
 62
7
  6
CONTINUOUS
  0
LAYER
  5
201
100
AcDbSymbolTableRecord
100
AcDbLayerTableRecord
  2
A_EBENEN
 70
0
 62
7
  6
CONTINUOUS
  0
LAYER
  5
202
100
AcDbSymbolTableRecord
100
AcDbLayerTableRecord
  2
A_FASEN
 70
0
 62
7
  6
CONTINUOUS
  0
LAYER
  5
203
100
AcDbSymbolTableRecord
100
AcDbLayerTableRecord
  2
A_FLAECHEN
 70
0
 62
7
  6
CONTINUOUS
  0
LAYER
  5
204
100
AcDbSymbolTableRecord
100
AcDbLayerTableRecord
  2
A_FL_VERBAENDE
 70
0
 62
7
  6
CONTINUOUS
  0
LAYER
  5
205
100
AcDbSymbolTableRecord
100
AcDbLayerTableRecord
  2
A_KURVEN
 70
0
 62
7
  6
CONTINUOUS
  0
LAYER
  5
206
100
AcDbSymbolTableRecord
100
AcDbLayerTableRecord
  2
A_NOTIZEN_SYMB
 70
0
 62
7
  6
CONTINUOUS
  0
LAYER
  5
207
100
AcDbSymbolTableRecord
100
AcDbLayerTableRecord
  2
A_PUNKTE
 70
0
 62
7
  6
CONTINUOUS
  0
LAYER
  5
208
100
AcDbSymbolTableRecord
100
AcDbLayerTableRecord
  2
A_RUNDUNGEN
 70
0
 62
7
  6
CONTINUOUS
  0
LAYER
  5
209
100
AcDbSymbolTableRecord
100
AcDbLayerTableRecord
  2
BASISEBENEN
 70
0
 62
7
  6
CONTINUOUS
  0
LAYER
  5
20A
100
AcDbSymbolTableRecord
100
AcDbLayerTableRecord
  2
XSEC_DATUMS
 70
0
 62
7
  6
CONTINUOUS
  0
ENDTAB
  0
TABLE
  2
STYLE
  5
3
100
AcDbSymbolTable
 70
1
  0
STYLE
  5
11
100
AcDbSymbolTableRecord
100
AcDbTextStyleTableRecord
  2
STANDARD
 70
0
 40
0.0
 41
1.0
 50
0.0
 71
0
 42
0.2
  3
txt
  4

  0
STYLE
  5
20B
100
AcDbSymbolTableRecord
100
AcDbTextStyleTableRecord
  2
TEXTSTYLE_1
 70
0
 40
0.0
 41
0.8
 50
0.0
 71
0
 42
0.2
  3
gdt
  4

  0
ENDTAB
  0
TABLE
  2
VIEW
  5
6
100
AcDbSymbolTable
 70
0
  0
ENDTAB
  0
TABLE
  2
UCS
  5
7
100
AcDbSymbolTable
 70
0
  0
ENDTAB
  0
TABLE
  2
APPID
  5
9
100
AcDbSymbolTable
 70
1
  0
APPID
  5
20C
100
AcDbSymbolTableRecord
100
AcDbRegAppTableRecord
  2
ACAD
 70
0
  0
ENDTAB
  0
TABLE
  2
BLOCK_RECORD
  5
1
100
AcDbSymbolTable
 70
0
  0
BLOCK_RECORD
  5
1F
100
AcDbSymbolTableRecord
100
AcDbBlockTableRecord
  2
*MODEL_SPACE
  0
BLOCK_RECORD
  5
1B
100
AcDbSymbolTableRecord
100
AcDbBlockTableRecord
  2
*PAPER_SPACE
  0
BLOCK_RECORD
  5
20D
100
AcDbSymbolTableRecord
100
AcDbBlockTableRecord
  2
_ARROW_FILLED
  0
BLOCK_RECORD
  5
20E
100
AcDbSymbolTableRecord
100
AcDbBlockTableRecord
  2
*D0
  0
BLOCK_RECORD
  5
20F
100
AcDbSymbolTableRecord
100
AcDbBlockTableRecord
  2
*D1
  0
BLOCK_RECORD
  5
210
100
AcDbSymbolTableRecord
100
AcDbBlockTableRecord
  2
*D2
  0
BLOCK_RECORD
  5
211
100
AcDbSymbolTableRecord
100
AcDbBlockTableRecord
  2
*D3
  0
BLOCK_RECORD
  5
212
100
AcDbSymbolTableRecord
100
AcDbBlockTableRecord
  2
*D4
  0
ENDTAB
  0
TABLE
  2
DIMSTYLE
  5
A
100
AcDbSymbolTable
 70
1
  0
DIMSTYLE
105
213
100
AcDbSymbolTableRecord
100
AcDbDimStyleTableRecord
  2
STANDARD
 70
0
  3

  4

  5
_ARROW_FILLED
  6
_ARROW_FILLED
  7
_ARROW_FILLED
 40
1.0
 41
3.5
 42
0.0
 43
0.38
 44
2.0
 45
0.0
 46
0.0
 47
0.01
 48
0.01
140
3.5
141
0.09
142
0.0
143
25.4
144
1.0
145
0.0
146
1.0
147
0.625
 71
1
 72
0
 73
0
 74
0
 75
0
 76
0
 77
1
 78
8
 79
2
170
0
171
1
172
0
173
0
174
0
175
0
176
0
177
0
178
5
270
2
271
2
272
2
273
2
274
2
275
0
280
0
281
0
282
0
283
1
284
8
285
0
286
0
287
3
288
0
340
11
  0
DIMSTYLE
105
214
100
AcDbSymbolTableRecord
100
AcDbDimStyleTableRecord
  2
DIMSTYLE_1
 70
0
  3

  4

  5
_ARROW_FILLED
  6
_ARROW_FILLED
  7
_ARROW_FILLED
 40
1.0
 41
3.5
 42
0.0
 43
0.38
 44
2.0
 45
0.0
 46
0.0
 47
0.2
 48
0.2
140
3.5
141
0.09
142
0.0
143
25.4
144
1.0
145
0.0
146
1.0
147
0.875
 71
0
 72
0
 73
0
 74
0
 75
0
 76
0
 77
1
 78
8
 79
2
170
0
171
1
172
0
173
0
174
0
175
0
176
0
177
0
178
5
270
2
271
4
272
-1
273
2
274
2
275
0
280
0
281
0
282
0
283
1
284
8
285
0
286
0
287
3
288
0
340
11
  0
DIMSTYLE
105
215
100
AcDbSymbolTableRecord
100
AcDbDimStyleTableRecord
  2
DIMSTYLE_2
 70
0
  3

  4

  5
_ARROW_FILLED
  6
_ARROW_FILLED
  7
_ARROW_FILLED
 40
1.0
 41
3.5
 42
0.0
 43
0.38
 44
2.0
 45
0.0
 46
0.0
 47
0.3
 48
0.3
140
3.5
141
0.09
142
0.0
143
25.4
144
1.0
145
0.0
146
1.0
147
0.875
 71
0
 72
0
 73
0
 74
0
 75
0
 76
0
 77
1
 78
8
 79
2
170
0
171
1
172
0
173
0
174
0
175
0
176
0
177
0
178
5
270
2
271
4
272
-1
273
2
274
2
275
0
280
0
281
0
282
0
283
1
284
8
285
0
286
0
287
3
288
0
340
11
  0
ENDTAB
  0
ENDSEC
  0
SECTION
  2
BLOCKS
  0
BLOCK
  5
20
100
AcDbEntity
  8
0
100
AcDbBlockBegin
  2
*MODEL_SPACE
 70
0
 10
0.0
 20
0.0
 30
0.0
  3
*MODEL_SPACE
  1

  0
ENDBLK
  5
21
100
AcDbEntity
  8
0
100
AcDbBlockEnd
  0
BLOCK
  5
1C
100
AcDbEntity
  8
0
100
AcDbBlockBegin
  2
*PAPER_SPACE
 70
0
 10
0.0
 20
0.0
 30
0.0
  3
*PAPER_SPACE
  1

  0
ENDBLK
  5
1D
100
AcDbEntity
  8
0
100
AcDbBlockEnd
  0
BLOCK
  5
216
100
AcDbEntity
  8
0
100
AcDbBlockBegin
  2
_ARROW_FILLED
 70
64
 10
0.0
 20
0.0
  3
_ARROW_FILLED
  1

  0
SOLID
  5
217
100
AcDbEntity
  8
0
  6
BYBLOCK
 62
0
100
AcDbTrace
 10
0.0
 20
0.0
 11
-1.0
 21
0.1428571429
 12
-1.0
 22
-0.1428571429
 13
-1.0
 23
-0.1428571429
  0
ENDBLK
  5
218
100
AcDbEntity
  8
0
  6
BYBLOCK
 62
0
100
AcDbBlockEnd
  0
BLOCK
  5
219
100
AcDbEntity
  8
A_BEMASSUNGEN
100
AcDbBlockBegin
 62
2
  6
CONTINUOUS
  2
*D0
 70
65
 10
0.0
 20
0.0
  3
*D0
  1

  0
MTEXT
  5
21A
100
AcDbEntity
  8
A_BEMASSUNGEN
100
AcDbMText
 62
5
  6
CONTINUOUS
  7
STANDARD
 71
2
 72
1
 10
74.1786219519
 20
65.1646880735
 30
0.0
 11
1.0
 21
0.0
 31
0.0
  1
10
 40
3.5
 41
7.125
  0
LINE
  5
21B
100
AcDbEntity
  8
A_BEMASSUNGEN
100
AcDbLine
 62
2
  6
CONTINUOUS
 10
79.1786219519
 20
43.9648894647
 11
79.1786219519
 21
62.7896880735
  0
LINE
  5
21C
100
AcDbEntity
  8
A_BEMASSUNGEN
100
AcDbLine
 62
2
  6
CONTINUOUS
 10
69.1786219519
 20
60.3148894647
 11
69.1786219519
 21
62.7896880735
  0
LINE
  5
21D
100
AcDbEntity
  8
A_BEMASSUNGEN
100
AcDbLine
 62
2
  6
CONTINUOUS
 10
79.1786219519
 20
60.7896880735
 11
74.1786219519
 21
60.7896880735
  0
LINE
  5
21E
100
AcDbEntity
  8
A_BEMASSUNGEN
100
AcDbLine
 62
2
  6
CONTINUOUS
 10
69.1786219519
 20
60.7896880735
 11
74.1786219519
 21
60.7896880735
  0
INSERT
  5
21F
100
AcDbEntity
  8
A_BEMASSUNGEN
100
AcDbBlockReference
 62
2
  6
CONTINUOUS
  2
_ARROW_FILLED
 10
79.1786219519
 20
60.7896880735
 41
3.5
 42
3.5
 43
3.5
  0
INSERT
  5
220
100
AcDbEntity
  8
A_BEMASSUNGEN
100
AcDbBlockReference
 62
2
  6
CONTINUOUS
  2
_ARROW_FILLED
 10
69.1786219519
 20
60.7896880735
 41
3.5
 42
3.5
 43
3.5
 50
180.0
  0
ENDBLK
  5
221
100
AcDbEntity
  8
0
  6
BYBLOCK
 62
0
100
AcDbBlockEnd
  0
BLOCK
  5
222
100
AcDbEntity
  8
A_BEMASSUNGEN
100
AcDbBlockBegin
 62
2
  6
CONTINUOUS
  2
*D1
 70
65
 10
0.0
 20
0.0
  3
*D1
  1

  0
MTEXT
  5
223
100
AcDbEntity
  8
A_BEMASSUNGEN
100
AcDbMText
 62
5
  6
CONTINUOUS
  7
STANDARD
 71
2
 72
1
 10
74.1786219519
 20
17.2179457924
 30
0.0
 11
1.0
 21
0.0
 31
0.0
  1
10
 40
3.5
 41
7.125
  0
LINE
  5
224
100
AcDbEntity
  8
A_BEMASSUNGEN
100
AcDbLine
 62
2
  6
CONTINUOUS
 10
69.1786219519
 20
27.5128067096
 11
69.1786219519
 21
10.8429457924
  0
LINE
  5
225
100
AcDbEntity
  8
A_BEMASSUNGEN
100
AcDbLine
 62
2
  6
CONTINUOUS
 10
79.1786219519
 20
33.8148894647
 11
79.1786219519
 21
10.8429457924
  0
LINE
  5
226
100
AcDbEntity
  8
A_BEMASSUNGEN
100
AcDbLine
 62
2
  6
CONTINUOUS
 10
69.1786219519
 20
12.8429457924
 11
74.1786219519
 21
12.8429457924
  0
LINE
  5
227
100
AcDbEntity
  8
A_BEMASSUNGEN
100
AcDbLine
 62
2
  6
CONTINUOUS
 10
79.1786219519
 20
12.8429457924
 11
74.1786219519
 21
12.8429457924
  0
INSERT
  5
228
100
AcDbEntity
  8
A_BEMASSUNGEN
100
AcDbBlockReference
 62
2
  6
CONTINUOUS
  2
_ARROW_FILLED
 10
69.1786219519
 20
12.8429457924
 41
3.5
 42
3.5
 43
3.5
 50
180.0
  0
INSERT
  5
229
100
AcDbEntity
  8
A_BEMASSUNGEN
100
AcDbBlockReference
 62
2
  6
CONTINUOUS
  2
_ARROW_FILLED
 10
79.1786219519
 20
12.8429457924
 41
3.5
 42
3.5
 43
3.5
  0
ENDBLK
  5
22A
100
AcDbEntity
  8
0
  6
BYBLOCK
 62
0
100
AcDbBlockEnd
  0
BLOCK
  5
22B
100
AcDbEntity
  8
A_BEMASSUNGEN
100
AcDbBlockBegin
 62
2
  6
CONTINUOUS
  2
*D2
 70
65
 10
0.0
 20
0.0
  3
*D2
  1

  0
MTEXT
  5
22C
100
AcDbEntity
  8
A_BEMASSUNGEN
100
AcDbMText
 62
5
  6
CONTINUOUS
  7
STANDARD
 71
2
 72
1
 10
67.1786219519
 20
8.2487095515
 30
0.0
 11
1.0
 21
0.0
 31
0.0
  1
24
 40
3.5
 41
8.25
  0
LINE
  5
22D
100
AcDbEntity
  8
A_BEMASSUNGEN
100
AcDbLine
 62
2
  6
CONTINUOUS
 10
79.1786219519
 20
20.8148894647
 11
79.1786219519
 21
1.8737095515
  0
LINE
  5
22E
100
AcDbEntity
  8
A_BEMASSUNGEN
100
AcDbLine
 62
2
  6
CONTINUOUS
 10
55.1786219519
 20
20.8148894647
 11
55.1786219519
 21
1.8737095515
  0
LINE
  5
22F
100
AcDbEntity
  8
A_BEMASSUNGEN
100
AcDbLine
 62
2
  6
CONTINUOUS
 10
79.1786219519
 20
3.8737095515
 11
67.1786219519
 21
3.8737095515
  0
LINE
  5
230
100
AcDbEntity
  8
A_BEMASSUNGEN
100
AcDbLine
 62
2
  6
CONTINUOUS
 10
55.1786219519
 20
3.8737095515
 11
67.1786219519
 21
3.8737095515
  0
INSERT
  5
231
100
AcDbEntity
  8
A_BEMASSUNGEN
100
AcDbBlockReference
 62
2
  6
CONTINUOUS
  2
_ARROW_FILLED
 10
79.1786219519
 20
3.8737095515
 41
3.5
 42
3.5
 43
3.5
  0
INSERT
  5
232
100
AcDbEntity
  8
A_BEMASSUNGEN
100
AcDbBlockReference
 62
2
  6
CONTINUOUS
  2
_ARROW_FILLED
 10
55.1786219519
 20
3.8737095515
 41
3.5
 42
3.5
 43
3.5
 50
180.0
  0
ENDBLK
  5
233
100
AcDbEntity
  8
0
  6
BYBLOCK
 62
0
100
AcDbBlockEnd
  0
BLOCK
  5
234
100
AcDbEntity
  8
A_BEMASSUNGEN
100
AcDbBlockBegin
 62
2
  6
CONTINUOUS
  2
*D3
 70
65
 10
0.0
 20
0.0
  3
*D3
  1

  0
MTEXT
  5
235
100
AcDbEntity
  8
A_BEMASSUNGEN
100
AcDbMText
 62
5
  6
CONTINUOUS
  7
STANDARD
 71
2
 72
1
 10
16.2853986223
 20
35.3148894647
 30
0.0
 11
0.0
 21
1.0
 31
0.0
  1
29
 40
3.5
 41
8.25
  0
LINE
  5
236
100
AcDbEntity
  8
A_BEMASSUNGEN
100
AcDbLine
 62
2
  6
CONTINUOUS
 10
31.4495925396
 20
20.8148894647
 11
18.6603986223
 21
20.8148894647
  0
LINE
  5
237
100
AcDbEntity
  8
A_BEMASSUNGEN
100
AcDbLine
 62
2
  6
CONTINUOUS
 10
69.1786219519
 20
49.8148894647
 11
18.6603986223
 21
49.8148894647
  0
LINE
  5
238
100
AcDbEntity
  8
A_BEMASSUNGEN
100
AcDbLine
 62
2
  6
CONTINUOUS
 10
20.6603986223
 20
20.8148894647
 11
20.6603986223
 21
35.3148894647
  0
LINE
  5
239
100
AcDbEntity
  8
A_BEMASSUNGEN
100
AcDbLine
 62
2
  6
CONTINUOUS
 10
20.6603986223
 20
49.8148894647
 11
20.6603986223
 21
35.3148894647
  0
INSERT
  5
23A
100
AcDbEntity
  8
A_BEMASSUNGEN
100
AcDbBlockReference
 62
2
  6
CONTINUOUS
  2
_ARROW_FILLED
 10
20.6603986223
 20
20.8148894647
 41
3.5
 42
3.5
 43
3.5
 50
270.0
  0
INSERT
  5
23B
100
AcDbEntity
  8
A_BEMASSUNGEN
100
AcDbBlockReference
 62
2
  6
CONTINUOUS
  2
_ARROW_FILLED
 10
20.6603986223
 20
49.8148894647
 41
3.5
 42
3.5
 43
3.5
 50
90.0
  0
ENDBLK
  5
23C
100
AcDbEntity
  8
0
  6
BYBLOCK
 62
0
100
AcDbBlockEnd
  0
BLOCK
  5
23D
100
AcDbEntity
  8
A_BEMASSUNGEN
100
AcDbBlockBegin
 62
2
  6
CONTINUOUS
  2
*D4
 70
65
 10
0.0
 20
0.0
  3
*D4
  1

  0
MTEXT
  5
23E
100
AcDbEntity
  8
A_BEMASSUNGEN
100
AcDbMText
 62
5
  6
CONTINUOUS
  7
STANDARD
 71
2
 72
1
 10
4.8382524658
 20
68.8148894647
 30
0.0
 11
0.0
 21
1.0
 31
0.0
  1
96
 40
3.5
 41
8.25
  0
LINE
  5
23F
100
AcDbEntity
  8
A_BEMASSUNGEN
100
AcDbLine
 62
2
  6
CONTINUOUS
 10
29.9723736868
 20
20.8148894647
 11
7.2132524658
 21
20.8148894647
  0
LINE
  5
240
100
AcDbEntity
  8
A_BEMASSUNGEN
100
AcDbLine
 62
2
  6
CONTINUOUS
 10
64.1786219519
 20
116.8148894647
 11
7.2132524658
 21
116.8148894647
  0
LINE
  5
241
100
AcDbEntity
  8
A_BEMASSUNGEN
100
AcDbLine
 62
2
  6
CONTINUOUS
 10
9.2132524658
 20
20.8148894647
 11
9.2132524658
 21
68.8148894647
  0
LINE
  5
242
100
AcDbEntity
  8
A_BEMASSUNGEN
100
AcDbLine
 62
2
  6
CONTINUOUS
 10
9.2132524658
 20
116.8148894647
 11
9.2132524658
 21
68.8148894647
  0
INSERT
  5
243
100
AcDbEntity
  8
A_BEMASSUNGEN
100
AcDbBlockReference
 62
2
  6
CONTINUOUS
  2
_ARROW_FILLED
 10
9.2132524658
 20
20.8148894647
 41
3.5
 42
3.5
 43
3.5
 50
270.0
  0
INSERT
  5
244
100
AcDbEntity
  8
A_BEMASSUNGEN
100
AcDbBlockReference
 62
2
  6
CONTINUOUS
  2
_ARROW_FILLED
 10
9.2132524658
 20
116.8148894647
 41
3.5
 42
3.5
 43
3.5
 50
90.0
  0
ENDBLK
  5
245
100
AcDbEntity
  8
0
  6
BYBLOCK
 62
0
100
AcDbBlockEnd
  0
ENDSEC
  0
SECTION
  2
ENTITIES
  0
DIMENSION
  5
246
100
AcDbEntity
  8
A_BEMASSUNGEN
100
AcDbDimension
 62
2
  6
CONTINUOUS
  2
*D0
 10
69.1786219519
 20
60.7896880735
 11
73.6786231916
 21
60.7896880735
 70
160
  3
DIMSTYLE_1
100
AcDbAlignedDimension
 13
79.1786219519
 23
43.9648894647
 14
69.1786219519
 24
62.7896880735
 50
180.0
100
AcDbRotatedDimension
  0
DIMENSION
  5
247
100
AcDbEntity
  8
A_BEMASSUNGEN
100
AcDbDimension
 62
2
  6
CONTINUOUS
  2
*D1
 10
79.1786219519
 20
12.8429457924
 11
73.6786231916
 21
12.8429457924
 70
160
  3
DIMSTYLE_1
100
AcDbAlignedDimension
 13
69.1786219519
 23
27.5128067096
 14
79.1786219519
 24
33.8148894647
100
AcDbRotatedDimension
  0
DIMENSION
  5
248
100
AcDbEntity
  8
A_BEMASSUNGEN
100
AcDbDimension
 62
2
  6
CONTINUOUS
  2
*D2
 10
55.1786219519
 20
3.8737095515
 11
66.6786253617
 21
3.8737095515
 70
160
  3
DIMSTYLE_1
100
AcDbAlignedDimension
 13
79.1786219519
 23
20.8148894647
 14
55.1786219519
 24
20.8148894647
 50
180.0
100
AcDbRotatedDimension
  0
DIMENSION
  5
249
100
AcDbEntity
  8
A_BEMASSUNGEN
100
AcDbDimension
 62
2
  6
CONTINUOUS
  2
*D3
 10
20.6603986223
 20
49.8148894647
 11
20.6603986223
 21
34.8148899309
 70
160
  3
DIMSTYLE_1
100
AcDbAlignedDimension
 13
31.4495925396
 23
20.8148894647
 14
69.1786219519
 24
49.8148894647
 50
90.0
100
AcDbRotatedDimension
  0
DIMENSION
  5
24A
100
AcDbEntity
  8
A_BEMASSUNGEN
100
AcDbDimension
 62
2
  6
CONTINUOUS
  2
*D4
 10
9.2132524658
 20
116.8148894647
 11
9.2132524658
 21
68.3148890967
 70
160
  3
DIMSTYLE_2
100
AcDbAlignedDimension
 13
29.9723736868
 23
20.8148894647
 14
64.1786219519
 24
116.8148894647
 50
90.0
100
AcDbRotatedDimension
  0
LINE
  5
24B
100
AcDbEntity
  8
A_NOTIZEN_SYMB
100
AcDbLine
 62
8
  6
HIDDEN
 10
55.1786219519
 20
36.4148894647
 11
53.6886219519
 21
36.4148894647
  0
LINE
  5
24C
100
AcDbEntity
  8
A_NOTIZEN_SYMB
100
AcDbLine
 62
8
  6
HIDDEN
 10
55.1786219519
 20
39.2148894647
 11
53.6886219519
 21
39.2148894647
  0
LINE
  5
24D
100
AcDbEntity
  8
0
100
AcDbLine
 62
7
  6
CONTINUOUS
 10
29.1786219519
 20
20.8148894647
 11
79.1786219519
 21
20.8148894647
  0
LINE
  5
24E
100
AcDbEntity
  8
0
100
AcDbLine
 62
7
  6
CONTINUOUS
 10
73.845169574
 20
23.8148894647
 11
55.1786219519
 21
23.8148894647
  0
LINE
  5
24F
100
AcDbEntity
  8
0
100
AcDbLine
 62
7
  6
CONTINUOUS
 10
55.1786219519
 20
25.8148894647
 11
76.4291733103
 21
25.8148894647
  0
LINE
  5
250
100
AcDbEntity
  8
0
100
AcDbLine
 62
7
  6
CONTINUOUS
 10
55.3786219519
 20
25.9148894647
 11
58.3786219519
 21
25.9148894647
  0
LINE
  5
251
100
AcDbEntity
  8
0
100
AcDbLine
 62
7
  6
CONTINUOUS
 10
65.9786219519
 20
26.3148894647
 11
59.9786219519
 21
26.3148894647
  0
LINE
  5
252
100
AcDbEntity
  8
0
100
AcDbLine
 62
7
  6
CONTINUOUS
 10
67.1786219519
 20
26.3148894647
 11
76.1786219519
 21
26.3148894647
  0
LINE
  5
253
100
AcDbEntity
  8
0
100
AcDbLine
 62
7
  6
CONTINUOUS
 10
59.9786219519
 20
27.4148894647
 11
55.3786219519
 21
27.4148894647
  0
LINE
  5
254
100
AcDbEntity
  8
A_FASEN
100
AcDbLine
 62
7
  6
CONTINUOUS
 10
74.1786219519
 20
29.3148894647
 11
76.1786219519
 21
29.3148894647
  0
LINE
  5
255
100
AcDbEntity
  8
0
100
AcDbLine
 62
7
  6
CONTINUOUS
 10
76.1786219519
 20
29.5648894647
 11
79.1786219519
 21
29.5648894647
  0
LINE
  5
256
100
AcDbEntity
  8
0
100
AcDbLine
 62
7
  6
CONTINUOUS
 10
77.8786219519
 20
29.8148894647
 11
74.4786219519
 21
29.8148894647
  0
LINE
  5
257
100
AcDbEntity
  8
A_FASEN
100
AcDbLine
 62
7
  6
CONTINUOUS
 10
74.1786219519
 20
29.8148894647
 11
74.4786219519
 21
29.8148894647
  0
LINE
  5
258
100
AcDbEntity
  8
0
100
AcDbLine
 62
7
  6
CONTINUOUS
 10
55.3786219519
 20
30.3148894647
 11
59.9786219519
 21
30.3148894647
  0
LINE
  5
259
100
AcDbEntity
  8
A_RUNDUNGEN
100
AcDbLine
 62
7
  6
CONTINUOUS
 10
65.9786219519
 20
30.3148894647
 11
67.1786219519
 21
30.3148894647
  0
LINE
  5
25A
100
AcDbEntity
  8
0
100
AcDbLine
 62
7
  6
CONTINUOUS
 10
62.9786219519
 20
30.5648894647
 11
65.9786219519
 21
30.5648894647
  0
LINE
  5
25B
100
AcDbEntity
  8
0
100
AcDbLine
 62
7
  6
CONTINUOUS
 10
65.2786219519
 20
30.8148894647
 11
62.9786219519
 21
30.8148894647
  0
LINE
  5
25C
100
AcDbEntity
  8
0
100
AcDbLine
 62
2
  6
CONTINUOUS
 10
58.9286219519
 20
30.8148894647
 11
59.9786219519
 21
30.8148894647
  0
LINE
  5
25D
100
AcDbEntity
  8
0
100
AcDbLine
 62
2
  6
CONTINUOUS
 10
65.9786219519
 20
30.8148894647
 11
67.1786219519
 21
30.8148894647
  0
LINE
  5
25E
100
AcDbEntity
  8
0
100
AcDbLine
 62
7
  6
CONTINUOUS
 10
69.1786219519
 20
31.7148894647
 11
74.0884280602
 21
31.7148894647
  0
LINE
  5
25F
100
AcDbEntity
  8
0
100
AcDbLine
 62
7
  6
CONTINUOUS
 10
73.8786219519
 20
31.8148894647
 11
58.3786219519
 21
31.8148894647
  0
LWPOLYLINE
  5
260
100
AcDbEntity
  8
DEFAULT_2
100
AcDbPolyline
 62
8
  6
HIDDEN
 90
4
 70
0
 10
35.0783311701
 20
38.3480842673
 10
34.9896626277
 20
38.3910413062
 10
34.8420334199
 20
38.5458074052
 10
34.7353266129
 20
38.7241659694
  0
LWPOLYLINE
  5
261
100
AcDbEntity
  8
DEFAULT_2
100
AcDbPolyline
 62
8
  6
HIDDEN
 90
4
 70
0
 10
34.9606696241
 20
37.5876314282
 10
35.0608412452
 20
37.4797389707
 10
35.2372444082
 20
37.1785500317
 10
35.3815268192
 20
36.8485661819
  0
LINE
  5
262
100
AcDbEntity
  8
DEFAULT_2
100
AcDbLine
 62
8
  6
HIDDEN
 10
34.1352096221
 20
37.8721861048
 11
34.3323295404
 21
37.643711985
  0
LINE
  5
263
100
AcDbEntity
  8
0
100
AcDbLine
 62
2
  6
CONTINUOUS
 10
58.1786219519
 20
32.3148894647
 11
74.1786219519
 21
32.3148894647
  0
LINE
  5
264
100
AcDbEntity
  8
DEFAULT_2
100
AcDbLine
 62
8
  6
HIDDEN
 10
78.1786219519
 20
32.5054883879
 11
75.9346050161
 21
32.5054883879
  0
LINE
  5
265
100
AcDbEntity
  8
DEFAULT_2
100
AcDbLine
 62
8
  6
HIDDEN
 10
78.1786219519
 20
33.6601889263
 11
75.9346050161
 21
33.6601889263
  0
LINE
  5
266
100
AcDbEntity
  8
0
100
AcDbLine
 62
7
  6
CONTINUOUS
 10
55.3786219519
 20
33.9148894647
 11
58.1786219519
 21
33.9148894647
  0
LINE
  5
267
100
AcDbEntity
  8
A_ACHSEN
100
AcDbLine
 62
7
  6
CENTER
 10
55.1786219519
 20
34.8148894647
 11
81.1786219519
 21
34.8148894647
  0
LINE
  5
268
100
AcDbEntity
  8
DEFAULT_2
100
AcDbLine
 62
8
  6
HIDDEN
 10
39.693613857
 20
36.4148894647
 11
38.4928551285
 21
36.6810912659
  0
LINE
  5
269
100
AcDbEntity
  8
DEFAULT_2
100
AcDbLine
 62
8
  6
HIDDEN
 10
33.3786219519
 20
37.8148894647
 11
35.3051082383
 21
37.3877977373
  0
LINE
  5
26A
100
AcDbEntity
  8
DEFAULT_2
100
AcDbLine
 62
8
  6
HIDDEN
 10
36.141013089
 20
37.2024820934
 11
37.8052448986
 21
36.8335307839
  0
LWPOLYLINE
  5
26B
100
AcDbEntity
  8
DEFAULT_2
100
AcDbPolyline
 62
8
  6
HIDDEN
 90
4
 70
0
 10
37.5540719099
 20
38.513617398
 10
37.5032797787
 20
38.5889113219
 10
37.3121552208
 20
38.9235439873
 10
37.1569675561
 20
39.2461779234
  0
LWPOLYLINE
  5
26C
100
AcDbEntity
  8
DEFAULT_2
100
AcDbPolyline
 62
8
  6
HIDDEN
 90
4
 70
0
 10
37.514502399
 20
37.132075025
 10
37.6136853648
 20
36.9512553779
 10
37.8133411403
 20
36.5289566494
 10
37.9734519919
 20
36.1488252796
  0
LINE
  5
26D
100
AcDbEntity
  8
0
100
AcDbLine
 62
7
  6
CONTINUOUS
 10
29.1786219519
 20
40.8148894647
 11
29.1786219519
 21
20.8148894647
  0
LINE
  5
26E
100
AcDbEntity
  8
DEFAULT_2
100
AcDbLine
 62
8
  6
HIDDEN
 10
53.9969921338
 20
37.442249112
 11
53.711221998
 21
37.4172139057
  0
LINE
  5
26F
100
AcDbEntity
  8
DEFAULT_2
100
AcDbLine
 62
8
  6
HIDDEN
 10
40.3360009529
 20
38.031516341
 11
40.0047947598
 21
38.0162443093
  0
LINE
  5
270
100
AcDbEntity
  8
DEFAULT_2
100
AcDbLine
 62
8
  6
HIDDEN
 10
46.5470696857
 20
39.2145951665
 11
46.5551392314
 21
39.2148853907
  0
LWPOLYLINE
  5
271
100
AcDbEntity
  8
DEFAULT_2
100
AcDbPolyline
 62
8
  6
HIDDEN
 90
4
 70
0
 10
49.7702048698
 20
39.2274751509
 10
49.603734785
 20
39.2222435788
 10
49.2867642274
 20
39.2160525172
 10
49.0553625253
 20
39.2146915477
  0
LWPOLYLINE
  5
272
100
AcDbEntity
  8
DEFAULT_2
100
AcDbPolyline
 62
8
  6
HIDDEN
 90
4
 70
0
 10
42.2701531696
 20
39.227262876
 10
42.1039633863
 20
39.2220531171
 10
41.7868362345
 20
39.2159142962
 10
41.5549831437
 20
39.2146094032
  0
LWPOLYLINE
  5
273
100
AcDbEntity
  8
DEFAULT_2
100
AcDbPolyline
 62
8
  6
HIDDEN
 90
4
 70
0
 10
47.2696946401
 20
39.2274198069
 10
47.1042364809
 20
39.2222806907
 10
46.7873644849
 20
39.2161976844
 10
46.5551392314
 20
39.2148853907
  0
LWPOLYLINE
  5
274
100
AcDbEntity
  8
DEFAULT_2
100
AcDbPolyline
 62
8
  6
HIDDEN
 90
4
 70
0
 10
52.269632462
 20
39.22739329
 10
52.1042281942
 20
39.2222656313
 10
51.7873629648
 20
39.2162007955
 10
51.5550970003
 20
39.2148990486
  0
LWPOLYLINE
  5
275
100
AcDbEntity
  8
DEFAULT_2
100
AcDbPolyline
 62
8
  6
HIDDEN
 90
4
 70
0
 10
44.7695907774
 20
39.2271244381
 10
44.6039602998
 20
39.22199949
 10
44.286925255
 20
39.2159788706
 10
44.0546649691
 20
39.2147375459
  0
LINE
  5
276
100
AcDbEntity
  8
DEFAULT_2
100
AcDbLine
 62
8
  6
HIDDEN
 10
40.0481174655
 20
37.7008929312
 11
39.7155174194
 21
37.6908842103
  0
LINE
  5
277
100
AcDbEntity
  8
DEFAULT_2
100
AcDbLine
 62
8
  6
HIDDEN
 10
78.1786219519
 20
35.9695900031
 11
75.9346050161
 21
35.9695900031
  0
LINE
  5
278
100
AcDbEntity
  8
DEFAULT_2
100
AcDbLine
 62
8
  6
HIDDEN
 10
39.693613857
 20
36.4148894647
 11
53.6886219519
 21
36.4148894647
  0
LINE
  5
279
100
AcDbEntity
  8
DEFAULT_2
100
AcDbLine
 62
8
  6
HIDDEN
 10
78.1786219519
 20
37.1242905414
 11
75.9346050161
 21
37.1242905414
  0
LINE
  5
27A
100
AcDbEntity
  8
0
100
AcDbLine
 62
2
  6
CONTINUOUS
 10
58.1786219519
 20
37.3148894647
 11
74.1786219519
 21
37.3148894647
  0
LINE
  5
27B
100
AcDbEntity
  8
0
100
AcDbLine
 62
7
  6
CONTINUOUS
 10
73.8786219519
 20
37.8148894647
 11
58.6786219519
 21
37.8148894647
  0
LINE
  5
27C
100
AcDbEntity
  8
A_ACHSEN
100
AcDbLine
 62
7
  6
CENTER
 10
30.3786219519
 20
37.8148894647
 11
61.3786219519
 21
37.8148894647
  0
LINE
  5
27D
100
AcDbEntity
  8
0
100
AcDbLine
 62
7
  6
CONTINUOUS
 10
69.1786219519
 20
37.9148894647
 11
74.0884280602
 21
37.9148894647
  0
LINE
  5
27E
100
AcDbEntity
  8
0
100
AcDbLine
 62
7
  6
CONTINUOUS
 10
55.3786219519
 20
38.3148894647
 11
58.3786219519
 21
38.3148894647
  0
LINE
  5
27F
100
AcDbEntity
  8
0
100
AcDbLine
 62
7
  6
CONTINUOUS
 10
65.2786219519
 20
38.8148894647
 11
62.9786219519
 21
38.8148894647
  0
LINE
  5
280
100
AcDbEntity
  8
0
100
AcDbLine
 62
7
  6
CONTINUOUS
 10
62.9786219519
 20
39.0648894647
 11
65.9786219519
 21
39.0648894647
  0
LINE
  5
281
100
AcDbEntity
  8
DEFAULT_2
100
AcDbLine
 62
8
  6
HIDDEN
 10
39.728012599
 20
39.2148894647
 11
53.6886219519
 21
39.2148894647
  0
LINE
  5
282
100
AcDbEntity
  8
0
100
AcDbLine
 62
7
  6
CONTINUOUS
 10
77.8786219519
 20
39.8148894647
 11
74.4786219519
 21
39.8148894647
  0
LWPOLYLINE
  5
283
100
AcDbEntity
  8
DEFAULT_2
100
AcDbPolyline
 62
8
  6
HIDDEN
 90
4
 70
0
 10
42.8044173106
 20
36.4151978441
 10
43.0367422017
 20
36.4139964831
 10
43.3538516131
 20
36.4080158916
 10
43.519509426
 20
36.4029051542
  0
LWPOLYLINE
  5
284
100
AcDbEntity
  8
DEFAULT_2
100
AcDbPolyline
 62
8
  6
HIDDEN
 90
4
 70
0
 10
40.3047639063
 20
36.4150202811
 10
40.5369458384
 20
36.4137615846
 10
40.8539869357
 20
36.4077141741
 10
41.0197091561
 20
36.4025721543
  0
LWPOLYLINE
  5
285
100
AcDbEntity
  8
DEFAULT_2
100
AcDbPolyline
 62
8
  6
HIDDEN
 90
4
 70
0
 10
50.3051009096
 20
36.4151115025
 10
50.5368468225
 20
36.4137891446
 10
50.8539303591
 20
36.4076328762
 10
51.0201795284
 20
36.4024158381
  0
LWPOLYLINE
  5
286
100
AcDbEntity
  8
DEFAULT_2
100
AcDbPolyline
 62
8
  6
HIDDEN
 90
4
 70
0
 10
47.805334518
 20
36.4151128856
 10
48.0367915401
 20
36.4137539169
 10
48.3537898035
 20
36.4075605341
 10
48.5202373045
 20
36.4023261551
  0
LWPOLYLINE
  5
287
100
AcDbEntity
  8
DEFAULT_2
100
AcDbPolyline
 62
8
  6
HIDDEN
 90
4
 70
0
 10
45.3056926717
 20
36.4149832224
 10
45.540160368
 20
36.4135477424
 10
45.856712575
 20
36.4073489752
 10
46.0195656675
 20
36.4022834162
  0
LWPOLYLINE
  5
288
100
AcDbEntity
  8
DEFAULT_2
100
AcDbPolyline
 62
8
  6
HIDDEN
 90
4
 70
0
 10
52.8058657583
 20
36.4152952297
 10
53.0366751313
 20
36.4138568475
 10
53.3535056031
 20
36.4075838688
 10
53.5204120694
 20
36.402308568
  0
LINE
  5
289
100
AcDbEntity
  8
DEFAULT_2
100
AcDbLine
 62
8
  6
HIDDEN
 10
53.3786219519
 20
37.6338171339
 11
53.6947999877
 21
37.5447124358
  0
LINE
  5
28A
100
AcDbEntity
  8
DEFAULT_2
100
AcDbLine
 62
8
  6
HIDDEN
 10
53.711221998
 20
37.4172139057
 11
53.3786219519
 21
37.6338171339
  0
LWPOLYLINE
  5
28B
100
AcDbEntity
  8
DEFAULT_2
100
AcDbPolyline
 62
8
  6
HIDDEN
 90
4
 70
0
 10
40.0049050969
 20
38.933787445
 10
39.9481351926
 20
39.0475179273
 10
39.7502298462
 20
39.4765708116
 10
39.6042199025
 20
39.8189241453
  0
LWPOLYLINE
  5
28C
100
AcDbEntity
  8
DEFAULT_2
100
AcDbPolyline
 62
8
  6
HIDDEN
 90
4
 70
0
 10
40.0490685719
 20
36.6951771454
 10
40.1569349607
 20
36.4594920949
 10
40.3440541806
 20
36.0207017951
 10
40.4784832101
 20
35.6879054368
  0
LINE
  5
28D
100
AcDbEntity
  8
0
100
AcDbLine
 62
7
  6
CONTINUOUS
 10
76.1786219519
 20
40.0648894647
 11
79.1786219519
 21
40.0648894647
  0
LINE
  5
28E
100
AcDbEntity
  8
0
100
AcDbLine
 62
7
  6
CONTINUOUS
 10
62.9786219519
 20
40.3148894647
 11
59.9786219519
 21
40.3148894647
  0
LINE
  5
28F
100
AcDbEntity
  8
0
100
AcDbLine
 62
7
  6
CONTINUOUS
 10
55.3786219519
 20
40.3148894647
 11
58.3786219519
 21
40.3148894647
  0
LINE
  5
290
100
AcDbEntity
  8
0
100
AcDbLine
 62
7
  6
CONTINUOUS
 10
29.1786219519
 20
40.8148894647
 11
55.3786219519
 21
40.8148894647
  0
LINE
  5
291
100
AcDbEntity
  8
0
100
AcDbLine
 62
2
  6
CONTINUOUS
 10
58.3786219519
 20
43.1998894647
 11
62.9786219519
 21
43.1998894647
  0
LINE
  5
292
100
AcDbEntity
  8
A_RUNDUNGEN
100
AcDbLine
 62
7
  6
CONTINUOUS
 10
76.1786219519
 20
43.3148894647
 11
74.4786219519
 21
43.3148894647
  0
LINE
  5
293
100
AcDbEntity
  8
0
100
AcDbLine
 62
7
  6
CONTINUOUS
 10
73.845169574
 20
23.8148894647
 11
76.1205233773
 21
22.1052210864
  0
LINE
  5
294
100
AcDbEntity
  8
0
100
AcDbLine
 62
7
  6
CONTINUOUS
 10
58.9286219519
 20
30.8148894647
 11
59.4286219519
 21
30.3148894647
  0
LINE
  5
295
100
AcDbEntity
  8
0
100
AcDbLine
 62
7
  6
CONTINUOUS
 10
58.6786219519
 20
31.8148894647
 11
58.1786219519
 21
32.3148894647
  0
LWPOLYLINE
  5
296
100
AcDbEntity
  8
DEFAULT_2
100
AcDbPolyline
 62
8
  6
HIDDEN
 90
4
 70
0
 10
42.506735581
 20
38.9923050187
 10
42.4055806029
 20
39.19804015
 10
42.2134773861
 20
39.6236608096
 10
42.0719099843
 20
39.959825465
  0
LWPOLYLINE
  5
297
100
AcDbEntity
  8
DEFAULT_2
100
AcDbPolyline
 62
8
  6
HIDDEN
 90
4
 70
0
 10
45.0065066108
 20
38.9925803126
 10
44.8982422844
 20
39.2134967717
 10
44.7091837402
 20
39.6338411723
 10
44.5722571428
 20
39.9591916342
  0
LWPOLYLINE
  5
298
100
AcDbEntity
  8
DEFAULT_2
100
AcDbPolyline
 62
8
  6
HIDDEN
 90
4
 70
0
 10
42.5486677453
 20
36.6960146305
 10
42.6623636925
 20
36.4474185329
 10
42.8493093511
 20
36.0081979033
 10
42.9787830717
 20
35.6873816913
  0
LWPOLYLINE
  5
299
100
AcDbEntity
  8
DEFAULT_2
100
AcDbPolyline
 62
8
  6
HIDDEN
 90
4
 70
0
 10
45.0492413994
 20
36.6950077186
 10
45.1583528341
 20
36.4564358015
 10
45.3442465823
 20
36.0201182215
 10
45.4783679592
 20
35.6880491528
  0
LINE
  5
29A
100
AcDbEntity
  8
DEFAULT_2
100
AcDbLine
 62
8
  6
HIDDEN
 10
34.3323295404
 20
37.643711985
 11
34.1937788839
 21
38.6231997543
  0
LINE
  5
29B
100
AcDbEntity
  8
DEFAULT_2
100
AcDbLine
 62
8
  6
HIDDEN
 10
66.7286219519
 20
103.8148894647
 11
66.7104117191
 21
103.8027125226
  0
LINE
  5
29C
100
AcDbEntity
  8
DEFAULT_2
100
AcDbLine
 62
8
  6
HIDDEN
 10
39.7155174194
 20
37.6908842103
 11
40.3807175116
 21
37.8791944972
  0
LINE
  5
29D
100
AcDbEntity
  8
DEFAULT_2
100
AcDbLine
 62
8
  6
HIDDEN
 10
33.3786219519
 20
37.8148894647
 11
34.0552282275
 21
37.9648894647
  0
LINE
  5
29E
100
AcDbEntity
  8
DEFAULT_2
100
AcDbLine
 62
8
  6
HIDDEN
 10
34.5885740484
 20
38.0831293865
 11
36.5552289752
 21
38.519126287
  0
LINE
  5
29F
100
AcDbEntity
  8
DEFAULT_2
100
AcDbLine
 62
8
  6
HIDDEN
 10
37.2814319335
 20
38.6801216069
 11
39.0552241527
 21
39.0733618745
  0
LINE
  5
2A0
100
AcDbEntity
  8
0
100
AcDbLine
 62
7
  6
CONTINUOUS
 10
58.3786219519
 20
43.8148894647
 11
62.9786219519
 21
43.8148894647
  0
LINE
  5
2A1
100
AcDbEntity
  8
0
100
AcDbLine
 62
7
  6
CONTINUOUS
 10
74.1786219519
 20
43.8148894647
 11
76.1786219519
 21
43.8148894647
  0
LINE
  5
2A2
100
AcDbEntity
  8
0
100
AcDbLine
 62
2
  6
CONTINUOUS
 10
58.9286219519
 20
44.8148894647
 11
62.9786219519
 21
44.8148894647
  0
LINE
  5
2A3
100
AcDbEntity
  8
A_RUNDUNGEN
100
AcDbLine
 62
7
  6
CONTINUOUS
 10
59.4286219519
 20
45.3148894647
 11
62.9786219519
 21
45.3148894647
  0
LINE
  5
2A4
100
AcDbEntity
  8
0
100
AcDbLine
 62
7
  6
CONTINUOUS
 10
88.6786219519
 20
45.8148894647
 11
82.6786219519
 21
45.8148894647
  0
LINE
  5
2A5
100
AcDbEntity
  8
0
100
AcDbLine
 62
7
  6
CONTINUOUS
 10
88.4130575148
 20
46.8148894647
 11
82.944186389
 21
46.8148894647
  0
LINE
  5
2A6
100
AcDbEntity
  8
0
100
AcDbLine
 62
7
  6
CONTINUOUS
 10
76.1205233773
 20
22.1052210864
 11
76.6862088022
 21
21.5395356614
  0
LWPOLYLINE
  5
2A7
100
AcDbEntity
  8
DEFAULT_2
100
AcDbPolyline
 62
8
  6
HIDDEN
 90
4
 70
0
 10
50.0069724783
 20
38.9918728615
 10
49.8984003589
 20
39.213135084
 10
49.7089610991
 20
39.6338572748
 10
49.5720008437
 20
39.9591956686
  0
LWPOLYLINE
  5
2A8
100
AcDbEntity
  8
DEFAULT_2
100
AcDbPolyline
 62
8
  6
HIDDEN
 90
4
 70
0
 10
47.506754592
 20
38.992210194
 10
47.3982782062
 20
39.213443171
 10
47.208976131
 20
39.6342301346
 10
47.0719888967
 20
39.959800746
  0
LWPOLYLINE
  5
2A9
100
AcDbEntity
  8
DEFAULT_2
100
AcDbPolyline
 62
8
  6
HIDDEN
 90
4
 70
0
 10
50.0485917396
 20
36.696252638
 10
50.1620179975
 20
36.4482853544
 10
50.3490847332
 20
36.0087380245
 10
50.4789629822
 20
35.6868368473
  0
LWPOLYLINE
  5
2AA
100
AcDbEntity
  8
DEFAULT_2
100
AcDbPolyline
 62
8
  6
HIDDEN
 90
4
 70
0
 10
47.5486331342
 20
36.6962460327
 10
47.6636934826
 20
36.4445463544
 10
47.8506653698
 20
36.0048158076
 10
47.979059032
 20
35.6864512452
  0
LINE
  5
2AB
100
AcDbEntity
  8
DEFAULT_2
100
AcDbLine
 62
8
  6
HIDDEN
 10
39.693613857
 20
39.2103859775
 11
39.693613857
 21
36.4148894647
  0
LINE
  5
2AC
100
AcDbEntity
  8
DEFAULT_2
100
AcDbLine
 62
8
  6
HIDDEN
 10
34.1937788839
 20
38.6231997543
 11
34.0552282275
 21
37.9648894647
  0
LINE
  5
2AD
100
AcDbEntity
  8
0
100
AcDbLine
 62
7
  6
CONTINUOUS
 10
65.9786219519
 20
49.3148894647
 11
62.9786219519
 21
49.3148894647
  0
LINE
  5
2AE
100
AcDbEntity
  8
A_RUNDUNGEN
100
AcDbLine
 62
7
  6
CONTINUOUS
 10
65.9786219519
 20
49.3148894647
 11
66.9786219519
 21
49.3148894647
  0
LINE
  5
2AF
100
AcDbEntity
  8
0
100
AcDbLine
 62
7
  6
CONTINUOUS
 10
66.9786219519
 20
49.3148894647
 11
76.1786219519
 21
49.3148894647
  0
LINE
  5
2B0
100
AcDbEntity
  8
0
100
AcDbLine
 62
7
  6
CONTINUOUS
 10
55.3786219519
 20
49.7148894647
 11
58.3786219519
 21
49.7148894647
  0
LINE
  5
2B1
100
AcDbEntity
  8
A_RUNDUNGEN
100
AcDbLine
 62
7
  6
CONTINUOUS
 10
65.1786219519
 20
49.8148894647
 11
66.1786219519
 21
49.8148894647
  0
LINE
  5
2B2
100
AcDbEntity
  8
0
100
AcDbLine
 62
7
  6
CONTINUOUS
 10
69.1786219519
 20
49.8148894647
 11
79.1786219519
 21
49.8148894647
  0
LINE
  5
2B3
100
AcDbEntity
  8
0
100
AcDbLine
 62
7
  6
CONTINUOUS
 10
80.1786219519
 20
49.8148894647
 11
91.1786219519
 21
49.8148894647
  0
LINE
  5
2B4
100
AcDbEntity
  8
0
100
AcDbLine
 62
7
  6
CONTINUOUS
 10
79.1786219519
 20
50.8148894647
 11
92.1786219519
 21
50.8148894647
  0
LINE
  5
2B5
100
AcDbEntity
  8
0
100
AcDbLine
 62
7
  6
CONTINUOUS
 10
78.4539757552
 20
23.3073026144
 11
77.8882903302
 21
23.8729880393
  0
LINE
  5
2B6
100
AcDbEntity
  8
0
100
AcDbLine
 62
7
  6
CONTINUOUS
 10
65.7786219519
 20
38.3148894647
 11
65.2786219519
 21
38.8148894647
  0
LWPOLYLINE
  5
2B7
100
AcDbEntity
  8
DEFAULT_2
100
AcDbPolyline
 62
8
  6
HIDDEN
 90
4
 70
0
 10
52.5065381775
 20
38.9924305154
 10
52.3981670518
 20
39.2135468913
 10
52.2089933398
 20
39.6341951817
 10
52.0720250323
 20
39.9597451453
  0
LWPOLYLINE
  5
2B8
100
AcDbEntity
  8
DEFAULT_2
100
AcDbPolyline
 62
8
  6
HIDDEN
 90
4
 70
0
 10
52.5491628485
 20
36.6951408206
 10
52.6579317798
 20
36.4573750955
 10
52.8439126372
 20
36.0209169415
 10
52.9783398568
 20
35.6880790002
  0
LINE
  5
2B9
100
AcDbEntity
  8
DEFAULT_2
100
AcDbLine
 62
8
  6
HIDDEN
 10
66.7286219519
 20
103.8148894647
 11
64.4786219519
 21
101.5648894647
  0
LINE
  5
2BA
100
AcDbEntity
  8
DEFAULT_2
100
AcDbLine
 62
8
  6
HIDDEN
 10
66.7286219519
 20
93.8148894647
 11
66.7104117052
 21
93.8027125133
  0
LINE
  5
2BB
100
AcDbEntity
  8
0
100
AcDbLine
 62
7
  6
CONTINUOUS
 10
64.1786219519
 20
51.8148894647
 11
69.1786219519
 21
51.8148894647
  0
LINE
  5
2BC
100
AcDbEntity
  8
DEFAULT_2
100
AcDbLine
 62
8
  6
HIDDEN
 10
66.7286219519
 20
93.8148894647
 11
64.4786219519
 21
91.5648894647
  0
LINE
  5
2BD
100
AcDbEntity
  8
0
100
AcDbLine
 62
7
  6
CONTINUOUS
 10
77.8882903302
 20
23.8729880393
 11
76.1786219519
 21
26.1483418426
  0
LWPOLYLINE
  5
2BE
100
AcDbEntity
  8
DEFAULT_2
100
AcDbPolyline
 62
8
  6
HIDDEN
 90
4
 70
0
 10
39.243816708
 20
39.7883353858
 10
39.0995754153
 20
39.4361904548
 10
38.909448075
 20
39.0039407455
 10
38.801881061
 20
38.7814668513
  0
LWPOLYLINE
  5
2BF
100
AcDbEntity
  8
DEFAULT_2
100
AcDbPolyline
 62
8
  6
HIDDEN
 90
4
 70
0
 10
36.6926011704
 20
39.1579656646
 10
36.5476350249
 20
38.8206596363
 10
36.3464922174
 20
38.4251988155
 10
36.2254785039
 20
38.2413898827
  0
LINE
  5
2C0
100
AcDbEntity
  8
DEFAULT_2
100
AcDbLine
 62
8
  6
HIDDEN
 10
66.7286219519
 20
83.8148894647
 11
66.7104117052
 21
83.8027125133
  0
LINE
  5
2C1
100
AcDbEntity
  8
0
100
AcDbLine
 62
7
  6
CONTINUOUS
 10
82.6786219519
 20
45.8148894647
 11
79.1786219519
 21
47.8148894647
  0
LINE
  5
2C2
100
AcDbEntity
  8
0
100
AcDbLine
 62
7
  6
CONTINUOUS
 10
82.944186389
 20
46.8148894647
 11
80.1786219519
 21
48.3952120001
  0
LINE
  5
2C3
100
AcDbEntity
  8
A_FASEN
100
AcDbLine
 62
7
  6
CONTINUOUS
 10
78.1786219519
 20
39.5148894647
 11
77.8786219519
 21
39.8148894647
  0
LINE
  5
2C4
100
AcDbEntity
  8
0
100
AcDbLine
 62
7
  6
CONTINUOUS
 10
75.6786219519
 20
43.8148894647
 11
76.1786219519
 21
43.3148894647
  0
LINE
  5
2C5
100
AcDbEntity
  8
DEFAULT_2
100
AcDbLine
 62
8
  6
HIDDEN
 10
53.6886219519
 20
39.2148894647
 11
53.6886219519
 21
36.4148894647
  0
LINE
  5
2C6
100
AcDbEntity
  8
0
100
AcDbLine
 62
7
  6
CONTINUOUS
 10
55.1786219519
 20
20.8148894647
 11
55.1786219519
 21
40.8148894647
  0
LINE
  5
2C7
100
AcDbEntity
  8
0
100
AcDbLine
 62
7
  6
CONTINUOUS
 10
55.3786219519
 20
25.9148894647
 11
55.3786219519
 21
49.7148894647
  0
LINE
  5
2C8
100
AcDbEntity
  8
0
100
AcDbLine
 62
7
  6
CONTINUOUS
 10
56.8786219519
 20
33.9148894647
 11
56.8786219519
 21
38.3148894647
  0
LWPOLYLINE
  5
2C9
100
AcDbEntity
  8
DEFAULT_2
100
AcDbPolyline
 62
8
  6
HIDDEN
 90
4
 70
0
 10
41.7287826355
 20
39.9426697134
 10
41.6013560628
 20
39.626786472
 10
41.4146155754
 20
39.1875566497
 10
41.2988079733
 20
38.9340900753
  0
LWPOLYLINE
  5
2CA
100
AcDbEntity
  8
DEFAULT_2
100
AcDbPolyline
 62
8
  6
HIDDEN
 90
4
 70
0
 10
44.2285413416
 20
39.9419333684
 10
44.0992789055
 20
39.6216972413
 10
43.9140184444
 20
39.1862407265
 10
43.7988839745
 20
38.9342306946
  0
LWPOLYLINE
  5
2CB
100
AcDbEntity
  8
DEFAULT_2
100
AcDbPolyline
 62
8
  6
HIDDEN
 90
4
 70
0
 10
40.8221163371
 20
35.6702416363
 10
40.9623826538
 20
36.0033690781
 10
41.1540324784
 20
36.4284060206
 10
41.2566039186
 20
36.6372204132
  0
LWPOLYLINE
  5
2CC
100
AcDbEntity
  8
DEFAULT_2
100
AcDbPolyline
 62
8
  6
HIDDEN
 90
4
 70
0
 10
38.378310602
 20
36.0998048149
 10
38.525840617
 20
36.4295357114
 10
38.7197606256
 20
36.8173478501
 10
38.7617951277
 20
36.8931877709
  0
LWPOLYLINE
  5
2CD
100
AcDbEntity
  8
DEFAULT_2
100
AcDbPolyline
 62
8
  6
HIDDEN
 90
4
 70
0
 10
35.941049266
 20
36.6587067855
 10
36.083307995
 20
36.9253000548
 10
36.2762948618
 20
37.1987901682
 10
36.3504932752
 20
37.2741445633
  0
LINE
  5
2CE
100
AcDbEntity
  8
DEFAULT_2
100
AcDbLine
 62
8
  6
HIDDEN
 10
66.7286219519
 20
83.8148894647
 11
64.4786219519
 21
81.5648894647
  0
LINE
  5
2CF
100
AcDbEntity
  8
DEFAULT_2
100
AcDbLine
 62
8
  6
HIDDEN
 10
74.6012716827
 20
34.8148894647
 11
75.9346050161
 21
32.5054883879
  0
LINE
  5
2D0
100
AcDbEntity
  8
0
100
AcDbLine
 62
7
  6
CONTINUOUS
 10
58.1786219519
 20
37.3148894647
 11
58.1786219519
 21
32.3148894647
  0
LINE
  5
2D1
100
AcDbEntity
  8
0
100
AcDbLine
 62
7
  6
CONTINUOUS
 10
58.3786219519
 20
25.9148894647
 11
58.3786219519
 21
27.4148894647
  0
LINE
  5
2D2
100
AcDbEntity
  8
0
100
AcDbLine
 62
7
  6
CONTINUOUS
 10
58.3786219519
 20
30.3148894647
 11
58.3786219519
 21
31.9148894647
  0
LINE
  5
2D3
100
AcDbEntity
  8
0
100
AcDbLine
 62
7
  6
CONTINUOUS
 10
58.3786219519
 20
37.5148894647
 11
58.3786219519
 21
49.7148894647
  0
LINE
  5
2D4
100
AcDbEntity
  8
0
100
AcDbLine
 62
7
  6
CONTINUOUS
 10
58.6786219519
 20
31.8148894647
 11
58.6786219519
 21
43.8148894647
  0
LINE
  5
2D5
100
AcDbEntity
  8
0
100
AcDbLine
 62
7
  6
CONTINUOUS
 10
58.9286219519
 20
44.8148894647
 11
58.9286219519
 21
43.8150124717
  0
LINE
  5
2D6
100
AcDbEntity
  8
0
100
AcDbLine
 62
7
  6
CONTINUOUS
 10
58.9286219519
 20
31.8147665484
 11
58.9286219519
 21
30.8148894647
  0
LINE
  5
2D7
100
AcDbEntity
  8
0
100
AcDbLine
 62
7
  6
CONTINUOUS
 10
59.4286219519
 20
45.3148894647
 11
59.4286219519
 21
43.8148894647
  0
LINE
  5
2D8
100
AcDbEntity
  8
0
100
AcDbLine
 62
7
  6
CONTINUOUS
 10
59.4286219519
 20
31.8148894647
 11
59.4286219519
 21
30.3148894647
  0
LINE
  5
2D9
100
AcDbEntity
  8
0
100
AcDbLine
 62
7
  6
CONTINUOUS
 10
59.9786219519
 20
26.3148894647
 11
59.9786219519
 21
31.8148894647
  0
LINE
  5
2DA
100
AcDbEntity
  8
0
100
AcDbLine
 62
7
  6
CONTINUOUS
 10
59.9786219519
 20
37.8148894647
 11
59.9786219519
 21
40.3148894647
  0
LINE
  5
2DB
100
AcDbEntity
  8
0
100
AcDbLine
 62
7
  6
CONTINUOUS
 10
61.1786219519
 20
20.8148894647
 11
61.1786219519
 21
23.8148894647
  0
LWPOLYLINE
  5
2DC
100
AcDbEntity
  8
DEFAULT_2
100
AcDbPolyline
 62
8
  6
HIDDEN
 90
4
 70
0
 10
46.7284818293
 20
39.9409226597
 10
46.5991366826
 20
39.6206797
 10
46.4122143644
 20
39.1818668032
 10
46.298431288
 20
38.9332428092
  0
LWPOLYLINE
  5
2DD
100
AcDbEntity
  8
DEFAULT_2
100
AcDbPolyline
 62
8
  6
HIDDEN
 90
4
 70
0
 10
43.3226049729
 20
35.6714693391
 10
43.459482219
 20
35.9965169345
 10
43.6484277208
 20
36.4164465832
 10
43.7565780017
 20
36.6371044713
  0
LWPOLYLINE
  5
2DE
100
AcDbEntity
  8
DEFAULT_2
100
AcDbPolyline
 62
8
  6
HIDDEN
 90
4
 70
0
 10
45.8224384251
 20
35.6719394291
 10
45.9592963608
 20
35.9967668159
 10
46.1484823075
 20
36.4166948897
 10
46.2569011256
 20
36.6376790038
  0
LINE
  5
2DF
100
AcDbEntity
  8
A_ACHSEN
100
AcDbLine
 62
8
  6
HIDDEN
 10
64.4786219519
 20
68.5648894647
 11
64.1786219519
 21
68.5648894647
  0
LINE
  5
2E0
100
AcDbEntity
  8
DEFAULT_2
100
AcDbLine
 62
8
  6
HIDDEN
 10
69.1786219519
 20
70.0538967409
 11
65.548228278
 21
70.0538967409
  0
LINE
  5
2E1
100
AcDbEntity
  8
DEFAULT_2
100
AcDbLine
 62
8
  6
HIDDEN
 10
69.1786219519
 20
70.8148894647
 11
66.7286219519
 21
70.8148894647
  0
LINE
  5
2E2
100
AcDbEntity
  8
0
100
AcDbLine
 62
7
  6
CONTINUOUS
 10
62.1786219519
 20
40.3148894647
 11
62.1786219519
 21
40.9771671248
  0
LINE
  5
2E3
100
AcDbEntity
  8
0
100
AcDbLine
 62
7
  6
CONTINUOUS
 10
62.9786219519
 20
26.3148894647
 11
62.9786219519
 21
30.8148894647
  0
LINE
  5
2E4
100
AcDbEntity
  8
0
100
AcDbLine
 62
7
  6
CONTINUOUS
 10
62.9786219519
 20
38.8148894647
 11
62.9786219519
 21
49.3148894647
  0
LINE
  5
2E5
100
AcDbEntity
  8
A_ACHSEN
100
AcDbLine
 62
8
  6
HIDDEN
 10
64.1786219519
 20
92.0648894647
 11
64.1786219519
 21
68.5648894647
  0
LINE
  5
2E6
100
AcDbEntity
  8
A_RUNDUNGEN
100
AcDbLine
 62
7
  6
CONTINUOUS
 10
64.1786219519
 20
49.3148894647
 11
64.1786219519
 21
51.8148894647
  0
LINE
  5
2E7
100
AcDbEntity
  8
0
100
AcDbLine
 62
7
  6
CONTINUOUS
 10
64.1786219519
 20
51.8148894647
 11
64.1786219519
 21
116.8148894647
  0
LINE
  5
2E8
100
AcDbEntity
  8
A_ACHSEN
100
AcDbLine
 62
8
  6
HIDDEN
 10
64.4786219519
 20
112.0648894647
 11
64.4786219519
 21
81.5648894647
  0
LINE
  5
2E9
100
AcDbEntity
  8
A_ACHSEN
100
AcDbLine
 62
8
  6
HIDDEN
 10
64.4786219519
 20
79.0648894647
 11
64.4786219519
 21
68.5648894647
  0
LWPOLYLINE
  5
2EA
100
AcDbEntity
  8
DEFAULT_2
100
AcDbPolyline
 62
8
  6
HIDDEN
 90
4
 70
0
 10
49.2291955568
 20
39.9436311439
 10
49.1015380369
 20
39.6270020624
 10
48.9145838131
 20
39.1870986869
 10
48.7986669523
 20
38.9334530681
  0
LWPOLYLINE
  5
2EB
100
AcDbEntity
  8
DEFAULT_2
100
AcDbPolyline
 62
8
  6
HIDDEN
 90
4
 70
0
 10
51.7285219949
 20
39.941192988
 10
51.6004145323
 20
39.6239141469
 10
51.4135805617
 20
39.185010506
 10
51.2984720138
 20
38.9333517286
  0
LWPOLYLINE
  5
2EC
100
AcDbEntity
  8
DEFAULT_2
100
AcDbPolyline
 62
8
  6
HIDDEN
 90
4
 70
0
 10
48.3219061957
 20
35.6703701774
 10
48.4589035714
 20
35.9958424263
 10
48.6484073948
 20
36.4167355133
 10
48.7570460895
 20
36.6381054609
  0
LINE
  5
2ED
100
AcDbEntity
  8
DEFAULT_2
100
AcDbLine
 62
8
  6
HIDDEN
 10
66.7286219519
 20
70.8148894647
 11
64.4786219519
 21
68.5648894647
  0
LINE
  5
2EE
100
AcDbEntity
  8
DEFAULT_2
100
AcDbLine
 62
8
  6
HIDDEN
 10
66.7286219519
 20
70.8148894647
 11
66.7104117052
 21
70.8027125133
  0
LINE
  5
2EF
100
AcDbEntity
  8
A_ACHSEN
100
AcDbLine
 62
7
  6
CENTER
 10
60.2991311347
 20
73.8148894647
 11
82.6285170767
 21
73.8148894647
  0
LINE
  5
2F0
100
AcDbEntity
  8
0
100
AcDbLine
 62
7
  6
CONTINUOUS
 10
65.7786219519
 20
38.3148894647
 11
65.7786219519
 21
37.8148894647
  0
LINE
  5
2F1
100
AcDbEntity
  8
0
100
AcDbLine
 62
7
  6
CONTINUOUS
 10
65.7786219519
 20
31.8148894647
 11
65.7786219519
 21
31.3148894647
  0
LINE
  5
2F2
100
AcDbEntity
  8
0
100
AcDbLine
 62
7
  6
CONTINUOUS
 10
65.9786219519
 20
26.3148894647
 11
65.9786219519
 21
31.8148894647
  0
LINE
  5
2F3
100
AcDbEntity
  8
0
100
AcDbLine
 62
7
  6
CONTINUOUS
 10
65.9786219519
 20
37.8148894647
 11
65.9786219519
 21
49.3148894647
  0
LINE
  5
2F4
100
AcDbEntity
  8
0
100
AcDbLine
 62
7
  6
CONTINUOUS
 10
66.9786219519
 20
37.8148894647
 11
66.9786219519
 21
49.3148894647
  0
LINE
  5
2F5
100
AcDbEntity
  8
0
100
AcDbLine
 62
7
  6
CONTINUOUS
 10
67.1786219519
 20
31.8148894647
 11
67.1786219519
 21
25.8148894647
  0
LWPOLYLINE
  5
2F6
100
AcDbEntity
  8
DEFAULT_2
100
AcDbPolyline
 62
8
  6
HIDDEN
 90
4
 70
0
 10
50.8218171415
 20
35.6699688677
 10
50.9650155836
 20
36.0099270197
 10
51.1536323147
 20
36.4278324261
 10
51.2569346437
 20
36.6379981451
  0
LWPOLYLINE
  5
2F7
100
AcDbEntity
  8
DEFAULT_2
100
AcDbPolyline
 62
8
  6
HIDDEN
 90
4
 70
0
 10
53.3220327499
 20
35.6708132724
 10
53.4665416812
 20
36.0135898594
 10
53.6591069268
 20
36.4392433776
 10
53.7490231769
 20
36.6223140973
  0
LINE
  5
2F8
100
AcDbEntity
  8
DEFAULT_2
100
AcDbLine
 62
8
  6
HIDDEN
 10
46.7284818293
 20
39.9409226597
 11
46.8796697318
 21
40.1624573632
  0
LINE
  5
2F9
100
AcDbEntity
  8
DEFAULT_2
100
AcDbLine
 62
8
  6
HIDDEN
 10
69.1786219519
 20
76.8148894647
 11
66.7286219519
 21
76.8148894647
  0
LINE
  5
2FA
100
AcDbEntity
  8
DEFAULT_2
100
AcDbLine
 62
8
  6
HIDDEN
 10
69.1786219519
 20
77.5758821885
 11
65.548228278
 21
77.5758821885
  0
LINE
  5
2FB
100
AcDbEntity
  8
A_ACHSEN
100
AcDbLine
 62
8
  6
HIDDEN
 10
64.4786219519
 20
79.0648894647
 11
64.1786219519
 21
79.0648894647
  0
LINE
  5
2FC
100
AcDbEntity
  8
DEFAULT_2
100
AcDbLine
 62
8
  6
HIDDEN
 10
66.7286219519
 20
76.8148894647
 11
66.7104117052
 21
76.827066416
  0
LINE
  5
2FD
100
AcDbEntity
  8
A_ACHSEN
100
AcDbLine
 62
8
  6
HIDDEN
 10
69.1786219519
 20
85.8147804364
 11
69.1786219519
 21
70.8149984929
  0
LINE
  5
2FE
100
AcDbEntity
  8
0
100
AcDbLine
 62
7
  6
CONTINUOUS
 10
69.1786219519
 20
120.8148894647
 11
69.1786219519
 21
49.8148894647
  0
LINE
  5
2FF
100
AcDbEntity
  8
0
100
AcDbLine
 62
7
  6
CONTINUOUS
 10
69.1786219519
 20
26.3148894647
 11
69.1786219519
 21
31.8148894647
  0
LINE
  5
300
100
AcDbEntity
  8
0
100
AcDbLine
 62
7
  6
CONTINUOUS
 10
69.1786219519
 20
37.8148894647
 11
69.1786219519
 21
49.3148894647
  0
LINE
  5
301
100
AcDbEntity
  8
0
100
AcDbLine
 62
7
  6
CONTINUOUS
 10
71.1786219519
 20
20.8148894647
 11
71.1786219519
 21
23.8148894647
  0
LINE
  5
302
100
AcDbEntity
  8
0
100
AcDbLine
 62
7
  6
CONTINUOUS
 10
72.1786219519
 20
26.3148894647
 11
72.1786219519
 21
25.8148894647
  0
LINE
  5
303
100
AcDbEntity
  8
DEFAULT_2
100
AcDbLine
 62
8
  6
HIDDEN
 10
53.7489971971
 20
36.6223282684
 11
53.7151796547
 21
36.5627638548
  0
LWPOLYLINE
  5
304
100
AcDbEntity
  8
DEFAULT_2
100
AcDbPolyline
 62
8
  6
HIDDEN
 90
3
 70
0
 10
34.7834420949
 20
38.2620243975
 10
34.6701741821
 20
38.1724141002
 10
34.4362319963
 20
38.032918347
  0
LINE
  5
305
100
AcDbEntity
  8
A_ACHSEN
100
AcDbLine
 62
8
  6
HIDDEN
 10
64.4786219519
 20
81.5648894647
 11
64.1786219519
 21
81.5648894647
  0
LINE
  5
306
100
AcDbEntity
  8
DEFAULT_2
100
AcDbLine
 62
8
  6
HIDDEN
 10
69.1786219519
 20
83.0538967409
 11
65.548228278
 21
83.0538967409
  0
LINE
  5
307
100
AcDbEntity
  8
DEFAULT_2
100
AcDbLine
 62
8
  6
HIDDEN
 10
66.7286219519
 20
76.8148894647
 11
64.4786219519
 21
79.0648894647
  0
LINE
  5
308
100
AcDbEntity
  8
DEFAULT_2
100
AcDbLine
 62
8
  6
HIDDEN
 10
74.1786219519
 20
37.8148894647
 11
74.1786219519
 21
31.8148894647
  0
LINE
  5
309
100
AcDbEntity
  8
A_RUNDUNGEN
100
AcDbLine
 62
7
  6
CONTINUOUS
 10
74.1786219519
 20
39.5148894483
 11
74.1786219519
 21
30.114889481
  0
LINE
  5
30A
100
AcDbEntity
  8
0
100
AcDbLine
 62
7
  6
CONTINUOUS
 10
74.1786219519
 20
26.3148894647
 11
74.1786219519
 21
30.1148894647
  0
LINE
  5
30B
100
AcDbEntity
  8
0
100
AcDbLine
 62
7
  6
CONTINUOUS
 10
74.1786219519
 20
39.5148894483
 11
74.1786219519
 21
49.3148894647
  0
LINE
  5
30C
100
AcDbEntity
  8
0
100
AcDbLine
 62
7
  6
CONTINUOUS
 10
75.6786219519
 20
43.3148894647
 11
75.6786219519
 21
43.8148894647
  0
LINE
  5
30D
100
AcDbEntity
  8
0
100
AcDbLine
 62
7
  6
CONTINUOUS
 10
76.1786219519
 20
25.8148894647
 11
76.1786219519
 21
29.8148894647
  0
LINE
  5
30E
100
AcDbEntity
  8
0
100
AcDbLine
 62
7
  6
CONTINUOUS
 10
76.1786219519
 20
39.8148894647
 11
76.1786219519
 21
49.8148894647
  0
LINE
  5
30F
100
AcDbEntity
  8
DEFAULT_2
100
AcDbLine
 62
8
  6
HIDDEN
 10
69.1786219519
 20
83.8148894647
 11
66.7286219519
 21
83.8148894647
  0
LINE
  5
310
100
AcDbEntity
  8
A_ACHSEN
100
AcDbLine
 62
7
  6
CENTER
 10
60.6684358479
 20
86.8148894647
 11
82.1467235083
 21
86.8148894647
  0
LINE
  5
311
100
AcDbEntity
  8
A_FASEN
100
AcDbLine
 62
7
  6
CONTINUOUS
 10
77.8786219519
 20
29.8148894647
 11
77.8786219519
 21
39.8148894647
  0
LINE
  5
312
100
AcDbEntity
  8
A_FASEN
100
AcDbLine
 62
7
  6
CONTINUOUS
 10
78.1786219519
 20
30.1165083953
 11
78.1786219519
 21
39.513270534
  0
LINE
  5
313
100
AcDbEntity
  8
DEFAULT_2
100
AcDbLine
 62
8
  6
HIDDEN
 10
78.1786219519
 20
32.5054883879
 11
78.1786219519
 21
37.1242905414
  0
LINE
  5
314
100
AcDbEntity
  8
0
100
AcDbLine
 62
7
  6
CONTINUOUS
 10
79.1786219519
 20
20.8148894647
 11
79.1786219519
 21
50.8148894647
  0
LINE
  5
315
100
AcDbEntity
  8
0
100
AcDbLine
 62
7
  6
CONTINUOUS
 10
80.1786219519
 20
48.3952120001
 11
80.1786219519
 21
49.8148894647
  0
LINE
  5
316
100
AcDbEntity
  8
0
100
AcDbLine
 62
7
  6
CONTINUOUS
 10
58.9286219519
 20
44.8148894647
 11
59.4286219519
 21
45.3148894647
  0
LINE
  5
317
100
AcDbEntity
  8
0
100
AcDbLine
 62
7
  6
CONTINUOUS
 10
58.3786219519
 20
43.5148894647
 11
58.6786219519
 21
43.8148894647
  0
LINE
  5
318
100
AcDbEntity
  8
DEFAULT_2
100
AcDbLine
 62
8
  6
HIDDEN
 10
40.0047947598
 20
38.0162443093
 11
39.6722294965
 21
37.8429364758
  0
LINE
  5
319
100
AcDbEntity
  8
DEFAULT_2
100
AcDbLine
 62
8
  6
HIDDEN
 10
69.1786219519
 20
89.8148894647
 11
66.7286219519
 21
89.8148894647
  0
LINE
  5
31A
100
AcDbEntity
  8
DEFAULT_2
100
AcDbLine
 62
8
  6
HIDDEN
 10
69.1786219519
 20
90.5758821885
 11
65.548228278
 21
90.5758821885
  0
LINE
  5
31B
100
AcDbEntity
  8
DEFAULT_2
100
AcDbLine
 62
8
  6
HIDDEN
 10
66.7286219519
 20
89.8148894647
 11
66.7101837974
 21
89.8272198402
  0
LINE
  5
31C
100
AcDbEntity
  8
DEFAULT_2
100
AcDbLine
 62
8
  6
HIDDEN
 10
66.7286219519
 20
89.8148894647
 11
64.4786219519
 21
92.0648894647
  0
LINE
  5
31D
100
AcDbEntity
  8
0
100
AcDbLine
 62
7
  6
CONTINUOUS
 10
58.6786219519
 20
37.8148894647
 11
58.1786219519
 21
37.3148894647
  0
LINE
  5
31E
100
AcDbEntity
  8
DEFAULT_2
100
AcDbLine
 62
8
  6
HIDDEN
 10
34.5885740484
 20
38.0831293865
 11
34.4362331451
 21
38.0329178486
  0
LINE
  5
31F
100
AcDbEntity
  8
A_ACHSEN
100
AcDbLine
 62
8
  6
HIDDEN
 10
64.4786219519
 20
91.5648894647
 11
64.1786219519
 21
91.5648894647
  0
LINE
  5
320
100
AcDbEntity
  8
A_ACHSEN
100
AcDbLine
 62
8
  6
HIDDEN
 10
64.4786219519
 20
92.0648894647
 11
64.1786219519
 21
92.0648894647
  0
LINE
  5
321
100
AcDbEntity
  8
DEFAULT_2
100
AcDbLine
 62
8
  6
HIDDEN
 10
69.1786219519
 20
93.0538967409
 11
65.548228278
 21
93.0538967409
  0
LINE
  5
322
100
AcDbEntity
  8
DEFAULT_2
100
AcDbLine
 62
8
  6
HIDDEN
 10
69.1786219519
 20
93.8148894647
 11
66.7286219519
 21
93.8148894647
  0
LINE
  5
323
100
AcDbEntity
  8
DEFAULT_2
100
AcDbLine
 62
8
  6
HIDDEN
 10
47.2122697779
 20
39.2107189647
 11
47.2696946401
 21
39.2274198069
  0
LINE
  5
324
100
AcDbEntity
  8
A_ACHSEN
100
AcDbLine
 62
7
  6
CENTER
 10
61.2223929177
 20
96.8148894647
 11
82.9497127889
 21
96.8148894647
  0
LINE
  5
325
100
AcDbEntity
  8
DEFAULT_2
100
AcDbLine
 62
8
  6
HIDDEN
 10
66.7286219519
 20
99.8148894647
 11
66.7101838151
 21
99.8272198283
  0
LINE
  5
326
100
AcDbEntity
  8
DEFAULT_2
100
AcDbLine
 62
8
  6
HIDDEN
 10
66.7286219519
 20
99.8148894647
 11
64.4786219519
 21
102.0648894647
  0
LINE
  5
327
100
AcDbEntity
  8
0
100
AcDbLine
 62
7
  6
CONTINUOUS
 10
91.1786219519
 20
49.8148894647
 11
91.1786219519
 21
48.3952120001
  0
LINE
  5
328
100
AcDbEntity
  8
0
100
AcDbLine
 62
7
  6
CONTINUOUS
 10
92.1786219519
 20
47.8148894647
 11
92.1786219519
 21
120.8148894647
  0
LINE
  5
329
100
AcDbEntity
  8
DEFAULT_2
100
AcDbLine
 62
8
  6
HIDDEN
 10
74.6012716827
 20
34.8148894647
 11
75.9346050161
 21
37.1242905414
  0
LINE
  5
32A
100
AcDbEntity
  8
0
100
AcDbLine
 62
7
  6
CONTINUOUS
 10
65.7786219519
 20
31.3148894647
 11
65.2786219519
 21
30.8148894647
  0
LINE
  5
32B
100
AcDbEntity
  8
DEFAULT_2
100
AcDbLine
 62
8
  6
HIDDEN
 10
69.1786219519
 20
99.8148894647
 11
66.7286219519
 21
99.8148894647
  0
LINE
  5
32C
100
AcDbEntity
  8
DEFAULT_2
100
AcDbLine
 62
8
  6
HIDDEN
 10
69.1786219519
 20
100.5758821885
 11
65.548228278
 21
100.5758821885
  0
LINE
  5
32D
100
AcDbEntity
  8
A_ACHSEN
100
AcDbLine
 62
8
  6
HIDDEN
 10
64.4786219519
 20
101.5648894647
 11
64.1786219519
 21
101.5648894647
  0
LINE
  5
32E
100
AcDbEntity
  8
A_ACHSEN
100
AcDbLine
 62
8
  6
HIDDEN
 10
64.4786219519
 20
102.0648894647
 11
64.1786219519
 21
102.0648894647
  0
LINE
  5
32F
100
AcDbEntity
  8
DEFAULT_2
100
AcDbLine
 62
8
  6
HIDDEN
 10
66.7286219519
 20
109.8148894647
 11
64.4786219519
 21
112.0648894647
  0
LINE
  5
330
100
AcDbEntity
  8
0
100
AcDbLine
 62
7
  6
CONTINUOUS
 10
91.1786219519
 20
48.3952120001
 11
88.4130575148
 21
46.8148894647
  0
LINE
  5
331
100
AcDbEntity
  8
0
100
AcDbLine
 62
7
  6
CONTINUOUS
 10
92.1786219519
 20
47.8148894647
 11
88.6786219519
 21
45.8148894647
  0
LINE
  5
332
100
AcDbEntity
  8
DEFAULT_2
100
AcDbLine
 62
8
  6
HIDDEN
 10
69.1786219519
 20
103.0538967409
 11
65.548228278
 21
103.0538967409
  0
LINE
  5
333
100
AcDbEntity
  8
DEFAULT_2
100
AcDbLine
 62
8
  6
HIDDEN
 10
69.1786219519
 20
103.8148894647
 11
66.7286219519
 21
103.8148894647
  0
LINE
  5
334
100
AcDbEntity
  8
DEFAULT_2
100
AcDbLine
 62
8
  6
HIDDEN
 10
66.7286219519
 20
109.8148894647
 11
66.7101837974
 21
109.8272198402
  0
LINE
  5
335
100
AcDbEntity
  8
A_ACHSEN
100
AcDbLine
 62
7
  6
CENTER
 10
61.0377405611
 20
106.8148894647
 11
83.030011717
 21
106.8148894647
  0
LINE
  5
336
100
AcDbEntity
  8
DEFAULT_2
100
AcDbLine
 62
8
  6
HIDDEN
 10
69.1786219519
 20
109.8148894647
 11
66.7286219519
 21
109.8148894647
  0
LINE
  5
337
100
AcDbEntity
  8
DEFAULT_2
100
AcDbLine
 62
8
  6
HIDDEN
 10
69.1786219519
 20
110.5758821885
 11
65.548228278
 21
110.5758821885
  0
LINE
  5
338
100
AcDbEntity
  8
A_FASEN
100
AcDbLine
 62
7
  6
CONTINUOUS
 10
78.1786219519
 20
30.1148894647
 11
77.8786219519
 21
29.8148894647
  0
LINE
  5
339
100
AcDbEntity
  8
A_ACHSEN
100
AcDbLine
 62
8
  6
HIDDEN
 10
64.4786219519
 20
112.0648894647
 11
64.1786219519
 21
112.0648894647
  0
LINE
  5
33A
100
AcDbEntity
  8
0
100
AcDbLine
 62
7
  6
CONTINUOUS
 10
76.9690515147
 20
21.5395356614
 11
78.4539757552
 21
23.0244599019
  0
LINE
  5
33B
100
AcDbEntity
  8
0
100
AcDbLine
 62
7
  6
CONTINUOUS
 10
64.1786219519
 20
116.8148894647
 11
69.1786219519
 21
116.8148894647
  0
LINE
  5
33C
100
AcDbEntity
  8
0
100
AcDbLine
 62
7
  6
CONTINUOUS
 10
92.1786219519
 20
120.8148894647
 11
69.1786219519
 21
120.8148894647
  0
ARC
  5
33D
100
AcDbEntity
  8
DEFAULT_2
100
AcDbCircle
 62
8
  6
HIDDEN
 10
24.5428141735
 20
33.4573642563
 40
16.443593428
100
AcDbArc
 50
15.5993562257
 51
16.0511576388
  0
ARC
  5
33E
100
AcDbEntity
  8
DEFAULT_2
100
AcDbCircle
 62
8
  6
HIDDEN
 10
46.8553046187
 20
39.895092677
 40
7.4704694207
100
AcDbArc
 50
195.9442686566
 51
196.5308311001
  0
ARC
  5
33F
100
AcDbEntity
  8
DEFAULT_2
100
AcDbCircle
 62
8
  6
HIDDEN
 10
34.0536951682
 20
35.8842611442
 40
6.639131813
100
AcDbArc
 50
18.6188518685
 51
18.8700730027
  0
ARC
  5
340
100
AcDbEntity
  8
DEFAULT_2
100
AcDbCircle
 62
8
  6
HIDDEN
 10
45.9722728558
 20
39.4762392855
 40
6.5064953189
100
AcDbArc
 50
195.2072631744
 51
195.9260118286
  0
ARC
  5
341
100
AcDbEntity
  8
DEFAULT_2
100
AcDbCircle
 62
8
  6
HIDDEN
 10
87.3422971597
 20
-57.3384844547
 40
106.2962419717
100
AcDbArc
 50
116.2399721872
 51
116.6190939471
  0
ARC
  5
342
100
AcDbEntity
  8
0
100
AcDbCircle
 62
7
  6
CONTINUOUS
 10
78.3125543989
 20
23.1658812582
 40
0.2
100
AcDbArc
 50
315.0
 51
45.0
  0
ARC
  5
343
100
AcDbEntity
  8
0
100
AcDbCircle
 62
7
  6
CONTINUOUS
 10
76.8276301584
 20
21.6809570177
 40
0.2
100
AcDbArc
 50
225.0
 51
315.0
  0
ARC
  5
344
100
AcDbEntity
  8
DEFAULT_2
100
AcDbCircle
 62
8
  6
HIDDEN
 10
56.5478627342
 20
63.3095192325
 40
16.906375874
100
AcDbArc
 50
55.5789859719
 51
56.9832590801
  0
ARC
  5
345
100
AcDbEntity
  8
DEFAULT_2
100
AcDbCircle
 62
8
  6
HIDDEN
 10
57.1297855084
 20
64.1814533237
 40
15.8581739612
100
AcDbArc
 50
55.5325725738
 51
57.0296714545
  0
ARC
  5
346
100
AcDbEntity
  8
DEFAULT_2
100
AcDbCircle
 62
8
  6
HIDDEN
 10
58.9190176489
 20
66.7946783148
 40
12.6911124641
100
AcDbArc
 50
54.9594023075
 51
55.5154467498
  0
ARC
  5
347
100
AcDbEntity
  8
DEFAULT_2
100
AcDbCircle
 62
8
  6
HIDDEN
 10
60.4060395562
 20
68.9034725973
 40
10.1107654144
100
AcDbArc
 50
53.5881563173
 51
54.9974491913
  0
ARC
  5
348
100
AcDbEntity
  8
0
100
AcDbCircle
 62
7
  6
CONTINUOUS
 10
66.6786219519
 20
37.8148894647
 40
5.5
100
AcDbArc
 50
132.3957204106
 51
144.9031987724
  0
ARC
  5
349
100
AcDbEntity
  8
A_RUNDUNGEN
100
AcDbCircle
 62
7
  6
CONTINUOUS
 10
65.1786219519
 20
50.8148894647
 40
1.0
100
AcDbArc
 50
180.0
 51
270.0
  0
ARC
  5
34A
100
AcDbEntity
  8
A_RUNDUNGEN
100
AcDbCircle
 62
7
  6
CONTINUOUS
 10
66.1786219519
 20
48.8148894647
 40
1.0
100
AcDbArc
 50
30.1949503164
 51
90.0
  0
ARC
  5
34B
100
AcDbEntity
  8
DEFAULT_2
100
AcDbCircle
 62
8
  6
HIDDEN
 10
56.5478627342
 20
107.3202596967
 40
16.9063758739
100
AcDbArc
 50
303.0167409199
 51
304.4210140281
  0
ARC
  5
34C
100
AcDbEntity
  8
DEFAULT_2
100
AcDbCircle
 62
8
  6
HIDDEN
 10
56.5478627342
 20
84.3202596968
 40
16.906375874
100
AcDbArc
 50
303.0167409199
 51
304.4210140281
  0
ARC
  5
34D
100
AcDbEntity
  8
DEFAULT_2
100
AcDbCircle
 62
8
  6
HIDDEN
 10
56.5478627341
 20
97.3202596969
 40
16.9063758741
100
AcDbArc
 50
303.0167409199
 51
304.4210140281
  0
ARC
  5
34E
100
AcDbEntity
  8
DEFAULT_2
100
AcDbCircle
 62
8
  6
HIDDEN
 10
56.5478628884
 20
117.320259462
 40
16.906375593
100
AcDbArc
 50
303.0167409153
 51
304.4210141871
  0
ARC
  5
34F
100
AcDbEntity
  8
DEFAULT_2
100
AcDbCircle
 62
8
  6
HIDDEN
 10
57.1297849357
 20
97.1814524633
 40
15.8581749947
100
AcDbArc
 50
55.5325729071
 51
57.0296714104
  0
ARC
  5
350
100
AcDbEntity
  8
DEFAULT_2
100
AcDbCircle
 62
8
  6
HIDDEN
 10
57.1297849357
 20
83.4483264661
 40
15.8581749947
100
AcDbArc
 50
302.9703285897
 51
304.4674270929
  0
ARC
  5
351
100
AcDbEntity
  8
DEFAULT_2
100
AcDbCircle
 62
8
  6
HIDDEN
 10
57.1297849356
 20
77.1814524632
 40
15.8581749948
100
AcDbArc
 50
55.532572907
 51
57.0296714103
  0
ARC
  5
352
100
AcDbEntity
  8
DEFAULT_2
100
AcDbCircle
 62
8
  6
HIDDEN
 10
57.1297857118
 20
87.1814536302
 40
15.8581735933
100
AcDbArc
 50
55.5325723519
 51
57.0296714685
  0
ARC
  5
353
100
AcDbEntity
  8
DEFAULT_2
100
AcDbCircle
 62
8
  6
HIDDEN
 10
71.4628390911
 20
63.7394745822
 40
8.5133573235
100
AcDbArc
 50
125.238079948
 51
126.4268573856
  0
ARC
  5
354
100
AcDbEntity
  8
DEFAULT_2
100
AcDbCircle
 62
8
  6
HIDDEN
 10
71.4289850192
 20
63.7863583708
 40
8.4555315033
100
AcDbArc
 50
125.2340215121
 51
126.4309223794
  0
ARC
  5
355
100
AcDbEntity
  8
DEFAULT_2
100
AcDbCircle
 62
8
  6
HIDDEN
 10
71.3325221637
 20
63.9189676833
 40
8.2915528789
100
AcDbArc
 50
123.8811872974
 51
126.4387931347
  0
ARC
  5
356
100
AcDbEntity
  8
DEFAULT_2
100
AcDbCircle
 62
8
  6
HIDDEN
 10
71.266901883
 20
64.0144422662
 40
8.1757234672
100
AcDbArc
 50
124.3650943694
 51
125.2283777895
  0
ARC
  5
357
100
AcDbEntity
  8
DEFAULT_2
100
AcDbCircle
 62
8
  6
HIDDEN
 10
71.2574222201
 20
64.0280847193
 40
8.1591112831
100
AcDbArc
 50
124.3639840948
 51
125.2292689793
  0
ARC
  5
358
100
AcDbEntity
  8
DEFAULT_2
100
AcDbCircle
 62
8
  6
HIDDEN
 10
71.2240160286
 20
64.0737823158
 40
8.102538219
100
AcDbArc
 50
123.8527573256
 51
124.1006326002
  0
ARC
  5
359
100
AcDbEntity
  8
DEFAULT_2
100
AcDbCircle
 62
8
  6
HIDDEN
 10
71.1064451584
 20
64.2481870143
 40
7.8922058843
100
AcDbArc
 50
123.8510058416
 51
124.1034256833
  0
ARC
  5
35A
100
AcDbEntity
  8
DEFAULT_2
100
AcDbCircle
 62
8
  6
HIDDEN
 10
71.1017095648
 20
64.2554798121
 40
7.8835120611
100
AcDbArc
 50
124.1046451433
 51
124.3628982438
  0
ARC
  5
35B
100
AcDbEntity
  8
DEFAULT_2
100
AcDbCircle
 62
8
  6
HIDDEN
 10
71.0863482867
 20
64.2780199854
 40
7.8562352237
100
AcDbArc
 50
124.1043456625
 51
124.3629585483
  0
ARC
  5
35C
100
AcDbEntity
  8
DEFAULT_2
100
AcDbCircle
 62
8
  6
HIDDEN
 10
80.0934761674
 20
34.8148894647
 40
2.2360679775
100
AcDbArc
 50
148.9090696423
 51
211.0909303577
  0
ARC
  5
35D
100
AcDbEntity
  8
A_RUNDUNGEN
100
AcDbCircle
 62
7
  6
CONTINUOUS
 10
71.1786219519
 20
48.8148894647
 40
1.0
100
AcDbArc
 50
30.1975753944
 51
90.0
  0
ARC
  5
35E
100
AcDbEntity
  8
A_RUNDUNGEN
100
AcDbCircle
 62
7
  6
CONTINUOUS
 10
74.4786219519
 20
43.6148894647
 40
0.3
100
AcDbArc
 50
180.0000000744
 51
270.0
  0
ARC
  5
35F
100
AcDbEntity
  8
A_RUNDUNGEN
100
AcDbCircle
 62
7
  6
CONTINUOUS
 10
74.4786219519
 20
30.1148894647
 40
0.3
100
AcDbArc
 50
180.0
 51
270.0
  0
ARC
  5
360
100
AcDbEntity
  8
A_RUNDUNGEN
100
AcDbCircle
 62
7
  6
CONTINUOUS
 10
74.4786219519
 20
39.5148894647
 40
0.3
100
AcDbArc
 50
90.0
 51
180.0
  0
ARC
  5
361
100
AcDbEntity
  8
A_RUNDUNGEN
100
AcDbCircle
 62
7
  6
CONTINUOUS
 10
73.8786219519
 20
38.1148894647
 40
0.3
100
AcDbArc
 50
270.0
 51
360.0
  0
ARC
  5
362
100
AcDbEntity
  8
A_RUNDUNGEN
100
AcDbCircle
 62
7
  6
CONTINUOUS
 10
73.8786219519
 20
31.5148894647
 40
0.3
100
AcDbArc
 50
0.0
 51
90.0
  0
ARC
  5
363
100
AcDbEntity
  8
DEFAULT_2
100
AcDbCircle
 62
8
  6
HIDDEN
 10
71.2669018828
 20
83.6153366629
 40
8.1757234668
100
AcDbArc
 50
234.7716222105
 51
235.6349056307
  0
ARC
  5
364
100
AcDbEntity
  8
DEFAULT_2
100
AcDbCircle
 62
8
  6
HIDDEN
 10
71.2669018825
 20
96.6153366625
 40
8.1757234663
100
AcDbArc
 50
234.7716222105
 51
235.6349056307
  0
ARC
  5
365
100
AcDbEntity
  8
DEFAULT_2
100
AcDbCircle
 62
8
  6
HIDDEN
 10
71.2665367505
 20
83.6147782878
 40
8.1750567312
100
AcDbArc
 50
234.7714555643
 51
235.4049320727
  0
ARC
  5
366
100
AcDbEntity
  8
DEFAULT_2
100
AcDbCircle
 62
8
  6
HIDDEN
 10
71.2574222207
 20
83.6016942109
 40
8.1591112842
100
AcDbArc
 50
234.7707310208
 51
235.6360159052
  0
ARC
  5
367
100
AcDbEntity
  8
DEFAULT_2
100
AcDbCircle
 62
8
  6
HIDDEN
 10
71.2574222202
 20
87.0280847192
 40
8.1591112833
100
AcDbArc
 50
124.3639840948
 51
125.2292689793
  0
ARC
  5
368
100
AcDbEntity
  8
DEFAULT_2
100
AcDbCircle
 62
8
  6
HIDDEN
 10
71.2574222201
 20
77.0280847193
 40
8.1591112831
100
AcDbArc
 50
124.3639840948
 51
125.2292689793
  0
ARC
  5
369
100
AcDbEntity
  8
DEFAULT_2
100
AcDbCircle
 62
8
  6
HIDDEN
 10
71.2468943342
 20
96.5892448214
 40
8.1428945363
100
AcDbArc
 50
233.537852312
 51
236.1438756337
  0
ARC
  5
36A
100
AcDbEntity
  8
DEFAULT_2
100
AcDbCircle
 62
8
  6
HIDDEN
 10
71.2468943342
 20
83.5892448215
 40
8.1428945364
100
AcDbArc
 50
233.537852312
 51
236.1438756337
  0
ARC
  5
36B
100
AcDbEntity
  8
DEFAULT_2
100
AcDbCircle
 62
8
  6
HIDDEN
 10
71.2240160343
 20
77.0737823074
 40
8.1025382292
100
AcDbArc
 50
123.8527573257
 51
124.100632599
  0
ARC
  5
36C
100
AcDbEntity
  8
DEFAULT_2
100
AcDbCircle
 62
8
  6
HIDDEN
 10
71.2240160332
 20
87.0737823089
 40
8.1025382273
100
AcDbArc
 50
123.8527573257
 51
124.100632598
  0
ARC
  5
36D
100
AcDbEntity
  8
DEFAULT_2
100
AcDbCircle
 62
8
  6
HIDDEN
 10
71.2240160293
 20
83.5559966146
 40
8.1025382203
100
AcDbArc
 50
235.8993673984
 51
236.1472426744
  0
ARC
  5
36E
100
AcDbEntity
  8
DEFAULT_2
100
AcDbCircle
 62
8
  6
HIDDEN
 10
71.2165089455
 20
83.5420566874
 40
8.0867889521
100
AcDbArc
 50
235.404172535
 51
235.6365589554
  0
ARC
  5
36F
100
AcDbEntity
  8
DEFAULT_2
100
AcDbCircle
 62
8
  6
HIDDEN
 10
71.1064451606
 20
83.3815919184
 40
7.8922058883
100
AcDbArc
 50
235.8965743176
 51
236.1489941583
  0
ARC
  5
370
100
AcDbEntity
  8
DEFAULT_2
100
AcDbCircle
 62
8
  6
HIDDEN
 10
71.1064451564
 20
96.3815919122
 40
7.8922058808
100
AcDbArc
 50
235.896574316
 51
236.1489941585
  0
ARC
  5
371
100
AcDbEntity
  8
DEFAULT_2
100
AcDbCircle
 62
8
  6
HIDDEN
 10
71.1017095697
 20
96.3742991245
 40
7.8835120698
100
AcDbArc
 50
235.6371017564
 51
235.8953548559
  0
ARC
  5
372
100
AcDbEntity
  8
DEFAULT_2
100
AcDbCircle
 62
8
  6
HIDDEN
 10
71.1017050553
 20
83.3742925018
 40
7.8835040548
100
AcDbArc
 50
235.6371020138
 51
235.8953797926
  0
ARC
  5
373
100
AcDbEntity
  8
DEFAULT_2
100
AcDbCircle
 62
8
  6
HIDDEN
 10
71.086348287
 20
83.3517589445
 40
7.8562352243
100
AcDbArc
 50
235.6370414517
 51
235.8956543353
  0
ARC
  5
374
100
AcDbEntity
  8
DEFAULT_2
100
AcDbCircle
 62
8
  6
HIDDEN
 10
71.0863482851
 20
77.2780199877
 40
7.8562352209
100
AcDbArc
 50
124.1043456621
 51
124.3629585483
  0
ARC
  5
375
100
AcDbEntity
  8
DEFAULT_2
100
AcDbCircle
 62
8
  6
HIDDEN
 10
71.0863482786
 20
87.2780199973
 40
7.8562352093
100
AcDbArc
 50
124.1043456608
 51
124.3629585485
  0
ARC
  5
376
100
AcDbEntity
  8
DEFAULT_2
100
AcDbCircle
 62
8
  6
HIDDEN
 10
71.2669018825
 20
116.6153366625
 40
8.1757234663
100
AcDbArc
 50
234.7716222105
 51
235.6349056307
  0
ARC
  5
377
100
AcDbEntity
  8
DEFAULT_2
100
AcDbCircle
 62
8
  6
HIDDEN
 10
71.2669016899
 20
106.6153363862
 40
8.1757231296
100
AcDbArc
 50
234.7716228514
 51
235.6349062385
  0
ARC
  5
378
100
AcDbEntity
  8
DEFAULT_2
100
AcDbCircle
 62
8
  6
HIDDEN
 10
71.2574221747
 20
97.0280847844
 40
8.1591112038
100
AcDbArc
 50
124.3639838128
 51
125.2292686849
  0
ARC
  5
379
100
AcDbEntity
  8
DEFAULT_2
100
AcDbCircle
 62
8
  6
HIDDEN
 10
71.2468943342
 20
116.5892448214
 40
8.1428945362
100
AcDbArc
 50
233.537852312
 51
236.1438756337
  0
ARC
  5
37A
100
AcDbEntity
  8
DEFAULT_2
100
AcDbCircle
 62
8
  6
HIDDEN
 10
71.2468943026
 20
106.5892447766
 40
8.1428944814
100
AcDbArc
 50
233.5378523033
 51
236.1438759323
  0
ARC
  5
37B
100
AcDbEntity
  8
DEFAULT_2
100
AcDbCircle
 62
8
  6
HIDDEN
 10
71.2240326226
 20
97.0737576305
 40
8.1025679634
100
AcDbArc
 50
123.8527574169
 51
124.1006144737
  0
ARC
  5
37C
100
AcDbEntity
  8
DEFAULT_2
100
AcDbCircle
 62
8
  6
HIDDEN
 10
71.106466668
 20
106.3816238556
 40
7.8922443922
100
AcDbArc
 50
235.8966192073
 51
236.1489938109
  0
ARC
  5
37D
100
AcDbEntity
  8
DEFAULT_2
100
AcDbCircle
 62
8
  6
HIDDEN
 10
71.1064451606
 20
116.3815919183
 40
7.8922058882
100
AcDbArc
 50
235.8965743166
 51
236.1489941583
  0
ARC
  5
37E
100
AcDbEntity
  8
DEFAULT_2
100
AcDbCircle
 62
8
  6
HIDDEN
 10
71.1017095668
 20
116.3742991201
 40
7.8835120645
100
AcDbArc
 50
235.6371017563
 51
235.8953548565
  0
ARC
  5
37F
100
AcDbEntity
  8
DEFAULT_2
100
AcDbCircle
 62
8
  6
HIDDEN
 10
71.1017023925
 20
106.3742886026
 40
7.8834993331
100
AcDbArc
 50
235.6371022613
 51
235.8953993972
  0
ARC
  5
380
100
AcDbEntity
  8
DEFAULT_2
100
AcDbCircle
 62
8
  6
HIDDEN
 10
71.0863444866
 20
97.2780255668
 40
7.8562284715
100
AcDbArc
 50
124.1043275666
 51
124.3629583584
  0
ARC
  5
381
100
AcDbEntity
  8
DEFAULT_2
100
AcDbCircle
 62
8
  6
HIDDEN
 10
71.4791116756
 20
83.9124535884
 40
8.5408415453
100
AcDbArc
 50
233.5735400812
 51
234.3910286217
  0
ARC
  5
382
100
AcDbEntity
  8
DEFAULT_2
100
AcDbCircle
 62
8
  6
HIDDEN
 10
71.4628390912
 20
83.8903043472
 40
8.5133573236
100
AcDbArc
 50
233.5731426144
 51
234.761920052
  0
ARC
  5
383
100
AcDbEntity
  8
DEFAULT_2
100
AcDbCircle
 62
8
  6
HIDDEN
 10
71.4289850191
 20
76.7863583709
 40
8.4555315032
100
AcDbArc
 50
125.2340215121
 51
126.4309223794
  0
ARC
  5
384
100
AcDbEntity
  8
DEFAULT_2
100
AcDbCircle
 62
8
  6
HIDDEN
 10
71.428985019
 20
86.786358371
 40
8.4555315031
100
AcDbArc
 50
125.2340215121
 51
126.4309223795
  0
ARC
  5
385
100
AcDbEntity
  8
DEFAULT_2
100
AcDbCircle
 62
8
  6
HIDDEN
 10
71.4289850189
 20
83.8434205582
 40
8.4555315029
100
AcDbArc
 50
233.5690776206
 51
234.7659784879
  0
ARC
  5
386
100
AcDbEntity
  8
DEFAULT_2
100
AcDbCircle
 62
8
  6
HIDDEN
 10
71.4289849546
 20
96.78635846
 40
8.4555313931
100
AcDbArc
 50
125.2340212156
 51
126.4309223861
  0
ARC
  5
387
100
AcDbEntity
  8
DEFAULT_2
100
AcDbCircle
 62
8
  6
HIDDEN
 10
71.349166783
 20
83.7309992337
 40
8.3176569627
100
AcDbArc
 50
234.3909914023
 51
234.7683133426
  0
ARC
  5
388
100
AcDbEntity
  8
DEFAULT_2
100
AcDbCircle
 62
8
  6
HIDDEN
 10
71.3325221637
 20
86.9189676833
 40
8.2915528789
100
AcDbArc
 50
123.8811872974
 51
126.4387931347
  0
ARC
  5
389
100
AcDbEntity
  8
DEFAULT_2
100
AcDbCircle
 62
8
  6
HIDDEN
 10
71.3325221636
 20
76.9189676834
 40
8.2915528789
100
AcDbArc
 50
123.8811872974
 51
126.4387931347
  0
ARC
  5
38A
100
AcDbEntity
  8
DEFAULT_2
100
AcDbCircle
 62
8
  6
HIDDEN
 10
71.4628390912
 20
116.8903043473
 40
8.5133573237
100
AcDbArc
 50
233.5731426144
 51
234.7619200519
  0
ARC
  5
38B
100
AcDbEntity
  8
DEFAULT_2
100
AcDbCircle
 62
8
  6
HIDDEN
 10
71.4628390908
 20
96.8903043468
 40
8.513357323
100
AcDbArc
 50
233.5731426144
 51
234.761920052
  0
ARC
  5
38C
100
AcDbEntity
  8
DEFAULT_2
100
AcDbCircle
 62
8
  6
HIDDEN
 10
71.4628385175
 20
106.8903035611
 40
8.5133563505
100
AcDbArc
 50
233.5731459989
 51
234.761920782
  0
ARC
  5
38D
100
AcDbEntity
  8
DEFAULT_2
100
AcDbCircle
 62
8
  6
HIDDEN
 10
71.3325210832
 20
96.9189692639
 40
8.2915509644
100
AcDbArc
 50
123.8811871217
 51
126.4387923472
  0
SPLINE
  5
38E
100
AcDbEntity
  8
DEFAULT_2
100
AcDbSpline
 62
8
  6
HIDDEN
 70
0
 71
3
 72
10
 73
6
 74
0
 42
0.0000001
 43
0.0000001
 44
0.0000000001
 40
0.0
 40
0.0
 40
0.0
 40
0.0
 40
0.1813876336
 40
0.5510784582
 40
1.0
 40
1.0
 40
1.0
 40
1.0
 10
53.7151796547
 20
36.5627638548
 30
0.0
 10
53.7127447139
 20
36.6221102337
 30
0.0
 10
53.7065036721
 20
36.8024580789
 30
0.0
 10
53.6979989519
 20
37.1298117311
 30
0.0
 10
53.6948466048
 20
37.3978580928
 30
0.0
 10
53.6932554787
 20
37.5448511403
 30
0.0
  0
SPLINE
  5
38F
100
AcDbEntity
  8
DEFAULT_2
100
AcDbSpline
 62
8
  6
HIDDEN
 70
0
 71
3
 72
11
 73
7
 74
0
 42
0.0000001
 43
0.0000001
 44
0.0000000001
 40
0.0
 40
0.0
 40
0.0
 40
0.0
 40
0.3961706041
 40
0.7178647349
 40
0.9273344815
 40
1.0
 40
1.0
 40
1.0
 40
1.0
 10
53.6917109698
 20
37.5452672539
 30
0.0
 10
53.6917109698
 20
37.3959916965
 30
0.0
 10
53.6874465266
 20
37.1255177376
 30
0.0
 10
53.688799932
 20
36.7760970094
 30
0.0
 10
53.6886219536
 20
36.5485770331
 30
0.0
 10
53.6886119446
 20
36.4422695866
 30
0.0
 10
53.6886219519
 20
36.4148894647
 30
0.0
  0
SPLINE
  5
390
100
AcDbEntity
  8
DEFAULT_2
100
AcDbSpline
 62
8
  6
HIDDEN
 70
0
 71
3
 72
13
 73
9
 74
0
 42
0.0000001
 43
0.0000001
 44
0.0000000001
 40
0.0
 40
0.0
 40
0.0
 40
0.0
 40
0.3445606686
 40
0.6192832964
 40
0.731924357
 40
0.8304894137
 40
0.9182564174
 40
1.0
 40
1.0
 40
1.0
 40
1.0
 10
52.5491628485
 20
36.6951408206
 30
0.0
 10
52.5686344687
 20
36.6539867948
 30
0.0
 10
52.6062268669
 20
36.581224853
 30
0.0
 10
52.6616231652
 20
36.501159184
 30
0.0
 10
52.7074391214
 20
36.4558903609
 30
0.0
 10
52.7397878877
 20
36.4328297177
 30
0.0
 10
52.7725664637
 20
36.4185951395
 30
0.0
 10
52.7950646976
 20
36.4152992454
 30
0.0
 10
52.8058657583
 20
36.4152952297
 30
0.0
  0
SPLINE
  5
391
100
AcDbEntity
  8
DEFAULT_2
100
AcDbSpline
 62
8
  6
HIDDEN
 70
0
 71
3
 72
11
 73
7
 74
0
 42
0.0000001
 43
0.0000001
 44
0.0000000001
 40
0.0
 40
0.0
 40
0.0
 40
0.0
 40
0.0802778338
 40
0.3057399309
 40
0.6332153745
 40
1.0
 40
1.0
 40
1.0
 40
1.0
 10
53.6886219519
 20
39.2148894647
 30
0.0
 10
53.6886074901
 20
39.1702113386
 30
0.0
 10
53.688621953
 20
39.000053851
 30
0.0
 10
53.6888582078
 20
38.6476425928
 30
0.0
 10
53.6872185227
 20
38.1357736235
 30
0.0
 10
53.6919737193
 20
37.7493986231
 30
0.0
 10
53.6917109698
 20
37.5452672539
 30
0.0
  0
SPLINE
  5
392
100
AcDbEntity
  8
DEFAULT_2
100
AcDbSpline
 62
8
  6
HIDDEN
 70
0
 71
3
 72
11
 73
7
 74
0
 42
0.0000001
 43
0.0000001
 44
0.0000000001
 40
0.0
 40
0.0
 40
0.0
 40
0.0
 40
0.301792134
 40
0.5749877603
 40
0.8100544641
 40
1.0
 40
1.0
 40
1.0
 40
1.0
 10
53.9969921338
 20
37.442249112
 30
0.0
 10
53.977764325
 20
37.3580975197
 30
0.0
 10
53.9396001099
 20
37.19811513
 30
0.0
 10
53.8796253763
 20
36.9742470039
 30
0.0
 10
53.8193604505
 20
36.7838119738
 30
0.0
 10
53.7735688491
 20
36.6708271809
 30
0.0
 10
53.7490011293
 20
36.6223699623
 30
0.0
  0
SPLINE
  5
393
100
AcDbEntity
  8
DEFAULT_2
100
AcDbSpline
 62
8
  6
HIDDEN
 70
0
 71
3
 72
13
 73
9
 74
0
 42
0.0000001
 43
0.0000001
 44
0.0000000001
 40
0.0
 40
0.0
 40
0.0
 40
0.0
 40
0.3434856208
 40
0.6188785592
 40
0.7321040915
 40
0.8308501384
 40
0.9184752898
 40
1.0
 40
1.0
 40
1.0
 40
1.0
 10
50.0485917396
 20
36.696252638
 30
0.0
 10
50.0680550609
 20
36.655156556
 30
0.0
 10
50.1058028682
 20
36.5823568585
 30
0.0
 10
50.1610671103
 20
36.5020057767
 30
0.0
 10
50.206691462
 20
36.4561087865
 30
0.0
 10
50.2390131451
 20
36.4327215487
 30
0.0
 10
50.2718099495
 20
36.4183881432
 30
0.0
 10
50.294308327
 20
36.4151093245
 30
0.0
 10
50.3051009096
 20
36.4151115025
 30
0.0
  0
SPLINE
  5
394
100
AcDbEntity
  8
DEFAULT_2
100
AcDbSpline
 62
8
  6
HIDDEN
 70
0
 71
3
 72
13
 73
9
 74
0
 42
0.0000001
 43
0.0000001
 44
0.0000000001
 40
0.0
 40
0.0
 40
0.0
 40
0.0
 40
0.3437661864
 40
0.6192196774
 40
0.7322477765
 40
0.8308423212
 40
0.9184524608
 40
1.0
 40
1.0
 40
1.0
 40
1.0
 10
47.5486331342
 20
36.6962460327
 30
0.0
 10
47.5681184622
 20
36.6550955965
 30
0.0
 10
47.6058812882
 20
36.5822165836
 30
0.0
 10
47.661131331
 20
36.5017606512
 30
0.0
 10
47.7068530754
 20
36.4559622125
 30
0.0
 10
47.7392224089
 20
36.4326959372
 30
0.0
 10
47.7720254382
 20
36.4183971857
 30
0.0
 10
47.7945338363
 20
36.41511261
 30
0.0
 10
47.805334518
 20
36.4151128856
 30
0.0
  0
SPLINE
  5
395
100
AcDbEntity
  8
DEFAULT_2
100
AcDbSpline
 62
8
  6
HIDDEN
 70
0
 71
3
 72
12
 73
8
 74
0
 42
0.0000001
 43
0.0000001
 44
0.0000000001
 40
0.0
 40
0.0
 40
0.0
 40
0.0
 40
0.079357418
 40
0.1744552898
 40
0.408199372
 40
0.6887927928
 40
1.0
 40
1.0
 40
1.0
 40
1.0
 10
53.3220327499
 20
35.6708132724
 30
0.0
 10
53.34008094
 20
35.7146342594
 30
0.0
 10
53.3749900319
 20
35.8129200134
 30
0.0
 10
53.4435673031
 20
36.0469148533
 30
0.0
 10
53.5250162021
 20
36.4018888311
 30
0.0
 10
53.6188127769
 20
36.8858941706
 30
0.0
 10
53.6797805356
 20
37.2340401952
 30
0.0
 10
53.711221998
 20
37.4172139057
 30
0.0
  0
SPLINE
  5
396
100
AcDbEntity
  8
DEFAULT_2
100
AcDbSpline
 62
8
  6
HIDDEN
 70
0
 71
3
 72
19
 73
15
 74
0
 42
0.0000001
 43
0.0000001
 44
0.0000000001
 40
0.0
 40
0.0
 40
0.0
 40
0.0
 40
0.0385476296
 40
0.085750011
 40
0.1409656036
 40
0.2032973991
 40
0.3441024675
 40
0.4972718265
 40
0.6508575157
 40
0.7927496962
 40
0.8559141874
 40
0.9121969071
 40
0.9604393654
 40
1.0
 40
1.0
 40
1.0
 40
1.0
 10
50.8218171415
 20
35.6699688677
 30
0.0
 10
50.8431972208
 20
35.7219143605
 30
0.0
 10
50.8840448944
 20
35.8401966763
 30
0.0
 10
50.939513697
 20
36.0380302426
 30
0.0
 10
50.995213403
 20
36.2716138415
 30
0.0
 10
51.0727652172
 20
36.6400465349
 30
0.0
 10
51.1663843128
 20
37.1508254046
 30
0.0
 10
51.2753256009
 20
37.7938608807
 30
0.0
 10
51.3842106667
 20
38.4385126912
 30
0.0
 10
51.4778065475
 20
38.9527512154
 30
0.0
 10
51.5553075881
 20
39.3256381557
 30
0.0
 10
51.6108924453
 20
39.5636448208
 30
0.0
 10
51.6663852433
 20
39.76619321
 30
0.0
 10
51.7072373227
 20
39.887616598
 30
0.0
 10
51.7285219949
 20
39.941192988
 30
0.0
  0
SPLINE
  5
397
100
AcDbEntity
  8
DEFAULT_2
100
AcDbSpline
 62
8
  6
HIDDEN
 70
0
 71
3
 72
18
 73
14
 74
0
 42
0.0000001
 43
0.0000001
 44
0.0000000001
 40
0.0
 40
0.0
 40
0.0
 40
0.0
 40
0.0385216522
 40
0.085724048
 40
0.1410127566
 40
0.2033773383
 40
0.3442410842
 40
0.497488143
 40
0.6510268452
 40
0.7929542355
 40
0.9121071389
 40
0.9603509467
 40
1.0
 40
1.0
 40
1.0
 40
1.0
 10
48.3219061957
 20
35.6703701774
 30
0.0
 10
48.3432946815
 20
35.7223000096
 30
0.0
 10
48.3841971692
 20
35.8405857904
 30
0.0
 10
48.4397216825
 20
36.0385784406
 30
0.0
 10
48.4953805797
 20
36.2724473337
 30
0.0
 10
48.5730235094
 20
36.6412870182
 30
0.0
 10
48.6667028018
 20
37.1525582351
 30
0.0
 10
48.7756576432
 20
37.796028769
 30
0.0
 10
48.8846616214
 20
38.4410999905
 30
0.0
 10
48.9930728918
 20
39.0357629772
 30
0.0
 10
49.087364933
 20
39.4770492186
 30
0.0
 10
49.1670892996
 20
39.7682521213
 30
0.0
 10
49.2078740123
 20
39.8899013319
 30
0.0
 10
49.2291955568
 20
39.9436311439
 30
0.0
  0
SPLINE
  5
398
100
AcDbEntity
  8
DEFAULT_2
100
AcDbSpline
 62
8
  6
HIDDEN
 70
0
 71
3
 72
15
 73
11
 74
0
 42
0.0000001
 43
0.0000001
 44
0.0000000001
 40
0.0
 40
0.0
 40
0.0
 40
0.0
 40
0.0970093955
 40
0.1962918123
 40
0.3080798836
 40
0.4355191597
 40
0.575355941
 40
0.7211374693
 40
0.8651002573
 40
1.0
 40
1.0
 40
1.0
 40
1.0
 10
35.3051075781
 20
37.3877978837
 30
0.0
 10
35.346819738
 20
37.3785505205
 30
0.0
 10
35.4356793484
 20
37.3743687561
 30
0.0
 10
35.5657425062
 20
37.4220738411
 30
0.0
 10
35.6853162941
 20
37.5133391859
 30
0.0
 10
35.7987782151
 20
37.6363614009
 30
0.0
 10
35.9085053225
 20
37.7816526278
 30
0.0
 10
36.0150606125
 20
37.9380099073
 30
0.0
 10
36.1189045414
 20
38.0935338535
 30
0.0
 10
36.1895834056
 20
38.1940470775
 30
0.0
 10
36.2254771854
 20
38.2413914804
 30
0.0
  0
SPLINE
  5
399
100
AcDbEntity
  8
DEFAULT_2
100
AcDbSpline
 62
8
  6
HIDDEN
 70
0
 71
3
 72
17
 73
13
 74
0
 42
0.0000001
 43
0.0000001
 44
0.0000000001
 40
0.0
 40
0.0
 40
0.0
 40
0.0
 40
0.0720008331
 40
0.1172281129
 40
0.169442928
 40
0.293614307
 40
0.4388594946
 40
0.5948182493
 40
0.7486526876
 40
0.8871780614
 40
0.9472048146
 40
1.0
 40
1.0
 40
1.0
 40
1.0
 10
37.2814319335
 20
38.6801216069
 30
0.0
 10
37.2413687377
 20
38.6712398102
 30
0.0
 10
37.1818985065
 20
38.6339850965
 30
0.0
 10
37.1142074809
 20
38.5655637331
 30
0.0
 10
37.0361636814
 20
38.4657425248
 30
0.0
 10
36.9413737628
 20
38.3084380608
 30
0.0
 10
36.8307332285
 20
38.0926860309
 30
0.0
 10
36.7180809929
 20
37.8590642348
 30
0.0
 10
36.6034013192
 20
37.6307744414
 30
0.0
 10
36.5022892093
 20
37.4567180074
 30
0.0
 10
36.4169326677
 20
37.3414898635
 30
0.0
 10
36.3729568105
 20
37.2942160199
 30
0.0
 10
36.35055463
 20
37.274127592
 30
0.0
  0
SPLINE
  5
39A
100
AcDbEntity
  8
DEFAULT_2
100
AcDbSpline
 62
8
  6
HIDDEN
 70
0
 71
3
 72
19
 73
15
 74
0
 42
0.0000001
 43
0.0000001
 44
0.0000000001
 40
0.0
 40
0.0
 40
0.0
 40
0.0
 40
0.0275537878
 40
0.0569145361
 40
0.0916749076
 40
0.1338633879
 40
0.1841260895
 40
0.2424819037
 40
0.3083615095
 40
0.3806512695
 40
0.5390806275
 40
0.7047721702
 40
0.8632028047
 40
1.0
 40
1.0
 40
1.0
 40
1.0
 10
37.8052318762
 20
36.833568756
 30
0.0
 10
37.8255155009
 20
36.8291076748
 30
0.0
 10
37.8697405698
 20
36.8278927207
 30
0.0
 10
37.9353456017
 20
36.8538639904
 30
0.0
 10
37.9981474867
 20
36.904904941
 30
0.0
 10
38.0597558735
 20
36.9788290332
 30
0.0
 10
38.1212585042
 20
37.074654064
 30
0.0
 10
38.1826745344
 20
37.1910799178
 30
0.0
 10
38.2440816852
 20
37.3259403548
 30
0.0
 10
38.328737233
 20
37.5328928047
 30
0.0
 10
38.4307403429
 20
37.8138031041
 30
0.0
 10
38.5500087925
 20
38.1574159132
 30
0.0
 10
38.6685699136
 20
38.4839220275
 30
0.0
 10
38.7552475127
 20
38.6892974017
 30
0.0
 10
38.8017973307
 20
38.7813012123
 30
0.0
  0
SPLINE
  5
39B
100
AcDbEntity
  8
DEFAULT_2
100
AcDbSpline
 62
8
  6
HIDDEN
 70
0
 71
3
 72
8
 73
4
 74
0
 42
0.0000001
 43
0.0000001
 44
0.0000000001
 40
0.0
 40
0.0
 40
0.0
 40
0.0
 40
1.0
 40
1.0
 40
1.0
 40
1.0
 10
39.728012599
 20
39.2148894647
 30
0.0
 10
39.716448503
 20
39.2148894647
 30
0.0
 10
39.704801503
 20
39.2133125614
 30
0.0
 10
39.693613857
 20
39.2103859775
 30
0.0
  0
SPLINE
  5
39C
100
AcDbEntity
  8
DEFAULT_2
100
AcDbSpline
 62
8
  6
HIDDEN
 70
0
 71
3
 72
11
 73
7
 74
0
 42
0.0000001
 43
0.0000001
 44
0.0000000001
 40
0.0
 40
0.0
 40
0.0
 40
0.0
 40
0.1742684977
 40
0.3863630766
 40
0.6594655454
 40
1.0
 40
1.0
 40
1.0
 40
1.0
 10
52.269632462
 20
39.22739329
 30
0.0
 10
52.2898627368
 20
39.2281045978
 30
0.0
 10
52.3354135103
 20
39.2163127125
 30
0.0
 10
52.3955849447
 20
39.1668529667
 30
0.0
 10
52.4537101597
 20
39.0900343315
 30
0.0
 10
52.4885666807
 20
39.0276683007
 30
0.0
 10
52.5065381775
 20
38.9924305154
 30
0.0
  0
SPLINE
  5
39D
100
AcDbEntity
  8
DEFAULT_2
100
AcDbSpline
 62
8
  6
HIDDEN
 70
0
 71
3
 72
9
 73
5
 74
0
 42
0.0000001
 43
0.0000001
 44
0.0000000001
 40
0.0
 40
0.0
 40
0.0
 40
0.0
 40
0.4558063186
 40
1.0
 40
1.0
 40
1.0
 40
1.0
 10
35.3051082383
 20
37.3877977373
 30
0.0
 10
35.2456647086
 20
37.4009760506
 30
0.0
 10
35.1225354207
 20
37.4598681297
 30
0.0
 10
35.0170607158
 20
37.541782877
 30
0.0
 10
34.9607122527
 20
37.5877090295
 30
0.0
  0
SPLINE
  5
39E
100
AcDbEntity
  8
DEFAULT_2
100
AcDbSpline
 62
8
  6
HIDDEN
 70
0
 71
3
 72
15
 73
11
 74
0
 42
0.0000001
 43
0.0000001
 44
0.0000000001
 40
0.0
 40
0.0
 40
0.0
 40
0.0
 40
0.2539839541
 40
0.3896149054
 40
0.5248920255
 40
0.6545946033
 40
0.775007067
 40
0.8320699137
 40
0.8879228206
 40
1.0
 40
1.0
 40
1.0
 40
1.0
 10
35.9799536954
 20
37.3068674743
 30
0.0
 10
35.8608308079
 20
37.3789750667
 30
0.0
 10
35.6916065418
 20
37.5113281694
 30
0.0
 10
35.4761629585
 20
37.7017627194
 30
0.0
 10
35.3085261581
 20
37.8438662714
 30
0.0
 10
35.1372324209
 20
37.9680574639
 30
0.0
 10
34.9869730086
 20
38.0467175862
 30
0.0
 10
34.8643743813
 20
38.0846475278
 30
0.0
 10
34.7421369411
 20
38.1036712068
 30
0.0
 10
34.6485640292
 20
38.0964288451
 30
0.0
 10
34.5885740484
 20
38.0831293865
 30
0.0
  0
SPLINE
  5
39F
100
AcDbEntity
  8
DEFAULT_2
100
AcDbSpline
 62
8
  6
HIDDEN
 70
0
 71
3
 72
18
 73
14
 74
0
 42
0.0000001
 43
0.0000001
 44
0.0000000001
 40
0.0
 40
0.0
 40
0.0
 40
0.0
 40
0.0270010345
 40
0.0613811425
 40
0.1039118462
 40
0.1546310472
 40
0.278073107
 40
0.4243699433
 40
0.5825414477
 40
0.7398224999
 40
0.8829555081
 40
0.9453605069
 40
1.0
 40
1.0
 40
1.0
 40
1.0
 10
39.693613857
 20
39.2103859775
 30
0.0
 10
39.6733996787
 20
39.2001530217
 30
0.0
 10
39.6325944795
 20
39.1671362006
 30
0.0
 10
39.5784101265
 20
39.0985181784
 30
0.0
 10
39.5236118844
 20
39.0062120766
 30
0.0
 10
39.4450336135
 20
38.8421007998
 30
0.0
 10
39.3501815958
 20
38.5901033979
 30
0.0
 10
39.239864344
 20
38.2484307361
 30
0.0
 10
39.127316875
 20
37.8776526368
 30
0.0
 10
39.0129758777
 20
37.5102645181
 30
0.0
 10
38.9129895103
 20
37.2224694297
 30
0.0
 10
38.8282080007
 20
37.0212074692
 30
0.0
 10
38.784312645
 20
36.9332003816
 30
0.0
 10
38.7617231681
 20
36.8933032594
 30
0.0
  0
SPLINE
  5
3A0
100
AcDbEntity
  8
DEFAULT_2
100
AcDbSpline
 62
8
  6
HIDDEN
 70
0
 71
3
 72
13
 73
9
 74
0
 42
0.0000001
 43
0.0000001
 44
0.0000000001
 40
0.0
 40
0.0
 40
0.0
 40
0.0
 40
0.0851264197
 40
0.175322029
 40
0.275436689
 40
0.3886851578
 40
0.6611364534
 40
1.0
 40
1.0
 40
1.0
 40
1.0
 10
49.7702048698
 20
39.2274751509
 30
0.0
 10
49.7801106231
 20
39.2278276605
 30
0.0
 10
49.8007106795
 20
39.225763636
 30
0.0
 10
49.8309799985
 20
39.2143144357
 30
0.0
 10
49.8608377272
 20
39.195017878
 30
0.0
 10
49.9029011251
 20
39.1569264629
 30
0.0
 10
49.954127672
 20
39.089154362
 30
0.0
 10
49.989031875
 20
39.0270151524
 30
0.0
 10
50.0069724783
 20
38.9918728615
 30
0.0
  0
SPLINE
  5
3A1
100
AcDbEntity
  8
DEFAULT_2
100
AcDbSpline
 62
8
  6
HIDDEN
 70
0
 71
3
 72
11
 73
7
 74
0
 42
0.0000001
 43
0.0000001
 44
0.0000000001
 40
0.0
 40
0.0
 40
0.0
 40
0.0
 40
0.1742665401
 40
0.3865244324
 40
0.6597048916
 40
1.0
 40
1.0
 40
1.0
 40
1.0
 10
47.2696946401
 20
39.2274198069
 30
0.0
 10
47.2899397712
 20
39.2281327983
 30
0.0
 10
47.3355487491
 20
39.2163085223
 30
0.0
 10
47.3957073994
 20
39.1666937496
 30
0.0
 10
47.4538593824
 20
39.0898207723
 30
0.0
 10
47.4887760811
 20
39.0274463657
 30
0.0
 10
47.506754592
 20
38.992210194
 30
0.0
  0
LINE
  5
3A2
100
AcDbEntity
  8
DEFAULT_2
100
AcDbLine
 62
8
  6
HIDDEN
 10
53.6947999877
 20
37.5447124358
 11
53.9969921338
 21
37.442249112
  0
SPLINE
  5
3A3
100
AcDbEntity
  8
DEFAULT_2
100
AcDbSpline
 62
8
  6
HIDDEN
 70
0
 71
3
 72
13
 73
9
 74
0
 42
0.0000001
 43
0.0000001
 44
0.0000000001
 40
0.0
 40
0.0
 40
0.0
 40
0.0
 40
0.3443642155
 40
0.618987916
 40
0.7317661418
 40
0.8304679409
 40
0.9182910247
 40
1.0
 40
1.0
 40
1.0
 40
1.0
 10
45.0492413994
 20
36.6950077186
 30
0.0
 10
45.0686915406
 20
36.6538905911
 30
0.0
 10
45.1062420281
 20
36.5811779676
 30
0.0
 10
45.1616400469
 20
36.5011957503
 30
0.0
 10
45.2073658816
 20
36.4558429658
 30
0.0
 10
45.2396678494
 20
36.432669834
 30
0.0
 10
45.2724064963
 20
36.4183214474
 30
0.0
 10
45.2949001176
 20
36.4149859411
 30
0.0
 10
45.3056926717
 20
36.4149832224
 30
0.0
  0
SPLINE
  5
3A4
100
AcDbEntity
  8
DEFAULT_2
100
AcDbSpline
 62
8
  6
HIDDEN
 70
0
 71
3
 72
13
 73
9
 74
0
 42
0.0000001
 43
0.0000001
 44
0.0000000001
 40
0.0
 40
0.0
 40
0.0
 40
0.0
 40
0.3431606639
 40
0.6183721437
 40
0.7317388917
 40
0.8307699323
 40
0.9185163395
 40
1.0
 40
1.0
 40
1.0
 40
1.0
 10
42.5486677453
 20
36.6960146305
 30
0.0
 10
42.5680624858
 20
36.6550512969
 30
0.0
 10
42.6057110733
 20
36.5824877308
 30
0.0
 10
42.6608558506
 20
36.5023966969
 30
0.0
 10
42.7063329098
 20
36.4565341137
 30
0.0
 10
42.73849902
 20
36.4329831286
 30
0.0
 10
42.7711900761
 20
36.4184705324
 30
0.0
 10
42.7936554077
 20
36.4151902537
 30
0.0
 10
42.8044173106
 20
36.4151978441
 30
0.0
  0
SPLINE
  5
3A5
100
AcDbEntity
  8
DEFAULT_2
100
AcDbSpline
 62
8
  6
HIDDEN
 70
0
 71
3
 72
13
 73
9
 74
0
 42
0.0000001
 43
0.0000001
 44
0.0000000001
 40
0.0
 40
0.0
 40
0.0
 40
0.0
 40
0.3435723401
 40
0.6184243108
 40
0.7316089706
 40
0.8305859526
 40
0.9184199597
 40
1.0
 40
1.0
 40
1.0
 40
1.0
 10
40.0490685719
 20
36.6951771454
 30
0.0
 10
40.0684447443
 20
36.6542118628
 30
0.0
 10
40.1060061368
 20
36.581712903
 30
0.0
 10
40.1612216909
 20
36.5018358453
 30
0.0
 10
40.2067160776
 20
36.4562195196
 30
0.0
 10
40.2388880532
 20
36.4328082787
 30
0.0
 10
40.271545208
 20
36.4183094233
 30
0.0
 10
40.2940036505
 20
36.4150155067
 30
0.0
 10
40.3047639063
 20
36.4150202811
 30
0.0
  0
SPLINE
  5
3A6
100
AcDbEntity
  8
DEFAULT_2
100
AcDbSpline
 62
8
  6
HIDDEN
 70
0
 71
3
 72
19
 73
15
 74
0
 42
0.0000001
 43
0.0000001
 44
0.0000000001
 40
0.0
 40
0.0
 40
0.0
 40
0.0
 40
0.0384806832
 40
0.0857402157
 40
0.141129154
 40
0.2035043293
 40
0.3442890998
 40
0.4974929433
 40
0.6509929059
 40
0.7928215346
 40
0.8559834455
 40
0.9122486304
 40
0.9604576525
 40
1.0
 40
1.0
 40
1.0
 40
1.0
 10
45.8224384251
 20
35.6719394291
 30
0.0
 10
45.8437996918
 20
35.7237548358
 30
0.0
 10
45.8847219814
 20
35.8419273282
 30
0.0
 10
45.9401018216
 20
36.039924864
 30
0.0
 10
45.9956206119
 20
36.2738279511
 30
0.0
 10
46.0731889015
 20
36.6423427388
 30
0.0
 10
46.1667860051
 20
37.1529307158
 30
0.0
 10
46.2755584617
 20
37.7955362701
 30
0.0
 10
46.3844301793
 20
38.4396676327
 30
0.0
 10
46.4779722409
 20
38.9534073243
 30
0.0
 10
46.5553862966
 20
39.3259803871
 30
0.0
 10
46.6109248153
 20
39.5637844161
 30
0.0
 10
46.666397124
 20
39.7661180677
 30
0.0
 10
46.7072171431
 20
39.8874000532
 30
0.0
 10
46.7284818293
 20
39.9409226597
 30
0.0
  0
SPLINE
  5
3A7
100
AcDbEntity
  8
DEFAULT_2
100
AcDbSpline
 62
8
  6
HIDDEN
 70
0
 71
3
 72
19
 73
15
 74
0
 42
0.0000001
 43
0.0000001
 44
0.0000000001
 40
0.0
 40
0.0
 40
0.0
 40
0.0
 40
0.0385904906
 40
0.0859677692
 40
0.1412956194
 40
0.2036472726
 40
0.3444860846
 40
0.4975427334
 40
0.6510308573
 40
0.7927572185
 40
0.8558239377
 40
0.9120914119
 40
0.9604132267
 40
1.0
 40
1.0
 40
1.0
 40
1.0
 10
43.3226049729
 20
35.6714693391
 30
0.0
 10
43.3440421082
 20
35.7234456062
 30
0.0
 10
43.3848340784
 20
35.84206363
 30
0.0
 10
43.4401443284
 20
36.0403889179
 30
0.0
 10
43.4958058938
 20
36.2743866305
 30
0.0
 10
43.5733527863
 20
36.6429829159
 30
0.0
 10
43.666805864
 20
37.1535896664
 30
0.0
 10
43.7757500676
 20
37.7962187338
 30
0.0
 10
43.8844889994
 20
38.4401949995
 30
0.0
 10
43.9780124363
 20
38.9537966292
 30
0.0
 10
44.0555058307
 20
39.3261858128
 30
0.0
 10
44.1110785339
 20
39.5640881851
 30
0.0
 10
44.1664271101
 20
39.766763399
 30
0.0
 10
44.2072569444
 20
39.8883294273
 30
0.0
 10
44.2285413416
 20
39.9419333684
 30
0.0
  0
SPLINE
  5
3A8
100
AcDbEntity
  8
DEFAULT_2
100
AcDbSpline
 62
8
  6
HIDDEN
 70
0
 71
3
 72
19
 73
15
 74
0
 42
0.0000001
 43
0.0000001
 44
0.0000000001
 40
0.0
 40
0.0
 40
0.0
 40
0.0
 40
0.0385813187
 40
0.0858833988
 40
0.1411598024
 40
0.2035111794
 40
0.3443210849
 40
0.497448095
 40
0.6509741543
 40
0.7927348348
 40
0.8558466778
 40
0.9121145887
 40
0.960397842
 40
1.0
 40
1.0
 40
1.0
 40
1.0
 10
40.8221163371
 20
35.6702416363
 30
0.0
 10
40.8435346121
 20
35.7222403173
 30
0.0
 10
40.8843662059
 20
35.8407732777
 30
0.0
 10
40.9397733161
 20
36.0389705936
 30
0.0
 10
40.9954848762
 20
36.2728850255
 30
0.0
 10
41.0730445843
 20
36.641542915
 30
0.0
 10
41.1666486767
 20
37.1524351419
 30
0.0
 10
41.2756056374
 20
37.7954963644
 30
0.0
 10
41.384448213
 20
38.4399829892
 30
0.0
 10
41.4780812755
 20
38.9539921006
 30
0.0
 10
41.5555896993
 20
39.3266823518
 30
0.0
 10
41.611190882
 20
39.5647104068
 30
0.0
 10
41.6666623672
 20
39.7674209771
 30
0.0
 10
41.7074823391
 20
39.889018262
 30
0.0
 10
41.7287826355
 20
39.9426697134
 30
0.0
  0
SPLINE
  5
3A9
100
AcDbEntity
  8
DEFAULT_2
100
AcDbSpline
 62
8
  6
HIDDEN
 70
0
 71
3
 72
11
 73
7
 74
0
 42
0.0000001
 43
0.0000001
 44
0.0000000001
 40
0.0
 40
0.0
 40
0.0
 40
0.0
 40
0.1743425669
 40
0.3862808328
 40
0.6592684644
 40
1.0
 40
1.0
 40
1.0
 40
1.0
 10
44.7695907774
 20
39.2271244381
 30
0.0
 10
44.7898156844
 20
39.2278349985
 30
0.0
 10
44.8353323794
 20
39.2161509513
 30
0.0
 10
44.8955671222
 20
39.1668731658
 30
0.0
 10
44.9537063881
 20
39.0901493727
 30
0.0
 10
44.9885394594
 20
39.0278153096
 30
0.0
 10
45.0065066108
 20
38.9925803126
 30
0.0
  0
SPLINE
  5
3AA
100
AcDbEntity
  8
DEFAULT_2
100
AcDbSpline
 62
8
  6
HIDDEN
 70
0
 71
3
 72
11
 73
7
 74
0
 42
0.0000001
 43
0.0000001
 44
0.0000000001
 40
0.0
 40
0.0
 40
0.0
 40
0.0
 40
0.174192568
 40
0.3868527755
 40
0.6600989124
 40
1.0
 40
1.0
 40
1.0
 40
1.0
 10
42.2701531696
 20
39.227262876
 30
0.0
 10
42.2903559279
 20
39.2279810398
 30
0.0
 10
42.3359694779
 20
39.216230377
 30
0.0
 10
42.3958334582
 20
39.1663458308
 30
0.0
 10
42.4539152798
 20
39.0896667557
 30
0.0
 10
42.4887961001
 20
39.0274361547
 30
0.0
 10
42.506735581
 20
38.9923050187
 30
0.0
  0
SPLINE
  5
3AB
100
AcDbEntity
  8
DEFAULT_2
100
AcDbSpline
 62
8
  6
HIDDEN
 70
0
 71
3
 72
11
 73
7
 74
0
 42
0.0000001
 43
0.0000001
 44
0.0000000001
 40
0.0
 40
0.0
 40
0.0
 40
0.0
 40
0.3285476945
 40
0.6027820662
 40
0.82322717
 40
1.0
 40
1.0
 40
1.0
 40
1.0
 10
38.8017973307
 20
38.7813012123
 30
0.0
 10
38.8213902527
 20
38.8200258212
 30
0.0
 10
38.8595029548
 20
38.8900465831
 30
0.0
 10
38.9217473748
 20
38.9796396162
 30
0.0
 10
38.9844284992
 20
39.0431907432
 30
0.0
 10
39.0324293504
 20
39.0683095675
 30
0.0
 10
39.0552257648
 20
39.0733664722
 30
0.0
  0
SPLINE
  5
3AC
100
AcDbEntity
  8
DEFAULT_2
100
AcDbSpline
 62
8
  6
HIDDEN
 70
0
 71
3
 72
11
 73
7
 74
0
 42
0.0000001
 43
0.0000001
 44
0.0000000001
 40
0.0
 40
0.0
 40
0.0
 40
0.0
 40
0.3165144482
 40
0.5880508757
 40
0.8134216451
 40
1.0
 40
1.0
 40
1.0
 40
1.0
 10
37.5144813573
 20
37.132110992
 30
0.0
 10
37.5372392354
 20
37.0933442994
 30
0.0
 10
37.581653914
 20
37.0224982
 30
0.0
 10
37.6532030297
 20
36.9313661432
 30
0.0
 10
37.7252661029
 20
36.865446041
 30
0.0
 10
37.7793515722
 20
36.8392607434
 30
0.0
 10
37.8052318761
 20
36.833568756
 30
0.0
  0
SPLINE
  5
3AD
100
AcDbEntity
  8
DEFAULT_2
100
AcDbSpline
 62
8
  6
HIDDEN
 70
0
 71
3
 72
10
 73
6
 74
0
 42
0.0000001
 43
0.0000001
 44
0.0000000001
 40
0.0
 40
0.0
 40
0.0
 40
0.0
 40
0.3073948254
 40
0.5767894739
 40
1.0
 40
1.0
 40
1.0
 40
1.0
 10
36.2254771854
 20
38.2413914804
 30
0.0
 10
36.2525457588
 20
38.2770953113
 30
0.0
 10
36.3053647049
 20
38.3429114286
 30
0.0
 10
36.4063407001
 20
38.4469190581
 30
0.0
 10
36.4950054624
 20
38.5057750557
 30
0.0
 10
36.5552289751
 20
38.519126287
 30
0.0
  0
SPLINE
  5
3AE
100
AcDbEntity
  8
DEFAULT_2
100
AcDbSpline
 62
8
  6
HIDDEN
 70
0
 71
3
 72
12
 73
8
 74
0
 42
0.0000001
 43
0.0000001
 44
0.0000000001
 40
0.0
 40
0.0
 40
0.0
 40
0.0
 40
0.3381812068
 40
0.6116721058
 40
0.7254980252
 40
0.826168892
 40
1.0
 40
1.0
 40
1.0
 40
1.0
 10
40.0049519412
 20
38.9337774944
 30
0.0
 10
39.9839030182
 20
38.9750432461
 30
0.0
 10
39.9429930456
 20
39.0482735292
 30
0.0
 10
39.8832799504
 20
39.1285150002
 30
0.0
 10
39.833872636
 20
39.1739395791
 30
0.0
 10
39.7896411331
 20
39.2035888938
 30
0.0
 10
39.7518239882
 20
39.2148894647
 30
0.0
 10
39.728012599
 20
39.2148894647
 30
0.0
  0
SPLINE
  5
3AF
100
AcDbEntity
  8
DEFAULT_2
100
AcDbSpline
 62
8
  6
HIDDEN
 70
0
 71
3
 72
12
 73
8
 74
0
 42
0.0000001
 43
0.0000001
 44
0.0000000001
 40
0.0
 40
0.0
 40
0.0
 40
0.0
 40
0.3328939364
 40
0.599451958
 40
0.8110345085
 40
0.9056856975
 40
1.0
 40
1.0
 40
1.0
 40
1.0
 10
38.7617231681
 20
36.8933032594
 30
0.0
 10
38.7417831448
 20
36.8580855539
 30
0.0
 10
38.7028729791
 20
36.7961647624
 30
0.0
 10
38.6370013964
 20
36.7220173875
 30
0.0
 10
38.5757602025
 20
36.6847381077
 30
0.0
 10
38.5272400086
 20
36.676334086
 30
0.0
 10
38.5040721559
 20
36.6786125206
 30
0.0
 10
38.4928826039
 20
36.6811154105
 30
0.0
  0
SPLINE
  5
3B0
100
AcDbEntity
  8
DEFAULT_2
100
AcDbSpline
 62
8
  6
HIDDEN
 70
0
 71
3
 72
18
 73
14
 74
0
 42
0.0000001
 43
0.0000001
 44
0.0000000001
 40
0.0
 40
0.0
 40
0.0
 40
0.0
 40
0.0400825083
 40
0.0879430502
 40
0.1430616894
 40
0.2045240905
 40
0.342402559
 40
0.4922227972
 40
0.6434090986
 40
0.7850497861
 40
0.90676094
 40
0.9574257118
 40
1.0
 40
1.0
 40
1.0
 40
1.0
 10
38.378310602
 20
36.0998048149
 30
0.0
 10
38.3983622592
 20
36.1463493919
 30
0.0
 10
38.4371939465
 20
36.2506828567
 30
0.0
 10
38.4904259121
 20
36.4236070554
 30
0.0
 10
38.5437154064
 20
36.6246242658
 30
0.0
 10
38.6178842199
 20
36.937718736
 30
0.0
 10
38.7075071556
 20
37.3700681024
 30
0.0
 10
38.8118962904
 20
37.9150743171
 30
0.0
 10
38.9161584747
 20
38.4649708169
 30
0.0
 10
39.0199192408
 20
38.9787268944
 30
0.0
 10
39.1099479503
 20
39.3656334614
 30
0.0
 10
39.1852019733
 20
39.6268427811
 30
0.0
 10
39.2238078732
 20
39.7383615596
 30
0.0
 10
39.243816708
 20
39.7883353858
 30
0.0
  0
SPLINE
  5
3B1
100
AcDbEntity
  8
DEFAULT_2
100
AcDbSpline
 62
8
  6
HIDDEN
 70
0
 71
3
 72
11
 73
7
 74
0
 42
0.0000001
 43
0.0000001
 44
0.0000000001
 40
0.0
 40
0.0
 40
0.0
 40
0.0
 40
0.3140921977
 40
0.5751262112
 40
0.7951171051
 40
1.0
 40
1.0
 40
1.0
 40
1.0
 10
37.5541422209
 20
38.5136215346
 30
0.0
 10
37.5337693163
 20
38.5425394938
 30
0.0
 10
37.4936143846
 20
38.5936830367
 30
0.0
 10
37.425617353
 20
38.6531612417
 30
0.0
 10
37.3535791296
 20
38.6854125602
 30
0.0
 10
37.3039593513
 20
38.6851158152
 30
0.0
 10
37.2814319335
 20
38.6801216069
 30
0.0
  0
SPLINE
  5
3B2
100
AcDbEntity
  8
DEFAULT_2
100
AcDbSpline
 62
8
  6
HIDDEN
 70
0
 71
3
 72
11
 73
7
 74
0
 42
0.0000001
 43
0.0000001
 44
0.0000000001
 40
0.0
 40
0.0
 40
0.0
 40
0.0
 40
0.2854737591
 40
0.5375965028
 40
0.7697883818
 40
1.0
 40
1.0
 40
1.0
 40
1.0
 10
34.7834420949
 20
38.2620243975
 30
0.0
 10
34.8067514727
 20
38.2816068447
 30
0.0
 10
34.8532620092
 20
38.3156730574
 30
0.0
 10
34.9287788292
 20
38.3498361128
 30
0.0
 10
35.0050877531
 20
38.3616614672
 30
0.0
 10
35.0546758304
 20
38.3546519208
 30
0.0
 10
35.0783311701
 20
38.3480842673
 30
0.0
  0
SPLINE
  5
3B3
100
AcDbEntity
  8
DEFAULT_2
100
AcDbSpline
 62
8
  6
HIDDEN
 70
0
 71
3
 72
10
 73
6
 74
0
 42
0.0000001
 43
0.0000001
 44
0.0000000001
 40
0.0
 40
0.0
 40
0.0
 40
0.0
 40
0.5343616399
 40
0.7687345425
 40
1.0
 40
1.0
 40
1.0
 40
1.0
 10
36.35055463
 20
37.274127592
 30
0.0
 10
36.3201322673
 20
37.2468473262
 30
0.0
 10
36.2700086782
 20
37.2120047418
 30
0.0
 10
36.1943583693
 20
37.1957602281
 30
0.0
 10
36.1582786436
 20
37.1986544122
 30
0.0
 10
36.141013089
 20
37.2024820934
 30
0.0
  0
SPLINE
  5
3B4
100
AcDbEntity
  8
DEFAULT_2
100
AcDbSpline
 62
8
  6
HIDDEN
 70
0
 71
3
 72
15
 73
11
 74
0
 42
0.0000001
 43
0.0000001
 44
0.0000000001
 40
0.0
 40
0.0
 40
0.0
 40
0.0
 40
0.0951503558
 40
0.211871243
 40
0.3445191401
 40
0.4863994838
 40
0.6303749602
 40
0.7687400795
 40
0.8941086034
 40
1.0
 40
1.0
 40
1.0
 40
1.0
 10
35.941049266
 20
36.6587067855
 30
0.0
 10
35.9773744293
 20
36.7331706012
 30
0.0
 10
36.0449922823
 20
36.9052907806
 30
0.0
 10
36.1361463441
 20
37.1911001948
 30
0.0
 10
36.2275747331
 20
37.5193540615
 30
0.0
 10
36.3191966844
 20
37.8720520882
 30
0.0
 10
36.4104970171
 20
38.2299751187
 30
0.0
 10
36.501425685
 20
38.5731744667
 30
0.0
 10
36.5918279361
 20
38.8820751261
 30
0.0
 10
36.6576926055
 20
39.0726251017
 30
0.0
 10
36.6926011704
 20
39.1579656646
 30
0.0
  0
SPLINE
  5
3B5
100
AcDbEntity
  8
DEFAULT_2
100
AcDbSpline
 62
8
  6
HIDDEN
 70
0
 71
3
 72
9
 73
5
 74
0
 42
0.0000001
 43
0.0000001
 44
0.0000000001
 40
0.0
 40
0.0
 40
0.0
 40
0.0
 40
0.2402297078
 40
1.0
 40
1.0
 40
1.0
 40
1.0
 10
34.4362358919
 20
38.0329162299
 30
0.0
 10
34.4110939769
 20
38.0221787154
 30
0.0
 10
34.3080407753
 20
37.97366145
 30
0.0
 10
34.2104551884
 20
37.9147785879
 30
0.0
 10
34.1352096221
 20
37.8721861048
 30
0.0
  0
SPLINE
  5
3B6
100
AcDbEntity
  8
DEFAULT_2
100
AcDbSpline
 62
8
  6
HIDDEN
 70
0
 71
3
 72
17
 73
13
 74
0
 42
0.0000001
 43
0.0000001
 44
0.0000000001
 40
0.0
 40
0.0
 40
0.0
 40
0.0
 40
0.0616409424
 40
0.0911346644
 40
0.1247400701
 40
0.1652809364
 40
0.2141636867
 40
0.3362375254
 40
0.4845525578
 40
0.6494472601
 40
0.8232193025
 40
1.0
 40
1.0
 40
1.0
 40
1.0
 10
65.5482246143
 20
83.0538903636
 30
0.0
 10
65.533105766
 20
83.0538990184
 30
0.0
 10
65.5090134265
 20
83.0590525406
 30
0.0
 10
65.4884017441
 20
83.0828619539
 30
0.0
 10
65.4799469638
 20
83.1072910368
 30
0.0
 10
65.4776537645
 20
83.1375961628
 30
0.0
 10
65.4831741279
 20
83.1893691505
 30
0.0
 10
65.5061704945
 20
83.2647873168
 30
0.0
 10
65.5503952937
 20
83.3620919872
 30
0.0
 10
65.6097451409
 20
83.4659268392
 30
0.0
 10
65.680276984
 20
83.5709450496
 30
0.0
 10
65.7325640027
 20
83.6392759694
 30
0.0
 10
65.759877427
 20
83.6729512401
 30
0.0
  0
SPLINE
  5
3B7
100
AcDbEntity
  8
DEFAULT_2
100
AcDbSpline
 62
8
  6
HIDDEN
 70
0
 71
3
 72
17
 73
13
 74
0
 42
0.0000001
 43
0.0000001
 44
0.0000000001
 40
0.0
 40
0.0
 40
0.0
 40
0.0
 40
0.0616409424
 40
0.0911346644
 40
0.1247400701
 40
0.1652809364
 40
0.2141636867
 40
0.3362375254
 40
0.4845525578
 40
0.6494472601
 40
0.8232193025
 40
1.0
 40
1.0
 40
1.0
 40
1.0
 10
65.5482246143
 20
93.0538903636
 30
0.0
 10
65.533105766
 20
93.0538990184
 30
0.0
 10
65.5090134265
 20
93.0590525406
 30
0.0
 10
65.4884017441
 20
93.0828619539
 30
0.0
 10
65.4799469638
 20
93.1072910368
 30
0.0
 10
65.4776537645
 20
93.1375961628
 30
0.0
 10
65.4831741279
 20
93.1893691505
 30
0.0
 10
65.5061704945
 20
93.2647873168
 30
0.0
 10
65.5503952937
 20
93.3620919872
 30
0.0
 10
65.6097451409
 20
93.4659268392
 30
0.0
 10
65.680276984
 20
93.5709450496
 30
0.0
 10
65.7325640027
 20
93.6392759694
 30
0.0
 10
65.759877427
 20
93.6729512401
 30
0.0
  0
SPLINE
  5
3B8
100
AcDbEntity
  8
DEFAULT_2
100
AcDbSpline
 62
8
  6
HIDDEN
 70
0
 71
3
 72
17
 73
13
 74
0
 42
0.0000001
 43
0.0000001
 44
0.0000000001
 40
0.0
 40
0.0
 40
0.0
 40
0.0
 40
0.0616409424
 40
0.0911346644
 40
0.1247400701
 40
0.1652809364
 40
0.2141636867
 40
0.3362375254
 40
0.4845525578
 40
0.6494472601
 40
0.8232193025
 40
1.0
 40
1.0
 40
1.0
 40
1.0
 10
65.5482246143
 20
103.0538903636
 30
0.0
 10
65.533105766
 20
103.0538990184
 30
0.0
 10
65.5090134265
 20
103.0590525406
 30
0.0
 10
65.4884017441
 20
103.0828619539
 30
0.0
 10
65.4799469638
 20
103.1072910368
 30
0.0
 10
65.4776537645
 20
103.1375961628
 30
0.0
 10
65.4831741279
 20
103.1893691505
 30
0.0
 10
65.5061704945
 20
103.2647873168
 30
0.0
 10
65.5503952937
 20
103.3620919872
 30
0.0
 10
65.6097451409
 20
103.4659268392
 30
0.0
 10
65.680276984
 20
103.5709450496
 30
0.0
 10
65.7325640027
 20
103.6392759694
 30
0.0
 10
65.759877427
 20
103.6729512401
 30
0.0
  0
SPLINE
  5
3B9
100
AcDbEntity
  8
DEFAULT_2
100
AcDbSpline
 62
8
  6
HIDDEN
 70
0
 71
3
 72
17
 73
13
 74
0
 42
0.0000001
 43
0.0000001
 44
0.0000000001
 40
0.0
 40
0.0
 40
0.0
 40
0.0
 40
0.0616409424
 40
0.0911346644
 40
0.1247400701
 40
0.1652809364
 40
0.2141636867
 40
0.3362375254
 40
0.4845525578
 40
0.6494472601
 40
0.8232193025
 40
1.0
 40
1.0
 40
1.0
 40
1.0
 10
65.5482246143
 20
70.0538903636
 30
0.0
 10
65.533105766
 20
70.0538990184
 30
0.0
 10
65.5090134265
 20
70.0590525406
 30
0.0
 10
65.4884017441
 20
70.0828619539
 30
0.0
 10
65.4799469638
 20
70.1072910368
 30
0.0
 10
65.4776537645
 20
70.1375961628
 30
0.0
 10
65.4831741279
 20
70.1893691505
 30
0.0
 10
65.5061704945
 20
70.2647873168
 30
0.0
 10
65.5503952937
 20
70.3620919872
 30
0.0
 10
65.6097451409
 20
70.4659268392
 30
0.0
 10
65.680276984
 20
70.5709450496
 30
0.0
 10
65.7325640027
 20
70.6392759694
 30
0.0
 10
65.759877427
 20
70.6729512401
 30
0.0
  0
SPLINE
  5
3BA
100
AcDbEntity
  8
DEFAULT_2
100
AcDbSpline
 62
8
  6
HIDDEN
 70
0
 71
3
 72
9
 73
5
 74
0
 42
0.0000001
 43
0.0000001
 44
0.0000000001
 40
0.0
 40
0.0
 40
0.0
 40
0.0
 40
0.24561054
 40
1.0
 40
1.0
 40
1.0
 40
1.0
 10
66.407640585
 20
72.8870904641
 30
0.0
 10
66.3556788686
 20
72.9214373762
 30
0.0
 10
66.1426718239
 20
73.0590950809
 30
0.0
 10
65.9251888388
 20
73.1897095177
 30
0.0
 10
65.7598773722
 20
73.2860090976
 30
0.0
  0
SPLINE
  5
3BB
100
AcDbEntity
  8
DEFAULT_2
100
AcDbSpline
 62
8
  6
HIDDEN
 70
0
 71
3
 72
17
 73
13
 74
0
 42
0.0000001
 43
0.0000001
 44
0.0000000001
 40
0.0
 40
0.0
 40
0.0
 40
0.0
 40
0.1767879383
 40
0.3506281175
 40
0.5156099211
 40
0.6639287242
 40
0.7859487171
 40
0.8348441701
 40
0.8753602593
 40
0.9088979212
 40
0.9383917425
 40
1.0
 40
1.0
 40
1.0
 40
1.0
 10
65.759877427
 20
109.9568276892
 30
0.0
 10
65.7325625237
 20
109.9905047834
 30
0.0
 10
65.6802624806
 20
110.0588507661
 30
0.0
 10
65.6097141915
 20
110.1639072232
 30
0.0
 10
65.55033808
 20
110.267775722
 30
0.0
 10
65.5061379189
 20
110.3651003739
 30
0.0
 10
65.4831589441
 20
110.4405230799
 30
0.0
 10
65.4776675436
 20
110.492273139
 30
0.0
 10
65.4799147864
 20
110.5225759597
 30
0.0
 10
65.4884684377
 20
110.5469363541
 30
0.0
 10
65.5089998416
 20
110.5707795968
 30
0.0
 10
65.5331189278
 20
110.5758664991
 30
0.0
 10
65.5482299556
 20
110.575879447
 30
0.0
  0
SPLINE
  5
3BC
100
AcDbEntity
  8
DEFAULT_2
100
AcDbSpline
 62
8
  6
HIDDEN
 70
0
 71
3
 72
9
 73
5
 74
0
 42
0.0000001
 43
0.0000001
 44
0.0000000001
 40
0.0
 40
0.0
 40
0.0
 40
0.0
 40
0.2456105473
 40
1.0
 40
1.0
 40
1.0
 40
1.0
 10
66.407640585
 20
105.8870904641
 30
0.0
 10
66.3556788707
 20
105.9214373748
 30
0.0
 10
66.142671837
 20
106.0590950629
 30
0.0
 10
65.9251888825
 20
106.1897095151
 30
0.0
 10
65.75987743
 20
106.2860090882
 30
0.0
  0
SPLINE
  5
3BD
100
AcDbEntity
  8
DEFAULT_2
100
AcDbSpline
 62
8
  6
HIDDEN
 70
0
 71
3
 72
15
 73
11
 74
0
 42
0.0000001
 43
0.0000001
 44
0.0000000001
 40
0.0
 40
0.0
 40
0.0
 40
0.0
 40
0.108252355
 40
0.2268784026
 40
0.3584563097
 40
0.5001420893
 40
0.6417730821
 40
0.7732658424
 40
0.8917830483
 40
1.0
 40
1.0
 40
1.0
 40
1.0
 10
65.759877427
 20
96.2860090649
 30
0.0
 10
65.720895797
 20
96.3087171975
 30
0.0
 10
65.6452264405
 20
96.3675002306
 30
0.0
 10
65.5545190607
 20
96.4883120821
 30
0.0
 10
65.4930537579
 20
96.6416393653
 30
0.0
 10
65.4711320311
 20
96.8150472238
 30
0.0
 10
65.493116993
 20
96.9884125105
 30
0.0
 10
65.5546178973
 20
97.1416109135
 30
0.0
 10
65.6452858053
 20
97.2623256996
 30
0.0
 10
65.7209085458
 20
97.3210691585
 30
0.0
 10
65.759877427
 20
97.3437698644
 30
0.0
  0
SPLINE
  5
3BE
100
AcDbEntity
  8
DEFAULT_2
100
AcDbSpline
 62
8
  6
HIDDEN
 70
0
 71
3
 72
15
 73
11
 74
0
 42
0.0000001
 43
0.0000001
 44
0.0000000001
 40
0.0
 40
0.0
 40
0.0
 40
0.0
 40
0.1455692687
 40
0.2897329047
 40
0.4293659988
 40
0.5606622884
 40
0.6812067172
 40
0.7923844079
 40
0.8977216636
 40
1.0
 40
1.0
 40
1.0
 40
1.0
 10
66.4076406264
 20
99.1125256469
 30
0.0
 10
66.4515374808
 20
99.0511139423
 30
0.0
 10
66.5343469526
 20
98.9254917524
 30
0.0
 10
66.6375607644
 20
98.7276251189
 30
0.0
 10
66.7092457038
 20
98.5235810792
 30
0.0
 10
66.7372333531
 20
98.3206267982
 30
0.0
 10
66.7131831803
 20
98.1313419967
 30
0.0
 10
66.6415578109
 20
97.9693426047
 30
0.0
 10
66.5366587249
 20
97.839575844
 30
0.0
 10
66.4518862289
 20
97.7719350211
 30
0.0
 10
66.407640585
 20
97.7426884653
 30
0.0
  0
SPLINE
  5
3BF
100
AcDbEntity
  8
DEFAULT_2
100
AcDbSpline
 62
8
  6
HIDDEN
 70
0
 71
3
 72
17
 73
13
 74
0
 42
0.0000001
 43
0.0000001
 44
0.0000000001
 40
0.0
 40
0.0
 40
0.0
 40
0.0
 40
0.1767879383
 40
0.3506281175
 40
0.5156099211
 40
0.6639287242
 40
0.7859487171
 40
0.8348441701
 40
0.8753602593
 40
0.9088979212
 40
0.9383917425
 40
1.0
 40
1.0
 40
1.0
 40
1.0
 10
65.759877427
 20
99.9568276892
 30
0.0
 10
65.7325625237
 20
99.9905047834
 30
0.0
 10
65.6802624806
 20
100.0588507661
 30
0.0
 10
65.6097141915
 20
100.1639072232
 30
0.0
 10
65.55033808
 20
100.267775722
 30
0.0
 10
65.5061379189
 20
100.3651003739
 30
0.0
 10
65.4831589441
 20
100.4405230799
 30
0.0
 10
65.4776675436
 20
100.492273139
 30
0.0
 10
65.4799147864
 20
100.5225759597
 30
0.0
 10
65.4884684377
 20
100.5469363541
 30
0.0
 10
65.5089998416
 20
100.5707795968
 30
0.0
 10
65.5331189278
 20
100.5758664991
 30
0.0
 10
65.5482299556
 20
100.575879447
 30
0.0
  0
SPLINE
  5
3C0
100
AcDbEntity
  8
DEFAULT_2
100
AcDbSpline
 62
8
  6
HIDDEN
 70
0
 71
3
 72
9
 73
5
 74
0
 42
0.0000001
 43
0.0000001
 44
0.0000000001
 40
0.0
 40
0.0
 40
0.0
 40
0.0
 40
0.2539309255
 40
1.0
 40
1.0
 40
1.0
 40
1.0
 10
65.759877427
 20
74.3437698644
 30
0.0
 10
65.8155210152
 20
74.3761841575
 30
0.0
 10
66.0340241223
 20
74.504886814
 30
0.0
 10
66.249804048
 20
74.6383578502
 30
0.0
 10
66.4076406396
 20
74.7426885
 30
0.0
  0
SPLINE
  5
3C1
100
AcDbEntity
  8
DEFAULT_2
100
AcDbSpline
 62
8
  6
HIDDEN
 70
0
 71
3
 72
8
 73
4
 74
0
 42
0.0000001
 43
0.0000001
 44
0.0000000001
 40
0.0
 40
0.0
 40
0.0
 40
0.0
 40
1.0
 40
1.0
 40
1.0
 40
1.0
 10
65.759877427
 20
93.6729512401
 30
0.0
 10
65.9833265764
 20
93.9484461956
 30
0.0
 10
66.2013656413
 20
94.2286745608
 30
0.0
 10
66.407640585
 20
94.5172532165
 30
0.0
  0
SPLINE
  5
3C2
100
AcDbEntity
  8
DEFAULT_2
100
AcDbSpline
 62
8
  6
HIDDEN
 70
0
 71
3
 72
9
 73
5
 74
0
 42
0.0000001
 43
0.0000001
 44
0.0000000001
 40
0.0
 40
0.0
 40
0.0
 40
0.0
 40
0.2456105399
 40
1.0
 40
1.0
 40
1.0
 40
1.0
 10
66.407640585
 20
95.8870904641
 30
0.0
 10
66.355678873
 20
95.9214373733
 30
0.0
 10
66.1426718467
 20
96.0590950674
 30
0.0
 10
65.9251888785
 20
96.189709491
 30
0.0
 10
65.759877427
 20
96.2860090649
 30
0.0
  0
SPLINE
  5
3C3
100
AcDbEntity
  8
DEFAULT_2
100
AcDbSpline
 62
8
  6
HIDDEN
 70
0
 71
3
 72
9
 73
5
 74
0
 42
0.0000001
 43
0.0000001
 44
0.0000000001
 40
0.0
 40
0.0
 40
0.0
 40
0.0
 40
0.2539309255
 40
1.0
 40
1.0
 40
1.0
 40
1.0
 10
65.759877427
 20
97.3437698644
 30
0.0
 10
65.8155210105
 20
97.3761841548
 30
0.0
 10
66.0340240994
 20
97.5048867998
 30
0.0
 10
66.2498040059
 20
97.6383578258
 30
0.0
 10
66.407640585
 20
97.7426884653
 30
0.0
  0
SPLINE
  5
3C4
100
AcDbEntity
  8
DEFAULT_2
100
AcDbSpline
 62
8
  6
HIDDEN
 70
0
 71
3
 72
17
 73
13
 74
0
 42
0.0000001
 43
0.0000001
 44
0.0000000001
 40
0.0
 40
0.0
 40
0.0
 40
0.0
 40
0.1767879383
 40
0.3506281175
 40
0.5156099211
 40
0.6639287242
 40
0.7859487171
 40
0.8348441701
 40
0.8753602593
 40
0.9088979212
 40
0.9383917425
 40
1.0
 40
1.0
 40
1.0
 40
1.0
 10
65.759877427
 20
76.9568276892
 30
0.0
 10
65.7325625237
 20
76.9905047834
 30
0.0
 10
65.6802624806
 20
77.0588507661
 30
0.0
 10
65.6097141915
 20
77.1639072232
 30
0.0
 10
65.55033808
 20
77.267775722
 30
0.0
 10
65.5061379189
 20
77.3651003739
 30
0.0
 10
65.4831589441
 20
77.4405230799
 30
0.0
 10
65.4776675436
 20
77.492273139
 30
0.0
 10
65.4799147864
 20
77.5225759597
 30
0.0
 10
65.4884684377
 20
77.5469363541
 30
0.0
 10
65.5089998416
 20
77.5707795968
 30
0.0
 10
65.5331189278
 20
77.5758664991
 30
0.0
 10
65.5482299556
 20
77.575879447
 30
0.0
  0
SPLINE
  5
3C5
100
AcDbEntity
  8
DEFAULT_2
100
AcDbSpline
 62
8
  6
HIDDEN
 70
0
 71
3
 72
8
 73
4
 74
0
 42
0.0000001
 43
0.0000001
 44
0.0000000001
 40
0.0
 40
0.0
 40
0.0
 40
0.0
 40
1.0
 40
1.0
 40
1.0
 40
1.0
 10
66.4076406304
 20
99.1125256469
 30
0.0
 10
66.2013656725
 20
99.4011043252
 30
0.0
 10
65.9833265932
 20
99.681332713
 30
0.0
 10
65.759877427
 20
99.9568276892
 30
0.0
  0
SPLINE
  5
3C6
100
AcDbEntity
  8
DEFAULT_2
100
AcDbSpline
 62
8
  6
HIDDEN
 70
0
 71
3
 72
15
 73
11
 74
0
 42
0.0000001
 43
0.0000001
 44
0.0000000001
 40
0.0
 40
0.0
 40
0.0
 40
0.0
 40
0.1455692679
 40
0.2897329038
 40
0.4293659982
 40
0.5606622888
 40
0.6812067183
 40
0.7923844091
 40
0.8977216643
 40
1.0
 40
1.0
 40
1.0
 40
1.0
 10
66.407640585
 20
89.1125257129
 30
0.0
 10
66.4515374429
 20
89.0511140067
 30
0.0
 10
66.5343469187
 20
88.9254918109
 30
0.0
 10
66.6375607408
 20
88.727625171
 30
0.0
 10
66.7092456935
 20
88.5235811238
 30
0.0
 10
66.7372333533
 20
88.3206268328
 30
0.0
 10
66.7131831877
 20
88.1313420197
 30
0.0
 10
66.6415578194
 20
87.9693426171
 30
0.0
 10
66.5366587304
 20
87.8395758487
 30
0.0
 10
66.4518862309
 20
87.7719350224
 30
0.0
 10
66.407640585
 20
87.7426884653
 30
0.0
  0
SPLINE
  5
3C7
100
AcDbEntity
  8
DEFAULT_2
100
AcDbSpline
 62
8
  6
HIDDEN
 70
0
 71
3
 72
17
 73
13
 74
0
 42
0.0000001
 43
0.0000001
 44
0.0000000001
 40
0.0
 40
0.0
 40
0.0
 40
0.0
 40
0.1767879383
 40
0.3506281175
 40
0.5156099211
 40
0.6639287242
 40
0.7859487171
 40
0.8348441701
 40
0.8753602593
 40
0.9088979212
 40
0.9383917425
 40
1.0
 40
1.0
 40
1.0
 40
1.0
 10
65.759877427
 20
89.9568276892
 30
0.0
 10
65.7325625237
 20
89.9905047834
 30
0.0
 10
65.6802624806
 20
90.0588507661
 30
0.0
 10
65.6097141915
 20
90.1639072232
 30
0.0
 10
65.55033808
 20
90.267775722
 30
0.0
 10
65.5061379189
 20
90.3651003739
 30
0.0
 10
65.4831589441
 20
90.4405230799
 30
0.0
 10
65.4776675436
 20
90.492273139
 30
0.0
 10
65.4799147864
 20
90.5225759597
 30
0.0
 10
65.4884684377
 20
90.5469363541
 30
0.0
 10
65.5089998416
 20
90.5707795968
 30
0.0
 10
65.5331189278
 20
90.5758664991
 30
0.0
 10
65.5482299556
 20
90.575879447
 30
0.0
  0
SPLINE
  5
3C8
100
AcDbEntity
  8
DEFAULT_2
100
AcDbSpline
 62
8
  6
HIDDEN
 70
0
 71
3
 72
9
 73
5
 74
0
 42
0.0000001
 43
0.0000001
 44
0.0000000001
 40
0.0
 40
0.0
 40
0.0
 40
0.0
 40
0.2539309255
 40
1.0
 40
1.0
 40
1.0
 40
1.0
 10
65.759877427
 20
87.3437698644
 30
0.0
 10
65.8155210105
 20
87.3761841548
 30
0.0
 10
66.0340240994
 20
87.5048867998
 30
0.0
 10
66.2498040059
 20
87.6383578258
 30
0.0
 10
66.407640585
 20
87.7426884653
 30
0.0
  0
SPLINE
  5
3C9
100
AcDbEntity
  8
DEFAULT_2
100
AcDbSpline
 62
8
  6
HIDDEN
 70
0
 71
3
 72
18
 73
14
 74
0
 42
0.0000001
 43
0.0000001
 44
0.0000000001
 40
0.0
 40
0.0
 40
0.0
 40
0.0
 40
0.1815441283
 40
0.323374815
 40
0.3804655335
 40
0.4294066539
 40
0.509197513
 40
0.5466424691
 40
0.5869972438
 40
0.6333213452
 40
0.687676118
 40
0.8241274082
 40
1.0
 40
1.0
 40
1.0
 40
1.0
 10
52.9783398568
 20
35.6880790002
 30
0.0
 10
52.9912130509
 20
35.6556743062
 30
0.0
 10
53.0161591884
 20
35.5987286154
 30
0.0
 10
53.0532691099
 20
35.5353468533
 30
0.0
 10
53.0841330726
 20
35.4988504689
 30
0.0
 10
53.1108748189
 20
35.4752528595
 30
0.0
 10
53.1418401526
 20
35.4615882794
 30
0.0
 10
53.1725271421
 20
35.4646680334
 30
0.0
 10
53.1946764531
 20
35.4742622442
 30
0.0
 10
53.2163651097
 20
35.4908126651
 30
0.0
 10
53.2472535717
 20
35.5244985464
 30
0.0
 10
53.2843559046
 20
35.5849208176
 30
0.0
 10
53.3091688909
 20
35.6395798358
 30
0.0
 10
53.3220327499
 20
35.6708132724
 30
0.0
  0
SPLINE
  5
3CA
100
AcDbEntity
  8
DEFAULT_2
100
AcDbSpline
 62
8
  6
HIDDEN
 70
0
 71
3
 72
18
 73
14
 74
0
 42
0.0000001
 43
0.0000001
 44
0.0000000001
 40
0.0
 40
0.0
 40
0.0
 40
0.0
 40
0.1819926322
 40
0.3247869038
 40
0.3822082927
 40
0.4312457305
 40
0.5107066573
 40
0.5481809323
 40
0.5887143293
 40
0.6351515209
 40
0.6893476467
 40
0.8248767818
 40
1.0
 40
1.0
 40
1.0
 40
1.0
 10
51.7285219949
 20
39.941192988
 30
0.0
 10
51.7414329309
 20
39.9736915549
 30
0.0
 10
51.7664282157
 20
40.0309310427
 30
0.0
 10
51.8033946321
 20
40.0948121462
 30
0.0
 10
51.8342227078
 20
40.1317132529
 30
0.0
 10
51.8608616141
 20
40.155489716
 30
0.0
 10
51.89203174
 20
40.1689012182
 30
0.0
 10
51.9226446272
 20
40.1652167522
 30
0.0
 10
51.9447121045
 20
40.1553105115
 30
0.0
 10
51.9663536501
 20
40.1386622096
 30
0.0
 10
51.9972261676
 20
40.1052000036
 30
0.0
 10
52.0344440458
 20
40.0452264107
 30
0.0
 10
52.059209091
 20
39.9908583057
 30
0.0
 10
52.0720250323
 20
39.9597451453
 30
0.0
  0
SPLINE
  5
3CB
100
AcDbEntity
  8
DEFAULT_2
100
AcDbSpline
 62
8
  6
HIDDEN
 70
0
 71
3
 72
18
 73
14
 74
0
 42
0.0000001
 43
0.0000001
 44
0.0000000001
 40
0.0
 40
0.0
 40
0.0
 40
0.0
 40
0.18223235
 40
0.3244644318
 40
0.3813983301
 40
0.4300739734
 40
0.5095231784
 40
0.5470431369
 40
0.5875341498
 40
0.6338783205
 40
0.6880329974
 40
0.8240556544
 40
1.0
 40
1.0
 40
1.0
 40
1.0
 10
50.4789629822
 20
35.6868368473
 30
0.0
 10
50.4918338054
 20
35.6544084915
 30
0.0
 10
50.516691479
 20
35.597425706
 30
0.0
 10
50.5536015669
 20
35.5339643052
 30
0.0
 10
50.5844678832
 20
35.4976673499
 30
0.0
 10
50.6111842743
 20
35.4744076861
 30
0.0
 10
50.6421896623
 20
35.4613172958
 30
0.0
 10
50.6726903827
 20
35.4648100777
 30
0.0
 10
50.6947357582
 20
35.4745173809
 30
0.0
 10
50.7163601351
 20
35.4909774845
 30
0.0
 10
50.7472471783
 20
35.5243069152
 30
0.0
 10
50.784314442
 20
35.5843850076
 30
0.0
 10
50.8089961955
 20
35.6388188261
 30
0.0
 10
50.8218171415
 20
35.6699688677
 30
0.0
  0
SPLINE
  5
3CC
100
AcDbEntity
  8
DEFAULT_2
100
AcDbSpline
 62
8
  6
HIDDEN
 70
0
 71
3
 72
18
 73
14
 74
0
 42
0.0000001
 43
0.0000001
 44
0.0000000001
 40
0.0
 40
0.0
 40
0.0
 40
0.0
 40
0.1819945304
 40
0.3236787692
 40
0.3805015191
 40
0.4291488808
 40
0.5086087885
 40
0.5461229834
 40
0.5866358126
 40
0.6330875998
 40
0.687490998
 40
0.8240344604
 40
1.0
 40
1.0
 40
1.0
 40
1.0
 10
49.2291955568
 20
39.9436311439
 30
0.0
 10
49.2420474984
 20
39.9760177474
 30
0.0
 10
49.2668408354
 20
40.0328729301
 30
0.0
 10
49.3038610225
 20
40.0960695854
 30
0.0
 10
49.3347003327
 20
40.1322130522
 30
0.0
 10
49.3614106074
 20
40.1554355282
 30
0.0
 10
49.3923907931
 20
40.1685642519
 30
0.0
 10
49.4229035005
 20
40.1650832374
 30
0.0
 10
49.4449574464
 20
40.1553256573
 30
0.0
 10
49.466585172
 20
40.1387448494
 30
0.0
 10
49.4974177739
 20
40.1051365279
 30
0.0
 10
49.5344154594
 20
40.0448590639
 30
0.0
 10
49.5591693193
 20
39.9903454906
 30
0.0
 10
49.5720008437
 20
39.9591956686
 30
0.0
  0
SPLINE
  5
3CD
100
AcDbEntity
  8
DEFAULT_2
100
AcDbSpline
 62
8
  6
HIDDEN
 70
0
 71
3
 72
18
 73
14
 74
0
 42
0.0000001
 43
0.0000001
 44
0.0000000001
 40
0.0
 40
0.0
 40
0.0
 40
0.0
 40
0.1820544062
 40
0.3238657418
 40
0.3807286055
 40
0.4294058504
 40
0.5089000888
 40
0.5464091724
 40
0.5868931961
 40
0.6332865999
 40
0.6876010078
 40
0.8240350153
 40
1.0
 40
1.0
 40
1.0
 40
1.0
 10
47.979059032
 20
35.6864512452
 30
0.0
 10
47.9919175172
 20
35.6540515291
 30
0.0
 10
48.0167243244
 20
35.5971586475
 30
0.0
 10
48.0537295377
 20
35.5338957121
 30
0.0
 10
48.0845756918
 20
35.4977026444
 30
0.0
 10
48.1112881398
 20
35.4744475207
 30
0.0
 10
48.1422639696
 20
35.4612815011
 30
0.0
 10
48.1727841018
 20
35.4647116841
 30
0.0
 10
48.1948414668
 20
35.4744227685
 30
0.0
 10
48.2164731795
 20
35.4909464639
 30
0.0
 10
48.2473331678
 20
35.5244699066
 30
0.0
 10
48.2843302837
 20
35.5847183658
 30
0.0
 10
48.3090750611
 20
35.6392170293
 30
0.0
 10
48.3219061957
 20
35.6703701774
 30
0.0
  0
SPLINE
  5
3CE
100
AcDbEntity
  8
DEFAULT_2
100
AcDbSpline
 62
8
  6
HIDDEN
 70
0
 71
3
 72
21
 73
17
 74
0
 42
0.0000001
 43
0.0000001
 44
0.0000000001
 40
0.0
 40
0.0
 40
0.0
 40
0.0
 40
0.0538690181
 40
0.1162978695
 40
0.2619383054
 40
0.4238807052
 40
0.5873843894
 40
0.6649207536
 40
0.7371645231
 40
0.802626167
 40
0.8599985443
 40
0.9081481743
 40
0.9466709505
 40
0.962558171
 40
0.9764681304
 40
1.0
 40
1.0
 40
1.0
 40
1.0
 10
52.5065381775
 20
38.9924305154
 30
0.0
 10
52.5295952543
 20
38.9472211304
 30
0.0
 10
52.5745032361
 20
38.8471407827
 30
0.0
 10
52.6620805123
 20
38.6163597242
 30
0.0
 10
52.766296745
 20
38.2834957171
 30
0.0
 10
52.8873782636
 20
37.8565673892
 30
0.0
 10
52.9897746297
 20
37.490968145
 30
0.0
 10
53.0746229889
 20
37.2082728556
 30
0.0
 10
53.1371321314
 20
37.0153427766
 30
0.0
 10
53.1994862812
 20
36.8424221247
 30
0.0
 10
53.261513168
 20
36.6936308574
 30
0.0
 10
53.3233944754
 20
36.5726981276
 30
0.0
 10
53.3781150142
 20
36.4924035306
 30
0.0
 10
53.4232982489
 20
36.4462128319
 30
0.0
 10
53.4633235901
 20
36.4158387365
 30
0.0
 10
53.4982570282
 20
36.4031001766
 30
0.0
 10
53.5204120694
 20
36.402308568
 30
0.0
  0
SPLINE
  5
3CF
100
AcDbEntity
  8
DEFAULT_2
100
AcDbSpline
 62
8
  6
HIDDEN
 70
0
 71
3
 72
22
 73
18
 74
0
 42
0.0000001
 43
0.0000001
 44
0.0000000001
 40
0.0
 40
0.0
 40
0.0
 40
0.0
 40
0.0538411941
 40
0.1163561501
 40
0.2618218832
 40
0.4237221789
 40
0.5870466845
 40
0.6644855763
 40
0.7367786937
 40
0.8022608164
 40
0.8594656956
 40
0.907611314
 40
0.9463792145
 40
0.9623647973
 40
0.9763076104
 40
0.9886276385
 40
1.0
 40
1.0
 40
1.0
 40
1.0
 10
51.2569346437
 20
36.6379981451
 30
0.0
 10
51.2799989168
 20
36.683157919
 30
0.0
 10
51.3248846877
 20
36.7832791437
 30
0.0
 10
51.4121142156
 20
37.0139946668
 30
0.0
 10
51.51652383
 20
37.3465540207
 30
0.0
 10
51.6372499543
 20
37.7730681921
 30
0.0
 10
51.7395871105
 20
38.1382569951
 30
0.0
 10
51.8244304076
 20
38.4206405838
 30
0.0
 10
51.8867987515
 20
38.6135250858
 30
0.0
 10
51.9489482799
 20
38.7863666126
 30
0.0
 10
52.0111127959
 20
38.934908348
 30
0.0
 10
52.0730612403
 20
39.0558049801
 30
0.0
 10
52.1275524179
 20
39.1366207885
 30
0.0
 10
52.1725108449
 20
39.1833940846
 30
0.0
 10
52.2043380859
 20
39.207635207
 30
0.0
 10
52.2366469704
 20
39.2229525269
 30
0.0
 10
52.2589283751
 20
39.2270169283
 30
0.0
 10
52.269632462
 20
39.22739329
 30
0.0
  0
SPLINE
  5
3D0
100
AcDbEntity
  8
DEFAULT_2
100
AcDbSpline
 62
8
  6
HIDDEN
 70
0
 71
3
 72
21
 73
17
 74
0
 42
0.0000001
 43
0.0000001
 44
0.0000000001
 40
0.0
 40
0.0
 40
0.0
 40
0.0
 40
0.0539494941
 40
0.116532305
 40
0.2620367827
 40
0.4240235215
 40
0.5874357255
 40
0.6649015066
 40
0.7371881608
 40
0.8026230761
 40
0.859865504
 40
0.9080699115
 40
0.9467453066
 40
0.9626272513
 40
0.9765035439
 40
1.0
 40
1.0
 40
1.0
 40
1.0
 10
50.0069724783
 20
38.9918728615
 30
0.0
 10
50.0300759136
 20
38.9466175467
 30
0.0
 10
50.0749072643
 20
38.8462863333
 30
0.0
 10
50.1622028956
 20
38.615380462
 30
0.0
 10
50.2667173953
 20
38.2826542309
 30
0.0
 10
50.3874768132
 20
37.8559334112
 30
0.0
 10
50.489858299
 20
37.4905530275
 30
0.0
 10
50.5747429666
 20
37.2080703678
 30
0.0
 10
50.6371229034
 20
37.0152112438
 30
0.0
 10
50.6993839879
 20
36.8424225878
 30
0.0
 10
50.7615535365
 20
36.6938333608
 30
0.0
 10
50.8234306933
 20
36.5728928117
 30
0.0
 10
50.8778524124
 20
36.4921809498
 30
0.0
 10
50.9230925819
 20
36.4459101723
 30
0.0
 10
50.9631541907
 20
36.4156906787
 30
0.0
 10
50.9980637244
 20
36.4032025176
 30
0.0
 10
51.0201795284
 20
36.4024158381
 30
0.0
  0
SPLINE
  5
3D1
100
AcDbEntity
  8
DEFAULT_2
100
AcDbSpline
 62
8
  6
HIDDEN
 70
0
 71
3
 72
21
 73
17
 74
0
 42
0.0000001
 43
0.0000001
 44
0.0000000001
 40
0.0
 40
0.0
 40
0.0
 40
0.0
 40
0.0539205606
 40
0.1164823775
 40
0.262066084
 40
0.4240622872
 40
0.5874440649
 40
0.664945713
 40
0.7372023837
 40
0.8025633488
 40
0.8598479795
 40
0.9080966553
 40
0.9467257113
 40
0.9626048187
 40
0.9764923468
 40
1.0
 40
1.0
 40
1.0
 40
1.0
 10
48.7570460895
 20
36.6381054609
 30
0.0
 10
48.780140171
 20
36.6833315903
 30
0.0
 10
48.824987881
 20
36.7835961419
 30
0.0
 10
48.9123191273
 20
37.0145046878
 30
0.0
 10
49.0167321268
 20
37.347309215
 30
0.0
 10
49.1375115308
 20
37.7740527101
 30
0.0
 10
49.2399541254
 20
38.1394070064
 30
0.0
 10
49.324760891
 20
38.4218704191
 30
0.0
 10
49.387132275
 20
38.61465365
 30
0.0
 10
49.4494919188
 20
38.7873342167
 30
0.0
 10
49.51161171
 20
38.9359383232
 30
0.0
 10
49.5733746305
 20
39.05698165
 30
0.0
 10
49.6279122443
 20
39.1376046488
 30
0.0
 10
49.6731405851
 20
39.18382784
 30
0.0
 10
49.7131723834
 20
39.21409774
 30
0.0
 10
49.7480798441
 20
39.226687802
 30
0.0
 10
49.7702048698
 20
39.2274751509
 30
0.0
  0
SPLINE
  5
3D2
100
AcDbEntity
  8
DEFAULT_2
100
AcDbSpline
 62
8
  6
HIDDEN
 70
0
 71
3
 72
21
 73
17
 74
0
 42
0.0000001
 43
0.0000001
 44
0.0000000001
 40
0.0
 40
0.0
 40
0.0
 40
0.0
 40
0.0538816889
 40
0.1164097729
 40
0.2619581849
 40
0.4239526074
 40
0.5873721811
 40
0.6648675902
 40
0.7371654108
 40
0.8025788401
 40
0.859858938
 40
0.9080927096
 40
0.9467271436
 40
0.9626058811
 40
0.9764919644
 40
1.0
 40
1.0
 40
1.0
 40
1.0
 10
47.506754592
 20
38.992210194
 30
0.0
 10
47.5298226022
 20
38.9469990876
 30
0.0
 10
47.5747423875
 20
38.8468176735
 30
0.0
 10
47.6620799838
 20
38.6159564416
 30
0.0
 10
47.7665389591
 20
38.2831569901
 30
0.0
 10
47.8873641809
 20
37.8563212031
 30
0.0
 10
47.9897914047
 20
37.4908449639
 30
0.0
 10
48.0746742794
 20
37.2082637945
 30
0.0
 10
48.137053553
 20
37.0153496669
 30
0.0
 10
48.1993899342
 20
36.8425275197
 30
0.0
 10
48.2615512078
 20
36.6938653035
 30
0.0
 10
48.323363433
 20
36.5728301118
 30
0.0
 10
48.3778941584
 20
36.492187372
 30
0.0
 10
48.4231404403
 20
36.4459561002
 30
0.0
 10
48.4631898129
 20
36.4156910018
 30
0.0
 10
48.4981069805
 20
36.4031142926
 30
0.0
 10
48.5202373045
 20
36.4023261551
 30
0.0
  0
SPLINE
  5
3D3
100
AcDbEntity
  8
DEFAULT_2
100
AcDbSpline
 62
8
  6
HIDDEN
 70
0
 71
3
 72
17
 73
13
 74
0
 42
0.0000001
 43
0.0000001
 44
0.0000000001
 40
0.0
 40
0.0
 40
0.0
 40
0.0
 40
0.026125684
 40
0.0546908078
 40
0.0876223506
 40
0.1259980327
 40
0.2205653605
 40
0.3391993761
 40
0.480456506
 40
0.6408759446
 40
0.8157073868
 40
1.0
 40
1.0
 40
1.0
 40
1.0
 10
52.8058657583
 20
36.4152952297
 30
0.0
 10
52.8179445035
 20
36.4152907389
 30
0.0
 10
52.8433727147
 20
36.4194699288
 30
0.0
 10
52.8800718151
 20
36.4376445245
 30
0.0
 10
52.9160099409
 20
36.4670795565
 30
0.0
 10
52.9670453317
 20
36.5246061486
 30
0.0
 10
53.0285114801
 20
36.624114694
 30
0.0
 10
53.0983646398
 20
36.7724674604
 30
0.0
 10
53.1682922761
 20
36.9539222057
 30
0.0
 10
53.2384500948
 20
37.1627852656
 30
0.0
 10
53.3088847675
 20
37.3924487485
 30
0.0
 10
53.3551465017
 20
37.5519105048
 30
0.0
 10
53.3786219519
 20
37.6338171339
 30
0.0
  0
SPLINE
  5
3D4
100
AcDbEntity
  8
DEFAULT_2
100
AcDbSpline
 62
8
  6
HIDDEN
 70
0
 71
3
 72
21
 73
17
 74
0
 42
0.0000001
 43
0.0000001
 44
0.0000000001
 40
0.0
 40
0.0
 40
0.0
 40
0.0
 40
0.0233847134
 40
0.0370267489
 40
0.052547965
 40
0.0901534957
 40
0.1371628389
 40
0.1931255041
 40
0.2571251747
 40
0.3280684513
 40
0.4044973364
 40
0.5667023471
 40
0.7293277878
 40
0.8780630284
 40
0.9430034862
 40
1.0
 40
1.0
 40
1.0
 40
1.0
 10
51.5550970003
 20
39.2148990486
 30
0.0
 10
51.5765777362
 20
39.2148946599
 30
0.0
 10
51.6107670856
 20
39.2041501818
 30
0.0
 10
51.650261369
 20
39.176325765
 30
0.0
 10
51.6946020658
 20
39.1335918234
 30
0.0
 10
51.7482763386
 20
39.0581758128
 30
0.0
 10
51.8088961488
 20
38.9440031098
 30
0.0
 10
51.8698353821
 20
38.8031166214
 30
0.0
 10
51.9310304317
 20
38.6387321245
 30
0.0
 10
51.9922891027
 20
38.4544563735
 30
0.0
 10
52.0756774598
 20
38.1825714512
 30
0.0
 10
52.1765046373
 20
37.8280166078
 30
0.0
 10
52.2954373636
 20
37.4096180143
 30
0.0
 10
52.3975653404
 20
37.0792239096
 30
0.0
 10
52.4830451025
 20
36.8456896386
 30
0.0
 10
52.5267710477
 20
36.7424667616
 30
0.0
 10
52.5491628485
 20
36.6951408206
 30
0.0
  0
SPLINE
  5
3D5
100
AcDbEntity
  8
DEFAULT_2
100
AcDbSpline
 62
8
  6
HIDDEN
 70
0
 71
3
 72
21
 73
17
 74
0
 42
0.0000001
 43
0.0000001
 44
0.0000000001
 40
0.0
 40
0.0
 40
0.0
 40
0.0
 40
0.0233579665
 40
0.0369706887
 40
0.0524916126
 40
0.0901787732
 40
0.1371109078
 40
0.1929323543
 40
0.256928978
 40
0.327901145
 40
0.4042550025
 40
0.5664089296
 40
0.7291205373
 40
0.8778023136
 40
0.9429125148
 40
1.0
 40
1.0
 40
1.0
 40
1.0
 10
50.3051009096
 20
36.4151115025
 30
0.0
 10
50.3265453288
 20
36.4151158302
 30
0.0
 10
50.3607023955
 20
36.4256130524
 30
0.0
 10
50.4002378687
 20
36.4532786074
 30
0.0
 10
50.4445649745
 20
36.4960557178
 30
0.0
 10
50.4979853469
 20
36.5715919075
 30
0.0
 10
50.5587172273
 20
36.6854597939
 30
0.0
 10
50.6197065123
 20
36.8260239322
 30
0.0
 10
50.6807800157
 20
36.9902380491
 30
0.0
 10
50.7419354678
 20
37.1743876712
 30
0.0
 10
50.8253664807
 20
37.4460027437
 30
0.0
 10
50.9261484027
 20
37.80032294
 30
0.0
 10
51.0448030206
 20
38.2185394645
 30
0.0
 10
51.1471607885
 20
38.5488537956
 30
0.0
 10
51.2323815529
 20
38.7825339577
 30
0.0
 10
51.2760415805
 20
38.8859833859
 30
0.0
 10
51.2984720138
 20
38.9333517286
 30
0.0
  0
SPLINE
  5
3D6
100
AcDbEntity
  8
DEFAULT_2
100
AcDbSpline
 62
8
  6
HIDDEN
 70
0
 71
3
 72
21
 73
17
 74
0
 42
0.0000001
 43
0.0000001
 44
0.0000000001
 40
0.0
 40
0.0
 40
0.0
 40
0.0
 40
0.0233601669
 40
0.0370014545
 40
0.0525718557
 40
0.0902838929
 40
0.1371816509
 40
0.1930232247
 40
0.2571113353
 40
0.3280980655
 40
0.4044243822
 40
0.5665355714
 40
0.7292314516
 40
0.8779084563
 40
0.9429770433
 40
1.0
 40
1.0
 40
1.0
 40
1.0
 10
49.0553625253
 20
39.2146915477
 30
0.0
 10
49.0768087843
 20
39.2146913445
 30
0.0
 10
49.1110078374
 20
39.2041664484
 30
0.0
 10
49.1505035336
 20
39.1763072588
 30
0.0
 10
49.1947249989
 20
39.1332941074
 30
0.0
 10
49.2481909603
 20
39.0577747565
 30
0.0
 10
49.3089818703
 20
38.9439156711
 30
0.0
 10
49.3699599534
 20
38.8032711067
 30
0.0
 10
49.4309386363
 20
38.6388993196
 30
0.0
 10
49.4921214962
 20
38.4546863561
 30
0.0
 10
49.575560469
 20
38.1831291291
 30
0.0
 10
49.6763302952
 20
37.828890997
 30
0.0
 10
49.7949675515
 20
37.4107335473
 30
0.0
 10
49.8972792777
 20
37.0804686482
 30
0.0
 10
49.982482813
 20
36.8468897892
 30
0.0
 10
50.0261840231
 20
36.7435657012
 30
0.0
 10
50.0485917396
 20
36.696252638
 30
0.0
  0
SPLINE
  5
3D7
100
AcDbEntity
  8
DEFAULT_2
100
AcDbSpline
 62
8
  6
HIDDEN
 70
0
 71
3
 72
21
 73
17
 74
0
 42
0.0000001
 43
0.0000001
 44
0.0000000001
 40
0.0
 40
0.0
 40
0.0
 40
0.0
 40
0.0233609913
 40
0.0369970195
 40
0.0525635547
 40
0.0902882923
 40
0.1372054581
 40
0.1930399776
 40
0.2570979369
 40
0.3280754299
 40
0.404431793
 40
0.5666411174
 40
0.7292881148
 40
0.8780148991
 40
0.9430367842
 40
1.0
 40
1.0
 40
1.0
 40
1.0
 10
47.805334518
 20
36.4151128856
 30
0.0
 10
47.8267813764
 20
36.4151134329
 30
0.0
 10
47.8609736487
 20
36.4256276786
 30
0.0
 10
47.9004885203
 20
36.453445979
 30
0.0
 10
47.9447278713
 20
36.4964478502
 30
0.0
 10
47.9981820376
 20
36.5720098738
 30
0.0
 10
48.0589618569
 20
36.6858969873
 30
0.0
 10
48.1199539886
 20
36.8265158741
 30
0.0
 10
48.1809623044
 20
36.9908298856
 30
0.0
 10
48.2421550625
 20
37.1750295117
 30
0.0
 10
48.3255993332
 20
37.4466974162
 30
0.0
 10
48.4262851813
 20
37.8010325277
 30
0.0
 10
48.5450855567
 20
38.2192339275
 30
0.0
 10
48.6472871857
 20
38.5494852857
 30
0.0
 10
48.7325255813
 20
38.7829985401
 30
0.0
 10
48.776286935
 20
38.8861879981
 30
0.0
 10
48.7986669523
 20
38.9334530681
 30
0.0
  0
SPLINE
  5
3D8
100
AcDbEntity
  8
DEFAULT_2
100
AcDbSpline
 62
8
  6
HIDDEN
 70
0
 71
3
 72
21
 73
17
 74
0
 42
0.0000001
 43
0.0000001
 44
0.0000000001
 40
0.0
 40
0.0
 40
0.0
 40
0.0
 40
0.0233796485
 40
0.0370170406
 40
0.0525348033
 40
0.0901448283
 40
0.1371037905
 40
0.1929964647
 40
0.2570114715
 40
0.3279889258
 40
0.4043522328
 40
0.5665198265
 40
0.7292223552
 40
0.877930723
 40
0.9430005973
 40
1.0
 40
1.0
 40
1.0
 40
1.0
 10
46.5551392314
 20
39.2148853907
 30
0.0
 10
46.5766056348
 20
39.2148818555
 30
0.0
 10
46.6107740882
 20
39.2041643878
 30
0.0
 10
46.6502507897
 20
39.176371577
 30
0.0
 10
46.6945751447
 20
39.1336639242
 30
0.0
 10
46.7481591875
 20
39.0582911249
 30
0.0
 10
46.8087917688
 20
38.944318416
 30
0.0
 10
46.869749771
 20
38.8036160784
 30
0.0
 10
46.930861813
 20
38.639304028
 30
0.0
 10
46.9920292604
 20
38.4551068464
 30
0.0
 10
47.0754673971
 20
38.1834377386
 30
0.0
 10
47.1762498411
 20
37.8290674815
 30
0.0
 10
47.2949550579
 20
37.4107911802
 30
0.0
 10
47.3972802243
 20
37.0804564225
 30
0.0
 10
47.4824817493
 20
36.8468376639
 30
0.0
 10
47.5262358234
 20
36.7435461913
 30
0.0
 10
47.5486331342
 20
36.6962460327
 30
0.0
  0
SPLINE
  5
3D9
100
AcDbEntity
  8
DEFAULT_2
100
AcDbSpline
 62
8
  6
HIDDEN
 70
0
 71
3
 72
10
 73
6
 74
0
 42
0.0000001
 43
0.0000001
 44
0.0000000001
 40
0.0
 40
0.0
 40
0.0
 40
0.0
 40
0.5498241358
 40
0.7927516838
 40
1.0
 40
1.0
 40
1.0
 40
1.0
 10
34.3323295404
 20
37.643711985
 30
0.0
 10
34.4070554741
 20
37.7629743758
 30
0.0
 10
34.5113721169
 20
37.9373236191
 30
0.0
 10
34.6633003006
 20
38.1435626275
 30
0.0
 10
34.7428239877
 20
38.2279007093
 30
0.0
 10
34.7834420949
 20
38.2620243975
 30
0.0
  0
SPLINE
  5
3DA
100
AcDbEntity
  8
DEFAULT_2
100
AcDbSpline
 62
8
  6
HIDDEN
 70
0
 71
3
 72
18
 73
14
 74
0
 42
0.0000001
 43
0.0000001
 44
0.0000000001
 40
0.0
 40
0.0
 40
0.0
 40
0.0
 40
0.187170847
 40
0.3374520393
 40
0.3991424136
 40
0.4526398985
 40
0.5407076959
 40
0.5807655895
 40
0.6220629632
 40
0.6674380334
 40
0.7188381596
 40
0.843523361
 40
1.0
 40
1.0
 40
1.0
 40
1.0
 10
34.1937788839
 20
38.6231997543
 30
0.0
 10
34.2145337896
 20
38.6716764238
 30
0.0
 10
34.2548291691
 20
38.757882722
 30
0.0
 10
34.3134504581
 20
38.8544099737
 30
0.0
 10
34.3619372706
 20
38.9116874106
 30
0.0
 10
34.4044594058
 20
38.9500035197
 30
0.0
 10
34.4521385564
 20
38.9742136586
 30
0.0
 10
34.5005561739
 20
38.9754677087
 30
0.0
 10
34.5354534226
 20
38.9660723032
 30
0.0
 10
34.5696727714
 20
38.9469449316
 30
0.0
 10
34.6177436566
 20
38.9067667581
 30
0.0
 10
34.6759078394
 20
38.8322832922
 30
0.0
 10
34.7151033921
 20
38.7633389689
 30
0.0
 10
34.7353266129
 20
38.7241659694
 30
0.0
  0
SPLINE
  5
3DB
100
AcDbEntity
  8
DEFAULT_2
100
AcDbSpline
 62
8
  6
HIDDEN
 70
0
 71
3
 72
10
 73
6
 74
0
 42
0.0000001
 43
0.0000001
 44
0.0000000001
 40
0.0
 40
0.0
 40
0.0
 40
0.0
 40
0.5530585736
 40
0.7943149384
 40
1.0
 40
1.0
 40
1.0
 40
1.0
 10
39.7155174194
 20
37.6908842103
 30
0.0
 10
39.7686782929
 20
37.5045684285
 30
0.0
 10
39.8456609203
 20
37.2370280398
 30
0.0
 10
39.9592320327
 20
36.9055644465
 30
0.0
 10
40.0182588485
 20
36.760315347
 30
0.0
 10
40.0490685719
 20
36.6951771454
 30
0.0
  0
SPLINE
  5
3DC
100
AcDbEntity
  8
DEFAULT_2
100
AcDbSpline
 62
8
  6
HIDDEN
 70
0
 71
3
 72
15
 73
11
 74
0
 42
0.0000001
 43
0.0000001
 44
0.0000000001
 40
0.0
 40
0.0
 40
0.0
 40
0.0
 40
0.1787116808
 40
0.3522979745
 40
0.5142885992
 40
0.6590952879
 40
0.7817824704
 40
0.8337464058
 40
0.8792294583
 40
1.0
 40
1.0
 40
1.0
 40
1.0
 10
40.3807175116
 20
37.8791944972
 30
0.0
 10
40.4072895854
 20
37.7849476075
 30
0.0
 10
40.4594518408
 20
37.5990985471
 30
0.0
 10
40.5377590139
 20
37.3283818177
 30
0.0
 10
40.6159370473
 20
37.0770608427
 30
0.0
 10
40.6938949523
 20
36.8547839735
 30
0.0
 10
40.761268012
 20
36.6934691875
 30
0.0
 10
40.8176653126
 20
36.5858501749
 30
0.0
 10
40.8790729918
 20
36.4866868352
 30
0.0
 10
40.9535765867
 20
36.4049012742
 30
0.0
 10
41.0197091561
 20
36.4025721543
 30
0.0
  0
SPLINE
  5
3DD
100
AcDbEntity
  8
DEFAULT_2
100
AcDbSpline
 62
8
  6
HIDDEN
 70
0
 71
3
 72
18
 73
14
 74
0
 42
0.0000001
 43
0.0000001
 44
0.0000000001
 40
0.0
 40
0.0
 40
0.0
 40
0.0
 40
0.181403862
 40
0.3232773194
 40
0.3803666854
 40
0.4292557522
 40
0.5088084369
 40
0.5462335799
 40
0.5867702717
 40
0.6334140133
 40
0.6880053538
 40
0.8245046144
 40
1.0
 40
1.0
 40
1.0
 40
1.0
 10
45.4783679592
 20
35.6880491528
 30
0.0
 10
45.4912668371
 20
35.6555805164
 30
0.0
 10
45.5162564917
 20
35.5984898692
 30
0.0
 10
45.5533737007
 20
35.5349048139
 30
0.0
 10
45.5842688076
 20
35.4982623915
 30
0.0
 10
45.6110091814
 20
35.4746074619
 30
0.0
 10
45.6420880826
 20
35.4609758732
 30
0.0
 10
45.6728293584
 20
35.4644289468
 30
0.0
 10
45.6949666977
 20
35.4744462768
 30
0.0
 10
45.7166206866
 20
35.4913758984
 30
0.0
 10
45.7475072392
 20
35.5253769075
 30
0.0
 10
45.7846763081
 20
35.5859475112
 30
0.0
 10
45.8095562846
 20
35.6406915934
 30
0.0
 10
45.8224384251
 20
35.6719394291
 30
0.0
  0
SPLINE
  5
3DE
100
AcDbEntity
  8
DEFAULT_2
100
AcDbSpline
 62
8
  6
HIDDEN
 70
0
 71
3
 72
13
 73
9
 74
0
 42
0.0000001
 43
0.0000001
 44
0.0000000001
 40
0.0
 40
0.0
 40
0.0
 40
0.0
 40
0.0806245384
 40
0.1612815848
 40
0.251332695
 40
0.3574763919
 40
0.6317842415
 40
1.0
 40
1.0
 40
1.0
 40
1.0
 10
46.8796697318
 20
40.1624573632
 30
0.0
 10
46.8873314531
 20
40.1652049931
 30
0.0
 10
46.9037346732
 20
40.1683046658
 30
0.0
 10
46.9291610182
 20
40.1633857842
 30
0.0
 10
46.9538190372
 20
40.1494819333
 30
0.0
 10
46.9889365679
 20
40.1170898088
 30
0.0
 10
47.0307654233
 20
40.0531534814
 30
0.0
 10
47.0578328204
 20
39.9941732711
 30
0.0
 10
47.0719888967
 20
39.959800746
 30
0.0
  0
SPLINE
  5
3DF
100
AcDbEntity
  8
DEFAULT_2
100
AcDbSpline
 62
8
  6
HIDDEN
 70
0
 71
3
 72
18
 73
14
 74
0
 42
0.0000001
 43
0.0000001
 44
0.0000000001
 40
0.0
 40
0.0
 40
0.0
 40
0.0
 40
0.1821686565
 40
0.3247714363
 40
0.381994218
 40
0.4308051884
 40
0.5101212425
 40
0.5476723673
 40
0.5883115256
 40
0.634844846
 40
0.6891147222
 40
0.8247461096
 40
1.0
 40
1.0
 40
1.0
 40
1.0
 10
44.2285413416
 20
39.9419333684
 30
0.0
 10
44.2414486262
 20
39.9744398714
 30
0.0
 10
44.266423599
 20
40.0316303753
 30
0.0
 10
44.3034238644
 20
40.0953900388
 30
0.0
 10
44.3342904421
 20
40.1320576633
 30
0.0
 10
44.3610085486
 20
40.1555585414
 30
0.0
 10
44.3922284007
 20
40.1685909239
 30
0.0
 10
44.4227884942
 20
40.1647361006
 30
0.0
 10
44.4448587696
 20
40.1547626562
 30
0.0
 10
44.4665125519
 20
40.1380822394
 30
0.0
 10
44.4974016524
 20
40.1046144601
 30
0.0
 10
44.5346549863
 20
40.0446601803
 30
0.0
 10
44.5594365136
 20
39.9903010986
 30
0.0
 10
44.5722571428
 20
39.9591916342
 30
0.0
  0
SPLINE
  5
3E0
100
AcDbEntity
  8
DEFAULT_2
100
AcDbSpline
 62
8
  6
HIDDEN
 70
0
 71
3
 72
18
 73
14
 74
0
 42
0.0000001
 43
0.0000001
 44
0.0000000001
 40
0.0
 40
0.0
 40
0.0
 40
0.0
 40
0.1822603649
 40
0.324761272
 40
0.381808842
 40
0.4304000811
 40
0.5095278374
 40
0.5471258587
 40
0.5878703951
 40
0.6345300472
 40
0.6889203118
 40
0.8247199314
 40
1.0
 40
1.0
 40
1.0
 40
1.0
 10
42.9787830717
 20
35.6873816913
 30
0.0
 10
42.9916940397
 20
35.6548612671
 30
0.0
 10
43.0166575457
 20
35.5976769915
 30
0.0
 10
43.0536472618
 20
35.5339505031
 30
0.0
 10
43.0845452769
 20
35.4974341542
 30
0.0
 10
43.1113256114
 20
35.474166026
 30
0.0
 10
43.1425900335
 20
35.4614379346
 30
0.0
 10
43.1731043294
 20
35.465518113
 30
0.0
 10
43.1951675847
 20
35.4756195083
 30
0.0
 10
43.2168219329
 20
35.4924016519
 30
0.0
 10
43.2477081748
 20
35.5259718097
 30
0.0
 10
43.2849692936
 20
35.5859784863
 30
0.0
 10
43.3097749365
 20
35.6403617593
 30
0.0
 10
43.3226049729
 20
35.6714693391
 30
0.0
  0
SPLINE
  5
3E1
100
AcDbEntity
  8
DEFAULT_2
100
AcDbSpline
 62
8
  6
HIDDEN
 70
0
 71
3
 72
18
 73
14
 74
0
 42
0.0000001
 43
0.0000001
 44
0.0000000001
 40
0.0
 40
0.0
 40
0.0
 40
0.0
 40
0.1822682962
 40
0.3246222293
 40
0.3816041932
 40
0.4302967373
 40
0.5097586505
 40
0.547300252
 40
0.5878158593
 40
0.634168934
 40
0.6882967521
 40
0.8241317633
 40
1.0
 40
1.0
 40
1.0
 40
1.0
 10
41.7287826355
 20
39.9426697134
 30
0.0
 10
41.7416632357
 20
39.975113529
 30
0.0
 10
41.7665588654
 20
40.0321338608
 30
0.0
 10
41.8034820167
 20
40.0956581136
 30
0.0
 10
41.8343658448
 20
40.1320075771
 30
0.0
 10
41.8611055508
 20
40.155283129
 30
0.0
 10
41.8921480389
 20
40.1683490669
 30
0.0
 10
41.9226646558
 20
40.1648217464
 30
0.0
 10
41.9447224608
 20
40.1551016988
 30
0.0
 10
41.9663613942
 20
40.1386460944
 30
0.0
 10
41.997263592
 20
40.1053665959
 30
0.0
 10
42.0344072405
 20
40.0453746655
 30
0.0
 10
42.0590859053
 20
39.9909700353
 30
0.0
 10
42.0719099843
 20
39.959825465
 30
0.0
  0
SPLINE
  5
3E2
100
AcDbEntity
  8
DEFAULT_2
100
AcDbSpline
 62
8
  6
HIDDEN
 70
0
 71
3
 72
18
 73
14
 74
0
 42
0.0000001
 43
0.0000001
 44
0.0000000001
 40
0.0
 40
0.0
 40
0.0
 40
0.0
 40
0.1821768741
 40
0.3247866757
 40
0.3820298613
 40
0.4308762614
 40
0.5102634163
 40
0.5478006024
 40
0.5883890763
 40
0.6348519777
 40
0.6890528131
 40
0.824623833
 40
1.0
 40
1.0
 40
1.0
 40
1.0
 10
40.4784832101
 20
35.6879054368
 30
0.0
 10
40.4913859583
 20
35.655405281
 30
0.0
 10
40.516355068
 20
35.59822606
 30
0.0
 10
40.5533532852
 20
35.5344810002
 30
0.0
 10
40.5842104288
 20
35.4978062652
 30
0.0
 10
40.6109242386
 20
35.4742806948
 30
0.0
 10
40.6421064781
 20
35.4611672184
 30
0.0
 10
40.6726737739
 20
35.4649075359
 30
0.0
 10
40.6947462437
 20
35.4748022776
 30
0.0
 10
40.7164002097
 20
35.4914131395
 30
0.0
 10
40.7472945224
 20
35.52480959
 30
0.0
 10
40.7845504087
 20
35.5847454272
 30
0.0
 10
40.8092957899
 20
35.6391162751
 30
0.0
 10
40.8221163371
 20
35.6702416363
 30
0.0
  0
SPLINE
  5
3E3
100
AcDbEntity
  8
DEFAULT_2
100
AcDbSpline
 62
8
  6
HIDDEN
 70
0
 71
3
 72
19
 73
15
 74
0
 42
0.0000001
 43
0.0000001
 44
0.0000000001
 40
0.0
 40
0.0
 40
0.0
 40
0.0
 40
0.0517624387
 40
0.1113680624
 40
0.2496349183
 40
0.4043927979
 40
0.5627543619
 40
0.7117756359
 40
0.7790095691
 40
0.8394725732
 40
0.8921024981
 40
0.9363903156
 40
0.9721651765
 40
1.0
 40
1.0
 40
1.0
 40
1.0
 10
46.2569011256
 20
36.6376790038
 30
0.0
 10
46.2785757518
 20
36.6801859992
 30
0.0
 10
46.3207454799
 20
36.7739096695
 30
0.0
 10
46.4031926107
 20
36.9888040087
 30
0.0
 10
46.5021594221
 20
37.2986291028
 30
0.0
 10
46.6164728466
 20
37.6986834124
 30
0.0
 10
46.7311181418
 20
38.108956261
 30
0.0
 10
46.829332386
 20
38.4400861287
 30
0.0
 10
46.9105888543
 20
38.681909011
 30
0.0
 10
46.9693477725
 20
38.8374681191
 30
0.0
 10
47.0280664214
 20
38.970214036
 30
0.0
 10
47.086670672
 20
39.0778813905
 30
0.0
 10
47.1449746229
 20
39.158714967
 30
0.0
 10
47.189761262
 20
39.198402623
 30
0.0
 10
47.2122697779
 20
39.2107189647
 30
0.0
  0
SPLINE
  5
3E4
100
AcDbEntity
  8
DEFAULT_2
100
AcDbSpline
 62
8
  6
HIDDEN
 70
0
 71
3
 72
21
 73
17
 74
0
 42
0.0000001
 43
0.0000001
 44
0.0000000001
 40
0.0
 40
0.0
 40
0.0
 40
0.0
 40
0.0538451456
 40
0.1162353732
 40
0.2617708505
 40
0.4235860649
 40
0.5870105535
 40
0.6645086987
 40
0.7367418561
 40
0.8022419834
 40
0.8596726557
 40
0.9078930951
 40
0.946554975
 40
0.9625071462
 40
0.9764613549
 40
1.0
 40
1.0
 40
1.0
 40
1.0
 10
45.0065066108
 20
38.9925803126
 30
0.0
 10
45.0295462094
 20
38.9473978477
 30
0.0
 10
45.0744096379
 20
38.8473845677
 30
0.0
 10
45.1619212058
 20
38.6167968803
 30
0.0
 10
45.2660490064
 20
38.2842404696
 30
0.0
 10
45.3870657556
 20
37.8576844473
 30
0.0
 10
45.4893507059
 20
37.492366419
 30
0.0
 10
45.574145171
 20
37.2098382012
 30
0.0
 10
45.6366178423
 20
37.0169463791
 30
0.0
 10
45.6989140876
 20
36.8439565257
 30
0.0
 10
45.7608763711
 20
36.6949985814
 30
0.0
 10
45.8227842961
 20
36.5738272501
 30
0.0
 10
45.877397459
 20
36.493187223
 30
0.0
 10
45.9225190113
 20
36.446625666
 30
0.0
 10
45.9624472156
 20
36.4159754095
 30
0.0
 10
45.9974075387
 20
36.4030515458
 30
0.0
 10
46.0195656675
 20
36.4022834162
 30
0.0
  0
SPLINE
  5
3E5
100
AcDbEntity
  8
DEFAULT_2
100
AcDbSpline
 62
8
  6
HIDDEN
 70
0
 71
3
 72
21
 73
17
 74
0
 42
0.0000001
 43
0.0000001
 44
0.0000000001
 40
0.0
 40
0.0
 40
0.0
 40
0.0
 40
0.0538729744
 40
0.1163457979
 40
0.2618193239
 40
0.4236828493
 40
0.5870797944
 40
0.6645107123
 40
0.7367971594
 40
0.80235157
 40
0.8596965357
 40
0.9079024119
 40
0.9466509424
 40
0.9626037825
 40
0.976511071
 40
1.0
 40
1.0
 40
1.0
 40
1.0
 10
43.7565780017
 20
36.6371044713
 30
0.0
 10
43.7796294947
 20
36.6823112094
 30
0.0
 10
43.8245074521
 20
36.7824362768
 30
0.0
 10
43.911865522
 20
37.0131332498
 30
0.0
 10
44.0162002789
 20
37.3456928425
 30
0.0
 10
44.1370797324
 20
37.7722590801
 30
0.0
 10
44.2393458713
 20
38.1375432402
 30
0.0
 10
44.3242490497
 20
38.4200029138
 30
0.0
 10
44.3866730336
 20
38.612952086
 30
0.0
 10
44.4488632615
 20
38.7860062603
 30
0.0
 10
44.5109427901
 20
38.9348790948
 30
0.0
 10
44.5729259244
 20
39.055982966
 30
0.0
 10
44.6273820778
 20
39.1368142937
 30
0.0
 10
44.6724845861
 20
39.1834503927
 30
0.0
 10
44.712510183
 20
39.2138957582
 30
0.0
 10
44.7474794538
 20
39.2263476022
 30
0.0
 10
44.7695907774
 20
39.2271244381
 30
0.0
  0
SPLINE
  5
3E6
100
AcDbEntity
  8
DEFAULT_2
100
AcDbSpline
 62
8
  6
HIDDEN
 70
0
 71
3
 72
21
 73
17
 74
0
 42
0.0000001
 43
0.0000001
 44
0.0000000001
 40
0.0
 40
0.0
 40
0.0
 40
0.0
 40
0.0538755982
 40
0.1164086917
 40
0.2618304879
 40
0.4237261826
 40
0.587085778
 40
0.6645407606
 40
0.7368601546
 40
0.8023829997
 40
0.8596750566
 40
0.9079149405
 40
0.9466917132
 40
0.9626318896
 40
0.9765198421
 40
1.0
 40
1.0
 40
1.0
 40
1.0
 10
42.506735581
 20
38.9923050187
 30
0.0
 10
42.5298095053
 20
38.9471190304
 30
0.0
 10
42.5746740692
 20
38.8469446303
 30
0.0
 10
42.6618975054
 20
38.6162445201
 30
0.0
 10
42.7663706049
 20
38.2837686971
 30
0.0
 10
42.8870939569
 20
37.8573085768
 30
0.0
 10
42.9894215352
 20
37.4921078218
 30
0.0
 10
43.0742800789
 20
37.2096810189
 30
0.0
 10
43.1366512763
 20
37.0167348513
 30
0.0
 10
43.1988333912
 20
36.8437686752
 30
0.0
 10
43.2609824332
 20
36.6950138125
 30
0.0
 10
43.3229002501
 20
36.5739076196
 30
0.0
 10
43.3772921466
 20
36.4929940898
 30
0.0
 10
43.422413629
 20
36.4463938302
 30
0.0
 10
43.462471521
 20
36.4160668595
 30
0.0
 10
43.4974109857
 20
36.4036798477
 30
0.0
 10
43.519509426
 20
36.4029051542
 30
0.0
  0
SPLINE
  5
3E7
100
AcDbEntity
  8
DEFAULT_2
100
AcDbSpline
 62
8
  6
HIDDEN
 70
0
 71
3
 72
21
 73
17
 74
0
 42
0.0000001
 43
0.0000001
 44
0.0000000001
 40
0.0
 40
0.0
 40
0.0
 40
0.0
 40
0.0538748112
 40
0.1163995977
 40
0.2619145408
 40
0.4238885658
 40
0.5872940724
 40
0.6647444348
 40
0.7370549878
 40
0.8025841438
 40
0.859878433
 40
0.9080744066
 40
0.9467482793
 40
0.9626321428
 40
0.9765055089
 40
1.0
 40
1.0
 40
1.0
 40
1.0
 10
41.2566039186
 20
36.6372204132
 30
0.0
 10
41.2796762894
 20
36.6824271078
 30
0.0
 10
41.3245980658
 20
36.7826082762
 30
0.0
 10
41.4119281584
 20
37.0134515826
 30
0.0
 10
41.516414511
 20
37.3462182318
 30
0.0
 10
41.6372470838
 20
37.7730269377
 30
0.0
 10
41.739640542
 20
38.1384702481
 30
0.0
 10
41.824580355
 20
38.4210167483
 30
0.0
 10
41.8870096039
 20
38.614014924
 30
0.0
 10
41.9492326553
 20
38.7870360014
 30
0.0
 10
42.0113996311
 20
38.9358137757
 30
0.0
 10
42.0733430937
 20
39.0568059808
 30
0.0
 10
42.1277853291
 20
39.1375213941
 30
0.0
 10
42.1730268129
 20
39.1838106904
 30
0.0
 10
42.2131125339
 20
39.2140203581
 30
0.0
 10
42.2480335701
 20
39.2264765726
 30
0.0
 10
42.2701531696
 20
39.227262876
 30
0.0
  0
SPLINE
  5
3E8
100
AcDbEntity
  8
DEFAULT_2
100
AcDbSpline
 62
8
  6
HIDDEN
 70
0
 71
3
 72
22
 73
18
 74
0
 42
0.0000001
 43
0.0000001
 44
0.0000000001
 40
0.0
 40
0.0
 40
0.0
 40
0.0
 40
0.0113716333
 40
0.0235762062
 40
0.0372735961
 40
0.0528745838
 40
0.0905564226
 40
0.1373878684
 40
0.1932557802
 40
0.2573504308
 40
0.3282897657
 40
0.4045814082
 40
0.5667023168
 40
0.7292837466
 40
0.8778540201
 40
0.9429467276
 40
1.0
 40
1.0
 40
1.0
 40
1.0
 10
45.3056926717
 20
36.4149832224
 30
0.0
 10
45.3161319408
 20
36.4149805928
 30
0.0
 10
45.3378807006
 20
36.4180835464
 30
0.0
 10
45.369570188
 20
36.4317946177
 30
0.0
 10
45.4007980626
 20
36.4539850226
 30
0.0
 10
45.4448798649
 20
36.4971089536
 30
0.0
 10
45.4984343172
 20
36.572506453
 30
0.0
 10
45.5592517147
 20
36.6862682162
 30
0.0
 10
45.6201125355
 20
36.8269231169
 30
0.0
 10
45.6810590812
 20
36.9912771416
 30
0.0
 10
45.7422450451
 20
37.1754032075
 30
0.0
 10
45.825662576
 20
37.4468784278
 30
0.0
 10
45.9262932579
 20
37.8009982716
 30
0.0
 10
46.0449257774
 20
38.218926371
 30
0.0
 10
46.1472476997
 20
38.5489742511
 30
0.0
 10
46.2323719621
 20
38.7825102418
 30
0.0
 10
46.2760095002
 20
38.885909397
 30
0.0
 10
46.298431288
 20
38.9332428092
 30
0.0
  0
SPLINE
  5
3E9
100
AcDbEntity
  8
DEFAULT_2
100
AcDbSpline
 62
8
  6
HIDDEN
 70
0
 71
3
 72
21
 73
17
 74
0
 42
0.0000001
 43
0.0000001
 44
0.0000000001
 40
0.0
 40
0.0
 40
0.0
 40
0.0
 40
0.0233816554
 40
0.0370003255
 40
0.0524852733
 40
0.0900014557
 40
0.136955002
 40
0.1929072287
 40
0.2569172363
 40
0.3278683012
 40
0.4043110133
 40
0.5665766543
 40
0.7292888095
 40
0.878025265
 40
0.9429732099
 40
1.0
 40
1.0
 40
1.0
 40
1.0
 10
44.0546649691
 20
39.2147375459
 30
0.0
 10
44.0761461162
 20
39.2147264951
 30
0.0
 10
44.1103227389
 20
39.204086554
 30
0.0
 10
44.149870092
 20
39.1764172848
 30
0.0
 10
44.1942411839
 20
39.1339001761
 30
0.0
 10
44.247986921
 20
39.0587133992
 30
0.0
 10
44.308622554
 20
38.9446847209
 30
0.0
 10
44.369574666
 20
38.803834237
 30
0.0
 10
44.4307882916
 20
38.6394209483
 30
0.0
 10
44.4920846624
 20
38.455096181
 30
0.0
 10
44.5755216769
 20
38.1831023598
 30
0.0
 10
44.6764075971
 20
37.8283527292
 30
0.0
 10
44.7953447915
 20
37.409745455
 30
0.0
 10
44.8975683201
 20
37.0792337476
 30
0.0
 10
44.9831054087
 20
36.8456433918
 30
0.0
 10
45.026838127
 20
36.7423676942
 30
0.0
 10
45.0492413994
 20
36.6950077186
 30
0.0
  0
SPLINE
  5
3EA
100
AcDbEntity
  8
DEFAULT_2
100
AcDbSpline
 62
8
  6
HIDDEN
 70
0
 71
3
 72
21
 73
17
 74
0
 42
0.0000001
 43
0.0000001
 44
0.0000000001
 40
0.0
 40
0.0
 40
0.0
 40
0.0
 40
0.0233788515
 40
0.0369837632
 40
0.0524436005
 40
0.0898719462
 40
0.1367283639
 40
0.1926315723
 40
0.256655163
 40
0.3276460116
 40
0.4040536248
 40
0.5662734528
 40
0.7290840158
 40
0.8777832206
 40
0.9428643374
 40
1.0
 40
1.0
 40
1.0
 40
1.0
 10
42.8044173106
 20
36.4151978441
 30
0.0
 10
42.8258916042
 20
36.4152129899
 30
0.0
 10
42.860046175
 20
36.4258073011
 30
0.0
 10
42.8996030621
 20
36.4533808507
 30
0.0
 10
42.9439582987
 20
36.4957264778
 30
0.0
 10
42.9977319745
 20
36.5706336309
 30
0.0
 10
43.058385566
 20
36.6843855373
 30
0.0
 10
43.1193251682
 20
36.825077092
 30
0.0
 10
43.1805113332
 20
36.9894685886
 30
0.0
 10
43.2417497957
 20
37.1737889821
 30
0.0
 10
43.3252336436
 20
37.4456691075
 30
0.0
 10
43.4261727845
 20
37.800344002
 30
0.0
 10
43.5449072835
 20
38.2189367777
 30
0.0
 10
43.6473639307
 20
38.5494875224
 30
0.0
 10
43.7327583315
 20
38.7832731135
 30
0.0
 10
43.7764553582
 20
38.8867836181
 30
0.0
 10
43.7988839745
 20
38.9342306946
 30
0.0
  0
SPLINE
  5
3EB
100
AcDbEntity
  8
DEFAULT_2
100
AcDbSpline
 62
8
  6
HIDDEN
 70
0
 71
3
 72
21
 73
17
 74
0
 42
0.0000001
 43
0.0000001
 44
0.0000000001
 40
0.0
 40
0.0
 40
0.0
 40
0.0
 40
0.0233589438
 40
0.0369630113
 40
0.0524615275
 40
0.0901027353
 40
0.1370269967
 40
0.1928802175
 40
0.2569316265
 40
0.3279263555
 40
0.4042784383
 40
0.5664281057
 40
0.7291568419
 40
0.8778122433
 40
0.942915592
 40
1.0
 40
1.0
 40
1.0
 40
1.0
 10
41.5549831437
 20
39.2146094032
 30
0.0
 10
41.5764326201
 20
39.2146033035
 30
0.0
 10
41.6105858871
 20
39.204115119
 30
0.0
 10
41.6501364337
 20
39.1765070468
 30
0.0
 10
41.6945018743
 20
39.1338550481
 30
0.0
 10
41.7479631144
 20
39.0584017358
 30
0.0
 10
41.8086998878
 20
38.944530207
 30
0.0
 10
41.869697707
 20
38.8038575565
 30
0.0
 10
41.9307603945
 20
38.6394966712
 30
0.0
 10
41.9919462046
 20
38.4552449044
 30
0.0
 10
42.0754136405
 20
38.1835673825
 30
0.0
 10
42.176239882
 20
37.8291750221
 30
0.0
 10
42.2948940172
 20
37.4108830401
 30
0.0
 10
42.3973158507
 20
37.0805341103
 30
0.0
 10
42.4825547334
 20
36.8468442539
 30
0.0
 10
42.5262367348
 20
36.7433908234
 30
0.0
 10
42.5486677453
 20
36.6960146305
 30
0.0
  0
SPLINE
  5
3EC
100
AcDbEntity
  8
DEFAULT_2
100
AcDbSpline
 62
8
  6
HIDDEN
 70
0
 71
3
 72
21
 73
17
 74
0
 42
0.0000001
 43
0.0000001
 44
0.0000000001
 40
0.0
 40
0.0
 40
0.0
 40
0.0
 40
0.0233738507
 40
0.0369877133
 40
0.0524719709
 40
0.0900141758
 40
0.136937306
 40
0.1928226729
 40
0.2568460221
 40
0.3278365107
 40
0.4042116622
 40
0.566401849
 40
0.7291524643
 40
0.8777928282
 40
0.942890147
 40
1.0
 40
1.0
 40
1.0
 40
1.0
 10
40.3047639063
 20
36.4150202811
 30
0.0
 10
40.3262314262
 20
36.4150298064
 30
0.0
 10
40.3603912301
 20
36.425640394
 30
0.0
 10
40.3999229462
 20
36.4532887046
 30
0.0
 10
40.444287898
 20
36.4958153148
 30
0.0
 10
40.4979256628
 20
36.5710399898
 30
0.0
 10
40.5585736304
 20
36.684934157
 30
0.0
 10
40.6195563472
 20
36.8256417998
 30
0.0
 10
40.6806956264
 20
36.9900137128
 30
0.0
 10
40.7418951025
 20
37.1742937954
 30
0.0
 10
40.8253778877
 20
37.446083973
 30
0.0
 10
40.9262399288
 20
37.8006254052
 30
0.0
 10
41.0449271361
 20
38.2190449249
 30
0.0
 10
41.1473966308
 20
38.5494541506
 30
0.0
 10
41.2326890884
 20
38.7831822059
 30
0.0
 10
41.2763743869
 20
38.8866774757
 30
0.0
 10
41.2988079733
 20
38.9340900753
 30
0.0
  0
SPLINE
  5
3ED
100
AcDbEntity
  8
DEFAULT_2
100
AcDbSpline
 62
8
  6
HIDDEN
 70
0
 71
3
 72
18
 73
14
 74
0
 42
0.0000001
 43
0.0000001
 44
0.0000000001
 40
0.0
 40
0.0
 40
0.0
 40
0.0
 40
0.1823614181
 40
0.3266088342
 40
0.385039776
 40
0.4351563729
 40
0.5162164243
 40
0.5537201271
 40
0.5937564253
 40
0.6393410231
 40
0.6925192455
 40
0.8260773018
 40
1.0
 40
1.0
 40
1.0
 40
1.0
 10
39.243816708
 20
39.7883353858
 30
0.0
 10
39.2574135923
 20
39.8222948012
 30
0.0
 10
39.2837735402
 20
39.8823363853
 30
0.0
 10
39.3225451688
 20
39.9495345801
 30
0.0
 10
39.3547991146
 20
39.9889134533
 30
0.0
 10
39.3827101532
 20
40.0146802464
 30
0.0
 10
39.4150277081
 20
40.030197193
 30
0.0
 10
39.4473738627
 20
40.0279952982
 30
0.0
 10
39.470615533
 20
40.0187542347
 30
0.0
 10
39.49338285
 20
40.0023760071
 30
0.0
 10
39.5258580767
 20
39.9687110314
 30
0.0
 10
39.5649823298
 20
39.9072032209
 30
0.0
 10
39.5908253935
 20
39.8511379268
 30
0.0
 10
39.6042199025
 20
39.8189241453
 30
0.0
  0
SPLINE
  5
3EE
100
AcDbEntity
  8
DEFAULT_2
100
AcDbSpline
 62
8
  6
HIDDEN
 70
0
 71
3
 72
18
 73
14
 74
0
 42
0.0000001
 43
0.0000001
 44
0.0000000001
 40
0.0
 40
0.0
 40
0.0
 40
0.0
 40
0.1831654464
 40
0.3294473451
 40
0.3890065187
 40
0.4402073593
 40
0.5231924707
 40
0.5609818528
 40
0.6006899943
 40
0.6454880449
 40
0.6976739293
 40
0.8291545454
 40
1.0
 40
1.0
 40
1.0
 40
1.0
 10
37.9734519919
 20
36.1488252796
 30
0.0
 10
37.9888179732
 20
36.1109419778
 30
0.0
 10
38.0186078413
 20
36.0436510181
 30
0.0
 10
38.0620629747
 20
35.9680765418
 30
0.0
 10
38.0982010326
 20
35.9232498288
 30
0.0
 10
38.1296311369
 20
35.8936321265
 30
0.0
 10
38.1655045751
 20
35.8749905078
 30
0.0
 10
38.2019689989
 20
35.8754355197
 30
0.0
 10
38.2281784568
 20
35.8843054514
 30
0.0
 10
38.2538496119
 20
35.9012519555
 30
0.0
 10
38.2904100255
 20
35.937112822
 30
0.0
 10
38.3341755945
 20
36.0038321715
 30
0.0
 10
38.3632238785
 20
36.0647850079
 30
0.0
 10
38.378310602
 20
36.0998048149
 30
0.0
  0
SPLINE
  5
3EF
100
AcDbEntity
  8
DEFAULT_2
100
AcDbSpline
 62
8
  6
HIDDEN
 70
0
 71
3
 72
18
 73
14
 74
0
 42
0.0000001
 43
0.0000001
 44
0.0000000001
 40
0.0
 40
0.0
 40
0.0
 40
0.0
 40
0.1853932211
 40
0.335584716
 40
0.3974403396
 40
0.4508807967
 40
0.5370999886
 40
0.5753615587
 40
0.6146242341
 40
0.6581621779
 40
0.7084532116
 40
0.8349661523
 40
1.0
 40
1.0
 40
1.0
 40
1.0
 10
36.6926011704
 20
39.1579656646
 30
0.0
 10
36.7103807408
 20
39.2014311738
 30
0.0
 10
36.7448999189
 20
39.2791861088
 30
0.0
 10
36.7947179023
 20
39.3670574092
 30
0.0
 10
36.8359826679
 20
39.4204318135
 30
0.0
 10
36.8719416757
 20
39.4565400623
 30
0.0
 10
36.9124998985
 20
39.4806661609
 30
0.0
 10
36.9545887024
 20
39.4835682654
 30
0.0
 10
36.9847548903
 20
39.4759338513
 30
0.0
 10
37.0143120915
 20
39.4590709958
 30
0.0
 10
37.0563034342
 20
39.4218731389
 30
0.0
 10
37.1065817643
 20
39.3503145541
 30
0.0
 10
37.1397246106
 20
39.2842602924
 30
0.0
 10
37.1569675561
 20
39.2461779234
 30
0.0
  0
SPLINE
  5
3F0
100
AcDbEntity
  8
DEFAULT_2
100
AcDbSpline
 62
8
  6
HIDDEN
 70
0
 71
3
 72
18
 73
14
 74
0
 42
0.0000001
 43
0.0000001
 44
0.0000000001
 40
0.0
 40
0.0
 40
0.0
 40
0.0
 40
0.1921656642
 40
0.3513529182
 40
0.4753886531
 40
0.5248824731
 40
0.5676977018
 40
0.6064713261
 40
0.6445852636
 40
0.6854847346
 40
0.7319126082
 40
0.847729734
 40
1.0
 40
1.0
 40
1.0
 40
1.0
 10
35.3815268192
 20
36.8485661819
 30
0.0
 10
35.4033806852
 20
36.7938319193
 30
0.0
 10
35.4457326063
 20
36.6945911353
 30
0.0
 10
35.5141215708
 20
36.5657595199
 30
0.0
 10
35.5746066957
 20
36.4823529907
 30
0.0
 10
35.6252117407
 20
36.438885693
 30
0.0
 10
35.6609764269
 20
36.4196442983
 30
0.0
 10
35.6974113526
 20
36.4117336292
 30
0.0
 10
35.7339227649
 20
36.415645657
 30
0.0
 10
35.7697411128
 20
36.4308769623
 30
0.0
 10
35.8202319132
 20
36.4680656068
 30
0.0
 10
35.8811036619
 20
36.5444874834
 30
0.0
 10
35.9205741839
 20
36.6167344281
 30
0.0
 10
35.941049266
 20
36.6587067855
 30
0.0
  0
SPLINE
  5
3F1
100
AcDbEntity
  8
DEFAULT_2
100
AcDbSpline
 62
8
  6
HIDDEN
 70
0
 71
3
 72
15
 73
11
 74
0
 42
0.0000001
 43
0.0000001
 44
0.0000000001
 40
0.0
 40
0.0
 40
0.0
 40
0.0
 40
0.0935179912
 40
0.2047244646
 40
0.3335570366
 40
0.4745222109
 40
0.6198753883
 40
0.7610297117
 40
0.8897290097
 40
1.0
 40
1.0
 40
1.0
 40
1.0
 10
35.0783311701
 20
38.3480842673
 30
0.0
 10
35.1201806357
 20
38.3364652083
 30
0.0
 10
35.2057418369
 20
38.2899840326
 30
0.0
 10
35.3188117606
 20
38.1831869391
 30
0.0
 10
35.4297671994
 20
38.0449131365
 30
0.0
 10
35.5395054335
 20
37.8863336226
 30
0.0
 10
35.6482164879
 20
37.7202198334
 30
0.0
 10
35.7558808565
 20
37.5601901893
 30
0.0
 10
35.8624105375
 20
37.4192712105
 30
0.0
 10
35.9402745213
 20
37.3392455647
 30
0.0
 10
35.9799536954
 20
37.3068674743
 30
0.0
  0
SPLINE
  5
3F2
100
AcDbEntity
  8
DEFAULT_2
100
AcDbSpline
 62
8
  6
HIDDEN
 70
0
 71
3
 72
19
 73
15
 74
0
 42
0.0000001
 43
0.0000001
 44
0.0000000001
 40
0.0
 40
0.0
 40
0.0
 40
0.0
 40
0.0385496393
 40
0.0857882449
 40
0.1410678092
 40
0.2034360037
 40
0.3442255035
 40
0.4973678046
 40
0.6509329994
 40
0.792760018
 40
0.8558966415
 40
0.9121553862
 40
0.9604071112
 40
1.0
 40
1.0
 40
1.0
 40
1.0
 10
42.0719099843
 20
39.959825465
 30
0.0
 10
42.0933048034
 20
39.9078659872
 30
0.0
 10
42.1341675202
 20
39.7894916117
 30
0.0
 10
42.1896405332
 20
39.5914451487
 30
0.0
 10
42.2453183711
 20
39.3575830494
 30
0.0
 10
42.3228746498
 20
38.9889187799
 30
0.0
 10
42.4165424867
 20
38.4780116246
 30
0.0
 10
42.5255076942
 20
37.8348895043
 30
0.0
 10
42.6343841923
 20
37.1902184634
 30
0.0
 10
42.7280242842
 20
36.6760084054
 30
0.0
 10
42.8055349275
 20
36.303189619
 30
0.0
 10
42.8611476835
 20
36.0651831253
 30
0.0
 10
42.9166594551
 20
35.8625546182
 30
0.0
 10
42.95748745
 20
35.7410215614
 30
0.0
 10
42.9787830717
 20
35.6873816913
 30
0.0
  0
LINE
  5
3F3
100
AcDbEntity
  8
DEFAULT_2
100
AcDbLine
 62
8
  6
HIDDEN
 10
40.0047947598
 20
38.0162443093
 11
40.0481174655
 21
37.7008929312
  0
SPLINE
  5
3F4
100
AcDbEntity
  8
DEFAULT_2
100
AcDbSpline
 62
8
  6
HIDDEN
 70
0
 71
3
 72
9
 73
5
 74
0
 42
0.0000001
 43
0.0000001
 44
0.0000000001
 40
0.0
 40
0.0
 40
0.0
 40
0.0
 40
0.2202548162
 40
1.0
 40
1.0
 40
1.0
 40
1.0
 10
36.141013089
 20
37.2024820934
 30
0.0
 10
36.1271275625
 20
37.2055604406
 30
0.0
 10
36.0654907737
 20
37.2263202287
 30
0.0
 10
36.014316137
 20
37.2700646741
 30
0.0
 10
35.9799536954
 20
37.3068674743
 30
0.0
  0
SPLINE
  5
3F5
100
AcDbEntity
  8
DEFAULT_2
100
AcDbSpline
 62
8
  6
HIDDEN
 70
0
 71
3
 72
11
 73
7
 74
0
 42
0.0000001
 43
0.0000001
 44
0.0000000001
 40
0.0
 40
0.0
 40
0.0
 40
0.0
 40
0.1885085308
 40
0.4068967787
 40
0.6746256845
 40
1.0
 40
1.0
 40
1.0
 40
1.0
 10
53.5204120694
 20
36.402308568
 30
0.0
 10
53.5369111071
 20
36.4017190507
 30
0.0
 10
53.5730875863
 20
36.4091873063
 30
0.0
 10
53.622816094
 20
36.4427014907
 30
0.0
 10
53.6711927122
 20
36.4952570129
 30
0.0
 10
53.7003251555
 20
36.5384455305
 30
0.0
 10
53.7151796547
 20
36.5627638548
 30
0.0
  0
SPLINE
  5
3F6
100
AcDbEntity
  8
DEFAULT_2
100
AcDbSpline
 62
8
  6
HIDDEN
 70
0
 71
3
 72
13
 73
9
 74
0
 42
0.0000001
 43
0.0000001
 44
0.0000000001
 40
0.0
 40
0.0
 40
0.0
 40
0.0
 40
0.0850960305
 40
0.1752456434
 40
0.2753450425
 40
0.3886196942
 40
0.6611719152
 40
1.0
 40
1.0
 40
1.0
 40
1.0
 10
48.5202373045
 20
36.4023261551
 30
0.0
 10
48.5301445008
 20
36.4019733255
 30
0.0
 10
48.5507450783
 20
36.4040311086
 30
0.0
 10
48.5810294779
 20
36.4154594052
 30
0.0
 10
48.6108915292
 20
36.4347790285
 30
0.0
 10
48.6529593669
 20
36.4729268832
 30
0.0
 10
48.7041759377
 20
36.5407721959
 30
0.0
 10
48.7390949065
 20
36.60295089
 30
0.0
 10
48.7570460895
 20
36.6381054609
 30
0.0
  0
SPLINE
  5
3F7
100
AcDbEntity
  8
DEFAULT_2
100
AcDbSpline
 62
8
  6
HIDDEN
 70
0
 71
3
 72
11
 73
7
 74
0
 42
0.0000001
 43
0.0000001
 44
0.0000000001
 40
0.0
 40
0.0
 40
0.0
 40
0.0
 40
0.1746464914
 40
0.3875852382
 40
0.6601516511
 40
1.0
 40
1.0
 40
1.0
 40
1.0
 10
46.0195656675
 20
36.4022834162
 30
0.0
 10
46.0398596325
 20
36.4015799095
 30
0.0
 10
46.0855360387
 20
36.4138594797
 30
0.0
 10
46.1455181285
 20
36.4636413306
 30
0.0
 10
46.2040121146
 20
36.5402204111
 30
0.0
 10
46.2389513924
 20
36.6024770483
 30
0.0
 10
46.2569011256
 20
36.6376790038
 30
0.0
  0
SPLINE
  5
3F8
100
AcDbEntity
  8
DEFAULT_2
100
AcDbSpline
 62
8
  6
HIDDEN
 70
0
 71
3
 72
13
 73
9
 74
0
 42
0.0000001
 43
0.0000001
 44
0.0000000001
 40
0.0
 40
0.0
 40
0.0
 40
0.0
 40
0.3069466244
 40
0.5882343037
 40
0.7130357105
 40
0.8244927892
 40
0.9206448469
 40
1.0
 40
1.0
 40
1.0
 40
1.0
 10
40.0481174655
 20
37.7008929312
 30
0.0
 10
40.0833308181
 20
37.4929922903
 30
0.0
 10
40.1512196692
 20
37.094644571
 30
0.0
 10
40.2403139226
 20
36.612922567
 30
0.0
 10
40.314101496
 20
36.2651055096
 30
0.0
 10
40.3670002083
 20
36.0429210771
 30
0.0
 10
40.419649288
 20
35.8529044024
 30
0.0
 10
40.4583679824
 20
35.7385727851
 30
0.0
 10
40.4784832101
 20
35.6879054368
 30
0.0
  0
SPLINE
  5
3F9
100
AcDbEntity
  8
DEFAULT_2
100
AcDbSpline
 62
8
  6
HIDDEN
 70
0
 71
3
 72
17
 73
13
 74
0
 42
0.0000001
 43
0.0000001
 44
0.0000000001
 40
0.0
 40
0.0
 40
0.0
 40
0.0
 40
0.0268730937
 40
0.0544943973
 40
0.0851939085
 40
0.1206642104
 40
0.2096629336
 40
0.3251177343
 40
0.4656558683
 40
0.6283900445
 40
0.8084547738
 40
1.0
 40
1.0
 40
1.0
 40
1.0
 10
39.0552257647
 20
39.0733664722
 30
0.0
 10
39.0678017393
 20
39.0761561875
 30
0.0
 10
39.0943786425
 20
39.0779752355
 30
0.0
 10
39.1344794651
 20
39.0675597151
 30
0.0
 10
39.1737560802
 20
39.0448317546
 30
0.0
 10
39.2295367922
 20
38.9950821521
 30
0.0
 10
39.2963799846
 20
38.9001282164
 30
0.0
 10
39.3710581862
 20
38.7524547654
 30
0.0
 10
39.4464092523
 20
38.5661933478
 30
0.0
 10
39.5217928986
 20
38.3470677586
 30
0.0
 10
39.5974421663
 20
38.1023243934
 30
0.0
 10
39.6470147816
 20
37.9312259388
 30
0.0
 10
39.6722290003
 20
37.8429382138
 30
0.0
  0
SPLINE
  5
3FA
100
AcDbEntity
  8
DEFAULT_2
100
AcDbSpline
 62
8
  6
HIDDEN
 70
0
 71
3
 72
11
 73
7
 74
0
 42
0.0000001
 43
0.0000001
 44
0.0000000001
 40
0.0
 40
0.0
 40
0.0
 40
0.0
 40
0.1744821376
 40
0.3863588968
 40
0.6591343052
 40
1.0
 40
1.0
 40
1.0
 40
1.0
 10
43.519509426
 20
36.4029051542
 30
0.0
 10
43.5397439453
 20
36.4021958032
 30
0.0
 10
43.5852544363
 20
36.4138294079
 30
0.0
 10
43.6455552677
 20
36.4629576625
 30
0.0
 10
43.7037856063
 20
36.539561701
 30
0.0
 10
43.7386099649
 20
36.6018669996
 30
0.0
 10
43.7565780017
 20
36.6371044713
 30
0.0
  0
SPLINE
  5
3FB
100
AcDbEntity
  8
DEFAULT_2
100
AcDbSpline
 62
8
  6
HIDDEN
 70
0
 71
3
 72
19
 73
15
 74
0
 42
0.0000001
 43
0.0000001
 44
0.0000000001
 40
0.0
 40
0.0
 40
0.0
 40
0.0
 40
0.0385120333
 40
0.0857235422
 40
0.1410500146
 40
0.2034360974
 40
0.3442291561
 40
0.4973994911
 40
0.6509885971
 40
0.7928636583
 40
0.8559743833
 40
0.9121623371
 40
0.9603893839
 40
1.0
 40
1.0
 40
1.0
 40
1.0
 10
49.5720008437
 20
39.9591956686
 30
0.0
 10
49.5933820595
 20
39.9072906065
 30
0.0
 10
49.6342835369
 20
39.7890324901
 30
0.0
 10
49.6897886544
 20
39.5910215102
 30
0.0
 10
49.745400516
 20
39.3570903093
 30
0.0
 10
49.8229867743
 20
38.9883360257
 30
0.0
 10
49.9166788466
 20
38.4773657714
 30
0.0
 10
50.0256361185
 20
37.8341683169
 30
0.0
 10
50.1345502771
 20
37.1893640677
 30
0.0
 10
50.2281495024
 20
36.6750846882
 30
0.0
 10
50.3056676937
 20
36.3023438351
 30
0.0
 10
50.3613373644
 20
36.0645348323
 30
0.0
 10
50.4168664076
 20
35.8620330007
 30
0.0
 10
50.4576632197
 20
35.7405021235
 30
0.0
 10
50.4789629822
 20
35.6868368473
 30
0.0
  0
SPLINE
  5
3FC
100
AcDbEntity
  8
DEFAULT_2
100
AcDbSpline
 62
8
  6
HIDDEN
 70
0
 71
3
 72
11
 73
7
 74
0
 42
0.0000001
 43
0.0000001
 44
0.0000000001
 40
0.0
 40
0.0
 40
0.0
 40
0.0
 40
0.1743296097
 40
0.3864621846
 40
0.6595975858
 40
1.0
 40
1.0
 40
1.0
 40
1.0
 10
41.0197091561
 20
36.4025721543
 30
0.0
 10
41.0399337336
 20
36.4018598659
 30
0.0
 10
41.0854829156
 20
36.4135622367
 30
0.0
 10
41.1456559737
 20
36.4629939192
 30
0.0
 10
41.2037564726
 20
36.539735871
 30
0.0
 10
41.2386404116
 20
36.6020237366
 30
0.0
 10
41.2566039186
 20
36.6372204132
 30
0.0
  0
SPLINE
  5
3FD
100
AcDbEntity
  8
DEFAULT_2
100
AcDbSpline
 62
8
  6
HIDDEN
 70
0
 71
3
 72
13
 73
9
 74
0
 42
0.0000001
 43
0.0000001
 44
0.0000000001
 40
0.0
 40
0.0
 40
0.0
 40
0.0
 40
0.3438173503
 40
0.6193307585
 40
0.7323137732
 40
0.8308787772
 40
0.9184707881
 40
1.0
 40
1.0
 40
1.0
 40
1.0
 10
48.7986669523
 20
38.9334530681
 30
0.0
 10
48.818158868
 20
38.9746186643
 30
0.0
 10
48.8559214128
 20
39.0475304357
 30
0.0
 10
48.9111421033
 20
39.1280477141
 30
0.0
 10
48.9568855247
 20
39.1738425809
 30
0.0
 10
48.989253523
 20
39.1971029351
 30
0.0
 10
49.0220537795
 20
39.2114042014
 30
0.0
 10
49.0445619602
 20
39.21469165
 30
0.0
 10
49.0553625253
 20
39.2146915477
 30
0.0
  0
SPLINE
  5
3FE
100
AcDbEntity
  8
DEFAULT_2
100
AcDbSpline
 62
8
  6
HIDDEN
 70
0
 71
3
 72
13
 73
9
 74
0
 42
0.0000001
 43
0.0000001
 44
0.0000000001
 40
0.0
 40
0.0
 40
0.0
 40
0.0
 40
0.3434613347
 40
0.6183754647
 40
0.7316117712
 40
0.8306208572
 40
0.9184518473
 40
1.0
 40
1.0
 40
1.0
 40
1.0
 10
43.7988839745
 20
38.9342306946
 30
0.0
 10
43.8182592543
 20
38.9752185277
 30
0.0
 10
43.8558635796
 20
39.0477585178
 30
0.0
 10
43.9110814763
 20
39.1277190342
 30
0.0
 10
43.9565824656
 20
39.1734248393
 30
0.0
 10
43.9887612386
 20
39.196895716
 30
0.0
 10
44.0214286166
 20
39.2114411793
 30
0.0
 10
44.0439006935
 20
39.2147430835
 30
0.0
 10
44.0546649691
 20
39.2147375459
 30
0.0
  0
SPLINE
  5
3FF
100
AcDbEntity
  8
DEFAULT_2
100
AcDbSpline
 62
8
  6
HIDDEN
 70
0
 71
3
 72
10
 73
6
 74
0
 42
0.0000001
 43
0.0000001
 44
0.0000000001
 40
0.0
 40
0.0
 40
0.0
 40
0.0
 40
0.5514877624
 40
0.7924372215
 40
1.0
 40
1.0
 40
1.0
 40
1.0
 10
40.3360029899
 20
38.031510469
 30
0.0
 10
40.2835593032
 20
38.2003944569
 30
0.0
 10
40.2066290409
 20
38.4427146378
 30
0.0
 10
40.0936032757
 20
38.7428578893
 30
0.0
 10
40.0351942944
 20
38.8744883116
 30
0.0
 10
40.0049519412
 20
38.9337774944
 30
0.0
  0
SPLINE
  5
400
100
AcDbEntity
  8
DEFAULT_2
100
AcDbSpline
 62
8
  6
HIDDEN
 70
0
 71
3
 72
13
 73
9
 74
0
 42
0.0000001
 43
0.0000001
 44
0.0000000001
 40
0.0
 40
0.0
 40
0.0
 40
0.0
 40
0.3435991381
 40
0.6188013786
 40
0.7319925707
 40
0.8307800807
 40
0.918438647
 40
1.0
 40
1.0
 40
1.0
 40
1.0
 10
41.2988079733
 20
38.9340900753
 30
0.0
 10
41.3182278898
 20
38.9751333891
 30
0.0
 10
41.3559069659
 20
39.0477956916
 30
0.0
 10
41.4111445513
 20
39.1279404606
 30
0.0
 10
41.4567158029
 20
39.173688859
 30
0.0
 10
41.4889793844
 20
39.1970424614
 30
0.0
 10
41.5217371035
 20
39.2113464236
 30
0.0
 10
41.5442050072
 20
39.2146124682
 30
0.0
 10
41.5549831437
 20
39.2146094032
 30
0.0
  0
SPLINE
  5
401
100
AcDbEntity
  8
DEFAULT_2
100
AcDbSpline
 62
8
  6
HIDDEN
 70
0
 71
3
 72
13
 73
9
 74
0
 42
0.0000001
 43
0.0000001
 44
0.0000000001
 40
0.0
 40
0.0
 40
0.0
 40
0.0
 40
0.2632994286
 40
0.3950864572
 40
0.52200478
 40
0.6433185948
 40
0.7610029725
 40
1.0
 40
1.0
 40
1.0
 40
1.0
 10
34.9607122527
 20
37.5877090295
 30
0.0
 10
34.8909217685
 20
37.6445909434
 30
0.0
 10
34.7890931495
 20
37.7334632226
 30
0.0
 10
34.6466046627
 20
37.84122315
 30
0.0
 10
34.5355971176
 20
37.909344673
 30
0.0
 10
34.4202222665
 20
37.9592745517
 30
0.0
 10
34.2595641477
 20
37.994897425
 30
0.0
 10
34.1350156549
 20
37.9825779115
 30
0.0
 10
34.0552282275
 20
37.9648894647
 30
0.0
  0
SPLINE
  5
402
100
AcDbEntity
  8
DEFAULT_2
100
AcDbSpline
 62
8
  6
HIDDEN
 70
0
 71
3
 72
11
 73
7
 74
0
 42
0.0000001
 43
0.0000001
 44
0.0000000001
 40
0.0
 40
0.0
 40
0.0
 40
0.0
 40
0.1741108518
 40
0.3869736502
 40
0.6602903227
 40
1.0
 40
1.0
 40
1.0
 40
1.0
 10
51.0201795284
 20
36.4024158381
 30
0.0
 10
51.0404032654
 20
36.4016964612
 30
0.0
 10
51.0860973344
 20
36.4135596785
 30
0.0
 10
51.1459161544
 20
36.4637033588
 30
0.0
 10
51.2040572063
 20
36.5405157114
 30
0.0
 10
51.2389759021
 20
36.6028349857
 30
0.0
 10
51.2569346437
 20
36.6379981451
 30
0.0
  0
SPLINE
  5
403
100
AcDbEntity
  8
DEFAULT_2
100
AcDbSpline
 62
8
  6
HIDDEN
 70
0
 71
3
 72
19
 73
15
 74
0
 42
0.0000001
 43
0.0000001
 44
0.0000000001
 40
0.0
 40
0.0
 40
0.0
 40
0.0
 40
0.0385836014
 40
0.0858756753
 40
0.1411397938
 40
0.2034863344
 40
0.3443252679
 40
0.4975003407
 40
0.6510468127
 40
0.7929090221
 40
0.8560035705
 40
0.9121372582
 40
0.9603713806
 40
1.0
 40
1.0
 40
1.0
 40
1.0
 10
47.0719888967
 20
39.959800746
 30
0.0
 10
47.0934107621
 20
39.9077860779
 30
0.0
 10
47.1342602164
 20
39.7892417033
 30
0.0
 10
47.1896983566
 20
39.5910343547
 30
0.0
 10
47.2454390365
 20
39.3571111509
 30
0.0
 10
47.3230422781
 20
38.9883567309
 30
0.0
 10
47.4166818533
 20
38.4772431907
 30
0.0
 10
47.5256606458
 20
37.833890742
 30
0.0
 10
47.6346173942
 20
37.1890209794
 30
0.0
 10
47.7282183017
 20
36.6747307261
 30
0.0
 10
47.8057134379
 20
36.3020218139
 30
0.0
 10
47.8614564795
 20
36.0642690072
 30
0.0
 10
47.9169684064
 20
35.8617602844
 30
0.0
 10
47.9577462399
 20
35.7401534042
 30
0.0
 10
47.979059032
 20
35.6864512452
 30
0.0
  0
SPLINE
  5
404
100
AcDbEntity
  8
DEFAULT_2
100
AcDbSpline
 62
8
  6
HIDDEN
 70
0
 71
3
 72
12
 73
8
 74
0
 42
0.0000001
 43
0.0000001
 44
0.0000000001
 40
0.0
 40
0.0
 40
0.0
 40
0.0
 40
0.0788320908
 40
0.1736565049
 40
0.4067690311
 40
0.6877991562
 40
1.0
 40
1.0
 40
1.0
 40
1.0
 10
39.6042199025
 20
39.8189241453
 30
0.0
 10
39.6228754779
 20
39.774057504
 30
0.0
 10
39.6588262314
 20
39.6730993243
 30
0.0
 10
39.7293250572
 20
39.4324290866
 30
0.0
 10
39.8134445226
 20
39.0663585344
 30
0.0
 10
39.9097697528
 20
38.5662060621
 30
0.0
 10
39.9724302638
 20
38.2059378254
 30
0.0
 10
40.0047947598
 20
38.0162443093
 30
0.0
  0
SPLINE
  5
405
100
AcDbEntity
  8
DEFAULT_2
100
AcDbSpline
 62
8
  6
HIDDEN
 70
0
 71
3
 72
13
 73
9
 74
0
 42
0.0000001
 43
0.0000001
 44
0.0000000001
 40
0.0
 40
0.0
 40
0.0
 40
0.0
 40
0.3430675058
 40
0.6179756091
 40
0.7313138726
 40
0.830459267
 40
0.9184169128
 40
1.0
 40
1.0
 40
1.0
 40
1.0
 10
51.2984720138
 20
38.9333517286
 30
0.0
 10
51.3179144467
 20
38.9744100451
 30
0.0
 10
51.3556764285
 20
39.0471027922
 30
0.0
 10
51.4110653235
 20
39.1272649784
 30
0.0
 10
51.4566984418
 20
39.1731709774
 30
0.0
 10
51.4889793729
 20
39.1967933932
 30
0.0
 10
51.521731673
 20
39.2115141625
 30
0.0
 10
51.5442937692
 20
39.2149012559
 30
0.0
 10
51.5550970003
 20
39.2148990486
 30
0.0
  0
SPLINE
  5
406
100
AcDbEntity
  8
DEFAULT_2
100
AcDbSpline
 62
8
  6
HIDDEN
 70
0
 71
3
 72
11
 73
7
 74
0
 42
0.0000001
 43
0.0000001
 44
0.0000000001
 40
0.0
 40
0.0
 40
0.0
 40
0.0
 40
0.3431368204
 40
0.4900042939
 40
0.6206700509
 40
1.0
 40
1.0
 40
1.0
 40
1.0
 10
46.298431288
 20
38.9332428092
 30
0.0
 10
46.3173285881
 20
38.9731358676
 30
0.0
 10
46.3462546478
 20
39.0291699627
 30
0.0
 10
46.3899975226
 20
39.096430131
 30
0.0
 10
46.4407816635
 20
39.1624552874
 30
0.0
 10
46.4983976021
 20
39.2110838477
 30
0.0
 10
46.5470696857
 20
39.2145951665
 30
0.0
  0
SPLINE
  5
407
100
AcDbEntity
  8
DEFAULT_2
100
AcDbSpline
 62
8
  6
HIDDEN
 70
0
 71
3
 72
18
 73
14
 74
0
 42
0.0000001
 43
0.0000001
 44
0.0000000001
 40
0.0
 40
0.0
 40
0.0
 40
0.0
 40
0.0341789272
 40
0.0688637504
 40
0.1065461364
 40
0.1492684955
 40
0.1981990597
 40
0.2537661857
 40
0.3839367406
 40
0.5343459411
 40
0.695248467
 40
0.8546513646
 40
1.0
 40
1.0
 40
1.0
 40
1.0
 10
36.555228626
 20
38.5191252186
 30
0.0
 10
36.5748122711
 20
38.5234459659
 30
0.0
 10
36.6156663573
 20
38.5270375828
 30
0.0
 10
36.6777182916
 20
38.514652828
 30
0.0
 10
36.7389491298
 20
38.4847311681
 30
0.0
 10
36.7991230757
 20
38.4378555782
 30
0.0
 10
36.8587994963
 20
38.3750947558
 30
0.0
 10
36.9425111788
 20
38.2655341556
 30
0.0
 10
37.0432135317
 20
38.0953546071
 30
0.0
 10
37.1586911174
 20
37.8634616592
 30
0.0
 10
37.2741403444
 20
37.6125171467
 30
0.0
 10
37.3892703152
 20
37.3647773467
 30
0.0
 10
37.4713056348
 20
37.205658269
 30
0.0
 10
37.5144813573
 20
37.132110992
 30
0.0
  0
SPLINE
  5
408
100
AcDbEntity
  8
DEFAULT_2
100
AcDbSpline
 62
8
  6
HIDDEN
 70
0
 71
3
 72
19
 73
15
 74
0
 42
0.0000001
 43
0.0000001
 44
0.0000000001
 40
0.0
 40
0.0
 40
0.0
 40
0.0
 40
0.0386029636
 40
0.0859570482
 40
0.1412160005
 40
0.20345739
 40
0.3442920895
 40
0.49734117
 40
0.6507902254
 40
0.7926705819
 40
0.8556875081
 40
0.9119061312
 40
0.9603201355
 40
1.0
 40
1.0
 40
1.0
 40
1.0
 10
44.5722571428
 20
39.9591916342
 30
0.0
 10
44.593690016
 20
39.9071844198
 30
0.0
 10
44.6344754349
 20
39.7885613457
 30
0.0
 10
44.6897989736
 20
39.5903270095
 30
0.0
 10
44.7454730945
 20
39.3565972997
 30
0.0
 10
44.8231533752
 20
38.9882411402
 30
0.0
 10
44.9165018399
 20
38.4777108006
 30
0.0
 10
45.0254630321
 20
37.8350569364
 30
0.0
 10
45.1343676531
 20
37.1908474161
 30
0.0
 10
45.2276920406
 20
36.6770288524
 30
0.0
 10
45.3052887079
 20
36.304516806
 30
0.0
 10
45.3609649565
 20
36.0666084607
 30
0.0
 10
45.4162831208
 20
35.8636922942
 30
0.0
 10
45.4570206904
 20
35.7417838044
 30
0.0
 10
45.4783679592
 20
35.6880491528
 30
0.0
  0
SPLINE
  5
409
100
AcDbEntity
  8
DEFAULT_2
100
AcDbSpline
 62
8
  6
HIDDEN
 70
0
 71
3
 72
17
 73
13
 74
0
 42
0.0000001
 43
0.0000001
 44
0.0000000001
 40
0.0
 40
0.0
 40
0.0
 40
0.0
 40
0.0422959966
 40
0.0915221748
 40
0.2081578542
 40
0.3436628583
 40
0.4899028375
 40
0.6378000588
 40
0.7779144992
 40
0.9012531998
 40
0.9541269196
 40
1.0
 40
1.0
 40
1.0
 40
1.0
 10
37.1569675561
 20
39.2461779234
 30
0.0
 10
37.175615157
 20
39.2049932652
 30
0.0
 10
37.2120244443
 20
39.1140917609
 30
0.0
 10
37.2833011297
 20
38.9032599423
 30
0.0
 10
37.3690178815
 20
38.5925383039
 30
0.0
 10
37.467639484
 20
38.1782843662
 30
0.0
 10
37.5665125617
 20
37.7298032452
 30
0.0
 10
37.6652665752
 20
37.2762610498
 30
0.0
 10
37.7636599309
 20
36.8477262577
 30
0.0
 10
37.8485514123
 20
36.5202900584
 30
0.0
 10
37.9190149056
 20
36.2935592043
 30
0.0
 10
37.9550218792
 20
36.1942628929
 30
0.0
 10
37.9734519919
 20
36.1488252796
 30
0.0
  0
SPLINE
  5
40A
100
AcDbEntity
  8
DEFAULT_2
100
AcDbSpline
 62
8
  6
HIDDEN
 70
0
 71
3
 72
19
 73
15
 74
0
 42
0.0000001
 43
0.0000001
 44
0.0000000001
 40
0.0
 40
0.0
 40
0.0
 40
0.0
 40
0.0617559556
 40
0.1029948282
 40
0.1520561079
 40
0.2086691616
 40
0.2722549472
 40
0.4163984145
 40
0.4942931085
 40
0.5741075913
 40
0.7326950812
 40
0.8786893599
 40
0.9430523211
 40
1.0
 40
1.0
 40
1.0
 40
1.0
 10
38.4928826039
 20
36.6811154105
 30
0.0
 10
38.450982517
 20
36.6904876626
 30
0.0
 10
38.3897159799
 20
36.7365023296
 30
0.0
 10
38.3233365316
 20
36.8178279803
 30
0.0
 10
38.2679196162
 20
36.9041552182
 30
0.0
 10
38.2121537317
 20
37.0077545254
 30
0.0
 10
38.1336121322
 20
37.1740154167
 30
0.0
 10
38.0586432611
 20
37.3579863965
 30
0.0
 10
37.9828919839
 20
37.5536891683
 30
0.0
 10
37.9047275904
 20
37.7592394724
 30
0.0
 10
37.8086200384
 20
38.008579014
 30
0.0
 10
37.7072293537
 20
38.2444707553
 30
0.0
 10
37.6213957218
 20
38.4094001118
 30
0.0
 10
37.5769448656
 20
38.481254724
 30
0.0
 10
37.5541422209
 20
38.5136215346
 30
0.0
  0
SPLINE
  5
40B
100
AcDbEntity
  8
DEFAULT_2
100
AcDbSpline
 62
8
  6
HIDDEN
 70
0
 71
3
 72
19
 73
15
 74
0
 42
0.0000001
 43
0.0000001
 44
0.0000000001
 40
0.0
 40
0.0
 40
0.0
 40
0.0
 40
0.0385998383
 40
0.0859221698
 40
0.1411413506
 40
0.2033560651
 40
0.344170622
 40
0.4972163852
 40
0.650670404
 40
0.7926271497
 40
0.8556756079
 40
0.9118930822
 40
0.9603031596
 40
1.0
 40
1.0
 40
1.0
 40
1.0
 10
52.0720250323
 20
39.9597451453
 30
0.0
 10
52.0934500369
 20
39.9077318291
 30
0.0
 10
52.1342436223
 20
39.7891500716
 30
0.0
 10
52.1895925806
 20
39.5910078862
 30
0.0
 10
52.2452893518
 20
39.3573990874
 30
0.0
 10
52.3229896632
 20
38.9891265657
 30
0.0
 10
52.4163535367
 20
38.4786056242
 30
0.0
 10
52.5253316954
 20
37.8358973706
 30
0.0
 10
52.634295952
 20
37.1914979265
 30
0.0
 10
52.727608938
 20
36.6774424716
 30
0.0
 10
52.8052057734
 20
36.3047217693
 30
0.0
 10
52.8609048903
 20
36.0667461891
 30
0.0
 10
52.9162630182
 20
35.8637963029
 30
0.0
 10
52.956981125
 20
35.7418436805
 30
0.0
 10
52.9783398568
 20
35.6880790002
 30
0.0
  0
SPLINE
  5
40C
100
AcDbEntity
  8
DEFAULT_2
100
AcDbSpline
 62
8
  6
HIDDEN
 70
0
 71
3
 72
14
 73
10
 74
0
 42
0.0000001
 43
0.0000001
 44
0.0000000001
 40
0.0
 40
0.0
 40
0.0
 40
0.0
 40
0.0996047779
 40
0.2157878171
 40
0.3445705821
 40
0.4810421145
 40
0.7562276305
 40
0.8843940163
 40
1.0
 40
1.0
 40
1.0
 40
1.0
 10
34.7353266129
 20
38.7241659694
 30
0.0
 10
34.7655639183
 20
38.6655953809
 30
0.0
 10
34.8235024819
 20
38.5348362757
 30
0.0
 10
34.9031421316
 20
38.3211266215
 30
0.0
 10
34.9825958325
 20
38.0814907598
 30
0.0
 10
35.088712206
 20
37.7399519684
 30
0.0
 10
35.1910236002
 20
37.3976494826
 30
0.0
 10
35.2979372981
 20
37.0712652191
 30
0.0
 10
35.353158448
 20
36.9196163968
 30
0.0
 10
35.3815268192
 20
36.8485661819
 30
0.0
  0
SPLINE
  5
40D
100
AcDbEntity
  8
DEFAULT_2
100
AcDbSpline
 62
8
  6
HIDDEN
 70
0
 71
3
 72
11
 73
7
 74
0
 42
0.0000001
 43
0.0000001
 44
0.0000000001
 40
0.0
 40
0.0
 40
0.0
 40
0.0
 40
0.2500126786
 40
0.5000007917
 40
0.7499880028
 40
1.0
 40
1.0
 40
1.0
 40
1.0
 10
75.9346050161
 20
33.6601889263
 30
0.0
 10
75.8804542838
 20
33.8477725654
 30
0.0
 10
75.7900626147
 20
34.2287266416
 30
0.0
 10
75.7389275751
 20
34.8148906243
 30
0.0
 10
75.7900638134
 20
35.4010538416
 30
0.0
 10
75.8804544314
 20
35.7820068752
 30
0.0
 10
75.9346050161
 20
35.9695900031
 30
0.0
  0
SPLINE
  5
40E
100
AcDbEntity
  8
DEFAULT_2
100
AcDbSpline
 62
8
  6
HIDDEN
 70
0
 71
3
 72
11
 73
7
 74
0
 42
0.0000001
 43
0.0000001
 44
0.0000000001
 40
0.0
 40
0.0
 40
0.0
 40
0.0
 40
0.2574278162
 40
0.5000007908
 40
0.7425729806
 40
1.0
 40
1.0
 40
1.0
 40
1.0
 10
75.9346050161
 20
35.9695900031
 30
0.0
 10
75.8822874276
 20
36.0602067244
 30
0.0
 10
75.7928695274
 20
36.2444866692
 30
0.0
 10
75.7380714017
 20
36.5469409366
 30
0.0
 10
75.7928706769
 20
36.8493944438
 30
0.0
 10
75.8822875895
 20
37.0336741005
 30
0.0
 10
75.9346050161
 20
37.1242905414
 30
0.0
  0
SPLINE
  5
40F
100
AcDbEntity
  8
DEFAULT_2
100
AcDbSpline
 62
8
  6
HIDDEN
 70
0
 71
3
 72
15
 73
11
 74
0
 42
0.0000001
 43
0.0000001
 44
0.0000000001
 40
0.0
 40
0.0
 40
0.0
 40
0.0
 40
0.1417099404
 40
0.2702338757
 40
0.3880850351
 40
0.5
 40
0.6119149649
 40
0.7297661243
 40
0.8582900596
 40
1.0
 40
1.0
 40
1.0
 40
1.0
 10
78.1786219519
 20
32.5054883879
 30
0.0
 10
78.1290676888
 20
32.5465766123
 30
0.0
 10
78.0399591846
 20
32.6319327239
 30
0.0
 10
77.9360822547
 20
32.7758156697
 30
0.0
 10
77.8720437193
 20
32.9272139891
 30
0.0
 10
77.8502794856
 20
33.0828386571
 30
0.0
 10
77.8720437193
 20
33.2384633252
 30
0.0
 10
77.9360822547
 20
33.3898616446
 30
0.0
 10
78.0399591846
 20
33.5337445903
 30
0.0
 10
78.1290676888
 20
33.6191007019
 30
0.0
 10
78.1786219519
 20
33.6601889263
 30
0.0
  0
SPLINE
  5
410
100
AcDbEntity
  8
DEFAULT_2
100
AcDbSpline
 62
8
  6
HIDDEN
 70
0
 71
3
 72
15
 73
11
 74
0
 42
0.0000001
 43
0.0000001
 44
0.0000000001
 40
0.0
 40
0.0
 40
0.0
 40
0.0
 40
0.1417099404
 40
0.2702338757
 40
0.3880850351
 40
0.5
 40
0.6119149649
 40
0.7297661243
 40
0.8582900596
 40
1.0
 40
1.0
 40
1.0
 40
1.0
 10
78.1786219519
 20
35.9695900031
 30
0.0
 10
78.1290676888
 20
36.0106782274
 30
0.0
 10
78.0399591846
 20
36.0960343391
 30
0.0
 10
77.9360822547
 20
36.2399172848
 30
0.0
 10
77.8720437193
 20
36.3913156042
 30
0.0
 10
77.8502794856
 20
36.5469402722
 30
0.0
 10
77.8720437193
 20
36.7025649403
 30
0.0
 10
77.9360822547
 20
36.8539632597
 30
0.0
 10
78.0399591846
 20
36.9978462054
 30
0.0
 10
78.1290676888
 20
37.0832023171
 30
0.0
 10
78.1786219519
 20
37.1242905414
 30
0.0
  0
SPLINE
  5
411
100
AcDbEntity
  8
DEFAULT_2
100
AcDbSpline
 62
8
  6
HIDDEN
 70
0
 71
3
 72
11
 73
7
 74
0
 42
0.0000001
 43
0.0000001
 44
0.0000000001
 40
0.0
 40
0.0
 40
0.0
 40
0.0
 40
0.2574278162
 40
0.5000007908
 40
0.7425729806
 40
1.0
 40
1.0
 40
1.0
 40
1.0
 10
75.9346050161
 20
32.5054883879
 30
0.0
 10
75.8822874276
 20
32.5961051093
 30
0.0
 10
75.7928695274
 20
32.780385054
 30
0.0
 10
75.7380714017
 20
33.0828393215
 30
0.0
 10
75.7928706769
 20
33.3852928287
 30
0.0
 10
75.8822875895
 20
33.5695724854
 30
0.0
 10
75.9346050161
 20
33.6601889263
 30
0.0
  0
SPLINE
  5
412
100
AcDbEntity
  8
DEFAULT_2
100
AcDbSpline
 62
8
  6
HIDDEN
 70
0
 71
3
 72
9
 73
5
 74
0
 42
0.0000001
 43
0.0000001
 44
0.0000000001
 40
0.0
 40
0.0
 40
0.0
 40
0.0
 40
0.4535848523
 40
1.0
 40
1.0
 40
1.0
 40
1.0
 10
65.5482299556
 20
77.575879447
 30
0.0
 10
65.5614186012
 20
77.5758907477
 30
0.0
 10
65.5904471354
 20
77.5710837542
 30
0.0
 10
65.6179149425
 20
77.5613699509
 30
0.0
 10
65.6326069494
 20
77.5553228002
 30
0.0
  0
SPLINE
  5
413
100
AcDbEntity
  8
DEFAULT_2
100
AcDbSpline
 62
8
  6
HIDDEN
 70
0
 71
3
 72
10
 73
6
 74
0
 42
0.0000001
 43
0.0000001
 44
0.0000000001
 40
0.0
 40
0.0
 40
0.0
 40
0.0
 40
0.1905091682
 40
0.4235949525
 40
1.0
 40
1.0
 40
1.0
 40
1.0
 10
65.5482299556
 20
90.575879447
 30
0.0
 10
65.5629827123
 20
90.5758920879
 30
0.0
 10
65.5956991241
 20
90.5698894063
 30
0.0
 10
65.6681684091
 20
90.542258355
 30
0.0
 10
65.7224592609
 20
90.510044338
 30
0.0
 10
65.759877427
 20
90.485708089
 30
0.0
  0
SPLINE
  5
414
100
AcDbEntity
  8
DEFAULT_2
100
AcDbSpline
 62
8
  6
HIDDEN
 70
0
 71
3
 72
9
 73
5
 74
0
 42
0.0000001
 43
0.0000001
 44
0.0000000001
 40
0.0
 40
0.0
 40
0.0
 40
0.0
 40
0.4535848523
 40
1.0
 40
1.0
 40
1.0
 40
1.0
 10
65.5482299556
 20
83.0538994823
 30
0.0
 10
65.5614186012
 20
83.0538881817
 30
0.0
 10
65.5904471354
 20
83.0586951752
 30
0.0
 10
65.6179149425
 20
83.0684089785
 30
0.0
 10
65.6326069494
 20
83.0744561292
 30
0.0
  0
SPLINE
  5
415
100
AcDbEntity
  8
DEFAULT_2
100
AcDbSpline
 62
8
  6
HIDDEN
 70
0
 71
3
 72
10
 73
6
 74
0
 42
0.0000001
 43
0.0000001
 44
0.0000000001
 40
0.0
 40
0.0
 40
0.0
 40
0.0
 40
0.1905091682
 40
0.4235949525
 40
1.0
 40
1.0
 40
1.0
 40
1.0
 10
65.5482299556
 20
100.575879447
 30
0.0
 10
65.5629827123
 20
100.5758920879
 30
0.0
 10
65.5956991241
 20
100.5698894063
 30
0.0
 10
65.6681684091
 20
100.542258355
 30
0.0
 10
65.7224592609
 20
100.510044338
 30
0.0
 10
65.759877427
 20
100.485708089
 30
0.0
  0
SPLINE
  5
416
100
AcDbEntity
  8
DEFAULT_2
100
AcDbSpline
 62
8
  6
HIDDEN
 70
0
 71
3
 72
9
 73
5
 74
0
 42
0.0000001
 43
0.0000001
 44
0.0000000001
 40
0.0
 40
0.0
 40
0.0
 40
0.0
 40
0.4535848523
 40
1.0
 40
1.0
 40
1.0
 40
1.0
 10
65.5482299556
 20
93.0538994823
 30
0.0
 10
65.5614186012
 20
93.0538881817
 30
0.0
 10
65.5904471354
 20
93.0586951752
 30
0.0
 10
65.6179149425
 20
93.0684089785
 30
0.0
 10
65.6326069494
 20
93.0744561292
 30
0.0
  0
SPLINE
  5
417
100
AcDbEntity
  8
DEFAULT_2
100
AcDbSpline
 62
8
  6
HIDDEN
 70
0
 71
3
 72
10
 73
6
 74
0
 42
0.0000001
 43
0.0000001
 44
0.0000000001
 40
0.0
 40
0.0
 40
0.0
 40
0.0
 40
0.1905091682
 40
0.4235949525
 40
1.0
 40
1.0
 40
1.0
 40
1.0
 10
65.5482299556
 20
110.575879447
 30
0.0
 10
65.5629827123
 20
110.5758920879
 30
0.0
 10
65.5956991241
 20
110.5698894063
 30
0.0
 10
65.6681684091
 20
110.542258355
 30
0.0
 10
65.7224592609
 20
110.510044338
 30
0.0
 10
65.759877427
 20
110.485708089
 30
0.0
  0
SPLINE
  5
418
100
AcDbEntity
  8
DEFAULT_2
100
AcDbSpline
 62
8
  6
HIDDEN
 70
0
 71
3
 72
9
 73
5
 74
0
 42
0.0000001
 43
0.0000001
 44
0.0000000001
 40
0.0
 40
0.0
 40
0.0
 40
0.0
 40
0.4535848523
 40
1.0
 40
1.0
 40
1.0
 40
1.0
 10
65.5482299556
 20
103.0538994823
 30
0.0
 10
65.5614186012
 20
103.0538881817
 30
0.0
 10
65.5904471354
 20
103.0586951752
 30
0.0
 10
65.6179149425
 20
103.0684089785
 30
0.0
 10
65.6326069494
 20
103.0744561292
 30
0.0
  0
SPLINE
  5
419
100
AcDbEntity
  8
DEFAULT_2
100
AcDbSpline
 62
8
  6
HIDDEN
 70
0
 71
3
 72
10
 73
6
 74
0
 42
0.0000001
 43
0.0000001
 44
0.0000000001
 40
0.0
 40
0.0
 40
0.0
 40
0.0
 40
0.1905091682
 40
0.4235949525
 40
1.0
 40
1.0
 40
1.0
 40
1.0
 10
65.5482299556
 20
77.575879447
 30
0.0
 10
65.5629827123
 20
77.5758920879
 30
0.0
 10
65.5956991241
 20
77.5698894063
 30
0.0
 10
65.6681684091
 20
77.542258355
 30
0.0
 10
65.7224592609
 20
77.510044338
 30
0.0
 10
65.759877427
 20
77.485708089
 30
0.0
  0
SPLINE
  5
41A
100
AcDbEntity
  8
DEFAULT_2
100
AcDbSpline
 62
8
  6
HIDDEN
 70
0
 71
3
 72
9
 73
5
 74
0
 42
0.0000001
 43
0.0000001
 44
0.0000000001
 40
0.0
 40
0.0
 40
0.0
 40
0.0
 40
0.4535848523
 40
1.0
 40
1.0
 40
1.0
 40
1.0
 10
65.5482299556
 20
70.0538994823
 30
0.0
 10
65.5614186012
 20
70.0538881817
 30
0.0
 10
65.5904471354
 20
70.0586951752
 30
0.0
 10
65.6179149425
 20
70.0684089785
 30
0.0
 10
65.6326069494
 20
70.0744561292
 30
0.0
  0
SPLINE
  5
41B
100
AcDbEntity
  8
DEFAULT_2
100
AcDbSpline
 62
8
  6
HIDDEN
 70
0
 71
3
 72
10
 73
6
 74
0
 42
0.0000001
 43
0.0000001
 44
0.0000000001
 40
0.0
 40
0.0
 40
0.0
 40
0.0
 40
0.5762939399
 40
0.8094449452
 40
1.0
 40
1.0
 40
1.0
 40
1.0
 10
65.759877427
 20
70.1440708404
 30
0.0
 10
65.7224654537
 20
70.1197386191
 30
0.0
 10
65.6681796232
 20
70.0875167935
 30
0.0
 10
65.595704204
 20
70.0598986331
 30
0.0
 10
65.5629813297
 20
70.053881916
 30
0.0
 10
65.5482246143
 20
70.0538903636
 30
0.0
  0
SPLINE
  5
41C
100
AcDbEntity
  8
DEFAULT_2
100
AcDbSpline
 62
8
  6
HIDDEN
 70
0
 71
3
 72
9
 73
5
 74
0
 42
0.0000001
 43
0.0000001
 44
0.0000000001
 40
0.0
 40
0.0
 40
0.0
 40
0.0
 40
0.2461840844
 40
1.0
 40
1.0
 40
1.0
 40
1.0
 10
66.407640585
 20
70.5894542159
 30
0.0
 10
66.355731203
 20
70.5511453069
 30
0.0
 10
66.1432061999
 20
70.3977942722
 30
0.0
 10
65.9254779848
 20
70.2517751143
 30
0.0
 10
65.759877427
 20
70.1440708404
 30
0.0
  0
SPLINE
  5
41D
100
AcDbEntity
  8
DEFAULT_2
100
AcDbSpline
 62
8
  6
HIDDEN
 70
0
 71
3
 72
9
 73
5
 74
0
 42
0.0000001
 43
0.0000001
 44
0.0000000001
 40
0.0
 40
0.0
 40
0.0
 40
0.0
 40
0.2534247132
 40
1.0
 40
1.0
 40
1.0
 40
1.0
 10
65.759877427
 20
77.485708089
 30
0.0
 10
65.8155494492
 20
77.4494997887
 30
0.0
 10
66.0344936922
 20
77.3055165194
 30
0.0
 10
66.2502238008
 20
77.1564976484
 30
0.0
 10
66.407640585
 20
77.0403247135
 30
0.0
  0
SPLINE
  5
41E
100
AcDbEntity
  8
DEFAULT_2
100
AcDbSpline
 62
8
  6
HIDDEN
 70
0
 71
3
 72
9
 73
5
 74
0
 42
0.0000001
 43
0.0000001
 44
0.0000000001
 40
0.0
 40
0.0
 40
0.0
 40
0.0
 40
0.2478634737
 40
1.0
 40
1.0
 40
1.0
 40
1.0
 10
66.407640585
 20
77.0403247135
 30
0.0
 10
66.3829207641
 20
77.058567839
 30
0.0
 10
66.2828165709
 20
77.1316643887
 30
0.0
 10
66.1813619657
 20
77.2029013908
 30
0.0
 10
66.1045228447
 20
77.2556940713
 30
0.0
  0
SPLINE
  5
41F
100
AcDbEntity
  8
DEFAULT_2
100
AcDbSpline
 62
8
  6
HIDDEN
 70
0
 71
3
 72
10
 73
6
 74
0
 42
0.0000001
 43
0.0000001
 44
0.0000000001
 40
0.0
 40
0.0
 40
0.0
 40
0.0
 40
0.5762939399
 40
0.8094449452
 40
1.0
 40
1.0
 40
1.0
 40
1.0
 10
65.759877427
 20
103.1440708404
 30
0.0
 10
65.7224654537
 20
103.1197386191
 30
0.0
 10
65.6681796232
 20
103.0875167935
 30
0.0
 10
65.595704204
 20
103.0598986331
 30
0.0
 10
65.5629813297
 20
103.053881916
 30
0.0
 10
65.5482246143
 20
103.0538903636
 30
0.0
  0
SPLINE
  5
420
100
AcDbEntity
  8
DEFAULT_2
100
AcDbSpline
 62
8
  6
HIDDEN
 70
0
 71
3
 72
9
 73
5
 74
0
 42
0.0000001
 43
0.0000001
 44
0.0000000001
 40
0.0
 40
0.0
 40
0.0
 40
0.0
 40
0.2520258882
 40
1.0
 40
1.0
 40
1.0
 40
1.0
 10
66.1045228818
 20
103.3740848803
 30
0.0
 10
66.1302700517
 20
103.3917745805
 30
0.0
 10
66.232188875
 20
103.4623147963
 30
0.0
 10
66.3330441832
 20
103.5344023802
 30
0.0
 10
66.407640585
 20
103.5894542159
 30
0.0
  0
SPLINE
  5
421
100
AcDbEntity
  8
DEFAULT_2
100
AcDbSpline
 62
8
  6
HIDDEN
 70
0
 71
3
 72
9
 73
5
 74
0
 42
0.0000001
 43
0.0000001
 44
0.0000000001
 40
0.0
 40
0.0
 40
0.0
 40
0.0
 40
0.2461840832
 40
1.0
 40
1.0
 40
1.0
 40
1.0
 10
66.4076407322
 20
103.589454324
 30
0.0
 10
66.3557313392
 20
103.5511454052
 30
0.0
 10
66.1432062888
 20
103.397794332
 30
0.0
 10
65.9254780236
 20
103.2517751395
 30
0.0
 10
65.759877427
 20
103.1440708404
 30
0.0
  0
SPLINE
  5
422
100
AcDbEntity
  8
DEFAULT_2
100
AcDbSpline
 62
8
  6
HIDDEN
 70
0
 71
3
 72
9
 73
5
 74
0
 42
0.0000001
 43
0.0000001
 44
0.0000000001
 40
0.0
 40
0.0
 40
0.0
 40
0.0
 40
0.2534247132
 40
1.0
 40
1.0
 40
1.0
 40
1.0
 10
65.759877427
 20
110.485708089
 30
0.0
 10
65.8155494492
 20
110.4494997887
 30
0.0
 10
66.0344936922
 20
110.3055165194
 30
0.0
 10
66.2502238008
 20
110.1564976484
 30
0.0
 10
66.407640585
 20
110.0403247135
 30
0.0
  0
SPLINE
  5
423
100
AcDbEntity
  8
DEFAULT_2
100
AcDbSpline
 62
8
  6
HIDDEN
 70
0
 71
3
 72
9
 73
5
 74
0
 42
0.0000001
 43
0.0000001
 44
0.0000000001
 40
0.0
 40
0.0
 40
0.0
 40
0.0
 40
0.2478634737
 40
1.0
 40
1.0
 40
1.0
 40
1.0
 10
66.407640585
 20
110.0403247135
 30
0.0
 10
66.3829207641
 20
110.058567839
 30
0.0
 10
66.2828165709
 20
110.1316643887
 30
0.0
 10
66.1813619657
 20
110.2029013908
 30
0.0
 10
66.1045228447
 20
110.2556940713
 30
0.0
  0
SPLINE
  5
424
100
AcDbEntity
  8
DEFAULT_2
100
AcDbSpline
 62
8
  6
HIDDEN
 70
0
 71
3
 72
10
 73
6
 74
0
 42
0.0000001
 43
0.0000001
 44
0.0000000001
 40
0.0
 40
0.0
 40
0.0
 40
0.0
 40
0.5762939399
 40
0.8094449452
 40
1.0
 40
1.0
 40
1.0
 40
1.0
 10
65.759877427
 20
93.1440708404
 30
0.0
 10
65.7224654537
 20
93.1197386191
 30
0.0
 10
65.6681796232
 20
93.0875167935
 30
0.0
 10
65.595704204
 20
93.0598986331
 30
0.0
 10
65.5629813297
 20
93.053881916
 30
0.0
 10
65.5482246143
 20
93.0538903636
 30
0.0
  0
SPLINE
  5
425
100
AcDbEntity
  8
DEFAULT_2
100
AcDbSpline
 62
8
  6
HIDDEN
 70
0
 71
3
 72
9
 73
5
 74
0
 42
0.0000001
 43
0.0000001
 44
0.0000000001
 40
0.0
 40
0.0
 40
0.0
 40
0.0
 40
0.2520258884
 40
1.0
 40
1.0
 40
1.0
 40
1.0
 10
66.1045228477
 20
77.2556940725
 30
0.0
 10
66.1302700205
 20
77.2380043704
 30
0.0
 10
66.2321888553
 20
77.167464147
 30
0.0
 10
66.3330441749
 20
77.0953765553
 30
0.0
 10
66.407640585
 20
77.0403247135
 30
0.0
  0
SPLINE
  5
426
100
AcDbEntity
  8
DEFAULT_2
100
AcDbSpline
 62
8
  6
HIDDEN
 70
0
 71
3
 72
9
 73
5
 74
0
 42
0.0000001
 43
0.0000001
 44
0.0000000001
 40
0.0
 40
0.0
 40
0.0
 40
0.0
 40
0.2520258884
 40
1.0
 40
1.0
 40
1.0
 40
1.0
 10
66.1045228477
 20
93.3740848568
 30
0.0
 10
66.1302700205
 20
93.391774559
 30
0.0
 10
66.2321888553
 20
93.4623147823
 30
0.0
 10
66.3330441749
 20
93.5344023741
 30
0.0
 10
66.407640585
 20
93.5894542159
 30
0.0
  0
SPLINE
  5
427
100
AcDbEntity
  8
DEFAULT_2
100
AcDbSpline
 62
8
  6
HIDDEN
 70
0
 71
3
 72
9
 73
5
 74
0
 42
0.0000001
 43
0.0000001
 44
0.0000000001
 40
0.0
 40
0.0
 40
0.0
 40
0.0
 40
0.2461840844
 40
1.0
 40
1.0
 40
1.0
 40
1.0
 10
66.407640585
 20
93.5894542159
 30
0.0
 10
66.355731203
 20
93.5511453069
 30
0.0
 10
66.1432061999
 20
93.3977942722
 30
0.0
 10
65.9254779848
 20
93.2517751143
 30
0.0
 10
65.759877427
 20
93.1440708404
 30
0.0
  0
SPLINE
  5
428
100
AcDbEntity
  8
DEFAULT_2
100
AcDbSpline
 62
8
  6
HIDDEN
 70
0
 71
3
 72
9
 73
5
 74
0
 42
0.0000001
 43
0.0000001
 44
0.0000000001
 40
0.0
 40
0.0
 40
0.0
 40
0.0
 40
0.2478634737
 40
1.0
 40
1.0
 40
1.0
 40
1.0
 10
66.407640585
 20
70.5894542159
 30
0.0
 10
66.3829207641
 20
70.5712110904
 30
0.0
 10
66.2828165709
 20
70.4981145406
 30
0.0
 10
66.1813619657
 20
70.4268775386
 30
0.0
 10
66.1045228447
 20
70.374084858
 30
0.0
  0
SPLINE
  5
429
100
AcDbEntity
  8
DEFAULT_2
100
AcDbSpline
 62
8
  6
HIDDEN
 70
0
 71
3
 72
9
 73
5
 74
0
 42
0.0000001
 43
0.0000001
 44
0.0000000001
 40
0.0
 40
0.0
 40
0.0
 40
0.0
 40
0.2520258884
 40
1.0
 40
1.0
 40
1.0
 40
1.0
 10
66.1045228477
 20
70.3740848568
 30
0.0
 10
66.1302700205
 20
70.391774559
 30
0.0
 10
66.2321888553
 20
70.4623147823
 30
0.0
 10
66.3330441749
 20
70.5344023741
 30
0.0
 10
66.407640585
 20
70.5894542159
 30
0.0
  0
SPLINE
  5
42A
100
AcDbEntity
  8
DEFAULT_2
100
AcDbSpline
 62
8
  6
HIDDEN
 70
0
 71
3
 72
9
 73
5
 74
0
 42
0.0000001
 43
0.0000001
 44
0.0000000001
 40
0.0
 40
0.0
 40
0.0
 40
0.0
 40
0.2534247132
 40
1.0
 40
1.0
 40
1.0
 40
1.0
 10
65.759877427
 20
100.485708089
 30
0.0
 10
65.8155494492
 20
100.4494997887
 30
0.0
 10
66.0344936922
 20
100.3055165194
 30
0.0
 10
66.2502238008
 20
100.1564976484
 30
0.0
 10
66.407640585
 20
100.0403247135
 30
0.0
  0
SPLINE
  5
42B
100
AcDbEntity
  8
DEFAULT_2
100
AcDbSpline
 62
8
  6
HIDDEN
 70
0
 71
3
 72
9
 73
5
 74
0
 42
0.0000001
 43
0.0000001
 44
0.0000000001
 40
0.0
 40
0.0
 40
0.0
 40
0.0
 40
0.2478634707
 40
1.0
 40
1.0
 40
1.0
 40
1.0
 10
66.4076409939
 20
100.0403244117
 30
0.0
 10
66.3829211494
 20
100.0585675567
 30
0.0
 10
66.2828168587
 20
100.1316641851
 30
0.0
 10
66.1813621527
 20
100.2029012612
 30
0.0
 10
66.1045229545
 20
100.2556939959
 30
0.0
  0
SPLINE
  5
42C
100
AcDbEntity
  8
DEFAULT_2
100
AcDbSpline
 62
8
  6
HIDDEN
 70
0
 71
3
 72
10
 73
6
 74
0
 42
0.0000001
 43
0.0000001
 44
0.0000000001
 40
0.0
 40
0.0
 40
0.0
 40
0.0
 40
0.5762939399
 40
0.8094449452
 40
1.0
 40
1.0
 40
1.0
 40
1.0
 10
65.759877427
 20
83.1440708404
 30
0.0
 10
65.7224654537
 20
83.1197386191
 30
0.0
 10
65.6681796232
 20
83.0875167935
 30
0.0
 10
65.595704204
 20
83.0598986331
 30
0.0
 10
65.5629813297
 20
83.053881916
 30
0.0
 10
65.5482246143
 20
83.0538903636
 30
0.0
  0
SPLINE
  5
42D
100
AcDbEntity
  8
DEFAULT_2
100
AcDbSpline
 62
8
  6
HIDDEN
 70
0
 71
3
 72
9
 73
5
 74
0
 42
0.0000001
 43
0.0000001
 44
0.0000000001
 40
0.0
 40
0.0
 40
0.0
 40
0.0
 40
0.2478634737
 40
1.0
 40
1.0
 40
1.0
 40
1.0
 10
66.407640585
 20
90.0403247135
 30
0.0
 10
66.3829207641
 20
90.058567839
 30
0.0
 10
66.2828165709
 20
90.1316643887
 30
0.0
 10
66.1813619657
 20
90.2029013908
 30
0.0
 10
66.1045228447
 20
90.2556940713
 30
0.0
  0
SPLINE
  5
42E
100
AcDbEntity
  8
DEFAULT_2
100
AcDbSpline
 62
8
  6
HIDDEN
 70
0
 71
3
 72
9
 73
5
 74
0
 42
0.0000001
 43
0.0000001
 44
0.0000000001
 40
0.0
 40
0.0
 40
0.0
 40
0.0
 40
0.2520258884
 40
1.0
 40
1.0
 40
1.0
 40
1.0
 10
66.1045228477
 20
83.3740848568
 30
0.0
 10
66.1302700205
 20
83.391774559
 30
0.0
 10
66.2321888553
 20
83.4623147823
 30
0.0
 10
66.3330441749
 20
83.5344023741
 30
0.0
 10
66.407640585
 20
83.5894542159
 30
0.0
  0
SPLINE
  5
42F
100
AcDbEntity
  8
DEFAULT_2
100
AcDbSpline
 62
8
  6
HIDDEN
 70
0
 71
3
 72
9
 73
5
 74
0
 42
0.0000001
 43
0.0000001
 44
0.0000000001
 40
0.0
 40
0.0
 40
0.0
 40
0.0
 40
0.2534247132
 40
1.0
 40
1.0
 40
1.0
 40
1.0
 10
65.759877427
 20
90.485708089
 30
0.0
 10
65.8155494492
 20
90.4494997887
 30
0.0
 10
66.0344936922
 20
90.3055165194
 30
0.0
 10
66.2502238008
 20
90.1564976484
 30
0.0
 10
66.407640585
 20
90.0403247135
 30
0.0
  0
SPLINE
  5
430
100
AcDbEntity
  8
DEFAULT_2
100
AcDbSpline
 62
8
  6
HIDDEN
 70
0
 71
3
 72
9
 73
5
 74
0
 42
0.0000001
 43
0.0000001
 44
0.0000000001
 40
0.0
 40
0.0
 40
0.0
 40
0.0
 40
0.2461840844
 40
1.0
 40
1.0
 40
1.0
 40
1.0
 10
66.407640585
 20
83.5894542159
 30
0.0
 10
66.355731203
 20
83.5511453069
 30
0.0
 10
66.1432061999
 20
83.3977942722
 30
0.0
 10
65.9254779848
 20
83.2517751143
 30
0.0
 10
65.759877427
 20
83.1440708404
 30
0.0
  0
SPLINE
  5
431
100
AcDbEntity
  8
DEFAULT_2
100
AcDbSpline
 62
8
  6
HIDDEN
 70
0
 71
3
 72
15
 73
11
 74
0
 42
0.0000001
 43
0.0000001
 44
0.0000000001
 40
0.0
 40
0.0
 40
0.0
 40
0.0
 40
0.1022856589
 40
0.2076514828
 40
0.3188524521
 40
0.4394051744
 40
0.5706989798
 40
0.710313669
 40
0.8544405363
 40
1.0
 40
1.0
 40
1.0
 40
1.0
 10
66.407640585
 20
107.7426884653
 30
0.0
 10
66.4518893633
 20
107.7719370929
 30
0.0
 10
66.536678622
 20
107.8395859783
 30
0.0
 10
66.6415942071
 20
107.9693839457
 30
0.0
 10
66.7131845888
 20
108.1314327573
 30
0.0
 10
66.7372339401
 20
108.3207286026
 30
0.0
 10
66.7092410249
 20
108.5236785489
 30
0.0
 10
66.6375273126
 20
108.7276802358
 30
0.0
 10
66.5343282376
 20
108.9255143537
 30
0.0
 10
66.4515344511
 20
109.0511181923
 30
0.0
 10
66.407640585
 20
109.1125257129
 30
0.0
  0
SPLINE
  5
432
100
AcDbEntity
  8
DEFAULT_2
100
AcDbSpline
 62
8
  6
HIDDEN
 70
0
 71
3
 72
15
 73
11
 74
0
 42
0.0000001
 43
0.0000001
 44
0.0000000001
 40
0.0
 40
0.0
 40
0.0
 40
0.0
 40
0.1082523564
 40
0.2268784064
 40
0.3584563168
 40
0.5001420992
 40
0.6417730919
 40
0.7732658494
 40
0.8917830519
 40
1.0
 40
1.0
 40
1.0
 40
1.0
 10
65.759877427
 20
107.3437698644
 30
0.0
 10
65.7208957947
 20
107.3210617305
 30
0.0
 10
65.6452264336
 20
107.2622786929
 30
0.0
 10
65.5545190505
 20
107.1414668309
 30
0.0
 10
65.4930537494
 20
106.9881395346
 30
0.0
 10
65.4711320303
 20
106.8147316641
 30
0.0
 10
65.4931170047
 20
106.6413663705
 30
0.0
 10
65.5546179238
 20
106.4881679673
 30
0.0
 10
65.6452858461
 20
106.3674531886
 30
0.0
 10
65.7209085919
 20
106.3087097336
 30
0.0
 10
65.7598774768
 20
106.2860090326
 30
0.0
  0
SPLINE
  5
433
100
AcDbEntity
  8
DEFAULT_2
100
AcDbSpline
 62
8
  6
HIDDEN
 70
0
 71
3
 72
9
 73
5
 74
0
 42
0.0000001
 43
0.0000001
 44
0.0000000001
 40
0.0
 40
0.0
 40
0.0
 40
0.0
 40
0.2539309258
 40
1.0
 40
1.0
 40
1.0
 40
1.0
 10
65.7598774839
 20
106.2860090326
 30
0.0
 10
65.8155210629
 20
106.2535947454
 30
0.0
 10
66.0340241324
 20
106.1248921103
 30
0.0
 10
66.2498040196
 20
105.9914210946
 30
0.0
 10
66.407640585
 20
105.8870904641
 30
0.0
  0
SPLINE
  5
434
100
AcDbEntity
  8
DEFAULT_2
100
AcDbSpline
 62
8
  6
HIDDEN
 70
0
 71
3
 72
8
 73
4
 74
0
 42
0.0000001
 43
0.0000001
 44
0.0000000001
 40
0.0
 40
0.0
 40
0.0
 40
0.0
 40
1.0
 40
1.0
 40
1.0
 40
1.0
 10
66.407640585
 20
104.5172532165
 30
0.0
 10
66.2013656413
 20
104.2286745608
 30
0.0
 10
65.9833265764
 20
103.9484461956
 30
0.0
 10
65.759877427
 20
103.6729512401
 30
0.0
  0
SPLINE
  5
435
100
AcDbEntity
  8
DEFAULT_2
100
AcDbSpline
 62
8
  6
HIDDEN
 70
0
 71
3
 72
17
 73
13
 74
0
 42
0.0000001
 43
0.0000001
 44
0.0000000001
 40
0.0
 40
0.0
 40
0.0
 40
0.0
 40
0.0616409424
 40
0.0911346644
 40
0.1247400701
 40
0.1652809364
 40
0.2141636867
 40
0.3362375254
 40
0.4845525578
 40
0.6494472601
 40
0.8232193025
 40
1.0
 40
1.0
 40
1.0
 40
1.0
 10
65.5482246143
 20
110.5758885658
 30
0.0
 10
65.533105766
 20
110.5758799109
 30
0.0
 10
65.5090134265
 20
110.5707263888
 30
0.0
 10
65.4884017441
 20
110.5469169755
 30
0.0
 10
65.4799469638
 20
110.5224878925
 30
0.0
 10
65.4776537645
 20
110.4921827665
 30
0.0
 10
65.4831741279
 20
110.4404097788
 30
0.0
 10
65.5061704945
 20
110.3649916126
 30
0.0
 10
65.5503952937
 20
110.2676869422
 30
0.0
 10
65.6097451409
 20
110.1638520901
 30
0.0
 10
65.680276984
 20
110.0588338797
 30
0.0
 10
65.7325640027
 20
109.99050296
 30
0.0
 10
65.759877427
 20
109.9568276892
 30
0.0
  0
SPLINE
  5
436
100
AcDbEntity
  8
DEFAULT_2
100
AcDbSpline
 62
8
  6
HIDDEN
 70
0
 71
3
 72
15
 73
11
 74
0
 42
0.0000001
 43
0.0000001
 44
0.0000000001
 40
0.0
 40
0.0
 40
0.0
 40
0.0
 40
0.1022856589
 40
0.2076514828
 40
0.3188524521
 40
0.4394051744
 40
0.5706989798
 40
0.710313669
 40
0.8544405363
 40
1.0
 40
1.0
 40
1.0
 40
1.0
 10
66.407640585
 20
74.7426884653
 30
0.0
 10
66.4518893633
 20
74.7719370929
 30
0.0
 10
66.536678622
 20
74.8395859783
 30
0.0
 10
66.6415942071
 20
74.9693839457
 30
0.0
 10
66.7131845888
 20
75.1314327573
 30
0.0
 10
66.7372339401
 20
75.3207286026
 30
0.0
 10
66.7092410249
 20
75.5236785489
 30
0.0
 10
66.6375273126
 20
75.7276802358
 30
0.0
 10
66.5343282376
 20
75.9255143537
 30
0.0
 10
66.4515344511
 20
76.0511181923
 30
0.0
 10
66.407640585
 20
76.1125257129
 30
0.0
  0
SPLINE
  5
437
100
AcDbEntity
  8
DEFAULT_2
100
AcDbSpline
 62
8
  6
HIDDEN
 70
0
 71
3
 72
8
 73
4
 74
0
 42
0.0000001
 43
0.0000001
 44
0.0000000001
 40
0.0
 40
0.0
 40
0.0
 40
0.0
 40
1.0
 40
1.0
 40
1.0
 40
1.0
 10
65.759877427
 20
109.9568276892
 30
0.0
 10
65.9833265764
 20
109.6813327337
 30
0.0
 10
66.2013656413
 20
109.4011043685
 30
0.0
 10
66.407640585
 20
109.1125257129
 30
0.0
  0
SPLINE
  5
438
100
AcDbEntity
  8
DEFAULT_2
100
AcDbSpline
 62
8
  6
HIDDEN
 70
0
 71
3
 72
9
 73
5
 74
0
 42
0.0000001
 43
0.0000001
 44
0.0000000001
 40
0.0
 40
0.0
 40
0.0
 40
0.0
 40
0.2456105399
 40
1.0
 40
1.0
 40
1.0
 40
1.0
 10
66.407640585
 20
107.7426884653
 30
0.0
 10
66.355678873
 20
107.7083415561
 30
0.0
 10
66.1426718467
 20
107.5706838619
 30
0.0
 10
65.9251888785
 20
107.4400694384
 30
0.0
 10
65.759877427
 20
107.3437698644
 30
0.0
  0
SPLINE
  5
439
100
AcDbEntity
  8
DEFAULT_2
100
AcDbSpline
 62
8
  6
HIDDEN
 70
0
 71
3
 72
15
 73
11
 74
0
 42
0.0000001
 43
0.0000001
 44
0.0000000001
 40
0.0
 40
0.0
 40
0.0
 40
0.0
 40
0.1455692679
 40
0.2897329038
 40
0.4293659982
 40
0.5606622888
 40
0.6812067183
 40
0.7923844091
 40
0.8977216643
 40
1.0
 40
1.0
 40
1.0
 40
1.0
 10
66.407640585
 20
94.5172532165
 30
0.0
 10
66.4515374429
 20
94.5786649227
 30
0.0
 10
66.5343469187
 20
94.7042871184
 30
0.0
 10
66.6375607408
 20
94.9021537584
 30
0.0
 10
66.7092456935
 20
95.1061978055
 30
0.0
 10
66.7372333533
 20
95.3091520966
 30
0.0
 10
66.7131831877
 20
95.4984369097
 30
0.0
 10
66.6415578194
 20
95.6604363123
 30
0.0
 10
66.5366587304
 20
95.7902030807
 30
0.0
 10
66.4518862309
 20
95.857843907
 30
0.0
 10
66.407640585
 20
95.8870904641
 30
0.0
  0
SPLINE
  5
43A
100
AcDbEntity
  8
DEFAULT_2
100
AcDbSpline
 62
8
  6
HIDDEN
 70
0
 71
3
 72
17
 73
13
 74
0
 42
0.0000001
 43
0.0000001
 44
0.0000000001
 40
0.0
 40
0.0
 40
0.0
 40
0.0
 40
0.1767879415
 40
0.3506281223
 40
0.5156099261
 40
0.6639287276
 40
0.7859487176
 40
0.8348441693
 40
0.8753602575
 40
0.9088979192
 40
0.9383917408
 40
1.0
 40
1.0
 40
1.0
 40
1.0
 10
65.7598773959
 20
93.6729511971
 30
0.0
 10
65.7325624947
 20
93.6392741042
 30
0.0
 10
65.680262455
 20
93.5709281253
 30
0.0
 10
65.609714171
 20
93.4658716742
 30
0.0
 10
65.5503380667
 20
93.3620031811
 30
0.0
 10
65.5061379117
 20
93.2646785361
 30
0.0
 10
65.4831589413
 20
93.1892558361
 30
0.0
 10
65.4776675435
 20
93.1375057818
 30
0.0
 10
65.4799147876
 20
93.107202964
 30
0.0
 10
65.4884684397
 20
93.0828425719
 30
0.0
 10
65.5089998437
 20
93.0589993319
 30
0.0
 10
65.5331189285
 20
93.0539124302
 30
0.0
 10
65.5482299556
 20
93.0538994823
 30
0.0
  0
SPLINE
  5
43B
100
AcDbEntity
  8
DEFAULT_2
100
AcDbSpline
 62
8
  6
HIDDEN
 70
0
 71
3
 72
17
 73
13
 74
0
 42
0.0000001
 43
0.0000001
 44
0.0000000001
 40
0.0
 40
0.0
 40
0.0
 40
0.0
 40
0.0616409424
 40
0.0911346644
 40
0.1247400701
 40
0.1652809364
 40
0.2141636867
 40
0.3362375254
 40
0.4845525578
 40
0.6494472601
 40
0.8232193025
 40
1.0
 40
1.0
 40
1.0
 40
1.0
 10
65.5482246143
 20
77.5758885658
 30
0.0
 10
65.533105766
 20
77.5758799109
 30
0.0
 10
65.5090134265
 20
77.5707263888
 30
0.0
 10
65.4884017441
 20
77.5469169755
 30
0.0
 10
65.4799469638
 20
77.5224878925
 30
0.0
 10
65.4776537645
 20
77.4921827665
 30
0.0
 10
65.4831741279
 20
77.4404097788
 30
0.0
 10
65.5061704945
 20
77.3649916126
 30
0.0
 10
65.5503952937
 20
77.2676869422
 30
0.0
 10
65.6097451409
 20
77.1638520901
 30
0.0
 10
65.680276984
 20
77.0588338797
 30
0.0
 10
65.7325640027
 20
76.99050296
 30
0.0
 10
65.759877427
 20
76.9568276892
 30
0.0
  0
SPLINE
  5
43C
100
AcDbEntity
  8
DEFAULT_2
100
AcDbSpline
 62
8
  6
HIDDEN
 70
0
 71
3
 72
17
 73
13
 74
0
 42
0.0000001
 43
0.0000001
 44
0.0000000001
 40
0.0
 40
0.0
 40
0.0
 40
0.0
 40
0.0616409424
 40
0.0911346644
 40
0.1247400701
 40
0.1652809364
 40
0.2141636867
 40
0.3362375254
 40
0.4845525578
 40
0.6494472601
 40
0.8232193025
 40
1.0
 40
1.0
 40
1.0
 40
1.0
 10
65.5482246143
 20
90.5758885658
 30
0.0
 10
65.533105766
 20
90.5758799109
 30
0.0
 10
65.5090134265
 20
90.5707263888
 30
0.0
 10
65.4884017441
 20
90.5469169755
 30
0.0
 10
65.4799469638
 20
90.5224878925
 30
0.0
 10
65.4776537645
 20
90.4921827665
 30
0.0
 10
65.4831741279
 20
90.4404097788
 30
0.0
 10
65.5061704945
 20
90.3649916126
 30
0.0
 10
65.5503952937
 20
90.2676869422
 30
0.0
 10
65.6097451409
 20
90.1638520901
 30
0.0
 10
65.680276984
 20
90.0588338797
 30
0.0
 10
65.7325640027
 20
89.99050296
 30
0.0
 10
65.759877427
 20
89.9568276892
 30
0.0
  0
SPLINE
  5
43D
100
AcDbEntity
  8
DEFAULT_2
100
AcDbSpline
 62
8
  6
HIDDEN
 70
0
 71
3
 72
17
 73
13
 74
0
 42
0.0000001
 43
0.0000001
 44
0.0000000001
 40
0.0
 40
0.0
 40
0.0
 40
0.0
 40
0.0616409424
 40
0.0911346644
 40
0.1247400701
 40
0.1652809364
 40
0.2141636867
 40
0.3362375254
 40
0.4845525578
 40
0.6494472601
 40
0.8232193025
 40
1.0
 40
1.0
 40
1.0
 40
1.0
 10
65.5482246143
 20
100.5758885658
 30
0.0
 10
65.533105766
 20
100.5758799109
 30
0.0
 10
65.5090134265
 20
100.5707263888
 30
0.0
 10
65.4884017441
 20
100.5469169755
 30
0.0
 10
65.4799469638
 20
100.5224878925
 30
0.0
 10
65.4776537645
 20
100.4921827665
 30
0.0
 10
65.4831741279
 20
100.4404097788
 30
0.0
 10
65.5061704945
 20
100.3649916126
 30
0.0
 10
65.5503952937
 20
100.2676869422
 30
0.0
 10
65.6097451409
 20
100.1638520901
 30
0.0
 10
65.680276984
 20
100.0588338797
 30
0.0
 10
65.7325640027
 20
99.99050296
 30
0.0
 10
65.759877427
 20
99.9568276892
 30
0.0
  0
SPLINE
  5
43E
100
AcDbEntity
  8
DEFAULT_2
100
AcDbSpline
 62
8
  6
HIDDEN
 70
0
 71
3
 72
15
 73
11
 74
0
 42
0.0000001
 43
0.0000001
 44
0.0000000001
 40
0.0
 40
0.0
 40
0.0
 40
0.0
 40
0.1082523564
 40
0.2268784064
 40
0.3584563168
 40
0.5001420992
 40
0.6417730919
 40
0.7732658494
 40
0.8917830519
 40
1.0
 40
1.0
 40
1.0
 40
1.0
 10
65.759877427
 20
97.3437698644
 30
0.0
 10
65.7208957947
 20
97.3210617305
 30
0.0
 10
65.6452264336
 20
97.2622786929
 30
0.0
 10
65.5545190505
 20
97.1414668309
 30
0.0
 10
65.4930537494
 20
96.9881395346
 30
0.0
 10
65.4711320303
 20
96.8147316641
 30
0.0
 10
65.4931170047
 20
96.6413663705
 30
0.0
 10
65.5546179238
 20
96.4881679673
 30
0.0
 10
65.6452858461
 20
96.3674531886
 30
0.0
 10
65.7209085919
 20
96.3087097336
 30
0.0
 10
65.7598774768
 20
96.2860090326
 30
0.0
  0
SPLINE
  5
43F
100
AcDbEntity
  8
DEFAULT_2
100
AcDbSpline
 62
8
  6
HIDDEN
 70
0
 71
3
 72
9
 73
5
 74
0
 42
0.0000001
 43
0.0000001
 44
0.0000000001
 40
0.0
 40
0.0
 40
0.0
 40
0.0
 40
0.2456105372
 40
1.0
 40
1.0
 40
1.0
 40
1.0
 10
66.4076408403
 20
74.7426886342
 30
0.0
 10
66.355679109
 20
74.7083417098
 30
0.0
 10
66.1426720007
 20
74.5706839546
 30
0.0
 10
65.9251889456
 20
74.4400694774
 30
0.0
 10
65.759877427
 20
74.3437698644
 30
0.0
  0
SPLINE
  5
440
100
AcDbEntity
  8
DEFAULT_2
100
AcDbSpline
 62
8
  6
HIDDEN
 70
0
 71
3
 72
9
 73
5
 74
0
 42
0.0000001
 43
0.0000001
 44
0.0000000001
 40
0.0
 40
0.0
 40
0.0
 40
0.0
 40
0.2539309258
 40
1.0
 40
1.0
 40
1.0
 40
1.0
 10
65.7598774839
 20
96.2860090326
 30
0.0
 10
65.8155210629
 20
96.2535947454
 30
0.0
 10
66.0340241324
 20
96.1248921103
 30
0.0
 10
66.2498040196
 20
95.9914210946
 30
0.0
 10
66.407640585
 20
95.8870904641
 30
0.0
  0
SPLINE
  5
441
100
AcDbEntity
  8
DEFAULT_2
100
AcDbSpline
 62
8
  6
HIDDEN
 70
0
 71
3
 72
8
 73
4
 74
0
 42
0.0000001
 43
0.0000001
 44
0.0000000001
 40
0.0
 40
0.0
 40
0.0
 40
0.0
 40
1.0
 40
1.0
 40
1.0
 40
1.0
 10
66.407640585
 20
94.5172532165
 30
0.0
 10
66.2013656357
 20
94.2286745529
 30
0.0
 10
65.9833265929
 20
93.9484461584
 30
0.0
 10
65.7598774352
 20
93.6729511971
 30
0.0
  0
SPLINE
  5
442
100
AcDbEntity
  8
DEFAULT_2
100
AcDbSpline
 62
8
  6
HIDDEN
 70
0
 71
3
 72
8
 73
4
 74
0
 42
0.0000001
 43
0.0000001
 44
0.0000000001
 40
0.0
 40
0.0
 40
0.0
 40
0.0
 40
1.0
 40
1.0
 40
1.0
 40
1.0
 10
66.407640585
 20
71.5172532165
 30
0.0
 10
66.2013656413
 20
71.2286745608
 30
0.0
 10
65.9833265764
 20
70.9484461956
 30
0.0
 10
65.759877427
 20
70.6729512401
 30
0.0
  0
SPLINE
  5
443
100
AcDbEntity
  8
DEFAULT_2
100
AcDbSpline
 62
8
  6
HIDDEN
 70
0
 71
3
 72
9
 73
5
 74
0
 42
0.0000001
 43
0.0000001
 44
0.0000000001
 40
0.0
 40
0.0
 40
0.0
 40
0.0
 40
0.2539309255
 40
1.0
 40
1.0
 40
1.0
 40
1.0
 10
65.759877427
 20
73.2860090649
 30
0.0
 10
65.8155210105
 20
73.2535947746
 30
0.0
 10
66.0340240994
 20
73.1248921296
 30
0.0
 10
66.2498040059
 20
72.9914211036
 30
0.0
 10
66.407640585
 20
72.8870904641
 30
0.0
  0
SPLINE
  5
444
100
AcDbEntity
  8
DEFAULT_2
100
AcDbSpline
 62
8
  6
HIDDEN
 70
0
 71
3
 72
15
 73
11
 74
0
 42
0.0000001
 43
0.0000001
 44
0.0000000001
 40
0.0
 40
0.0
 40
0.0
 40
0.0
 40
0.108252355
 40
0.2268784026
 40
0.3584563097
 40
0.5001420893
 40
0.6417730821
 40
0.7732658424
 40
0.8917830483
 40
1.0
 40
1.0
 40
1.0
 40
1.0
 10
65.759877427
 20
74.3437698644
 30
0.0
 10
65.720895797
 20
74.3210617319
 30
0.0
 10
65.6452264405
 20
74.2622786988
 30
0.0
 10
65.5545190607
 20
74.1414668473
 30
0.0
 10
65.4930537579
 20
73.988139564
 30
0.0
 10
65.4711320311
 20
73.8147317056
 30
0.0
 10
65.493116993
 20
73.6413664189
 30
0.0
 10
65.5546178973
 20
73.4881680159
 30
0.0
 10
65.6452858053
 20
73.3674532297
 30
0.0
 10
65.7209085458
 20
73.3087097709
 30
0.0
 10
65.759877427
 20
73.2860090649
 30
0.0
  0
SPLINE
  5
445
100
AcDbEntity
  8
DEFAULT_2
100
AcDbSpline
 62
8
  6
HIDDEN
 70
0
 71
3
 72
9
 73
5
 74
0
 42
0.0000001
 43
0.0000001
 44
0.0000000001
 40
0.0
 40
0.0
 40
0.0
 40
0.0
 40
0.2456105347
 40
1.0
 40
1.0
 40
1.0
 40
1.0
 10
66.4076410849
 20
97.7426887958
 30
0.0
 10
66.3556793352
 20
97.7083418568
 30
0.0
 10
66.1426721482
 20
97.5706840434
 30
0.0
 10
65.9251890098
 20
97.4400695149
 30
0.0
 10
65.759877427
 20
97.3437698644
 30
0.0
  0
SPLINE
  5
446
100
AcDbEntity
  8
DEFAULT_2
100
AcDbSpline
 62
8
  6
HIDDEN
 70
0
 71
3
 72
15
 73
11
 74
0
 42
0.0000001
 43
0.0000001
 44
0.0000000001
 40
0.0
 40
0.0
 40
0.0
 40
0.0
 40
0.1455692679
 40
0.2897329038
 40
0.4293659982
 40
0.5606622888
 40
0.6812067183
 40
0.7923844091
 40
0.8977216643
 40
1.0
 40
1.0
 40
1.0
 40
1.0
 10
66.407640585
 20
84.5172532165
 30
0.0
 10
66.4515374429
 20
84.5786649227
 30
0.0
 10
66.5343469187
 20
84.7042871184
 30
0.0
 10
66.6375607408
 20
84.9021537584
 30
0.0
 10
66.7092456935
 20
85.1061978055
 30
0.0
 10
66.7372333533
 20
85.3091520966
 30
0.0
 10
66.7131831877
 20
85.4984369097
 30
0.0
 10
66.6415578194
 20
85.6604363123
 30
0.0
 10
66.5366587304
 20
85.7902030807
 30
0.0
 10
66.4518862309
 20
85.857843907
 30
0.0
 10
66.407640585
 20
85.8870904641
 30
0.0
  0
SPLINE
  5
447
100
AcDbEntity
  8
DEFAULT_2
100
AcDbSpline
 62
8
  6
HIDDEN
 70
0
 71
3
 72
17
 73
13
 74
0
 42
0.0000001
 43
0.0000001
 44
0.0000000001
 40
0.0
 40
0.0
 40
0.0
 40
0.0
 40
0.1767879383
 40
0.3506281175
 40
0.5156099211
 40
0.6639287242
 40
0.7859487171
 40
0.8348441701
 40
0.8753602593
 40
0.9088979212
 40
0.9383917425
 40
1.0
 40
1.0
 40
1.0
 40
1.0
 10
65.759877427
 20
83.6729512401
 30
0.0
 10
65.7325625237
 20
83.639274146
 30
0.0
 10
65.6802624806
 20
83.5709281633
 30
0.0
 10
65.6097141915
 20
83.4658717062
 30
0.0
 10
65.55033808
 20
83.3620032073
 30
0.0
 10
65.5061379189
 20
83.2646785555
 30
0.0
 10
65.4831589441
 20
83.1892558495
 30
0.0
 10
65.4776675436
 20
83.1375057904
 30
0.0
 10
65.4799147864
 20
83.1072029697
 30
0.0
 10
65.4884684377
 20
83.0828425752
 30
0.0
 10
65.5089998416
 20
83.0589993325
 30
0.0
 10
65.5331189278
 20
83.0539124302
 30
0.0
 10
65.5482299556
 20
83.0538994823
 30
0.0
  0
SPLINE
  5
448
100
AcDbEntity
  8
DEFAULT_2
100
AcDbSpline
 62
8
  6
HIDDEN
 70
0
 71
3
 72
8
 73
4
 74
0
 42
0.0000001
 43
0.0000001
 44
0.0000000001
 40
0.0
 40
0.0
 40
0.0
 40
0.0
 40
1.0
 40
1.0
 40
1.0
 40
1.0
 10
65.759877427
 20
76.9568276892
 30
0.0
 10
65.9833265764
 20
76.6813327337
 30
0.0
 10
66.2013656413
 20
76.4011043685
 30
0.0
 10
66.407640585
 20
76.1125257129
 30
0.0
  0
SPLINE
  5
449
100
AcDbEntity
  8
DEFAULT_2
100
AcDbSpline
 62
8
  6
HIDDEN
 70
0
 71
3
 72
15
 73
11
 74
0
 42
0.0000001
 43
0.0000001
 44
0.0000000001
 40
0.0
 40
0.0
 40
0.0
 40
0.0
 40
0.1022856578
 40
0.2076514834
 40
0.3188524577
 40
0.4394051858
 40
0.5706989937
 40
0.7103136805
 40
0.8544405426
 40
1.0
 40
1.0
 40
1.0
 40
1.0
 10
66.4076408278
 20
87.7426886253
 30
0.0
 10
66.4518895878
 20
87.7719372617
 30
0.0
 10
66.536678808
 20
87.839586164
 30
0.0
 10
66.6415943285
 20
87.9693841476
 30
0.0
 10
66.7131846416
 20
88.1314329602
 30
0.0
 10
66.7372339338
 20
88.3207287826
 30
0.0
 10
66.7092409865
 20
88.5236786874
 30
0.0
 10
66.6375272698
 20
88.7276803264
 30
0.0
 10
66.5343282098
 20
88.9255143969
 30
0.0
 10
66.4515344411
 20
89.0511182063
 30
0.0
 10
66.407640585
 20
89.1125257129
 30
0.0
  0
SPLINE
  5
44A
100
AcDbEntity
  8
DEFAULT_2
100
AcDbSpline
 62
8
  6
HIDDEN
 70
0
 71
3
 72
15
 73
11
 74
0
 42
0.0000001
 43
0.0000001
 44
0.0000000001
 40
0.0
 40
0.0
 40
0.0
 40
0.0
 40
0.108252355
 40
0.2268784026
 40
0.3584563097
 40
0.5001420893
 40
0.6417730821
 40
0.7732658424
 40
0.8917830483
 40
1.0
 40
1.0
 40
1.0
 40
1.0
 10
65.759877427
 20
87.3437698644
 30
0.0
 10
65.720895797
 20
87.3210617319
 30
0.0
 10
65.6452264405
 20
87.2622786988
 30
0.0
 10
65.5545190607
 20
87.1414668473
 30
0.0
 10
65.4930537579
 20
86.988139564
 30
0.0
 10
65.4711320311
 20
86.8147317056
 30
0.0
 10
65.493116993
 20
86.6413664189
 30
0.0
 10
65.5546178973
 20
86.4881680159
 30
0.0
 10
65.6452858053
 20
86.3674532297
 30
0.0
 10
65.7209085458
 20
86.3087097709
 30
0.0
 10
65.759877427
 20
86.2860090649
 30
0.0
  0
SPLINE
  5
44B
100
AcDbEntity
  8
DEFAULT_2
100
AcDbSpline
 62
8
  6
HIDDEN
 70
0
 71
3
 72
17
 73
13
 74
0
 42
0.0000001
 43
0.0000001
 44
0.0000000001
 40
0.0
 40
0.0
 40
0.0
 40
0.0
 40
0.1767879383
 40
0.3506281175
 40
0.5156099211
 40
0.6639287242
 40
0.7859487171
 40
0.8348441701
 40
0.8753602593
 40
0.9088979212
 40
0.9383917425
 40
1.0
 40
1.0
 40
1.0
 40
1.0
 10
65.759877427
 20
70.6729512401
 30
0.0
 10
65.7325625237
 20
70.639274146
 30
0.0
 10
65.6802624806
 20
70.5709281633
 30
0.0
 10
65.6097141915
 20
70.4658717062
 30
0.0
 10
65.55033808
 20
70.3620032073
 30
0.0
 10
65.5061379189
 20
70.2646785555
 30
0.0
 10
65.4831589441
 20
70.1892558495
 30
0.0
 10
65.4776675436
 20
70.1375057904
 30
0.0
 10
65.4799147864
 20
70.1072029697
 30
0.0
 10
65.4884684377
 20
70.0828425752
 30
0.0
 10
65.5089998416
 20
70.0589993325
 30
0.0
 10
65.5331189278
 20
70.0539124302
 30
0.0
 10
65.5482299556
 20
70.0538994823
 30
0.0
  0
SPLINE
  5
44C
100
AcDbEntity
  8
DEFAULT_2
100
AcDbSpline
 62
8
  6
HIDDEN
 70
0
 71
3
 72
15
 73
11
 74
0
 42
0.0000001
 43
0.0000001
 44
0.0000000001
 40
0.0
 40
0.0
 40
0.0
 40
0.0
 40
0.1455692679
 40
0.2897329038
 40
0.4293659982
 40
0.5606622888
 40
0.6812067183
 40
0.7923844091
 40
0.8977216643
 40
1.0
 40
1.0
 40
1.0
 40
1.0
 10
66.407640585
 20
71.5172532165
 30
0.0
 10
66.4515374429
 20
71.5786649227
 30
0.0
 10
66.5343469187
 20
71.7042871184
 30
0.0
 10
66.6375607408
 20
71.9021537584
 30
0.0
 10
66.7092456935
 20
72.1061978055
 30
0.0
 10
66.7372333533
 20
72.3091520966
 30
0.0
 10
66.7131831877
 20
72.4984369097
 30
0.0
 10
66.6415578194
 20
72.6604363123
 30
0.0
 10
66.5366587304
 20
72.7902030807
 30
0.0
 10
66.4518862309
 20
72.857843907
 30
0.0
 10
66.407640585
 20
72.8870904641
 30
0.0
  0
SPLINE
  5
44D
100
AcDbEntity
  8
DEFAULT_2
100
AcDbSpline
 62
8
  6
HIDDEN
 70
0
 71
3
 72
9
 73
5
 74
0
 42
0.0000001
 43
0.0000001
 44
0.0000000001
 40
0.0
 40
0.0
 40
0.0
 40
0.0
 40
0.2456105374
 40
1.0
 40
1.0
 40
1.0
 40
1.0
 10
66.4076408274
 20
87.7426886253
 30
0.0
 10
66.3556790971
 20
87.7083417017
 30
0.0
 10
66.1426719928
 20
87.5706839499
 30
0.0
 10
65.9251889421
 20
87.4400694754
 30
0.0
 10
65.759877427
 20
87.3437698644
 30
0.0
  0
SPLINE
  5
44E
100
AcDbEntity
  8
DEFAULT_2
100
AcDbSpline
 62
8
  6
HIDDEN
 70
0
 71
3
 72
8
 73
4
 74
0
 42
0.0000001
 43
0.0000001
 44
0.0000000001
 40
0.0
 40
0.0
 40
0.0
 40
0.0
 40
1.0
 40
1.0
 40
1.0
 40
1.0
 10
65.759877427
 20
89.9568276892
 30
0.0
 10
65.9833265764
 20
89.6813327337
 30
0.0
 10
66.2013656413
 20
89.4011043685
 30
0.0
 10
66.407640585
 20
89.1125257129
 30
0.0
  0
SPLINE
  5
44F
100
AcDbEntity
  8
DEFAULT_2
100
AcDbSpline
 62
8
  6
HIDDEN
 70
0
 71
3
 72
9
 73
5
 74
0
 42
0.0000001
 43
0.0000001
 44
0.0000000001
 40
0.0
 40
0.0
 40
0.0
 40
0.0
 40
0.2539309255
 40
1.0
 40
1.0
 40
1.0
 40
1.0
 10
65.759877427
 20
86.2860090649
 30
0.0
 10
65.8155210105
 20
86.2535947746
 30
0.0
 10
66.0340240994
 20
86.1248921296
 30
0.0
 10
66.2498040059
 20
85.9914211036
 30
0.0
 10
66.407640585
 20
85.8870904641
 30
0.0
  0
SPLINE
  5
450
100
AcDbEntity
  8
DEFAULT_2
100
AcDbSpline
 62
8
  6
HIDDEN
 70
0
 71
3
 72
8
 73
4
 74
0
 42
0.0000001
 43
0.0000001
 44
0.0000000001
 40
0.0
 40
0.0
 40
0.0
 40
0.0
 40
1.0
 40
1.0
 40
1.0
 40
1.0
 10
66.407640585
 20
84.5172532165
 30
0.0
 10
66.2013656413
 20
84.2286745608
 30
0.0
 10
65.9833265764
 20
83.9484461956
 30
0.0
 10
65.759877427
 20
83.6729512401
 30
0.0
  0
SPLINE
  5
451
100
AcDbEntity
  8
DEFAULT_2
100
AcDbSpline
 62
8
  6
HIDDEN
 70
0
 71
3
 72
15
 73
11
 74
0
 42
0.0000001
 43
0.0000001
 44
0.0000000001
 40
0.0
 40
0.0
 40
0.0
 40
0.0
 40
0.1455692679
 40
0.2897329038
 40
0.4293659982
 40
0.5606622888
 40
0.6812067183
 40
0.7923844091
 40
0.8977216643
 40
1.0
 40
1.0
 40
1.0
 40
1.0
 10
66.407640585
 20
104.5172532165
 30
0.0
 10
66.4515374429
 20
104.5786649227
 30
0.0
 10
66.5343469187
 20
104.7042871184
 30
0.0
 10
66.6375607408
 20
104.9021537584
 30
0.0
 10
66.7092456935
 20
105.1061978055
 30
0.0
 10
66.7372333533
 20
105.3091520966
 30
0.0
 10
66.7131831877
 20
105.4984369097
 30
0.0
 10
66.6415578194
 20
105.6604363123
 30
0.0
 10
66.5366587304
 20
105.7902030807
 30
0.0
 10
66.4518862309
 20
105.857843907
 30
0.0
 10
66.407640585
 20
105.8870904641
 30
0.0
  0
SPLINE
  5
452
100
AcDbEntity
  8
DEFAULT_2
100
AcDbSpline
 62
8
  6
HIDDEN
 70
0
 71
3
 72
17
 73
13
 74
0
 42
0.0000001
 43
0.0000001
 44
0.0000000001
 40
0.0
 40
0.0
 40
0.0
 40
0.0
 40
0.1767879383
 40
0.3506281175
 40
0.5156099211
 40
0.6639287242
 40
0.7859487171
 40
0.8348441701
 40
0.8753602593
 40
0.9088979212
 40
0.9383917425
 40
1.0
 40
1.0
 40
1.0
 40
1.0
 10
65.759877427
 20
103.6729512401
 30
0.0
 10
65.7325625237
 20
103.639274146
 30
0.0
 10
65.6802624806
 20
103.5709281633
 30
0.0
 10
65.6097141915
 20
103.4658717062
 30
0.0
 10
65.55033808
 20
103.3620032073
 30
0.0
 10
65.5061379189
 20
103.2646785555
 30
0.0
 10
65.4831589441
 20
103.1892558495
 30
0.0
 10
65.4776675436
 20
103.1375057904
 30
0.0
 10
65.4799147864
 20
103.1072029697
 30
0.0
 10
65.4884684377
 20
103.0828425752
 30
0.0
 10
65.5089998416
 20
103.0589993325
 30
0.0
 10
65.5331189278
 20
103.0539124302
 30
0.0
 10
65.5482299556
 20
103.0538994823
 30
0.0
  0
SPLINE
  5
453
100
AcDbEntity
  8
DEFAULT_2
100
AcDbSpline
 62
8
  6
HIDDEN
 70
0
 71
3
 72
9
 73
5
 74
0
 42
0.0000001
 43
0.0000001
 44
0.0000000001
 40
0.0
 40
0.0
 40
0.0
 40
0.0
 40
0.5464731167
 40
1.0
 40
1.0
 40
1.0
 40
1.0
 10
65.6325786436
 20
90.5553348712
 30
0.0
 10
65.6178889893
 20
90.5613778497
 30
0.0
 10
65.5904285592
 20
90.5710805669
 30
0.0
 10
65.5614123854
 20
90.5758955239
 30
0.0
 10
65.5482299508
 20
90.5758885687
 30
0.0
  0
SPLINE
  5
454
100
AcDbEntity
  8
DEFAULT_2
100
AcDbSpline
 62
8
  6
HIDDEN
 70
0
 71
3
 72
9
 73
5
 74
0
 42
0.0000001
 43
0.0000001
 44
0.0000000001
 40
0.0
 40
0.0
 40
0.0
 40
0.0
 40
0.5464731167
 40
1.0
 40
1.0
 40
1.0
 40
1.0
 10
65.6325786436
 20
100.5553348712
 30
0.0
 10
65.6178889893
 20
100.5613778497
 30
0.0
 10
65.5904285592
 20
100.5710805669
 30
0.0
 10
65.5614123854
 20
100.5758955239
 30
0.0
 10
65.5482299508
 20
100.5758885687
 30
0.0
  0
SPLINE
  5
455
100
AcDbEntity
  8
DEFAULT_2
100
AcDbSpline
 62
8
  6
HIDDEN
 70
0
 71
3
 72
9
 73
5
 74
0
 42
0.0000001
 43
0.0000001
 44
0.0000000001
 40
0.0
 40
0.0
 40
0.0
 40
0.0
 40
0.5464731167
 40
1.0
 40
1.0
 40
1.0
 40
1.0
 10
65.6325786436
 20
110.5553348712
 30
0.0
 10
65.6178889893
 20
110.5613778497
 30
0.0
 10
65.5904285592
 20
110.5710805669
 30
0.0
 10
65.5614123854
 20
110.5758955239
 30
0.0
 10
65.5482299508
 20
110.5758885687
 30
0.0
  0
ELLIPSE
  5
456
100
AcDbEntity
  8
DEFAULT_2
100
AcDbEllipse
 62
8
  6
HIDDEN
 10
34.0952189248
 20
37.8070814489
 30
0.0
 11
-0.0406865246
 21
0.1576411457
 31
0.0
 40
0.3572681643
 41
-1.2389227987
 42
-0.012300511
  0
ENDSEC
  0
SECTION
  2
OBJECTS
  0
DICTIONARY
  5
457
100
AcDbDictionary
  3
ACAD_GROUP
350
458
  3
ACAD_MLINESTYLE
350
459
  0
DICTIONARY
  5
458
102
{ACAD_REACTORS
330
457
102
}
100
AcDbDictionary
  0
DICTIONARY
  5
459
102
{ACAD_REACTORS
330
457
102
}
100
AcDbDictionary
  3
STANDARD
350
45A
  0
MLINESTYLE
  5
45A
102
{ACAD_REACTORS
330
459
102
}
100
AcDbMlineStyle
  2
STANDARD
 70
0
  3

 62
256
 51
90.0
 52
90.0
 71
2
 49
0.5
 62
256
  6
BYLAYER
 49
-0.5
 62
256
  6
BYLAYER
  0
ENDSEC
  0
EOF
