999
DXF file: d:\tmp\workingDir\0000109858\5_071261_0_00000_mkt_q_02_01.dxf
999
Pro/ENGINEER 2020184 by Parametric Technology Corporation
  0
SECTION
  2
HEADER
  9
$ACADVER
  1
AC1014
  9
$DWGCODEPAGE
  3
ANSI_1252
  9
$EXTMAX
 10
100.076
 20
130.0
 30
0.0
  9
$EXTMIN
 10
-0.0
 20
0.0
 30
0.0
  9
$LIMMIN
 10
-0.0
 20
0.0
  9
$LIMMAX
 10
100.076
 20
130.0
  9
$VIEWCTR
 10
50.038
 20
65.0
  9
$VIEWSIZE
 40
130.0
  9
$CLAYER
  8
0
  9
$LTSCALE
 40
8.4740740741
  9
$CELTYPE
  6
BYLAYER
  9
$DIMSCALE
 40
1.0
  9
$DIMASZ
 40
3.5
  9
$DIMEXO
 40
0.0
  9
$DIMDLI
 40
5.8548148148
  9
$DIMEXE
 40
2.0
  9
$DIMCEN
 40
1.3866666667
  9
$DIMLFAC
 40
1.0
  9
$DIMBLK
  1
_ARROW_FILLED
  9
$DIMALT
 70
0
  9
$DIMALTF
 40
0.0393700787
  9
$DIMTXT
 40
3.5
  9
$DIMTOL
 70
1
  9
$DIMLIM
 70
0
  9
$DIMTFAC
 40
1.0
  9
$DIMTP
 40
0.01
  9
$DIMTM
 40
0.01
  9
$DIMGAP
 40
0.625
  9
$AUNITS
 70
0
  9
$PDMODE
 70
0
  9
$PDSIZE
 40
0.04
  9
$HANDSEED
  5
47A
  9
$TILEMODE
 70
1
  9
$MEASUREMENT
 70
1
  0
ENDSEC
  0
SECTION
  2
CLASSES
  0
ENDSEC
  0
SECTION
  2
TABLES
  0
TABLE
  2
VPORT
  5
8
100
AcDbSymbolTable
 70
2
  0
VPORT
  5
1F4
100
AcDbSymbolTableRecord
100
AcDbViewportTableRecord
  2
*ACTIVE
 70
0
 10
0.0
 20
0.0
 11
1.0
 21
1.0
 12
50.038
 22
65.0
 13
0.0
 23
0.0
 14
1.0
 24
1.0
 15
0.0
 25
0.0
 16
0.0
 26
0.0
 36
1.0
 17
0.0
 27
0.0
 37
0.0
 40
130.0
 41
0.7698153846
 42
50.0
 43
0.0
 44
0.0
 50
0.0
 51
0.0
 71
0
 72
100
 73
1
 74
1
 75
0
 76
0
 77
0
 78
0
  0
ENDTAB
  0
TABLE
  2
LTYPE
  5
5
100
AcDbSymbolTable
 70
6
  0
LTYPE
  5
14
100
AcDbSymbolTableRecord
100
AcDbLinetypeTableRecord
  2
BYBLOCK
 70
0
  3

 72
65
 73
0
 40
0.0
  0
LTYPE
  5
15
100
AcDbSymbolTableRecord
100
AcDbLinetypeTableRecord
  2
BYLAYER
 70
0
  3

 72
65
 73
0
 40
0.0
  0
LTYPE
  5
16
100
AcDbSymbolTableRecord
100
AcDbLinetypeTableRecord
  2
CONTINUOUS
 70
64
  3
Solid line
 72
65
 73
0
 40
0.0
  0
LTYPE
  5
1F5
100
AcDbSymbolTableRecord
100
AcDbLinetypeTableRecord
  2
CENTER
 70
64
  3
____ _ ____ _ ____ _ ____ _ ____ _ ____ _ ____
 72
65
 73
4
 40
0.6
 49
0.375
 74
0
 49
-0.075
 74
0
 49
0.075
 74
0
 49
-0.075
 74
0
  0
LTYPE
  5
1F6
100
AcDbSymbolTableRecord
100
AcDbLinetypeTableRecord
  2
HIDDEN
 70
64
  3
- - - - - - - - - - - - - - - - - - - -
 72
65
 73
2
 40
0.2
 49
0.1
 74
0
 49
-0.1
 74
0
  0
LTYPE
  5
1F7
100
AcDbSymbolTableRecord
100
AcDbLinetypeTableRecord
  2
PHANTOM
 70
64
  3
_____ _ _ _____ _ _ _____ _ _ _____
 72
65
 73
6
 40
0.8
 49
0.45
 74
0
 49
-0.05
 74
0
 49
0.1
 74
0
 49
-0.05
 74
0
 49
0.1
 74
0
 49
-0.05
 74
0
  0
LTYPE
  5
1F8
100
AcDbSymbolTableRecord
100
AcDbLinetypeTableRecord
  2
DOT
 70
64
  3
. . . . . . . . . . . . . . . . . . . .
 72
65
 73
2
 40
0.2
 49
0.1
 74
0
 49
-0.1
 74
0
  0
LTYPE
  5
1F9
100
AcDbSymbolTableRecord
100
AcDbLinetypeTableRecord
  2
DASHED
 70
64
  3
- - - - - - - - - - - - - - - - - - - -
 72
65
 73
2
 40
0.2
 49
0.1
 74
0
 49
-0.1
 74
0
  0
ENDTAB
  0
TABLE
  2
LAYER
  5
2
100
AcDbSymbolTable
 70
36
  0
LAYER
  5
10
100
AcDbSymbolTableRecord
100
AcDbLayerTableRecord
  2
0
 70
0
 62
7
  6
CONTINUOUS
  0
LAYER
  5
1FA
100
AcDbSymbolTableRecord
100
AcDbLayerTableRecord
  2
DEFAULT_1
 70
0
 62
7
  6
CENTER
  0
LAYER
  5
1FB
100
AcDbSymbolTableRecord
100
AcDbLayerTableRecord
  2
DEFAULT_2
 70
0
 62
8
  6
HIDDEN
  0
LAYER
  5
1FC
100
AcDbSymbolTableRecord
100
AcDbLayerTableRecord
  2
DEFAULT_3
 70
0
 62
7
  6
PHANTOM
  0
LAYER
  5
1FD
100
AcDbSymbolTableRecord
100
AcDbLayerTableRecord
  2
A_ACHSEN
 70
0
 62
7
  6
CONTINUOUS
  0
LAYER
  5
1FE
100
AcDbSymbolTableRecord
100
AcDbLayerTableRecord
  2
A_BASISEBENEN
 70
0
 62
7
  6
CONTINUOUS
  0
LAYER
  5
1FF
100
AcDbSymbolTableRecord
100
AcDbLayerTableRecord
  2
A_BEMASSUNGEN
 70
0
 62
7
  6
CONTINUOUS
  0
LAYER
  5
200
100
AcDbSymbolTableRecord
100
AcDbLayerTableRecord
  2
A_BOHRUNGEN
 70
0
 62
7
  6
CONTINUOUS
  0
LAYER
  5
201
100
AcDbSymbolTableRecord
100
AcDbLayerTableRecord
  2
A_EBENEN
 70
0
 62
7
  6
CONTINUOUS
  0
LAYER
  5
202
100
AcDbSymbolTableRecord
100
AcDbLayerTableRecord
  2
A_FASEN
 70
0
 62
7
  6
CONTINUOUS
  0
LAYER
  5
203
100
AcDbSymbolTableRecord
100
AcDbLayerTableRecord
  2
A_FLAECHEN
 70
0
 62
7
  6
CONTINUOUS
  0
LAYER
  5
204
100
AcDbSymbolTableRecord
100
AcDbLayerTableRecord
  2
A_FL_VERBAENDE
 70
0
 62
7
  6
CONTINUOUS
  0
LAYER
  5
205
100
AcDbSymbolTableRecord
100
AcDbLayerTableRecord
  2
A_KURVEN
 70
0
 62
7
  6
CONTINUOUS
  0
LAYER
  5
206
100
AcDbSymbolTableRecord
100
AcDbLayerTableRecord
  2
A_NOTIZEN_SYMB
 70
0
 62
7
  6
CONTINUOUS
  0
LAYER
  5
207
100
AcDbSymbolTableRecord
100
AcDbLayerTableRecord
  2
A_PUNKTE
 70
0
 62
7
  6
CONTINUOUS
  0
LAYER
  5
208
100
AcDbSymbolTableRecord
100
AcDbLayerTableRecord
  2
A_RUNDUNGEN
 70
0
 62
7
  6
CONTINUOUS
  0
LAYER
  5
209
100
AcDbSymbolTableRecord
100
AcDbLayerTableRecord
  2
BASISEBENEN
 70
0
 62
7
  6
CONTINUOUS
  0
LAYER
  5
20A
100
AcDbSymbolTableRecord
100
AcDbLayerTableRecord
  2
XSEC_DATUMS
 70
0
 62
7
  6
CONTINUOUS
  0
ENDTAB
  0
TABLE
  2
STYLE
  5
3
100
AcDbSymbolTable
 70
1
  0
STYLE
  5
11
100
AcDbSymbolTableRecord
100
AcDbTextStyleTableRecord
  2
STANDARD
 70
0
 40
0.0
 41
1.0
 50
0.0
 71
0
 42
0.2
  3
txt
  4

  0
STYLE
  5
20B
100
AcDbSymbolTableRecord
100
AcDbTextStyleTableRecord
  2
TEXTSTYLE_1
 70
0
 40
0.0
 41
0.8
 50
0.0
 71
0
 42
0.2
  3
gdt
  4

  0
ENDTAB
  0
TABLE
  2
VIEW
  5
6
100
AcDbSymbolTable
 70
0
  0
ENDTAB
  0
TABLE
  2
UCS
  5
7
100
AcDbSymbolTable
 70
0
  0
ENDTAB
  0
TABLE
  2
APPID
  5
9
100
AcDbSymbolTable
 70
1
  0
APPID
  5
20C
100
AcDbSymbolTableRecord
100
AcDbRegAppTableRecord
  2
ACAD
 70
0
  0
ENDTAB
  0
TABLE
  2
BLOCK_RECORD
  5
1
100
AcDbSymbolTable
 70
0
  0
BLOCK_RECORD
  5
1F
100
AcDbSymbolTableRecord
100
AcDbBlockTableRecord
  2
*MODEL_SPACE
  0
BLOCK_RECORD
  5
1B
100
AcDbSymbolTableRecord
100
AcDbBlockTableRecord
  2
*PAPER_SPACE
  0
BLOCK_RECORD
  5
20D
100
AcDbSymbolTableRecord
100
AcDbBlockTableRecord
  2
_ARROW_FILLED
  0
BLOCK_RECORD
  5
20E
100
AcDbSymbolTableRecord
100
AcDbBlockTableRecord
  2
*D0
  0
BLOCK_RECORD
  5
20F
100
AcDbSymbolTableRecord
100
AcDbBlockTableRecord
  2
*D1
  0
BLOCK_RECORD
  5
210
100
AcDbSymbolTableRecord
100
AcDbBlockTableRecord
  2
*D2
  0
BLOCK_RECORD
  5
211
100
AcDbSymbolTableRecord
100
AcDbBlockTableRecord
  2
*D3
  0
BLOCK_RECORD
  5
212
100
AcDbSymbolTableRecord
100
AcDbBlockTableRecord
  2
*D4
  0
ENDTAB
  0
TABLE
  2
DIMSTYLE
  5
A
100
AcDbSymbolTable
 70
1
  0
DIMSTYLE
105
213
100
AcDbSymbolTableRecord
100
AcDbDimStyleTableRecord
  2
STANDARD
 70
0
  3

  4

  5
_ARROW_FILLED
  6
_ARROW_FILLED
  7
_ARROW_FILLED
 40
1.0
 41
3.5
 42
0.0
 43
0.38
 44
2.0
 45
0.0
 46
0.0
 47
0.01
 48
0.01
140
3.5
141
0.09
142
0.0
143
25.4
144
1.0
145
0.0
146
1.0
147
0.625
 71
1
 72
0
 73
0
 74
0
 75
0
 76
0
 77
1
 78
8
 79
2
170
0
171
1
172
0
173
0
174
0
175
0
176
0
177
0
178
5
270
2
271
2
272
2
273
2
274
2
275
0
280
0
281
0
282
0
283
1
284
8
285
0
286
0
287
3
288
0
340
11
  0
DIMSTYLE
105
214
100
AcDbSymbolTableRecord
100
AcDbDimStyleTableRecord
  2
DIMSTYLE_1
 70
0
  3

  4

  5
_ARROW_FILLED
  6
_ARROW_FILLED
  7
_ARROW_FILLED
 40
1.0
 41
3.5
 42
0.0
 43
0.38
 44
2.0
 45
0.0
 46
0.0
 47
0.2
 48
0.2
140
3.5
141
0.09
142
0.0
143
25.4
144
1.0
145
0.0
146
1.0
147
0.875
 71
0
 72
0
 73
0
 74
0
 75
0
 76
0
 77
1
 78
8
 79
2
170
0
171
1
172
0
173
0
174
0
175
0
176
0
177
0
178
5
270
2
271
4
272
-1
273
2
274
2
275
0
280
0
281
0
282
0
283
1
284
8
285
0
286
0
287
3
288
0
340
11
  0
DIMSTYLE
105
215
100
AcDbSymbolTableRecord
100
AcDbDimStyleTableRecord
  2
DIMSTYLE_2
 70
0
  3

  4

  5
_ARROW_FILLED
  6
_ARROW_FILLED
  7
_ARROW_FILLED
 40
1.0
 41
3.5
 42
0.0
 43
0.38
 44
2.0
 45
0.0
 46
0.0
 47
0.3
 48
0.3
140
3.5
141
0.09
142
0.0
143
25.4
144
1.0
145
0.0
146
1.0
147
0.875
 71
0
 72
0
 73
0
 74
0
 75
0
 76
0
 77
1
 78
8
 79
2
170
0
171
1
172
0
173
0
174
0
175
0
176
0
177
0
178
5
270
2
271
4
272
-1
273
2
274
2
275
0
280
0
281
0
282
0
283
1
284
8
285
0
286
0
287
3
288
0
340
11
  0
ENDTAB
  0
ENDSEC
  0
SECTION
  2
BLOCKS
  0
BLOCK
  5
20
100
AcDbEntity
  8
0
100
AcDbBlockBegin
  2
*MODEL_SPACE
 70
0
 10
0.0
 20
0.0
 30
0.0
  3
*MODEL_SPACE
  1

  0
ENDBLK
  5
21
100
AcDbEntity
  8
0
100
AcDbBlockEnd
  0
BLOCK
  5
1C
100
AcDbEntity
  8
0
100
AcDbBlockBegin
  2
*PAPER_SPACE
 70
0
 10
0.0
 20
0.0
 30
0.0
  3
*PAPER_SPACE
  1

  0
ENDBLK
  5
1D
100
AcDbEntity
  8
0
100
AcDbBlockEnd
  0
BLOCK
  5
216
100
AcDbEntity
  8
0
100
AcDbBlockBegin
  2
_ARROW_FILLED
 70
64
 10
0.0
 20
0.0
  3
_ARROW_FILLED
  1

  0
SOLID
  5
217
100
AcDbEntity
  8
0
  6
BYBLOCK
 62
0
100
AcDbTrace
 10
0.0
 20
0.0
 11
-1.0
 21
0.1428571429
 12
-1.0
 22
-0.1428571429
 13
-1.0
 23
-0.1428571429
  0
ENDBLK
  5
218
100
AcDbEntity
  8
0
  6
BYBLOCK
 62
0
100
AcDbBlockEnd
  0
BLOCK
  5
219
100
AcDbEntity
  8
A_BEMASSUNGEN
100
AcDbBlockBegin
 62
2
  6
CONTINUOUS
  2
*D0
 70
65
 10
0.0
 20
0.0
  3
*D0
  1

  0
MTEXT
  5
21A
100
AcDbEntity
  8
A_BEMASSUNGEN
100
AcDbMText
 62
5
  6
CONTINUOUS
  7
STANDARD
 71
2
 72
1
 10
75.6276003591
 20
85.486838376
 30
0.0
 11
1.0
 21
0.0
 31
0.0
  1
10
 40
3.5
 41
7.125
  0
LINE
  5
21B
100
AcDbEntity
  8
A_BEMASSUNGEN
100
AcDbLine
 62
2
  6
CONTINUOUS
 10
78.4106337845
 20
67.1188539668
 11
78.4106337845
 21
83.111838376
  0
LINE
  5
21C
100
AcDbEntity
  8
A_BEMASSUNGEN
100
AcDbLine
 62
2
  6
CONTINUOUS
 10
78.4106337845
 20
81.111838376
 11
73.4106337845
 21
81.111838376
  0
LINE
  5
21D
100
AcDbEntity
  8
A_BEMASSUNGEN
100
AcDbLine
 62
2
  6
CONTINUOUS
 10
68.4106337845
 20
81.111838376
 11
73.4106337845
 21
81.111838376
  0
INSERT
  5
21E
100
AcDbEntity
  8
A_BEMASSUNGEN
100
AcDbBlockReference
 62
2
  6
CONTINUOUS
  2
_ARROW_FILLED
 10
78.4106337845
 20
81.111838376
 41
3.5
 42
3.5
 43
3.5
  0
INSERT
  5
21F
100
AcDbEntity
  8
A_BEMASSUNGEN
100
AcDbBlockReference
 62
2
  6
CONTINUOUS
  2
_ARROW_FILLED
 10
68.4106337845
 20
81.111838376
 41
3.5
 42
3.5
 43
3.5
 50
180.0
  0
ENDBLK
  5
220
100
AcDbEntity
  8
0
  6
BYBLOCK
 62
0
100
AcDbBlockEnd
  0
BLOCK
  5
221
100
AcDbEntity
  8
A_BEMASSUNGEN
100
AcDbBlockBegin
 62
2
  6
CONTINUOUS
  2
*D1
 70
65
 10
0.0
 20
0.0
  3
*D1
  1

  0
MTEXT
  5
222
100
AcDbEntity
  8
A_BEMASSUNGEN
100
AcDbMText
 62
5
  6
CONTINUOUS
  7
STANDARD
 71
2
 72
1
 10
73.4106337845
 20
19.5937989495
 30
0.0
 11
1.0
 21
0.0
 31
0.0
  1
10
 40
3.5
 41
7.125
  0
LINE
  5
223
100
AcDbEntity
  8
A_BEMASSUNGEN
100
AcDbLine
 62
2
  6
CONTINUOUS
 10
78.4106337845
 20
23.9473534387
 11
78.4106337845
 21
13.2187989495
  0
LINE
  5
224
100
AcDbEntity
  8
A_BEMASSUNGEN
100
AcDbLine
 62
2
  6
CONTINUOUS
 10
68.4106337845
 20
30.1526794593
 11
68.4106337845
 21
13.2187989495
  0
LINE
  5
225
100
AcDbEntity
  8
A_BEMASSUNGEN
100
AcDbLine
 62
2
  6
CONTINUOUS
 10
78.4106337845
 20
15.2187989495
 11
73.4106337845
 21
15.2187989495
  0
LINE
  5
226
100
AcDbEntity
  8
A_BEMASSUNGEN
100
AcDbLine
 62
2
  6
CONTINUOUS
 10
68.4106337845
 20
15.2187989495
 11
73.4106337845
 21
15.2187989495
  0
INSERT
  5
227
100
AcDbEntity
  8
A_BEMASSUNGEN
100
AcDbBlockReference
 62
2
  6
CONTINUOUS
  2
_ARROW_FILLED
 10
78.4106337845
 20
15.2187989495
 41
3.5
 42
3.5
 43
3.5
  0
INSERT
  5
228
100
AcDbEntity
  8
A_BEMASSUNGEN
100
AcDbBlockReference
 62
2
  6
CONTINUOUS
  2
_ARROW_FILLED
 10
68.4106337845
 20
15.2187989495
 41
3.5
 42
3.5
 43
3.5
 50
180.0
  0
ENDBLK
  5
229
100
AcDbEntity
  8
0
  6
BYBLOCK
 62
0
100
AcDbBlockEnd
  0
BLOCK
  5
22A
100
AcDbEntity
  8
A_BEMASSUNGEN
100
AcDbBlockBegin
 62
2
  6
CONTINUOUS
  2
*D2
 70
65
 10
0.0
 20
0.0
  3
*D2
  1

  0
MTEXT
  5
22B
100
AcDbEntity
  8
A_BEMASSUNGEN
100
AcDbMText
 62
5
  6
CONTINUOUS
  7
STANDARD
 71
2
 72
1
 10
66.4106337845
 20
10.5526740537
 30
0.0
 11
1.0
 21
0.0
 31
0.0
  1
24
 40
3.5
 41
8.25
  0
LINE
  5
22C
100
AcDbEntity
  8
A_BEMASSUNGEN
100
AcDbLine
 62
2
  6
CONTINUOUS
 10
78.4106337845
 20
23.1188539668
 11
78.4106337845
 21
4.1776740537
  0
LINE
  5
22D
100
AcDbEntity
  8
A_BEMASSUNGEN
100
AcDbLine
 62
2
  6
CONTINUOUS
 10
54.4106337845
 20
23.1188539668
 11
54.4106337845
 21
4.1776740537
  0
LINE
  5
22E
100
AcDbEntity
  8
A_BEMASSUNGEN
100
AcDbLine
 62
2
  6
CONTINUOUS
 10
78.4106337845
 20
6.1776740537
 11
66.4106337845
 21
6.1776740537
  0
LINE
  5
22F
100
AcDbEntity
  8
A_BEMASSUNGEN
100
AcDbLine
 62
2
  6
CONTINUOUS
 10
54.4106337845
 20
6.1776740537
 11
66.4106337845
 21
6.1776740537
  0
INSERT
  5
230
100
AcDbEntity
  8
A_BEMASSUNGEN
100
AcDbBlockReference
 62
2
  6
CONTINUOUS
  2
_ARROW_FILLED
 10
78.4106337845
 20
6.1776740537
 41
3.5
 42
3.5
 43
3.5
  0
INSERT
  5
231
100
AcDbEntity
  8
A_BEMASSUNGEN
100
AcDbBlockReference
 62
2
  6
CONTINUOUS
  2
_ARROW_FILLED
 10
54.4106337845
 20
6.1776740537
 41
3.5
 42
3.5
 43
3.5
 50
180.0
  0
ENDBLK
  5
232
100
AcDbEntity
  8
0
  6
BYBLOCK
 62
0
100
AcDbBlockEnd
  0
BLOCK
  5
233
100
AcDbEntity
  8
A_BEMASSUNGEN
100
AcDbBlockBegin
 62
2
  6
CONTINUOUS
  2
*D3
 70
65
 10
0.0
 20
0.0
  3
*D3
  1

  0
MTEXT
  5
234
100
AcDbEntity
  8
A_BEMASSUNGEN
100
AcDbMText
 62
5
  6
CONTINUOUS
  7
STANDARD
 71
2
 72
1
 10
14.945950492
 20
37.6188539668
 30
0.0
 11
0.0
 21
1.0
 31
0.0
  1
29
 40
3.5
 41
8.25
  0
LINE
  5
235
100
AcDbEntity
  8
A_BEMASSUNGEN
100
AcDbLine
 62
2
  6
CONTINUOUS
 10
70.196201581
 20
52.1188539668
 11
17.320950492
 21
52.1188539668
  0
LINE
  5
236
100
AcDbEntity
  8
A_BEMASSUNGEN
100
AcDbLine
 62
2
  6
CONTINUOUS
 10
28.4106337845
 20
23.1188539668
 11
17.320950492
 21
23.1188539668
  0
LINE
  5
237
100
AcDbEntity
  8
A_BEMASSUNGEN
100
AcDbLine
 62
2
  6
CONTINUOUS
 10
19.320950492
 20
52.1188539668
 11
19.320950492
 21
37.6188539668
  0
LINE
  5
238
100
AcDbEntity
  8
A_BEMASSUNGEN
100
AcDbLine
 62
2
  6
CONTINUOUS
 10
19.320950492
 20
23.1188539668
 11
19.320950492
 21
37.6188539668
  0
INSERT
  5
239
100
AcDbEntity
  8
A_BEMASSUNGEN
100
AcDbBlockReference
 62
2
  6
CONTINUOUS
  2
_ARROW_FILLED
 10
19.320950492
 20
52.1188539668
 41
3.5
 42
3.5
 43
3.5
 50
90.0
  0
INSERT
  5
23A
100
AcDbEntity
  8
A_BEMASSUNGEN
100
AcDbBlockReference
 62
2
  6
CONTINUOUS
  2
_ARROW_FILLED
 10
19.320950492
 20
23.1188539668
 41
3.5
 42
3.5
 43
3.5
 50
270.0
  0
ENDBLK
  5
23B
100
AcDbEntity
  8
0
  6
BYBLOCK
 62
0
100
AcDbBlockEnd
  0
BLOCK
  5
23C
100
AcDbEntity
  8
A_BEMASSUNGEN
100
AcDbBlockBegin
 62
2
  6
CONTINUOUS
  2
*D4
 70
65
 10
0.0
 20
0.0
  3
*D4
  1

  0
MTEXT
  5
23D
100
AcDbEntity
  8
A_BEMASSUNGEN
100
AcDbMText
 62
5
  6
CONTINUOUS
  7
STANDARD
 71
2
 72
1
 10
3.6031515977
 20
71.1188539668
 30
0.0
 11
0.0
 21
1.0
 31
0.0
  1
96
 40
3.5
 41
8.25
  0
LINE
  5
23E
100
AcDbEntity
  8
A_BEMASSUNGEN
100
AcDbLine
 62
2
  6
CONTINUOUS
 10
30.4888482234
 20
23.1188539668
 11
5.9781515977
 21
23.1188539668
  0
LINE
  5
23F
100
AcDbEntity
  8
A_BEMASSUNGEN
100
AcDbLine
 62
2
  6
CONTINUOUS
 10
63.4106337845
 20
119.1188539668
 11
5.9781515977
 21
119.1188539668
  0
LINE
  5
240
100
AcDbEntity
  8
A_BEMASSUNGEN
100
AcDbLine
 62
2
  6
CONTINUOUS
 10
7.9781515977
 20
23.1188539668
 11
7.9781515977
 21
71.1188539668
  0
LINE
  5
241
100
AcDbEntity
  8
A_BEMASSUNGEN
100
AcDbLine
 62
2
  6
CONTINUOUS
 10
7.9781515977
 20
119.1188539668
 11
7.9781515977
 21
71.1188539668
  0
INSERT
  5
242
100
AcDbEntity
  8
A_BEMASSUNGEN
100
AcDbBlockReference
 62
2
  6
CONTINUOUS
  2
_ARROW_FILLED
 10
7.9781515977
 20
23.1188539668
 41
3.5
 42
3.5
 43
3.5
 50
270.0
  0
INSERT
  5
243
100
AcDbEntity
  8
A_BEMASSUNGEN
100
AcDbBlockReference
 62
2
  6
CONTINUOUS
  2
_ARROW_FILLED
 10
7.9781515977
 20
119.1188539668
 41
3.5
 42
3.5
 43
3.5
 50
90.0
  0
ENDBLK
  5
244
100
AcDbEntity
  8
0
  6
BYBLOCK
 62
0
100
AcDbBlockEnd
  0
ENDSEC
  0
SECTION
  2
ENTITIES
  0
DIMENSION
  5
245
100
AcDbEntity
  8
A_BEMASSUNGEN
100
AcDbDimension
 62
2
  6
CONTINUOUS
  2
*D0
 10
68.4106337845
 20
81.111838376
 11
75.1276003328
 21
81.111838376
 70
160
  3
DIMSTYLE_1
100
AcDbAlignedDimension
 13
78.4106337845
 23
67.1188539668
 14
68.4106337845
 24
54.1188539668
 50
180.0
100
AcDbRotatedDimension
  0
DIMENSION
  5
246
100
AcDbEntity
  8
A_BEMASSUNGEN
100
AcDbDimension
 62
2
  6
CONTINUOUS
  2
*D1
 10
68.4106337845
 20
15.2187989495
 11
72.9106320168
 21
15.2187989495
 70
160
  3
DIMSTYLE_1
100
AcDbAlignedDimension
 13
78.4106337845
 23
23.9473534387
 14
68.4106337845
 24
30.1526794593
 50
180.0
100
AcDbRotatedDimension
  0
DIMENSION
  5
247
100
AcDbEntity
  8
A_BEMASSUNGEN
100
AcDbDimension
 62
2
  6
CONTINUOUS
  2
*D2
 10
54.4106337845
 20
6.1776740537
 11
65.9106341869
 21
6.1776740537
 70
160
  3
DIMSTYLE_1
100
AcDbAlignedDimension
 13
78.4106337845
 23
23.1188539668
 14
54.4106337845
 24
23.1188539668
 50
180.0
100
AcDbRotatedDimension
  0
DIMENSION
  5
248
100
AcDbEntity
  8
A_BEMASSUNGEN
100
AcDbDimension
 62
2
  6
CONTINUOUS
  2
*D3
 10
19.320950492
 20
23.1188539668
 11
19.320950492
 21
37.1188530553
 70
160
  3
DIMSTYLE_1
100
AcDbAlignedDimension
 13
70.196201581
 23
52.1188539668
 14
28.4106337845
 24
23.1188539668
 50
270.0
100
AcDbRotatedDimension
  0
DIMENSION
  5
249
100
AcDbEntity
  8
A_BEMASSUNGEN
100
AcDbDimension
 62
2
  6
CONTINUOUS
  2
*D4
 10
7.9781515977
 20
119.1188539668
 11
7.9781515977
 21
70.6188533746
 70
160
  3
DIMSTYLE_2
100
AcDbAlignedDimension
 13
30.4888482234
 23
23.1188539668
 14
63.4106337845
 24
119.1188539668
 50
90.0
100
AcDbRotatedDimension
  0
LINE
  5
24A
100
AcDbEntity
  8
A_NOTIZEN_SYMB
100
AcDbLine
 62
8
  6
HIDDEN
 10
54.4106337845
 20
38.7188539668
 11
52.9206337845
 21
38.7188539668
  0
LINE
  5
24B
100
AcDbEntity
  8
A_NOTIZEN_SYMB
100
AcDbLine
 62
8
  6
HIDDEN
 10
54.4106337845
 20
41.5188539668
 11
52.9206337845
 21
41.5188539668
  0
LINE
  5
24C
100
AcDbEntity
  8
A_NOTIZEN_SYMB
100
AcDbLine
 62
8
  6
HIDDEN
 10
58.1606337845
 20
58.1188539668
 11
75.3606337845
 21
58.1188539668
  0
LINE
  5
24D
100
AcDbEntity
  8
A_NOTIZEN_SYMB
100
AcDbLine
 62
8
  6
HIDDEN
 10
58.1606337845
 20
62.1188539668
 11
75.3606337845
 21
62.1188539668
  0
LINE
  5
24E
100
AcDbEntity
  8
0
100
AcDbLine
 62
7
  6
CONTINUOUS
 10
28.4106337845
 20
23.1188539668
 11
78.4106337845
 21
23.1188539668
  0
LINE
  5
24F
100
AcDbEntity
  8
0
100
AcDbLine
 62
7
  6
CONTINUOUS
 10
73.0771814066
 20
26.1188539668
 11
54.4106337845
 21
26.1188539668
  0
LINE
  5
250
100
AcDbEntity
  8
0
100
AcDbLine
 62
7
  6
CONTINUOUS
 10
54.4106337845
 20
28.1188539668
 11
75.6611851429
 21
28.1188539668
  0
LINE
  5
251
100
AcDbEntity
  8
0
100
AcDbLine
 62
7
  6
CONTINUOUS
 10
54.6106337845
 20
28.2188539668
 11
57.6106337845
 21
28.2188539668
  0
LINE
  5
252
100
AcDbEntity
  8
0
100
AcDbLine
 62
7
  6
CONTINUOUS
 10
65.2106337845
 20
28.6188539668
 11
59.2106337845
 21
28.6188539668
  0
LINE
  5
253
100
AcDbEntity
  8
0
100
AcDbLine
 62
7
  6
CONTINUOUS
 10
66.4106337845
 20
28.6188539668
 11
75.4106337845
 21
28.6188539668
  0
LINE
  5
254
100
AcDbEntity
  8
0
100
AcDbLine
 62
7
  6
CONTINUOUS
 10
59.2106337845
 20
29.7188539668
 11
54.6106337845
 21
29.7188539668
  0
LINE
  5
255
100
AcDbEntity
  8
A_FASEN
100
AcDbLine
 62
7
  6
CONTINUOUS
 10
73.4106337845
 20
31.6188539668
 11
75.4106337845
 21
31.6188539668
  0
LINE
  5
256
100
AcDbEntity
  8
0
100
AcDbLine
 62
7
  6
CONTINUOUS
 10
75.4106337845
 20
31.8688539668
 11
78.4106337845
 21
31.8688539668
  0
LINE
  5
257
100
AcDbEntity
  8
0
100
AcDbLine
 62
7
  6
CONTINUOUS
 10
77.1106337845
 20
32.1188539668
 11
73.7106337845
 21
32.1188539668
  0
LINE
  5
258
100
AcDbEntity
  8
A_FASEN
100
AcDbLine
 62
7
  6
CONTINUOUS
 10
73.4106337845
 20
32.1188539668
 11
73.7106337845
 21
32.1188539668
  0
LINE
  5
259
100
AcDbEntity
  8
0
100
AcDbLine
 62
7
  6
CONTINUOUS
 10
54.6106337845
 20
32.6188539668
 11
59.2106337845
 21
32.6188539668
  0
LINE
  5
25A
100
AcDbEntity
  8
A_RUNDUNGEN
100
AcDbLine
 62
7
  6
CONTINUOUS
 10
65.2106337845
 20
32.6188539668
 11
66.4106337845
 21
32.6188539668
  0
LINE
  5
25B
100
AcDbEntity
  8
0
100
AcDbLine
 62
7
  6
CONTINUOUS
 10
62.2106337845
 20
32.8688539668
 11
65.2106337845
 21
32.8688539668
  0
LINE
  5
25C
100
AcDbEntity
  8
0
100
AcDbLine
 62
7
  6
CONTINUOUS
 10
64.5106337845
 20
33.1188539668
 11
62.2106337845
 21
33.1188539668
  0
LINE
  5
25D
100
AcDbEntity
  8
0
100
AcDbLine
 62
2
  6
CONTINUOUS
 10
58.1606337845
 20
33.1188539668
 11
59.2106337845
 21
33.1188539668
  0
LINE
  5
25E
100
AcDbEntity
  8
0
100
AcDbLine
 62
2
  6
CONTINUOUS
 10
65.2106337845
 20
33.1188539668
 11
66.4106337845
 21
33.1188539668
  0
LINE
  5
25F
100
AcDbEntity
  8
0
100
AcDbLine
 62
7
  6
CONTINUOUS
 10
68.4106337845
 20
34.0188539668
 11
73.3204398928
 21
34.0188539668
  0
LINE
  5
260
100
AcDbEntity
  8
0
100
AcDbLine
 62
7
  6
CONTINUOUS
 10
73.1106337845
 20
34.1188539668
 11
57.6106337845
 21
34.1188539668
  0
LWPOLYLINE
  5
261
100
AcDbEntity
  8
DEFAULT_2
100
AcDbPolyline
 62
8
  6
HIDDEN
 90
4
 70
0
 10
34.3103430027
 20
40.6520487695
 10
34.2216744603
 20
40.6950058083
 10
34.0740452525
 20
40.8497719074
 10
33.9673384455
 20
41.0281304716
  0
LWPOLYLINE
  5
262
100
AcDbEntity
  8
DEFAULT_2
100
AcDbPolyline
 62
8
  6
HIDDEN
 90
4
 70
0
 10
34.1926814567
 20
39.8915959304
 10
34.2928530778
 20
39.7837034729
 10
34.4692562408
 20
39.4825145338
 10
34.6135386518
 20
39.152530684
  0
LINE
  5
263
100
AcDbEntity
  8
DEFAULT_2
100
AcDbLine
 62
8
  6
HIDDEN
 10
33.3672214547
 20
40.1761506069
 11
33.564341373
 21
39.9476764871
  0
LINE
  5
264
100
AcDbEntity
  8
0
100
AcDbLine
 62
2
  6
CONTINUOUS
 10
57.4106337845
 20
34.6188539668
 11
73.4106337845
 21
34.6188539668
  0
LINE
  5
265
100
AcDbEntity
  8
DEFAULT_2
100
AcDbLine
 62
8
  6
HIDDEN
 10
77.4106337845
 20
34.8094528901
 11
75.1666168487
 21
34.8094528901
  0
LINE
  5
266
100
AcDbEntity
  8
DEFAULT_2
100
AcDbLine
 62
8
  6
HIDDEN
 10
77.4106337845
 20
35.9641534284
 11
75.1666168487
 21
35.9641534284
  0
LINE
  5
267
100
AcDbEntity
  8
0
100
AcDbLine
 62
7
  6
CONTINUOUS
 10
54.6106337845
 20
36.2188539668
 11
57.4106337845
 21
36.2188539668
  0
LINE
  5
268
100
AcDbEntity
  8
A_ACHSEN
100
AcDbLine
 62
7
  6
CENTER
 10
54.4106337845
 20
37.1188539668
 11
80.4106337845
 21
37.1188539668
  0
LINE
  5
269
100
AcDbEntity
  8
DEFAULT_2
100
AcDbLine
 62
8
  6
HIDDEN
 10
38.9256256897
 20
38.7188539668
 11
37.7248669612
 21
38.985055768
  0
LINE
  5
26A
100
AcDbEntity
  8
DEFAULT_2
100
AcDbLine
 62
8
  6
HIDDEN
 10
32.6106337845
 20
40.1188539668
 11
34.5371200709
 21
39.6917622395
  0
LINE
  5
26B
100
AcDbEntity
  8
DEFAULT_2
100
AcDbLine
 62
8
  6
HIDDEN
 10
35.3730249217
 20
39.5064465956
 11
37.0372567312
 21
39.137495286
  0
LWPOLYLINE
  5
26C
100
AcDbEntity
  8
DEFAULT_2
100
AcDbPolyline
 62
8
  6
HIDDEN
 90
4
 70
0
 10
36.7860837426
 20
40.8175819001
 10
36.7352916113
 20
40.8928758241
 10
36.5441670534
 20
41.2275084894
 10
36.3889793887
 20
41.5501424255
  0
LWPOLYLINE
  5
26D
100
AcDbEntity
  8
DEFAULT_2
100
AcDbPolyline
 62
8
  6
HIDDEN
 90
4
 70
0
 10
36.7465142316
 20
39.4360395271
 10
36.8456971974
 20
39.25521988
 10
37.0453529729
 20
38.8329211516
 10
37.2054638245
 20
38.4527897817
  0
LINE
  5
26E
100
AcDbEntity
  8
0
100
AcDbLine
 62
7
  6
CONTINUOUS
 10
28.4106337845
 20
43.1188539668
 11
28.4106337845
 21
23.1188539668
  0
LINE
  5
26F
100
AcDbEntity
  8
DEFAULT_2
100
AcDbLine
 62
8
  6
HIDDEN
 10
53.2290039664
 20
39.7462136142
 11
52.9432338307
 21
39.7211784078
  0
LINE
  5
270
100
AcDbEntity
  8
DEFAULT_2
100
AcDbLine
 62
8
  6
HIDDEN
 10
39.5680127855
 20
40.3354808432
 11
39.2368065924
 21
40.3202088115
  0
LINE
  5
271
100
AcDbEntity
  8
DEFAULT_2
100
AcDbLine
 62
8
  6
HIDDEN
 10
45.7790815183
 20
41.5185596686
 11
45.7871510641
 21
41.5188498928
  0
LWPOLYLINE
  5
272
100
AcDbEntity
  8
DEFAULT_2
100
AcDbPolyline
 62
8
  6
HIDDEN
 90
4
 70
0
 10
49.0022167024
 20
41.531439653
 10
48.8357466177
 20
41.5262080809
 10
48.51877606
 20
41.5200170193
 10
48.2873743579
 20
41.5186560499
  0
LWPOLYLINE
  5
273
100
AcDbEntity
  8
DEFAULT_2
100
AcDbPolyline
 62
8
  6
HIDDEN
 90
4
 70
0
 10
41.5021650022
 20
41.5312273781
 10
41.3359752189
 20
41.5260176192
 10
41.0188480671
 20
41.5198787983
 10
40.7869949764
 20
41.5185739053
  0
LWPOLYLINE
  5
274
100
AcDbEntity
  8
DEFAULT_2
100
AcDbPolyline
 62
8
  6
HIDDEN
 90
4
 70
0
 10
46.5017064727
 20
41.531384309
 10
46.3362483135
 20
41.5262451929
 10
46.0193763175
 20
41.5201621866
 10
45.7871510641
 20
41.5188498928
  0
LWPOLYLINE
  5
275
100
AcDbEntity
  8
DEFAULT_2
100
AcDbPolyline
 62
8
  6
HIDDEN
 90
4
 70
0
 10
51.5016442946
 20
41.5313577922
 10
51.3362400268
 20
41.5262301334
 10
51.0193747974
 20
41.5201652976
 10
50.7871088329
 20
41.5188635508
  0
LWPOLYLINE
  5
276
100
AcDbEntity
  8
DEFAULT_2
100
AcDbPolyline
 62
8
  6
HIDDEN
 90
4
 70
0
 10
44.0016026101
 20
41.5310889402
 10
43.8359721324
 20
41.5259639921
 10
43.5189370876
 20
41.5199433728
 10
43.2866768017
 20
41.518702048
  0
LINE
  5
277
100
AcDbEntity
  8
DEFAULT_2
100
AcDbLine
 62
8
  6
HIDDEN
 10
39.2801292981
 20
40.0048574333
 11
38.947529252
 21
39.9948487125
  0
LINE
  5
278
100
AcDbEntity
  8
DEFAULT_2
100
AcDbLine
 62
8
  6
HIDDEN
 10
77.4106337845
 20
38.2735545052
 11
75.1666168487
 21
38.2735545052
  0
LINE
  5
279
100
AcDbEntity
  8
DEFAULT_2
100
AcDbLine
 62
8
  6
HIDDEN
 10
38.9256256897
 20
38.7188539668
 11
52.9206337845
 21
38.7188539668
  0
LINE
  5
27A
100
AcDbEntity
  8
DEFAULT_2
100
AcDbLine
 62
8
  6
HIDDEN
 10
77.4106337845
 20
39.4282550436
 11
75.1666168487
 21
39.4282550436
  0
LINE
  5
27B
100
AcDbEntity
  8
0
100
AcDbLine
 62
2
  6
CONTINUOUS
 10
57.4106337845
 20
39.6188539668
 11
73.4106337845
 21
39.6188539668
  0
LINE
  5
27C
100
AcDbEntity
  8
0
100
AcDbLine
 62
7
  6
CONTINUOUS
 10
73.1106337845
 20
40.1188539668
 11
57.9106337845
 21
40.1188539668
  0
LINE
  5
27D
100
AcDbEntity
  8
A_ACHSEN
100
AcDbLine
 62
7
  6
CENTER
 10
29.6106337845
 20
40.1188539668
 11
60.6106337845
 21
40.1188539668
  0
LINE
  5
27E
100
AcDbEntity
  8
0
100
AcDbLine
 62
7
  6
CONTINUOUS
 10
68.4106337845
 20
40.2188539668
 11
73.3204398928
 21
40.2188539668
  0
LINE
  5
27F
100
AcDbEntity
  8
0
100
AcDbLine
 62
7
  6
CONTINUOUS
 10
54.6106337845
 20
40.6188539668
 11
57.6106337845
 21
40.6188539668
  0
LINE
  5
280
100
AcDbEntity
  8
0
100
AcDbLine
 62
7
  6
CONTINUOUS
 10
64.5106337845
 20
41.1188539668
 11
62.2106337845
 21
41.1188539668
  0
LINE
  5
281
100
AcDbEntity
  8
0
100
AcDbLine
 62
7
  6
CONTINUOUS
 10
62.2106337845
 20
41.3688539668
 11
65.2106337845
 21
41.3688539668
  0
LINE
  5
282
100
AcDbEntity
  8
DEFAULT_2
100
AcDbLine
 62
8
  6
HIDDEN
 10
38.9600244316
 20
41.5188539668
 11
52.9206337845
 21
41.5188539668
  0
LINE
  5
283
100
AcDbEntity
  8
0
100
AcDbLine
 62
7
  6
CONTINUOUS
 10
77.1106337845
 20
42.1188539668
 11
73.7106337845
 21
42.1188539668
  0
LWPOLYLINE
  5
284
100
AcDbEntity
  8
DEFAULT_2
100
AcDbPolyline
 62
8
  6
HIDDEN
 90
4
 70
0
 10
42.0364291432
 20
38.7191623462
 10
42.2687540343
 20
38.7179609852
 10
42.5858634457
 20
38.7119803937
 10
42.7515212587
 20
38.7068696563
  0
LWPOLYLINE
  5
285
100
AcDbEntity
  8
DEFAULT_2
100
AcDbPolyline
 62
8
  6
HIDDEN
 90
4
 70
0
 10
39.536775739
 20
38.7189847833
 10
39.7689576711
 20
38.7177260868
 10
40.0859987684
 20
38.7116786763
 10
40.2517209887
 20
38.7065366565
  0
LWPOLYLINE
  5
286
100
AcDbEntity
  8
DEFAULT_2
100
AcDbPolyline
 62
8
  6
HIDDEN
 90
4
 70
0
 10
49.5371127423
 20
38.7190760047
 10
49.7688586551
 20
38.7177536467
 10
50.0859421917
 20
38.7115973784
 10
50.252191361
 20
38.7063803402
  0
LWPOLYLINE
  5
287
100
AcDbEntity
  8
DEFAULT_2
100
AcDbPolyline
 62
8
  6
HIDDEN
 90
4
 70
0
 10
47.0373463506
 20
38.7190773878
 10
47.2688033728
 20
38.717718419
 10
47.5858016361
 20
38.7115250362
 10
47.7522491371
 20
38.7062906572
  0
LWPOLYLINE
  5
288
100
AcDbEntity
  8
DEFAULT_2
100
AcDbPolyline
 62
8
  6
HIDDEN
 90
4
 70
0
 10
44.5377045043
 20
38.7189477246
 10
44.7721722006
 20
38.7175122446
 10
45.0887244077
 20
38.7113134773
 10
45.2515775001
 20
38.7062479184
  0
LWPOLYLINE
  5
289
100
AcDbEntity
  8
DEFAULT_2
100
AcDbPolyline
 62
8
  6
HIDDEN
 90
4
 70
0
 10
52.0378775909
 20
38.7192597318
 10
52.2686869639
 20
38.7178213496
 10
52.5855174357
 20
38.711548371
 10
52.752423902
 20
38.7062730701
  0
LINE
  5
28A
100
AcDbEntity
  8
DEFAULT_2
100
AcDbLine
 62
8
  6
HIDDEN
 10
52.6106337845
 20
39.9377816361
 11
52.9268118203
 21
39.848676938
  0
LINE
  5
28B
100
AcDbEntity
  8
DEFAULT_2
100
AcDbLine
 62
8
  6
HIDDEN
 10
52.9432338307
 20
39.7211784078
 11
52.6106337845
 21
39.9377816361
  0
LWPOLYLINE
  5
28C
100
AcDbEntity
  8
DEFAULT_2
100
AcDbPolyline
 62
8
  6
HIDDEN
 90
4
 70
0
 10
39.2369169295
 20
41.2377519472
 10
39.1801470253
 20
41.3514824294
 10
38.9822416788
 20
41.7805353137
 10
38.8362317351
 20
42.1228886474
  0
LWPOLYLINE
  5
28D
100
AcDbEntity
  8
DEFAULT_2
100
AcDbPolyline
 62
8
  6
HIDDEN
 90
4
 70
0
 10
39.2810804045
 20
38.9991416475
 10
39.3889467933
 20
38.763456597
 10
39.5760660132
 20
38.3246662972
 10
39.7104950428
 20
37.991869939
  0
LINE
  5
28E
100
AcDbEntity
  8
0
100
AcDbLine
 62
7
  6
CONTINUOUS
 10
75.4106337845
 20
42.3688539668
 11
78.4106337845
 21
42.3688539668
  0
LINE
  5
28F
100
AcDbEntity
  8
0
100
AcDbLine
 62
7
  6
CONTINUOUS
 10
62.2106337845
 20
42.6188539668
 11
59.2106337845
 21
42.6188539668
  0
LINE
  5
290
100
AcDbEntity
  8
0
100
AcDbLine
 62
7
  6
CONTINUOUS
 10
54.6106337845
 20
42.6188539668
 11
57.6106337845
 21
42.6188539668
  0
LINE
  5
291
100
AcDbEntity
  8
0
100
AcDbLine
 62
7
  6
CONTINUOUS
 10
28.4106337845
 20
43.1188539668
 11
54.6106337845
 21
43.1188539668
  0
LINE
  5
292
100
AcDbEntity
  8
0
100
AcDbLine
 62
2
  6
CONTINUOUS
 10
57.6106337845
 20
45.5038539668
 11
62.2106337845
 21
45.5038539668
  0
LINE
  5
293
100
AcDbEntity
  8
A_RUNDUNGEN
100
AcDbLine
 62
7
  6
CONTINUOUS
 10
75.4106337845
 20
45.6188539668
 11
73.7106337845
 21
45.6188539668
  0
LINE
  5
294
100
AcDbEntity
  8
0
100
AcDbLine
 62
7
  6
CONTINUOUS
 10
73.0771814066
 20
26.1188539668
 11
75.3525352099
 21
24.4091855885
  0
LINE
  5
295
100
AcDbEntity
  8
0
100
AcDbLine
 62
7
  6
CONTINUOUS
 10
58.1606337845
 20
33.1188539668
 11
58.6606337845
 21
32.6188539668
  0
LINE
  5
296
100
AcDbEntity
  8
0
100
AcDbLine
 62
7
  6
CONTINUOUS
 10
57.9106337845
 20
34.1188539668
 11
57.4106337845
 21
34.6188539668
  0
LWPOLYLINE
  5
297
100
AcDbEntity
  8
DEFAULT_2
100
AcDbPolyline
 62
8
  6
HIDDEN
 90
4
 70
0
 10
41.7387474136
 20
41.2962695208
 10
41.6375924355
 20
41.5020046522
 10
41.4454892187
 20
41.9276253118
 10
41.3039218169
 20
42.2637899671
  0
LWPOLYLINE
  5
298
100
AcDbEntity
  8
DEFAULT_2
100
AcDbPolyline
 62
8
  6
HIDDEN
 90
4
 70
0
 10
44.2385184434
 20
41.2965448147
 10
44.130254117
 20
41.5174612739
 10
43.9411955728
 20
41.9378056744
 10
43.8042689754
 20
42.2631561363
  0
LWPOLYLINE
  5
299
100
AcDbEntity
  8
DEFAULT_2
100
AcDbPolyline
 62
8
  6
HIDDEN
 90
4
 70
0
 10
41.780679578
 20
38.9999791326
 10
41.8943755252
 20
38.751383035
 10
42.0813211838
 20
38.3121624055
 10
42.2107949043
 20
37.9913461934
  0
LWPOLYLINE
  5
29A
100
AcDbEntity
  8
DEFAULT_2
100
AcDbPolyline
 62
8
  6
HIDDEN
 90
4
 70
0
 10
44.2812532321
 20
38.9989722208
 10
44.3903646668
 20
38.7604003037
 10
44.5762584149
 20
38.3240827237
 10
44.7103797918
 20
37.992013655
  0
LINE
  5
29B
100
AcDbEntity
  8
DEFAULT_2
100
AcDbLine
 62
8
  6
HIDDEN
 10
33.564341373
 20
39.9476764871
 11
33.4257907166
 21
40.9271642565
  0
LINE
  5
29C
100
AcDbEntity
  8
DEFAULT_2
100
AcDbLine
 62
8
  6
HIDDEN
 10
65.9606337845
 20
106.1188539668
 11
65.9424235517
 21
106.1066770248
  0
LINE
  5
29D
100
AcDbEntity
  8
DEFAULT_2
100
AcDbLine
 62
8
  6
HIDDEN
 10
38.947529252
 20
39.9948487125
 11
39.6127293442
 21
40.1831589993
  0
LINE
  5
29E
100
AcDbEntity
  8
DEFAULT_2
100
AcDbLine
 62
8
  6
HIDDEN
 10
32.6106337845
 20
40.1188539668
 11
33.2872400601
 21
40.2688539668
  0
LINE
  5
29F
100
AcDbEntity
  8
DEFAULT_2
100
AcDbLine
 62
8
  6
HIDDEN
 10
33.820585881
 20
40.3870938887
 11
35.7872408078
 21
40.8230907892
  0
LINE
  5
2A0
100
AcDbEntity
  8
DEFAULT_2
100
AcDbLine
 62
8
  6
HIDDEN
 10
36.5134437661
 20
40.984086109
 11
38.2872359853
 21
41.3773263767
  0
LINE
  5
2A1
100
AcDbEntity
  8
0
100
AcDbLine
 62
7
  6
CONTINUOUS
 10
57.6106337845
 20
46.1188539668
 11
62.2106337845
 21
46.1188539668
  0
LINE
  5
2A2
100
AcDbEntity
  8
0
100
AcDbLine
 62
7
  6
CONTINUOUS
 10
73.4106337845
 20
46.1188539668
 11
75.4106337845
 21
46.1188539668
  0
LINE
  5
2A3
100
AcDbEntity
  8
0
100
AcDbLine
 62
2
  6
CONTINUOUS
 10
58.1606337845
 20
47.1188539668
 11
62.2106337845
 21
47.1188539668
  0
LINE
  5
2A4
100
AcDbEntity
  8
A_RUNDUNGEN
100
AcDbLine
 62
7
  6
CONTINUOUS
 10
58.6606337845
 20
47.6188539668
 11
62.2106337845
 21
47.6188539668
  0
LINE
  5
2A5
100
AcDbEntity
  8
0
100
AcDbLine
 62
7
  6
CONTINUOUS
 10
75.3525352099
 20
24.4091855885
 11
75.9182206348
 21
23.8435001636
  0
LWPOLYLINE
  5
2A6
100
AcDbEntity
  8
DEFAULT_2
100
AcDbPolyline
 62
8
  6
HIDDEN
 90
4
 70
0
 10
49.2389843109
 20
41.2958373636
 10
49.1304121916
 20
41.5170995861
 10
48.9409729317
 20
41.9378217769
 10
48.8040126763
 20
42.2631601708
  0
LWPOLYLINE
  5
2A7
100
AcDbEntity
  8
DEFAULT_2
100
AcDbPolyline
 62
8
  6
HIDDEN
 90
4
 70
0
 10
46.7387664246
 20
41.2961746961
 10
46.6302900388
 20
41.5174076731
 10
46.4409879636
 20
41.9381946367
 10
46.3040007293
 20
42.2637652481
  0
LWPOLYLINE
  5
2A8
100
AcDbEntity
  8
DEFAULT_2
100
AcDbPolyline
 62
8
  6
HIDDEN
 90
4
 70
0
 10
49.2806035722
 20
39.0002171401
 10
49.3940298301
 20
38.7522498565
 10
49.5810965658
 20
38.3127025266
 10
49.7109748148
 20
37.9908013494
  0
LWPOLYLINE
  5
2A9
100
AcDbEntity
  8
DEFAULT_2
100
AcDbPolyline
 62
8
  6
HIDDEN
 90
4
 70
0
 10
46.7806449668
 20
39.0002105349
 10
46.8957053152
 20
38.7485108565
 10
47.0826772024
 20
38.3087803097
 10
47.2110708647
 20
37.9904157474
  0
LINE
  5
2AA
100
AcDbEntity
  8
DEFAULT_2
100
AcDbLine
 62
8
  6
HIDDEN
 10
38.9256256897
 20
41.5143504797
 11
38.9256256897
 21
38.7188539668
  0
LINE
  5
2AB
100
AcDbEntity
  8
DEFAULT_2
100
AcDbLine
 62
8
  6
HIDDEN
 10
33.4257907166
 20
40.9271642565
 11
33.2872400601
 21
40.2688539668
  0
LINE
  5
2AC
100
AcDbEntity
  8
0
100
AcDbLine
 62
7
  6
CONTINUOUS
 10
65.2106337845
 20
51.6188539668
 11
62.2106337845
 21
51.6188539668
  0
LINE
  5
2AD
100
AcDbEntity
  8
A_RUNDUNGEN
100
AcDbLine
 62
7
  6
CONTINUOUS
 10
65.2106337845
 20
51.6188539668
 11
66.2106337845
 21
51.6188539668
  0
LINE
  5
2AE
100
AcDbEntity
  8
0
100
AcDbLine
 62
7
  6
CONTINUOUS
 10
66.2106337845
 20
51.6188539668
 11
75.4106337845
 21
51.6188539668
  0
LINE
  5
2AF
100
AcDbEntity
  8
0
100
AcDbLine
 62
7
  6
CONTINUOUS
 10
54.6106337845
 20
52.0188539668
 11
57.6106337845
 21
52.0188539668
  0
LINE
  5
2B0
100
AcDbEntity
  8
A_RUNDUNGEN
100
AcDbLine
 62
7
  6
CONTINUOUS
 10
64.4106337845
 20
52.1188539668
 11
65.4106337845
 21
52.1188539668
  0
LINE
  5
2B1
100
AcDbEntity
  8
0
100
AcDbLine
 62
7
  6
CONTINUOUS
 10
68.4106337845
 20
52.1188539668
 11
75.4106337845
 21
52.1188539668
  0
LINE
  5
2B2
100
AcDbEntity
  8
0
100
AcDbLine
 62
7
  6
CONTINUOUS
 10
77.6859875878
 20
25.6112671165
 11
77.1203021628
 21
26.1769525415
  0
LINE
  5
2B3
100
AcDbEntity
  8
0
100
AcDbLine
 62
7
  6
CONTINUOUS
 10
65.0106337845
 20
40.6188539668
 11
64.5106337845
 21
41.1188539668
  0
LWPOLYLINE
  5
2B4
100
AcDbEntity
  8
DEFAULT_2
100
AcDbPolyline
 62
8
  6
HIDDEN
 90
4
 70
0
 10
51.7385500101
 20
41.2963950176
 10
51.6301788844
 20
41.5175113934
 10
51.4410051724
 20
41.9381596838
 10
51.3040368649
 20
42.2637096474
  0
LWPOLYLINE
  5
2B5
100
AcDbEntity
  8
DEFAULT_2
100
AcDbPolyline
 62
8
  6
HIDDEN
 90
4
 70
0
 10
51.7811746811
 20
38.9991053227
 10
51.8899436124
 20
38.7613395977
 10
52.0759244698
 20
38.3248814436
 10
52.2103516894
 20
37.9920435023
  0
LINE
  5
2B6
100
AcDbEntity
  8
DEFAULT_2
100
AcDbLine
 62
8
  6
HIDDEN
 10
65.9606337845
 20
106.1188539668
 11
63.7106337845
 21
103.8688539668
  0
LINE
  5
2B7
100
AcDbEntity
  8
DEFAULT_2
100
AcDbLine
 62
8
  6
HIDDEN
 10
65.9606337845
 20
96.1188539668
 11
65.9424235379
 21
96.1066770155
  0
LINE
  5
2B8
100
AcDbEntity
  8
0
100
AcDbLine
 62
7
  6
CONTINUOUS
 10
63.4106337845
 20
54.1188539668
 11
68.4106337845
 21
54.1188539668
  0
LINE
  5
2B9
100
AcDbEntity
  8
DEFAULT_2
100
AcDbLine
 62
8
  6
HIDDEN
 10
77.8606337845
 20
55.1188539668
 11
78.1606337845
 21
55.1188539668
  0
LINE
  5
2BA
100
AcDbEntity
  8
A_RUNDUNGEN
100
AcDbLine
 62
7
  6
CONTINUOUS
 10
58.6606337845
 20
57.6188539668
 11
63.4106337845
 21
57.6188539668
  0
LINE
  5
2BB
100
AcDbEntity
  8
A_RUNDUNGEN
100
AcDbLine
 62
8
  6
HIDDEN
 10
63.4106337845
 20
57.6188539668
 11
75.1949483596
 21
57.6188539668
  0
LINE
  5
2BC
100
AcDbEntity
  8
DEFAULT_2
100
AcDbLine
 62
8
  6
HIDDEN
 10
65.9606337845
 20
96.1188539668
 11
63.7106337845
 21
93.8688539668
  0
LINE
  5
2BD
100
AcDbEntity
  8
0
100
AcDbLine
 62
2
  6
CONTINUOUS
 10
58.1606337845
 20
58.1188539668
 11
63.4106337845
 21
58.1188539668
  0
LINE
  5
2BE
100
AcDbEntity
  8
DEFAULT_2
100
AcDbLine
 62
8
  6
HIDDEN
 10
78.1606337845
 20
58.6188539668
 11
76.2939682464
 21
58.6188539668
  0
LINE
  5
2BF
100
AcDbEntity
  8
DEFAULT_2
100
AcDbLine
 62
8
  6
HIDDEN
 10
78.1606337845
 20
60.1188539668
 11
76.4276210826
 21
60.1188539668
  0
LINE
  5
2C0
100
AcDbEntity
  8
A_ACHSEN
100
AcDbLine
 62
7
  6
CENTER
 10
55.1606337845
 20
60.1188539668
 11
81.1606337845
 21
60.1188539668
  0
LINE
  5
2C1
100
AcDbEntity
  8
DEFAULT_2
100
AcDbLine
 62
8
  6
HIDDEN
 10
76.2939682464
 20
61.6188539668
 11
78.1606337845
 21
61.6188539668
  0
LINE
  5
2C2
100
AcDbEntity
  8
0
100
AcDbLine
 62
7
  6
CONTINUOUS
 10
58.1606337845
 20
58.1188539668
 11
58.6606337845
 21
57.6188539668
  0
LINE
  5
2C3
100
AcDbEntity
  8
0
100
AcDbLine
 62
7
  6
CONTINUOUS
 10
77.1203021628
 20
26.1769525415
 11
75.4106337845
 21
28.4523063447
  0
LWPOLYLINE
  5
2C4
100
AcDbEntity
  8
DEFAULT_2
100
AcDbPolyline
 62
8
  6
HIDDEN
 90
4
 70
0
 10
38.4758285406
 20
42.092299888
 10
38.3315872479
 20
41.740154957
 10
38.1414599076
 20
41.3079052477
 10
38.0338928936
 20
41.0854313534
  0
LWPOLYLINE
  5
2C5
100
AcDbEntity
  8
DEFAULT_2
100
AcDbPolyline
 62
8
  6
HIDDEN
 90
4
 70
0
 10
35.924613003
 20
41.4619301667
 10
35.7796468575
 20
41.1246241384
 10
35.57850405
 20
40.7291633176
 10
35.4574903365
 20
40.5453543848
  0
LINE
  5
2C6
100
AcDbEntity
  8
DEFAULT_2
100
AcDbLine
 62
8
  6
HIDDEN
 10
65.9606337845
 20
86.1188539668
 11
65.9424235379
 21
86.1066770155
  0
LINE
  5
2C7
100
AcDbEntity
  8
0
100
AcDbLine
 62
2
  6
CONTINUOUS
 10
58.1606337845
 20
62.1188539668
 11
63.4106337845
 21
62.1188539668
  0
LINE
  5
2C8
100
AcDbEntity
  8
A_RUNDUNGEN
100
AcDbLine
 62
7
  6
CONTINUOUS
 10
58.6606337845
 20
62.6188539668
 11
63.4106337845
 21
62.6188539668
  0
LINE
  5
2C9
100
AcDbEntity
  8
A_RUNDUNGEN
100
AcDbLine
 62
8
  6
HIDDEN
 10
63.4106337845
 20
62.6188539668
 11
75.1949483596
 21
62.6188539668
  0
LINE
  5
2CA
100
AcDbEntity
  8
0
100
AcDbLine
 62
7
  6
CONTINUOUS
 10
87.9106337845
 20
63.1188539668
 11
81.9106337845
 21
63.1188539668
  0
LINE
  5
2CB
100
AcDbEntity
  8
0
100
AcDbLine
 62
7
  6
CONTINUOUS
 10
87.6450693475
 20
64.1188539668
 11
82.1761982216
 21
64.1188539668
  0
LINE
  5
2CC
100
AcDbEntity
  8
DEFAULT_2
100
AcDbLine
 62
8
  6
HIDDEN
 10
77.8606337845
 20
65.1188539668
 11
78.1606337845
 21
65.1188539668
  0
LINE
  5
2CD
100
AcDbEntity
  8
A_FASEN
100
AcDbLine
 62
7
  6
CONTINUOUS
 10
77.4106337845
 20
41.8188539668
 11
77.1106337845
 21
42.1188539668
  0
LINE
  5
2CE
100
AcDbEntity
  8
0
100
AcDbLine
 62
7
  6
CONTINUOUS
 10
74.9106337845
 20
46.1188539668
 11
75.4106337845
 21
45.6188539668
  0
LINE
  5
2CF
100
AcDbEntity
  8
DEFAULT_2
100
AcDbLine
 62
8
  6
HIDDEN
 10
52.9206337845
 20
41.5188539668
 11
52.9206337845
 21
38.7188539668
  0
LINE
  5
2D0
100
AcDbEntity
  8
0
100
AcDbLine
 62
7
  6
CONTINUOUS
 10
54.4106337845
 20
23.1188539668
 11
54.4106337845
 21
43.1188539668
  0
LINE
  5
2D1
100
AcDbEntity
  8
0
100
AcDbLine
 62
7
  6
CONTINUOUS
 10
54.6106337845
 20
28.2188539668
 11
54.6106337845
 21
52.0188539668
  0
LINE
  5
2D2
100
AcDbEntity
  8
0
100
AcDbLine
 62
7
  6
CONTINUOUS
 10
56.1106337845
 20
36.2188539668
 11
56.1106337845
 21
40.6188539668
  0
LWPOLYLINE
  5
2D3
100
AcDbEntity
  8
DEFAULT_2
100
AcDbPolyline
 62
8
  6
HIDDEN
 90
4
 70
0
 10
40.9607944682
 20
42.2466342156
 10
40.8333678954
 20
41.9307509742
 10
40.646627408
 20
41.4915211519
 10
40.5308198059
 20
41.2380545774
  0
LWPOLYLINE
  5
2D4
100
AcDbEntity
  8
DEFAULT_2
100
AcDbPolyline
 62
8
  6
HIDDEN
 90
4
 70
0
 10
43.4605531742
 20
42.2458978705
 10
43.3312907381
 20
41.9256617434
 10
43.146030277
 20
41.4902052287
 10
43.0308958072
 20
41.2381951968
  0
LWPOLYLINE
  5
2D5
100
AcDbEntity
  8
DEFAULT_2
100
AcDbPolyline
 62
8
  6
HIDDEN
 90
4
 70
0
 10
40.0541281698
 20
37.9742061385
 10
40.1943944864
 20
38.3073335803
 10
40.386044311
 20
38.7323705228
 10
40.4886157512
 20
38.9411849153
  0
LWPOLYLINE
  5
2D6
100
AcDbEntity
  8
DEFAULT_2
100
AcDbPolyline
 62
8
  6
HIDDEN
 90
4
 70
0
 10
37.6103224346
 20
38.403769317
 10
37.7578524496
 20
38.7335002136
 10
37.9517724582
 20
39.1213123522
 10
37.9938069604
 20
39.1971522731
  0
LWPOLYLINE
  5
2D7
100
AcDbEntity
  8
DEFAULT_2
100
AcDbPolyline
 62
8
  6
HIDDEN
 90
4
 70
0
 10
35.1730610986
 20
38.9626712877
 10
35.3153198276
 20
39.229264557
 10
35.5083066944
 20
39.5027546703
 10
35.5825051079
 20
39.5781090654
  0
LINE
  5
2D8
100
AcDbEntity
  8
DEFAULT_2
100
AcDbLine
 62
8
  6
HIDDEN
 10
65.9606337845
 20
86.1188539668
 11
63.7106337845
 21
83.8688539668
  0
LINE
  5
2D9
100
AcDbEntity
  8
0
100
AcDbLine
 62
7
  6
CONTINUOUS
 10
78.4106337845
 20
67.1188539668
 11
75.4106337845
 21
67.1188539668
  0
LINE
  5
2DA
100
AcDbEntity
  8
0
100
AcDbLine
 62
7
  6
CONTINUOUS
 10
79.4106337845
 20
67.1188539668
 11
90.4106337845
 21
67.1188539668
  0
LINE
  5
2DB
100
AcDbEntity
  8
0
100
AcDbLine
 62
7
  6
CONTINUOUS
 10
78.4106337845
 20
68.1188539668
 11
91.4106337845
 21
68.1188539668
  0
LINE
  5
2DC
100
AcDbEntity
  8
DEFAULT_2
100
AcDbLine
 62
8
  6
HIDDEN
 10
73.8332835153
 20
37.1188539668
 11
75.1666168487
 21
34.8094528901
  0
LINE
  5
2DD
100
AcDbEntity
  8
0
100
AcDbLine
 62
7
  6
CONTINUOUS
 10
57.4106337845
 20
39.6188539668
 11
57.4106337845
 21
34.6188539668
  0
LINE
  5
2DE
100
AcDbEntity
  8
0
100
AcDbLine
 62
7
  6
CONTINUOUS
 10
57.6106337845
 20
28.2188539668
 11
57.6106337845
 21
29.7188539668
  0
LINE
  5
2DF
100
AcDbEntity
  8
0
100
AcDbLine
 62
7
  6
CONTINUOUS
 10
57.6106337845
 20
32.6188539668
 11
57.6106337845
 21
34.2188539668
  0
LINE
  5
2E0
100
AcDbEntity
  8
0
100
AcDbLine
 62
7
  6
CONTINUOUS
 10
57.6106337845
 20
39.8188539668
 11
57.6106337845
 21
52.0188539668
  0
LINE
  5
2E1
100
AcDbEntity
  8
0
100
AcDbLine
 62
7
  6
CONTINUOUS
 10
57.9106337845
 20
34.1188539668
 11
57.9106337845
 21
46.1188539668
  0
LINE
  5
2E2
100
AcDbEntity
  8
0
100
AcDbLine
 62
7
  6
CONTINUOUS
 10
58.1606337845
 20
62.1188539668
 11
58.1606337845
 21
58.1188539668
  0
LINE
  5
2E3
100
AcDbEntity
  8
0
100
AcDbLine
 62
7
  6
CONTINUOUS
 10
58.1606337845
 20
47.1188539668
 11
58.1606337845
 21
46.1189769738
  0
LINE
  5
2E4
100
AcDbEntity
  8
0
100
AcDbLine
 62
7
  6
CONTINUOUS
 10
58.1606337845
 20
34.1187310506
 11
58.1606337845
 21
33.1188539668
  0
LINE
  5
2E5
100
AcDbEntity
  8
0
100
AcDbLine
 62
7
  6
CONTINUOUS
 10
58.6606337845
 20
62.6188539668
 11
58.6606337845
 21
57.6188539668
  0
LINE
  5
2E6
100
AcDbEntity
  8
0
100
AcDbLine
 62
7
  6
CONTINUOUS
 10
58.6606337845
 20
47.6188539668
 11
58.6606337845
 21
46.1188539668
  0
LINE
  5
2E7
100
AcDbEntity
  8
0
100
AcDbLine
 62
7
  6
CONTINUOUS
 10
58.6606337845
 20
34.1188539668
 11
58.6606337845
 21
32.6188539668
  0
LINE
  5
2E8
100
AcDbEntity
  8
0
100
AcDbLine
 62
7
  6
CONTINUOUS
 10
59.2106337845
 20
28.6188539668
 11
59.2106337845
 21
34.1188539668
  0
LINE
  5
2E9
100
AcDbEntity
  8
0
100
AcDbLine
 62
7
  6
CONTINUOUS
 10
59.2106337845
 20
40.1188539668
 11
59.2106337845
 21
42.6188539668
  0
LINE
  5
2EA
100
AcDbEntity
  8
0
100
AcDbLine
 62
7
  6
CONTINUOUS
 10
60.4106337845
 20
23.1188539668
 11
60.4106337845
 21
26.1188539668
  0
LWPOLYLINE
  5
2EB
100
AcDbEntity
  8
DEFAULT_2
100
AcDbPolyline
 62
8
  6
HIDDEN
 90
4
 70
0
 10
45.9604936619
 20
42.2448871618
 10
45.8311485152
 20
41.9246442021
 10
45.644226197
 20
41.4858313053
 10
45.5304431207
 20
41.2372073113
  0
LWPOLYLINE
  5
2EC
100
AcDbEntity
  8
DEFAULT_2
100
AcDbPolyline
 62
8
  6
HIDDEN
 90
4
 70
0
 10
42.5546168055
 20
37.9754338412
 10
42.6914940516
 20
38.3004814366
 10
42.8804395534
 20
38.7204110854
 10
42.9885898343
 20
38.9410689735
  0
LWPOLYLINE
  5
2ED
100
AcDbEntity
  8
DEFAULT_2
100
AcDbPolyline
 62
8
  6
HIDDEN
 90
4
 70
0
 10
45.0544502577
 20
37.9759039312
 10
45.1913081934
 20
38.3007313181
 10
45.3804941402
 20
38.7206593918
 10
45.4889129582
 20
38.9416435059
  0
LINE
  5
2EE
100
AcDbEntity
  8
A_ACHSEN
100
AcDbLine
 62
8
  6
HIDDEN
 10
63.7106337845
 20
70.8688539668
 11
63.4106337845
 21
70.8688539668
  0
LINE
  5
2EF
100
AcDbEntity
  8
DEFAULT_2
100
AcDbLine
 62
8
  6
HIDDEN
 10
68.4106337845
 20
72.357861243
 11
64.7802401107
 21
72.357861243
  0
LINE
  5
2F0
100
AcDbEntity
  8
DEFAULT_2
100
AcDbLine
 62
8
  6
HIDDEN
 10
68.4106337845
 20
73.1188539668
 11
65.9606337845
 21
73.1188539668
  0
LINE
  5
2F1
100
AcDbEntity
  8
A_RUNDUNGEN
100
AcDbLine
 62
8
  6
HIDDEN
 10
75.4777910721
 20
57.5016966793
 11
77.8606337845
 21
55.1188539668
  0
LINE
  5
2F2
100
AcDbEntity
  8
0
100
AcDbLine
 62
7
  6
CONTINUOUS
 10
61.4106337845
 20
42.6188539668
 11
61.4106337845
 21
43.281131627
  0
LINE
  5
2F3
100
AcDbEntity
  8
0
100
AcDbLine
 62
7
  6
CONTINUOUS
 10
62.2106337845
 20
28.6188539668
 11
62.2106337845
 21
33.1188539668
  0
LINE
  5
2F4
100
AcDbEntity
  8
0
100
AcDbLine
 62
7
  6
CONTINUOUS
 10
62.2106337845
 20
41.1188539668
 11
62.2106337845
 21
51.6188539668
  0
LINE
  5
2F5
100
AcDbEntity
  8
A_ACHSEN
100
AcDbLine
 62
8
  6
HIDDEN
 10
63.4106337845
 20
94.3688539668
 11
63.4106337845
 21
70.8688539668
  0
LINE
  5
2F6
100
AcDbEntity
  8
A_RUNDUNGEN
100
AcDbLine
 62
7
  6
CONTINUOUS
 10
63.4106337845
 20
51.6188539668
 11
63.4106337845
 21
54.1188539668
  0
LINE
  5
2F7
100
AcDbEntity
  8
0
100
AcDbLine
 62
7
  6
CONTINUOUS
 10
63.4106337845
 20
54.1188539668
 11
63.4106337845
 21
119.1188539668
  0
LINE
  5
2F8
100
AcDbEntity
  8
A_ACHSEN
100
AcDbLine
 62
8
  6
HIDDEN
 10
63.7106337845
 20
114.3688539668
 11
63.7106337845
 21
83.8688539668
  0
LINE
  5
2F9
100
AcDbEntity
  8
A_ACHSEN
100
AcDbLine
 62
8
  6
HIDDEN
 10
63.7106337845
 20
81.3688539668
 11
63.7106337845
 21
70.8688539668
  0
LWPOLYLINE
  5
2FA
100
AcDbEntity
  8
DEFAULT_2
100
AcDbPolyline
 62
8
  6
HIDDEN
 90
4
 70
0
 10
48.4612073894
 20
42.247595646
 10
48.3335498695
 20
41.9309665645
 10
48.1465956457
 20
41.491063189
 10
48.030678785
 20
41.2374175702
  0
LWPOLYLINE
  5
2FB
100
AcDbEntity
  8
DEFAULT_2
100
AcDbPolyline
 62
8
  6
HIDDEN
 90
4
 70
0
 10
50.9605338275
 20
42.2451574901
 10
50.8324263649
 20
41.927878649
 10
50.6455923944
 20
41.4889750082
 10
50.5304838464
 20
41.2373162307
  0
LWPOLYLINE
  5
2FC
100
AcDbEntity
  8
DEFAULT_2
100
AcDbPolyline
 62
8
  6
HIDDEN
 90
4
 70
0
 10
47.5539180283
 20
37.9743346795
 10
47.690915404
 20
38.2998069284
 10
47.8804192274
 20
38.7207000154
 10
47.9890579221
 20
38.942069963
  0
LINE
  5
2FD
100
AcDbEntity
  8
DEFAULT_2
100
AcDbLine
 62
8
  6
HIDDEN
 10
65.9606337845
 20
73.1188539668
 11
63.7106337845
 21
70.8688539668
  0
LINE
  5
2FE
100
AcDbEntity
  8
DEFAULT_2
100
AcDbLine
 62
8
  6
HIDDEN
 10
65.9606337845
 20
73.1188539668
 11
65.9424235379
 21
73.1066770155
  0
LINE
  5
2FF
100
AcDbEntity
  8
A_ACHSEN
100
AcDbLine
 62
7
  6
CENTER
 10
59.5311429673
 20
76.1188539668
 11
81.8605289093
 21
76.1188539668
  0
LINE
  5
300
100
AcDbEntity
  8
0
100
AcDbLine
 62
7
  6
CONTINUOUS
 10
81.9106337845
 20
63.1188539668
 11
78.4106337845
 21
65.1188539668
  0
LINE
  5
301
100
AcDbEntity
  8
0
100
AcDbLine
 62
7
  6
CONTINUOUS
 10
82.1761982216
 20
64.1188539668
 11
79.4106337845
 21
65.6991765023
  0
LINE
  5
302
100
AcDbEntity
  8
0
100
AcDbLine
 62
7
  6
CONTINUOUS
 10
65.0106337845
 20
40.6188539668
 11
65.0106337845
 21
40.1188539668
  0
LINE
  5
303
100
AcDbEntity
  8
0
100
AcDbLine
 62
7
  6
CONTINUOUS
 10
65.0106337845
 20
34.1188539668
 11
65.0106337845
 21
33.6188539668
  0
LINE
  5
304
100
AcDbEntity
  8
0
100
AcDbLine
 62
7
  6
CONTINUOUS
 10
65.2106337845
 20
28.6188539668
 11
65.2106337845
 21
34.1188539668
  0
LINE
  5
305
100
AcDbEntity
  8
0
100
AcDbLine
 62
7
  6
CONTINUOUS
 10
65.2106337845
 20
40.1188539668
 11
65.2106337845
 21
51.6188539668
  0
LINE
  5
306
100
AcDbEntity
  8
0
100
AcDbLine
 62
7
  6
CONTINUOUS
 10
66.2106337845
 20
40.1188539668
 11
66.2106337845
 21
51.6188539668
  0
LINE
  5
307
100
AcDbEntity
  8
0
100
AcDbLine
 62
7
  6
CONTINUOUS
 10
66.4106337845
 20
34.1188539668
 11
66.4106337845
 21
28.1188539668
  0
LWPOLYLINE
  5
308
100
AcDbEntity
  8
DEFAULT_2
100
AcDbPolyline
 62
8
  6
HIDDEN
 90
4
 70
0
 10
50.0538289742
 20
37.9739333699
 10
50.1970274163
 20
38.3138915218
 10
50.3856441473
 20
38.7317969283
 10
50.4889464763
 20
38.9419626473
  0
LWPOLYLINE
  5
309
100
AcDbEntity
  8
DEFAULT_2
100
AcDbPolyline
 62
8
  6
HIDDEN
 90
4
 70
0
 10
52.5540445825
 20
37.9747777746
 10
52.6985535138
 20
38.3175543616
 10
52.8911187594
 20
38.7432078798
 10
52.9810350095
 20
38.9262785995
  0
LINE
  5
30A
100
AcDbEntity
  8
DEFAULT_2
100
AcDbLine
 62
8
  6
HIDDEN
 10
45.9604936619
 20
42.2448871618
 11
46.1116815644
 21
42.4664218654
  0
LINE
  5
30B
100
AcDbEntity
  8
0
100
AcDbLine
 62
7
  6
CONTINUOUS
 10
58.1606337845
 20
62.1188539668
 11
58.6606337845
 21
62.6188539668
  0
LINE
  5
30C
100
AcDbEntity
  8
DEFAULT_2
100
AcDbLine
 62
8
  6
HIDDEN
 10
68.4106337845
 20
79.1188539668
 11
65.9606337845
 21
79.1188539668
  0
LINE
  5
30D
100
AcDbEntity
  8
DEFAULT_2
100
AcDbLine
 62
8
  6
HIDDEN
 10
68.4106337845
 20
79.8798466906
 11
64.7802401107
 21
79.8798466906
  0
LINE
  5
30E
100
AcDbEntity
  8
A_ACHSEN
100
AcDbLine
 62
8
  6
HIDDEN
 10
63.7106337845
 20
81.3688539668
 11
63.4106337845
 21
81.3688539668
  0
LINE
  5
30F
100
AcDbEntity
  8
DEFAULT_2
100
AcDbLine
 62
8
  6
HIDDEN
 10
65.9606337845
 20
79.1188539668
 11
65.9424235379
 21
79.1310309182
  0
LINE
  5
310
100
AcDbEntity
  8
DEFAULT_2
100
AcDbLine
 62
8
  6
HIDDEN
 10
78.012047316
 20
58.6188539668
 11
78.1606337845
 21
58.3868031593
  0
LINE
  5
311
100
AcDbEntity
  8
A_FLAECHEN
100
AcDbLine
 62
8
  6
HIDDEN
 10
75.4276210826
 20
60.1188539668
 11
76.2936464864
 21
58.6188539668
  0
LINE
  5
312
100
AcDbEntity
  8
A_ACHSEN
100
AcDbLine
 62
8
  6
HIDDEN
 10
68.4106337845
 20
88.1187449386
 11
68.4106337845
 21
73.1189629951
  0
LINE
  5
313
100
AcDbEntity
  8
0
100
AcDbLine
 62
7
  6
CONTINUOUS
 10
68.4106337845
 20
123.1188539668
 11
68.4106337845
 21
52.1188539668
  0
LINE
  5
314
100
AcDbEntity
  8
0
100
AcDbLine
 62
7
  6
CONTINUOUS
 10
68.4106337845
 20
28.6188539668
 11
68.4106337845
 21
34.1188539668
  0
LINE
  5
315
100
AcDbEntity
  8
0
100
AcDbLine
 62
7
  6
CONTINUOUS
 10
68.4106337845
 20
40.1188539668
 11
68.4106337845
 21
51.6188539668
  0
LINE
  5
316
100
AcDbEntity
  8
0
100
AcDbLine
 62
7
  6
CONTINUOUS
 10
70.4106337845
 20
23.1188539668
 11
70.4106337845
 21
26.1188539668
  0
LINE
  5
317
100
AcDbEntity
  8
0
100
AcDbLine
 62
7
  6
CONTINUOUS
 10
71.4106337845
 20
28.6188539668
 11
71.4106337845
 21
28.1188539668
  0
LINE
  5
318
100
AcDbEntity
  8
DEFAULT_2
100
AcDbLine
 62
8
  6
HIDDEN
 10
52.9810090297
 20
38.9262927705
 11
52.9471914873
 21
38.8667283569
  0
LWPOLYLINE
  5
319
100
AcDbEntity
  8
DEFAULT_2
100
AcDbPolyline
 62
8
  6
HIDDEN
 90
3
 70
0
 10
34.0154539275
 20
40.5659888997
 10
33.9021860147
 20
40.4763786023
 10
33.668243829
 20
40.3368828492
  0
LINE
  5
31A
100
AcDbEntity
  8
A_ACHSEN
100
AcDbLine
 62
8
  6
HIDDEN
 10
63.7106337845
 20
83.8688539668
 11
63.4106337845
 21
83.8688539668
  0
LINE
  5
31B
100
AcDbEntity
  8
DEFAULT_2
100
AcDbLine
 62
8
  6
HIDDEN
 10
68.4106337845
 20
85.357861243
 11
64.7802401107
 21
85.357861243
  0
LINE
  5
31C
100
AcDbEntity
  8
DEFAULT_2
100
AcDbLine
 62
8
  6
HIDDEN
 10
65.9606337845
 20
79.1188539668
 11
63.7106337845
 21
81.3688539668
  0
LINE
  5
31D
100
AcDbEntity
  8
DEFAULT_2
100
AcDbLine
 62
8
  6
HIDDEN
 10
73.4106337845
 20
40.1188539668
 11
73.4106337845
 21
34.1188539668
  0
LINE
  5
31E
100
AcDbEntity
  8
A_RUNDUNGEN
100
AcDbLine
 62
7
  6
CONTINUOUS
 10
73.4106337845
 20
41.8188539505
 11
73.4106337845
 21
32.4188539832
  0
LINE
  5
31F
100
AcDbEntity
  8
0
100
AcDbLine
 62
7
  6
CONTINUOUS
 10
73.4106337845
 20
28.6188539668
 11
73.4106337845
 21
32.4188539668
  0
LINE
  5
320
100
AcDbEntity
  8
0
100
AcDbLine
 62
7
  6
CONTINUOUS
 10
73.4106337845
 20
41.8188539505
 11
73.4106337845
 21
51.6188539668
  0
LINE
  5
321
100
AcDbEntity
  8
0
100
AcDbLine
 62
7
  6
CONTINUOUS
 10
74.9106337845
 20
45.6188539668
 11
74.9106337845
 21
46.1188539668
  0
LINE
  5
322
100
AcDbEntity
  8
0
100
AcDbLine
 62
7
  6
CONTINUOUS
 10
75.4106337845
 20
28.1188539668
 11
75.4106337845
 21
32.1188539668
  0
LINE
  5
323
100
AcDbEntity
  8
0
100
AcDbLine
 62
7
  6
CONTINUOUS
 10
75.4106337845
 20
42.1188539668
 11
75.4106337845
 21
67.1188539668
  0
LINE
  5
324
100
AcDbEntity
  8
DEFAULT_2
100
AcDbLine
 62
8
  6
HIDDEN
 10
68.4106337845
 20
86.1188539668
 11
65.9606337845
 21
86.1188539668
  0
LINE
  5
325
100
AcDbEntity
  8
A_ACHSEN
100
AcDbLine
 62
7
  6
CENTER
 10
59.9004476805
 20
89.1188539668
 11
81.3787353409
 21
89.1188539668
  0
LINE
  5
326
100
AcDbEntity
  8
A_FASEN
100
AcDbLine
 62
7
  6
CONTINUOUS
 10
77.1106337845
 20
32.1188539668
 11
77.1106337845
 21
42.1188539668
  0
LINE
  5
327
100
AcDbEntity
  8
A_FASEN
100
AcDbLine
 62
7
  6
CONTINUOUS
 10
77.4106337845
 20
32.4204728975
 11
77.4106337845
 21
41.8172350361
  0
LINE
  5
328
100
AcDbEntity
  8
DEFAULT_2
100
AcDbLine
 62
8
  6
HIDDEN
 10
77.4106337845
 20
34.8094528901
 11
77.4106337845
 21
39.4282550436
  0
LINE
  5
329
100
AcDbEntity
  8
DEFAULT_2
100
AcDbLine
 62
8
  6
HIDDEN
 10
78.1606337845
 20
65.1188539668
 11
78.1606337845
 21
55.1188539668
  0
LINE
  5
32A
100
AcDbEntity
  8
0
100
AcDbLine
 62
7
  6
CONTINUOUS
 10
78.4106337845
 20
23.1188539668
 11
78.4106337845
 21
68.1188539668
  0
LINE
  5
32B
100
AcDbEntity
  8
0
100
AcDbLine
 62
7
  6
CONTINUOUS
 10
79.4106337845
 20
65.6991765023
 11
79.4106337845
 21
67.1188539668
  0
LINE
  5
32C
100
AcDbEntity
  8
A_FLAECHEN
100
AcDbLine
 62
8
  6
HIDDEN
 10
75.4276210826
 20
60.1188539668
 11
76.2936464864
 21
61.6188539668
  0
LINE
  5
32D
100
AcDbEntity
  8
0
100
AcDbLine
 62
7
  6
CONTINUOUS
 10
58.1606337845
 20
47.1188539668
 11
58.6606337845
 21
47.6188539668
  0
LINE
  5
32E
100
AcDbEntity
  8
0
100
AcDbLine
 62
7
  6
CONTINUOUS
 10
57.6106337845
 20
45.8188539668
 11
57.9106337845
 21
46.1188539668
  0
LINE
  5
32F
100
AcDbEntity
  8
A_RUNDUNGEN
100
AcDbLine
 62
8
  6
HIDDEN
 10
75.4777910721
 20
62.7360112543
 11
77.8606337845
 21
65.1188539668
  0
LINE
  5
330
100
AcDbEntity
  8
DEFAULT_2
100
AcDbLine
 62
8
  6
HIDDEN
 10
39.2368065924
 20
40.3202088115
 11
38.9042413292
 21
40.146900978
  0
LINE
  5
331
100
AcDbEntity
  8
DEFAULT_2
100
AcDbLine
 62
8
  6
HIDDEN
 10
68.4106337845
 20
92.1188539668
 11
65.9606337845
 21
92.1188539668
  0
LINE
  5
332
100
AcDbEntity
  8
DEFAULT_2
100
AcDbLine
 62
8
  6
HIDDEN
 10
68.4106337845
 20
92.8798466906
 11
64.7802401107
 21
92.8798466906
  0
LINE
  5
333
100
AcDbEntity
  8
DEFAULT_2
100
AcDbLine
 62
8
  6
HIDDEN
 10
65.9606337845
 20
92.1188539668
 11
65.94219563
 21
92.1311843423
  0
LINE
  5
334
100
AcDbEntity
  8
DEFAULT_2
100
AcDbLine
 62
8
  6
HIDDEN
 10
65.9606337845
 20
92.1188539668
 11
63.7106337845
 21
94.3688539668
  0
LINE
  5
335
100
AcDbEntity
  8
DEFAULT_2
100
AcDbLine
 62
8
  6
HIDDEN
 10
78.012047316
 20
61.6188539668
 11
78.1606337845
 21
61.8509047744
  0
LINE
  5
336
100
AcDbEntity
  8
0
100
AcDbLine
 62
7
  6
CONTINUOUS
 10
57.9106337845
 20
40.1188539668
 11
57.4106337845
 21
39.6188539668
  0
LINE
  5
337
100
AcDbEntity
  8
0
100
AcDbLine
 62
7
  6
CONTINUOUS
 10
90.4106337845
 20
65.6991765023
 11
87.6450693475
 21
64.1188539668
  0
LINE
  5
338
100
AcDbEntity
  8
0
100
AcDbLine
 62
7
  6
CONTINUOUS
 10
91.4106337845
 20
65.1188539668
 11
87.9106337845
 21
63.1188539668
  0
LINE
  5
339
100
AcDbEntity
  8
DEFAULT_2
100
AcDbLine
 62
8
  6
HIDDEN
 10
33.820585881
 20
40.3870938887
 11
33.6682449777
 21
40.3368823507
  0
LINE
  5
33A
100
AcDbEntity
  8
A_ACHSEN
100
AcDbLine
 62
8
  6
HIDDEN
 10
63.7106337845
 20
93.8688539668
 11
63.4106337845
 21
93.8688539668
  0
LINE
  5
33B
100
AcDbEntity
  8
A_ACHSEN
100
AcDbLine
 62
8
  6
HIDDEN
 10
63.7106337845
 20
94.3688539668
 11
63.4106337845
 21
94.3688539668
  0
LINE
  5
33C
100
AcDbEntity
  8
DEFAULT_2
100
AcDbLine
 62
8
  6
HIDDEN
 10
68.4106337845
 20
95.357861243
 11
64.7802401107
 21
95.357861243
  0
LINE
  5
33D
100
AcDbEntity
  8
DEFAULT_2
100
AcDbLine
 62
8
  6
HIDDEN
 10
68.4106337845
 20
96.1188539668
 11
65.9606337845
 21
96.1188539668
  0
LINE
  5
33E
100
AcDbEntity
  8
DEFAULT_2
100
AcDbLine
 62
8
  6
HIDDEN
 10
46.4442816105
 20
41.5146834668
 11
46.5017064727
 21
41.531384309
  0
LINE
  5
33F
100
AcDbEntity
  8
A_ACHSEN
100
AcDbLine
 62
7
  6
CENTER
 10
60.4544047503
 20
99.1188539668
 11
82.1817246215
 21
99.1188539668
  0
LINE
  5
340
100
AcDbEntity
  8
DEFAULT_2
100
AcDbLine
 62
8
  6
HIDDEN
 10
65.9606337845
 20
102.1188539668
 11
65.9421956478
 21
102.1311843304
  0
LINE
  5
341
100
AcDbEntity
  8
DEFAULT_2
100
AcDbLine
 62
8
  6
HIDDEN
 10
65.9606337845
 20
102.1188539668
 11
63.7106337845
 21
104.3688539668
  0
LINE
  5
342
100
AcDbEntity
  8
0
100
AcDbLine
 62
7
  6
CONTINUOUS
 10
90.4106337845
 20
67.1188539668
 11
90.4106337845
 21
65.6991765023
  0
LINE
  5
343
100
AcDbEntity
  8
0
100
AcDbLine
 62
7
  6
CONTINUOUS
 10
91.4106337845
 20
65.1188539668
 11
91.4106337845
 21
123.1188539668
  0
LINE
  5
344
100
AcDbEntity
  8
DEFAULT_2
100
AcDbLine
 62
8
  6
HIDDEN
 10
73.8332835153
 20
37.1188539668
 11
75.1666168487
 21
39.4282550436
  0
LINE
  5
345
100
AcDbEntity
  8
0
100
AcDbLine
 62
7
  6
CONTINUOUS
 10
65.0106337845
 20
33.6188539668
 11
64.5106337845
 21
33.1188539668
  0
LINE
  5
346
100
AcDbEntity
  8
DEFAULT_2
100
AcDbLine
 62
8
  6
HIDDEN
 10
68.4106337845
 20
102.1188539668
 11
65.9606337845
 21
102.1188539668
  0
LINE
  5
347
100
AcDbEntity
  8
DEFAULT_2
100
AcDbLine
 62
8
  6
HIDDEN
 10
68.4106337845
 20
102.8798466906
 11
64.7802401107
 21
102.8798466906
  0
LINE
  5
348
100
AcDbEntity
  8
A_ACHSEN
100
AcDbLine
 62
8
  6
HIDDEN
 10
63.7106337845
 20
103.8688539668
 11
63.4106337845
 21
103.8688539668
  0
LINE
  5
349
100
AcDbEntity
  8
A_ACHSEN
100
AcDbLine
 62
8
  6
HIDDEN
 10
63.7106337845
 20
104.3688539668
 11
63.4106337845
 21
104.3688539668
  0
LINE
  5
34A
100
AcDbEntity
  8
DEFAULT_2
100
AcDbLine
 62
8
  6
HIDDEN
 10
65.9606337845
 20
112.1188539668
 11
63.7106337845
 21
114.3688539668
  0
LINE
  5
34B
100
AcDbEntity
  8
DEFAULT_2
100
AcDbLine
 62
8
  6
HIDDEN
 10
68.4106337845
 20
105.357861243
 11
64.7802401107
 21
105.357861243
  0
LINE
  5
34C
100
AcDbEntity
  8
DEFAULT_2
100
AcDbLine
 62
8
  6
HIDDEN
 10
68.4106337845
 20
106.1188539668
 11
65.9606337845
 21
106.1188539668
  0
LINE
  5
34D
100
AcDbEntity
  8
DEFAULT_2
100
AcDbLine
 62
8
  6
HIDDEN
 10
65.9606337845
 20
112.1188539668
 11
65.94219563
 21
112.1311843423
  0
LINE
  5
34E
100
AcDbEntity
  8
A_ACHSEN
100
AcDbLine
 62
7
  6
CENTER
 10
60.2697523937
 20
109.1188539668
 11
82.2620235496
 21
109.1188539668
  0
LINE
  5
34F
100
AcDbEntity
  8
DEFAULT_2
100
AcDbLine
 62
8
  6
HIDDEN
 10
68.4106337845
 20
112.1188539668
 11
65.9606337845
 21
112.1188539668
  0
LINE
  5
350
100
AcDbEntity
  8
DEFAULT_2
100
AcDbLine
 62
8
  6
HIDDEN
 10
68.4106337845
 20
112.8798466906
 11
64.7802401107
 21
112.8798466906
  0
LINE
  5
351
100
AcDbEntity
  8
A_FASEN
100
AcDbLine
 62
7
  6
CONTINUOUS
 10
77.4106337845
 20
32.4188539668
 11
77.1106337845
 21
32.1188539668
  0
LINE
  5
352
100
AcDbEntity
  8
A_ACHSEN
100
AcDbLine
 62
8
  6
HIDDEN
 10
63.7106337845
 20
114.3688539668
 11
63.4106337845
 21
114.3688539668
  0
LINE
  5
353
100
AcDbEntity
  8
0
100
AcDbLine
 62
7
  6
CONTINUOUS
 10
76.2010633473
 20
23.8435001636
 11
77.6859875878
 21
25.3284244041
  0
LINE
  5
354
100
AcDbEntity
  8
0
100
AcDbLine
 62
7
  6
CONTINUOUS
 10
63.4106337845
 20
119.1188539668
 11
68.4106337845
 21
119.1188539668
  0
LINE
  5
355
100
AcDbEntity
  8
0
100
AcDbLine
 62
7
  6
CONTINUOUS
 10
91.4106337845
 20
123.1188539668
 11
68.4106337845
 21
123.1188539668
  0
ARC
  5
356
100
AcDbEntity
  8
DEFAULT_2
100
AcDbCircle
 62
8
  6
HIDDEN
 10
23.7748260056
 20
35.7613287583
 40
16.4435934286
100
AcDbArc
 50
15.5993562258
 51
16.0511576388
  0
ARC
  5
357
100
AcDbEntity
  8
DEFAULT_2
100
AcDbCircle
 62
8
  6
HIDDEN
 10
46.0873164511
 20
42.199057179
 40
7.4704694205
100
AcDbArc
 50
195.9442686566
 51
196.5308311001
  0
ARC
  5
358
100
AcDbEntity
  8
DEFAULT_2
100
AcDbCircle
 62
8
  6
HIDDEN
 10
33.2857070022
 20
38.1882256468
 40
6.6391318115
100
AcDbArc
 50
18.6188518685
 51
18.8700730027
  0
ARC
  5
359
100
AcDbEntity
  8
DEFAULT_2
100
AcDbCircle
 62
8
  6
HIDDEN
 10
45.2042846884
 20
41.7802037876
 40
6.5064953189
100
AcDbArc
 50
195.2072631744
 51
195.9260118286
  0
ARC
  5
35A
100
AcDbEntity
  8
DEFAULT_2
100
AcDbCircle
 62
8
  6
HIDDEN
 10
86.5743089923
 20
-55.0345199526
 40
106.2962419717
100
AcDbArc
 50
116.2399721872
 51
116.6190939471
  0
ARC
  5
35B
100
AcDbEntity
  8
0
100
AcDbCircle
 62
7
  6
CONTINUOUS
 10
77.5445662316
 20
25.4698457603
 40
0.2
100
AcDbArc
 50
315.0
 51
45.0
  0
ARC
  5
35C
100
AcDbEntity
  8
0
100
AcDbCircle
 62
7
  6
CONTINUOUS
 10
76.0596419911
 20
23.9849215198
 40
0.2
100
AcDbArc
 50
225.0
 51
315.0
  0
ARC
  5
35D
100
AcDbEntity
  8
DEFAULT_2
100
AcDbCircle
 62
8
  6
HIDDEN
 10
55.7798745668
 20
65.6134837348
 40
16.9063758739
100
AcDbArc
 50
55.5789859719
 51
56.9832590801
  0
ARC
  5
35E
100
AcDbEntity
  8
DEFAULT_2
100
AcDbCircle
 62
8
  6
HIDDEN
 10
56.3617973412
 20
66.4854178262
 40
15.8581739607
100
AcDbArc
 50
55.5325725738
 51
57.0296714545
  0
ARC
  5
35F
100
AcDbEntity
  8
DEFAULT_2
100
AcDbCircle
 62
8
  6
HIDDEN
 10
58.1510294818
 20
69.0986428173
 40
12.6911124637
100
AcDbArc
 50
54.9594023075
 51
55.5154467498
  0
ARC
  5
360
100
AcDbEntity
  8
DEFAULT_2
100
AcDbCircle
 62
8
  6
HIDDEN
 10
59.6380513891
 20
71.2074370998
 40
10.1107654139
100
AcDbArc
 50
53.5881563173
 51
54.9974491913
  0
ARC
  5
361
100
AcDbEntity
  8
0
100
AcDbCircle
 62
7
  6
CONTINUOUS
 10
65.9106337845
 20
40.1188539668
 40
5.5
100
AcDbArc
 50
132.3957204106
 51
144.9031987724
  0
ARC
  5
362
100
AcDbEntity
  8
A_RUNDUNGEN
100
AcDbCircle
 62
7
  6
CONTINUOUS
 10
64.4106337845
 20
53.1188539668
 40
1.0
100
AcDbArc
 50
180.0
 51
270.0
  0
ARC
  5
363
100
AcDbEntity
  8
A_RUNDUNGEN
100
AcDbCircle
 62
7
  6
CONTINUOUS
 10
65.4106337845
 20
51.1188539668
 40
1.0
100
AcDbArc
 50
30.1949503164
 51
90.0
  0
ARC
  5
364
100
AcDbEntity
  8
DEFAULT_2
100
AcDbCircle
 62
8
  6
HIDDEN
 10
55.7798745669
 20
109.6242241988
 40
16.9063758739
100
AcDbArc
 50
303.0167409199
 51
304.4210140281
  0
ARC
  5
365
100
AcDbEntity
  8
DEFAULT_2
100
AcDbCircle
 62
8
  6
HIDDEN
 10
55.7798745668
 20
86.6242241989
 40
16.9063758739
100
AcDbArc
 50
303.0167409199
 51
304.4210140281
  0
ARC
  5
366
100
AcDbEntity
  8
DEFAULT_2
100
AcDbCircle
 62
8
  6
HIDDEN
 10
55.7798745669
 20
99.6242241987
 40
16.9063758738
100
AcDbArc
 50
303.0167409199
 51
304.4210140281
  0
ARC
  5
367
100
AcDbEntity
  8
DEFAULT_2
100
AcDbCircle
 62
8
  6
HIDDEN
 10
55.7798747209
 20
119.6242239642
 40
16.9063755932
100
AcDbArc
 50
303.0167409153
 51
304.4210141871
  0
ARC
  5
368
100
AcDbEntity
  8
DEFAULT_2
100
AcDbCircle
 62
8
  6
HIDDEN
 10
56.3617967683
 20
99.4854169654
 40
15.8581749947
100
AcDbArc
 50
55.5325729071
 51
57.0296714103
  0
ARC
  5
369
100
AcDbEntity
  8
DEFAULT_2
100
AcDbCircle
 62
8
  6
HIDDEN
 10
56.3617967683
 20
85.7522909682
 40
15.8581749947
100
AcDbArc
 50
302.9703285897
 51
304.4674270929
  0
ARC
  5
36A
100
AcDbEntity
  8
DEFAULT_2
100
AcDbCircle
 62
8
  6
HIDDEN
 10
56.3617967682
 20
79.4854169654
 40
15.8581749948
100
AcDbArc
 50
55.532572907
 51
57.0296714103
  0
ARC
  5
36B
100
AcDbEntity
  8
DEFAULT_2
100
AcDbCircle
 62
8
  6
HIDDEN
 10
56.3617975443
 20
89.4854181322
 40
15.8581735935
100
AcDbArc
 50
55.5325723519
 51
57.0296714685
  0
ARC
  5
36C
100
AcDbEntity
  8
DEFAULT_2
100
AcDbCircle
 62
8
  6
HIDDEN
 10
70.6948509237
 20
66.0434390844
 40
8.5133573235
100
AcDbArc
 50
125.238079948
 51
126.4268573856
  0
ARC
  5
36D
100
AcDbEntity
  8
DEFAULT_2
100
AcDbCircle
 62
8
  6
HIDDEN
 10
70.6609968517
 20
66.0903228732
 40
8.4555315031
100
AcDbArc
 50
125.2340215121
 51
126.4309223794
  0
ARC
  5
36E
100
AcDbEntity
  8
DEFAULT_2
100
AcDbCircle
 62
8
  6
HIDDEN
 10
70.5645339963
 20
66.2229321854
 40
8.291552879
100
AcDbArc
 50
123.8811872974
 51
126.4387931347
  0
ARC
  5
36F
100
AcDbEntity
  8
DEFAULT_2
100
AcDbCircle
 62
8
  6
HIDDEN
 10
70.4989137155
 20
66.3184067685
 40
8.175723467
100
AcDbArc
 50
124.3650943694
 51
125.2283777895
  0
ARC
  5
370
100
AcDbEntity
  8
DEFAULT_2
100
AcDbCircle
 62
8
  6
HIDDEN
 10
70.4894340529
 20
66.3320492211
 40
8.1591112835
100
AcDbArc
 50
124.3639840948
 51
125.2292689793
  0
ARC
  5
371
100
AcDbEntity
  8
DEFAULT_2
100
AcDbCircle
 62
8
  6
HIDDEN
 10
70.4560278612
 20
66.377746818
 40
8.102538219
100
AcDbArc
 50
123.8527573256
 51
124.1006326002
  0
ARC
  5
372
100
AcDbEntity
  8
DEFAULT_2
100
AcDbCircle
 62
8
  6
HIDDEN
 10
70.3384569918
 20
66.5521515152
 40
7.8922058858
100
AcDbArc
 50
123.8510058416
 51
124.1034256833
  0
ARC
  5
373
100
AcDbEntity
  8
DEFAULT_2
100
AcDbCircle
 62
8
  6
HIDDEN
 10
70.3337213991
 20
66.5594443118
 40
7.883512064
100
AcDbArc
 50
124.1046451433
 51
124.3628982437
  0
ARC
  5
374
100
AcDbEntity
  8
DEFAULT_2
100
AcDbCircle
 62
8
  6
HIDDEN
 10
70.3183601172
 20
66.5819844906
 40
7.85623522
100
AcDbArc
 50
124.1043456624
 51
124.3629585483
  0
ARC
  5
375
100
AcDbEntity
  8
DEFAULT_2
100
AcDbCircle
 62
8
  6
HIDDEN
 10
79.3254880001
 20
37.1188539668
 40
2.2360679775
100
AcDbArc
 50
148.9090696423
 51
211.0909303577
  0
ARC
  5
376
100
AcDbEntity
  8
A_RUNDUNGEN
100
AcDbCircle
 62
7
  6
CONTINUOUS
 10
70.4106337845
 20
51.1188539668
 40
1.0
100
AcDbArc
 50
30.1975753944
 51
90.0
  0
ARC
  5
377
100
AcDbEntity
  8
A_RUNDUNGEN
100
AcDbCircle
 62
8
  6
HIDDEN
 10
75.1949483596
 20
57.2188539668
 40
0.4
100
AcDbArc
 50
44.9999999997
 51
90.0
  0
ARC
  5
378
100
AcDbEntity
  8
A_RUNDUNGEN
100
AcDbCircle
 62
8
  6
HIDDEN
 10
75.1949483596
 20
63.0188539668
 40
0.4
100
AcDbArc
 50
270.0
 51
315.0000000003
  0
ARC
  5
379
100
AcDbEntity
  8
A_RUNDUNGEN
100
AcDbCircle
 62
7
  6
CONTINUOUS
 10
73.7106337845
 20
45.9188539668
 40
0.3
100
AcDbArc
 50
180.0000000744
 51
270.0
  0
ARC
  5
37A
100
AcDbEntity
  8
A_RUNDUNGEN
100
AcDbCircle
 62
7
  6
CONTINUOUS
 10
73.7106337845
 20
32.4188539668
 40
0.3
100
AcDbArc
 50
180.0
 51
270.0
  0
ARC
  5
37B
100
AcDbEntity
  8
A_RUNDUNGEN
100
AcDbCircle
 62
7
  6
CONTINUOUS
 10
73.7106337845
 20
41.8188539668
 40
0.3
100
AcDbArc
 50
90.0
 51
180.0
  0
ARC
  5
37C
100
AcDbEntity
  8
A_RUNDUNGEN
100
AcDbCircle
 62
7
  6
CONTINUOUS
 10
73.1106337845
 20
40.4188539668
 40
0.3
100
AcDbArc
 50
270.0
 51
360.0
  0
ARC
  5
37D
100
AcDbEntity
  8
A_RUNDUNGEN
100
AcDbCircle
 62
7
  6
CONTINUOUS
 10
73.1106337845
 20
33.8188539668
 40
0.3
100
AcDbArc
 50
0.0
 51
90.0
  0
ARC
  5
37E
100
AcDbEntity
  8
DEFAULT_2
100
AcDbCircle
 62
8
  6
HIDDEN
 10
70.4989137154
 20
85.9193011651
 40
8.1757234668
100
AcDbArc
 50
234.7716222105
 51
235.6349056306
  0
ARC
  5
37F
100
AcDbEntity
  8
DEFAULT_2
100
AcDbCircle
 62
8
  6
HIDDEN
 10
70.4989137149
 20
98.9193011643
 40
8.1757234659
100
AcDbArc
 50
234.7716222104
 51
235.6349056307
  0
ARC
  5
380
100
AcDbEntity
  8
DEFAULT_2
100
AcDbCircle
 62
8
  6
HIDDEN
 10
70.4985485824
 20
85.9187427889
 40
8.1750567298
100
AcDbArc
 50
234.7714555643
 51
235.4049320727
  0
ARC
  5
381
100
AcDbEntity
  8
DEFAULT_2
100
AcDbCircle
 62
8
  6
HIDDEN
 10
70.4894340535
 20
85.9056587133
 40
8.1591112845
100
AcDbArc
 50
234.7707310208
 51
235.6360159052
  0
ARC
  5
382
100
AcDbEntity
  8
DEFAULT_2
100
AcDbCircle
 62
8
  6
HIDDEN
 10
70.4894340527
 20
79.3320492215
 40
8.1591112831
100
AcDbArc
 50
124.3639840948
 51
125.2292689793
  0
ARC
  5
383
100
AcDbEntity
  8
DEFAULT_2
100
AcDbCircle
 62
8
  6
HIDDEN
 10
70.4894340526
 20
89.3320492215
 40
8.1591112831
100
AcDbArc
 50
124.3639840948
 51
125.2292689793
  0
ARC
  5
384
100
AcDbEntity
  8
DEFAULT_2
100
AcDbCircle
 62
8
  6
HIDDEN
 10
70.4789061668
 20
98.8932093236
 40
8.1428945363
100
AcDbArc
 50
233.537852312
 51
236.1438756337
  0
ARC
  5
385
100
AcDbEntity
  8
DEFAULT_2
100
AcDbCircle
 62
8
  6
HIDDEN
 10
70.4789061669
 20
85.8932093237
 40
8.1428945364
100
AcDbArc
 50
233.537852312
 51
236.1438756337
  0
ARC
  5
386
100
AcDbEntity
  8
DEFAULT_2
100
AcDbCircle
 62
8
  6
HIDDEN
 10
70.4560278655
 20
79.3777468117
 40
8.1025382266
100
AcDbArc
 50
123.8527573257
 51
124.100632599
  0
ARC
  5
387
100
AcDbEntity
  8
DEFAULT_2
100
AcDbCircle
 62
8
  6
HIDDEN
 10
70.4560278652
 20
85.8599611216
 40
8.1025382261
100
AcDbArc
 50
235.8993673984
 51
236.1472426743
  0
ARC
  5
388
100
AcDbEntity
  8
DEFAULT_2
100
AcDbCircle
 62
8
  6
HIDDEN
 10
70.4560278631
 20
89.3777468152
 40
8.1025382223
100
AcDbArc
 50
123.8527573256
 51
124.100632598
  0
ARC
  5
389
100
AcDbEntity
  8
DEFAULT_2
100
AcDbCircle
 62
8
  6
HIDDEN
 10
70.4485207812
 20
85.8460211941
 40
8.0867889576
100
AcDbArc
 50
235.4041725351
 51
235.6365589553
  0
ARC
  5
38A
100
AcDbEntity
  8
DEFAULT_2
100
AcDbCircle
 62
8
  6
HIDDEN
 10
70.3384569914
 20
98.6855564178
 40
7.892205885
100
AcDbArc
 50
235.896574316
 51
236.1489941584
  0
ARC
  5
38B
100
AcDbEntity
  8
DEFAULT_2
100
AcDbCircle
 62
8
  6
HIDDEN
 10
70.3384569828
 20
85.6855564051
 40
7.8922058697
100
AcDbArc
 50
235.8965743173
 51
236.1489941587
  0
ARC
  5
38C
100
AcDbEntity
  8
DEFAULT_2
100
AcDbCircle
 62
8
  6
HIDDEN
 10
70.333721404
 20
98.6782636291
 40
7.8835120728
100
AcDbArc
 50
235.6371017564
 51
235.8953548559
  0
ARC
  5
38D
100
AcDbEntity
  8
DEFAULT_2
100
AcDbCircle
 62
8
  6
HIDDEN
 10
70.333716886
 20
85.6782570012
 40
7.8835040515
100
AcDbArc
 50
235.6371020137
 51
235.8953797926
  0
ARC
  5
38E
100
AcDbEntity
  8
DEFAULT_2
100
AcDbCircle
 62
8
  6
HIDDEN
 10
70.3183601176
 20
85.6557234436
 40
7.8562352207
100
AcDbArc
 50
235.6370414517
 51
235.8956543354
  0
ARC
  5
38F
100
AcDbEntity
  8
DEFAULT_2
100
AcDbCircle
 62
8
  6
HIDDEN
 10
70.318360117
 20
79.5819844909
 40
7.8562352197
100
AcDbArc
 50
124.1043456621
 51
124.3629585483
  0
ARC
  5
390
100
AcDbEntity
  8
DEFAULT_2
100
AcDbCircle
 62
8
  6
HIDDEN
 10
70.3183601112
 20
89.5819844994
 40
7.8562352093
100
AcDbArc
 50
124.1043456608
 51
124.3629585485
  0
ARC
  5
391
100
AcDbEntity
  8
DEFAULT_2
100
AcDbCircle
 62
8
  6
HIDDEN
 10
70.4989137151
 20
118.9193011646
 40
8.1757234663
100
AcDbArc
 50
234.7716222105
 51
235.6349056307
  0
ARC
  5
392
100
AcDbEntity
  8
DEFAULT_2
100
AcDbCircle
 62
8
  6
HIDDEN
 10
70.4989135231
 20
108.9193008891
 40
8.1757231305
100
AcDbArc
 50
234.7716228515
 51
235.6349062385
  0
ARC
  5
393
100
AcDbEntity
  8
DEFAULT_2
100
AcDbCircle
 62
8
  6
HIDDEN
 10
70.4894340072
 20
99.3320492868
 40
8.1591112035
100
AcDbArc
 50
124.3639838128
 51
125.2292686849
  0
ARC
  5
394
100
AcDbEntity
  8
DEFAULT_2
100
AcDbCircle
 62
8
  6
HIDDEN
 10
70.4789061668
 20
118.8932093235
 40
8.1428945362
100
AcDbArc
 50
233.537852312
 51
236.1438756337
  0
ARC
  5
395
100
AcDbEntity
  8
DEFAULT_2
100
AcDbCircle
 62
8
  6
HIDDEN
 10
70.4789061353
 20
108.8932092789
 40
8.1428944816
100
AcDbArc
 50
233.5378523033
 51
236.1438759323
  0
ARC
  5
396
100
AcDbEntity
  8
DEFAULT_2
100
AcDbCircle
 62
8
  6
HIDDEN
 10
70.4560444574
 20
99.3777221294
 40
8.1025679672
100
AcDbArc
 50
123.8527574169
 51
124.1006144736
  0
ARC
  5
397
100
AcDbEntity
  8
DEFAULT_2
100
AcDbCircle
 62
8
  6
HIDDEN
 10
70.3384784917
 20
108.6855883445
 40
7.8922443762
100
AcDbArc
 50
235.896619207
 51
236.1489938112
  0
ARC
  5
398
100
AcDbEntity
  8
DEFAULT_2
100
AcDbCircle
 62
8
  6
HIDDEN
 10
70.3384569924
 20
118.6855564193
 40
7.8922058868
100
AcDbArc
 50
235.8965743166
 51
236.1489941584
  0
ARC
  5
399
100
AcDbEntity
  8
DEFAULT_2
100
AcDbCircle
 62
8
  6
HIDDEN
 10
70.3337214096
 20
118.6782636372
 40
7.8835120826
100
AcDbArc
 50
235.6371017566
 51
235.8953548562
  0
ARC
  5
39A
100
AcDbEntity
  8
DEFAULT_2
100
AcDbCircle
 62
8
  6
HIDDEN
 10
70.3337142259
 20
108.6782531058
 40
7.8834993345
100
AcDbArc
 50
235.6371022613
 51
235.8953993971
  0
ARC
  5
39B
100
AcDbEntity
  8
DEFAULT_2
100
AcDbCircle
 62
8
  6
HIDDEN
 10
70.3183563185
 20
99.5819900699
 40
7.8562284703
100
AcDbArc
 50
124.1043275666
 51
124.3629583584
  0
ARC
  5
39C
100
AcDbEntity
  8
DEFAULT_2
100
AcDbCircle
 62
8
  6
HIDDEN
 10
70.7111235084
 20
86.2164180909
 40
8.5408415457
100
AcDbArc
 50
233.5735400812
 51
234.3910286216
  0
ARC
  5
39D
100
AcDbEntity
  8
DEFAULT_2
100
AcDbCircle
 62
8
  6
HIDDEN
 10
70.6948509239
 20
86.1942688495
 40
8.5133573237
100
AcDbArc
 50
233.5731426144
 51
234.7619200519
  0
ARC
  5
39E
100
AcDbEntity
  8
DEFAULT_2
100
AcDbCircle
 62
8
  6
HIDDEN
 10
70.6609968518
 20
79.0903228729
 40
8.4555315033
100
AcDbArc
 50
125.2340215121
 51
126.4309223794
  0
ARC
  5
39F
100
AcDbEntity
  8
DEFAULT_2
100
AcDbCircle
 62
8
  6
HIDDEN
 10
70.6609968517
 20
89.0903228732
 40
8.4555315031
100
AcDbArc
 50
125.2340215121
 51
126.4309223795
  0
ARC
  5
3A0
100
AcDbEntity
  8
DEFAULT_2
100
AcDbCircle
 62
8
  6
HIDDEN
 10
70.6609968513
 20
86.14738506
 40
8.4555315025
100
AcDbArc
 50
233.5690776205
 51
234.765978488
  0
ARC
  5
3A1
100
AcDbEntity
  8
DEFAULT_2
100
AcDbCircle
 62
8
  6
HIDDEN
 10
70.6609967873
 20
99.090322962
 40
8.4555313933
100
AcDbArc
 50
125.2340212156
 51
126.4309223861
  0
ARC
  5
3A2
100
AcDbEntity
  8
DEFAULT_2
100
AcDbCircle
 62
8
  6
HIDDEN
 10
70.5811786145
 20
86.0349637342
 40
8.3176569607
100
AcDbArc
 50
234.3909914023
 51
234.7683133426
  0
ARC
  5
3A3
100
AcDbEntity
  8
DEFAULT_2
100
AcDbCircle
 62
8
  6
HIDDEN
 10
70.5645339963
 20
89.2229321855
 40
8.2915528789
100
AcDbArc
 50
123.8811872974
 51
126.4387931347
  0
ARC
  5
3A4
100
AcDbEntity
  8
DEFAULT_2
100
AcDbCircle
 62
8
  6
HIDDEN
 10
70.5645339963
 20
79.2229321855
 40
8.2915528789
100
AcDbArc
 50
123.8811872974
 51
126.4387931347
  0
ARC
  5
3A5
100
AcDbEntity
  8
DEFAULT_2
100
AcDbCircle
 62
8
  6
HIDDEN
 10
70.6948509237
 20
119.1942688493
 40
8.5133573235
100
AcDbArc
 50
233.5731426144
 51
234.761920052
  0
ARC
  5
3A6
100
AcDbEntity
  8
DEFAULT_2
100
AcDbCircle
 62
8
  6
HIDDEN
 10
70.6948509235
 20
99.1942688489
 40
8.513357323
100
AcDbArc
 50
233.5731426144
 51
234.761920052
  0
ARC
  5
3A7
100
AcDbEntity
  8
DEFAULT_2
100
AcDbCircle
 62
8
  6
HIDDEN
 10
70.6948503502
 20
109.1942680632
 40
8.5133563505
100
AcDbArc
 50
233.5731459989
 51
234.761920782
  0
ARC
  5
3A8
100
AcDbEntity
  8
DEFAULT_2
100
AcDbCircle
 62
8
  6
HIDDEN
 10
70.5645329158
 20
99.2229337661
 40
8.2915509644
100
AcDbArc
 50
123.8811871217
 51
126.4387923472
  0
SPLINE
  5
3A9
100
AcDbEntity
  8
DEFAULT_2
100
AcDbSpline
 62
8
  6
HIDDEN
 70
0
 71
3
 72
10
 73
6
 74
0
 42
0.0000001
 43
0.0000001
 44
0.0000000001
 40
0.0
 40
0.0
 40
0.0
 40
0.0
 40
0.1813876336
 40
0.5510784582
 40
1.0
 40
1.0
 40
1.0
 40
1.0
 10
52.9471914873
 20
38.8667283569
 30
0.0
 10
52.9447565465
 20
38.9260747359
 30
0.0
 10
52.9385155047
 20
39.106422581
 30
0.0
 10
52.9300107845
 20
39.4337762332
 30
0.0
 10
52.9268584374
 20
39.7018225949
 30
0.0
 10
52.9252673113
 20
39.8488156425
 30
0.0
  0
SPLINE
  5
3AA
100
AcDbEntity
  8
DEFAULT_2
100
AcDbSpline
 62
8
  6
HIDDEN
 70
0
 71
3
 72
11
 73
7
 74
0
 42
0.0000001
 43
0.0000001
 44
0.0000000001
 40
0.0
 40
0.0
 40
0.0
 40
0.0
 40
0.3961706041
 40
0.7178647349
 40
0.9273344815
 40
1.0
 40
1.0
 40
1.0
 40
1.0
 10
52.9237228024
 20
39.849231756
 30
0.0
 10
52.9237228024
 20
39.6999561986
 30
0.0
 10
52.9194583592
 20
39.4294822397
 30
0.0
 10
52.9208117646
 20
39.0800615115
 30
0.0
 10
52.9206337862
 20
38.8525415352
 30
0.0
 10
52.9206237772
 20
38.7462340888
 30
0.0
 10
52.9206337845
 20
38.7188539668
 30
0.0
  0
SPLINE
  5
3AB
100
AcDbEntity
  8
DEFAULT_2
100
AcDbSpline
 62
8
  6
HIDDEN
 70
0
 71
3
 72
13
 73
9
 74
0
 42
0.0000001
 43
0.0000001
 44
0.0000000001
 40
0.0
 40
0.0
 40
0.0
 40
0.0
 40
0.3445606686
 40
0.6192832964
 40
0.731924357
 40
0.8304894137
 40
0.9182564174
 40
1.0
 40
1.0
 40
1.0
 40
1.0
 10
51.7811746811
 20
38.9991053227
 30
0.0
 10
51.8006463013
 20
38.957951297
 30
0.0
 10
51.8382386995
 20
38.8851893552
 30
0.0
 10
51.8936349978
 20
38.8051236862
 30
0.0
 10
51.939450954
 20
38.759854863
 30
0.0
 10
51.9717997203
 20
38.7367942199
 30
0.0
 10
52.0045782963
 20
38.7225596416
 30
0.0
 10
52.0270765302
 20
38.7192637476
 30
0.0
 10
52.0378775909
 20
38.7192597318
 30
0.0
  0
SPLINE
  5
3AC
100
AcDbEntity
  8
DEFAULT_2
100
AcDbSpline
 62
8
  6
HIDDEN
 70
0
 71
3
 72
11
 73
7
 74
0
 42
0.0000001
 43
0.0000001
 44
0.0000000001
 40
0.0
 40
0.0
 40
0.0
 40
0.0
 40
0.0802778338
 40
0.3057399309
 40
0.6332153745
 40
1.0
 40
1.0
 40
1.0
 40
1.0
 10
52.9206337845
 20
41.5188539668
 30
0.0
 10
52.9206193227
 20
41.4741758407
 30
0.0
 10
52.9206337857
 20
41.3040183532
 30
0.0
 10
52.9208700404
 20
40.9516070949
 30
0.0
 10
52.9192303553
 20
40.4397381257
 30
0.0
 10
52.9239855519
 20
40.0533631252
 30
0.0
 10
52.9237228024
 20
39.849231756
 30
0.0
  0
SPLINE
  5
3AD
100
AcDbEntity
  8
DEFAULT_2
100
AcDbSpline
 62
8
  6
HIDDEN
 70
0
 71
3
 72
11
 73
7
 74
0
 42
0.0000001
 43
0.0000001
 44
0.0000000001
 40
0.0
 40
0.0
 40
0.0
 40
0.0
 40
0.301792134
 40
0.5749877603
 40
0.8100544641
 40
1.0
 40
1.0
 40
1.0
 40
1.0
 10
53.2290039664
 20
39.7462136142
 30
0.0
 10
53.2097761576
 20
39.6620620218
 30
0.0
 10
53.1716119425
 20
39.5020796321
 30
0.0
 10
53.1116372089
 20
39.278211506
 30
0.0
 10
53.0513722832
 20
39.0877764759
 30
0.0
 10
53.0055806817
 20
38.9747916831
 30
0.0
 10
52.9810129619
 20
38.9263344645
 30
0.0
  0
SPLINE
  5
3AE
100
AcDbEntity
  8
DEFAULT_2
100
AcDbSpline
 62
8
  6
HIDDEN
 70
0
 71
3
 72
13
 73
9
 74
0
 42
0.0000001
 43
0.0000001
 44
0.0000000001
 40
0.0
 40
0.0
 40
0.0
 40
0.0
 40
0.3434856208
 40
0.6188785592
 40
0.7321040915
 40
0.8308501384
 40
0.9184752898
 40
1.0
 40
1.0
 40
1.0
 40
1.0
 10
49.2806035722
 20
39.0002171401
 30
0.0
 10
49.3000668936
 20
38.9591210582
 30
0.0
 10
49.3378147008
 20
38.8863213606
 30
0.0
 10
49.3930789429
 20
38.8059702789
 30
0.0
 10
49.4387032947
 20
38.7600732887
 30
0.0
 10
49.4710249777
 20
38.7366860509
 30
0.0
 10
49.5038217822
 20
38.7223526454
 30
0.0
 10
49.5263201596
 20
38.7190738266
 30
0.0
 10
49.5371127423
 20
38.7190760047
 30
0.0
  0
SPLINE
  5
3AF
100
AcDbEntity
  8
DEFAULT_2
100
AcDbSpline
 62
8
  6
HIDDEN
 70
0
 71
3
 72
13
 73
9
 74
0
 42
0.0000001
 43
0.0000001
 44
0.0000000001
 40
0.0
 40
0.0
 40
0.0
 40
0.0
 40
0.3437661864
 40
0.6192196774
 40
0.7322477765
 40
0.8308423212
 40
0.9184524608
 40
1.0
 40
1.0
 40
1.0
 40
1.0
 10
46.7806449668
 20
39.0002105349
 30
0.0
 10
46.8001302948
 20
38.9590600987
 30
0.0
 10
46.8378931208
 20
38.8861810858
 30
0.0
 10
46.8931431636
 20
38.8057251533
 30
0.0
 10
46.9388649081
 20
38.7599267146
 30
0.0
 10
46.9712342415
 20
38.7366604393
 30
0.0
 10
47.0040372708
 20
38.7223616878
 30
0.0
 10
47.0265456689
 20
38.7190771122
 30
0.0
 10
47.0373463506
 20
38.7190773878
 30
0.0
  0
SPLINE
  5
3B0
100
AcDbEntity
  8
DEFAULT_2
100
AcDbSpline
 62
8
  6
HIDDEN
 70
0
 71
3
 72
12
 73
8
 74
0
 42
0.0000001
 43
0.0000001
 44
0.0000000001
 40
0.0
 40
0.0
 40
0.0
 40
0.0
 40
0.079357418
 40
0.1744552898
 40
0.408199372
 40
0.6887927928
 40
1.0
 40
1.0
 40
1.0
 40
1.0
 10
52.5540445825
 20
37.9747777746
 30
0.0
 10
52.5720927726
 20
38.0185987615
 30
0.0
 10
52.6070018645
 20
38.1168845156
 30
0.0
 10
52.6755791357
 20
38.3508793554
 30
0.0
 10
52.7570280347
 20
38.7058533332
 30
0.0
 10
52.8508246095
 20
39.1898586727
 30
0.0
 10
52.9117923682
 20
39.5380046974
 30
0.0
 10
52.9432338307
 20
39.7211784078
 30
0.0
  0
SPLINE
  5
3B1
100
AcDbEntity
  8
DEFAULT_2
100
AcDbSpline
 62
8
  6
HIDDEN
 70
0
 71
3
 72
19
 73
15
 74
0
 42
0.0000001
 43
0.0000001
 44
0.0000000001
 40
0.0
 40
0.0
 40
0.0
 40
0.0
 40
0.0385476296
 40
0.085750011
 40
0.1409656036
 40
0.2032973991
 40
0.3441024675
 40
0.4972718265
 40
0.6508575157
 40
0.7927496962
 40
0.8559141874
 40
0.9121969071
 40
0.9604393654
 40
1.0
 40
1.0
 40
1.0
 40
1.0
 10
50.0538289742
 20
37.9739333699
 30
0.0
 10
50.0752090534
 20
38.0258788626
 30
0.0
 10
50.1160567271
 20
38.1441611785
 30
0.0
 10
50.1715255296
 20
38.3419947448
 30
0.0
 10
50.2272252356
 20
38.5755783436
 30
0.0
 10
50.3047770498
 20
38.9440110371
 30
0.0
 10
50.3983961454
 20
39.4547899068
 30
0.0
 10
50.5073374335
 20
40.0978253829
 30
0.0
 10
50.6162224993
 20
40.7424771933
 30
0.0
 10
50.7098183801
 20
41.2567157175
 30
0.0
 10
50.7873194207
 20
41.6296026579
 30
0.0
 10
50.8429042779
 20
41.8676093229
 30
0.0
 10
50.8983970759
 20
42.0701577121
 30
0.0
 10
50.9392491553
 20
42.1915811002
 30
0.0
 10
50.9605338275
 20
42.2451574901
 30
0.0
  0
SPLINE
  5
3B2
100
AcDbEntity
  8
DEFAULT_2
100
AcDbSpline
 62
8
  6
HIDDEN
 70
0
 71
3
 72
18
 73
14
 74
0
 42
0.0000001
 43
0.0000001
 44
0.0000000001
 40
0.0
 40
0.0
 40
0.0
 40
0.0
 40
0.0385216522
 40
0.085724048
 40
0.1410127566
 40
0.2033773383
 40
0.3442410842
 40
0.497488143
 40
0.6510268452
 40
0.7929542355
 40
0.9121071389
 40
0.9603509467
 40
1.0
 40
1.0
 40
1.0
 40
1.0
 10
47.5539180283
 20
37.9743346795
 30
0.0
 10
47.5753065141
 20
38.0262645117
 30
0.0
 10
47.6162090019
 20
38.1445502925
 30
0.0
 10
47.6717335151
 20
38.3425429427
 30
0.0
 10
47.7273924124
 20
38.5764118358
 30
0.0
 10
47.8050353421
 20
38.9452515204
 30
0.0
 10
47.8987146344
 20
39.4565227373
 30
0.0
 10
48.0076694758
 20
40.0999932712
 30
0.0
 10
48.116673454
 20
40.7450644927
 30
0.0
 10
48.2250847244
 20
41.3397274794
 30
0.0
 10
48.3193767656
 20
41.7810137207
 30
0.0
 10
48.3991011322
 20
42.0722166234
 30
0.0
 10
48.4398858449
 20
42.1938658341
 30
0.0
 10
48.4612073894
 20
42.247595646
 30
0.0
  0
SPLINE
  5
3B3
100
AcDbEntity
  8
DEFAULT_2
100
AcDbSpline
 62
8
  6
HIDDEN
 70
0
 71
3
 72
15
 73
11
 74
0
 42
0.0000001
 43
0.0000001
 44
0.0000000001
 40
0.0
 40
0.0
 40
0.0
 40
0.0
 40
0.0970093955
 40
0.1962918123
 40
0.3080798836
 40
0.4355191597
 40
0.575355941
 40
0.7211374693
 40
0.8651002573
 40
1.0
 40
1.0
 40
1.0
 40
1.0
 10
34.5371194107
 20
39.6917623858
 30
0.0
 10
34.5788315707
 20
39.6825150226
 30
0.0
 10
34.6676911811
 20
39.6783332583
 30
0.0
 10
34.7977543389
 20
39.7260383432
 30
0.0
 10
34.9173281268
 20
39.8173036881
 30
0.0
 10
35.0307900477
 20
39.940325903
 30
0.0
 10
35.1405171551
 20
40.08561713
 30
0.0
 10
35.2470724451
 20
40.2419744094
 30
0.0
 10
35.350916374
 20
40.3974983556
 30
0.0
 10
35.4215952382
 20
40.4980115797
 30
0.0
 10
35.457489018
 20
40.5453559825
 30
0.0
  0
SPLINE
  5
3B4
100
AcDbEntity
  8
DEFAULT_2
100
AcDbSpline
 62
8
  6
HIDDEN
 70
0
 71
3
 72
17
 73
13
 74
0
 42
0.0000001
 43
0.0000001
 44
0.0000000001
 40
0.0
 40
0.0
 40
0.0
 40
0.0
 40
0.0720008331
 40
0.1172281129
 40
0.169442928
 40
0.293614307
 40
0.4388594946
 40
0.5948182493
 40
0.7486526876
 40
0.8871780614
 40
0.9472048146
 40
1.0
 40
1.0
 40
1.0
 40
1.0
 10
36.5134437661
 20
40.984086109
 30
0.0
 10
36.4733805703
 20
40.9752043124
 30
0.0
 10
36.4139103391
 20
40.9379495986
 30
0.0
 10
36.3462193135
 20
40.8695282352
 30
0.0
 10
36.268175514
 20
40.769707027
 30
0.0
 10
36.1733855954
 20
40.612402563
 30
0.0
 10
36.0627450611
 20
40.3966505331
 30
0.0
 10
35.9500928255
 20
40.163028737
 30
0.0
 10
35.8354131518
 20
39.9347389435
 30
0.0
 10
35.7343010419
 20
39.7606825095
 30
0.0
 10
35.6489445003
 20
39.6454543656
 30
0.0
 10
35.6049686431
 20
39.598180522
 30
0.0
 10
35.5825664626
 20
39.5780920942
 30
0.0
  0
SPLINE
  5
3B5
100
AcDbEntity
  8
DEFAULT_2
100
AcDbSpline
 62
8
  6
HIDDEN
 70
0
 71
3
 72
19
 73
15
 74
0
 42
0.0000001
 43
0.0000001
 44
0.0000000001
 40
0.0
 40
0.0
 40
0.0
 40
0.0
 40
0.0275537878
 40
0.0569145361
 40
0.0916749076
 40
0.1338633879
 40
0.1841260895
 40
0.2424819037
 40
0.3083615095
 40
0.3806512695
 40
0.5390806275
 40
0.7047721702
 40
0.8632028047
 40
1.0
 40
1.0
 40
1.0
 40
1.0
 10
37.0372437088
 20
39.1375332581
 30
0.0
 10
37.0575273336
 20
39.133072177
 30
0.0
 10
37.1017524024
 20
39.1318572228
 30
0.0
 10
37.1673574343
 20
39.1578284925
 30
0.0
 10
37.2301593193
 20
39.2088694432
 30
0.0
 10
37.2917677061
 20
39.2827935354
 30
0.0
 10
37.3532703368
 20
39.3786185661
 30
0.0
 10
37.414686367
 20
39.4950444199
 30
0.0
 10
37.4760935178
 20
39.6299048569
 30
0.0
 10
37.5607490657
 20
39.8368573069
 30
0.0
 10
37.6627521755
 20
40.1177676062
 30
0.0
 10
37.7820206251
 20
40.4613804153
 30
0.0
 10
37.9005817462
 20
40.7878865296
 30
0.0
 10
37.9872593453
 20
40.9932619038
 30
0.0
 10
38.0338091633
 20
41.0852657145
 30
0.0
  0
SPLINE
  5
3B6
100
AcDbEntity
  8
DEFAULT_2
100
AcDbSpline
 62
8
  6
HIDDEN
 70
0
 71
3
 72
8
 73
4
 74
0
 42
0.0000001
 43
0.0000001
 44
0.0000000001
 40
0.0
 40
0.0
 40
0.0
 40
0.0
 40
1.0
 40
1.0
 40
1.0
 40
1.0
 10
38.9600244316
 20
41.5188539668
 30
0.0
 10
38.9484603356
 20
41.5188539668
 30
0.0
 10
38.9368133357
 20
41.5172770635
 30
0.0
 10
38.9256256897
 20
41.5143504797
 30
0.0
  0
SPLINE
  5
3B7
100
AcDbEntity
  8
DEFAULT_2
100
AcDbSpline
 62
8
  6
HIDDEN
 70
0
 71
3
 72
11
 73
7
 74
0
 42
0.0000001
 43
0.0000001
 44
0.0000000001
 40
0.0
 40
0.0
 40
0.0
 40
0.0
 40
0.1742684977
 40
0.3863630766
 40
0.6594655454
 40
1.0
 40
1.0
 40
1.0
 40
1.0
 10
51.5016442946
 20
41.5313577922
 30
0.0
 10
51.5218745694
 20
41.5320691
 30
0.0
 10
51.5674253429
 20
41.5202772147
 30
0.0
 10
51.6275967773
 20
41.4708174689
 30
0.0
 10
51.6857219923
 20
41.3939988337
 30
0.0
 10
51.7205785133
 20
41.3316328028
 30
0.0
 10
51.7385500101
 20
41.2963950176
 30
0.0
  0
SPLINE
  5
3B8
100
AcDbEntity
  8
DEFAULT_2
100
AcDbSpline
 62
8
  6
HIDDEN
 70
0
 71
3
 72
9
 73
5
 74
0
 42
0.0000001
 43
0.0000001
 44
0.0000000001
 40
0.0
 40
0.0
 40
0.0
 40
0.0
 40
0.4558063186
 40
1.0
 40
1.0
 40
1.0
 40
1.0
 10
34.5371200709
 20
39.6917622395
 30
0.0
 10
34.4776765412
 20
39.7049405527
 30
0.0
 10
34.3545472534
 20
39.7638326318
 30
0.0
 10
34.2490725484
 20
39.8457473792
 30
0.0
 10
34.1927240854
 20
39.8916735317
 30
0.0
  0
SPLINE
  5
3B9
100
AcDbEntity
  8
DEFAULT_2
100
AcDbSpline
 62
8
  6
HIDDEN
 70
0
 71
3
 72
15
 73
11
 74
0
 42
0.0000001
 43
0.0000001
 44
0.0000000001
 40
0.0
 40
0.0
 40
0.0
 40
0.0
 40
0.2539839541
 40
0.3896149054
 40
0.5248920255
 40
0.6545946033
 40
0.775007067
 40
0.8320699137
 40
0.8879228206
 40
1.0
 40
1.0
 40
1.0
 40
1.0
 10
35.211965528
 20
39.6108319765
 30
0.0
 10
35.0928426406
 20
39.6829395688
 30
0.0
 10
34.9236183744
 20
39.8152926716
 30
0.0
 10
34.7081747911
 20
40.0057272216
 30
0.0
 10
34.5405379907
 20
40.1478307736
 30
0.0
 10
34.3692442536
 20
40.272021966
 30
0.0
 10
34.2189848412
 20
40.3506820883
 30
0.0
 10
34.0963862139
 20
40.38861203
 30
0.0
 10
33.9741487737
 20
40.4076357089
 30
0.0
 10
33.8805758618
 20
40.4003933472
 30
0.0
 10
33.820585881
 20
40.3870938887
 30
0.0
  0
SPLINE
  5
3BA
100
AcDbEntity
  8
DEFAULT_2
100
AcDbSpline
 62
8
  6
HIDDEN
 70
0
 71
3
 72
18
 73
14
 74
0
 42
0.0000001
 43
0.0000001
 44
0.0000000001
 40
0.0
 40
0.0
 40
0.0
 40
0.0
 40
0.0270010345
 40
0.0613811425
 40
0.1039118462
 40
0.1546310472
 40
0.278073107
 40
0.4243699433
 40
0.5825414477
 40
0.7398224999
 40
0.8829555081
 40
0.9453605069
 40
1.0
 40
1.0
 40
1.0
 40
1.0
 10
38.9256256897
 20
41.5143504797
 30
0.0
 10
38.9054115113
 20
41.5041175239
 30
0.0
 10
38.8646063121
 20
41.4711007028
 30
0.0
 10
38.8104219591
 20
41.4024826805
 30
0.0
 10
38.755623717
 20
41.3101765787
 30
0.0
 10
38.6770454461
 20
41.1460653019
 30
0.0
 10
38.5821934284
 20
40.8940679001
 30
0.0
 10
38.4718761766
 20
40.5523952383
 30
0.0
 10
38.3593287077
 20
40.1816171389
 30
0.0
 10
38.2449877103
 20
39.8142290202
 30
0.0
 10
38.1450013429
 20
39.5264339318
 30
0.0
 10
38.0602198333
 20
39.3251719714
 30
0.0
 10
38.0163244776
 20
39.2371648838
 30
0.0
 10
37.9937350007
 20
39.1972677615
 30
0.0
  0
SPLINE
  5
3BB
100
AcDbEntity
  8
DEFAULT_2
100
AcDbSpline
 62
8
  6
HIDDEN
 70
0
 71
3
 72
13
 73
9
 74
0
 42
0.0000001
 43
0.0000001
 44
0.0000000001
 40
0.0
 40
0.0
 40
0.0
 40
0.0
 40
0.0851264197
 40
0.175322029
 40
0.275436689
 40
0.3886851578
 40
0.6611364534
 40
1.0
 40
1.0
 40
1.0
 40
1.0
 10
49.0022167024
 20
41.531439653
 30
0.0
 10
49.0121224557
 20
41.5317921626
 30
0.0
 10
49.0327225121
 20
41.5297281381
 30
0.0
 10
49.0629918311
 20
41.5182789379
 30
0.0
 10
49.0928495599
 20
41.4989823801
 30
0.0
 10
49.1349129577
 20
41.4608909651
 30
0.0
 10
49.1861395046
 20
41.3931188642
 30
0.0
 10
49.2210437076
 20
41.3309796546
 30
0.0
 10
49.2389843109
 20
41.2958373636
 30
0.0
  0
SPLINE
  5
3BC
100
AcDbEntity
  8
DEFAULT_2
100
AcDbSpline
 62
8
  6
HIDDEN
 70
0
 71
3
 72
11
 73
7
 74
0
 42
0.0000001
 43
0.0000001
 44
0.0000000001
 40
0.0
 40
0.0
 40
0.0
 40
0.0
 40
0.1742665401
 40
0.3865244324
 40
0.6597048916
 40
1.0
 40
1.0
 40
1.0
 40
1.0
 10
46.5017064727
 20
41.531384309
 30
0.0
 10
46.5219516038
 20
41.5320973004
 30
0.0
 10
46.5675605818
 20
41.5202730245
 30
0.0
 10
46.627719232
 20
41.4706582517
 30
0.0
 10
46.685871215
 20
41.3937852744
 30
0.0
 10
46.7207879137
 20
41.3314108679
 30
0.0
 10
46.7387664246
 20
41.2961746961
 30
0.0
  0
LINE
  5
3BD
100
AcDbEntity
  8
DEFAULT_2
100
AcDbLine
 62
8
  6
HIDDEN
 10
52.9268118203
 20
39.848676938
 11
53.2290039664
 21
39.7462136142
  0
SPLINE
  5
3BE
100
AcDbEntity
  8
DEFAULT_2
100
AcDbSpline
 62
8
  6
HIDDEN
 70
0
 71
3
 72
13
 73
9
 74
0
 42
0.0000001
 43
0.0000001
 44
0.0000000001
 40
0.0
 40
0.0
 40
0.0
 40
0.0
 40
0.3443642155
 40
0.618987916
 40
0.7317661418
 40
0.8304679409
 40
0.9182910247
 40
1.0
 40
1.0
 40
1.0
 40
1.0
 10
44.2812532321
 20
38.9989722208
 30
0.0
 10
44.3007033732
 20
38.9578550933
 30
0.0
 10
44.3382538607
 20
38.8851424698
 30
0.0
 10
44.3936518795
 20
38.8051602524
 30
0.0
 10
44.4393777142
 20
38.7598074679
 30
0.0
 10
44.471679682
 20
38.7366343361
 30
0.0
 10
44.5044183289
 20
38.7222859495
 30
0.0
 10
44.5269119503
 20
38.7189504432
 30
0.0
 10
44.5377045043
 20
38.7189477246
 30
0.0
  0
SPLINE
  5
3BF
100
AcDbEntity
  8
DEFAULT_2
100
AcDbSpline
 62
8
  6
HIDDEN
 70
0
 71
3
 72
13
 73
9
 74
0
 42
0.0000001
 43
0.0000001
 44
0.0000000001
 40
0.0
 40
0.0
 40
0.0
 40
0.0
 40
0.3431606639
 40
0.6183721437
 40
0.7317388917
 40
0.8307699323
 40
0.9185163395
 40
1.0
 40
1.0
 40
1.0
 40
1.0
 10
41.780679578
 20
38.9999791326
 30
0.0
 10
41.8000743185
 20
38.9590157991
 30
0.0
 10
41.8377229059
 20
38.8864522329
 30
0.0
 10
41.8928676832
 20
38.8063611991
 30
0.0
 10
41.9383447424
 20
38.7604986158
 30
0.0
 10
41.9705108526
 20
38.7369476307
 30
0.0
 10
42.0032019087
 20
38.7224350345
 30
0.0
 10
42.0256672403
 20
38.7191547559
 30
0.0
 10
42.0364291432
 20
38.7191623462
 30
0.0
  0
SPLINE
  5
3C0
100
AcDbEntity
  8
DEFAULT_2
100
AcDbSpline
 62
8
  6
HIDDEN
 70
0
 71
3
 72
13
 73
9
 74
0
 42
0.0000001
 43
0.0000001
 44
0.0000000001
 40
0.0
 40
0.0
 40
0.0
 40
0.0
 40
0.3435723401
 40
0.6184243108
 40
0.7316089706
 40
0.8305859526
 40
0.9184199597
 40
1.0
 40
1.0
 40
1.0
 40
1.0
 10
39.2810804045
 20
38.9991416475
 30
0.0
 10
39.3004565769
 20
38.958176365
 30
0.0
 10
39.3380179694
 20
38.8856774052
 30
0.0
 10
39.3932335235
 20
38.8058003475
 30
0.0
 10
39.4387279102
 20
38.7601840218
 30
0.0
 10
39.4708998858
 20
38.7367727808
 30
0.0
 10
39.5035570406
 20
38.7222739255
 30
0.0
 10
39.5260154832
 20
38.7189800089
 30
0.0
 10
39.536775739
 20
38.7189847833
 30
0.0
  0
SPLINE
  5
3C1
100
AcDbEntity
  8
DEFAULT_2
100
AcDbSpline
 62
8
  6
HIDDEN
 70
0
 71
3
 72
19
 73
15
 74
0
 42
0.0000001
 43
0.0000001
 44
0.0000000001
 40
0.0
 40
0.0
 40
0.0
 40
0.0
 40
0.0384806832
 40
0.0857402157
 40
0.141129154
 40
0.2035043293
 40
0.3442890998
 40
0.4974929433
 40
0.6509929059
 40
0.7928215346
 40
0.8559834455
 40
0.9122486304
 40
0.9604576525
 40
1.0
 40
1.0
 40
1.0
 40
1.0
 10
45.0544502577
 20
37.9759039312
 30
0.0
 10
45.0758115244
 20
38.027719338
 30
0.0
 10
45.116733814
 20
38.1458918303
 30
0.0
 10
45.1721136542
 20
38.3438893661
 30
0.0
 10
45.2276324445
 20
38.5777924532
 30
0.0
 10
45.3052007341
 20
38.9463072409
 30
0.0
 10
45.3987978377
 20
39.4568952179
 30
0.0
 10
45.5075702944
 20
40.0995007723
 30
0.0
 10
45.6164420119
 20
40.7436321348
 30
0.0
 10
45.7099840735
 20
41.2573718264
 30
0.0
 10
45.7873981292
 20
41.6299448893
 30
0.0
 10
45.8429366479
 20
41.8677489182
 30
0.0
 10
45.8984089567
 20
42.0700825699
 30
0.0
 10
45.9392289757
 20
42.1913645554
 30
0.0
 10
45.9604936619
 20
42.2448871618
 30
0.0
  0
SPLINE
  5
3C2
100
AcDbEntity
  8
DEFAULT_2
100
AcDbSpline
 62
8
  6
HIDDEN
 70
0
 71
3
 72
19
 73
15
 74
0
 42
0.0000001
 43
0.0000001
 44
0.0000000001
 40
0.0
 40
0.0
 40
0.0
 40
0.0
 40
0.0385904906
 40
0.0859677692
 40
0.1412956194
 40
0.2036472726
 40
0.3444860846
 40
0.4975427334
 40
0.6510308573
 40
0.7927572185
 40
0.8558239377
 40
0.9120914119
 40
0.9604132267
 40
1.0
 40
1.0
 40
1.0
 40
1.0
 10
42.5546168055
 20
37.9754338412
 30
0.0
 10
42.5760539409
 20
38.0274101084
 30
0.0
 10
42.616845911
 20
38.1460281322
 30
0.0
 10
42.672156161
 20
38.3443534201
 30
0.0
 10
42.7278177264
 20
38.5783511326
 30
0.0
 10
42.805364619
 20
38.9469474181
 30
0.0
 10
42.8988176966
 20
39.4575541685
 30
0.0
 10
43.0077619003
 20
40.1001832359
 30
0.0
 10
43.116500832
 20
40.7441595017
 30
0.0
 10
43.2100242689
 20
41.2577611313
 30
0.0
 10
43.2875176633
 20
41.6301503149
 30
0.0
 10
43.3430903665
 20
41.8680526872
 30
0.0
 10
43.3984389427
 20
42.0707279011
 30
0.0
 10
43.439268777
 20
42.1922939294
 30
0.0
 10
43.4605531742
 20
42.2458978705
 30
0.0
  0
SPLINE
  5
3C3
100
AcDbEntity
  8
DEFAULT_2
100
AcDbSpline
 62
8
  6
HIDDEN
 70
0
 71
3
 72
19
 73
15
 74
0
 42
0.0000001
 43
0.0000001
 44
0.0000000001
 40
0.0
 40
0.0
 40
0.0
 40
0.0
 40
0.0385813187
 40
0.0858833988
 40
0.1411598024
 40
0.2035111794
 40
0.3443210849
 40
0.497448095
 40
0.6509741543
 40
0.7927348348
 40
0.8558466778
 40
0.9121145887
 40
0.960397842
 40
1.0
 40
1.0
 40
1.0
 40
1.0
 10
40.0541281698
 20
37.9742061385
 30
0.0
 10
40.0755464447
 20
38.0262048194
 30
0.0
 10
40.1163780386
 20
38.1447377798
 30
0.0
 10
40.1717851487
 20
38.3429350957
 30
0.0
 10
40.2274967088
 20
38.5768495276
 30
0.0
 10
40.3050564169
 20
38.9455074171
 30
0.0
 10
40.3986605094
 20
39.4563996441
 30
0.0
 10
40.50761747
 20
40.0994608666
 30
0.0
 10
40.6164600456
 20
40.7439474913
 30
0.0
 10
40.7100931081
 20
41.2579566028
 30
0.0
 10
40.7876015319
 20
41.6306468539
 30
0.0
 10
40.8432027146
 20
41.8686749089
 30
0.0
 10
40.8986741999
 20
42.0713854792
 30
0.0
 10
40.9394941717
 20
42.1929827642
 30
0.0
 10
40.9607944682
 20
42.2466342156
 30
0.0
  0
SPLINE
  5
3C4
100
AcDbEntity
  8
DEFAULT_2
100
AcDbSpline
 62
8
  6
HIDDEN
 70
0
 71
3
 72
11
 73
7
 74
0
 42
0.0000001
 43
0.0000001
 44
0.0000000001
 40
0.0
 40
0.0
 40
0.0
 40
0.0
 40
0.1743425669
 40
0.3862808328
 40
0.6592684644
 40
1.0
 40
1.0
 40
1.0
 40
1.0
 10
44.0016026101
 20
41.5310889402
 30
0.0
 10
44.021827517
 20
41.5317995007
 30
0.0
 10
44.067344212
 20
41.5201154535
 30
0.0
 10
44.1275789548
 20
41.470837668
 30
0.0
 10
44.1857182207
 20
41.3941138749
 30
0.0
 10
44.220551292
 20
41.3317798117
 30
0.0
 10
44.2385184434
 20
41.2965448147
 30
0.0
  0
SPLINE
  5
3C5
100
AcDbEntity
  8
DEFAULT_2
100
AcDbSpline
 62
8
  6
HIDDEN
 70
0
 71
3
 72
11
 73
7
 74
0
 42
0.0000001
 43
0.0000001
 44
0.0000000001
 40
0.0
 40
0.0
 40
0.0
 40
0.0
 40
0.174192568
 40
0.3868527755
 40
0.6600989124
 40
1.0
 40
1.0
 40
1.0
 40
1.0
 10
41.5021650022
 20
41.5312273781
 30
0.0
 10
41.5223677605
 20
41.5319455419
 30
0.0
 10
41.5679813105
 20
41.5201948792
 30
0.0
 10
41.6278452908
 20
41.4703103329
 30
0.0
 10
41.6859271124
 20
41.3936312578
 30
0.0
 10
41.7208079327
 20
41.3314006569
 30
0.0
 10
41.7387474136
 20
41.2962695208
 30
0.0
  0
SPLINE
  5
3C6
100
AcDbEntity
  8
DEFAULT_2
100
AcDbSpline
 62
8
  6
HIDDEN
 70
0
 71
3
 72
11
 73
7
 74
0
 42
0.0000001
 43
0.0000001
 44
0.0000000001
 40
0.0
 40
0.0
 40
0.0
 40
0.0
 40
0.3285476945
 40
0.6027820662
 40
0.82322717
 40
1.0
 40
1.0
 40
1.0
 40
1.0
 10
38.0338091633
 20
41.0852657145
 30
0.0
 10
38.0534020854
 20
41.1239903233
 30
0.0
 10
38.0915147874
 20
41.1940110852
 30
0.0
 10
38.1537592074
 20
41.2836041183
 30
0.0
 10
38.2164403319
 20
41.3471552453
 30
0.0
 10
38.264441183
 20
41.3722740697
 30
0.0
 10
38.2872375974
 20
41.3773309744
 30
0.0
  0
SPLINE
  5
3C7
100
AcDbEntity
  8
DEFAULT_2
100
AcDbSpline
 62
8
  6
HIDDEN
 70
0
 71
3
 72
11
 73
7
 74
0
 42
0.0000001
 43
0.0000001
 44
0.0000000001
 40
0.0
 40
0.0
 40
0.0
 40
0.0
 40
0.3165144482
 40
0.5880508757
 40
0.8134216451
 40
1.0
 40
1.0
 40
1.0
 40
1.0
 10
36.74649319
 20
39.4360754941
 30
0.0
 10
36.769251068
 20
39.3973088016
 30
0.0
 10
36.8136657466
 20
39.3264627022
 30
0.0
 10
36.8852148624
 20
39.2353306453
 30
0.0
 10
36.9572779355
 20
39.1694105431
 30
0.0
 10
37.0113634048
 20
39.1432252455
 30
0.0
 10
37.0372437087
 20
39.1375332581
 30
0.0
  0
SPLINE
  5
3C8
100
AcDbEntity
  8
DEFAULT_2
100
AcDbSpline
 62
8
  6
HIDDEN
 70
0
 71
3
 72
10
 73
6
 74
0
 42
0.0000001
 43
0.0000001
 44
0.0000000001
 40
0.0
 40
0.0
 40
0.0
 40
0.0
 40
0.3073948254
 40
0.5767894739
 40
1.0
 40
1.0
 40
1.0
 40
1.0
 10
35.457489018
 20
40.5453559825
 30
0.0
 10
35.4845575914
 20
40.5810598134
 30
0.0
 10
35.5373765375
 20
40.6468759308
 30
0.0
 10
35.6383525327
 20
40.7508835602
 30
0.0
 10
35.727017295
 20
40.8097395578
 30
0.0
 10
35.7872408078
 20
40.8230907892
 30
0.0
  0
SPLINE
  5
3C9
100
AcDbEntity
  8
DEFAULT_2
100
AcDbSpline
 62
8
  6
HIDDEN
 70
0
 71
3
 72
12
 73
8
 74
0
 42
0.0000001
 43
0.0000001
 44
0.0000000001
 40
0.0
 40
0.0
 40
0.0
 40
0.0
 40
0.3381812068
 40
0.6116721058
 40
0.7254980252
 40
0.826168892
 40
1.0
 40
1.0
 40
1.0
 40
1.0
 10
39.2369637738
 20
41.2377419965
 30
0.0
 10
39.2159148508
 20
41.2790077483
 30
0.0
 10
39.1750048782
 20
41.3522380314
 30
0.0
 10
39.115291783
 20
41.4324795023
 30
0.0
 10
39.0658844686
 20
41.4779040812
 30
0.0
 10
39.0216529658
 20
41.507553396
 30
0.0
 10
38.9838358209
 20
41.5188539668
 30
0.0
 10
38.9600244316
 20
41.5188539668
 30
0.0
  0
SPLINE
  5
3CA
100
AcDbEntity
  8
DEFAULT_2
100
AcDbSpline
 62
8
  6
HIDDEN
 70
0
 71
3
 72
12
 73
8
 74
0
 42
0.0000001
 43
0.0000001
 44
0.0000000001
 40
0.0
 40
0.0
 40
0.0
 40
0.0
 40
0.3328939364
 40
0.599451958
 40
0.8110345085
 40
0.9056856975
 40
1.0
 40
1.0
 40
1.0
 40
1.0
 10
37.9937350007
 20
39.1972677615
 30
0.0
 10
37.9737949775
 20
39.1620500561
 30
0.0
 10
37.9348848117
 20
39.1001292645
 30
0.0
 10
37.8690132291
 20
39.0259818897
 30
0.0
 10
37.8077720352
 20
38.9887026099
 30
0.0
 10
37.7592518413
 20
38.9802985881
 30
0.0
 10
37.7360839885
 20
38.9825770227
 30
0.0
 10
37.7248944365
 20
38.9850799126
 30
0.0
  0
SPLINE
  5
3CB
100
AcDbEntity
  8
DEFAULT_2
100
AcDbSpline
 62
8
  6
HIDDEN
 70
0
 71
3
 72
18
 73
14
 74
0
 42
0.0000001
 43
0.0000001
 44
0.0000000001
 40
0.0
 40
0.0
 40
0.0
 40
0.0
 40
0.0400825083
 40
0.0879430502
 40
0.1430616894
 40
0.2045240905
 40
0.342402559
 40
0.4922227972
 40
0.6434090986
 40
0.7850497861
 40
0.90676094
 40
0.9574257118
 40
1.0
 40
1.0
 40
1.0
 40
1.0
 10
37.6103224346
 20
38.403769317
 30
0.0
 10
37.6303740918
 20
38.450313894
 30
0.0
 10
37.6692057791
 20
38.5546473588
 30
0.0
 10
37.7224377447
 20
38.7275715575
 30
0.0
 10
37.7757272391
 20
38.928588768
 30
0.0
 10
37.8498960525
 20
39.2416832381
 30
0.0
 10
37.9395189882
 20
39.6740326046
 30
0.0
 10
38.043908123
 20
40.2190388193
 30
0.0
 10
38.1481703073
 20
40.768935319
 30
0.0
 10
38.2519310734
 20
41.2826913966
 30
0.0
 10
38.3419597829
 20
41.6695979635
 30
0.0
 10
38.4172138059
 20
41.9308072833
 30
0.0
 10
38.4558197058
 20
42.0423260617
 30
0.0
 10
38.4758285406
 20
42.092299888
 30
0.0
  0
SPLINE
  5
3CC
100
AcDbEntity
  8
DEFAULT_2
100
AcDbSpline
 62
8
  6
HIDDEN
 70
0
 71
3
 72
11
 73
7
 74
0
 42
0.0000001
 43
0.0000001
 44
0.0000000001
 40
0.0
 40
0.0
 40
0.0
 40
0.0
 40
0.3140921977
 40
0.5751262112
 40
0.7951171051
 40
1.0
 40
1.0
 40
1.0
 40
1.0
 10
36.7861540535
 20
40.8175860368
 30
0.0
 10
36.7657811489
 20
40.8465039959
 30
0.0
 10
36.7256262172
 20
40.8976475388
 30
0.0
 10
36.6576291856
 20
40.9571257438
 30
0.0
 10
36.5855909622
 20
40.9893770624
 30
0.0
 10
36.5359711839
 20
40.9890803173
 30
0.0
 10
36.5134437661
 20
40.984086109
 30
0.0
  0
SPLINE
  5
3CD
100
AcDbEntity
  8
DEFAULT_2
100
AcDbSpline
 62
8
  6
HIDDEN
 70
0
 71
3
 72
11
 73
7
 74
0
 42
0.0000001
 43
0.0000001
 44
0.0000000001
 40
0.0
 40
0.0
 40
0.0
 40
0.0
 40
0.2854737591
 40
0.5375965028
 40
0.7697883818
 40
1.0
 40
1.0
 40
1.0
 40
1.0
 10
34.0154539275
 20
40.5659888997
 30
0.0
 10
34.0387633053
 20
40.5855713468
 30
0.0
 10
34.0852738418
 20
40.6196375596
 30
0.0
 10
34.1607906618
 20
40.653800615
 30
0.0
 10
34.2370995857
 20
40.6656259694
 30
0.0
 10
34.286687663
 20
40.6586164229
 30
0.0
 10
34.3103430027
 20
40.6520487695
 30
0.0
  0
SPLINE
  5
3CE
100
AcDbEntity
  8
DEFAULT_2
100
AcDbSpline
 62
8
  6
HIDDEN
 70
0
 71
3
 72
10
 73
6
 74
0
 42
0.0000001
 43
0.0000001
 44
0.0000000001
 40
0.0
 40
0.0
 40
0.0
 40
0.0
 40
0.5343616399
 40
0.7687345425
 40
1.0
 40
1.0
 40
1.0
 40
1.0
 10
35.5825664626
 20
39.5780920942
 30
0.0
 10
35.5521440999
 20
39.5508118283
 30
0.0
 10
35.5020205108
 20
39.5159692439
 30
0.0
 10
35.4263702019
 20
39.4997247302
 30
0.0
 10
35.3902904762
 20
39.5026189143
 30
0.0
 10
35.3730249217
 20
39.5064465956
 30
0.0
  0
SPLINE
  5
3CF
100
AcDbEntity
  8
DEFAULT_2
100
AcDbSpline
 62
8
  6
HIDDEN
 70
0
 71
3
 72
15
 73
11
 74
0
 42
0.0000001
 43
0.0000001
 44
0.0000000001
 40
0.0
 40
0.0
 40
0.0
 40
0.0
 40
0.0951503558
 40
0.211871243
 40
0.3445191401
 40
0.4863994838
 40
0.6303749602
 40
0.7687400795
 40
0.8941086034
 40
1.0
 40
1.0
 40
1.0
 40
1.0
 10
35.1730610986
 20
38.9626712877
 30
0.0
 10
35.2093862619
 20
39.0371351033
 30
0.0
 10
35.2770041149
 20
39.2092552828
 30
0.0
 10
35.3681581768
 20
39.495064697
 30
0.0
 10
35.4595865658
 20
39.8233185636
 30
0.0
 10
35.551208517
 20
40.1760165904
 30
0.0
 10
35.6425088497
 20
40.5339396209
 30
0.0
 10
35.7334375176
 20
40.8771389688
 30
0.0
 10
35.8238397687
 20
41.1860396283
 30
0.0
 10
35.8897044381
 20
41.3765896039
 30
0.0
 10
35.924613003
 20
41.4619301667
 30
0.0
  0
SPLINE
  5
3D0
100
AcDbEntity
  8
DEFAULT_2
100
AcDbSpline
 62
8
  6
HIDDEN
 70
0
 71
3
 72
9
 73
5
 74
0
 42
0.0000001
 43
0.0000001
 44
0.0000000001
 40
0.0
 40
0.0
 40
0.0
 40
0.0
 40
0.2402297078
 40
1.0
 40
1.0
 40
1.0
 40
1.0
 10
33.6682477246
 20
40.3368807321
 30
0.0
 10
33.6431058096
 20
40.3261432176
 30
0.0
 10
33.5400526079
 20
40.2776259521
 30
0.0
 10
33.442467021
 20
40.2187430901
 30
0.0
 10
33.3672214547
 20
40.1761506069
 30
0.0
  0
SPLINE
  5
3D1
100
AcDbEntity
  8
DEFAULT_2
100
AcDbSpline
 62
8
  6
HIDDEN
 70
0
 71
3
 72
17
 73
13
 74
0
 42
0.0000001
 43
0.0000001
 44
0.0000000001
 40
0.0
 40
0.0
 40
0.0
 40
0.0
 40
0.0616409424
 40
0.0911346644
 40
0.1247400701
 40
0.1652809364
 40
0.2141636867
 40
0.3362375254
 40
0.4845525578
 40
0.6494472601
 40
0.8232193025
 40
1.0
 40
1.0
 40
1.0
 40
1.0
 10
64.780236447
 20
85.3578548657
 30
0.0
 10
64.7651175986
 20
85.3578635206
 30
0.0
 10
64.7410252591
 20
85.3630170427
 30
0.0
 10
64.7204135767
 20
85.386826456
 30
0.0
 10
64.7119587964
 20
85.411255539
 30
0.0
 10
64.7096655972
 20
85.441560665
 30
0.0
 10
64.7151859605
 20
85.4933336527
 30
0.0
 10
64.7381823271
 20
85.5687518189
 30
0.0
 10
64.7824071263
 20
85.6660564893
 30
0.0
 10
64.8417569735
 20
85.7698913414
 30
0.0
 10
64.9122888166
 20
85.8749095518
 30
0.0
 10
64.9645758353
 20
85.9432404715
 30
0.0
 10
64.9918892596
 20
85.9769157423
 30
0.0
  0
SPLINE
  5
3D2
100
AcDbEntity
  8
DEFAULT_2
100
AcDbSpline
 62
8
  6
HIDDEN
 70
0
 71
3
 72
17
 73
13
 74
0
 42
0.0000001
 43
0.0000001
 44
0.0000000001
 40
0.0
 40
0.0
 40
0.0
 40
0.0
 40
0.0616409424
 40
0.0911346644
 40
0.1247400701
 40
0.1652809364
 40
0.2141636867
 40
0.3362375254
 40
0.4845525578
 40
0.6494472601
 40
0.8232193025
 40
1.0
 40
1.0
 40
1.0
 40
1.0
 10
64.780236447
 20
95.3578548657
 30
0.0
 10
64.7651175986
 20
95.3578635206
 30
0.0
 10
64.7410252591
 20
95.3630170427
 30
0.0
 10
64.7204135767
 20
95.386826456
 30
0.0
 10
64.7119587964
 20
95.411255539
 30
0.0
 10
64.7096655972
 20
95.441560665
 30
0.0
 10
64.7151859605
 20
95.4933336527
 30
0.0
 10
64.7381823271
 20
95.5687518189
 30
0.0
 10
64.7824071263
 20
95.6660564893
 30
0.0
 10
64.8417569735
 20
95.7698913414
 30
0.0
 10
64.9122888166
 20
95.8749095518
 30
0.0
 10
64.9645758353
 20
95.9432404715
 30
0.0
 10
64.9918892596
 20
95.9769157423
 30
0.0
  0
SPLINE
  5
3D3
100
AcDbEntity
  8
DEFAULT_2
100
AcDbSpline
 62
8
  6
HIDDEN
 70
0
 71
3
 72
17
 73
13
 74
0
 42
0.0000001
 43
0.0000001
 44
0.0000000001
 40
0.0
 40
0.0
 40
0.0
 40
0.0
 40
0.0616409424
 40
0.0911346644
 40
0.1247400701
 40
0.1652809364
 40
0.2141636867
 40
0.3362375254
 40
0.4845525578
 40
0.6494472601
 40
0.8232193025
 40
1.0
 40
1.0
 40
1.0
 40
1.0
 10
64.780236447
 20
105.3578548657
 30
0.0
 10
64.7651175986
 20
105.3578635206
 30
0.0
 10
64.7410252591
 20
105.3630170427
 30
0.0
 10
64.7204135767
 20
105.386826456
 30
0.0
 10
64.7119587964
 20
105.411255539
 30
0.0
 10
64.7096655972
 20
105.441560665
 30
0.0
 10
64.7151859605
 20
105.4933336527
 30
0.0
 10
64.7381823271
 20
105.5687518189
 30
0.0
 10
64.7824071263
 20
105.6660564893
 30
0.0
 10
64.8417569735
 20
105.7698913414
 30
0.0
 10
64.9122888166
 20
105.8749095518
 30
0.0
 10
64.9645758353
 20
105.9432404715
 30
0.0
 10
64.9918892596
 20
105.9769157423
 30
0.0
  0
SPLINE
  5
3D4
100
AcDbEntity
  8
DEFAULT_2
100
AcDbSpline
 62
8
  6
HIDDEN
 70
0
 71
3
 72
17
 73
13
 74
0
 42
0.0000001
 43
0.0000001
 44
0.0000000001
 40
0.0
 40
0.0
 40
0.0
 40
0.0
 40
0.0616409424
 40
0.0911346644
 40
0.1247400701
 40
0.1652809364
 40
0.2141636867
 40
0.3362375254
 40
0.4845525578
 40
0.6494472601
 40
0.8232193025
 40
1.0
 40
1.0
 40
1.0
 40
1.0
 10
64.780236447
 20
72.3578548657
 30
0.0
 10
64.7651175986
 20
72.3578635206
 30
0.0
 10
64.7410252591
 20
72.3630170427
 30
0.0
 10
64.7204135767
 20
72.386826456
 30
0.0
 10
64.7119587964
 20
72.411255539
 30
0.0
 10
64.7096655972
 20
72.441560665
 30
0.0
 10
64.7151859605
 20
72.4933336527
 30
0.0
 10
64.7381823271
 20
72.5687518189
 30
0.0
 10
64.7824071263
 20
72.6660564893
 30
0.0
 10
64.8417569735
 20
72.7698913414
 30
0.0
 10
64.9122888166
 20
72.8749095518
 30
0.0
 10
64.9645758353
 20
72.9432404715
 30
0.0
 10
64.9918892596
 20
72.9769157423
 30
0.0
  0
SPLINE
  5
3D5
100
AcDbEntity
  8
DEFAULT_2
100
AcDbSpline
 62
8
  6
HIDDEN
 70
0
 71
3
 72
9
 73
5
 74
0
 42
0.0000001
 43
0.0000001
 44
0.0000000001
 40
0.0
 40
0.0
 40
0.0
 40
0.0
 40
0.24561054
 40
1.0
 40
1.0
 40
1.0
 40
1.0
 10
65.6396524177
 20
75.1910549662
 30
0.0
 10
65.5876907012
 20
75.2254018783
 30
0.0
 10
65.3746836565
 20
75.3630595831
 30
0.0
 10
65.1572006714
 20
75.4936740198
 30
0.0
 10
64.9918892049
 20
75.5899735998
 30
0.0
  0
SPLINE
  5
3D6
100
AcDbEntity
  8
DEFAULT_2
100
AcDbSpline
 62
8
  6
HIDDEN
 70
0
 71
3
 72
17
 73
13
 74
0
 42
0.0000001
 43
0.0000001
 44
0.0000000001
 40
0.0
 40
0.0
 40
0.0
 40
0.0
 40
0.1767879383
 40
0.3506281175
 40
0.5156099211
 40
0.6639287242
 40
0.7859487171
 40
0.8348441701
 40
0.8753602593
 40
0.9088979212
 40
0.9383917425
 40
1.0
 40
1.0
 40
1.0
 40
1.0
 10
64.9918892596
 20
112.2607921914
 30
0.0
 10
64.9645743563
 20
112.2944692855
 30
0.0
 10
64.9122743132
 20
112.3628152682
 30
0.0
 10
64.8417260241
 20
112.4678717253
 30
0.0
 10
64.7823499126
 20
112.5717402242
 30
0.0
 10
64.7381497515
 20
112.669064876
 30
0.0
 10
64.7151707767
 20
112.744487582
 30
0.0
 10
64.7096793762
 20
112.7962376411
 30
0.0
 10
64.711926619
 20
112.8265404618
 30
0.0
 10
64.7204802704
 20
112.8509008563
 30
0.0
 10
64.7410116742
 20
112.874744099
 30
0.0
 10
64.7651307604
 20
112.8798310013
 30
0.0
 10
64.7802417882
 20
112.8798439492
 30
0.0
  0
SPLINE
  5
3D7
100
AcDbEntity
  8
DEFAULT_2
100
AcDbSpline
 62
8
  6
HIDDEN
 70
0
 71
3
 72
9
 73
5
 74
0
 42
0.0000001
 43
0.0000001
 44
0.0000000001
 40
0.0
 40
0.0
 40
0.0
 40
0.0
 40
0.2456105473
 40
1.0
 40
1.0
 40
1.0
 40
1.0
 10
65.6396524177
 20
108.1910549662
 30
0.0
 10
65.5876907034
 20
108.2254018769
 30
0.0
 10
65.3746836696
 20
108.363059565
 30
0.0
 10
65.1572007151
 20
108.4936740172
 30
0.0
 10
64.9918892626
 20
108.5899735904
 30
0.0
  0
SPLINE
  5
3D8
100
AcDbEntity
  8
DEFAULT_2
100
AcDbSpline
 62
8
  6
HIDDEN
 70
0
 71
3
 72
15
 73
11
 74
0
 42
0.0000001
 43
0.0000001
 44
0.0000000001
 40
0.0
 40
0.0
 40
0.0
 40
0.0
 40
0.108252355
 40
0.2268784026
 40
0.3584563097
 40
0.5001420893
 40
0.6417730821
 40
0.7732658424
 40
0.8917830483
 40
1.0
 40
1.0
 40
1.0
 40
1.0
 10
64.9918892596
 20
98.5899735671
 30
0.0
 10
64.9529076297
 20
98.6126816996
 30
0.0
 10
64.8772382731
 20
98.6714647327
 30
0.0
 10
64.7865308933
 20
98.7922765842
 30
0.0
 10
64.7250655905
 20
98.9456038675
 30
0.0
 10
64.7031438637
 20
99.1190117259
 30
0.0
 10
64.7251288257
 20
99.2923770126
 30
0.0
 10
64.7866297299
 20
99.4455754156
 30
0.0
 10
64.8772976379
 20
99.5662902018
 30
0.0
 10
64.9529203784
 20
99.6250336606
 30
0.0
 10
64.9918892596
 20
99.6477343666
 30
0.0
  0
SPLINE
  5
3D9
100
AcDbEntity
  8
DEFAULT_2
100
AcDbSpline
 62
8
  6
HIDDEN
 70
0
 71
3
 72
15
 73
11
 74
0
 42
0.0000001
 43
0.0000001
 44
0.0000000001
 40
0.0
 40
0.0
 40
0.0
 40
0.0
 40
0.1455692687
 40
0.2897329047
 40
0.4293659988
 40
0.5606622884
 40
0.6812067172
 40
0.7923844079
 40
0.8977216636
 40
1.0
 40
1.0
 40
1.0
 40
1.0
 10
65.6396524591
 20
101.416490149
 30
0.0
 10
65.6835493134
 20
101.3550784445
 30
0.0
 10
65.7663587852
 20
101.2294562545
 30
0.0
 10
65.869572597
 20
101.0315896211
 30
0.0
 10
65.9412575364
 20
100.8275455813
 30
0.0
 10
65.9692451857
 20
100.6245913003
 30
0.0
 10
65.945195013
 20
100.4353064988
 30
0.0
 10
65.8735696436
 20
100.2733071069
 30
0.0
 10
65.7686705576
 20
100.1435403462
 30
0.0
 10
65.6838980616
 20
100.0758995232
 30
0.0
 10
65.6396524177
 20
100.0466529674
 30
0.0
  0
SPLINE
  5
3DA
100
AcDbEntity
  8
DEFAULT_2
100
AcDbSpline
 62
8
  6
HIDDEN
 70
0
 71
3
 72
17
 73
13
 74
0
 42
0.0000001
 43
0.0000001
 44
0.0000000001
 40
0.0
 40
0.0
 40
0.0
 40
0.0
 40
0.1767879383
 40
0.3506281175
 40
0.5156099211
 40
0.6639287242
 40
0.7859487171
 40
0.8348441701
 40
0.8753602593
 40
0.9088979212
 40
0.9383917425
 40
1.0
 40
1.0
 40
1.0
 40
1.0
 10
64.9918892596
 20
102.2607921914
 30
0.0
 10
64.9645743563
 20
102.2944692855
 30
0.0
 10
64.9122743132
 20
102.3628152682
 30
0.0
 10
64.8417260241
 20
102.4678717253
 30
0.0
 10
64.7823499126
 20
102.5717402242
 30
0.0
 10
64.7381497515
 20
102.669064876
 30
0.0
 10
64.7151707767
 20
102.744487582
 30
0.0
 10
64.7096793762
 20
102.7962376411
 30
0.0
 10
64.711926619
 20
102.8265404618
 30
0.0
 10
64.7204802704
 20
102.8509008563
 30
0.0
 10
64.7410116742
 20
102.874744099
 30
0.0
 10
64.7651307604
 20
102.8798310013
 30
0.0
 10
64.7802417882
 20
102.8798439492
 30
0.0
  0
SPLINE
  5
3DB
100
AcDbEntity
  8
DEFAULT_2
100
AcDbSpline
 62
8
  6
HIDDEN
 70
0
 71
3
 72
9
 73
5
 74
0
 42
0.0000001
 43
0.0000001
 44
0.0000000001
 40
0.0
 40
0.0
 40
0.0
 40
0.0
 40
0.2539309255
 40
1.0
 40
1.0
 40
1.0
 40
1.0
 10
64.9918892596
 20
76.6477343666
 30
0.0
 10
65.0475328479
 20
76.6801486597
 30
0.0
 10
65.266035955
 20
76.8088513162
 30
0.0
 10
65.4818158806
 20
76.9423223524
 30
0.0
 10
65.6396524722
 20
77.0466530021
 30
0.0
  0
SPLINE
  5
3DC
100
AcDbEntity
  8
DEFAULT_2
100
AcDbSpline
 62
8
  6
HIDDEN
 70
0
 71
3
 72
8
 73
4
 74
0
 42
0.0000001
 43
0.0000001
 44
0.0000000001
 40
0.0
 40
0.0
 40
0.0
 40
0.0
 40
1.0
 40
1.0
 40
1.0
 40
1.0
 10
64.9918892596
 20
95.9769157423
 30
0.0
 10
65.2153384091
 20
96.2524106978
 30
0.0
 10
65.4333774739
 20
96.532639063
 30
0.0
 10
65.6396524177
 20
96.8212177186
 30
0.0
  0
SPLINE
  5
3DD
100
AcDbEntity
  8
DEFAULT_2
100
AcDbSpline
 62
8
  6
HIDDEN
 70
0
 71
3
 72
9
 73
5
 74
0
 42
0.0000001
 43
0.0000001
 44
0.0000000001
 40
0.0
 40
0.0
 40
0.0
 40
0.0
 40
0.2456105399
 40
1.0
 40
1.0
 40
1.0
 40
1.0
 10
65.6396524177
 20
98.1910549662
 30
0.0
 10
65.5876907056
 20
98.2254018754
 30
0.0
 10
65.3746836793
 20
98.3630595696
 30
0.0
 10
65.1572007111
 20
98.4936739931
 30
0.0
 10
64.9918892596
 20
98.5899735671
 30
0.0
  0
SPLINE
  5
3DE
100
AcDbEntity
  8
DEFAULT_2
100
AcDbSpline
 62
8
  6
HIDDEN
 70
0
 71
3
 72
9
 73
5
 74
0
 42
0.0000001
 43
0.0000001
 44
0.0000000001
 40
0.0
 40
0.0
 40
0.0
 40
0.0
 40
0.2539309255
 40
1.0
 40
1.0
 40
1.0
 40
1.0
 10
64.9918892596
 20
99.6477343666
 30
0.0
 10
65.0475328431
 20
99.6801486569
 30
0.0
 10
65.266035932
 20
99.8088513019
 30
0.0
 10
65.4818158385
 20
99.9423223279
 30
0.0
 10
65.6396524177
 20
100.0466529674
 30
0.0
  0
SPLINE
  5
3DF
100
AcDbEntity
  8
DEFAULT_2
100
AcDbSpline
 62
8
  6
HIDDEN
 70
0
 71
3
 72
17
 73
13
 74
0
 42
0.0000001
 43
0.0000001
 44
0.0000000001
 40
0.0
 40
0.0
 40
0.0
 40
0.0
 40
0.1767879383
 40
0.3506281175
 40
0.5156099211
 40
0.6639287242
 40
0.7859487171
 40
0.8348441701
 40
0.8753602593
 40
0.9088979212
 40
0.9383917425
 40
1.0
 40
1.0
 40
1.0
 40
1.0
 10
64.9918892596
 20
79.2607921914
 30
0.0
 10
64.9645743563
 20
79.2944692855
 30
0.0
 10
64.9122743132
 20
79.3628152682
 30
0.0
 10
64.8417260241
 20
79.4678717253
 30
0.0
 10
64.7823499126
 20
79.5717402242
 30
0.0
 10
64.7381497515
 20
79.669064876
 30
0.0
 10
64.7151707767
 20
79.744487582
 30
0.0
 10
64.7096793762
 20
79.7962376411
 30
0.0
 10
64.711926619
 20
79.8265404618
 30
0.0
 10
64.7204802704
 20
79.8509008563
 30
0.0
 10
64.7410116742
 20
79.874744099
 30
0.0
 10
64.7651307604
 20
79.8798310013
 30
0.0
 10
64.7802417882
 20
79.8798439492
 30
0.0
  0
SPLINE
  5
3E0
100
AcDbEntity
  8
DEFAULT_2
100
AcDbSpline
 62
8
  6
HIDDEN
 70
0
 71
3
 72
8
 73
4
 74
0
 42
0.0000001
 43
0.0000001
 44
0.0000000001
 40
0.0
 40
0.0
 40
0.0
 40
0.0
 40
1.0
 40
1.0
 40
1.0
 40
1.0
 10
65.639652463
 20
101.416490149
 30
0.0
 10
65.4333775051
 20
101.7050688273
 30
0.0
 10
65.2153384259
 20
101.9852972152
 30
0.0
 10
64.9918892596
 20
102.2607921914
 30
0.0
  0
SPLINE
  5
3E1
100
AcDbEntity
  8
DEFAULT_2
100
AcDbSpline
 62
8
  6
HIDDEN
 70
0
 71
3
 72
15
 73
11
 74
0
 42
0.0000001
 43
0.0000001
 44
0.0000000001
 40
0.0
 40
0.0
 40
0.0
 40
0.0
 40
0.1455692679
 40
0.2897329038
 40
0.4293659982
 40
0.5606622888
 40
0.6812067183
 40
0.7923844091
 40
0.8977216643
 40
1.0
 40
1.0
 40
1.0
 40
1.0
 10
65.6396524177
 20
91.416490215
 30
0.0
 10
65.6835492756
 20
91.3550785088
 30
0.0
 10
65.7663587513
 20
91.2294563131
 30
0.0
 10
65.8695725734
 20
91.0315896731
 30
0.0
 10
65.9412575261
 20
90.827545626
 30
0.0
 10
65.9692451859
 20
90.6245913349
 30
0.0
 10
65.9451950203
 20
90.4353065218
 30
0.0
 10
65.873569652
 20
90.2733071192
 30
0.0
 10
65.768670563
 20
90.1435403508
 30
0.0
 10
65.6838980635
 20
90.0758995245
 30
0.0
 10
65.6396524177
 20
90.0466529674
 30
0.0
  0
SPLINE
  5
3E2
100
AcDbEntity
  8
DEFAULT_2
100
AcDbSpline
 62
8
  6
HIDDEN
 70
0
 71
3
 72
17
 73
13
 74
0
 42
0.0000001
 43
0.0000001
 44
0.0000000001
 40
0.0
 40
0.0
 40
0.0
 40
0.0
 40
0.1767879383
 40
0.3506281175
 40
0.5156099211
 40
0.6639287242
 40
0.7859487171
 40
0.8348441701
 40
0.8753602593
 40
0.9088979212
 40
0.9383917425
 40
1.0
 40
1.0
 40
1.0
 40
1.0
 10
64.9918892596
 20
92.2607921914
 30
0.0
 10
64.9645743563
 20
92.2944692855
 30
0.0
 10
64.9122743132
 20
92.3628152682
 30
0.0
 10
64.8417260241
 20
92.4678717253
 30
0.0
 10
64.7823499126
 20
92.5717402242
 30
0.0
 10
64.7381497515
 20
92.669064876
 30
0.0
 10
64.7151707767
 20
92.744487582
 30
0.0
 10
64.7096793762
 20
92.7962376411
 30
0.0
 10
64.711926619
 20
92.8265404618
 30
0.0
 10
64.7204802704
 20
92.8509008563
 30
0.0
 10
64.7410116742
 20
92.874744099
 30
0.0
 10
64.7651307604
 20
92.8798310013
 30
0.0
 10
64.7802417882
 20
92.8798439492
 30
0.0
  0
SPLINE
  5
3E3
100
AcDbEntity
  8
DEFAULT_2
100
AcDbSpline
 62
8
  6
HIDDEN
 70
0
 71
3
 72
9
 73
5
 74
0
 42
0.0000001
 43
0.0000001
 44
0.0000000001
 40
0.0
 40
0.0
 40
0.0
 40
0.0
 40
0.2539309255
 40
1.0
 40
1.0
 40
1.0
 40
1.0
 10
64.9918892596
 20
89.6477343666
 30
0.0
 10
65.0475328431
 20
89.6801486569
 30
0.0
 10
65.266035932
 20
89.8088513019
 30
0.0
 10
65.4818158385
 20
89.9423223279
 30
0.0
 10
65.6396524177
 20
90.0466529674
 30
0.0
  0
SPLINE
  5
3E4
100
AcDbEntity
  8
DEFAULT_2
100
AcDbSpline
 62
8
  6
HIDDEN
 70
0
 71
3
 72
13
 73
9
 74
0
 42
0.0000001
 43
0.0000001
 44
0.0000000001
 40
0.0
 40
0.0
 40
0.0
 40
0.0
 40
0.2507683707
 40
0.3754898148
 40
0.5000008706
 40
0.6245123355
 40
0.7492337003
 40
1.0
 40
1.0
 40
1.0
 40
1.0
 10
76.4276210826
 20
58.6188539668
 30
0.0
 10
76.3871886586
 20
58.740151239
 30
0.0
 10
76.3362075848
 20
58.9255408762
 30
0.0
 10
76.2999647939
 20
59.1782106302
 30
0.0
 10
76.2910585653
 20
59.3688554978
 30
0.0
 10
76.2999691869
 20
59.5594998262
 30
0.0
 10
76.3362049975
 20
59.8121696466
 30
0.0
 10
76.3871889925
 20
59.9975576964
 30
0.0
 10
76.4276210826
 20
60.1188539668
 30
0.0
  0
SPLINE
  5
3E5
100
AcDbEntity
  8
DEFAULT_2
100
AcDbSpline
 62
8
  6
HIDDEN
 70
0
 71
3
 72
11
 73
7
 74
0
 42
0.0000001
 43
0.0000001
 44
0.0000000001
 40
0.0
 40
0.0
 40
0.0
 40
0.0
 40
0.25111694
 40
0.5
 40
0.74888306
 40
1.0
 40
1.0
 40
1.0
 40
1.0
 10
78.1606337845
 20
60.1188539668
 30
0.0
 10
78.1120261135
 20
60.2379179585
 30
0.0
 10
78.0374466957
 20
60.4848142747
 30
0.0
 10
77.999372149
 20
60.8688539668
 30
0.0
 10
78.0374466957
 20
61.2528936589
 30
0.0
 10
78.1120261135
 20
61.4997899751
 30
0.0
 10
78.1606337845
 20
61.6188539668
 30
0.0
  0
SPLINE
  5
3E6
100
AcDbEntity
  8
DEFAULT_2
100
AcDbSpline
 62
8
  6
HIDDEN
 70
0
 71
3
 72
13
 73
9
 74
0
 42
0.0000001
 43
0.0000001
 44
0.0000000001
 40
0.0
 40
0.0
 40
0.0
 40
0.0
 40
0.2507683707
 40
0.3754898148
 40
0.5000008706
 40
0.6245123355
 40
0.7492337003
 40
1.0
 40
1.0
 40
1.0
 40
1.0
 10
76.4276210826
 20
60.1188539668
 30
0.0
 10
76.3871886586
 20
60.240151239
 30
0.0
 10
76.3362075848
 20
60.4255408762
 30
0.0
 10
76.2999647939
 20
60.6782106302
 30
0.0
 10
76.2910585653
 20
60.8688554978
 30
0.0
 10
76.2999691869
 20
61.0594998262
 30
0.0
 10
76.3362049975
 20
61.3121696466
 30
0.0
 10
76.3871889925
 20
61.4975576964
 30
0.0
 10
76.4276210826
 20
61.6188539668
 30
0.0
  0
SPLINE
  5
3E7
100
AcDbEntity
  8
DEFAULT_2
100
AcDbSpline
 62
8
  6
HIDDEN
 70
0
 71
3
 72
11
 73
7
 74
0
 42
0.0000001
 43
0.0000001
 44
0.0000000001
 40
0.0
 40
0.0
 40
0.0
 40
0.0
 40
0.25111694
 40
0.5
 40
0.74888306
 40
1.0
 40
1.0
 40
1.0
 40
1.0
 10
78.1606337845
 20
58.6188539668
 30
0.0
 10
78.1120261135
 20
58.7379179585
 30
0.0
 10
78.0374466957
 20
58.9848142747
 30
0.0
 10
77.999372149
 20
59.3688539668
 30
0.0
 10
78.0374466957
 20
59.7528936589
 30
0.0
 10
78.1120261135
 20
59.9997899751
 30
0.0
 10
78.1606337845
 20
60.1188539668
 30
0.0
  0
SPLINE
  5
3E8
100
AcDbEntity
  8
DEFAULT_2
100
AcDbSpline
 62
8
  6
HIDDEN
 70
0
 71
3
 72
18
 73
14
 74
0
 42
0.0000001
 43
0.0000001
 44
0.0000000001
 40
0.0
 40
0.0
 40
0.0
 40
0.0
 40
0.1815441283
 40
0.323374815
 40
0.3804655335
 40
0.4294066539
 40
0.509197513
 40
0.5466424691
 40
0.5869972438
 40
0.6333213452
 40
0.687676118
 40
0.8241274082
 40
1.0
 40
1.0
 40
1.0
 40
1.0
 10
52.2103516894
 20
37.9920435023
 30
0.0
 10
52.2232248835
 20
37.9596388084
 30
0.0
 10
52.248171021
 20
37.9026931175
 30
0.0
 10
52.2852809425
 20
37.8393113555
 30
0.0
 10
52.3161449052
 20
37.802814971
 30
0.0
 10
52.3428866515
 20
37.7792173617
 30
0.0
 10
52.3738519852
 20
37.7655527816
 30
0.0
 10
52.4045389747
 20
37.7686325356
 30
0.0
 10
52.4266882858
 20
37.7782267463
 30
0.0
 10
52.4483769423
 20
37.7947771672
 30
0.0
 10
52.4792654043
 20
37.8284630486
 30
0.0
 10
52.5163677372
 20
37.8888853198
 30
0.0
 10
52.5411807235
 20
37.943544338
 30
0.0
 10
52.5540445825
 20
37.9747777746
 30
0.0
  0
SPLINE
  5
3E9
100
AcDbEntity
  8
DEFAULT_2
100
AcDbSpline
 62
8
  6
HIDDEN
 70
0
 71
3
 72
18
 73
14
 74
0
 42
0.0000001
 43
0.0000001
 44
0.0000000001
 40
0.0
 40
0.0
 40
0.0
 40
0.0
 40
0.1819926322
 40
0.3247869038
 40
0.3822082927
 40
0.4312457305
 40
0.5107066573
 40
0.5481809323
 40
0.5887143293
 40
0.6351515209
 40
0.6893476467
 40
0.8248767818
 40
1.0
 40
1.0
 40
1.0
 40
1.0
 10
50.9605338275
 20
42.2451574901
 30
0.0
 10
50.9734447635
 20
42.2776560571
 30
0.0
 10
50.9984400483
 20
42.3348955448
 30
0.0
 10
51.0354064647
 20
42.3987766483
 30
0.0
 10
51.0662345404
 20
42.435677755
 30
0.0
 10
51.0928734467
 20
42.4594542181
 30
0.0
 10
51.1240435726
 20
42.4728657204
 30
0.0
 10
51.1546564599
 20
42.4691812543
 30
0.0
 10
51.1767239371
 20
42.4592750137
 30
0.0
 10
51.1983654828
 20
42.4426267117
 30
0.0
 10
51.2292380002
 20
42.4091645057
 30
0.0
 10
51.2664558784
 20
42.3491909129
 30
0.0
 10
51.2912209236
 20
42.2948228078
 30
0.0
 10
51.3040368649
 20
42.2637096474
 30
0.0
  0
SPLINE
  5
3EA
100
AcDbEntity
  8
DEFAULT_2
100
AcDbSpline
 62
8
  6
HIDDEN
 70
0
 71
3
 72
18
 73
14
 74
0
 42
0.0000001
 43
0.0000001
 44
0.0000000001
 40
0.0
 40
0.0
 40
0.0
 40
0.0
 40
0.18223235
 40
0.3244644318
 40
0.3813983301
 40
0.4300739734
 40
0.5095231784
 40
0.5470431369
 40
0.5875341498
 40
0.6338783205
 40
0.6880329974
 40
0.8240556544
 40
1.0
 40
1.0
 40
1.0
 40
1.0
 10
49.7109748148
 20
37.9908013494
 30
0.0
 10
49.723845638
 20
37.9583729937
 30
0.0
 10
49.7487033116
 20
37.9013902081
 30
0.0
 10
49.7856133995
 20
37.8379288073
 30
0.0
 10
49.8164797158
 20
37.801631852
 30
0.0
 10
49.8431961069
 20
37.7783721883
 30
0.0
 10
49.874201495
 20
37.7652817979
 30
0.0
 10
49.9047022153
 20
37.7687745799
 30
0.0
 10
49.9267475909
 20
37.778481883
 30
0.0
 10
49.9483719677
 20
37.7949419867
 30
0.0
 10
49.9792590109
 20
37.8282714174
 30
0.0
 10
50.0163262746
 20
37.8883495098
 30
0.0
 10
50.0410080281
 20
37.9427833283
 30
0.0
 10
50.0538289742
 20
37.9739333699
 30
0.0
  0
SPLINE
  5
3EB
100
AcDbEntity
  8
DEFAULT_2
100
AcDbSpline
 62
8
  6
HIDDEN
 70
0
 71
3
 72
18
 73
14
 74
0
 42
0.0000001
 43
0.0000001
 44
0.0000000001
 40
0.0
 40
0.0
 40
0.0
 40
0.0
 40
0.1819945304
 40
0.3236787692
 40
0.3805015191
 40
0.4291488808
 40
0.5086087885
 40
0.5461229834
 40
0.5866358126
 40
0.6330875998
 40
0.687490998
 40
0.8240344604
 40
1.0
 40
1.0
 40
1.0
 40
1.0
 10
48.4612073894
 20
42.247595646
 30
0.0
 10
48.474059331
 20
42.2799822495
 30
0.0
 10
48.4988526681
 20
42.3368374322
 30
0.0
 10
48.5358728551
 20
42.4000340876
 30
0.0
 10
48.5667121654
 20
42.4361775544
 30
0.0
 10
48.5934224401
 20
42.4594000304
 30
0.0
 10
48.6244026257
 20
42.4725287541
 30
0.0
 10
48.6549153331
 20
42.4690477396
 30
0.0
 10
48.676969279
 20
42.4592901595
 30
0.0
 10
48.6985970046
 20
42.4427093515
 30
0.0
 10
48.7294296065
 20
42.4091010301
 30
0.0
 10
48.766427292
 20
42.3488235661
 30
0.0
 10
48.791181152
 20
42.2943099927
 30
0.0
 10
48.8040126763
 20
42.2631601708
 30
0.0
  0
SPLINE
  5
3EC
100
AcDbEntity
  8
DEFAULT_2
100
AcDbSpline
 62
8
  6
HIDDEN
 70
0
 71
3
 72
18
 73
14
 74
0
 42
0.0000001
 43
0.0000001
 44
0.0000000001
 40
0.0
 40
0.0
 40
0.0
 40
0.0
 40
0.1820544062
 40
0.3238657418
 40
0.3807286055
 40
0.4294058504
 40
0.5089000888
 40
0.5464091724
 40
0.5868931961
 40
0.6332865999
 40
0.6876010078
 40
0.8240350153
 40
1.0
 40
1.0
 40
1.0
 40
1.0
 10
47.2110708647
 20
37.9904157474
 30
0.0
 10
47.2239293498
 20
37.9580160313
 30
0.0
 10
47.248736157
 20
37.9011231497
 30
0.0
 10
47.2857413703
 20
37.8378602142
 30
0.0
 10
47.3165875244
 20
37.8016671465
 30
0.0
 10
47.3432999724
 20
37.7784120228
 30
0.0
 10
47.3742758023
 20
37.7652460032
 30
0.0
 10
47.4047959344
 20
37.7686761862
 30
0.0
 10
47.4268532995
 20
37.7783872706
 30
0.0
 10
47.4484850121
 20
37.794910966
 30
0.0
 10
47.4793450004
 20
37.8284344087
 30
0.0
 10
47.5163421163
 20
37.8886828679
 30
0.0
 10
47.5410868937
 20
37.9431815315
 30
0.0
 10
47.5539180283
 20
37.9743346795
 30
0.0
  0
SPLINE
  5
3ED
100
AcDbEntity
  8
DEFAULT_2
100
AcDbSpline
 62
8
  6
HIDDEN
 70
0
 71
3
 72
21
 73
17
 74
0
 42
0.0000001
 43
0.0000001
 44
0.0000000001
 40
0.0
 40
0.0
 40
0.0
 40
0.0
 40
0.0538690181
 40
0.1162978695
 40
0.2619383054
 40
0.4238807052
 40
0.5873843894
 40
0.6649207536
 40
0.7371645231
 40
0.802626167
 40
0.8599985443
 40
0.9081481743
 40
0.9466709505
 40
0.962558171
 40
0.9764681304
 40
1.0
 40
1.0
 40
1.0
 40
1.0
 10
51.7385500101
 20
41.2963950176
 30
0.0
 10
51.7616070869
 20
41.2511856325
 30
0.0
 10
51.8065150687
 20
41.1511052849
 30
0.0
 10
51.8940923449
 20
40.9203242263
 30
0.0
 10
51.9983085776
 20
40.5874602192
 30
0.0
 10
52.1193900962
 20
40.1605318913
 30
0.0
 10
52.2217864623
 20
39.7949326472
 30
0.0
 10
52.3066348215
 20
39.5122373577
 30
0.0
 10
52.369143964
 20
39.3193072787
 30
0.0
 10
52.4314981138
 20
39.1463866269
 30
0.0
 10
52.4935250006
 20
38.9975953596
 30
0.0
 10
52.555406308
 20
38.8766626297
 30
0.0
 10
52.6101268468
 20
38.7963680327
 30
0.0
 10
52.6553100815
 20
38.750177334
 30
0.0
 10
52.6953354227
 20
38.7198032386
 30
0.0
 10
52.7302688608
 20
38.7070646787
 30
0.0
 10
52.752423902
 20
38.7062730701
 30
0.0
  0
SPLINE
  5
3EE
100
AcDbEntity
  8
DEFAULT_2
100
AcDbSpline
 62
8
  6
HIDDEN
 70
0
 71
3
 72
22
 73
18
 74
0
 42
0.0000001
 43
0.0000001
 44
0.0000000001
 40
0.0
 40
0.0
 40
0.0
 40
0.0
 40
0.0538411941
 40
0.1163561501
 40
0.2618218832
 40
0.4237221789
 40
0.5870466845
 40
0.6644855763
 40
0.7367786937
 40
0.8022608164
 40
0.8594656956
 40
0.907611314
 40
0.9463792145
 40
0.9623647973
 40
0.9763076104
 40
0.9886276385
 40
1.0
 40
1.0
 40
1.0
 40
1.0
 10
50.4889464763
 20
38.9419626473
 30
0.0
 10
50.5120107494
 20
38.9871224211
 30
0.0
 10
50.5568965203
 20
39.0872436458
 30
0.0
 10
50.6441260482
 20
39.3179591689
 30
0.0
 10
50.7485356626
 20
39.6505185228
 30
0.0
 10
50.8692617869
 20
40.0770326943
 30
0.0
 10
50.9715989431
 20
40.4422214972
 30
0.0
 10
51.0564422402
 20
40.7246050859
 30
0.0
 10
51.1188105841
 20
40.9174895879
 30
0.0
 10
51.1809601125
 20
41.0903311147
 30
0.0
 10
51.2431246286
 20
41.2388728501
 30
0.0
 10
51.3050730729
 20
41.3597694822
 30
0.0
 10
51.3595642505
 20
41.4405852906
 30
0.0
 10
51.4045226776
 20
41.4873585867
 30
0.0
 10
51.4363499185
 20
41.5115997091
 30
0.0
 10
51.468658803
 20
41.5269170291
 30
0.0
 10
51.4909402077
 20
41.5309814305
 30
0.0
 10
51.5016442946
 20
41.5313577922
 30
0.0
  0
SPLINE
  5
3EF
100
AcDbEntity
  8
DEFAULT_2
100
AcDbSpline
 62
8
  6
HIDDEN
 70
0
 71
3
 72
21
 73
17
 74
0
 42
0.0000001
 43
0.0000001
 44
0.0000000001
 40
0.0
 40
0.0
 40
0.0
 40
0.0
 40
0.0539494941
 40
0.116532305
 40
0.2620367827
 40
0.4240235215
 40
0.5874357255
 40
0.6649015066
 40
0.7371881608
 40
0.8026230761
 40
0.859865504
 40
0.9080699115
 40
0.9467453066
 40
0.9626272513
 40
0.9765035439
 40
1.0
 40
1.0
 40
1.0
 40
1.0
 10
49.2389843109
 20
41.2958373636
 30
0.0
 10
49.2620877463
 20
41.2505820489
 30
0.0
 10
49.3069190969
 20
41.1502508354
 30
0.0
 10
49.3942147282
 20
40.9193449641
 30
0.0
 10
49.4987292279
 20
40.5866187331
 30
0.0
 10
49.6194886458
 20
40.1598979134
 30
0.0
 10
49.7218701316
 20
39.7945175296
 30
0.0
 10
49.8067547992
 20
39.5120348699
 30
0.0
 10
49.869134736
 20
39.319175746
 30
0.0
 10
49.9313958205
 20
39.14638709
 30
0.0
 10
49.9935653691
 20
38.9977978629
 30
0.0
 10
50.0554425259
 20
38.8768573139
 30
0.0
 10
50.109864245
 20
38.7961454519
 30
0.0
 10
50.1551044145
 20
38.7498746745
 30
0.0
 10
50.1951660234
 20
38.7196551808
 30
0.0
 10
50.230075557
 20
38.7071670197
 30
0.0
 10
50.252191361
 20
38.7063803402
 30
0.0
  0
SPLINE
  5
3F0
100
AcDbEntity
  8
DEFAULT_2
100
AcDbSpline
 62
8
  6
HIDDEN
 70
0
 71
3
 72
21
 73
17
 74
0
 42
0.0000001
 43
0.0000001
 44
0.0000000001
 40
0.0
 40
0.0
 40
0.0
 40
0.0
 40
0.0539205606
 40
0.1164823775
 40
0.262066084
 40
0.4240622872
 40
0.5874440649
 40
0.664945713
 40
0.7372023837
 40
0.8025633488
 40
0.8598479795
 40
0.9080966553
 40
0.9467257113
 40
0.9626048187
 40
0.9764923468
 40
1.0
 40
1.0
 40
1.0
 40
1.0
 10
47.9890579221
 20
38.942069963
 30
0.0
 10
48.0121520036
 20
38.9872960924
 30
0.0
 10
48.0569997136
 20
39.0875606441
 30
0.0
 10
48.1443309599
 20
39.3184691899
 30
0.0
 10
48.2487439594
 20
39.6512737172
 30
0.0
 10
48.3695233634
 20
40.0780172122
 30
0.0
 10
48.471965958
 20
40.4433715086
 30
0.0
 10
48.5567727236
 20
40.7258349213
 30
0.0
 10
48.6191441076
 20
40.9186181521
 30
0.0
 10
48.6815037514
 20
41.0912987188
 30
0.0
 10
48.7436235426
 20
41.2399028253
 30
0.0
 10
48.8053864631
 20
41.3609461522
 30
0.0
 10
48.8599240769
 20
41.4415691509
 30
0.0
 10
48.9051524177
 20
41.4877923421
 30
0.0
 10
48.945184216
 20
41.5180622421
 30
0.0
 10
48.9800916767
 20
41.5306523041
 30
0.0
 10
49.0022167024
 20
41.531439653
 30
0.0
  0
SPLINE
  5
3F1
100
AcDbEntity
  8
DEFAULT_2
100
AcDbSpline
 62
8
  6
HIDDEN
 70
0
 71
3
 72
21
 73
17
 74
0
 42
0.0000001
 43
0.0000001
 44
0.0000000001
 40
0.0
 40
0.0
 40
0.0
 40
0.0
 40
0.0538816889
 40
0.1164097729
 40
0.2619581849
 40
0.4239526074
 40
0.5873721811
 40
0.6648675902
 40
0.7371654108
 40
0.8025788401
 40
0.859858938
 40
0.9080927096
 40
0.9467271436
 40
0.9626058811
 40
0.9764919644
 40
1.0
 40
1.0
 40
1.0
 40
1.0
 10
46.7387664246
 20
41.2961746961
 30
0.0
 10
46.7618344348
 20
41.2509635897
 30
0.0
 10
46.8067542201
 20
41.1507821757
 30
0.0
 10
46.8940918164
 20
40.9199209437
 30
0.0
 10
46.9985507917
 20
40.5871214923
 30
0.0
 10
47.1193760135
 20
40.1602857052
 30
0.0
 10
47.2218032373
 20
39.794809466
 30
0.0
 10
47.306686112
 20
39.5122282966
 30
0.0
 10
47.3690653856
 20
39.3193141691
 30
0.0
 10
47.4314017669
 20
39.1464920218
 30
0.0
 10
47.4935630404
 20
38.9978298057
 30
0.0
 10
47.5553752656
 20
38.876794614
 30
0.0
 10
47.609905991
 20
38.7961518742
 30
0.0
 10
47.655152273
 20
38.7499206024
 30
0.0
 10
47.6952016455
 20
38.7196555039
 30
0.0
 10
47.7301188131
 20
38.7070787947
 30
0.0
 10
47.7522491371
 20
38.7062906572
 30
0.0
  0
SPLINE
  5
3F2
100
AcDbEntity
  8
DEFAULT_2
100
AcDbSpline
 62
8
  6
HIDDEN
 70
0
 71
3
 72
17
 73
13
 74
0
 42
0.0000001
 43
0.0000001
 44
0.0000000001
 40
0.0
 40
0.0
 40
0.0
 40
0.0
 40
0.026125684
 40
0.0546908078
 40
0.0876223506
 40
0.1259980327
 40
0.2205653605
 40
0.3391993761
 40
0.480456506
 40
0.6408759446
 40
0.8157073868
 40
1.0
 40
1.0
 40
1.0
 40
1.0
 10
52.0378775909
 20
38.7192597318
 30
0.0
 10
52.0499563361
 20
38.719255241
 30
0.0
 10
52.0753845473
 20
38.7234344309
 30
0.0
 10
52.1120836477
 20
38.7416090267
 30
0.0
 10
52.1480217735
 20
38.7710440586
 30
0.0
 10
52.1990571643
 20
38.8285706507
 30
0.0
 10
52.2605233127
 20
38.9280791962
 30
0.0
 10
52.3303764725
 20
39.0764319626
 30
0.0
 10
52.4003041087
 20
39.2578867078
 30
0.0
 10
52.4704619274
 20
39.4667497677
 30
0.0
 10
52.5408966002
 20
39.6964132506
 30
0.0
 10
52.5871583344
 20
39.855875007
 30
0.0
 10
52.6106337845
 20
39.9377816361
 30
0.0
  0
SPLINE
  5
3F3
100
AcDbEntity
  8
DEFAULT_2
100
AcDbSpline
 62
8
  6
HIDDEN
 70
0
 71
3
 72
21
 73
17
 74
0
 42
0.0000001
 43
0.0000001
 44
0.0000000001
 40
0.0
 40
0.0
 40
0.0
 40
0.0
 40
0.0233847134
 40
0.0370267489
 40
0.052547965
 40
0.0901534957
 40
0.1371628389
 40
0.1931255041
 40
0.2571251747
 40
0.3280684513
 40
0.4044973364
 40
0.5667023471
 40
0.7293277878
 40
0.8780630284
 40
0.9430034862
 40
1.0
 40
1.0
 40
1.0
 40
1.0
 10
50.7871088329
 20
41.5188635508
 30
0.0
 10
50.8085895688
 20
41.518859162
 30
0.0
 10
50.8427789182
 20
41.508114684
 30
0.0
 10
50.8822732016
 20
41.4802902671
 30
0.0
 10
50.9266138984
 20
41.4375563255
 30
0.0
 10
50.9802881712
 20
41.3621403149
 30
0.0
 10
51.0409079814
 20
41.247967612
 30
0.0
 10
51.1018472147
 20
41.1070811235
 30
0.0
 10
51.1630422643
 20
40.9426966267
 30
0.0
 10
51.2243009353
 20
40.7584208756
 30
0.0
 10
51.3076892924
 20
40.4865359533
 30
0.0
 10
51.4085164699
 20
40.13198111
 30
0.0
 10
51.5274491963
 20
39.7135825165
 30
0.0
 10
51.6295771731
 20
39.3831884117
 30
0.0
 10
51.7150569351
 20
39.1496541407
 30
0.0
 10
51.7587828803
 20
39.0464312638
 30
0.0
 10
51.7811746811
 20
38.9991053227
 30
0.0
  0
SPLINE
  5
3F4
100
AcDbEntity
  8
DEFAULT_2
100
AcDbSpline
 62
8
  6
HIDDEN
 70
0
 71
3
 72
21
 73
17
 74
0
 42
0.0000001
 43
0.0000001
 44
0.0000000001
 40
0.0
 40
0.0
 40
0.0
 40
0.0
 40
0.0233579665
 40
0.0369706887
 40
0.0524916126
 40
0.0901787732
 40
0.1371109078
 40
0.1929323543
 40
0.256928978
 40
0.327901145
 40
0.4042550025
 40
0.5664089296
 40
0.7291205373
 40
0.8778023136
 40
0.9429125148
 40
1.0
 40
1.0
 40
1.0
 40
1.0
 10
49.5371127423
 20
38.7190760047
 30
0.0
 10
49.5585571614
 20
38.7190803323
 30
0.0
 10
49.5927142281
 20
38.7295775545
 30
0.0
 10
49.6322497013
 20
38.7572431096
 30
0.0
 10
49.6765768072
 20
38.80002022
 30
0.0
 10
49.7299971796
 20
38.8755564097
 30
0.0
 10
49.7907290599
 20
38.9894242961
 30
0.0
 10
49.8517183449
 20
39.1299884343
 30
0.0
 10
49.9127918483
 20
39.2942025513
 30
0.0
 10
49.9739473004
 20
39.4783521733
 30
0.0
 10
50.0573783133
 20
39.7499672459
 30
0.0
 10
50.1581602353
 20
40.1042874422
 30
0.0
 10
50.2768148532
 20
40.5225039666
 30
0.0
 10
50.3791726211
 20
40.8528182977
 30
0.0
 10
50.4643933855
 20
41.0864984598
 30
0.0
 10
50.5080534132
 20
41.1899478881
 30
0.0
 10
50.5304838464
 20
41.2373162307
 30
0.0
  0
SPLINE
  5
3F5
100
AcDbEntity
  8
DEFAULT_2
100
AcDbSpline
 62
8
  6
HIDDEN
 70
0
 71
3
 72
21
 73
17
 74
0
 42
0.0000001
 43
0.0000001
 44
0.0000000001
 40
0.0
 40
0.0
 40
0.0
 40
0.0
 40
0.0233601669
 40
0.0370014545
 40
0.0525718557
 40
0.0902838929
 40
0.1371816509
 40
0.1930232247
 40
0.2571113353
 40
0.3280980655
 40
0.4044243822
 40
0.5665355714
 40
0.7292314516
 40
0.8779084563
 40
0.9429770433
 40
1.0
 40
1.0
 40
1.0
 40
1.0
 10
48.2873743579
 20
41.5186560499
 30
0.0
 10
48.3088206169
 20
41.5186558467
 30
0.0
 10
48.34301967
 20
41.5081309505
 30
0.0
 10
48.3825153662
 20
41.480271761
 30
0.0
 10
48.4267368315
 20
41.4372586095
 30
0.0
 10
48.4802027929
 20
41.3617392586
 30
0.0
 10
48.5409937029
 20
41.2478801733
 30
0.0
 10
48.601971786
 20
41.1072356089
 30
0.0
 10
48.662950469
 20
40.9428638217
 30
0.0
 10
48.7241333288
 20
40.7586508582
 30
0.0
 10
48.8075723017
 20
40.4870936312
 30
0.0
 10
48.9083421279
 20
40.1328554992
 30
0.0
 10
49.0269793841
 20
39.7146980495
 30
0.0
 10
49.1292911103
 20
39.3844331503
 30
0.0
 10
49.2144946457
 20
39.1508542913
 30
0.0
 10
49.2581958558
 20
39.0475302033
 30
0.0
 10
49.2806035722
 20
39.0002171401
 30
0.0
  0
SPLINE
  5
3F6
100
AcDbEntity
  8
DEFAULT_2
100
AcDbSpline
 62
8
  6
HIDDEN
 70
0
 71
3
 72
21
 73
17
 74
0
 42
0.0000001
 43
0.0000001
 44
0.0000000001
 40
0.0
 40
0.0
 40
0.0
 40
0.0
 40
0.0233609913
 40
0.0369970195
 40
0.0525635547
 40
0.0902882923
 40
0.1372054581
 40
0.1930399776
 40
0.2570979369
 40
0.3280754299
 40
0.404431793
 40
0.5666411174
 40
0.7292881148
 40
0.8780148991
 40
0.9430367842
 40
1.0
 40
1.0
 40
1.0
 40
1.0
 10
47.0373463506
 20
38.7190773878
 30
0.0
 10
47.058793209
 20
38.7190779351
 30
0.0
 10
47.0929854813
 20
38.7295921807
 30
0.0
 10
47.1325003529
 20
38.7574104812
 30
0.0
 10
47.1767397039
 20
38.8004123523
 30
0.0
 10
47.2301938702
 20
38.875974376
 30
0.0
 10
47.2909736895
 20
38.9898614894
 30
0.0
 10
47.3519658212
 20
39.1304803762
 30
0.0
 10
47.4129741371
 20
39.2947943878
 30
0.0
 10
47.4741668951
 20
39.4789940138
 30
0.0
 10
47.5576111658
 20
39.7506619183
 30
0.0
 10
47.658297014
 20
40.1049970299
 30
0.0
 10
47.7770973893
 20
40.5231984297
 30
0.0
 10
47.8792990183
 20
40.8534497879
 30
0.0
 10
47.9645374139
 20
41.0869630423
 30
0.0
 10
48.0082987676
 20
41.1901525003
 30
0.0
 10
48.030678785
 20
41.2374175702
 30
0.0
  0
SPLINE
  5
3F7
100
AcDbEntity
  8
DEFAULT_2
100
AcDbSpline
 62
8
  6
HIDDEN
 70
0
 71
3
 72
21
 73
17
 74
0
 42
0.0000001
 43
0.0000001
 44
0.0000000001
 40
0.0
 40
0.0
 40
0.0
 40
0.0
 40
0.0233796485
 40
0.0370170406
 40
0.0525348033
 40
0.0901448283
 40
0.1371037905
 40
0.1929964647
 40
0.2570114715
 40
0.3279889258
 40
0.4043522328
 40
0.5665198265
 40
0.7292223552
 40
0.877930723
 40
0.9430005973
 40
1.0
 40
1.0
 40
1.0
 40
1.0
 10
45.7871510641
 20
41.5188498928
 30
0.0
 10
45.8086174674
 20
41.5188463576
 30
0.0
 10
45.8427859209
 20
41.50812889
 30
0.0
 10
45.8822626223
 20
41.4803360791
 30
0.0
 10
45.9265869773
 20
41.4376284264
 30
0.0
 10
45.9801710201
 20
41.3622556271
 30
0.0
 10
46.0408036014
 20
41.2482829181
 30
0.0
 10
46.1017616036
 20
41.1075805806
 30
0.0
 10
46.1628736456
 20
40.9432685301
 30
0.0
 10
46.224041093
 20
40.7590713485
 30
0.0
 10
46.3074792298
 20
40.4874022408
 30
0.0
 10
46.4082616738
 20
40.1330319836
 30
0.0
 10
46.5269668905
 20
39.7147556823
 30
0.0
 10
46.6292920569
 20
39.3844209247
 30
0.0
 10
46.7144935819
 20
39.1508021661
 30
0.0
 10
46.7582476561
 20
39.0475106935
 30
0.0
 10
46.7806449668
 20
39.0002105349
 30
0.0
  0
SPLINE
  5
3F8
100
AcDbEntity
  8
DEFAULT_2
100
AcDbSpline
 62
8
  6
HIDDEN
 70
0
 71
3
 72
10
 73
6
 74
0
 42
0.0000001
 43
0.0000001
 44
0.0000000001
 40
0.0
 40
0.0
 40
0.0
 40
0.0
 40
0.5498241358
 40
0.7927516838
 40
1.0
 40
1.0
 40
1.0
 40
1.0
 10
33.564341373
 20
39.9476764871
 30
0.0
 10
33.6390673067
 20
40.066938878
 30
0.0
 10
33.7433839496
 20
40.2412881213
 30
0.0
 10
33.8953121333
 20
40.4475271297
 30
0.0
 10
33.9748358203
 20
40.5318652115
 30
0.0
 10
34.0154539275
 20
40.5659888997
 30
0.0
  0
SPLINE
  5
3F9
100
AcDbEntity
  8
DEFAULT_2
100
AcDbSpline
 62
8
  6
HIDDEN
 70
0
 71
3
 72
18
 73
14
 74
0
 42
0.0000001
 43
0.0000001
 44
0.0000000001
 40
0.0
 40
0.0
 40
0.0
 40
0.0
 40
0.187170847
 40
0.3374520393
 40
0.3991424136
 40
0.4526398985
 40
0.5407076959
 40
0.5807655895
 40
0.6220629632
 40
0.6674380334
 40
0.7188381596
 40
0.843523361
 40
1.0
 40
1.0
 40
1.0
 40
1.0
 10
33.4257907166
 20
40.9271642565
 30
0.0
 10
33.4465456222
 20
40.9756409259
 30
0.0
 10
33.4868410017
 20
41.0618472241
 30
0.0
 10
33.5454622908
 20
41.1583744759
 30
0.0
 10
33.5939491033
 20
41.2156519127
 30
0.0
 10
33.6364712384
 20
41.2539680218
 30
0.0
 10
33.684150389
 20
41.2781781607
 30
0.0
 10
33.7325680065
 20
41.2794322109
 30
0.0
 10
33.7674652552
 20
41.2700368054
 30
0.0
 10
33.8016846041
 20
41.2509094337
 30
0.0
 10
33.8497554893
 20
41.2107312603
 30
0.0
 10
33.907919672
 20
41.1362477943
 30
0.0
 10
33.9471152247
 20
41.067303471
 30
0.0
 10
33.9673384455
 20
41.0281304716
 30
0.0
  0
SPLINE
  5
3FA
100
AcDbEntity
  8
DEFAULT_2
100
AcDbSpline
 62
8
  6
HIDDEN
 70
0
 71
3
 72
10
 73
6
 74
0
 42
0.0000001
 43
0.0000001
 44
0.0000000001
 40
0.0
 40
0.0
 40
0.0
 40
0.0
 40
0.5530585736
 40
0.7943149384
 40
1.0
 40
1.0
 40
1.0
 40
1.0
 10
38.947529252
 20
39.9948487125
 30
0.0
 10
39.0006901255
 20
39.8085329307
 30
0.0
 10
39.0776727529
 20
39.540992542
 30
0.0
 10
39.1912438653
 20
39.2095289486
 30
0.0
 10
39.2502706811
 20
39.0642798492
 30
0.0
 10
39.2810804045
 20
38.9991416475
 30
0.0
  0
SPLINE
  5
3FB
100
AcDbEntity
  8
DEFAULT_2
100
AcDbSpline
 62
8
  6
HIDDEN
 70
0
 71
3
 72
15
 73
11
 74
0
 42
0.0000001
 43
0.0000001
 44
0.0000000001
 40
0.0
 40
0.0
 40
0.0
 40
0.0
 40
0.1787116808
 40
0.3522979745
 40
0.5142885992
 40
0.6590952879
 40
0.7817824704
 40
0.8337464058
 40
0.8792294583
 40
1.0
 40
1.0
 40
1.0
 40
1.0
 10
39.6127293442
 20
40.1831589993
 30
0.0
 10
39.639301418
 20
40.0889121097
 30
0.0
 10
39.6914636734
 20
39.9030630493
 30
0.0
 10
39.7697708465
 20
39.6323463199
 30
0.0
 10
39.8479488799
 20
39.3810253448
 30
0.0
 10
39.9259067849
 20
39.1587484757
 30
0.0
 10
39.9932798446
 20
38.9974336897
 30
0.0
 10
40.0496771453
 20
38.8898146771
 30
0.0
 10
40.1110848245
 20
38.7906513373
 30
0.0
 10
40.1855884193
 20
38.7088657763
 30
0.0
 10
40.2517209887
 20
38.7065366565
 30
0.0
  0
SPLINE
  5
3FC
100
AcDbEntity
  8
DEFAULT_2
100
AcDbSpline
 62
8
  6
HIDDEN
 70
0
 71
3
 72
18
 73
14
 74
0
 42
0.0000001
 43
0.0000001
 44
0.0000000001
 40
0.0
 40
0.0
 40
0.0
 40
0.0
 40
0.181403862
 40
0.3232773194
 40
0.3803666854
 40
0.4292557522
 40
0.5088084369
 40
0.5462335799
 40
0.5867702717
 40
0.6334140133
 40
0.6880053538
 40
0.8245046144
 40
1.0
 40
1.0
 40
1.0
 40
1.0
 10
44.7103797918
 20
37.992013655
 30
0.0
 10
44.7232786697
 20
37.9595450185
 30
0.0
 10
44.7482683243
 20
37.9024543714
 30
0.0
 10
44.7853855334
 20
37.838869316
 30
0.0
 10
44.8162806402
 20
37.8022268936
 30
0.0
 10
44.843021014
 20
37.778571964
 30
0.0
 10
44.8740999152
 20
37.7649403753
 30
0.0
 10
44.904841191
 20
37.768393449
 30
0.0
 10
44.9269785303
 20
37.7784107789
 30
0.0
 10
44.9486325192
 20
37.7953404005
 30
0.0
 10
44.9795190718
 20
37.8293414097
 30
0.0
 10
45.0166881407
 20
37.8899120134
 30
0.0
 10
45.0415681172
 20
37.9446560956
 30
0.0
 10
45.0544502577
 20
37.9759039312
 30
0.0
  0
SPLINE
  5
3FD
100
AcDbEntity
  8
DEFAULT_2
100
AcDbSpline
 62
8
  6
HIDDEN
 70
0
 71
3
 72
13
 73
9
 74
0
 42
0.0000001
 43
0.0000001
 44
0.0000000001
 40
0.0
 40
0.0
 40
0.0
 40
0.0
 40
0.0806245384
 40
0.1612815848
 40
0.251332695
 40
0.3574763919
 40
0.6317842415
 40
1.0
 40
1.0
 40
1.0
 40
1.0
 10
46.1116815644
 20
42.4664218654
 30
0.0
 10
46.1193432857
 20
42.4691694953
 30
0.0
 10
46.1357465059
 20
42.472269168
 30
0.0
 10
46.1611728508
 20
42.4673502863
 30
0.0
 10
46.1858308698
 20
42.4534464354
 30
0.0
 10
46.2209484005
 20
42.4210543109
 30
0.0
 10
46.2627772559
 20
42.3571179836
 30
0.0
 10
46.289844653
 20
42.2981377732
 30
0.0
 10
46.3040007293
 20
42.2637652481
 30
0.0
  0
SPLINE
  5
3FE
100
AcDbEntity
  8
DEFAULT_2
100
AcDbSpline
 62
8
  6
HIDDEN
 70
0
 71
3
 72
18
 73
14
 74
0
 42
0.0000001
 43
0.0000001
 44
0.0000000001
 40
0.0
 40
0.0
 40
0.0
 40
0.0
 40
0.1821686565
 40
0.3247714363
 40
0.381994218
 40
0.4308051884
 40
0.5101212425
 40
0.5476723673
 40
0.5883115256
 40
0.634844846
 40
0.6891147222
 40
0.8247461096
 40
1.0
 40
1.0
 40
1.0
 40
1.0
 10
43.4605531742
 20
42.2458978705
 30
0.0
 10
43.4734604588
 20
42.2784043735
 30
0.0
 10
43.4984354317
 20
42.3355948775
 30
0.0
 10
43.535435697
 20
42.399354541
 30
0.0
 10
43.5663022747
 20
42.4360221654
 30
0.0
 10
43.5930203812
 20
42.4595230435
 30
0.0
 10
43.6242402333
 20
42.472555426
 30
0.0
 10
43.6548003268
 20
42.4687006027
 30
0.0
 10
43.6768706022
 20
42.4587271584
 30
0.0
 10
43.6985243845
 20
42.4420467415
 30
0.0
 10
43.729413485
 20
42.4085789623
 30
0.0
 10
43.766666819
 20
42.3486246824
 30
0.0
 10
43.7914483463
 20
42.2942656008
 30
0.0
 10
43.8042689754
 20
42.2631561363
 30
0.0
  0
SPLINE
  5
3FF
100
AcDbEntity
  8
DEFAULT_2
100
AcDbSpline
 62
8
  6
HIDDEN
 70
0
 71
3
 72
18
 73
14
 74
0
 42
0.0000001
 43
0.0000001
 44
0.0000000001
 40
0.0
 40
0.0
 40
0.0
 40
0.0
 40
0.1822603649
 40
0.324761272
 40
0.381808842
 40
0.4304000811
 40
0.5095278374
 40
0.5471258587
 40
0.5878703951
 40
0.6345300472
 40
0.6889203118
 40
0.8247199314
 40
1.0
 40
1.0
 40
1.0
 40
1.0
 10
42.2107949043
 20
37.9913461934
 30
0.0
 10
42.2237058724
 20
37.9588257692
 30
0.0
 10
42.2486693784
 20
37.9016414936
 30
0.0
 10
42.2856590944
 20
37.8379150052
 30
0.0
 10
42.3165571095
 20
37.8013986564
 30
0.0
 10
42.343337444
 20
37.7781305281
 30
0.0
 10
42.3746018662
 20
37.7654024367
 30
0.0
 10
42.4051161621
 20
37.7694826151
 30
0.0
 10
42.4271794173
 20
37.7795840105
 30
0.0
 10
42.4488337655
 20
37.796366154
 30
0.0
 10
42.4797200074
 20
37.8299363118
 30
0.0
 10
42.5169811262
 20
37.8899429885
 30
0.0
 10
42.5417867691
 20
37.9443262615
 30
0.0
 10
42.5546168055
 20
37.9754338412
 30
0.0
  0
SPLINE
  5
400
100
AcDbEntity
  8
DEFAULT_2
100
AcDbSpline
 62
8
  6
HIDDEN
 70
0
 71
3
 72
18
 73
14
 74
0
 42
0.0000001
 43
0.0000001
 44
0.0000000001
 40
0.0
 40
0.0
 40
0.0
 40
0.0
 40
0.1822682962
 40
0.3246222293
 40
0.3816041932
 40
0.4302967373
 40
0.5097586505
 40
0.547300252
 40
0.5878158593
 40
0.634168934
 40
0.6882967521
 40
0.8241317633
 40
1.0
 40
1.0
 40
1.0
 40
1.0
 10
40.9607944682
 20
42.2466342156
 30
0.0
 10
40.9736750683
 20
42.2790780312
 30
0.0
 10
40.998570698
 20
42.336098363
 30
0.0
 10
41.0354938493
 20
42.3996226157
 30
0.0
 10
41.0663776774
 20
42.4359720793
 30
0.0
 10
41.0931173835
 20
42.4592476312
 30
0.0
 10
41.1241598715
 20
42.472313569
 30
0.0
 10
41.1546764884
 20
42.4687862486
 30
0.0
 10
41.1767342934
 20
42.4590662009
 30
0.0
 10
41.1983732268
 20
42.4426105965
 30
0.0
 10
41.2292754247
 20
42.409331098
 30
0.0
 10
41.2664190731
 20
42.3493391676
 30
0.0
 10
41.2910977379
 20
42.2949345375
 30
0.0
 10
41.3039218169
 20
42.2637899671
 30
0.0
  0
SPLINE
  5
401
100
AcDbEntity
  8
DEFAULT_2
100
AcDbSpline
 62
8
  6
HIDDEN
 70
0
 71
3
 72
18
 73
14
 74
0
 42
0.0000001
 43
0.0000001
 44
0.0000000001
 40
0.0
 40
0.0
 40
0.0
 40
0.0
 40
0.1821768741
 40
0.3247866757
 40
0.3820298613
 40
0.4308762614
 40
0.5102634163
 40
0.5478006024
 40
0.5883890763
 40
0.6348519777
 40
0.6890528131
 40
0.824623833
 40
1.0
 40
1.0
 40
1.0
 40
1.0
 10
39.7104950428
 20
37.991869939
 30
0.0
 10
39.7233977909
 20
37.9593697832
 30
0.0
 10
39.7483669006
 20
37.9021905621
 30
0.0
 10
39.7853651178
 20
37.8384455023
 30
0.0
 10
39.8162222614
 20
37.8017707674
 30
0.0
 10
39.8429360712
 20
37.778245197
 30
0.0
 10
39.8741183108
 20
37.7651317206
 30
0.0
 10
39.9046856066
 20
37.768872038
 30
0.0
 10
39.9267580763
 20
37.7787667797
 30
0.0
 10
39.9484120423
 20
37.7953776416
 30
0.0
 10
39.979306355
 20
37.8287740921
 30
0.0
 10
40.0165622413
 20
37.8887099294
 30
0.0
 10
40.0413076225
 20
37.9430807772
 30
0.0
 10
40.0541281698
 20
37.9742061385
 30
0.0
  0
SPLINE
  5
402
100
AcDbEntity
  8
DEFAULT_2
100
AcDbSpline
 62
8
  6
HIDDEN
 70
0
 71
3
 72
19
 73
15
 74
0
 42
0.0000001
 43
0.0000001
 44
0.0000000001
 40
0.0
 40
0.0
 40
0.0
 40
0.0
 40
0.0517624387
 40
0.1113680624
 40
0.2496349183
 40
0.4043927979
 40
0.5627543619
 40
0.7117756359
 40
0.7790095691
 40
0.8394725732
 40
0.8921024981
 40
0.9363903156
 40
0.9721651765
 40
1.0
 40
1.0
 40
1.0
 40
1.0
 10
45.4889129582
 20
38.9416435059
 30
0.0
 10
45.5105875844
 20
38.9841505013
 30
0.0
 10
45.5527573126
 20
39.0778741717
 30
0.0
 10
45.6352044433
 20
39.2927685108
 30
0.0
 10
45.7341712547
 20
39.6025936049
 30
0.0
 10
45.8484846793
 20
40.0026479145
 30
0.0
 10
45.9631299745
 20
40.4129207632
 30
0.0
 10
46.0613442187
 20
40.7440506308
 30
0.0
 10
46.142600687
 20
40.9858735131
 30
0.0
 10
46.2013596051
 20
41.1414326212
 30
0.0
 10
46.260078254
 20
41.2741785381
 30
0.0
 10
46.3186825046
 20
41.3818458926
 30
0.0
 10
46.3769864555
 20
41.4626794691
 30
0.0
 10
46.4217730946
 20
41.5023671251
 30
0.0
 10
46.4442816105
 20
41.5146834668
 30
0.0
  0
SPLINE
  5
403
100
AcDbEntity
  8
DEFAULT_2
100
AcDbSpline
 62
8
  6
HIDDEN
 70
0
 71
3
 72
21
 73
17
 74
0
 42
0.0000001
 43
0.0000001
 44
0.0000000001
 40
0.0
 40
0.0
 40
0.0
 40
0.0
 40
0.0538451456
 40
0.1162353732
 40
0.2617708505
 40
0.4235860649
 40
0.5870105535
 40
0.6645086987
 40
0.7367418561
 40
0.8022419834
 40
0.8596726557
 40
0.9078930951
 40
0.946554975
 40
0.9625071462
 40
0.9764613549
 40
1.0
 40
1.0
 40
1.0
 40
1.0
 10
44.2385184434
 20
41.2965448147
 30
0.0
 10
44.261558042
 20
41.2513623498
 30
0.0
 10
44.3064214706
 20
41.1513490698
 30
0.0
 10
44.3939330384
 20
40.9207613825
 30
0.0
 10
44.498060839
 20
40.5882049717
 30
0.0
 10
44.6190775882
 20
40.1616489495
 30
0.0
 10
44.7213625385
 20
39.7963309211
 30
0.0
 10
44.8061570036
 20
39.5138027034
 30
0.0
 10
44.8686296749
 20
39.3209108813
 30
0.0
 10
44.9309259203
 20
39.1479210278
 30
0.0
 10
44.9928882037
 20
38.9989630836
 30
0.0
 10
45.0547961287
 20
38.8777917522
 30
0.0
 10
45.1094092917
 20
38.7971517251
 30
0.0
 10
45.1545308439
 20
38.7505901681
 30
0.0
 10
45.1944590482
 20
38.7199399116
 30
0.0
 10
45.2294193713
 20
38.7070160479
 30
0.0
 10
45.2515775001
 20
38.7062479184
 30
0.0
  0
SPLINE
  5
404
100
AcDbEntity
  8
DEFAULT_2
100
AcDbSpline
 62
8
  6
HIDDEN
 70
0
 71
3
 72
21
 73
17
 74
0
 42
0.0000001
 43
0.0000001
 44
0.0000000001
 40
0.0
 40
0.0
 40
0.0
 40
0.0
 40
0.0538729744
 40
0.1163457979
 40
0.2618193239
 40
0.4236828493
 40
0.5870797944
 40
0.6645107123
 40
0.7367971594
 40
0.80235157
 40
0.8596965357
 40
0.9079024119
 40
0.9466509424
 40
0.9626037825
 40
0.976511071
 40
1.0
 40
1.0
 40
1.0
 40
1.0
 10
42.9885898343
 20
38.9410689735
 30
0.0
 10
43.0116413274
 20
38.9862757115
 30
0.0
 10
43.0565192848
 20
39.086400779
 30
0.0
 10
43.1438773546
 20
39.317097752
 30
0.0
 10
43.2482121115
 20
39.6496573446
 30
0.0
 10
43.369091565
 20
40.0762235822
 30
0.0
 10
43.4713577039
 20
40.4415077423
 30
0.0
 10
43.5562608823
 20
40.7239674159
 30
0.0
 10
43.6186848662
 20
40.9169165881
 30
0.0
 10
43.6808750941
 20
41.0899707624
 30
0.0
 10
43.7429546227
 20
41.238843597
 30
0.0
 10
43.804937757
 20
41.3599474682
 30
0.0
 10
43.8593939104
 20
41.4407787959
 30
0.0
 10
43.9044964187
 20
41.4874148948
 30
0.0
 10
43.9445220156
 20
41.5178602604
 30
0.0
 10
43.9794912864
 20
41.5303121044
 30
0.0
 10
44.0016026101
 20
41.5310889402
 30
0.0
  0
SPLINE
  5
405
100
AcDbEntity
  8
DEFAULT_2
100
AcDbSpline
 62
8
  6
HIDDEN
 70
0
 71
3
 72
21
 73
17
 74
0
 42
0.0000001
 43
0.0000001
 44
0.0000000001
 40
0.0
 40
0.0
 40
0.0
 40
0.0
 40
0.0538755982
 40
0.1164086917
 40
0.2618304879
 40
0.4237261826
 40
0.587085778
 40
0.6645407606
 40
0.7368601546
 40
0.8023829997
 40
0.8596750566
 40
0.9079149405
 40
0.9466917132
 40
0.9626318896
 40
0.9765198421
 40
1.0
 40
1.0
 40
1.0
 40
1.0
 10
41.7387474136
 20
41.2962695208
 30
0.0
 10
41.7618213379
 20
41.2510835326
 30
0.0
 10
41.8066859018
 20
41.1509091324
 30
0.0
 10
41.8939093381
 20
40.9202090222
 30
0.0
 10
41.9983824375
 20
40.5877331992
 30
0.0
 10
42.1191057895
 20
40.161273079
 30
0.0
 10
42.2214333678
 20
39.796072324
 30
0.0
 10
42.3062919116
 20
39.5136455211
 30
0.0
 10
42.3686631089
 20
39.3206993534
 30
0.0
 10
42.4308452238
 20
39.1477331774
 30
0.0
 10
42.4929942658
 20
38.9989783146
 30
0.0
 10
42.5549120827
 20
38.8778721218
 30
0.0
 10
42.6093039792
 20
38.796958592
 30
0.0
 10
42.6544254616
 20
38.7503583323
 30
0.0
 10
42.6944833537
 20
38.7200313616
 30
0.0
 10
42.7294228184
 20
38.7076443498
 30
0.0
 10
42.7515212587
 20
38.7068696563
 30
0.0
  0
SPLINE
  5
406
100
AcDbEntity
  8
DEFAULT_2
100
AcDbSpline
 62
8
  6
HIDDEN
 70
0
 71
3
 72
21
 73
17
 74
0
 42
0.0000001
 43
0.0000001
 44
0.0000000001
 40
0.0
 40
0.0
 40
0.0
 40
0.0
 40
0.0538748112
 40
0.1163995977
 40
0.2619145408
 40
0.4238885658
 40
0.5872940724
 40
0.6647444348
 40
0.7370549878
 40
0.8025841438
 40
0.859878433
 40
0.9080744066
 40
0.9467482793
 40
0.9626321428
 40
0.9765055089
 40
1.0
 40
1.0
 40
1.0
 40
1.0
 10
40.4886157512
 20
38.9411849153
 30
0.0
 10
40.5116881221
 20
38.9863916099
 30
0.0
 10
40.5566098984
 20
39.0865727783
 30
0.0
 10
40.643939991
 20
39.3174160848
 30
0.0
 10
40.7484263436
 20
39.6501827339
 30
0.0
 10
40.8692589164
 20
40.0769914398
 30
0.0
 10
40.9716523746
 20
40.4424347502
 30
0.0
 10
41.0565921876
 20
40.7249812504
 30
0.0
 10
41.1190214365
 20
40.9179794261
 30
0.0
 10
41.1812444879
 20
41.0910005035
 30
0.0
 10
41.2434114637
 20
41.2397782778
 30
0.0
 10
41.3053549263
 20
41.360770483
 30
0.0
 10
41.3597971618
 20
41.4414858962
 30
0.0
 10
41.4050386455
 20
41.4877751925
 30
0.0
 10
41.4451243665
 20
41.5179848602
 30
0.0
 10
41.4800454027
 20
41.5304410747
 30
0.0
 10
41.5021650022
 20
41.5312273781
 30
0.0
  0
SPLINE
  5
407
100
AcDbEntity
  8
DEFAULT_2
100
AcDbSpline
 62
8
  6
HIDDEN
 70
0
 71
3
 72
22
 73
18
 74
0
 42
0.0000001
 43
0.0000001
 44
0.0000000001
 40
0.0
 40
0.0
 40
0.0
 40
0.0
 40
0.0113716333
 40
0.0235762062
 40
0.0372735961
 40
0.0528745838
 40
0.0905564226
 40
0.1373878684
 40
0.1932557802
 40
0.2573504308
 40
0.3282897657
 40
0.4045814082
 40
0.5667023168
 40
0.7292837466
 40
0.8778540201
 40
0.9429467276
 40
1.0
 40
1.0
 40
1.0
 40
1.0
 10
44.5377045043
 20
38.7189477246
 30
0.0
 10
44.5481437735
 20
38.7189450949
 30
0.0
 10
44.5698925332
 20
38.7220480485
 30
0.0
 10
44.6015820207
 20
38.7357591198
 30
0.0
 10
44.6328098952
 20
38.7579495247
 30
0.0
 10
44.6768916975
 20
38.8010734558
 30
0.0
 10
44.7304461498
 20
38.8764709551
 30
0.0
 10
44.7912635473
 20
38.9902327184
 30
0.0
 10
44.8521243681
 20
39.130887619
 30
0.0
 10
44.9130709138
 20
39.2952416437
 30
0.0
 10
44.9742568777
 20
39.4793677096
 30
0.0
 10
45.0576744087
 20
39.7508429299
 30
0.0
 10
45.1583050905
 20
40.1049627737
 30
0.0
 10
45.27693761
 20
40.5228908732
 30
0.0
 10
45.3792595323
 20
40.8529387533
 30
0.0
 10
45.4643837947
 20
41.0864747439
 30
0.0
 10
45.5080213328
 20
41.1898738991
 30
0.0
 10
45.5304431207
 20
41.2372073113
 30
0.0
  0
SPLINE
  5
408
100
AcDbEntity
  8
DEFAULT_2
100
AcDbSpline
 62
8
  6
HIDDEN
 70
0
 71
3
 72
21
 73
17
 74
0
 42
0.0000001
 43
0.0000001
 44
0.0000000001
 40
0.0
 40
0.0
 40
0.0
 40
0.0
 40
0.0233816554
 40
0.0370003255
 40
0.0524852733
 40
0.0900014557
 40
0.136955002
 40
0.1929072287
 40
0.2569172363
 40
0.3278683012
 40
0.4043110133
 40
0.5665766543
 40
0.7292888095
 40
0.878025265
 40
0.9429732099
 40
1.0
 40
1.0
 40
1.0
 40
1.0
 10
43.2866768017
 20
41.518702048
 30
0.0
 10
43.3081579488
 20
41.5186909973
 30
0.0
 10
43.3423345715
 20
41.5080510562
 30
0.0
 10
43.3818819246
 20
41.4803817869
 30
0.0
 10
43.4262530165
 20
41.4378646782
 30
0.0
 10
43.4799987536
 20
41.3626779013
 30
0.0
 10
43.5406343867
 20
41.248649223
 30
0.0
 10
43.6015864986
 20
41.1077987391
 30
0.0
 10
43.6628001242
 20
40.9433854505
 30
0.0
 10
43.724096495
 20
40.7590606832
 30
0.0
 10
43.8075335096
 20
40.4870668619
 30
0.0
 10
43.9084194297
 20
40.1323172313
 30
0.0
 10
44.0273566242
 20
39.7137099571
 30
0.0
 10
44.1295801528
 20
39.3831982497
 30
0.0
 10
44.2151172413
 20
39.149607894
 30
0.0
 10
44.2588499596
 20
39.0463321964
 30
0.0
 10
44.2812532321
 20
38.9989722208
 30
0.0
  0
SPLINE
  5
409
100
AcDbEntity
  8
DEFAULT_2
100
AcDbSpline
 62
8
  6
HIDDEN
 70
0
 71
3
 72
21
 73
17
 74
0
 42
0.0000001
 43
0.0000001
 44
0.0000000001
 40
0.0
 40
0.0
 40
0.0
 40
0.0
 40
0.0233788515
 40
0.0369837632
 40
0.0524436005
 40
0.0898719462
 40
0.1367283639
 40
0.1926315723
 40
0.256655163
 40
0.3276460116
 40
0.4040536248
 40
0.5662734528
 40
0.7290840158
 40
0.8777832206
 40
0.9428643374
 40
1.0
 40
1.0
 40
1.0
 40
1.0
 10
42.0364291432
 20
38.7191623462
 30
0.0
 10
42.0579034368
 20
38.7191774921
 30
0.0
 10
42.0920580076
 20
38.7297718032
 30
0.0
 10
42.1316148947
 20
38.7573453528
 30
0.0
 10
42.1759701313
 20
38.79969098
 30
0.0
 10
42.2297438071
 20
38.874598133
 30
0.0
 10
42.2903973986
 20
38.9883500394
 30
0.0
 10
42.3513370008
 20
39.1290415942
 30
0.0
 10
42.4125231658
 20
39.2934330907
 30
0.0
 10
42.4737616284
 20
39.4777534842
 30
0.0
 10
42.5572454762
 20
39.7496336097
 30
0.0
 10
42.6581846172
 20
40.1043085042
 30
0.0
 10
42.7769191161
 20
40.5229012798
 30
0.0
 10
42.8793757633
 20
40.8534520245
 30
0.0
 10
42.9647701642
 20
41.0872376156
 30
0.0
 10
43.0084671908
 20
41.1907481202
 30
0.0
 10
43.0308958072
 20
41.2381951968
 30
0.0
  0
SPLINE
  5
40A
100
AcDbEntity
  8
DEFAULT_2
100
AcDbSpline
 62
8
  6
HIDDEN
 70
0
 71
3
 72
21
 73
17
 74
0
 42
0.0000001
 43
0.0000001
 44
0.0000000001
 40
0.0
 40
0.0
 40
0.0
 40
0.0
 40
0.0233589438
 40
0.0369630113
 40
0.0524615275
 40
0.0901027353
 40
0.1370269967
 40
0.1928802175
 40
0.2569316265
 40
0.3279263555
 40
0.4042784383
 40
0.5664281057
 40
0.7291568419
 40
0.8778122433
 40
0.942915592
 40
1.0
 40
1.0
 40
1.0
 40
1.0
 10
40.7869949764
 20
41.5185739053
 30
0.0
 10
40.8084444528
 20
41.5185678057
 30
0.0
 10
40.8425977197
 20
41.5080796212
 30
0.0
 10
40.8821482663
 20
41.480471549
 30
0.0
 10
40.926513707
 20
41.4378195502
 30
0.0
 10
40.979974947
 20
41.362366238
 30
0.0
 10
41.0407117204
 20
41.2484947091
 30
0.0
 10
41.1017095396
 20
41.1078220587
 30
0.0
 10
41.1627722271
 20
40.9434611734
 30
0.0
 10
41.2239580372
 20
40.7592094066
 30
0.0
 10
41.3074254731
 20
40.4875318847
 30
0.0
 10
41.4082517146
 20
40.1331395242
 30
0.0
 10
41.5269058498
 20
39.7148475423
 30
0.0
 10
41.6293276833
 20
39.3844986124
 30
0.0
 10
41.714566566
 20
39.1508087561
 30
0.0
 10
41.7582485674
 20
39.0473553256
 30
0.0
 10
41.780679578
 20
38.9999791326
 30
0.0
  0
SPLINE
  5
40B
100
AcDbEntity
  8
DEFAULT_2
100
AcDbSpline
 62
8
  6
HIDDEN
 70
0
 71
3
 72
21
 73
17
 74
0
 42
0.0000001
 43
0.0000001
 44
0.0000000001
 40
0.0
 40
0.0
 40
0.0
 40
0.0
 40
0.0233738507
 40
0.0369877133
 40
0.0524719709
 40
0.0900141758
 40
0.136937306
 40
0.1928226729
 40
0.2568460221
 40
0.3278365107
 40
0.4042116622
 40
0.566401849
 40
0.7291524643
 40
0.8777928282
 40
0.942890147
 40
1.0
 40
1.0
 40
1.0
 40
1.0
 10
39.536775739
 20
38.7189847833
 30
0.0
 10
39.5582432588
 20
38.7189943085
 30
0.0
 10
39.5924030628
 20
38.7296048961
 30
0.0
 10
39.6319347788
 20
38.7572532067
 30
0.0
 10
39.6762997306
 20
38.799779817
 30
0.0
 10
39.7299374954
 20
38.8750044919
 30
0.0
 10
39.790585463
 20
38.9888986591
 30
0.0
 10
39.8515681799
 20
39.129606302
 30
0.0
 10
39.9127074591
 20
39.293978215
 30
0.0
 10
39.9739069351
 20
39.4782582976
 30
0.0
 10
40.0573897203
 20
39.7500484751
 30
0.0
 10
40.1582517614
 20
40.1045899074
 30
0.0
 10
40.2769389688
 20
40.5230094271
 30
0.0
 10
40.3794084634
 20
40.8534186528
 30
0.0
 10
40.464700921
 20
41.0871467081
 30
0.0
 10
40.5083862195
 20
41.1906419778
 30
0.0
 10
40.5308198059
 20
41.2380545774
 30
0.0
  0
SPLINE
  5
40C
100
AcDbEntity
  8
DEFAULT_2
100
AcDbSpline
 62
8
  6
HIDDEN
 70
0
 71
3
 72
18
 73
14
 74
0
 42
0.0000001
 43
0.0000001
 44
0.0000000001
 40
0.0
 40
0.0
 40
0.0
 40
0.0
 40
0.1823614181
 40
0.3266088342
 40
0.385039776
 40
0.4351563729
 40
0.5162164243
 40
0.5537201271
 40
0.5937564253
 40
0.6393410231
 40
0.6925192455
 40
0.8260773018
 40
1.0
 40
1.0
 40
1.0
 40
1.0
 10
38.4758285406
 20
42.092299888
 30
0.0
 10
38.4894254249
 20
42.1262593033
 30
0.0
 10
38.5157853728
 20
42.1863008875
 30
0.0
 10
38.5545570014
 20
42.2534990823
 30
0.0
 10
38.5868109472
 20
42.2928779555
 30
0.0
 10
38.6147219858
 20
42.3186447486
 30
0.0
 10
38.6470395407
 20
42.3341616951
 30
0.0
 10
38.6793856954
 20
42.3319598004
 30
0.0
 10
38.7026273656
 20
42.3227187368
 30
0.0
 10
38.7253946827
 20
42.3063405093
 30
0.0
 10
38.7578699093
 20
42.2726755336
 30
0.0
 10
38.7969941624
 20
42.211167723
 30
0.0
 10
38.8228372261
 20
42.1551024289
 30
0.0
 10
38.8362317351
 20
42.1228886474
 30
0.0
  0
SPLINE
  5
40D
100
AcDbEntity
  8
DEFAULT_2
100
AcDbSpline
 62
8
  6
HIDDEN
 70
0
 71
3
 72
18
 73
14
 74
0
 42
0.0000001
 43
0.0000001
 44
0.0000000001
 40
0.0
 40
0.0
 40
0.0
 40
0.0
 40
0.1831654464
 40
0.3294473451
 40
0.3890065187
 40
0.4402073593
 40
0.5231924707
 40
0.5609818528
 40
0.6006899943
 40
0.6454880449
 40
0.6976739293
 40
0.8291545454
 40
1.0
 40
1.0
 40
1.0
 40
1.0
 10
37.2054638245
 20
38.4527897817
 30
0.0
 10
37.2208298059
 20
38.41490648
 30
0.0
 10
37.250619674
 20
38.3476155203
 30
0.0
 10
37.2940748073
 20
38.272041044
 30
0.0
 10
37.3302128652
 20
38.2272143309
 30
0.0
 10
37.3616429695
 20
38.1975966287
 30
0.0
 10
37.3975164077
 20
38.1789550099
 30
0.0
 10
37.4339808315
 20
38.1794000218
 30
0.0
 10
37.4601902895
 20
38.1882699536
 30
0.0
 10
37.4858614445
 20
38.2052164577
 30
0.0
 10
37.5224218581
 20
38.2410773242
 30
0.0
 10
37.5661874271
 20
38.3077966737
 30
0.0
 10
37.5952357111
 20
38.3687495101
 30
0.0
 10
37.6103224346
 20
38.403769317
 30
0.0
  0
SPLINE
  5
40E
100
AcDbEntity
  8
DEFAULT_2
100
AcDbSpline
 62
8
  6
HIDDEN
 70
0
 71
3
 72
18
 73
14
 74
0
 42
0.0000001
 43
0.0000001
 44
0.0000000001
 40
0.0
 40
0.0
 40
0.0
 40
0.0
 40
0.1853932211
 40
0.335584716
 40
0.3974403396
 40
0.4508807967
 40
0.5370999886
 40
0.5753615587
 40
0.6146242341
 40
0.6581621779
 40
0.7084532116
 40
0.8349661523
 40
1.0
 40
1.0
 40
1.0
 40
1.0
 10
35.924613003
 20
41.4619301667
 30
0.0
 10
35.9423925735
 20
41.505395676
 30
0.0
 10
35.9769117515
 20
41.5831506109
 30
0.0
 10
36.0267297349
 20
41.6710219114
 30
0.0
 10
36.0679945005
 20
41.7243963157
 30
0.0
 10
36.1039535083
 20
41.7605045644
 30
0.0
 10
36.1445117311
 20
41.7846306631
 30
0.0
 10
36.186600535
 20
41.7875327676
 30
0.0
 10
36.216766723
 20
41.7798983535
 30
0.0
 10
36.2463239241
 20
41.7630354979
 30
0.0
 10
36.2883152668
 20
41.725837641
 30
0.0
 10
36.3385935969
 20
41.6542790562
 30
0.0
 10
36.3717364432
 20
41.5882247945
 30
0.0
 10
36.3889793887
 20
41.5501424255
 30
0.0
  0
SPLINE
  5
40F
100
AcDbEntity
  8
DEFAULT_2
100
AcDbSpline
 62
8
  6
HIDDEN
 70
0
 71
3
 72
18
 73
14
 74
0
 42
0.0000001
 43
0.0000001
 44
0.0000000001
 40
0.0
 40
0.0
 40
0.0
 40
0.0
 40
0.1921656642
 40
0.3513529182
 40
0.4753886531
 40
0.5248824731
 40
0.5676977018
 40
0.6064713261
 40
0.6445852636
 40
0.6854847346
 40
0.7319126082
 40
0.847729734
 40
1.0
 40
1.0
 40
1.0
 40
1.0
 10
34.6135386518
 20
39.152530684
 30
0.0
 10
34.6353925178
 20
39.0977964214
 30
0.0
 10
34.6777444389
 20
38.9985556374
 30
0.0
 10
34.7461334035
 20
38.869724022
 30
0.0
 10
34.8066185283
 20
38.7863174929
 30
0.0
 10
34.8572235733
 20
38.7428501952
 30
0.0
 10
34.8929882596
 20
38.7236088004
 30
0.0
 10
34.9294231852
 20
38.7156981313
 30
0.0
 10
34.9659345975
 20
38.7196101591
 30
0.0
 10
35.0017529454
 20
38.7348414645
 30
0.0
 10
35.0522437459
 20
38.7720301089
 30
0.0
 10
35.1131154945
 20
38.8484519855
 30
0.0
 10
35.1525860165
 20
38.9206989302
 30
0.0
 10
35.1730610986
 20
38.9626712877
 30
0.0
  0
SPLINE
  5
410
100
AcDbEntity
  8
DEFAULT_2
100
AcDbSpline
 62
8
  6
HIDDEN
 70
0
 71
3
 72
15
 73
11
 74
0
 42
0.0000001
 43
0.0000001
 44
0.0000000001
 40
0.0
 40
0.0
 40
0.0
 40
0.0
 40
0.0935179912
 40
0.2047244646
 40
0.3335570366
 40
0.4745222109
 40
0.6198753883
 40
0.7610297117
 40
0.8897290097
 40
1.0
 40
1.0
 40
1.0
 40
1.0
 10
34.3103430027
 20
40.6520487695
 30
0.0
 10
34.3521924684
 20
40.6404297105
 30
0.0
 10
34.4377536695
 20
40.5939485347
 30
0.0
 10
34.5508235932
 20
40.4871514413
 30
0.0
 10
34.661779032
 20
40.3488776386
 30
0.0
 10
34.7715172661
 20
40.1902981248
 30
0.0
 10
34.8802283206
 20
40.0241843356
 30
0.0
 10
34.9878926891
 20
39.8641546915
 30
0.0
 10
35.0944223701
 20
39.7232357126
 30
0.0
 10
35.1722863539
 20
39.6432100668
 30
0.0
 10
35.211965528
 20
39.6108319765
 30
0.0
  0
SPLINE
  5
411
100
AcDbEntity
  8
DEFAULT_2
100
AcDbSpline
 62
8
  6
HIDDEN
 70
0
 71
3
 72
19
 73
15
 74
0
 42
0.0000001
 43
0.0000001
 44
0.0000000001
 40
0.0
 40
0.0
 40
0.0
 40
0.0
 40
0.0385496393
 40
0.0857882449
 40
0.1410678092
 40
0.2034360037
 40
0.3442255035
 40
0.4973678046
 40
0.6509329994
 40
0.792760018
 40
0.8558966415
 40
0.9121553862
 40
0.9604071112
 40
1.0
 40
1.0
 40
1.0
 40
1.0
 10
41.3039218169
 20
42.2637899671
 30
0.0
 10
41.325316636
 20
42.2118304894
 30
0.0
 10
41.3661793528
 20
42.0934561139
 30
0.0
 10
41.4216523659
 20
41.8954096508
 30
0.0
 10
41.4773302037
 20
41.6615475516
 30
0.0
 10
41.5548864824
 20
41.2928832821
 30
0.0
 10
41.6485543194
 20
40.7819761267
 30
0.0
 10
41.7575195269
 20
40.1388540065
 30
0.0
 10
41.8663960249
 20
39.4941829655
 30
0.0
 10
41.9600361168
 20
38.9799729075
 30
0.0
 10
42.0375467601
 20
38.6071541212
 30
0.0
 10
42.0931595161
 20
38.3691476275
 30
0.0
 10
42.1486712877
 20
38.1665191203
 30
0.0
 10
42.1894992826
 20
38.0449860635
 30
0.0
 10
42.2107949043
 20
37.9913461934
 30
0.0
  0
LINE
  5
412
100
AcDbEntity
  8
DEFAULT_2
100
AcDbLine
 62
8
  6
HIDDEN
 10
39.2368065924
 20
40.3202088115
 11
39.2801292981
 21
40.0048574333
  0
SPLINE
  5
413
100
AcDbEntity
  8
DEFAULT_2
100
AcDbSpline
 62
8
  6
HIDDEN
 70
0
 71
3
 72
9
 73
5
 74
0
 42
0.0000001
 43
0.0000001
 44
0.0000000001
 40
0.0
 40
0.0
 40
0.0
 40
0.0
 40
0.2202548162
 40
1.0
 40
1.0
 40
1.0
 40
1.0
 10
35.3730249217
 20
39.5064465956
 30
0.0
 10
35.3591393951
 20
39.5095249427
 30
0.0
 10
35.2975026063
 20
39.5302847308
 30
0.0
 10
35.2463279697
 20
39.5740291763
 30
0.0
 10
35.211965528
 20
39.6108319765
 30
0.0
  0
SPLINE
  5
414
100
AcDbEntity
  8
DEFAULT_2
100
AcDbSpline
 62
8
  6
HIDDEN
 70
0
 71
3
 72
11
 73
7
 74
0
 42
0.0000001
 43
0.0000001
 44
0.0000000001
 40
0.0
 40
0.0
 40
0.0
 40
0.0
 40
0.1885085308
 40
0.4068967787
 40
0.6746256845
 40
1.0
 40
1.0
 40
1.0
 40
1.0
 10
52.752423902
 20
38.7062730701
 30
0.0
 10
52.7689229397
 20
38.7056835529
 30
0.0
 10
52.8050994189
 20
38.7131518084
 30
0.0
 10
52.8548279266
 20
38.7466659928
 30
0.0
 10
52.9032045449
 20
38.799221515
 30
0.0
 10
52.9323369881
 20
38.8424100326
 30
0.0
 10
52.9471914873
 20
38.8667283569
 30
0.0
  0
SPLINE
  5
415
100
AcDbEntity
  8
DEFAULT_2
100
AcDbSpline
 62
8
  6
HIDDEN
 70
0
 71
3
 72
13
 73
9
 74
0
 42
0.0000001
 43
0.0000001
 44
0.0000000001
 40
0.0
 40
0.0
 40
0.0
 40
0.0
 40
0.0850960305
 40
0.1752456434
 40
0.2753450425
 40
0.3886196942
 40
0.6611719152
 40
1.0
 40
1.0
 40
1.0
 40
1.0
 10
47.7522491371
 20
38.7062906572
 30
0.0
 10
47.7621563334
 20
38.7059378276
 30
0.0
 10
47.7827569109
 20
38.7079956107
 30
0.0
 10
47.8130413105
 20
38.7194239073
 30
0.0
 10
47.8429033619
 20
38.7387435307
 30
0.0
 10
47.8849711995
 20
38.7768913854
 30
0.0
 10
47.9361877703
 20
38.844736698
 30
0.0
 10
47.9711067392
 20
38.9069153921
 30
0.0
 10
47.9890579221
 20
38.942069963
 30
0.0
  0
SPLINE
  5
416
100
AcDbEntity
  8
DEFAULT_2
100
AcDbSpline
 62
8
  6
HIDDEN
 70
0
 71
3
 72
11
 73
7
 74
0
 42
0.0000001
 43
0.0000001
 44
0.0000000001
 40
0.0
 40
0.0
 40
0.0
 40
0.0
 40
0.1746464914
 40
0.3875852382
 40
0.6601516511
 40
1.0
 40
1.0
 40
1.0
 40
1.0
 10
45.2515775001
 20
38.7062479184
 30
0.0
 10
45.2718714651
 20
38.7055444116
 30
0.0
 10
45.3175478714
 20
38.7178239819
 30
0.0
 10
45.3775299611
 20
38.7676058327
 30
0.0
 10
45.4360239472
 20
38.8441849133
 30
0.0
 10
45.470963225
 20
38.9064415504
 30
0.0
 10
45.4889129582
 20
38.9416435059
 30
0.0
  0
SPLINE
  5
417
100
AcDbEntity
  8
DEFAULT_2
100
AcDbSpline
 62
8
  6
HIDDEN
 70
0
 71
3
 72
13
 73
9
 74
0
 42
0.0000001
 43
0.0000001
 44
0.0000000001
 40
0.0
 40
0.0
 40
0.0
 40
0.0
 40
0.3069466244
 40
0.5882343037
 40
0.7130357105
 40
0.8244927892
 40
0.9206448469
 40
1.0
 40
1.0
 40
1.0
 40
1.0
 10
39.2801292981
 20
40.0048574333
 30
0.0
 10
39.3153426508
 20
39.7969567924
 30
0.0
 10
39.3832315019
 20
39.3986090731
 30
0.0
 10
39.4723257552
 20
38.9168870691
 30
0.0
 10
39.5461133287
 20
38.5690700117
 30
0.0
 10
39.5990120409
 20
38.3468855793
 30
0.0
 10
39.6516611206
 20
38.1568689046
 30
0.0
 10
39.6903798151
 20
38.0425372872
 30
0.0
 10
39.7104950428
 20
37.991869939
 30
0.0
  0
SPLINE
  5
418
100
AcDbEntity
  8
DEFAULT_2
100
AcDbSpline
 62
8
  6
HIDDEN
 70
0
 71
3
 72
17
 73
13
 74
0
 42
0.0000001
 43
0.0000001
 44
0.0000000001
 40
0.0
 40
0.0
 40
0.0
 40
0.0
 40
0.0268730937
 40
0.0544943973
 40
0.0851939085
 40
0.1206642104
 40
0.2096629336
 40
0.3251177343
 40
0.4656558683
 40
0.6283900445
 40
0.8084547738
 40
1.0
 40
1.0
 40
1.0
 40
1.0
 10
38.2872375974
 20
41.3773309744
 30
0.0
 10
38.2998135719
 20
41.3801206896
 30
0.0
 10
38.3263904751
 20
41.3819397376
 30
0.0
 10
38.3664912978
 20
41.3715242173
 30
0.0
 10
38.4057679128
 20
41.3487962567
 30
0.0
 10
38.4615486248
 20
41.2990466543
 30
0.0
 10
38.5283918172
 20
41.2040927185
 30
0.0
 10
38.6030700189
 20
41.0564192676
 30
0.0
 10
38.6784210849
 20
40.87015785
 30
0.0
 10
38.7538047312
 20
40.6510322607
 30
0.0
 10
38.829453999
 20
40.4062888956
 30
0.0
 10
38.8790266143
 20
40.235190441
 30
0.0
 10
38.9042408329
 20
40.1469027159
 30
0.0
  0
SPLINE
  5
419
100
AcDbEntity
  8
DEFAULT_2
100
AcDbSpline
 62
8
  6
HIDDEN
 70
0
 71
3
 72
11
 73
7
 74
0
 42
0.0000001
 43
0.0000001
 44
0.0000000001
 40
0.0
 40
0.0
 40
0.0
 40
0.0
 40
0.1744821376
 40
0.3863588968
 40
0.6591343052
 40
1.0
 40
1.0
 40
1.0
 40
1.0
 10
42.7515212587
 20
38.7068696563
 30
0.0
 10
42.7717557779
 20
38.7061603053
 30
0.0
 10
42.8172662689
 20
38.71779391
 30
0.0
 10
42.8775671003
 20
38.7669221647
 30
0.0
 10
42.9357974389
 20
38.8435262031
 30
0.0
 10
42.9706217975
 20
38.9058315018
 30
0.0
 10
42.9885898343
 20
38.9410689735
 30
0.0
  0
SPLINE
  5
41A
100
AcDbEntity
  8
DEFAULT_2
100
AcDbSpline
 62
8
  6
HIDDEN
 70
0
 71
3
 72
19
 73
15
 74
0
 42
0.0000001
 43
0.0000001
 44
0.0000000001
 40
0.0
 40
0.0
 40
0.0
 40
0.0
 40
0.0385120333
 40
0.0857235422
 40
0.1410500146
 40
0.2034360974
 40
0.3442291561
 40
0.4973994911
 40
0.6509885971
 40
0.7928636583
 40
0.8559743833
 40
0.9121623371
 40
0.9603893839
 40
1.0
 40
1.0
 40
1.0
 40
1.0
 10
48.8040126763
 20
42.2631601708
 30
0.0
 10
48.8253938922
 20
42.2112551086
 30
0.0
 10
48.8662953695
 20
42.0929969922
 30
0.0
 10
48.9218004871
 20
41.8949860124
 30
0.0
 10
48.9774123487
 20
41.6610548115
 30
0.0
 10
49.054998607
 20
41.2923005279
 30
0.0
 10
49.1486906792
 20
40.7813302735
 30
0.0
 10
49.2576479511
 20
40.1381328191
 30
0.0
 10
49.3665621098
 20
39.4933285699
 30
0.0
 10
49.460161335
 20
38.9790491904
 30
0.0
 10
49.5376795263
 20
38.6063083372
 30
0.0
 10
49.593349197
 20
38.3684993345
 30
0.0
 10
49.6488782402
 20
38.1659975028
 30
0.0
 10
49.6896750523
 20
38.0444666256
 30
0.0
 10
49.7109748148
 20
37.9908013494
 30
0.0
  0
SPLINE
  5
41B
100
AcDbEntity
  8
DEFAULT_2
100
AcDbSpline
 62
8
  6
HIDDEN
 70
0
 71
3
 72
11
 73
7
 74
0
 42
0.0000001
 43
0.0000001
 44
0.0000000001
 40
0.0
 40
0.0
 40
0.0
 40
0.0
 40
0.1743296097
 40
0.3864621846
 40
0.6595975858
 40
1.0
 40
1.0
 40
1.0
 40
1.0
 10
40.2517209887
 20
38.7065366565
 30
0.0
 10
40.2719455662
 20
38.705824368
 30
0.0
 10
40.3174947482
 20
38.7175267389
 30
0.0
 10
40.3776678064
 20
38.7669584213
 30
0.0
 10
40.4357683052
 20
38.8437003732
 30
0.0
 10
40.4706522442
 20
38.9059882387
 30
0.0
 10
40.4886157512
 20
38.9411849153
 30
0.0
  0
SPLINE
  5
41C
100
AcDbEntity
  8
DEFAULT_2
100
AcDbSpline
 62
8
  6
HIDDEN
 70
0
 71
3
 72
13
 73
9
 74
0
 42
0.0000001
 43
0.0000001
 44
0.0000000001
 40
0.0
 40
0.0
 40
0.0
 40
0.0
 40
0.3438173503
 40
0.6193307585
 40
0.7323137732
 40
0.8308787772
 40
0.9184707881
 40
1.0
 40
1.0
 40
1.0
 40
1.0
 10
48.030678785
 20
41.2374175702
 30
0.0
 10
48.0501707007
 20
41.2785831665
 30
0.0
 10
48.0879332454
 20
41.3514949378
 30
0.0
 10
48.1431539359
 20
41.4320122162
 30
0.0
 10
48.1888973573
 20
41.4778070831
 30
0.0
 10
48.2212653556
 20
41.5010674372
 30
0.0
 10
48.2540656122
 20
41.5153687036
 30
0.0
 10
48.2765737928
 20
41.5186561522
 30
0.0
 10
48.2873743579
 20
41.5186560499
 30
0.0
  0
SPLINE
  5
41D
100
AcDbEntity
  8
DEFAULT_2
100
AcDbSpline
 62
8
  6
HIDDEN
 70
0
 71
3
 72
13
 73
9
 74
0
 42
0.0000001
 43
0.0000001
 44
0.0000000001
 40
0.0
 40
0.0
 40
0.0
 40
0.0
 40
0.3434613347
 40
0.6183754647
 40
0.7316117712
 40
0.8306208572
 40
0.9184518473
 40
1.0
 40
1.0
 40
1.0
 40
1.0
 10
43.0308958072
 20
41.2381951968
 30
0.0
 10
43.0502710869
 20
41.2791830299
 30
0.0
 10
43.0878754123
 20
41.35172302
 30
0.0
 10
43.1430933089
 20
41.4316835364
 30
0.0
 10
43.1885942982
 20
41.4773893415
 30
0.0
 10
43.2207730712
 20
41.5008602182
 30
0.0
 10
43.2534404492
 20
41.5154056814
 30
0.0
 10
43.2759125261
 20
41.5187075856
 30
0.0
 10
43.2866768017
 20
41.518702048
 30
0.0
  0
SPLINE
  5
41E
100
AcDbEntity
  8
DEFAULT_2
100
AcDbSpline
 62
8
  6
HIDDEN
 70
0
 71
3
 72
10
 73
6
 74
0
 42
0.0000001
 43
0.0000001
 44
0.0000000001
 40
0.0
 40
0.0
 40
0.0
 40
0.0
 40
0.5514877624
 40
0.7924372215
 40
1.0
 40
1.0
 40
1.0
 40
1.0
 10
39.5680148225
 20
40.3354749711
 30
0.0
 10
39.5155711358
 20
40.5043589591
 30
0.0
 10
39.4386408735
 20
40.7466791399
 30
0.0
 10
39.3256151084
 20
41.0468223914
 30
0.0
 10
39.267206127
 20
41.1784528138
 30
0.0
 10
39.2369637738
 20
41.2377419965
 30
0.0
  0
SPLINE
  5
41F
100
AcDbEntity
  8
DEFAULT_2
100
AcDbSpline
 62
8
  6
HIDDEN
 70
0
 71
3
 72
13
 73
9
 74
0
 42
0.0000001
 43
0.0000001
 44
0.0000000001
 40
0.0
 40
0.0
 40
0.0
 40
0.0
 40
0.3435991381
 40
0.6188013786
 40
0.7319925707
 40
0.8307800807
 40
0.918438647
 40
1.0
 40
1.0
 40
1.0
 40
1.0
 10
40.5308198059
 20
41.2380545774
 30
0.0
 10
40.5502397224
 20
41.2790978912
 30
0.0
 10
40.5879187985
 20
41.3517601938
 30
0.0
 10
40.6431563839
 20
41.4319049627
 30
0.0
 10
40.6887276355
 20
41.4776533611
 30
0.0
 10
40.720991217
 20
41.5010069635
 30
0.0
 10
40.7537489361
 20
41.5153109257
 30
0.0
 10
40.7762168399
 20
41.5185769704
 30
0.0
 10
40.7869949764
 20
41.5185739053
 30
0.0
  0
SPLINE
  5
420
100
AcDbEntity
  8
DEFAULT_2
100
AcDbSpline
 62
8
  6
HIDDEN
 70
0
 71
3
 72
13
 73
9
 74
0
 42
0.0000001
 43
0.0000001
 44
0.0000000001
 40
0.0
 40
0.0
 40
0.0
 40
0.0
 40
0.2632994286
 40
0.3950864572
 40
0.52200478
 40
0.6433185948
 40
0.7610029725
 40
1.0
 40
1.0
 40
1.0
 40
1.0
 10
34.1927240854
 20
39.8916735317
 30
0.0
 10
34.1229336012
 20
39.9485554455
 30
0.0
 10
34.0211049822
 20
40.0374277247
 30
0.0
 10
33.8786164953
 20
40.1451876522
 30
0.0
 10
33.7676089502
 20
40.2133091752
 30
0.0
 10
33.6522340991
 20
40.2632390538
 30
0.0
 10
33.4915759803
 20
40.2988619271
 30
0.0
 10
33.3670274875
 20
40.2865424136
 30
0.0
 10
33.2872400601
 20
40.2688539668
 30
0.0
  0
SPLINE
  5
421
100
AcDbEntity
  8
DEFAULT_2
100
AcDbSpline
 62
8
  6
HIDDEN
 70
0
 71
3
 72
11
 73
7
 74
0
 42
0.0000001
 43
0.0000001
 44
0.0000000001
 40
0.0
 40
0.0
 40
0.0
 40
0.0
 40
0.1741108518
 40
0.3869736502
 40
0.6602903227
 40
1.0
 40
1.0
 40
1.0
 40
1.0
 10
50.252191361
 20
38.7063803402
 30
0.0
 10
50.272415098
 20
38.7056609633
 30
0.0
 10
50.318109167
 20
38.7175241806
 30
0.0
 10
50.377927987
 20
38.7676678609
 30
0.0
 10
50.4360690389
 20
38.8444802135
 30
0.0
 10
50.4709877347
 20
38.9067994879
 30
0.0
 10
50.4889464763
 20
38.9419626473
 30
0.0
  0
SPLINE
  5
422
100
AcDbEntity
  8
DEFAULT_2
100
AcDbSpline
 62
8
  6
HIDDEN
 70
0
 71
3
 72
19
 73
15
 74
0
 42
0.0000001
 43
0.0000001
 44
0.0000000001
 40
0.0
 40
0.0
 40
0.0
 40
0.0
 40
0.0385836014
 40
0.0858756753
 40
0.1411397938
 40
0.2034863344
 40
0.3443252679
 40
0.4975003407
 40
0.6510468127
 40
0.7929090221
 40
0.8560035705
 40
0.9121372582
 40
0.9603713806
 40
1.0
 40
1.0
 40
1.0
 40
1.0
 10
46.3040007293
 20
42.2637652481
 30
0.0
 10
46.3254225947
 20
42.21175058
 30
0.0
 10
46.366272049
 20
42.0932062054
 30
0.0
 10
46.4217101892
 20
41.8949988569
 30
0.0
 10
46.4774508691
 20
41.661075653
 30
0.0
 10
46.5550541108
 20
41.292321233
 30
0.0
 10
46.648693686
 20
40.7812076928
 30
0.0
 10
46.7576724784
 20
40.1378552442
 30
0.0
 10
46.8666292268
 20
39.4929854816
 30
0.0
 10
46.9602301343
 20
38.9786952282
 30
0.0
 10
47.0377252705
 20
38.605986316
 30
0.0
 10
47.0934683121
 20
38.3682335093
 30
0.0
 10
47.148980239
 20
38.1657247865
 30
0.0
 10
47.1897580725
 20
38.0441179063
 30
0.0
 10
47.2110708647
 20
37.9904157474
 30
0.0
  0
SPLINE
  5
423
100
AcDbEntity
  8
DEFAULT_2
100
AcDbSpline
 62
8
  6
HIDDEN
 70
0
 71
3
 72
12
 73
8
 74
0
 42
0.0000001
 43
0.0000001
 44
0.0000000001
 40
0.0
 40
0.0
 40
0.0
 40
0.0
 40
0.0788320908
 40
0.1736565049
 40
0.4067690311
 40
0.6877991562
 40
1.0
 40
1.0
 40
1.0
 40
1.0
 10
38.8362317351
 20
42.1228886474
 30
0.0
 10
38.8548873105
 20
42.0780220061
 30
0.0
 10
38.890838064
 20
41.9770638264
 30
0.0
 10
38.9613368898
 20
41.7363935887
 30
0.0
 10
39.0454563552
 20
41.3703230365
 30
0.0
 10
39.1417815854
 20
40.8701705642
 30
0.0
 10
39.2044420964
 20
40.5099023275
 30
0.0
 10
39.2368065924
 20
40.3202088115
 30
0.0
  0
SPLINE
  5
424
100
AcDbEntity
  8
DEFAULT_2
100
AcDbSpline
 62
8
  6
HIDDEN
 70
0
 71
3
 72
13
 73
9
 74
0
 42
0.0000001
 43
0.0000001
 44
0.0000000001
 40
0.0
 40
0.0
 40
0.0
 40
0.0
 40
0.3430675058
 40
0.6179756091
 40
0.7313138726
 40
0.830459267
 40
0.9184169128
 40
1.0
 40
1.0
 40
1.0
 40
1.0
 10
50.5304838464
 20
41.2373162307
 30
0.0
 10
50.5499262794
 20
41.2783745472
 30
0.0
 10
50.5876882611
 20
41.3510672943
 30
0.0
 10
50.6430771561
 20
41.4312294806
 30
0.0
 10
50.6887102744
 20
41.4771354796
 30
0.0
 10
50.7209912055
 20
41.5007578953
 30
0.0
 10
50.7537435057
 20
41.5154786647
 30
0.0
 10
50.7763056018
 20
41.518865758
 30
0.0
 10
50.7871088329
 20
41.5188635508
 30
0.0
  0
SPLINE
  5
425
100
AcDbEntity
  8
DEFAULT_2
100
AcDbSpline
 62
8
  6
HIDDEN
 70
0
 71
3
 72
11
 73
7
 74
0
 42
0.0000001
 43
0.0000001
 44
0.0000000001
 40
0.0
 40
0.0
 40
0.0
 40
0.0
 40
0.3431368204
 40
0.4900042939
 40
0.6206700509
 40
1.0
 40
1.0
 40
1.0
 40
1.0
 10
45.5304431207
 20
41.2372073113
 30
0.0
 10
45.5493404207
 20
41.2771003698
 30
0.0
 10
45.5782664804
 20
41.3331344649
 30
0.0
 10
45.6220093553
 20
41.4003946332
 30
0.0
 10
45.6727934961
 20
41.4664197895
 30
0.0
 10
45.7304094347
 20
41.5150483498
 30
0.0
 10
45.7790815183
 20
41.5185596686
 30
0.0
  0
SPLINE
  5
426
100
AcDbEntity
  8
DEFAULT_2
100
AcDbSpline
 62
8
  6
HIDDEN
 70
0
 71
3
 72
18
 73
14
 74
0
 42
0.0000001
 43
0.0000001
 44
0.0000000001
 40
0.0
 40
0.0
 40
0.0
 40
0.0
 40
0.0341789272
 40
0.0688637504
 40
0.1065461364
 40
0.1492684955
 40
0.1981990597
 40
0.2537661857
 40
0.3839367406
 40
0.5343459411
 40
0.695248467
 40
0.8546513646
 40
1.0
 40
1.0
 40
1.0
 40
1.0
 10
35.7872404586
 20
40.8230897207
 30
0.0
 10
35.8068241037
 20
40.8274104681
 30
0.0
 10
35.8476781899
 20
40.8310020849
 30
0.0
 10
35.9097301242
 20
40.8186173302
 30
0.0
 10
35.9709609625
 20
40.7886956702
 30
0.0
 10
36.0311349083
 20
40.7418200803
 30
0.0
 10
36.0908113289
 20
40.6790592579
 30
0.0
 10
36.1745230115
 20
40.5694986577
 30
0.0
 10
36.2752253643
 20
40.3993191093
 30
0.0
 10
36.39070295
 20
40.1674261613
 30
0.0
 10
36.506152177
 20
39.9164816489
 30
0.0
 10
36.6212821478
 20
39.6687418488
 30
0.0
 10
36.7033174674
 20
39.5096227711
 30
0.0
 10
36.74649319
 20
39.4360754941
 30
0.0
  0
SPLINE
  5
427
100
AcDbEntity
  8
DEFAULT_2
100
AcDbSpline
 62
8
  6
HIDDEN
 70
0
 71
3
 72
19
 73
15
 74
0
 42
0.0000001
 43
0.0000001
 44
0.0000000001
 40
0.0
 40
0.0
 40
0.0
 40
0.0
 40
0.0386029636
 40
0.0859570482
 40
0.1412160005
 40
0.20345739
 40
0.3442920895
 40
0.49734117
 40
0.6507902254
 40
0.7926705819
 40
0.8556875081
 40
0.9119061312
 40
0.9603201355
 40
1.0
 40
1.0
 40
1.0
 40
1.0
 10
43.8042689754
 20
42.2631561363
 30
0.0
 10
43.8257018486
 20
42.2111489219
 30
0.0
 10
43.8664872676
 20
42.0925258478
 30
0.0
 10
43.9218108062
 20
41.8942915116
 30
0.0
 10
43.9774849271
 20
41.6605618018
 30
0.0
 10
44.0551652078
 20
41.2922056423
 30
0.0
 10
44.1485136725
 20
40.7816753028
 30
0.0
 10
44.2574748647
 20
40.1390214385
 30
0.0
 10
44.3663794857
 20
39.4948119183
 30
0.0
 10
44.4597038732
 20
38.9809933545
 30
0.0
 10
44.5373005405
 20
38.6084813082
 30
0.0
 10
44.5929767891
 20
38.3705729628
 30
0.0
 10
44.6482949534
 20
38.1676567964
 30
0.0
 10
44.689032523
 20
38.0457483066
 30
0.0
 10
44.7103797918
 20
37.992013655
 30
0.0
  0
SPLINE
  5
428
100
AcDbEntity
  8
DEFAULT_2
100
AcDbSpline
 62
8
  6
HIDDEN
 70
0
 71
3
 72
17
 73
13
 74
0
 42
0.0000001
 43
0.0000001
 44
0.0000000001
 40
0.0
 40
0.0
 40
0.0
 40
0.0
 40
0.0422959966
 40
0.0915221748
 40
0.2081578542
 40
0.3436628583
 40
0.4899028375
 40
0.6378000588
 40
0.7779144992
 40
0.9012531998
 40
0.9541269196
 40
1.0
 40
1.0
 40
1.0
 40
1.0
 10
36.3889793887
 20
41.5501424255
 30
0.0
 10
36.4076269896
 20
41.5089577674
 30
0.0
 10
36.4440362769
 20
41.4180562631
 30
0.0
 10
36.5153129623
 20
41.2072244444
 30
0.0
 10
36.6010297141
 20
40.896502806
 30
0.0
 10
36.6996513167
 20
40.4822488684
 30
0.0
 10
36.7985243943
 20
40.0337677473
 30
0.0
 10
36.8972784079
 20
39.5802255519
 30
0.0
 10
36.9956717635
 20
39.1516907599
 30
0.0
 10
37.0805632449
 20
38.8242545605
 30
0.0
 10
37.1510267383
 20
38.5975237065
 30
0.0
 10
37.1870337118
 20
38.498227395
 30
0.0
 10
37.2054638245
 20
38.4527897817
 30
0.0
  0
SPLINE
  5
429
100
AcDbEntity
  8
DEFAULT_2
100
AcDbSpline
 62
8
  6
HIDDEN
 70
0
 71
3
 72
19
 73
15
 74
0
 42
0.0000001
 43
0.0000001
 44
0.0000000001
 40
0.0
 40
0.0
 40
0.0
 40
0.0
 40
0.0617559556
 40
0.1029948282
 40
0.1520561079
 40
0.2086691616
 40
0.2722549472
 40
0.4163984145
 40
0.4942931085
 40
0.5741075913
 40
0.7326950812
 40
0.8786893599
 40
0.9430523211
 40
1.0
 40
1.0
 40
1.0
 40
1.0
 10
37.7248944365
 20
38.9850799126
 30
0.0
 10
37.6829943496
 20
38.9944521647
 30
0.0
 10
37.6217278125
 20
39.0404668318
 30
0.0
 10
37.5553483642
 20
39.1217924825
 30
0.0
 10
37.4999314488
 20
39.2081197204
 30
0.0
 10
37.4441655643
 20
39.3117190275
 30
0.0
 10
37.3656239648
 20
39.4779799189
 30
0.0
 10
37.2906550937
 20
39.6619508987
 30
0.0
 10
37.2149038165
 20
39.8576536704
 30
0.0
 10
37.1367394231
 20
40.0632039746
 30
0.0
 10
37.040631871
 20
40.3125435162
 30
0.0
 10
36.9392411863
 20
40.5484352575
 30
0.0
 10
36.8534075544
 20
40.7133646139
 30
0.0
 10
36.8089566982
 20
40.7852192261
 30
0.0
 10
36.7861540535
 20
40.8175860368
 30
0.0
  0
SPLINE
  5
42A
100
AcDbEntity
  8
DEFAULT_2
100
AcDbSpline
 62
8
  6
HIDDEN
 70
0
 71
3
 72
19
 73
15
 74
0
 42
0.0000001
 43
0.0000001
 44
0.0000000001
 40
0.0
 40
0.0
 40
0.0
 40
0.0
 40
0.0385998383
 40
0.0859221698
 40
0.1411413506
 40
0.2033560651
 40
0.344170622
 40
0.4972163852
 40
0.650670404
 40
0.7926271497
 40
0.8556756079
 40
0.9118930822
 40
0.9603031596
 40
1.0
 40
1.0
 40
1.0
 40
1.0
 10
51.3040368649
 20
42.2637096474
 30
0.0
 10
51.3254618695
 20
42.2116963312
 30
0.0
 10
51.3662554549
 20
42.0931145737
 30
0.0
 10
51.4216044132
 20
41.8949723883
 30
0.0
 10
51.4773011844
 20
41.6613635895
 30
0.0
 10
51.5550014958
 20
41.2930910678
 30
0.0
 10
51.6483653693
 20
40.7825701263
 30
0.0
 10
51.757343528
 20
40.1398618727
 30
0.0
 10
51.8663077847
 20
39.4954624286
 30
0.0
 10
51.9596207706
 20
38.9814069738
 30
0.0
 10
52.037217606
 20
38.6086862714
 30
0.0
 10
52.092916723
 20
38.3707106912
 30
0.0
 10
52.1482748508
 20
38.167760805
 30
0.0
 10
52.1889929576
 20
38.0458081827
 30
0.0
 10
52.2103516894
 20
37.9920435023
 30
0.0
  0
SPLINE
  5
42B
100
AcDbEntity
  8
DEFAULT_2
100
AcDbSpline
 62
8
  6
HIDDEN
 70
0
 71
3
 72
14
 73
10
 74
0
 42
0.0000001
 43
0.0000001
 44
0.0000000001
 40
0.0
 40
0.0
 40
0.0
 40
0.0
 40
0.0996047779
 40
0.2157878171
 40
0.3445705821
 40
0.4810421145
 40
0.7562276305
 40
0.8843940163
 40
1.0
 40
1.0
 40
1.0
 40
1.0
 10
33.9673384455
 20
41.0281304716
 30
0.0
 10
33.9975757509
 20
40.9695598831
 30
0.0
 10
34.0555143145
 20
40.8388007778
 30
0.0
 10
34.1351539642
 20
40.6250911236
 30
0.0
 10
34.2146076652
 20
40.385455262
 30
0.0
 10
34.3207240386
 20
40.0439164705
 30
0.0
 10
34.4230354329
 20
39.7016139848
 30
0.0
 10
34.5299491307
 20
39.3752297212
 30
0.0
 10
34.5851702806
 20
39.223580899
 30
0.0
 10
34.6135386518
 20
39.152530684
 30
0.0
  0
SPLINE
  5
42C
100
AcDbEntity
  8
DEFAULT_2
100
AcDbSpline
 62
8
  6
HIDDEN
 70
0
 71
3
 72
11
 73
7
 74
0
 42
0.0000001
 43
0.0000001
 44
0.0000000001
 40
0.0
 40
0.0
 40
0.0
 40
0.0
 40
0.2500126786
 40
0.5000007917
 40
0.7499880028
 40
1.0
 40
1.0
 40
1.0
 40
1.0
 10
75.1666168487
 20
35.9641534284
 30
0.0
 10
75.1124661164
 20
36.1517370676
 30
0.0
 10
75.0220744473
 20
36.5326911438
 30
0.0
 10
74.9709394078
 20
37.1188551265
 30
0.0
 10
75.022075646
 20
37.7050183437
 30
0.0
 10
75.112466264
 20
38.0859713773
 30
0.0
 10
75.1666168487
 20
38.2735545052
 30
0.0
  0
SPLINE
  5
42D
100
AcDbEntity
  8
DEFAULT_2
100
AcDbSpline
 62
8
  6
HIDDEN
 70
0
 71
3
 72
11
 73
7
 74
0
 42
0.0000001
 43
0.0000001
 44
0.0000000001
 40
0.0
 40
0.0
 40
0.0
 40
0.0
 40
0.2574278162
 40
0.5000007908
 40
0.7425729806
 40
1.0
 40
1.0
 40
1.0
 40
1.0
 10
75.1666168487
 20
38.2735545052
 30
0.0
 10
75.1142992602
 20
38.3641712266
 30
0.0
 10
75.02488136
 20
38.5484511713
 30
0.0
 10
74.9700832344
 20
38.8509054387
 30
0.0
 10
75.0248825095
 20
39.1533589459
 30
0.0
 10
75.1142994221
 20
39.3376386027
 30
0.0
 10
75.1666168487
 20
39.4282550436
 30
0.0
  0
SPLINE
  5
42E
100
AcDbEntity
  8
DEFAULT_2
100
AcDbSpline
 62
8
  6
HIDDEN
 70
0
 71
3
 72
15
 73
11
 74
0
 42
0.0000001
 43
0.0000001
 44
0.0000000001
 40
0.0
 40
0.0
 40
0.0
 40
0.0
 40
0.1417099404
 40
0.2702338757
 40
0.3880850351
 40
0.5
 40
0.6119149649
 40
0.7297661243
 40
0.8582900596
 40
1.0
 40
1.0
 40
1.0
 40
1.0
 10
77.4106337845
 20
34.8094528901
 30
0.0
 10
77.3610795215
 20
34.8505411144
 30
0.0
 10
77.2719710172
 20
34.9358972261
 30
0.0
 10
77.1680940873
 20
35.0797801718
 30
0.0
 10
77.1040555519
 20
35.2311784912
 30
0.0
 10
77.0822913183
 20
35.3868031593
 30
0.0
 10
77.1040555519
 20
35.5424278273
 30
0.0
 10
77.1680940873
 20
35.6938261467
 30
0.0
 10
77.2719710172
 20
35.8377090924
 30
0.0
 10
77.3610795215
 20
35.9230652041
 30
0.0
 10
77.4106337845
 20
35.9641534284
 30
0.0
  0
SPLINE
  5
42F
100
AcDbEntity
  8
DEFAULT_2
100
AcDbSpline
 62
8
  6
HIDDEN
 70
0
 71
3
 72
15
 73
11
 74
0
 42
0.0000001
 43
0.0000001
 44
0.0000000001
 40
0.0
 40
0.0
 40
0.0
 40
0.0
 40
0.1417099404
 40
0.2702338757
 40
0.3880850351
 40
0.5
 40
0.6119149649
 40
0.7297661243
 40
0.8582900596
 40
1.0
 40
1.0
 40
1.0
 40
1.0
 10
77.4106337845
 20
38.2735545052
 30
0.0
 10
77.3610795215
 20
38.3146427295
 30
0.0
 10
77.2719710172
 20
38.3999988412
 30
0.0
 10
77.1680940873
 20
38.5438817869
 30
0.0
 10
77.1040555519
 20
38.6952801063
 30
0.0
 10
77.0822913183
 20
38.8509047744
 30
0.0
 10
77.1040555519
 20
39.0065294424
 30
0.0
 10
77.1680940873
 20
39.1579277618
 30
0.0
 10
77.2719710172
 20
39.3018107076
 30
0.0
 10
77.3610795215
 20
39.3871668192
 30
0.0
 10
77.4106337845
 20
39.4282550436
 30
0.0
  0
SPLINE
  5
430
100
AcDbEntity
  8
DEFAULT_2
100
AcDbSpline
 62
8
  6
HIDDEN
 70
0
 71
3
 72
11
 73
7
 74
0
 42
0.0000001
 43
0.0000001
 44
0.0000000001
 40
0.0
 40
0.0
 40
0.0
 40
0.0
 40
0.2574278162
 40
0.5000007908
 40
0.7425729806
 40
1.0
 40
1.0
 40
1.0
 40
1.0
 10
75.1666168487
 20
34.8094528901
 30
0.0
 10
75.1142992602
 20
34.9000696114
 30
0.0
 10
75.02488136
 20
35.0843495562
 30
0.0
 10
74.9700832344
 20
35.3868038236
 30
0.0
 10
75.0248825095
 20
35.6892573308
 30
0.0
 10
75.1142994221
 20
35.8735369875
 30
0.0
 10
75.1666168487
 20
35.9641534284
 30
0.0
  0
SPLINE
  5
431
100
AcDbEntity
  8
DEFAULT_2
100
AcDbSpline
 62
8
  6
HIDDEN
 70
0
 71
3
 72
9
 73
5
 74
0
 42
0.0000001
 43
0.0000001
 44
0.0000000001
 40
0.0
 40
0.0
 40
0.0
 40
0.0
 40
0.4535848523
 40
1.0
 40
1.0
 40
1.0
 40
1.0
 10
64.7802417882
 20
79.8798439492
 30
0.0
 10
64.7934304338
 20
79.8798552498
 30
0.0
 10
64.822458968
 20
79.8750482563
 30
0.0
 10
64.8499267752
 20
79.865334453
 30
0.0
 10
64.864618782
 20
79.8592873023
 30
0.0
  0
SPLINE
  5
432
100
AcDbEntity
  8
DEFAULT_2
100
AcDbSpline
 62
8
  6
HIDDEN
 70
0
 71
3
 72
10
 73
6
 74
0
 42
0.0000001
 43
0.0000001
 44
0.0000000001
 40
0.0
 40
0.0
 40
0.0
 40
0.0
 40
0.1905091682
 40
0.4235949525
 40
1.0
 40
1.0
 40
1.0
 40
1.0
 10
64.7802417882
 20
92.8798439492
 30
0.0
 10
64.7949945449
 20
92.87985659
 30
0.0
 10
64.8277109568
 20
92.8738539084
 30
0.0
 10
64.9001802417
 20
92.8462228572
 30
0.0
 10
64.9544710935
 20
92.8140088401
 30
0.0
 10
64.9918892596
 20
92.7896725911
 30
0.0
  0
SPLINE
  5
433
100
AcDbEntity
  8
DEFAULT_2
100
AcDbSpline
 62
8
  6
HIDDEN
 70
0
 71
3
 72
9
 73
5
 74
0
 42
0.0000001
 43
0.0000001
 44
0.0000000001
 40
0.0
 40
0.0
 40
0.0
 40
0.0
 40
0.4535848523
 40
1.0
 40
1.0
 40
1.0
 40
1.0
 10
64.7802417882
 20
85.3578639845
 30
0.0
 10
64.7934304338
 20
85.3578526838
 30
0.0
 10
64.822458968
 20
85.3626596773
 30
0.0
 10
64.8499267752
 20
85.3723734806
 30
0.0
 10
64.864618782
 20
85.3784206313
 30
0.0
  0
SPLINE
  5
434
100
AcDbEntity
  8
DEFAULT_2
100
AcDbSpline
 62
8
  6
HIDDEN
 70
0
 71
3
 72
10
 73
6
 74
0
 42
0.0000001
 43
0.0000001
 44
0.0000000001
 40
0.0
 40
0.0
 40
0.0
 40
0.0
 40
0.1905091682
 40
0.4235949525
 40
1.0
 40
1.0
 40
1.0
 40
1.0
 10
64.7802417882
 20
102.8798439492
 30
0.0
 10
64.7949945449
 20
102.87985659
 30
0.0
 10
64.8277109568
 20
102.8738539084
 30
0.0
 10
64.9001802417
 20
102.8462228572
 30
0.0
 10
64.9544710935
 20
102.8140088401
 30
0.0
 10
64.9918892596
 20
102.7896725911
 30
0.0
  0
SPLINE
  5
435
100
AcDbEntity
  8
DEFAULT_2
100
AcDbSpline
 62
8
  6
HIDDEN
 70
0
 71
3
 72
9
 73
5
 74
0
 42
0.0000001
 43
0.0000001
 44
0.0000000001
 40
0.0
 40
0.0
 40
0.0
 40
0.0
 40
0.4535848523
 40
1.0
 40
1.0
 40
1.0
 40
1.0
 10
64.7802417882
 20
95.3578639845
 30
0.0
 10
64.7934304338
 20
95.3578526838
 30
0.0
 10
64.822458968
 20
95.3626596773
 30
0.0
 10
64.8499267752
 20
95.3723734806
 30
0.0
 10
64.864618782
 20
95.3784206313
 30
0.0
  0
SPLINE
  5
436
100
AcDbEntity
  8
DEFAULT_2
100
AcDbSpline
 62
8
  6
HIDDEN
 70
0
 71
3
 72
10
 73
6
 74
0
 42
0.0000001
 43
0.0000001
 44
0.0000000001
 40
0.0
 40
0.0
 40
0.0
 40
0.0
 40
0.1905091682
 40
0.4235949525
 40
1.0
 40
1.0
 40
1.0
 40
1.0
 10
64.7802417882
 20
112.8798439492
 30
0.0
 10
64.7949945449
 20
112.87985659
 30
0.0
 10
64.8277109568
 20
112.8738539084
 30
0.0
 10
64.9001802417
 20
112.8462228572
 30
0.0
 10
64.9544710935
 20
112.8140088401
 30
0.0
 10
64.9918892596
 20
112.7896725911
 30
0.0
  0
SPLINE
  5
437
100
AcDbEntity
  8
DEFAULT_2
100
AcDbSpline
 62
8
  6
HIDDEN
 70
0
 71
3
 72
9
 73
5
 74
0
 42
0.0000001
 43
0.0000001
 44
0.0000000001
 40
0.0
 40
0.0
 40
0.0
 40
0.0
 40
0.4535848523
 40
1.0
 40
1.0
 40
1.0
 40
1.0
 10
64.7802417882
 20
105.3578639845
 30
0.0
 10
64.7934304338
 20
105.3578526838
 30
0.0
 10
64.822458968
 20
105.3626596773
 30
0.0
 10
64.8499267752
 20
105.3723734806
 30
0.0
 10
64.864618782
 20
105.3784206313
 30
0.0
  0
SPLINE
  5
438
100
AcDbEntity
  8
DEFAULT_2
100
AcDbSpline
 62
8
  6
HIDDEN
 70
0
 71
3
 72
10
 73
6
 74
0
 42
0.0000001
 43
0.0000001
 44
0.0000000001
 40
0.0
 40
0.0
 40
0.0
 40
0.0
 40
0.1905091682
 40
0.4235949525
 40
1.0
 40
1.0
 40
1.0
 40
1.0
 10
64.7802417882
 20
79.8798439492
 30
0.0
 10
64.7949945449
 20
79.87985659
 30
0.0
 10
64.8277109568
 20
79.8738539084
 30
0.0
 10
64.9001802417
 20
79.8462228572
 30
0.0
 10
64.9544710935
 20
79.8140088401
 30
0.0
 10
64.9918892596
 20
79.7896725911
 30
0.0
  0
SPLINE
  5
439
100
AcDbEntity
  8
DEFAULT_2
100
AcDbSpline
 62
8
  6
HIDDEN
 70
0
 71
3
 72
9
 73
5
 74
0
 42
0.0000001
 43
0.0000001
 44
0.0000000001
 40
0.0
 40
0.0
 40
0.0
 40
0.0
 40
0.4535848523
 40
1.0
 40
1.0
 40
1.0
 40
1.0
 10
64.7802417882
 20
72.3578639845
 30
0.0
 10
64.7934304338
 20
72.3578526838
 30
0.0
 10
64.822458968
 20
72.3626596773
 30
0.0
 10
64.8499267752
 20
72.3723734806
 30
0.0
 10
64.864618782
 20
72.3784206313
 30
0.0
  0
SPLINE
  5
43A
100
AcDbEntity
  8
DEFAULT_2
100
AcDbSpline
 62
8
  6
HIDDEN
 70
0
 71
3
 72
10
 73
6
 74
0
 42
0.0000001
 43
0.0000001
 44
0.0000000001
 40
0.0
 40
0.0
 40
0.0
 40
0.0
 40
0.5762939399
 40
0.8094449452
 40
1.0
 40
1.0
 40
1.0
 40
1.0
 10
64.9918892596
 20
72.4480353425
 30
0.0
 10
64.9544772863
 20
72.4237031213
 30
0.0
 10
64.9001914559
 20
72.3914812956
 30
0.0
 10
64.8277160366
 20
72.3638631353
 30
0.0
 10
64.7949931623
 20
72.3578464181
 30
0.0
 10
64.780236447
 20
72.3578548657
 30
0.0
  0
SPLINE
  5
43B
100
AcDbEntity
  8
DEFAULT_2
100
AcDbSpline
 62
8
  6
HIDDEN
 70
0
 71
3
 72
9
 73
5
 74
0
 42
0.0000001
 43
0.0000001
 44
0.0000000001
 40
0.0
 40
0.0
 40
0.0
 40
0.0
 40
0.2461840844
 40
1.0
 40
1.0
 40
1.0
 40
1.0
 10
65.6396524177
 20
72.893418718
 30
0.0
 10
65.5877430356
 20
72.855109809
 30
0.0
 10
65.3752180325
 20
72.7017587744
 30
0.0
 10
65.1574898175
 20
72.5557396164
 30
0.0
 10
64.9918892596
 20
72.4480353425
 30
0.0
  0
SPLINE
  5
43C
100
AcDbEntity
  8
DEFAULT_2
100
AcDbSpline
 62
8
  6
HIDDEN
 70
0
 71
3
 72
9
 73
5
 74
0
 42
0.0000001
 43
0.0000001
 44
0.0000000001
 40
0.0
 40
0.0
 40
0.0
 40
0.0
 40
0.2534247132
 40
1.0
 40
1.0
 40
1.0
 40
1.0
 10
64.9918892596
 20
79.7896725911
 30
0.0
 10
65.0475612818
 20
79.7534642908
 30
0.0
 10
65.2665055248
 20
79.6094810215
 30
0.0
 10
65.4822356335
 20
79.4604621505
 30
0.0
 10
65.6396524177
 20
79.3442892156
 30
0.0
  0
SPLINE
  5
43D
100
AcDbEntity
  8
DEFAULT_2
100
AcDbSpline
 62
8
  6
HIDDEN
 70
0
 71
3
 72
9
 73
5
 74
0
 42
0.0000001
 43
0.0000001
 44
0.0000000001
 40
0.0
 40
0.0
 40
0.0
 40
0.0
 40
0.2478634737
 40
1.0
 40
1.0
 40
1.0
 40
1.0
 10
65.6396524177
 20
79.3442892156
 30
0.0
 10
65.6149325967
 20
79.3625323411
 30
0.0
 10
65.5148284035
 20
79.4356288909
 30
0.0
 10
65.4133737983
 20
79.5068658929
 30
0.0
 10
65.3365346774
 20
79.5596585735
 30
0.0
  0
SPLINE
  5
43E
100
AcDbEntity
  8
DEFAULT_2
100
AcDbSpline
 62
8
  6
HIDDEN
 70
0
 71
3
 72
10
 73
6
 74
0
 42
0.0000001
 43
0.0000001
 44
0.0000000001
 40
0.0
 40
0.0
 40
0.0
 40
0.0
 40
0.5762939399
 40
0.8094449452
 40
1.0
 40
1.0
 40
1.0
 40
1.0
 10
64.9918892596
 20
105.4480353425
 30
0.0
 10
64.9544772863
 20
105.4237031213
 30
0.0
 10
64.9001914559
 20
105.3914812956
 30
0.0
 10
64.8277160366
 20
105.3638631353
 30
0.0
 10
64.7949931623
 20
105.3578464181
 30
0.0
 10
64.780236447
 20
105.3578548657
 30
0.0
  0
SPLINE
  5
43F
100
AcDbEntity
  8
DEFAULT_2
100
AcDbSpline
 62
8
  6
HIDDEN
 70
0
 71
3
 72
9
 73
5
 74
0
 42
0.0000001
 43
0.0000001
 44
0.0000000001
 40
0.0
 40
0.0
 40
0.0
 40
0.0
 40
0.2520258882
 40
1.0
 40
1.0
 40
1.0
 40
1.0
 10
65.3365347145
 20
105.6780493824
 30
0.0
 10
65.3622818843
 20
105.6957390827
 30
0.0
 10
65.4642007076
 20
105.7662792984
 30
0.0
 10
65.5650560158
 20
105.8383668823
 30
0.0
 10
65.6396524177
 20
105.893418718
 30
0.0
  0
SPLINE
  5
440
100
AcDbEntity
  8
DEFAULT_2
100
AcDbSpline
 62
8
  6
HIDDEN
 70
0
 71
3
 72
9
 73
5
 74
0
 42
0.0000001
 43
0.0000001
 44
0.0000000001
 40
0.0
 40
0.0
 40
0.0
 40
0.0
 40
0.2461840832
 40
1.0
 40
1.0
 40
1.0
 40
1.0
 10
65.6396525648
 20
105.8934188261
 30
0.0
 10
65.5877431718
 20
105.8551099073
 30
0.0
 10
65.3752181214
 20
105.7017588341
 30
0.0
 10
65.1574898562
 20
105.5557396416
 30
0.0
 10
64.9918892596
 20
105.4480353425
 30
0.0
  0
SPLINE
  5
441
100
AcDbEntity
  8
DEFAULT_2
100
AcDbSpline
 62
8
  6
HIDDEN
 70
0
 71
3
 72
9
 73
5
 74
0
 42
0.0000001
 43
0.0000001
 44
0.0000000001
 40
0.0
 40
0.0
 40
0.0
 40
0.0
 40
0.2534247132
 40
1.0
 40
1.0
 40
1.0
 40
1.0
 10
64.9918892596
 20
112.7896725911
 30
0.0
 10
65.0475612818
 20
112.7534642908
 30
0.0
 10
65.2665055248
 20
112.6094810215
 30
0.0
 10
65.4822356335
 20
112.4604621505
 30
0.0
 10
65.6396524177
 20
112.3442892156
 30
0.0
  0
SPLINE
  5
442
100
AcDbEntity
  8
DEFAULT_2
100
AcDbSpline
 62
8
  6
HIDDEN
 70
0
 71
3
 72
9
 73
5
 74
0
 42
0.0000001
 43
0.0000001
 44
0.0000000001
 40
0.0
 40
0.0
 40
0.0
 40
0.0
 40
0.2478634737
 40
1.0
 40
1.0
 40
1.0
 40
1.0
 10
65.6396524177
 20
112.3442892156
 30
0.0
 10
65.6149325967
 20
112.3625323411
 30
0.0
 10
65.5148284035
 20
112.4356288909
 30
0.0
 10
65.4133737983
 20
112.5068658929
 30
0.0
 10
65.3365346774
 20
112.5596585735
 30
0.0
  0
SPLINE
  5
443
100
AcDbEntity
  8
DEFAULT_2
100
AcDbSpline
 62
8
  6
HIDDEN
 70
0
 71
3
 72
10
 73
6
 74
0
 42
0.0000001
 43
0.0000001
 44
0.0000000001
 40
0.0
 40
0.0
 40
0.0
 40
0.0
 40
0.5762939399
 40
0.8094449452
 40
1.0
 40
1.0
 40
1.0
 40
1.0
 10
64.9918892596
 20
95.4480353425
 30
0.0
 10
64.9544772863
 20
95.4237031213
 30
0.0
 10
64.9001914559
 20
95.3914812956
 30
0.0
 10
64.8277160366
 20
95.3638631353
 30
0.0
 10
64.7949931623
 20
95.3578464181
 30
0.0
 10
64.780236447
 20
95.3578548657
 30
0.0
  0
SPLINE
  5
444
100
AcDbEntity
  8
DEFAULT_2
100
AcDbSpline
 62
8
  6
HIDDEN
 70
0
 71
3
 72
9
 73
5
 74
0
 42
0.0000001
 43
0.0000001
 44
0.0000000001
 40
0.0
 40
0.0
 40
0.0
 40
0.0
 40
0.2520258884
 40
1.0
 40
1.0
 40
1.0
 40
1.0
 10
65.3365346803
 20
79.5596585747
 30
0.0
 10
65.3622818532
 20
79.5419688725
 30
0.0
 10
65.464200688
 20
79.4714286492
 30
0.0
 10
65.5650560075
 20
79.3993410574
 30
0.0
 10
65.6396524177
 20
79.3442892156
 30
0.0
  0
SPLINE
  5
445
100
AcDbEntity
  8
DEFAULT_2
100
AcDbSpline
 62
8
  6
HIDDEN
 70
0
 71
3
 72
9
 73
5
 74
0
 42
0.0000001
 43
0.0000001
 44
0.0000000001
 40
0.0
 40
0.0
 40
0.0
 40
0.0
 40
0.2520258884
 40
1.0
 40
1.0
 40
1.0
 40
1.0
 10
65.3365346803
 20
95.678049359
 30
0.0
 10
65.3622818532
 20
95.6957390611
 30
0.0
 10
65.464200688
 20
95.7662792845
 30
0.0
 10
65.5650560075
 20
95.8383668762
 30
0.0
 10
65.6396524177
 20
95.893418718
 30
0.0
  0
SPLINE
  5
446
100
AcDbEntity
  8
DEFAULT_2
100
AcDbSpline
 62
8
  6
HIDDEN
 70
0
 71
3
 72
9
 73
5
 74
0
 42
0.0000001
 43
0.0000001
 44
0.0000000001
 40
0.0
 40
0.0
 40
0.0
 40
0.0
 40
0.2461840844
 40
1.0
 40
1.0
 40
1.0
 40
1.0
 10
65.6396524177
 20
95.893418718
 30
0.0
 10
65.5877430356
 20
95.855109809
 30
0.0
 10
65.3752180325
 20
95.7017587744
 30
0.0
 10
65.1574898175
 20
95.5557396164
 30
0.0
 10
64.9918892596
 20
95.4480353425
 30
0.0
  0
SPLINE
  5
447
100
AcDbEntity
  8
DEFAULT_2
100
AcDbSpline
 62
8
  6
HIDDEN
 70
0
 71
3
 72
9
 73
5
 74
0
 42
0.0000001
 43
0.0000001
 44
0.0000000001
 40
0.0
 40
0.0
 40
0.0
 40
0.0
 40
0.2478634737
 40
1.0
 40
1.0
 40
1.0
 40
1.0
 10
65.6396524177
 20
72.893418718
 30
0.0
 10
65.6149325967
 20
72.8751755925
 30
0.0
 10
65.5148284035
 20
72.8020790428
 30
0.0
 10
65.4133737983
 20
72.7308420407
 30
0.0
 10
65.3365346774
 20
72.6780493602
 30
0.0
  0
SPLINE
  5
448
100
AcDbEntity
  8
DEFAULT_2
100
AcDbSpline
 62
8
  6
HIDDEN
 70
0
 71
3
 72
9
 73
5
 74
0
 42
0.0000001
 43
0.0000001
 44
0.0000000001
 40
0.0
 40
0.0
 40
0.0
 40
0.0
 40
0.2520258884
 40
1.0
 40
1.0
 40
1.0
 40
1.0
 10
65.3365346803
 20
72.678049359
 30
0.0
 10
65.3622818532
 20
72.6957390611
 30
0.0
 10
65.464200688
 20
72.7662792845
 30
0.0
 10
65.5650560075
 20
72.8383668762
 30
0.0
 10
65.6396524177
 20
72.893418718
 30
0.0
  0
SPLINE
  5
449
100
AcDbEntity
  8
DEFAULT_2
100
AcDbSpline
 62
8
  6
HIDDEN
 70
0
 71
3
 72
9
 73
5
 74
0
 42
0.0000001
 43
0.0000001
 44
0.0000000001
 40
0.0
 40
0.0
 40
0.0
 40
0.0
 40
0.2534247132
 40
1.0
 40
1.0
 40
1.0
 40
1.0
 10
64.9918892596
 20
102.7896725911
 30
0.0
 10
65.0475612818
 20
102.7534642908
 30
0.0
 10
65.2665055248
 20
102.6094810215
 30
0.0
 10
65.4822356335
 20
102.4604621505
 30
0.0
 10
65.6396524177
 20
102.3442892156
 30
0.0
  0
SPLINE
  5
44A
100
AcDbEntity
  8
DEFAULT_2
100
AcDbSpline
 62
8
  6
HIDDEN
 70
0
 71
3
 72
9
 73
5
 74
0
 42
0.0000001
 43
0.0000001
 44
0.0000000001
 40
0.0
 40
0.0
 40
0.0
 40
0.0
 40
0.2478634707
 40
1.0
 40
1.0
 40
1.0
 40
1.0
 10
65.6396528266
 20
102.3442889138
 30
0.0
 10
65.614932982
 20
102.3625320589
 30
0.0
 10
65.5148286914
 20
102.4356286872
 30
0.0
 10
65.4133739853
 20
102.5068657633
 30
0.0
 10
65.3365347871
 20
102.5596584981
 30
0.0
  0
SPLINE
  5
44B
100
AcDbEntity
  8
DEFAULT_2
100
AcDbSpline
 62
8
  6
HIDDEN
 70
0
 71
3
 72
10
 73
6
 74
0
 42
0.0000001
 43
0.0000001
 44
0.0000000001
 40
0.0
 40
0.0
 40
0.0
 40
0.0
 40
0.5762939399
 40
0.8094449452
 40
1.0
 40
1.0
 40
1.0
 40
1.0
 10
64.9918892596
 20
85.4480353425
 30
0.0
 10
64.9544772863
 20
85.4237031213
 30
0.0
 10
64.9001914559
 20
85.3914812956
 30
0.0
 10
64.8277160366
 20
85.3638631353
 30
0.0
 10
64.7949931623
 20
85.3578464181
 30
0.0
 10
64.780236447
 20
85.3578548657
 30
0.0
  0
SPLINE
  5
44C
100
AcDbEntity
  8
DEFAULT_2
100
AcDbSpline
 62
8
  6
HIDDEN
 70
0
 71
3
 72
9
 73
5
 74
0
 42
0.0000001
 43
0.0000001
 44
0.0000000001
 40
0.0
 40
0.0
 40
0.0
 40
0.0
 40
0.2478634737
 40
1.0
 40
1.0
 40
1.0
 40
1.0
 10
65.6396524177
 20
92.3442892156
 30
0.0
 10
65.6149325967
 20
92.3625323411
 30
0.0
 10
65.5148284035
 20
92.4356288909
 30
0.0
 10
65.4133737983
 20
92.5068658929
 30
0.0
 10
65.3365346774
 20
92.5596585735
 30
0.0
  0
SPLINE
  5
44D
100
AcDbEntity
  8
DEFAULT_2
100
AcDbSpline
 62
8
  6
HIDDEN
 70
0
 71
3
 72
9
 73
5
 74
0
 42
0.0000001
 43
0.0000001
 44
0.0000000001
 40
0.0
 40
0.0
 40
0.0
 40
0.0
 40
0.2520258884
 40
1.0
 40
1.0
 40
1.0
 40
1.0
 10
65.3365346803
 20
85.678049359
 30
0.0
 10
65.3622818532
 20
85.6957390611
 30
0.0
 10
65.464200688
 20
85.7662792845
 30
0.0
 10
65.5650560075
 20
85.8383668762
 30
0.0
 10
65.6396524177
 20
85.893418718
 30
0.0
  0
SPLINE
  5
44E
100
AcDbEntity
  8
DEFAULT_2
100
AcDbSpline
 62
8
  6
HIDDEN
 70
0
 71
3
 72
9
 73
5
 74
0
 42
0.0000001
 43
0.0000001
 44
0.0000000001
 40
0.0
 40
0.0
 40
0.0
 40
0.0
 40
0.2534247132
 40
1.0
 40
1.0
 40
1.0
 40
1.0
 10
64.9918892596
 20
92.7896725911
 30
0.0
 10
65.0475612818
 20
92.7534642908
 30
0.0
 10
65.2665055248
 20
92.6094810215
 30
0.0
 10
65.4822356335
 20
92.4604621505
 30
0.0
 10
65.6396524177
 20
92.3442892156
 30
0.0
  0
SPLINE
  5
44F
100
AcDbEntity
  8
DEFAULT_2
100
AcDbSpline
 62
8
  6
HIDDEN
 70
0
 71
3
 72
9
 73
5
 74
0
 42
0.0000001
 43
0.0000001
 44
0.0000000001
 40
0.0
 40
0.0
 40
0.0
 40
0.0
 40
0.2461840844
 40
1.0
 40
1.0
 40
1.0
 40
1.0
 10
65.6396524177
 20
85.893418718
 30
0.0
 10
65.5877430356
 20
85.855109809
 30
0.0
 10
65.3752180325
 20
85.7017587744
 30
0.0
 10
65.1574898175
 20
85.5557396164
 30
0.0
 10
64.9918892596
 20
85.4480353425
 30
0.0
  0
SPLINE
  5
450
100
AcDbEntity
  8
DEFAULT_2
100
AcDbSpline
 62
8
  6
HIDDEN
 70
0
 71
3
 72
15
 73
11
 74
0
 42
0.0000001
 43
0.0000001
 44
0.0000000001
 40
0.0
 40
0.0
 40
0.0
 40
0.0
 40
0.1022856589
 40
0.2076514828
 40
0.3188524521
 40
0.4394051744
 40
0.5706989798
 40
0.710313669
 40
0.8544405363
 40
1.0
 40
1.0
 40
1.0
 40
1.0
 10
65.6396524177
 20
110.0466529674
 30
0.0
 10
65.6839011959
 20
110.075901595
 30
0.0
 10
65.7686904546
 20
110.1435504805
 30
0.0
 10
65.8736060397
 20
110.2733484478
 30
0.0
 10
65.9451964215
 20
110.4353972595
 30
0.0
 10
65.9692457727
 20
110.6246931048
 30
0.0
 10
65.9412528575
 20
110.827643051
 30
0.0
 10
65.8695391452
 20
111.0316447379
 30
0.0
 10
65.7663400702
 20
111.2294788558
 30
0.0
 10
65.6835462837
 20
111.3550826944
 30
0.0
 10
65.6396524177
 20
111.416490215
 30
0.0
  0
SPLINE
  5
451
100
AcDbEntity
  8
DEFAULT_2
100
AcDbSpline
 62
8
  6
HIDDEN
 70
0
 71
3
 72
15
 73
11
 74
0
 42
0.0000001
 43
0.0000001
 44
0.0000000001
 40
0.0
 40
0.0
 40
0.0
 40
0.0
 40
0.1082523564
 40
0.2268784064
 40
0.3584563168
 40
0.5001420992
 40
0.6417730919
 40
0.7732658494
 40
0.8917830519
 40
1.0
 40
1.0
 40
1.0
 40
1.0
 10
64.9918892596
 20
109.6477343666
 30
0.0
 10
64.9529076273
 20
109.6250262327
 30
0.0
 10
64.8772382662
 20
109.5662431951
 30
0.0
 10
64.7865308832
 20
109.4454313331
 30
0.0
 10
64.725065582
 20
109.2921040367
 30
0.0
 10
64.7031438629
 20
109.1186961662
 30
0.0
 10
64.7251288373
 20
108.9453308726
 30
0.0
 10
64.7866297564
 20
108.7921324695
 30
0.0
 10
64.8772976787
 20
108.6714176907
 30
0.0
 10
64.9529204246
 20
108.6126742358
 30
0.0
 10
64.9918893094
 20
108.5899735347
 30
0.0
  0
SPLINE
  5
452
100
AcDbEntity
  8
DEFAULT_2
100
AcDbSpline
 62
8
  6
HIDDEN
 70
0
 71
3
 72
9
 73
5
 74
0
 42
0.0000001
 43
0.0000001
 44
0.0000000001
 40
0.0
 40
0.0
 40
0.0
 40
0.0
 40
0.2539309258
 40
1.0
 40
1.0
 40
1.0
 40
1.0
 10
64.9918893165
 20
108.5899735347
 30
0.0
 10
65.0475328955
 20
108.5575592475
 30
0.0
 10
65.266035965
 20
108.4288566125
 30
0.0
 10
65.4818158522
 20
108.2953855967
 30
0.0
 10
65.6396524177
 20
108.1910549662
 30
0.0
  0
SPLINE
  5
453
100
AcDbEntity
  8
DEFAULT_2
100
AcDbSpline
 62
8
  6
HIDDEN
 70
0
 71
3
 72
8
 73
4
 74
0
 42
0.0000001
 43
0.0000001
 44
0.0000000001
 40
0.0
 40
0.0
 40
0.0
 40
0.0
 40
1.0
 40
1.0
 40
1.0
 40
1.0
 10
65.6396524177
 20
106.8212177186
 30
0.0
 10
65.4333774739
 20
106.532639063
 30
0.0
 10
65.2153384091
 20
106.2524106978
 30
0.0
 10
64.9918892596
 20
105.9769157423
 30
0.0
  0
SPLINE
  5
454
100
AcDbEntity
  8
DEFAULT_2
100
AcDbSpline
 62
8
  6
HIDDEN
 70
0
 71
3
 72
17
 73
13
 74
0
 42
0.0000001
 43
0.0000001
 44
0.0000000001
 40
0.0
 40
0.0
 40
0.0
 40
0.0
 40
0.0616409424
 40
0.0911346644
 40
0.1247400701
 40
0.1652809364
 40
0.2141636867
 40
0.3362375254
 40
0.4845525578
 40
0.6494472601
 40
0.8232193025
 40
1.0
 40
1.0
 40
1.0
 40
1.0
 10
64.780236447
 20
112.8798530679
 30
0.0
 10
64.7651175986
 20
112.8798444131
 30
0.0
 10
64.7410252591
 20
112.8746908909
 30
0.0
 10
64.7204135767
 20
112.8508814776
 30
0.0
 10
64.7119587964
 20
112.8264523947
 30
0.0
 10
64.7096655972
 20
112.7961472687
 30
0.0
 10
64.7151859605
 20
112.744374281
 30
0.0
 10
64.7381823271
 20
112.6689561147
 30
0.0
 10
64.7824071263
 20
112.5716514443
 30
0.0
 10
64.8417569735
 20
112.4678165923
 30
0.0
 10
64.9122888166
 20
112.3627983819
 30
0.0
 10
64.9645758353
 20
112.2944674621
 30
0.0
 10
64.9918892596
 20
112.2607921914
 30
0.0
  0
SPLINE
  5
455
100
AcDbEntity
  8
DEFAULT_2
100
AcDbSpline
 62
8
  6
HIDDEN
 70
0
 71
3
 72
15
 73
11
 74
0
 42
0.0000001
 43
0.0000001
 44
0.0000000001
 40
0.0
 40
0.0
 40
0.0
 40
0.0
 40
0.1022856589
 40
0.2076514828
 40
0.3188524521
 40
0.4394051744
 40
0.5706989798
 40
0.710313669
 40
0.8544405363
 40
1.0
 40
1.0
 40
1.0
 40
1.0
 10
65.6396524177
 20
77.0466529674
 30
0.0
 10
65.6839011959
 20
77.075901595
 30
0.0
 10
65.7686904546
 20
77.1435504805
 30
0.0
 10
65.8736060397
 20
77.2733484478
 30
0.0
 10
65.9451964215
 20
77.4353972595
 30
0.0
 10
65.9692457727
 20
77.6246931048
 30
0.0
 10
65.9412528575
 20
77.827643051
 30
0.0
 10
65.8695391452
 20
78.0316447379
 30
0.0
 10
65.7663400702
 20
78.2294788558
 30
0.0
 10
65.6835462837
 20
78.3550826944
 30
0.0
 10
65.6396524177
 20
78.416490215
 30
0.0
  0
SPLINE
  5
456
100
AcDbEntity
  8
DEFAULT_2
100
AcDbSpline
 62
8
  6
HIDDEN
 70
0
 71
3
 72
8
 73
4
 74
0
 42
0.0000001
 43
0.0000001
 44
0.0000000001
 40
0.0
 40
0.0
 40
0.0
 40
0.0
 40
1.0
 40
1.0
 40
1.0
 40
1.0
 10
64.9918892596
 20
112.2607921914
 30
0.0
 10
65.2153384091
 20
111.9852972358
 30
0.0
 10
65.4333774739
 20
111.7050688707
 30
0.0
 10
65.6396524177
 20
111.416490215
 30
0.0
  0
SPLINE
  5
457
100
AcDbEntity
  8
DEFAULT_2
100
AcDbSpline
 62
8
  6
HIDDEN
 70
0
 71
3
 72
9
 73
5
 74
0
 42
0.0000001
 43
0.0000001
 44
0.0000000001
 40
0.0
 40
0.0
 40
0.0
 40
0.0
 40
0.2456105399
 40
1.0
 40
1.0
 40
1.0
 40
1.0
 10
65.6396524177
 20
110.0466529674
 30
0.0
 10
65.5876907056
 20
110.0123060582
 30
0.0
 10
65.3746836793
 20
109.8746483641
 30
0.0
 10
65.1572007111
 20
109.7440339405
 30
0.0
 10
64.9918892596
 20
109.6477343666
 30
0.0
  0
SPLINE
  5
458
100
AcDbEntity
  8
DEFAULT_2
100
AcDbSpline
 62
8
  6
HIDDEN
 70
0
 71
3
 72
15
 73
11
 74
0
 42
0.0000001
 43
0.0000001
 44
0.0000000001
 40
0.0
 40
0.0
 40
0.0
 40
0.0
 40
0.1455692679
 40
0.2897329038
 40
0.4293659982
 40
0.5606622888
 40
0.6812067183
 40
0.7923844091
 40
0.8977216643
 40
1.0
 40
1.0
 40
1.0
 40
1.0
 10
65.6396524177
 20
96.8212177186
 30
0.0
 10
65.6835492756
 20
96.8826294248
 30
0.0
 10
65.7663587513
 20
97.0082516206
 30
0.0
 10
65.8695725734
 20
97.2061182605
 30
0.0
 10
65.9412575261
 20
97.4101623077
 30
0.0
 10
65.9692451859
 20
97.6131165987
 30
0.0
 10
65.9451950203
 20
97.8024014118
 30
0.0
 10
65.873569652
 20
97.9644008144
 30
0.0
 10
65.768670563
 20
98.0941675828
 30
0.0
 10
65.6838980635
 20
98.1618084091
 30
0.0
 10
65.6396524177
 20
98.1910549662
 30
0.0
  0
SPLINE
  5
459
100
AcDbEntity
  8
DEFAULT_2
100
AcDbSpline
 62
8
  6
HIDDEN
 70
0
 71
3
 72
17
 73
13
 74
0
 42
0.0000001
 43
0.0000001
 44
0.0000000001
 40
0.0
 40
0.0
 40
0.0
 40
0.0
 40
0.1767879415
 40
0.3506281223
 40
0.5156099261
 40
0.6639287276
 40
0.7859487176
 40
0.8348441693
 40
0.8753602575
 40
0.9088979192
 40
0.9383917408
 40
1.0
 40
1.0
 40
1.0
 40
1.0
 10
64.9918892285
 20
95.9769156992
 30
0.0
 10
64.9645743274
 20
95.9432386063
 30
0.0
 10
64.9122742876
 20
95.8748926274
 30
0.0
 10
64.8417260036
 20
95.7698361763
 30
0.0
 10
64.7823498993
 20
95.6659676832
 30
0.0
 10
64.7381497444
 20
95.5686430383
 30
0.0
 10
64.7151707739
 20
95.4932203383
 30
0.0
 10
64.7096793761
 20
95.4414702839
 30
0.0
 10
64.7119266203
 20
95.4111674661
 30
0.0
 10
64.7204802724
 20
95.3868070741
 30
0.0
 10
64.7410116763
 20
95.362963834
 30
0.0
 10
64.7651307611
 20
95.3578769324
 30
0.0
 10
64.7802417882
 20
95.3578639845
 30
0.0
  0
SPLINE
  5
45A
100
AcDbEntity
  8
DEFAULT_2
100
AcDbSpline
 62
8
  6
HIDDEN
 70
0
 71
3
 72
17
 73
13
 74
0
 42
0.0000001
 43
0.0000001
 44
0.0000000001
 40
0.0
 40
0.0
 40
0.0
 40
0.0
 40
0.0616409424
 40
0.0911346644
 40
0.1247400701
 40
0.1652809364
 40
0.2141636867
 40
0.3362375254
 40
0.4845525578
 40
0.6494472601
 40
0.8232193025
 40
1.0
 40
1.0
 40
1.0
 40
1.0
 10
64.780236447
 20
79.8798530679
 30
0.0
 10
64.7651175986
 20
79.8798444131
 30
0.0
 10
64.7410252591
 20
79.8746908909
 30
0.0
 10
64.7204135767
 20
79.8508814776
 30
0.0
 10
64.7119587964
 20
79.8264523947
 30
0.0
 10
64.7096655972
 20
79.7961472687
 30
0.0
 10
64.7151859605
 20
79.744374281
 30
0.0
 10
64.7381823271
 20
79.6689561147
 30
0.0
 10
64.7824071263
 20
79.5716514443
 30
0.0
 10
64.8417569735
 20
79.4678165923
 30
0.0
 10
64.9122888166
 20
79.3627983819
 30
0.0
 10
64.9645758353
 20
79.2944674621
 30
0.0
 10
64.9918892596
 20
79.2607921914
 30
0.0
  0
SPLINE
  5
45B
100
AcDbEntity
  8
DEFAULT_2
100
AcDbSpline
 62
8
  6
HIDDEN
 70
0
 71
3
 72
17
 73
13
 74
0
 42
0.0000001
 43
0.0000001
 44
0.0000000001
 40
0.0
 40
0.0
 40
0.0
 40
0.0
 40
0.0616409424
 40
0.0911346644
 40
0.1247400701
 40
0.1652809364
 40
0.2141636867
 40
0.3362375254
 40
0.4845525578
 40
0.6494472601
 40
0.8232193025
 40
1.0
 40
1.0
 40
1.0
 40
1.0
 10
64.780236447
 20
92.8798530679
 30
0.0
 10
64.7651175986
 20
92.8798444131
 30
0.0
 10
64.7410252591
 20
92.8746908909
 30
0.0
 10
64.7204135767
 20
92.8508814776
 30
0.0
 10
64.7119587964
 20
92.8264523947
 30
0.0
 10
64.7096655972
 20
92.7961472687
 30
0.0
 10
64.7151859605
 20
92.744374281
 30
0.0
 10
64.7381823271
 20
92.6689561147
 30
0.0
 10
64.7824071263
 20
92.5716514443
 30
0.0
 10
64.8417569735
 20
92.4678165923
 30
0.0
 10
64.9122888166
 20
92.3627983819
 30
0.0
 10
64.9645758353
 20
92.2944674621
 30
0.0
 10
64.9918892596
 20
92.2607921914
 30
0.0
  0
SPLINE
  5
45C
100
AcDbEntity
  8
DEFAULT_2
100
AcDbSpline
 62
8
  6
HIDDEN
 70
0
 71
3
 72
17
 73
13
 74
0
 42
0.0000001
 43
0.0000001
 44
0.0000000001
 40
0.0
 40
0.0
 40
0.0
 40
0.0
 40
0.0616409424
 40
0.0911346644
 40
0.1247400701
 40
0.1652809364
 40
0.2141636867
 40
0.3362375254
 40
0.4845525578
 40
0.6494472601
 40
0.8232193025
 40
1.0
 40
1.0
 40
1.0
 40
1.0
 10
64.780236447
 20
102.8798530679
 30
0.0
 10
64.7651175986
 20
102.8798444131
 30
0.0
 10
64.7410252591
 20
102.8746908909
 30
0.0
 10
64.7204135767
 20
102.8508814776
 30
0.0
 10
64.7119587964
 20
102.8264523947
 30
0.0
 10
64.7096655972
 20
102.7961472687
 30
0.0
 10
64.7151859605
 20
102.744374281
 30
0.0
 10
64.7381823271
 20
102.6689561147
 30
0.0
 10
64.7824071263
 20
102.5716514443
 30
0.0
 10
64.8417569735
 20
102.4678165923
 30
0.0
 10
64.9122888166
 20
102.3627983819
 30
0.0
 10
64.9645758353
 20
102.2944674621
 30
0.0
 10
64.9918892596
 20
102.2607921914
 30
0.0
  0
SPLINE
  5
45D
100
AcDbEntity
  8
DEFAULT_2
100
AcDbSpline
 62
8
  6
HIDDEN
 70
0
 71
3
 72
15
 73
11
 74
0
 42
0.0000001
 43
0.0000001
 44
0.0000000001
 40
0.0
 40
0.0
 40
0.0
 40
0.0
 40
0.1082523564
 40
0.2268784064
 40
0.3584563168
 40
0.5001420992
 40
0.6417730919
 40
0.7732658494
 40
0.8917830519
 40
1.0
 40
1.0
 40
1.0
 40
1.0
 10
64.9918892596
 20
99.6477343666
 30
0.0
 10
64.9529076273
 20
99.6250262327
 30
0.0
 10
64.8772382662
 20
99.5662431951
 30
0.0
 10
64.7865308832
 20
99.4454313331
 30
0.0
 10
64.725065582
 20
99.2921040367
 30
0.0
 10
64.7031438629
 20
99.1186961662
 30
0.0
 10
64.7251288373
 20
98.9453308726
 30
0.0
 10
64.7866297564
 20
98.7921324695
 30
0.0
 10
64.8772976787
 20
98.6714176907
 30
0.0
 10
64.9529204246
 20
98.6126742358
 30
0.0
 10
64.9918893094
 20
98.5899735347
 30
0.0
  0
SPLINE
  5
45E
100
AcDbEntity
  8
DEFAULT_2
100
AcDbSpline
 62
8
  6
HIDDEN
 70
0
 71
3
 72
9
 73
5
 74
0
 42
0.0000001
 43
0.0000001
 44
0.0000000001
 40
0.0
 40
0.0
 40
0.0
 40
0.0
 40
0.2456105372
 40
1.0
 40
1.0
 40
1.0
 40
1.0
 10
65.6396526729
 20
77.0466531364
 30
0.0
 10
65.5876909416
 20
77.012306212
 30
0.0
 10
65.3746838333
 20
76.8746484568
 30
0.0
 10
65.1572007782
 20
76.7440339796
 30
0.0
 10
64.9918892596
 20
76.6477343666
 30
0.0
  0
SPLINE
  5
45F
100
AcDbEntity
  8
DEFAULT_2
100
AcDbSpline
 62
8
  6
HIDDEN
 70
0
 71
3
 72
9
 73
5
 74
0
 42
0.0000001
 43
0.0000001
 44
0.0000000001
 40
0.0
 40
0.0
 40
0.0
 40
0.0
 40
0.2539309258
 40
1.0
 40
1.0
 40
1.0
 40
1.0
 10
64.9918893165
 20
98.5899735347
 30
0.0
 10
65.0475328955
 20
98.5575592475
 30
0.0
 10
65.266035965
 20
98.4288566125
 30
0.0
 10
65.4818158522
 20
98.2953855967
 30
0.0
 10
65.6396524177
 20
98.1910549662
 30
0.0
  0
SPLINE
  5
460
100
AcDbEntity
  8
DEFAULT_2
100
AcDbSpline
 62
8
  6
HIDDEN
 70
0
 71
3
 72
8
 73
4
 74
0
 42
0.0000001
 43
0.0000001
 44
0.0000000001
 40
0.0
 40
0.0
 40
0.0
 40
0.0
 40
1.0
 40
1.0
 40
1.0
 40
1.0
 10
65.6396524177
 20
96.8212177186
 30
0.0
 10
65.4333774683
 20
96.5326390551
 30
0.0
 10
65.2153384255
 20
96.2524106605
 30
0.0
 10
64.9918892678
 20
95.9769156992
 30
0.0
  0
SPLINE
  5
461
100
AcDbEntity
  8
DEFAULT_2
100
AcDbSpline
 62
8
  6
HIDDEN
 70
0
 71
3
 72
8
 73
4
 74
0
 42
0.0000001
 43
0.0000001
 44
0.0000000001
 40
0.0
 40
0.0
 40
0.0
 40
0.0
 40
1.0
 40
1.0
 40
1.0
 40
1.0
 10
65.6396524177
 20
73.8212177186
 30
0.0
 10
65.4333774739
 20
73.532639063
 30
0.0
 10
65.2153384091
 20
73.2524106978
 30
0.0
 10
64.9918892596
 20
72.9769157423
 30
0.0
  0
SPLINE
  5
462
100
AcDbEntity
  8
DEFAULT_2
100
AcDbSpline
 62
8
  6
HIDDEN
 70
0
 71
3
 72
9
 73
5
 74
0
 42
0.0000001
 43
0.0000001
 44
0.0000000001
 40
0.0
 40
0.0
 40
0.0
 40
0.0
 40
0.2539309255
 40
1.0
 40
1.0
 40
1.0
 40
1.0
 10
64.9918892596
 20
75.5899735671
 30
0.0
 10
65.0475328431
 20
75.5575592767
 30
0.0
 10
65.266035932
 20
75.4288566317
 30
0.0
 10
65.4818158385
 20
75.2953856057
 30
0.0
 10
65.6396524177
 20
75.1910549662
 30
0.0
  0
SPLINE
  5
463
100
AcDbEntity
  8
DEFAULT_2
100
AcDbSpline
 62
8
  6
HIDDEN
 70
0
 71
3
 72
15
 73
11
 74
0
 42
0.0000001
 43
0.0000001
 44
0.0000000001
 40
0.0
 40
0.0
 40
0.0
 40
0.0
 40
0.108252355
 40
0.2268784026
 40
0.3584563097
 40
0.5001420893
 40
0.6417730821
 40
0.7732658424
 40
0.8917830483
 40
1.0
 40
1.0
 40
1.0
 40
1.0
 10
64.9918892596
 20
76.6477343666
 30
0.0
 10
64.9529076297
 20
76.625026234
 30
0.0
 10
64.8772382731
 20
76.5662432009
 30
0.0
 10
64.7865308933
 20
76.4454313494
 30
0.0
 10
64.7250655905
 20
76.2921040661
 30
0.0
 10
64.7031438637
 20
76.1186962077
 30
0.0
 10
64.7251288257
 20
75.945330921
 30
0.0
 10
64.7866297299
 20
75.792132518
 30
0.0
 10
64.8772976379
 20
75.6714177319
 30
0.0
 10
64.9529203784
 20
75.612674273
 30
0.0
 10
64.9918892596
 20
75.5899735671
 30
0.0
  0
SPLINE
  5
464
100
AcDbEntity
  8
DEFAULT_2
100
AcDbSpline
 62
8
  6
HIDDEN
 70
0
 71
3
 72
9
 73
5
 74
0
 42
0.0000001
 43
0.0000001
 44
0.0000000001
 40
0.0
 40
0.0
 40
0.0
 40
0.0
 40
0.2456105347
 40
1.0
 40
1.0
 40
1.0
 40
1.0
 10
65.6396529175
 20
100.0466532979
 30
0.0
 10
65.5876911678
 20
100.012306359
 30
0.0
 10
65.3746839809
 20
99.8746485455
 30
0.0
 10
65.1572008424
 20
99.744034017
 30
0.0
 10
64.9918892596
 20
99.6477343666
 30
0.0
  0
SPLINE
  5
465
100
AcDbEntity
  8
DEFAULT_2
100
AcDbSpline
 62
8
  6
HIDDEN
 70
0
 71
3
 72
15
 73
11
 74
0
 42
0.0000001
 43
0.0000001
 44
0.0000000001
 40
0.0
 40
0.0
 40
0.0
 40
0.0
 40
0.1455692679
 40
0.2897329038
 40
0.4293659982
 40
0.5606622888
 40
0.6812067183
 40
0.7923844091
 40
0.8977216643
 40
1.0
 40
1.0
 40
1.0
 40
1.0
 10
65.6396524177
 20
86.8212177186
 30
0.0
 10
65.6835492756
 20
86.8826294248
 30
0.0
 10
65.7663587513
 20
87.0082516206
 30
0.0
 10
65.8695725734
 20
87.2061182605
 30
0.0
 10
65.9412575261
 20
87.4101623077
 30
0.0
 10
65.9692451859
 20
87.6131165987
 30
0.0
 10
65.9451950203
 20
87.8024014118
 30
0.0
 10
65.873569652
 20
87.9644008144
 30
0.0
 10
65.768670563
 20
88.0941675828
 30
0.0
 10
65.6838980635
 20
88.1618084091
 30
0.0
 10
65.6396524177
 20
88.1910549662
 30
0.0
  0
SPLINE
  5
466
100
AcDbEntity
  8
DEFAULT_2
100
AcDbSpline
 62
8
  6
HIDDEN
 70
0
 71
3
 72
17
 73
13
 74
0
 42
0.0000001
 43
0.0000001
 44
0.0000000001
 40
0.0
 40
0.0
 40
0.0
 40
0.0
 40
0.1767879383
 40
0.3506281175
 40
0.5156099211
 40
0.6639287242
 40
0.7859487171
 40
0.8348441701
 40
0.8753602593
 40
0.9088979212
 40
0.9383917425
 40
1.0
 40
1.0
 40
1.0
 40
1.0
 10
64.9918892596
 20
85.9769157423
 30
0.0
 10
64.9645743563
 20
85.9432386481
 30
0.0
 10
64.9122743132
 20
85.8748926654
 30
0.0
 10
64.8417260241
 20
85.7698362083
 30
0.0
 10
64.7823499126
 20
85.6659677095
 30
0.0
 10
64.7381497515
 20
85.5686430576
 30
0.0
 10
64.7151707767
 20
85.4932203516
 30
0.0
 10
64.7096793762
 20
85.4414702925
 30
0.0
 10
64.711926619
 20
85.4111674718
 30
0.0
 10
64.7204802704
 20
85.3868070773
 30
0.0
 10
64.7410116742
 20
85.3629638347
 30
0.0
 10
64.7651307604
 20
85.3578769324
 30
0.0
 10
64.7802417882
 20
85.3578639845
 30
0.0
  0
SPLINE
  5
467
100
AcDbEntity
  8
DEFAULT_2
100
AcDbSpline
 62
8
  6
HIDDEN
 70
0
 71
3
 72
8
 73
4
 74
0
 42
0.0000001
 43
0.0000001
 44
0.0000000001
 40
0.0
 40
0.0
 40
0.0
 40
0.0
 40
1.0
 40
1.0
 40
1.0
 40
1.0
 10
64.9918892596
 20
79.2607921914
 30
0.0
 10
65.2153384091
 20
78.9852972358
 30
0.0
 10
65.4333774739
 20
78.7050688707
 30
0.0
 10
65.6396524177
 20
78.416490215
 30
0.0
  0
SPLINE
  5
468
100
AcDbEntity
  8
DEFAULT_2
100
AcDbSpline
 62
8
  6
HIDDEN
 70
0
 71
3
 72
15
 73
11
 74
0
 42
0.0000001
 43
0.0000001
 44
0.0000000001
 40
0.0
 40
0.0
 40
0.0
 40
0.0
 40
0.1022856578
 40
0.2076514834
 40
0.3188524577
 40
0.4394051858
 40
0.5706989937
 40
0.7103136805
 40
0.8544405426
 40
1.0
 40
1.0
 40
1.0
 40
1.0
 10
65.6396526605
 20
90.0466531275
 30
0.0
 10
65.6839014204
 20
90.0759017639
 30
0.0
 10
65.7686906406
 20
90.1435506661
 30
0.0
 10
65.8736061611
 20
90.2733486498
 30
0.0
 10
65.9451964742
 20
90.4353974624
 30
0.0
 10
65.9692457664
 20
90.6246932848
 30
0.0
 10
65.9412528191
 20
90.8276431896
 30
0.0
 10
65.8695391024
 20
91.0316448286
 30
0.0
 10
65.7663400424
 20
91.229478899
 30
0.0
 10
65.6835462737
 20
91.3550827085
 30
0.0
 10
65.6396524177
 20
91.416490215
 30
0.0
  0
SPLINE
  5
469
100
AcDbEntity
  8
DEFAULT_2
100
AcDbSpline
 62
8
  6
HIDDEN
 70
0
 71
3
 72
15
 73
11
 74
0
 42
0.0000001
 43
0.0000001
 44
0.0000000001
 40
0.0
 40
0.0
 40
0.0
 40
0.0
 40
0.108252355
 40
0.2268784026
 40
0.3584563097
 40
0.5001420893
 40
0.6417730821
 40
0.7732658424
 40
0.8917830483
 40
1.0
 40
1.0
 40
1.0
 40
1.0
 10
64.9918892596
 20
89.6477343666
 30
0.0
 10
64.9529076297
 20
89.625026234
 30
0.0
 10
64.8772382731
 20
89.5662432009
 30
0.0
 10
64.7865308933
 20
89.4454313494
 30
0.0
 10
64.7250655905
 20
89.2921040661
 30
0.0
 10
64.7031438637
 20
89.1186962077
 30
0.0
 10
64.7251288257
 20
88.945330921
 30
0.0
 10
64.7866297299
 20
88.792132518
 30
0.0
 10
64.8772976379
 20
88.6714177319
 30
0.0
 10
64.9529203784
 20
88.612674273
 30
0.0
 10
64.9918892596
 20
88.5899735671
 30
0.0
  0
SPLINE
  5
46A
100
AcDbEntity
  8
DEFAULT_2
100
AcDbSpline
 62
8
  6
HIDDEN
 70
0
 71
3
 72
17
 73
13
 74
0
 42
0.0000001
 43
0.0000001
 44
0.0000000001
 40
0.0
 40
0.0
 40
0.0
 40
0.0
 40
0.1767879383
 40
0.3506281175
 40
0.5156099211
 40
0.6639287242
 40
0.7859487171
 40
0.8348441701
 40
0.8753602593
 40
0.9088979212
 40
0.9383917425
 40
1.0
 40
1.0
 40
1.0
 40
1.0
 10
64.9918892596
 20
72.9769157423
 30
0.0
 10
64.9645743563
 20
72.9432386481
 30
0.0
 10
64.9122743132
 20
72.8748926654
 30
0.0
 10
64.8417260241
 20
72.7698362083
 30
0.0
 10
64.7823499126
 20
72.6659677095
 30
0.0
 10
64.7381497515
 20
72.5686430576
 30
0.0
 10
64.7151707767
 20
72.4932203516
 30
0.0
 10
64.7096793762
 20
72.4414702925
 30
0.0
 10
64.711926619
 20
72.4111674718
 30
0.0
 10
64.7204802704
 20
72.3868070773
 30
0.0
 10
64.7410116742
 20
72.3629638347
 30
0.0
 10
64.7651307604
 20
72.3578769324
 30
0.0
 10
64.7802417882
 20
72.3578639845
 30
0.0
  0
SPLINE
  5
46B
100
AcDbEntity
  8
DEFAULT_2
100
AcDbSpline
 62
8
  6
HIDDEN
 70
0
 71
3
 72
15
 73
11
 74
0
 42
0.0000001
 43
0.0000001
 44
0.0000000001
 40
0.0
 40
0.0
 40
0.0
 40
0.0
 40
0.1455692679
 40
0.2897329038
 40
0.4293659982
 40
0.5606622888
 40
0.6812067183
 40
0.7923844091
 40
0.8977216643
 40
1.0
 40
1.0
 40
1.0
 40
1.0
 10
65.6396524177
 20
73.8212177186
 30
0.0
 10
65.6835492756
 20
73.8826294248
 30
0.0
 10
65.7663587513
 20
74.0082516206
 30
0.0
 10
65.8695725734
 20
74.2061182605
 30
0.0
 10
65.9412575261
 20
74.4101623077
 30
0.0
 10
65.9692451859
 20
74.6131165987
 30
0.0
 10
65.9451950203
 20
74.8024014118
 30
0.0
 10
65.873569652
 20
74.9644008144
 30
0.0
 10
65.768670563
 20
75.0941675828
 30
0.0
 10
65.6838980635
 20
75.1618084091
 30
0.0
 10
65.6396524177
 20
75.1910549662
 30
0.0
  0
SPLINE
  5
46C
100
AcDbEntity
  8
DEFAULT_2
100
AcDbSpline
 62
8
  6
HIDDEN
 70
0
 71
3
 72
9
 73
5
 74
0
 42
0.0000001
 43
0.0000001
 44
0.0000000001
 40
0.0
 40
0.0
 40
0.0
 40
0.0
 40
0.2456105374
 40
1.0
 40
1.0
 40
1.0
 40
1.0
 10
65.63965266
 20
90.0466531275
 30
0.0
 10
65.5876909297
 20
90.0123062038
 30
0.0
 10
65.3746838255
 20
89.874648452
 30
0.0
 10
65.1572007748
 20
89.7440339776
 30
0.0
 10
64.9918892596
 20
89.6477343666
 30
0.0
  0
SPLINE
  5
46D
100
AcDbEntity
  8
DEFAULT_2
100
AcDbSpline
 62
8
  6
HIDDEN
 70
0
 71
3
 72
8
 73
4
 74
0
 42
0.0000001
 43
0.0000001
 44
0.0000000001
 40
0.0
 40
0.0
 40
0.0
 40
0.0
 40
1.0
 40
1.0
 40
1.0
 40
1.0
 10
64.9918892596
 20
92.2607921914
 30
0.0
 10
65.2153384091
 20
91.9852972358
 30
0.0
 10
65.4333774739
 20
91.7050688707
 30
0.0
 10
65.6396524177
 20
91.416490215
 30
0.0
  0
SPLINE
  5
46E
100
AcDbEntity
  8
DEFAULT_2
100
AcDbSpline
 62
8
  6
HIDDEN
 70
0
 71
3
 72
9
 73
5
 74
0
 42
0.0000001
 43
0.0000001
 44
0.0000000001
 40
0.0
 40
0.0
 40
0.0
 40
0.0
 40
0.2539309255
 40
1.0
 40
1.0
 40
1.0
 40
1.0
 10
64.9918892596
 20
88.5899735671
 30
0.0
 10
65.0475328431
 20
88.5575592767
 30
0.0
 10
65.266035932
 20
88.4288566317
 30
0.0
 10
65.4818158385
 20
88.2953856057
 30
0.0
 10
65.6396524177
 20
88.1910549662
 30
0.0
  0
SPLINE
  5
46F
100
AcDbEntity
  8
DEFAULT_2
100
AcDbSpline
 62
8
  6
HIDDEN
 70
0
 71
3
 72
8
 73
4
 74
0
 42
0.0000001
 43
0.0000001
 44
0.0000000001
 40
0.0
 40
0.0
 40
0.0
 40
0.0
 40
1.0
 40
1.0
 40
1.0
 40
1.0
 10
65.6396524177
 20
86.8212177186
 30
0.0
 10
65.4333774739
 20
86.532639063
 30
0.0
 10
65.2153384091
 20
86.2524106978
 30
0.0
 10
64.9918892596
 20
85.9769157423
 30
0.0
  0
SPLINE
  5
470
100
AcDbEntity
  8
DEFAULT_2
100
AcDbSpline
 62
8
  6
HIDDEN
 70
0
 71
3
 72
15
 73
11
 74
0
 42
0.0000001
 43
0.0000001
 44
0.0000000001
 40
0.0
 40
0.0
 40
0.0
 40
0.0
 40
0.1455692679
 40
0.2897329038
 40
0.4293659982
 40
0.5606622888
 40
0.6812067183
 40
0.7923844091
 40
0.8977216643
 40
1.0
 40
1.0
 40
1.0
 40
1.0
 10
65.6396524177
 20
106.8212177186
 30
0.0
 10
65.6835492756
 20
106.8826294248
 30
0.0
 10
65.7663587513
 20
107.0082516206
 30
0.0
 10
65.8695725734
 20
107.2061182605
 30
0.0
 10
65.9412575261
 20
107.4101623077
 30
0.0
 10
65.9692451859
 20
107.6131165987
 30
0.0
 10
65.9451950203
 20
107.8024014118
 30
0.0
 10
65.873569652
 20
107.9644008144
 30
0.0
 10
65.768670563
 20
108.0941675828
 30
0.0
 10
65.6838980635
 20
108.1618084091
 30
0.0
 10
65.6396524177
 20
108.1910549662
 30
0.0
  0
SPLINE
  5
471
100
AcDbEntity
  8
DEFAULT_2
100
AcDbSpline
 62
8
  6
HIDDEN
 70
0
 71
3
 72
17
 73
13
 74
0
 42
0.0000001
 43
0.0000001
 44
0.0000000001
 40
0.0
 40
0.0
 40
0.0
 40
0.0
 40
0.1767879383
 40
0.3506281175
 40
0.5156099211
 40
0.6639287242
 40
0.7859487171
 40
0.8348441701
 40
0.8753602593
 40
0.9088979212
 40
0.9383917425
 40
1.0
 40
1.0
 40
1.0
 40
1.0
 10
64.9918892596
 20
105.9769157423
 30
0.0
 10
64.9645743563
 20
105.9432386481
 30
0.0
 10
64.9122743132
 20
105.8748926654
 30
0.0
 10
64.8417260241
 20
105.7698362083
 30
0.0
 10
64.7823499126
 20
105.6659677095
 30
0.0
 10
64.7381497515
 20
105.5686430576
 30
0.0
 10
64.7151707767
 20
105.4932203516
 30
0.0
 10
64.7096793762
 20
105.4414702925
 30
0.0
 10
64.711926619
 20
105.4111674718
 30
0.0
 10
64.7204802704
 20
105.3868070773
 30
0.0
 10
64.7410116742
 20
105.3629638347
 30
0.0
 10
64.7651307604
 20
105.3578769324
 30
0.0
 10
64.7802417882
 20
105.3578639845
 30
0.0
  0
SPLINE
  5
472
100
AcDbEntity
  8
DEFAULT_2
100
AcDbSpline
 62
8
  6
HIDDEN
 70
0
 71
3
 72
9
 73
5
 74
0
 42
0.0000001
 43
0.0000001
 44
0.0000000001
 40
0.0
 40
0.0
 40
0.0
 40
0.0
 40
0.5464731167
 40
1.0
 40
1.0
 40
1.0
 40
1.0
 10
64.8645904763
 20
92.8592993733
 30
0.0
 10
64.849900822
 20
92.8653423519
 30
0.0
 10
64.8224403918
 20
92.875045069
 30
0.0
 10
64.793424218
 20
92.879860026
 30
0.0
 10
64.7802417834
 20
92.8798530709
 30
0.0
  0
SPLINE
  5
473
100
AcDbEntity
  8
DEFAULT_2
100
AcDbSpline
 62
8
  6
HIDDEN
 70
0
 71
3
 72
9
 73
5
 74
0
 42
0.0000001
 43
0.0000001
 44
0.0000000001
 40
0.0
 40
0.0
 40
0.0
 40
0.0
 40
0.5464731167
 40
1.0
 40
1.0
 40
1.0
 40
1.0
 10
64.8645904763
 20
102.8592993733
 30
0.0
 10
64.849900822
 20
102.8653423519
 30
0.0
 10
64.8224403918
 20
102.875045069
 30
0.0
 10
64.793424218
 20
102.879860026
 30
0.0
 10
64.7802417834
 20
102.8798530709
 30
0.0
  0
SPLINE
  5
474
100
AcDbEntity
  8
DEFAULT_2
100
AcDbSpline
 62
8
  6
HIDDEN
 70
0
 71
3
 72
9
 73
5
 74
0
 42
0.0000001
 43
0.0000001
 44
0.0000000001
 40
0.0
 40
0.0
 40
0.0
 40
0.0
 40
0.5464731167
 40
1.0
 40
1.0
 40
1.0
 40
1.0
 10
64.8645904763
 20
112.8592993733
 30
0.0
 10
64.849900822
 20
112.8653423519
 30
0.0
 10
64.8224403918
 20
112.875045069
 30
0.0
 10
64.793424218
 20
112.879860026
 30
0.0
 10
64.7802417834
 20
112.8798530709
 30
0.0
  0
ELLIPSE
  5
475
100
AcDbEntity
  8
DEFAULT_2
100
AcDbEllipse
 62
8
  6
HIDDEN
 10
33.3272307574
 20
40.1110459511
 30
0.0
 11
-0.0406865246
 21
0.1576411457
 31
0.0
 40
0.3572681643
 41
-1.2389227987
 42
-0.012300511
  0
ENDSEC
  0
SECTION
  2
OBJECTS
  0
DICTIONARY
  5
476
100
AcDbDictionary
  3
ACAD_GROUP
350
477
  3
ACAD_MLINESTYLE
350
478
  0
DICTIONARY
  5
477
102
{ACAD_REACTORS
330
476
102
}
100
AcDbDictionary
  0
DICTIONARY
  5
478
102
{ACAD_REACTORS
330
476
102
}
100
AcDbDictionary
  3
STANDARD
350
479
  0
MLINESTYLE
  5
479
102
{ACAD_REACTORS
330
478
102
}
100
AcDbMlineStyle
  2
STANDARD
 70
0
  3

 62
256
 51
90.0
 52
90.0
 71
2
 49
0.5
 62
256
  6
BYLAYER
 49
-0.5
 62
256
  6
BYLAYER
  0
ENDSEC
  0
EOF
