999
DXF file: d:\tmp\workingDir\0000109846\5_071261_0_00000_mkt_q_03_01.dxf
999
Pro/ENGINEER 2020184 by Parametric Technology Corporation
  0
SECTION
  2
HEADER
  9
$ACADVER
  1
AC1014
  9
$DWGCODEPAGE
  3
ANSI_1252
  9
$EXTMAX
 10
100.076
 20
130.0
 30
0.0
  9
$EXTMIN
 10
-0.0
 20
0.0
 30
0.0
  9
$LIMMIN
 10
-0.0
 20
0.0
  9
$LIMMAX
 10
100.076
 20
130.0
  9
$VIEWCTR
 10
50.038
 20
65.0
  9
$VIEWSIZE
 40
130.0
  9
$CLAYER
  8
0
  9
$LTSCALE
 40
8.4740740741
  9
$CELTYPE
  6
BYLAYER
  9
$DIMSCALE
 40
1.0
  9
$DIMASZ
 40
3.5
  9
$DIMEXO
 40
0.0
  9
$DIMDLI
 40
5.8548148148
  9
$DIMEXE
 40
2.0
  9
$DIMCEN
 40
1.3866666667
  9
$DIMLFAC
 40
1.0
  9
$DIMBLK
  1
_ARROW_FILLED
  9
$DIMALT
 70
0
  9
$DIMALTF
 40
0.0393700787
  9
$DIMTXT
 40
3.5
  9
$DIMTOL
 70
1
  9
$DIMLIM
 70
0
  9
$DIMTFAC
 40
1.0
  9
$DIMTP
 40
0.01
  9
$DIMTM
 40
0.01
  9
$DIMGAP
 40
0.625
  9
$AUNITS
 70
0
  9
$PDMODE
 70
0
  9
$PDSIZE
 40
0.04
  9
$HANDSEED
  5
452
  9
$TILEMODE
 70
1
  9
$MEASUREMENT
 70
1
  0
ENDSEC
  0
SECTION
  2
CLASSES
  0
ENDSEC
  0
SECTION
  2
TABLES
  0
TABLE
  2
VPORT
  5
8
100
AcDbSymbolTable
 70
2
  0
VPORT
  5
1F4
100
AcDbSymbolTableRecord
100
AcDbViewportTableRecord
  2
*ACTIVE
 70
0
 10
0.0
 20
0.0
 11
1.0
 21
1.0
 12
50.038
 22
65.0
 13
0.0
 23
0.0
 14
1.0
 24
1.0
 15
0.0
 25
0.0
 16
0.0
 26
0.0
 36
1.0
 17
0.0
 27
0.0
 37
0.0
 40
130.0
 41
0.7698153846
 42
50.0
 43
0.0
 44
0.0
 50
0.0
 51
0.0
 71
0
 72
100
 73
1
 74
1
 75
0
 76
0
 77
0
 78
0
  0
ENDTAB
  0
TABLE
  2
LTYPE
  5
5
100
AcDbSymbolTable
 70
6
  0
LTYPE
  5
14
100
AcDbSymbolTableRecord
100
AcDbLinetypeTableRecord
  2
BYBLOCK
 70
0
  3

 72
65
 73
0
 40
0.0
  0
LTYPE
  5
15
100
AcDbSymbolTableRecord
100
AcDbLinetypeTableRecord
  2
BYLAYER
 70
0
  3

 72
65
 73
0
 40
0.0
  0
LTYPE
  5
16
100
AcDbSymbolTableRecord
100
AcDbLinetypeTableRecord
  2
CONTINUOUS
 70
64
  3
Solid line
 72
65
 73
0
 40
0.0
  0
LTYPE
  5
1F5
100
AcDbSymbolTableRecord
100
AcDbLinetypeTableRecord
  2
CENTER
 70
64
  3
____ _ ____ _ ____ _ ____ _ ____ _ ____ _ ____
 72
65
 73
4
 40
0.6
 49
0.375
 74
0
 49
-0.075
 74
0
 49
0.075
 74
0
 49
-0.075
 74
0
  0
LTYPE
  5
1F6
100
AcDbSymbolTableRecord
100
AcDbLinetypeTableRecord
  2
HIDDEN
 70
64
  3
- - - - - - - - - - - - - - - - - - - -
 72
65
 73
2
 40
0.2
 49
0.1
 74
0
 49
-0.1
 74
0
  0
LTYPE
  5
1F7
100
AcDbSymbolTableRecord
100
AcDbLinetypeTableRecord
  2
PHANTOM
 70
64
  3
_____ _ _ _____ _ _ _____ _ _ _____
 72
65
 73
6
 40
0.8
 49
0.45
 74
0
 49
-0.05
 74
0
 49
0.1
 74
0
 49
-0.05
 74
0
 49
0.1
 74
0
 49
-0.05
 74
0
  0
LTYPE
  5
1F8
100
AcDbSymbolTableRecord
100
AcDbLinetypeTableRecord
  2
DOT
 70
64
  3
. . . . . . . . . . . . . . . . . . . .
 72
65
 73
2
 40
0.2
 49
0.1
 74
0
 49
-0.1
 74
0
  0
LTYPE
  5
1F9
100
AcDbSymbolTableRecord
100
AcDbLinetypeTableRecord
  2
DASHED
 70
64
  3
- - - - - - - - - - - - - - - - - - - -
 72
65
 73
2
 40
0.2
 49
0.1
 74
0
 49
-0.1
 74
0
  0
ENDTAB
  0
TABLE
  2
LAYER
  5
2
100
AcDbSymbolTable
 70
36
  0
LAYER
  5
10
100
AcDbSymbolTableRecord
100
AcDbLayerTableRecord
  2
0
 70
0
 62
7
  6
CONTINUOUS
  0
LAYER
  5
1FA
100
AcDbSymbolTableRecord
100
AcDbLayerTableRecord
  2
DEFAULT_1
 70
0
 62
7
  6
CENTER
  0
LAYER
  5
1FB
100
AcDbSymbolTableRecord
100
AcDbLayerTableRecord
  2
DEFAULT_2
 70
0
 62
8
  6
HIDDEN
  0
LAYER
  5
1FC
100
AcDbSymbolTableRecord
100
AcDbLayerTableRecord
  2
DEFAULT_3
 70
0
 62
7
  6
PHANTOM
  0
LAYER
  5
1FD
100
AcDbSymbolTableRecord
100
AcDbLayerTableRecord
  2
A_ACHSEN
 70
0
 62
7
  6
CONTINUOUS
  0
LAYER
  5
1FE
100
AcDbSymbolTableRecord
100
AcDbLayerTableRecord
  2
A_BASISEBENEN
 70
0
 62
7
  6
CONTINUOUS
  0
LAYER
  5
1FF
100
AcDbSymbolTableRecord
100
AcDbLayerTableRecord
  2
A_BEMASSUNGEN
 70
0
 62
7
  6
CONTINUOUS
  0
LAYER
  5
200
100
AcDbSymbolTableRecord
100
AcDbLayerTableRecord
  2
A_BOHRUNGEN
 70
0
 62
7
  6
CONTINUOUS
  0
LAYER
  5
201
100
AcDbSymbolTableRecord
100
AcDbLayerTableRecord
  2
A_EBENEN
 70
0
 62
7
  6
CONTINUOUS
  0
LAYER
  5
202
100
AcDbSymbolTableRecord
100
AcDbLayerTableRecord
  2
A_FASEN
 70
0
 62
7
  6
CONTINUOUS
  0
LAYER
  5
203
100
AcDbSymbolTableRecord
100
AcDbLayerTableRecord
  2
A_FLAECHEN
 70
0
 62
7
  6
CONTINUOUS
  0
LAYER
  5
204
100
AcDbSymbolTableRecord
100
AcDbLayerTableRecord
  2
A_FL_VERBAENDE
 70
0
 62
7
  6
CONTINUOUS
  0
LAYER
  5
205
100
AcDbSymbolTableRecord
100
AcDbLayerTableRecord
  2
A_KURVEN
 70
0
 62
7
  6
CONTINUOUS
  0
LAYER
  5
206
100
AcDbSymbolTableRecord
100
AcDbLayerTableRecord
  2
A_NOTIZEN_SYMB
 70
0
 62
7
  6
CONTINUOUS
  0
LAYER
  5
207
100
AcDbSymbolTableRecord
100
AcDbLayerTableRecord
  2
A_PUNKTE
 70
0
 62
7
  6
CONTINUOUS
  0
LAYER
  5
208
100
AcDbSymbolTableRecord
100
AcDbLayerTableRecord
  2
A_RUNDUNGEN
 70
0
 62
7
  6
CONTINUOUS
  0
LAYER
  5
209
100
AcDbSymbolTableRecord
100
AcDbLayerTableRecord
  2
BASISEBENEN
 70
0
 62
7
  6
CONTINUOUS
  0
LAYER
  5
20A
100
AcDbSymbolTableRecord
100
AcDbLayerTableRecord
  2
XSEC_DATUMS
 70
0
 62
7
  6
CONTINUOUS
  0
ENDTAB
  0
TABLE
  2
STYLE
  5
3
100
AcDbSymbolTable
 70
1
  0
STYLE
  5
11
100
AcDbSymbolTableRecord
100
AcDbTextStyleTableRecord
  2
STANDARD
 70
0
 40
0.0
 41
1.0
 50
0.0
 71
0
 42
0.2
  3
txt
  4

  0
STYLE
  5
20B
100
AcDbSymbolTableRecord
100
AcDbTextStyleTableRecord
  2
TEXTSTYLE_1
 70
0
 40
0.0
 41
0.8
 50
0.0
 71
0
 42
0.2
  3
gdt
  4

  0
ENDTAB
  0
TABLE
  2
VIEW
  5
6
100
AcDbSymbolTable
 70
0
  0
ENDTAB
  0
TABLE
  2
UCS
  5
7
100
AcDbSymbolTable
 70
0
  0
ENDTAB
  0
TABLE
  2
APPID
  5
9
100
AcDbSymbolTable
 70
1
  0
APPID
  5
20C
100
AcDbSymbolTableRecord
100
AcDbRegAppTableRecord
  2
ACAD
 70
0
  0
ENDTAB
  0
TABLE
  2
BLOCK_RECORD
  5
1
100
AcDbSymbolTable
 70
0
  0
BLOCK_RECORD
  5
1F
100
AcDbSymbolTableRecord
100
AcDbBlockTableRecord
  2
*MODEL_SPACE
  0
BLOCK_RECORD
  5
1B
100
AcDbSymbolTableRecord
100
AcDbBlockTableRecord
  2
*PAPER_SPACE
  0
BLOCK_RECORD
  5
20D
100
AcDbSymbolTableRecord
100
AcDbBlockTableRecord
  2
_ARROW_FILLED
  0
BLOCK_RECORD
  5
20E
100
AcDbSymbolTableRecord
100
AcDbBlockTableRecord
  2
*D0
  0
BLOCK_RECORD
  5
20F
100
AcDbSymbolTableRecord
100
AcDbBlockTableRecord
  2
*D1
  0
BLOCK_RECORD
  5
210
100
AcDbSymbolTableRecord
100
AcDbBlockTableRecord
  2
*D2
  0
BLOCK_RECORD
  5
211
100
AcDbSymbolTableRecord
100
AcDbBlockTableRecord
  2
*D3
  0
BLOCK_RECORD
  5
212
100
AcDbSymbolTableRecord
100
AcDbBlockTableRecord
  2
*D4
  0
ENDTAB
  0
TABLE
  2
DIMSTYLE
  5
A
100
AcDbSymbolTable
 70
1
  0
DIMSTYLE
105
213
100
AcDbSymbolTableRecord
100
AcDbDimStyleTableRecord
  2
STANDARD
 70
0
  3

  4

  5
_ARROW_FILLED
  6
_ARROW_FILLED
  7
_ARROW_FILLED
 40
1.0
 41
3.5
 42
0.0
 43
0.38
 44
2.0
 45
0.0
 46
0.0
 47
0.01
 48
0.01
140
3.5
141
0.09
142
0.0
143
25.4
144
1.0
145
0.0
146
1.0
147
0.625
 71
1
 72
0
 73
0
 74
0
 75
0
 76
0
 77
1
 78
8
 79
2
170
0
171
1
172
0
173
0
174
0
175
0
176
0
177
0
178
5
270
2
271
2
272
2
273
2
274
2
275
0
280
0
281
0
282
0
283
1
284
8
285
0
286
0
287
3
288
0
340
11
  0
DIMSTYLE
105
214
100
AcDbSymbolTableRecord
100
AcDbDimStyleTableRecord
  2
DIMSTYLE_1
 70
0
  3

  4

  5
_ARROW_FILLED
  6
_ARROW_FILLED
  7
_ARROW_FILLED
 40
1.0
 41
3.5
 42
0.0
 43
0.38
 44
2.0
 45
0.0
 46
0.0
 47
0.2
 48
0.2
140
3.5
141
0.09
142
0.0
143
25.4
144
1.0
145
0.0
146
1.0
147
0.875
 71
0
 72
0
 73
0
 74
0
 75
0
 76
0
 77
1
 78
8
 79
2
170
0
171
1
172
0
173
0
174
0
175
0
176
0
177
0
178
5
270
2
271
4
272
-1
273
2
274
2
275
0
280
0
281
0
282
0
283
1
284
8
285
0
286
0
287
3
288
0
340
11
  0
DIMSTYLE
105
215
100
AcDbSymbolTableRecord
100
AcDbDimStyleTableRecord
  2
DIMSTYLE_2
 70
0
  3

  4

  5
_ARROW_FILLED
  6
_ARROW_FILLED
  7
_ARROW_FILLED
 40
1.0
 41
3.5
 42
0.0
 43
0.38
 44
2.0
 45
0.0
 46
0.0
 47
0.3
 48
0.3
140
3.5
141
0.09
142
0.0
143
25.4
144
1.0
145
0.0
146
1.0
147
0.875
 71
0
 72
0
 73
0
 74
0
 75
0
 76
0
 77
1
 78
8
 79
2
170
0
171
1
172
0
173
0
174
0
175
0
176
0
177
0
178
5
270
2
271
4
272
-1
273
2
274
2
275
0
280
0
281
0
282
0
283
1
284
8
285
0
286
0
287
3
288
0
340
11
  0
ENDTAB
  0
ENDSEC
  0
SECTION
  2
BLOCKS
  0
BLOCK
  5
20
100
AcDbEntity
  8
0
100
AcDbBlockBegin
  2
*MODEL_SPACE
 70
0
 10
0.0
 20
0.0
 30
0.0
  3
*MODEL_SPACE
  1

  0
ENDBLK
  5
21
100
AcDbEntity
  8
0
100
AcDbBlockEnd
  0
BLOCK
  5
1C
100
AcDbEntity
  8
0
100
AcDbBlockBegin
  2
*PAPER_SPACE
 70
0
 10
0.0
 20
0.0
 30
0.0
  3
*PAPER_SPACE
  1

  0
ENDBLK
  5
1D
100
AcDbEntity
  8
0
100
AcDbBlockEnd
  0
BLOCK
  5
216
100
AcDbEntity
  8
0
100
AcDbBlockBegin
  2
_ARROW_FILLED
 70
64
 10
0.0
 20
0.0
  3
_ARROW_FILLED
  1

  0
SOLID
  5
217
100
AcDbEntity
  8
0
  6
BYBLOCK
 62
0
100
AcDbTrace
 10
0.0
 20
0.0
 11
-1.0
 21
0.1428571429
 12
-1.0
 22
-0.1428571429
 13
-1.0
 23
-0.1428571429
  0
ENDBLK
  5
218
100
AcDbEntity
  8
0
  6
BYBLOCK
 62
0
100
AcDbBlockEnd
  0
BLOCK
  5
219
100
AcDbEntity
  8
A_BEMASSUNGEN
100
AcDbBlockBegin
 62
2
  6
CONTINUOUS
  2
*D0
 70
65
 10
0.0
 20
0.0
  3
*D0
  1

  0
MTEXT
  5
21A
100
AcDbEntity
  8
A_BEMASSUNGEN
100
AcDbMText
 62
5
  6
CONTINUOUS
  7
STANDARD
 71
2
 72
1
 10
74.3624454813
 20
67.760572337
 30
0.0
 11
1.0
 21
0.0
 31
0.0
  1
10
 40
3.5
 41
7.125
  0
LINE
  5
21B
100
AcDbEntity
  8
A_BEMASSUNGEN
100
AcDbLine
 62
2
  6
CONTINUOUS
 10
79.3624454813
 20
51.8369482882
 11
79.3624454813
 21
65.385572337
  0
LINE
  5
21C
100
AcDbEntity
  8
A_BEMASSUNGEN
100
AcDbLine
 62
2
  6
CONTINUOUS
 10
69.3624454813
 20
63.385572337
 11
74.3624454813
 21
63.385572337
  0
LINE
  5
21D
100
AcDbEntity
  8
A_BEMASSUNGEN
100
AcDbLine
 62
2
  6
CONTINUOUS
 10
79.3624454813
 20
63.385572337
 11
74.3624454813
 21
63.385572337
  0
INSERT
  5
21E
100
AcDbEntity
  8
A_BEMASSUNGEN
100
AcDbBlockReference
 62
2
  6
CONTINUOUS
  2
_ARROW_FILLED
 10
69.3624454813
 20
63.385572337
 41
3.5
 42
3.5
 43
3.5
 50
180.0
  0
INSERT
  5
21F
100
AcDbEntity
  8
A_BEMASSUNGEN
100
AcDbBlockReference
 62
2
  6
CONTINUOUS
  2
_ARROW_FILLED
 10
79.3624454813
 20
63.385572337
 41
3.5
 42
3.5
 43
3.5
  0
ENDBLK
  5
220
100
AcDbEntity
  8
0
  6
BYBLOCK
 62
0
100
AcDbBlockEnd
  0
BLOCK
  5
221
100
AcDbEntity
  8
A_BEMASSUNGEN
100
AcDbBlockBegin
 62
2
  6
CONTINUOUS
  2
*D1
 70
65
 10
0.0
 20
0.0
  3
*D1
  1

  0
MTEXT
  5
222
100
AcDbEntity
  8
A_BEMASSUNGEN
100
AcDbMText
 62
5
  6
CONTINUOUS
  7
STANDARD
 71
2
 72
1
 10
74.3624454813
 20
19.4286804452
 30
0.0
 11
1.0
 21
0.0
 31
0.0
  1
10
 40
3.5
 41
7.125
  0
LINE
  5
223
100
AcDbEntity
  8
A_BEMASSUNGEN
100
AcDbLine
 62
2
  6
CONTINUOUS
 10
79.3624454813
 20
38.2390310432
 11
79.3624454813
 21
13.0536804452
  0
LINE
  5
224
100
AcDbEntity
  8
A_BEMASSUNGEN
100
AcDbLine
 62
2
  6
CONTINUOUS
 10
69.3624454813
 20
28.3369482882
 11
69.3624454813
 21
13.0536804452
  0
LINE
  5
225
100
AcDbEntity
  8
A_BEMASSUNGEN
100
AcDbLine
 62
2
  6
CONTINUOUS
 10
79.3624454813
 20
15.0536804452
 11
74.3624454813
 21
15.0536804452
  0
LINE
  5
226
100
AcDbEntity
  8
A_BEMASSUNGEN
100
AcDbLine
 62
2
  6
CONTINUOUS
 10
69.3624454813
 20
15.0536804452
 11
74.3624454813
 21
15.0536804452
  0
INSERT
  5
227
100
AcDbEntity
  8
A_BEMASSUNGEN
100
AcDbBlockReference
 62
2
  6
CONTINUOUS
  2
_ARROW_FILLED
 10
79.3624454813
 20
15.0536804452
 41
3.5
 42
3.5
 43
3.5
  0
INSERT
  5
228
100
AcDbEntity
  8
A_BEMASSUNGEN
100
AcDbBlockReference
 62
2
  6
CONTINUOUS
  2
_ARROW_FILLED
 10
69.3624454813
 20
15.0536804452
 41
3.5
 42
3.5
 43
3.5
 50
180.0
  0
ENDBLK
  5
229
100
AcDbEntity
  8
0
  6
BYBLOCK
 62
0
100
AcDbBlockEnd
  0
BLOCK
  5
22A
100
AcDbEntity
  8
A_BEMASSUNGEN
100
AcDbBlockBegin
 62
2
  6
CONTINUOUS
  2
*D2
 70
65
 10
0.0
 20
0.0
  3
*D2
  1

  0
MTEXT
  5
22B
100
AcDbEntity
  8
A_BEMASSUNGEN
100
AcDbMText
 62
5
  6
CONTINUOUS
  7
STANDARD
 71
2
 72
1
 10
67.3624454813
 20
9.1298114093
 30
0.0
 11
1.0
 21
0.0
 31
0.0
  1
24
 40
3.5
 41
8.25
  0
LINE
  5
22C
100
AcDbEntity
  8
A_BEMASSUNGEN
100
AcDbLine
 62
2
  6
CONTINUOUS
 10
55.3624454813
 20
27.8369482882
 11
55.3624454813
 21
2.7548114093
  0
LINE
  5
22D
100
AcDbEntity
  8
A_BEMASSUNGEN
100
AcDbLine
 62
2
  6
CONTINUOUS
 10
79.3624454813
 20
22.8369482882
 11
79.3624454813
 21
2.7548114093
  0
LINE
  5
22E
100
AcDbEntity
  8
A_BEMASSUNGEN
100
AcDbLine
 62
2
  6
CONTINUOUS
 10
55.3624454813
 20
4.7548114093
 11
67.3624454813
 21
4.7548114093
  0
LINE
  5
22F
100
AcDbEntity
  8
A_BEMASSUNGEN
100
AcDbLine
 62
2
  6
CONTINUOUS
 10
79.3624454813
 20
4.7548114093
 11
67.3624454813
 21
4.7548114093
  0
INSERT
  5
230
100
AcDbEntity
  8
A_BEMASSUNGEN
100
AcDbBlockReference
 62
2
  6
CONTINUOUS
  2
_ARROW_FILLED
 10
55.3624454813
 20
4.7548114093
 41
3.5
 42
3.5
 43
3.5
 50
180.0
  0
INSERT
  5
231
100
AcDbEntity
  8
A_BEMASSUNGEN
100
AcDbBlockReference
 62
2
  6
CONTINUOUS
  2
_ARROW_FILLED
 10
79.3624454813
 20
4.7548114093
 41
3.5
 42
3.5
 43
3.5
  0
ENDBLK
  5
232
100
AcDbEntity
  8
0
  6
BYBLOCK
 62
0
100
AcDbBlockEnd
  0
BLOCK
  5
233
100
AcDbEntity
  8
A_BEMASSUNGEN
100
AcDbBlockBegin
 62
2
  6
CONTINUOUS
  2
*D3
 70
65
 10
0.0
 20
0.0
  3
*D3
  1

  0
MTEXT
  5
234
100
AcDbEntity
  8
A_BEMASSUNGEN
100
AcDbMText
 62
5
  6
CONTINUOUS
  7
STANDARD
 71
2
 72
1
 10
14.272796198
 20
37.3369482882
 30
0.0
 11
0.0
 21
1.0
 31
0.0
  1
29
 40
3.5
 41
8.25
  0
LINE
  5
235
100
AcDbEntity
  8
A_BEMASSUNGEN
100
AcDbLine
 62
2
  6
CONTINUOUS
 10
31.7581415603
 20
22.8369482882
 11
16.647796198
 21
22.8369482882
  0
LINE
  5
236
100
AcDbEntity
  8
A_BEMASSUNGEN
100
AcDbLine
 62
2
  6
CONTINUOUS
 10
69.3624454813
 20
51.8369482882
 11
16.647796198
 21
51.8369482882
  0
LINE
  5
237
100
AcDbEntity
  8
A_BEMASSUNGEN
100
AcDbLine
 62
2
  6
CONTINUOUS
 10
18.647796198
 20
22.8369482882
 11
18.647796198
 21
37.3369482882
  0
LINE
  5
238
100
AcDbEntity
  8
A_BEMASSUNGEN
100
AcDbLine
 62
2
  6
CONTINUOUS
 10
18.647796198
 20
51.8369482882
 11
18.647796198
 21
37.3369482882
  0
INSERT
  5
239
100
AcDbEntity
  8
A_BEMASSUNGEN
100
AcDbBlockReference
 62
2
  6
CONTINUOUS
  2
_ARROW_FILLED
 10
18.647796198
 20
22.8369482882
 41
3.5
 42
3.5
 43
3.5
 50
270.0
  0
INSERT
  5
23A
100
AcDbEntity
  8
A_BEMASSUNGEN
100
AcDbBlockReference
 62
2
  6
CONTINUOUS
  2
_ARROW_FILLED
 10
18.647796198
 20
51.8369482882
 41
3.5
 42
3.5
 43
3.5
 50
90.0
  0
ENDBLK
  5
23B
100
AcDbEntity
  8
0
  6
BYBLOCK
 62
0
100
AcDbBlockEnd
  0
BLOCK
  5
23C
100
AcDbEntity
  8
A_BEMASSUNGEN
100
AcDbBlockBegin
 62
2
  6
CONTINUOUS
  2
*D4
 70
65
 10
0.0
 20
0.0
  3
*D4
  1

  0
MTEXT
  5
23D
100
AcDbEntity
  8
A_BEMASSUNGEN
100
AcDbMText
 62
5
  6
CONTINUOUS
  7
STANDARD
 71
2
 72
1
 10
3.702674216
 20
70.8369482882
 30
0.0
 11
0.0
 21
1.0
 31
0.0
  1
96
 40
3.5
 41
8.25
  0
LINE
  5
23E
100
AcDbEntity
  8
A_BEMASSUNGEN
100
AcDbLine
 62
2
  6
CONTINUOUS
 10
65.4335586113
 20
118.8369482882
 11
6.077674216
 21
118.8369482882
  0
LINE
  5
23F
100
AcDbEntity
  8
A_BEMASSUNGEN
100
AcDbLine
 62
2
  6
CONTINUOUS
 10
29.3624454813
 20
22.8369482882
 11
6.077674216
 21
22.8369482882
  0
LINE
  5
240
100
AcDbEntity
  8
A_BEMASSUNGEN
100
AcDbLine
 62
2
  6
CONTINUOUS
 10
8.077674216
 20
118.8369482882
 11
8.077674216
 21
70.8369482882
  0
LINE
  5
241
100
AcDbEntity
  8
A_BEMASSUNGEN
100
AcDbLine
 62
2
  6
CONTINUOUS
 10
8.077674216
 20
22.8369482882
 11
8.077674216
 21
70.8369482882
  0
INSERT
  5
242
100
AcDbEntity
  8
A_BEMASSUNGEN
100
AcDbBlockReference
 62
2
  6
CONTINUOUS
  2
_ARROW_FILLED
 10
8.077674216
 20
118.8369482882
 41
3.5
 42
3.5
 43
3.5
 50
90.0
  0
INSERT
  5
243
100
AcDbEntity
  8
A_BEMASSUNGEN
100
AcDbBlockReference
 62
2
  6
CONTINUOUS
  2
_ARROW_FILLED
 10
8.077674216
 20
22.8369482882
 41
3.5
 42
3.5
 43
3.5
 50
270.0
  0
ENDBLK
  5
244
100
AcDbEntity
  8
0
  6
BYBLOCK
 62
0
100
AcDbBlockEnd
  0
ENDSEC
  0
SECTION
  2
ENTITIES
  0
DIMENSION
  5
245
100
AcDbEntity
  8
A_BEMASSUNGEN
100
AcDbDimension
 62
2
  6
CONTINUOUS
  2
*D0
 10
79.3624454813
 20
63.385572337
 11
73.8624419126
 21
63.385572337
 70
160
  3
DIMSTYLE_1
100
AcDbAlignedDimension
 13
69.3624454813
 23
53.8369482882
 14
79.3624454813
 24
51.8369482882
100
AcDbRotatedDimension
  0
DIMENSION
  5
246
100
AcDbEntity
  8
A_BEMASSUNGEN
100
AcDbDimension
 62
2
  6
CONTINUOUS
  2
*D1
 10
69.3624454813
 20
15.0536804452
 11
73.8624419126
 21
15.0536804452
 70
160
  3
DIMSTYLE_1
100
AcDbAlignedDimension
 13
79.3624454813
 23
38.2390310432
 14
69.3624454813
 24
28.3369482882
 50
180.0
100
AcDbRotatedDimension
  0
DIMENSION
  5
247
100
AcDbEntity
  8
A_BEMASSUNGEN
100
AcDbDimension
 62
2
  6
CONTINUOUS
  2
*D2
 10
79.3624454813
 20
4.7548114093
 11
66.8624440828
 21
4.7548114093
 70
160
  3
DIMSTYLE_1
100
AcDbAlignedDimension
 13
55.3624454813
 23
27.8369482882
 14
79.3624454813
 24
22.8369482882
100
AcDbRotatedDimension
  0
DIMENSION
  5
248
100
AcDbEntity
  8
A_BEMASSUNGEN
100
AcDbDimension
 62
2
  6
CONTINUOUS
  2
*D3
 10
18.647796198
 20
51.8369482882
 11
18.647796198
 21
36.8369491823
 70
160
  3
DIMSTYLE_1
100
AcDbAlignedDimension
 13
31.7581415603
 23
22.8369482882
 14
69.3624454813
 24
51.8369482882
 50
90.0
100
AcDbRotatedDimension
  0
DIMENSION
  5
249
100
AcDbEntity
  8
A_BEMASSUNGEN
100
AcDbDimension
 62
2
  6
CONTINUOUS
  2
*D4
 10
8.077674216
 20
22.8369482882
 11
8.077674216
 21
70.3369480993
 70
160
  3
DIMSTYLE_2
100
AcDbAlignedDimension
 13
65.4335586113
 23
118.8369482882
 14
29.3624454813
 24
22.8369482882
 50
270.0
100
AcDbRotatedDimension
  0
LINE
  5
24A
100
AcDbEntity
  8
A_NOTIZEN_SYMB
100
AcDbLine
 62
8
  6
HIDDEN
 10
55.3624454813
 20
38.4369482882
 11
53.8724454813
 21
38.4369482882
  0
LINE
  5
24B
100
AcDbEntity
  8
A_NOTIZEN_SYMB
100
AcDbLine
 62
8
  6
HIDDEN
 10
55.3624454813
 20
41.2369482882
 11
53.8724454813
 21
41.2369482882
  0
LINE
  5
24C
100
AcDbEntity
  8
0
100
AcDbLine
 62
7
  6
CONTINUOUS
 10
29.3624454813
 20
22.8369482882
 11
79.3624454813
 21
22.8369482882
  0
LINE
  5
24D
100
AcDbEntity
  8
0
100
AcDbLine
 62
7
  6
CONTINUOUS
 10
55.3624454813
 20
27.8369482882
 11
79.3624454813
 21
27.8369482882
  0
LINE
  5
24E
100
AcDbEntity
  8
0
100
AcDbLine
 62
7
  6
CONTINUOUS
 10
55.5624454813
 20
27.9369482882
 11
58.5624454813
 21
27.9369482882
  0
LINE
  5
24F
100
AcDbEntity
  8
0
100
AcDbLine
 62
7
  6
CONTINUOUS
 10
66.1624454813
 20
28.3369482882
 11
60.1624454813
 21
28.3369482882
  0
LINE
  5
250
100
AcDbEntity
  8
0
100
AcDbLine
 62
7
  6
CONTINUOUS
 10
67.3624454813
 20
28.3369482882
 11
76.3624454813
 21
28.3369482882
  0
LINE
  5
251
100
AcDbEntity
  8
0
100
AcDbLine
 62
7
  6
CONTINUOUS
 10
60.1624454813
 20
29.4369482882
 11
55.5624454813
 21
29.4369482882
  0
LINE
  5
252
100
AcDbEntity
  8
A_FASEN
100
AcDbLine
 62
7
  6
CONTINUOUS
 10
74.3624454813
 20
31.3369482882
 11
76.3624454813
 21
31.3369482882
  0
LINE
  5
253
100
AcDbEntity
  8
0
100
AcDbLine
 62
7
  6
CONTINUOUS
 10
76.3624454813
 20
31.5869482882
 11
79.3624454813
 21
31.5869482882
  0
LINE
  5
254
100
AcDbEntity
  8
0
100
AcDbLine
 62
7
  6
CONTINUOUS
 10
78.0624454813
 20
31.8369482882
 11
74.6624454813
 21
31.8369482882
  0
LINE
  5
255
100
AcDbEntity
  8
A_FASEN
100
AcDbLine
 62
7
  6
CONTINUOUS
 10
74.3624454813
 20
31.8369482882
 11
74.6624454813
 21
31.8369482882
  0
LINE
  5
256
100
AcDbEntity
  8
0
100
AcDbLine
 62
7
  6
CONTINUOUS
 10
55.5624454813
 20
32.3369482882
 11
60.1624454813
 21
32.3369482882
  0
LINE
  5
257
100
AcDbEntity
  8
A_RUNDUNGEN
100
AcDbLine
 62
7
  6
CONTINUOUS
 10
66.1624454813
 20
32.3369482882
 11
67.3624454813
 21
32.3369482882
  0
LINE
  5
258
100
AcDbEntity
  8
0
100
AcDbLine
 62
7
  6
CONTINUOUS
 10
63.1624454813
 20
32.5869482882
 11
66.1624454813
 21
32.5869482882
  0
LINE
  5
259
100
AcDbEntity
  8
0
100
AcDbLine
 62
7
  6
CONTINUOUS
 10
65.4624454813
 20
32.8369482882
 11
63.1624454813
 21
32.8369482882
  0
LINE
  5
25A
100
AcDbEntity
  8
0
100
AcDbLine
 62
2
  6
CONTINUOUS
 10
59.1124454813
 20
32.8369482882
 11
60.1624454813
 21
32.8369482882
  0
LINE
  5
25B
100
AcDbEntity
  8
0
100
AcDbLine
 62
2
  6
CONTINUOUS
 10
66.1624454813
 20
32.8369482882
 11
67.3624454813
 21
32.8369482882
  0
LINE
  5
25C
100
AcDbEntity
  8
0
100
AcDbLine
 62
7
  6
CONTINUOUS
 10
69.3624454813
 20
33.7369482882
 11
74.2722515896
 21
33.7369482882
  0
LINE
  5
25D
100
AcDbEntity
  8
0
100
AcDbLine
 62
7
  6
CONTINUOUS
 10
74.0624454813
 20
33.8369482882
 11
58.5624454813
 21
33.8369482882
  0
LWPOLYLINE
  5
25E
100
AcDbEntity
  8
DEFAULT_2
100
AcDbPolyline
 62
8
  6
HIDDEN
 90
4
 70
0
 10
35.2621546995
 20
40.3701430908
 10
35.1734861571
 20
40.4131001297
 10
35.0258569493
 20
40.5678662288
 10
34.9191501423
 20
40.746224793
  0
LWPOLYLINE
  5
25F
100
AcDbEntity
  8
DEFAULT_2
100
AcDbPolyline
 62
8
  6
HIDDEN
 90
4
 70
0
 10
35.1444931535
 20
39.6096902518
 10
35.2446647746
 20
39.5017977943
 10
35.4210679376
 20
39.2006088552
 10
35.5653503486
 20
38.8706250054
  0
LINE
  5
260
100
AcDbEntity
  8
DEFAULT_2
100
AcDbLine
 62
8
  6
HIDDEN
 10
34.3190331515
 20
39.8942449283
 11
34.5161530698
 21
39.6657708085
  0
LINE
  5
261
100
AcDbEntity
  8
0
100
AcDbLine
 62
2
  6
CONTINUOUS
 10
58.3624454813
 20
34.3369482882
 11
74.3624454813
 21
34.3369482882
  0
LINE
  5
262
100
AcDbEntity
  8
DEFAULT_2
100
AcDbLine
 62
8
  6
HIDDEN
 10
78.3624454813
 20
34.5275472114
 11
76.1184285455
 21
34.5275472114
  0
LINE
  5
263
100
AcDbEntity
  8
DEFAULT_2
100
AcDbLine
 62
8
  6
HIDDEN
 10
78.3624454813
 20
35.6822477498
 11
76.1184285455
 21
35.6822477498
  0
LINE
  5
264
100
AcDbEntity
  8
0
100
AcDbLine
 62
7
  6
CONTINUOUS
 10
55.5624454813
 20
35.9369482882
 11
58.3624454813
 21
35.9369482882
  0
LINE
  5
265
100
AcDbEntity
  8
A_ACHSEN
100
AcDbLine
 62
7
  6
CENTER
 10
55.3624454813
 20
36.8369482882
 11
81.3624454813
 21
36.8369482882
  0
LINE
  5
266
100
AcDbEntity
  8
DEFAULT_2
100
AcDbLine
 62
8
  6
HIDDEN
 10
39.8774373865
 20
38.4369482882
 11
38.676678658
 21
38.7031500894
  0
LINE
  5
267
100
AcDbEntity
  8
DEFAULT_2
100
AcDbLine
 62
8
  6
HIDDEN
 10
33.5624454813
 20
39.8369482882
 11
35.4889317677
 21
39.4098565609
  0
LINE
  5
268
100
AcDbEntity
  8
DEFAULT_2
100
AcDbLine
 62
8
  6
HIDDEN
 10
36.3248366185
 20
39.224540917
 11
37.989068428
 21
38.8555896074
  0
LWPOLYLINE
  5
269
100
AcDbEntity
  8
DEFAULT_2
100
AcDbPolyline
 62
8
  6
HIDDEN
 90
4
 70
0
 10
37.7378954393
 20
40.5356762215
 10
37.6871033081
 20
40.6109701455
 10
37.4959787502
 20
40.9456028108
 10
37.3407910855
 20
41.2682367469
  0
LWPOLYLINE
  5
26A
100
AcDbEntity
  8
DEFAULT_2
100
AcDbPolyline
 62
8
  6
HIDDEN
 90
4
 70
0
 10
37.6983259284
 20
39.1541338485
 10
37.7975088942
 20
38.9733142014
 10
37.9971646697
 20
38.551015473
 10
38.1572755213
 20
38.1708841031
  0
LINE
  5
26B
100
AcDbEntity
  8
0
100
AcDbLine
 62
7
  6
CONTINUOUS
 10
29.3624454813
 20
42.8369482882
 11
29.3624454813
 21
22.8369482882
  0
LINE
  5
26C
100
AcDbEntity
  8
DEFAULT_2
100
AcDbLine
 62
8
  6
HIDDEN
 10
54.1808156632
 20
39.4643079356
 11
53.8950455275
 21
39.4392727292
  0
LINE
  5
26D
100
AcDbEntity
  8
DEFAULT_2
100
AcDbLine
 62
8
  6
HIDDEN
 10
40.5198244823
 20
40.0535751646
 11
40.1886182892
 21
40.0383031329
  0
LINE
  5
26E
100
AcDbEntity
  8
DEFAULT_2
100
AcDbLine
 62
8
  6
HIDDEN
 10
46.7308932151
 20
41.23665399
 11
46.7389627609
 21
41.2369442142
  0
LWPOLYLINE
  5
26F
100
AcDbEntity
  8
DEFAULT_2
100
AcDbPolyline
 62
8
  6
HIDDEN
 90
4
 70
0
 10
49.9540283992
 20
41.2495339744
 10
49.7875583145
 20
41.2443024023
 10
49.4705877568
 20
41.2381113407
 10
49.2391860547
 20
41.2367503712
  0
LWPOLYLINE
  5
270
100
AcDbEntity
  8
DEFAULT_2
100
AcDbPolyline
 62
8
  6
HIDDEN
 90
4
 70
0
 10
42.453976699
 20
41.2493216995
 10
42.2877869157
 20
41.2441119406
 10
41.9706597639
 20
41.2379731197
 10
41.7388066732
 20
41.2366682267
  0
LWPOLYLINE
  5
271
100
AcDbEntity
  8
DEFAULT_2
100
AcDbPolyline
 62
8
  6
HIDDEN
 90
4
 70
0
 10
47.4535181695
 20
41.2494786304
 10
47.2880600103
 20
41.2443395142
 10
46.9711880143
 20
41.238256508
 10
46.7389627609
 20
41.2369442142
  0
LWPOLYLINE
  5
272
100
AcDbEntity
  8
DEFAULT_2
100
AcDbPolyline
 62
8
  6
HIDDEN
 90
4
 70
0
 10
52.4534559914
 20
41.2494521136
 10
52.2880517236
 20
41.2443244548
 10
51.9711864942
 20
41.238259619
 10
51.7389205297
 20
41.2369578722
  0
LWPOLYLINE
  5
273
100
AcDbEntity
  8
DEFAULT_2
100
AcDbPolyline
 62
8
  6
HIDDEN
 90
4
 70
0
 10
44.9534143069
 20
41.2491832616
 10
44.7877838292
 20
41.2440583135
 10
44.4707487844
 20
41.2380376942
 10
44.2384884985
 20
41.2367963694
  0
LINE
  5
274
100
AcDbEntity
  8
DEFAULT_2
100
AcDbLine
 62
8
  6
HIDDEN
 10
40.2319409949
 20
39.7229517547
 11
39.8993409488
 21
39.7129430339
  0
LINE
  5
275
100
AcDbEntity
  8
DEFAULT_2
100
AcDbLine
 62
8
  6
HIDDEN
 10
78.3624454813
 20
37.9916488266
 11
76.1184285455
 21
37.9916488266
  0
LINE
  5
276
100
AcDbEntity
  8
DEFAULT_2
100
AcDbLine
 62
8
  6
HIDDEN
 10
39.8774373865
 20
38.4369482882
 11
53.8724454813
 21
38.4369482882
  0
LINE
  5
277
100
AcDbEntity
  8
DEFAULT_2
100
AcDbLine
 62
8
  6
HIDDEN
 10
78.3624454813
 20
39.146349365
 11
76.1184285455
 21
39.146349365
  0
LINE
  5
278
100
AcDbEntity
  8
0
100
AcDbLine
 62
2
  6
CONTINUOUS
 10
58.3624454813
 20
39.3369482882
 11
74.3624454813
 21
39.3369482882
  0
LINE
  5
279
100
AcDbEntity
  8
0
100
AcDbLine
 62
7
  6
CONTINUOUS
 10
74.0624454813
 20
39.8369482882
 11
58.8624454813
 21
39.8369482882
  0
LINE
  5
27A
100
AcDbEntity
  8
A_ACHSEN
100
AcDbLine
 62
7
  6
CENTER
 10
30.5624454813
 20
39.8369482882
 11
61.5624454813
 21
39.8369482882
  0
LINE
  5
27B
100
AcDbEntity
  8
0
100
AcDbLine
 62
7
  6
CONTINUOUS
 10
69.3624454813
 20
39.9369482882
 11
74.2722515896
 21
39.9369482882
  0
LINE
  5
27C
100
AcDbEntity
  8
0
100
AcDbLine
 62
7
  6
CONTINUOUS
 10
55.5624454813
 20
40.3369482882
 11
58.5624454813
 21
40.3369482882
  0
LINE
  5
27D
100
AcDbEntity
  8
0
100
AcDbLine
 62
7
  6
CONTINUOUS
 10
65.4624454813
 20
40.8369482882
 11
63.1624454813
 21
40.8369482882
  0
LINE
  5
27E
100
AcDbEntity
  8
0
100
AcDbLine
 62
7
  6
CONTINUOUS
 10
63.1624454813
 20
41.0869482882
 11
66.1624454813
 21
41.0869482882
  0
LINE
  5
27F
100
AcDbEntity
  8
DEFAULT_2
100
AcDbLine
 62
8
  6
HIDDEN
 10
39.9118361284
 20
41.2369482882
 11
53.8724454813
 21
41.2369482882
  0
LINE
  5
280
100
AcDbEntity
  8
0
100
AcDbLine
 62
7
  6
CONTINUOUS
 10
78.0624454813
 20
41.8369482882
 11
74.6624454813
 21
41.8369482882
  0
LWPOLYLINE
  5
281
100
AcDbEntity
  8
DEFAULT_2
100
AcDbPolyline
 62
8
  6
HIDDEN
 90
4
 70
0
 10
42.98824084
 20
38.4372566676
 10
43.2205657311
 20
38.4360553066
 10
43.5376751425
 20
38.4300747151
 10
43.7033329555
 20
38.4249639777
  0
LWPOLYLINE
  5
282
100
AcDbEntity
  8
DEFAULT_2
100
AcDbPolyline
 62
8
  6
HIDDEN
 90
4
 70
0
 10
40.4885874358
 20
38.4370791046
 10
40.7207693678
 20
38.4358204081
 10
41.0378104652
 20
38.4297729976
 10
41.2035326855
 20
38.4246309779
  0
LWPOLYLINE
  5
283
100
AcDbEntity
  8
DEFAULT_2
100
AcDbPolyline
 62
8
  6
HIDDEN
 90
4
 70
0
 10
50.4889244391
 20
38.437170326
 10
50.7206703519
 20
38.4358479681
 10
51.0377538885
 20
38.4296916997
 10
51.2040030578
 20
38.4244746616
  0
LWPOLYLINE
  5
284
100
AcDbEntity
  8
DEFAULT_2
100
AcDbPolyline
 62
8
  6
HIDDEN
 90
4
 70
0
 10
47.9891580474
 20
38.4371717092
 10
48.2206150696
 20
38.4358127404
 10
48.5376133329
 20
38.4296193576
 10
48.7040608339
 20
38.4243849786
  0
LWPOLYLINE
  5
285
100
AcDbEntity
  8
DEFAULT_2
100
AcDbPolyline
 62
8
  6
HIDDEN
 90
4
 70
0
 10
45.4895162011
 20
38.437042046
 10
45.7239838974
 20
38.435606566
 10
46.0405361044
 20
38.4294077987
 10
46.2033891969
 20
38.4243422398
  0
LWPOLYLINE
  5
286
100
AcDbEntity
  8
DEFAULT_2
100
AcDbPolyline
 62
8
  6
HIDDEN
 90
4
 70
0
 10
52.9896892877
 20
38.4373540532
 10
53.2204986607
 20
38.435915671
 10
53.5373291325
 20
38.4296426924
 10
53.7042355988
 20
38.4243673915
  0
LINE
  5
287
100
AcDbEntity
  8
DEFAULT_2
100
AcDbLine
 62
8
  6
HIDDEN
 10
53.5624454813
 20
39.6558759574
 11
53.8786235171
 21
39.5667712594
  0
LINE
  5
288
100
AcDbEntity
  8
DEFAULT_2
100
AcDbLine
 62
8
  6
HIDDEN
 10
53.8950455275
 20
39.4392727292
 11
53.5624454813
 21
39.6558759574
  0
LWPOLYLINE
  5
289
100
AcDbEntity
  8
DEFAULT_2
100
AcDbPolyline
 62
8
  6
HIDDEN
 90
4
 70
0
 10
40.1887286263
 20
40.9558462686
 10
40.1319587221
 20
41.0695767508
 10
39.9340533756
 20
41.4986296351
 10
39.7880434319
 20
41.8409829688
  0
LWPOLYLINE
  5
28A
100
AcDbEntity
  8
DEFAULT_2
100
AcDbPolyline
 62
8
  6
HIDDEN
 90
4
 70
0
 10
40.2328921013
 20
38.7172359689
 10
40.3407584901
 20
38.4815509184
 10
40.52787771
 20
38.0427606186
 10
40.6623067396
 20
37.7099642604
  0
LINE
  5
28B
100
AcDbEntity
  8
0
100
AcDbLine
 62
7
  6
CONTINUOUS
 10
76.3624454813
 20
42.0869482882
 11
79.3624454813
 21
42.0869482882
  0
LINE
  5
28C
100
AcDbEntity
  8
0
100
AcDbLine
 62
7
  6
CONTINUOUS
 10
63.1624454813
 20
42.3369482882
 11
60.1624454813
 21
42.3369482882
  0
LINE
  5
28D
100
AcDbEntity
  8
0
100
AcDbLine
 62
7
  6
CONTINUOUS
 10
55.5624454813
 20
42.3369482882
 11
58.5624454813
 21
42.3369482882
  0
LINE
  5
28E
100
AcDbEntity
  8
0
100
AcDbLine
 62
7
  6
CONTINUOUS
 10
29.3624454813
 20
42.8369482882
 11
55.5624454813
 21
42.8369482882
  0
LINE
  5
28F
100
AcDbEntity
  8
0
100
AcDbLine
 62
2
  6
CONTINUOUS
 10
58.5624454813
 20
45.2219482882
 11
63.1624454813
 21
45.2219482882
  0
LINE
  5
290
100
AcDbEntity
  8
A_RUNDUNGEN
100
AcDbLine
 62
7
  6
CONTINUOUS
 10
76.3624454813
 20
45.3369482882
 11
74.6624454813
 21
45.3369482882
  0
LINE
  5
291
100
AcDbEntity
  8
0
100
AcDbLine
 62
7
  6
CONTINUOUS
 10
59.1124454813
 20
32.8369482882
 11
59.6124454813
 21
32.3369482882
  0
LINE
  5
292
100
AcDbEntity
  8
0
100
AcDbLine
 62
7
  6
CONTINUOUS
 10
58.8624454813
 20
33.8369482882
 11
58.3624454813
 21
34.3369482882
  0
LWPOLYLINE
  5
293
100
AcDbEntity
  8
DEFAULT_2
100
AcDbPolyline
 62
8
  6
HIDDEN
 90
4
 70
0
 10
42.6905591104
 20
41.0143638422
 10
42.5894041323
 20
41.2200989736
 10
42.3973009155
 20
41.6457196332
 10
42.2557335137
 20
41.9818842885
  0
LWPOLYLINE
  5
294
100
AcDbEntity
  8
DEFAULT_2
100
AcDbPolyline
 62
8
  6
HIDDEN
 90
4
 70
0
 10
45.1903301402
 20
41.0146391361
 10
45.0820658138
 20
41.2355555952
 10
44.8930072696
 20
41.6558999958
 10
44.7560806722
 20
41.9812504577
  0
LWPOLYLINE
  5
295
100
AcDbEntity
  8
DEFAULT_2
100
AcDbPolyline
 62
8
  6
HIDDEN
 90
4
 70
0
 10
42.7324912748
 20
38.718073454
 10
42.8461872219
 20
38.4694773564
 10
43.0331328806
 20
38.0302567269
 10
43.1626066011
 20
37.7094405148
  0
LWPOLYLINE
  5
296
100
AcDbEntity
  8
DEFAULT_2
100
AcDbPolyline
 62
8
  6
HIDDEN
 90
4
 70
0
 10
45.2330649288
 20
38.7170665422
 10
45.3421763636
 20
38.4784946251
 10
45.5280701117
 20
38.042177045
 10
45.6621914886
 20
37.7101079764
  0
LINE
  5
297
100
AcDbEntity
  8
DEFAULT_2
100
AcDbLine
 62
8
  6
HIDDEN
 10
34.5161530698
 20
39.6657708085
 11
34.3776024134
 21
40.6452585779
  0
LINE
  5
298
100
AcDbEntity
  8
DEFAULT_2
100
AcDbLine
 62
8
  6
HIDDEN
 10
66.9124454813
 20
105.8369482882
 11
66.8942352485
 21
105.8247713461
  0
LINE
  5
299
100
AcDbEntity
  8
DEFAULT_2
100
AcDbLine
 62
8
  6
HIDDEN
 10
39.8993409488
 20
39.7129430339
 11
40.564541041
 21
39.9012533207
  0
LINE
  5
29A
100
AcDbEntity
  8
DEFAULT_2
100
AcDbLine
 62
8
  6
HIDDEN
 10
33.5624454813
 20
39.8369482882
 11
34.2390517569
 21
39.9869482882
  0
LINE
  5
29B
100
AcDbEntity
  8
DEFAULT_2
100
AcDbLine
 62
8
  6
HIDDEN
 10
34.7723975778
 20
40.10518821
 11
36.7390525046
 21
40.5411851106
  0
LINE
  5
29C
100
AcDbEntity
  8
DEFAULT_2
100
AcDbLine
 62
8
  6
HIDDEN
 10
37.4652554629
 20
40.7021804304
 11
39.2390476821
 21
41.0954206981
  0
LINE
  5
29D
100
AcDbEntity
  8
0
100
AcDbLine
 62
7
  6
CONTINUOUS
 10
58.5624454813
 20
45.8369482882
 11
63.1624454813
 21
45.8369482882
  0
LINE
  5
29E
100
AcDbEntity
  8
0
100
AcDbLine
 62
7
  6
CONTINUOUS
 10
74.3624454813
 20
45.8369482882
 11
76.3624454813
 21
45.8369482882
  0
LINE
  5
29F
100
AcDbEntity
  8
0
100
AcDbLine
 62
2
  6
CONTINUOUS
 10
59.1124454813
 20
46.8369482882
 11
63.1624454813
 21
46.8369482882
  0
LINE
  5
2A0
100
AcDbEntity
  8
A_RUNDUNGEN
100
AcDbLine
 62
7
  6
CONTINUOUS
 10
59.6124454813
 20
47.3369482882
 11
63.1624454813
 21
47.3369482882
  0
LINE
  5
2A1
100
AcDbEntity
  8
0
100
AcDbLine
 62
7
  6
CONTINUOUS
 10
88.8624454813
 20
47.8369482882
 11
82.8624454813
 21
47.8369482882
  0
LINE
  5
2A2
100
AcDbEntity
  8
0
100
AcDbLine
 62
7
  6
CONTINUOUS
 10
88.5968810443
 20
48.8369482882
 11
83.1280099184
 21
48.8369482882
  0
LWPOLYLINE
  5
2A3
100
AcDbEntity
  8
DEFAULT_2
100
AcDbPolyline
 62
8
  6
HIDDEN
 90
4
 70
0
 10
50.1907960077
 20
41.013931685
 10
50.0822238884
 20
41.2351939075
 10
49.8927846285
 20
41.6559160983
 10
49.7558243731
 20
41.9812544921
  0
LWPOLYLINE
  5
2A4
100
AcDbEntity
  8
DEFAULT_2
100
AcDbPolyline
 62
8
  6
HIDDEN
 90
4
 70
0
 10
47.6905781214
 20
41.0142690175
 10
47.5821017356
 20
41.2355019945
 10
47.3927996604
 20
41.6562889581
 10
47.2558124261
 20
41.9818595695
  0
LWPOLYLINE
  5
2A5
100
AcDbEntity
  8
DEFAULT_2
100
AcDbPolyline
 62
8
  6
HIDDEN
 90
4
 70
0
 10
50.232415269
 20
38.7183114615
 10
50.3458415269
 20
38.4703441779
 10
50.5329082626
 20
38.030796848
 10
50.6627865116
 20
37.7088956708
  0
LWPOLYLINE
  5
2A6
100
AcDbEntity
  8
DEFAULT_2
100
AcDbPolyline
 62
8
  6
HIDDEN
 90
4
 70
0
 10
47.7324566636
 20
38.7183048563
 10
47.847517012
 20
38.4666051779
 10
48.0344888992
 20
38.0268746311
 10
48.1628825615
 20
37.7085100687
  0
LINE
  5
2A7
100
AcDbEntity
  8
DEFAULT_2
100
AcDbLine
 62
8
  6
HIDDEN
 10
39.8774373865
 20
41.2324448011
 11
39.8774373865
 21
38.4369482882
  0
LINE
  5
2A8
100
AcDbEntity
  8
DEFAULT_2
100
AcDbLine
 62
8
  6
HIDDEN
 10
34.3776024134
 20
40.6452585779
 11
34.2390517569
 21
39.9869482882
  0
LINE
  5
2A9
100
AcDbEntity
  8
0
100
AcDbLine
 62
7
  6
CONTINUOUS
 10
66.1624454813
 20
51.3369482882
 11
63.1624454813
 21
51.3369482882
  0
LINE
  5
2AA
100
AcDbEntity
  8
A_RUNDUNGEN
100
AcDbLine
 62
7
  6
CONTINUOUS
 10
66.1624454813
 20
51.3369482882
 11
67.1624454813
 21
51.3369482882
  0
LINE
  5
2AB
100
AcDbEntity
  8
0
100
AcDbLine
 62
7
  6
CONTINUOUS
 10
67.1624454813
 20
51.3369482882
 11
76.3624454813
 21
51.3369482882
  0
LINE
  5
2AC
100
AcDbEntity
  8
0
100
AcDbLine
 62
7
  6
CONTINUOUS
 10
55.5624454813
 20
51.7369482882
 11
58.5624454813
 21
51.7369482882
  0
LINE
  5
2AD
100
AcDbEntity
  8
A_RUNDUNGEN
100
AcDbLine
 62
7
  6
CONTINUOUS
 10
65.3624454813
 20
51.8369482882
 11
66.3624454813
 21
51.8369482882
  0
LINE
  5
2AE
100
AcDbEntity
  8
0
100
AcDbLine
 62
7
  6
CONTINUOUS
 10
69.3624454813
 20
51.8369482882
 11
79.3624454813
 21
51.8369482882
  0
LINE
  5
2AF
100
AcDbEntity
  8
0
100
AcDbLine
 62
7
  6
CONTINUOUS
 10
80.3624454813
 20
51.8369482882
 11
91.3624454813
 21
51.8369482882
  0
LINE
  5
2B0
100
AcDbEntity
  8
0
100
AcDbLine
 62
7
  6
CONTINUOUS
 10
79.3624454813
 20
52.8369482882
 11
92.3624454813
 21
52.8369482882
  0
LINE
  5
2B1
100
AcDbEntity
  8
0
100
AcDbLine
 62
7
  6
CONTINUOUS
 10
65.9624454813
 20
40.3369482882
 11
65.4624454813
 21
40.8369482882
  0
LWPOLYLINE
  5
2B2
100
AcDbEntity
  8
DEFAULT_2
100
AcDbPolyline
 62
8
  6
HIDDEN
 90
4
 70
0
 10
52.6903617069
 20
41.014489339
 10
52.5819905812
 20
41.2356057148
 10
52.3928168692
 20
41.6562540052
 10
52.2558485617
 20
41.9818039688
  0
LWPOLYLINE
  5
2B3
100
AcDbEntity
  8
DEFAULT_2
100
AcDbPolyline
 62
8
  6
HIDDEN
 90
4
 70
0
 10
52.7329863779
 20
38.7171996441
 10
52.8417553092
 20
38.479433919
 10
53.0277361666
 20
38.042975765
 10
53.1621633862
 20
37.7101378237
  0
LINE
  5
2B4
100
AcDbEntity
  8
DEFAULT_2
100
AcDbLine
 62
8
  6
HIDDEN
 10
66.9124454813
 20
105.8369482882
 11
64.6624454813
 21
103.5869482882
  0
LINE
  5
2B5
100
AcDbEntity
  8
DEFAULT_2
100
AcDbLine
 62
8
  6
HIDDEN
 10
66.9124454813
 20
95.8369482882
 11
66.8942352347
 21
95.8247713368
  0
LINE
  5
2B6
100
AcDbEntity
  8
0
100
AcDbLine
 62
7
  6
CONTINUOUS
 10
64.3624454813
 20
53.8369482882
 11
69.3624454813
 21
53.8369482882
  0
LINE
  5
2B7
100
AcDbEntity
  8
DEFAULT_2
100
AcDbLine
 62
8
  6
HIDDEN
 10
66.9124454813
 20
95.8369482882
 11
64.6624454813
 21
93.5869482882
  0
LWPOLYLINE
  5
2B8
100
AcDbEntity
  8
DEFAULT_2
100
AcDbPolyline
 62
8
  6
HIDDEN
 90
4
 70
0
 10
39.4276402374
 20
41.8103942094
 10
39.2833989447
 20
41.4582492784
 10
39.0932716044
 20
41.0259995691
 10
38.9857045904
 20
40.8035256748
  0
LWPOLYLINE
  5
2B9
100
AcDbEntity
  8
DEFAULT_2
100
AcDbPolyline
 62
8
  6
HIDDEN
 90
4
 70
0
 10
36.8764246998
 20
41.1800244881
 10
36.7314585543
 20
40.8427184598
 10
36.5303157468
 20
40.447257639
 10
36.4093020333
 20
40.2634487062
  0
LINE
  5
2BA
100
AcDbEntity
  8
DEFAULT_2
100
AcDbLine
 62
8
  6
HIDDEN
 10
66.9124454813
 20
85.8369482882
 11
66.8942352347
 21
85.8247713368
  0
LINE
  5
2BB
100
AcDbEntity
  8
0
100
AcDbLine
 62
7
  6
CONTINUOUS
 10
82.8624454813
 20
47.8369482882
 11
79.3624454813
 21
49.8369482882
  0
LINE
  5
2BC
100
AcDbEntity
  8
0
100
AcDbLine
 62
7
  6
CONTINUOUS
 10
83.1280099184
 20
48.8369482882
 11
80.3624454813
 21
50.4172708237
  0
LINE
  5
2BD
100
AcDbEntity
  8
A_FASEN
100
AcDbLine
 62
7
  6
CONTINUOUS
 10
78.3624454813
 20
41.5369482882
 11
78.0624454813
 21
41.8369482882
  0
LINE
  5
2BE
100
AcDbEntity
  8
0
100
AcDbLine
 62
7
  6
CONTINUOUS
 10
75.8624454813
 20
45.8369482882
 11
76.3624454813
 21
45.3369482882
  0
LINE
  5
2BF
100
AcDbEntity
  8
DEFAULT_2
100
AcDbLine
 62
8
  6
HIDDEN
 10
53.8724454813
 20
41.2369482882
 11
53.8724454813
 21
38.4369482882
  0
LINE
  5
2C0
100
AcDbEntity
  8
0
100
AcDbLine
 62
7
  6
CONTINUOUS
 10
55.3624454813
 20
27.8369482882
 11
55.3624454813
 21
42.8369482882
  0
LINE
  5
2C1
100
AcDbEntity
  8
0
100
AcDbLine
 62
7
  6
CONTINUOUS
 10
55.5624454813
 20
27.9369482882
 11
55.5624454813
 21
51.7369482882
  0
LINE
  5
2C2
100
AcDbEntity
  8
0
100
AcDbLine
 62
7
  6
CONTINUOUS
 10
57.0624454813
 20
35.9369482882
 11
57.0624454813
 21
40.3369482882
  0
LWPOLYLINE
  5
2C3
100
AcDbEntity
  8
DEFAULT_2
100
AcDbPolyline
 62
8
  6
HIDDEN
 90
4
 70
0
 10
41.912606165
 20
41.9647285369
 10
41.7851795922
 20
41.6488452956
 10
41.5984391048
 20
41.2096154733
 10
41.4826315027
 20
40.9561488988
  0
LWPOLYLINE
  5
2C4
100
AcDbEntity
  8
DEFAULT_2
100
AcDbPolyline
 62
8
  6
HIDDEN
 90
4
 70
0
 10
44.412364871
 20
41.9639921919
 10
44.2831024349
 20
41.6437560648
 10
44.0978419738
 20
41.20829955
 10
43.982707504
 20
40.9562895182
  0
LWPOLYLINE
  5
2C5
100
AcDbEntity
  8
DEFAULT_2
100
AcDbPolyline
 62
8
  6
HIDDEN
 90
4
 70
0
 10
41.0059398666
 20
37.6923004599
 10
41.1462061832
 20
38.0254279016
 10
41.3378560078
 20
38.4504648442
 10
41.440427448
 20
38.6592792367
  0
LWPOLYLINE
  5
2C6
100
AcDbEntity
  8
DEFAULT_2
100
AcDbPolyline
 62
8
  6
HIDDEN
 90
4
 70
0
 10
38.5621341314
 20
38.1218636384
 10
38.7096641464
 20
38.451594535
 10
38.903584155
 20
38.8394066736
 10
38.9456186572
 20
38.9152465944
  0
LWPOLYLINE
  5
2C7
100
AcDbEntity
  8
DEFAULT_2
100
AcDbPolyline
 62
8
  6
HIDDEN
 90
4
 70
0
 10
36.1248727954
 20
38.6807656091
 10
36.2671315244
 20
38.9473588784
 10
36.4601183912
 20
39.2208489917
 10
36.5343168047
 20
39.2962033868
  0
LINE
  5
2C8
100
AcDbEntity
  8
DEFAULT_2
100
AcDbLine
 62
8
  6
HIDDEN
 10
66.9124454813
 20
85.8369482882
 11
64.6624454813
 21
83.5869482882
  0
LINE
  5
2C9
100
AcDbEntity
  8
DEFAULT_2
100
AcDbLine
 62
8
  6
HIDDEN
 10
74.7850952121
 20
36.8369482882
 11
76.1184285455
 21
34.5275472114
  0
LINE
  5
2CA
100
AcDbEntity
  8
0
100
AcDbLine
 62
7
  6
CONTINUOUS
 10
58.3624454813
 20
39.3369482882
 11
58.3624454813
 21
34.3369482882
  0
LINE
  5
2CB
100
AcDbEntity
  8
0
100
AcDbLine
 62
7
  6
CONTINUOUS
 10
58.5624454813
 20
27.9369482882
 11
58.5624454813
 21
29.4369482882
  0
LINE
  5
2CC
100
AcDbEntity
  8
0
100
AcDbLine
 62
7
  6
CONTINUOUS
 10
58.5624454813
 20
32.3369482882
 11
58.5624454813
 21
33.9369482882
  0
LINE
  5
2CD
100
AcDbEntity
  8
0
100
AcDbLine
 62
7
  6
CONTINUOUS
 10
58.5624454813
 20
39.5369482882
 11
58.5624454813
 21
51.7369482882
  0
LINE
  5
2CE
100
AcDbEntity
  8
0
100
AcDbLine
 62
7
  6
CONTINUOUS
 10
58.8624454813
 20
33.8369482882
 11
58.8624454813
 21
45.8369482882
  0
LINE
  5
2CF
100
AcDbEntity
  8
0
100
AcDbLine
 62
7
  6
CONTINUOUS
 10
59.1124454813
 20
46.8369482882
 11
59.1124454813
 21
45.8370712952
  0
LINE
  5
2D0
100
AcDbEntity
  8
0
100
AcDbLine
 62
7
  6
CONTINUOUS
 10
59.1124454813
 20
33.836825372
 11
59.1124454813
 21
32.8369482882
  0
LINE
  5
2D1
100
AcDbEntity
  8
0
100
AcDbLine
 62
7
  6
CONTINUOUS
 10
59.3624454813
 20
27.8369482882
 11
59.3624454813
 21
22.8369482882
  0
LINE
  5
2D2
100
AcDbEntity
  8
0
100
AcDbLine
 62
7
  6
CONTINUOUS
 10
59.6124454813
 20
47.3369482882
 11
59.6124454813
 21
45.8369482882
  0
LINE
  5
2D3
100
AcDbEntity
  8
0
100
AcDbLine
 62
7
  6
CONTINUOUS
 10
59.6124454813
 20
33.8369482882
 11
59.6124454813
 21
32.3369482882
  0
LINE
  5
2D4
100
AcDbEntity
  8
0
100
AcDbLine
 62
7
  6
CONTINUOUS
 10
60.1624454813
 20
28.3369482882
 11
60.1624454813
 21
33.8369482882
  0
LINE
  5
2D5
100
AcDbEntity
  8
0
100
AcDbLine
 62
7
  6
CONTINUOUS
 10
60.1624454813
 20
39.8369482882
 11
60.1624454813
 21
42.3369482882
  0
LWPOLYLINE
  5
2D6
100
AcDbEntity
  8
DEFAULT_2
100
AcDbPolyline
 62
8
  6
HIDDEN
 90
4
 70
0
 10
46.9123053587
 20
41.9629814832
 10
46.782960212
 20
41.6427385235
 10
46.5960378938
 20
41.2039256267
 10
46.4822548174
 20
40.9553016327
  0
LWPOLYLINE
  5
2D7
100
AcDbEntity
  8
DEFAULT_2
100
AcDbPolyline
 62
8
  6
HIDDEN
 90
4
 70
0
 10
43.5064285023
 20
37.6935281626
 10
43.6433057484
 20
38.018575758
 10
43.8322512502
 20
38.4385054068
 10
43.9404015311
 20
38.6591632949
  0
LWPOLYLINE
  5
2D8
100
AcDbEntity
  8
DEFAULT_2
100
AcDbPolyline
 62
8
  6
HIDDEN
 90
4
 70
0
 10
46.0062619545
 20
37.6939982526
 10
46.1431198902
 20
38.0188256395
 10
46.332305837
 20
38.4387537132
 10
46.440724655
 20
38.6597378273
  0
LINE
  5
2D9
100
AcDbEntity
  8
A_ACHSEN
100
AcDbLine
 62
8
  6
HIDDEN
 10
64.6624454813
 20
70.5869482882
 11
64.3624454813
 21
70.5869482882
  0
LINE
  5
2DA
100
AcDbEntity
  8
DEFAULT_2
100
AcDbLine
 62
8
  6
HIDDEN
 10
69.3624454813
 20
72.0759555644
 11
65.7320518075
 21
72.0759555644
  0
LINE
  5
2DB
100
AcDbEntity
  8
DEFAULT_2
100
AcDbLine
 62
8
  6
HIDDEN
 10
69.3624454813
 20
72.8369482882
 11
66.9124454813
 21
72.8369482882
  0
LINE
  5
2DC
100
AcDbEntity
  8
0
100
AcDbLine
 62
7
  6
CONTINUOUS
 10
62.3624454813
 20
42.3369482882
 11
62.3624454813
 21
42.9992259484
  0
LINE
  5
2DD
100
AcDbEntity
  8
0
100
AcDbLine
 62
7
  6
CONTINUOUS
 10
63.1624454813
 20
28.3369482882
 11
63.1624454813
 21
32.8369482882
  0
LINE
  5
2DE
100
AcDbEntity
  8
0
100
AcDbLine
 62
7
  6
CONTINUOUS
 10
63.1624454813
 20
40.8369482882
 11
63.1624454813
 21
51.3369482882
  0
LINE
  5
2DF
100
AcDbEntity
  8
A_ACHSEN
100
AcDbLine
 62
8
  6
HIDDEN
 10
64.3624454813
 20
94.0869482882
 11
64.3624454813
 21
70.5869482882
  0
LINE
  5
2E0
100
AcDbEntity
  8
A_RUNDUNGEN
100
AcDbLine
 62
7
  6
CONTINUOUS
 10
64.3624454813
 20
51.3369482882
 11
64.3624454813
 21
53.8369482882
  0
LINE
  5
2E1
100
AcDbEntity
  8
0
100
AcDbLine
 62
7
  6
CONTINUOUS
 10
64.3624454813
 20
53.8369482882
 11
64.3624454813
 21
118.8369482882
  0
LINE
  5
2E2
100
AcDbEntity
  8
A_ACHSEN
100
AcDbLine
 62
8
  6
HIDDEN
 10
64.6624454813
 20
114.0869482882
 11
64.6624454813
 21
83.5869482882
  0
LINE
  5
2E3
100
AcDbEntity
  8
A_ACHSEN
100
AcDbLine
 62
8
  6
HIDDEN
 10
64.6624454813
 20
81.0869482882
 11
64.6624454813
 21
70.5869482882
  0
LWPOLYLINE
  5
2E4
100
AcDbEntity
  8
DEFAULT_2
100
AcDbPolyline
 62
8
  6
HIDDEN
 90
4
 70
0
 10
49.4130190862
 20
41.9656899674
 10
49.2853615663
 20
41.6490608859
 10
49.0984073425
 20
41.2091575104
 10
48.9824904817
 20
40.9555118916
  0
LWPOLYLINE
  5
2E5
100
AcDbEntity
  8
DEFAULT_2
100
AcDbPolyline
 62
8
  6
HIDDEN
 90
4
 70
0
 10
51.9123455243
 20
41.9632518115
 10
51.7842380617
 20
41.6459729704
 10
51.5974040912
 20
41.2070693295
 10
51.4822955432
 20
40.9554105521
  0
LWPOLYLINE
  5
2E6
100
AcDbEntity
  8
DEFAULT_2
100
AcDbPolyline
 62
8
  6
HIDDEN
 90
4
 70
0
 10
48.5057297251
 20
37.6924290009
 10
48.6427271008
 20
38.0179012498
 10
48.8322309242
 20
38.4387943368
 10
48.9408696189
 20
38.6601642844
  0
LINE
  5
2E7
100
AcDbEntity
  8
DEFAULT_2
100
AcDbLine
 62
8
  6
HIDDEN
 10
66.9124454813
 20
72.8369482882
 11
64.6624454813
 21
70.5869482882
  0
LINE
  5
2E8
100
AcDbEntity
  8
DEFAULT_2
100
AcDbLine
 62
8
  6
HIDDEN
 10
66.9124454813
 20
72.8369482882
 11
66.8942352347
 21
72.8247713368
  0
LINE
  5
2E9
100
AcDbEntity
  8
A_ACHSEN
100
AcDbLine
 62
7
  6
CENTER
 10
60.4829546641
 20
75.8369482882
 11
82.8123406061
 21
75.8369482882
  0
LINE
  5
2EA
100
AcDbEntity
  8
0
100
AcDbLine
 62
7
  6
CONTINUOUS
 10
65.9624454813
 20
40.3369482882
 11
65.9624454813
 21
39.8369482882
  0
LINE
  5
2EB
100
AcDbEntity
  8
0
100
AcDbLine
 62
7
  6
CONTINUOUS
 10
65.9624454813
 20
33.8369482882
 11
65.9624454813
 21
33.3369482882
  0
LINE
  5
2EC
100
AcDbEntity
  8
0
100
AcDbLine
 62
7
  6
CONTINUOUS
 10
66.1624454813
 20
28.3369482882
 11
66.1624454813
 21
33.8369482882
  0
LINE
  5
2ED
100
AcDbEntity
  8
0
100
AcDbLine
 62
7
  6
CONTINUOUS
 10
66.1624454813
 20
39.8369482882
 11
66.1624454813
 21
51.3369482882
  0
LINE
  5
2EE
100
AcDbEntity
  8
0
100
AcDbLine
 62
7
  6
CONTINUOUS
 10
67.1624454813
 20
39.8369482882
 11
67.1624454813
 21
51.3369482882
  0
LINE
  5
2EF
100
AcDbEntity
  8
0
100
AcDbLine
 62
7
  6
CONTINUOUS
 10
67.3624454813
 20
33.8369482882
 11
67.3624454813
 21
27.8369482882
  0
LWPOLYLINE
  5
2F0
100
AcDbEntity
  8
DEFAULT_2
100
AcDbPolyline
 62
8
  6
HIDDEN
 90
4
 70
0
 10
51.0056406709
 20
37.6920276913
 10
51.1488391131
 20
38.0319858432
 10
51.3374558441
 20
38.4498912497
 10
51.4407581731
 20
38.6600569686
  0
LWPOLYLINE
  5
2F1
100
AcDbEntity
  8
DEFAULT_2
100
AcDbPolyline
 62
8
  6
HIDDEN
 90
4
 70
0
 10
53.5058562793
 20
37.692872096
 10
53.6503652106
 20
38.035648683
 10
53.8429304562
 20
38.4613022012
 10
53.9328467063
 20
38.6443729209
  0
LINE
  5
2F2
100
AcDbEntity
  8
DEFAULT_2
100
AcDbLine
 62
8
  6
HIDDEN
 10
46.9123053587
 20
41.9629814832
 11
47.0634932612
 21
42.1845161867
  0
LINE
  5
2F3
100
AcDbEntity
  8
DEFAULT_2
100
AcDbLine
 62
8
  6
HIDDEN
 10
69.3624454813
 20
78.8369482882
 11
66.9124454813
 21
78.8369482882
  0
LINE
  5
2F4
100
AcDbEntity
  8
DEFAULT_2
100
AcDbLine
 62
8
  6
HIDDEN
 10
69.3624454813
 20
79.597941012
 11
65.7320518075
 21
79.597941012
  0
LINE
  5
2F5
100
AcDbEntity
  8
A_ACHSEN
100
AcDbLine
 62
8
  6
HIDDEN
 10
64.6624454813
 20
81.0869482882
 11
64.3624454813
 21
81.0869482882
  0
LINE
  5
2F6
100
AcDbEntity
  8
DEFAULT_2
100
AcDbLine
 62
8
  6
HIDDEN
 10
66.9124454813
 20
78.8369482882
 11
66.8942352347
 21
78.8491252396
  0
LINE
  5
2F7
100
AcDbEntity
  8
A_ACHSEN
100
AcDbLine
 62
8
  6
HIDDEN
 10
69.3624454813
 20
87.8368392599
 11
69.3624454813
 21
72.8370573165
  0
LINE
  5
2F8
100
AcDbEntity
  8
0
100
AcDbLine
 62
7
  6
CONTINUOUS
 10
69.3624454813
 20
122.8369482882
 11
69.3624454813
 21
51.8369482882
  0
LINE
  5
2F9
100
AcDbEntity
  8
0
100
AcDbLine
 62
7
  6
CONTINUOUS
 10
69.3624454813
 20
28.3369482882
 11
69.3624454813
 21
33.8369482882
  0
LINE
  5
2FA
100
AcDbEntity
  8
0
100
AcDbLine
 62
7
  6
CONTINUOUS
 10
69.3624454813
 20
39.8369482882
 11
69.3624454813
 21
51.3369482882
  0
LINE
  5
2FB
100
AcDbEntity
  8
0
100
AcDbLine
 62
7
  6
CONTINUOUS
 10
71.3624454813
 20
27.8369482882
 11
71.3624454813
 21
22.8369482882
  0
LINE
  5
2FC
100
AcDbEntity
  8
0
100
AcDbLine
 62
7
  6
CONTINUOUS
 10
72.3624454813
 20
28.3369482882
 11
72.3624454813
 21
27.8369482882
  0
LINE
  5
2FD
100
AcDbEntity
  8
DEFAULT_2
100
AcDbLine
 62
8
  6
HIDDEN
 10
53.9328207265
 20
38.6443870919
 11
53.8990031841
 21
38.5848226783
  0
LWPOLYLINE
  5
2FE
100
AcDbEntity
  8
DEFAULT_2
100
AcDbPolyline
 62
8
  6
HIDDEN
 90
3
 70
0
 10
34.9672656243
 20
40.2840832211
 10
34.8539977115
 20
40.1944729237
 10
34.6200555258
 20
40.0549771706
  0
LINE
  5
2FF
100
AcDbEntity
  8
A_ACHSEN
100
AcDbLine
 62
8
  6
HIDDEN
 10
64.6624454813
 20
83.5869482882
 11
64.3624454813
 21
83.5869482882
  0
LINE
  5
300
100
AcDbEntity
  8
DEFAULT_2
100
AcDbLine
 62
8
  6
HIDDEN
 10
69.3624454813
 20
85.0759555644
 11
65.7320518075
 21
85.0759555644
  0
LINE
  5
301
100
AcDbEntity
  8
DEFAULT_2
100
AcDbLine
 62
8
  6
HIDDEN
 10
66.9124454813
 20
78.8369482882
 11
64.6624454813
 21
81.0869482882
  0
LINE
  5
302
100
AcDbEntity
  8
DEFAULT_2
100
AcDbLine
 62
8
  6
HIDDEN
 10
74.3624454813
 20
39.8369482882
 11
74.3624454813
 21
33.8369482882
  0
LINE
  5
303
100
AcDbEntity
  8
A_RUNDUNGEN
100
AcDbLine
 62
7
  6
CONTINUOUS
 10
74.3624454813
 20
41.5369482718
 11
74.3624454813
 21
32.1369483046
  0
LINE
  5
304
100
AcDbEntity
  8
0
100
AcDbLine
 62
7
  6
CONTINUOUS
 10
74.3624454813
 20
28.3369482882
 11
74.3624454813
 21
32.1369482882
  0
LINE
  5
305
100
AcDbEntity
  8
0
100
AcDbLine
 62
7
  6
CONTINUOUS
 10
74.3624454813
 20
41.5369482718
 11
74.3624454813
 21
51.3369482882
  0
LINE
  5
306
100
AcDbEntity
  8
0
100
AcDbLine
 62
7
  6
CONTINUOUS
 10
75.8624454813
 20
45.3369482882
 11
75.8624454813
 21
45.8369482882
  0
LINE
  5
307
100
AcDbEntity
  8
0
100
AcDbLine
 62
7
  6
CONTINUOUS
 10
76.3624454813
 20
27.8369482882
 11
76.3624454813
 21
31.8369482882
  0
LINE
  5
308
100
AcDbEntity
  8
0
100
AcDbLine
 62
7
  6
CONTINUOUS
 10
76.3624454813
 20
41.8369482882
 11
76.3624454813
 21
51.8369482882
  0
LINE
  5
309
100
AcDbEntity
  8
DEFAULT_2
100
AcDbLine
 62
8
  6
HIDDEN
 10
69.3624454813
 20
85.8369482882
 11
66.9124454813
 21
85.8369482882
  0
LINE
  5
30A
100
AcDbEntity
  8
A_ACHSEN
100
AcDbLine
 62
7
  6
CENTER
 10
60.8522593773
 20
88.8369482882
 11
82.3305470377
 21
88.8369482882
  0
LINE
  5
30B
100
AcDbEntity
  8
A_FASEN
100
AcDbLine
 62
7
  6
CONTINUOUS
 10
78.0624454813
 20
31.8369482882
 11
78.0624454813
 21
41.8369482882
  0
LINE
  5
30C
100
AcDbEntity
  8
A_FASEN
100
AcDbLine
 62
7
  6
CONTINUOUS
 10
78.3624454813
 20
32.1385672189
 11
78.3624454813
 21
41.5353293575
  0
LINE
  5
30D
100
AcDbEntity
  8
DEFAULT_2
100
AcDbLine
 62
8
  6
HIDDEN
 10
78.3624454813
 20
34.5275472114
 11
78.3624454813
 21
39.146349365
  0
LINE
  5
30E
100
AcDbEntity
  8
0
100
AcDbLine
 62
7
  6
CONTINUOUS
 10
79.3624454813
 20
22.8369482882
 11
79.3624454813
 21
52.8369482882
  0
LINE
  5
30F
100
AcDbEntity
  8
0
100
AcDbLine
 62
7
  6
CONTINUOUS
 10
80.3624454813
 20
50.4172708237
 11
80.3624454813
 21
51.8369482882
  0
LINE
  5
310
100
AcDbEntity
  8
0
100
AcDbLine
 62
7
  6
CONTINUOUS
 10
59.1124454813
 20
46.8369482882
 11
59.6124454813
 21
47.3369482882
  0
LINE
  5
311
100
AcDbEntity
  8
0
100
AcDbLine
 62
7
  6
CONTINUOUS
 10
58.5624454813
 20
45.5369482882
 11
58.8624454813
 21
45.8369482882
  0
LINE
  5
312
100
AcDbEntity
  8
DEFAULT_2
100
AcDbLine
 62
8
  6
HIDDEN
 10
40.1886182892
 20
40.0383031329
 11
39.856053026
 21
39.8649952993
  0
LINE
  5
313
100
AcDbEntity
  8
DEFAULT_2
100
AcDbLine
 62
8
  6
HIDDEN
 10
69.3624454813
 20
91.8369482882
 11
66.9124454813
 21
91.8369482882
  0
LINE
  5
314
100
AcDbEntity
  8
DEFAULT_2
100
AcDbLine
 62
8
  6
HIDDEN
 10
69.3624454813
 20
92.597941012
 11
65.7320518075
 21
92.597941012
  0
LINE
  5
315
100
AcDbEntity
  8
DEFAULT_2
100
AcDbLine
 62
8
  6
HIDDEN
 10
66.9124454813
 20
91.8369482882
 11
66.8940073268
 21
91.8492786637
  0
LINE
  5
316
100
AcDbEntity
  8
DEFAULT_2
100
AcDbLine
 62
8
  6
HIDDEN
 10
66.9124454813
 20
91.8369482882
 11
64.6624454813
 21
94.0869482882
  0
LINE
  5
317
100
AcDbEntity
  8
0
100
AcDbLine
 62
7
  6
CONTINUOUS
 10
58.8624454813
 20
39.8369482882
 11
58.3624454813
 21
39.3369482882
  0
LINE
  5
318
100
AcDbEntity
  8
DEFAULT_2
100
AcDbLine
 62
8
  6
HIDDEN
 10
34.7723975778
 20
40.10518821
 11
34.6200566745
 21
40.0549766721
  0
LINE
  5
319
100
AcDbEntity
  8
A_ACHSEN
100
AcDbLine
 62
8
  6
HIDDEN
 10
64.6624454813
 20
93.5869482882
 11
64.3624454813
 21
93.5869482882
  0
LINE
  5
31A
100
AcDbEntity
  8
A_ACHSEN
100
AcDbLine
 62
8
  6
HIDDEN
 10
64.6624454813
 20
94.0869482882
 11
64.3624454813
 21
94.0869482882
  0
LINE
  5
31B
100
AcDbEntity
  8
DEFAULT_2
100
AcDbLine
 62
8
  6
HIDDEN
 10
69.3624454813
 20
95.0759555644
 11
65.7320518075
 21
95.0759555644
  0
LINE
  5
31C
100
AcDbEntity
  8
DEFAULT_2
100
AcDbLine
 62
8
  6
HIDDEN
 10
69.3624454813
 20
95.8369482882
 11
66.9124454813
 21
95.8369482882
  0
LINE
  5
31D
100
AcDbEntity
  8
DEFAULT_2
100
AcDbLine
 62
8
  6
HIDDEN
 10
47.3960933073
 20
41.2327777882
 11
47.4535181695
 21
41.2494786304
  0
LINE
  5
31E
100
AcDbEntity
  8
A_ACHSEN
100
AcDbLine
 62
7
  6
CENTER
 10
61.4062164471
 20
98.8369482882
 11
83.1335363183
 21
98.8369482882
  0
LINE
  5
31F
100
AcDbEntity
  8
DEFAULT_2
100
AcDbLine
 62
8
  6
HIDDEN
 10
66.9124454813
 20
101.8369482882
 11
66.8940073445
 21
101.8492786518
  0
LINE
  5
320
100
AcDbEntity
  8
DEFAULT_2
100
AcDbLine
 62
8
  6
HIDDEN
 10
66.9124454813
 20
101.8369482882
 11
64.6624454813
 21
104.0869482882
  0
LINE
  5
321
100
AcDbEntity
  8
0
100
AcDbLine
 62
7
  6
CONTINUOUS
 10
91.3624454813
 20
51.8369482882
 11
91.3624454813
 21
50.4172708237
  0
LINE
  5
322
100
AcDbEntity
  8
0
100
AcDbLine
 62
7
  6
CONTINUOUS
 10
92.3624454813
 20
49.8369482882
 11
92.3624454813
 21
122.8369482882
  0
LINE
  5
323
100
AcDbEntity
  8
DEFAULT_2
100
AcDbLine
 62
8
  6
HIDDEN
 10
74.7850952121
 20
36.8369482882
 11
76.1184285455
 21
39.146349365
  0
LINE
  5
324
100
AcDbEntity
  8
0
100
AcDbLine
 62
7
  6
CONTINUOUS
 10
65.9624454813
 20
33.3369482882
 11
65.4624454813
 21
32.8369482882
  0
LINE
  5
325
100
AcDbEntity
  8
DEFAULT_2
100
AcDbLine
 62
8
  6
HIDDEN
 10
69.3624454813
 20
101.8369482882
 11
66.9124454813
 21
101.8369482882
  0
LINE
  5
326
100
AcDbEntity
  8
DEFAULT_2
100
AcDbLine
 62
8
  6
HIDDEN
 10
69.3624454813
 20
102.597941012
 11
65.7320518075
 21
102.597941012
  0
LINE
  5
327
100
AcDbEntity
  8
A_ACHSEN
100
AcDbLine
 62
8
  6
HIDDEN
 10
64.6624454813
 20
103.5869482882
 11
64.3624454813
 21
103.5869482882
  0
LINE
  5
328
100
AcDbEntity
  8
A_ACHSEN
100
AcDbLine
 62
8
  6
HIDDEN
 10
64.6624454813
 20
104.0869482882
 11
64.3624454813
 21
104.0869482882
  0
LINE
  5
329
100
AcDbEntity
  8
DEFAULT_2
100
AcDbLine
 62
8
  6
HIDDEN
 10
66.9124454813
 20
111.8369482882
 11
64.6624454813
 21
114.0869482882
  0
LINE
  5
32A
100
AcDbEntity
  8
0
100
AcDbLine
 62
7
  6
CONTINUOUS
 10
91.3624454813
 20
50.4172708237
 11
88.5968810443
 21
48.8369482882
  0
LINE
  5
32B
100
AcDbEntity
  8
0
100
AcDbLine
 62
7
  6
CONTINUOUS
 10
92.3624454813
 20
49.8369482882
 11
88.8624454813
 21
47.8369482882
  0
LINE
  5
32C
100
AcDbEntity
  8
DEFAULT_2
100
AcDbLine
 62
8
  6
HIDDEN
 10
69.3624454813
 20
105.0759555644
 11
65.7320518075
 21
105.0759555644
  0
LINE
  5
32D
100
AcDbEntity
  8
DEFAULT_2
100
AcDbLine
 62
8
  6
HIDDEN
 10
69.3624454813
 20
105.8369482882
 11
66.9124454813
 21
105.8369482882
  0
LINE
  5
32E
100
AcDbEntity
  8
DEFAULT_2
100
AcDbLine
 62
8
  6
HIDDEN
 10
66.9124454813
 20
111.8369482882
 11
66.8940073268
 21
111.8492786637
  0
LINE
  5
32F
100
AcDbEntity
  8
A_ACHSEN
100
AcDbLine
 62
7
  6
CENTER
 10
61.2215640905
 20
108.8369482882
 11
83.2138352464
 21
108.8369482882
  0
LINE
  5
330
100
AcDbEntity
  8
DEFAULT_2
100
AcDbLine
 62
8
  6
HIDDEN
 10
69.3624454813
 20
111.8369482882
 11
66.9124454813
 21
111.8369482882
  0
LINE
  5
331
100
AcDbEntity
  8
DEFAULT_2
100
AcDbLine
 62
8
  6
HIDDEN
 10
69.3624454813
 20
112.597941012
 11
65.7320518075
 21
112.597941012
  0
LINE
  5
332
100
AcDbEntity
  8
A_FASEN
100
AcDbLine
 62
7
  6
CONTINUOUS
 10
78.3624454813
 20
32.1369482882
 11
78.0624454813
 21
31.8369482882
  0
LINE
  5
333
100
AcDbEntity
  8
A_ACHSEN
100
AcDbLine
 62
8
  6
HIDDEN
 10
64.6624454813
 20
114.0869482882
 11
64.3624454813
 21
114.0869482882
  0
LINE
  5
334
100
AcDbEntity
  8
0
100
AcDbLine
 62
7
  6
CONTINUOUS
 10
64.3624454813
 20
118.8369482882
 11
69.3624454813
 21
118.8369482882
  0
LINE
  5
335
100
AcDbEntity
  8
0
100
AcDbLine
 62
7
  6
CONTINUOUS
 10
92.3624454813
 20
122.8369482882
 11
69.3624454813
 21
122.8369482882
  0
ARC
  5
336
100
AcDbEntity
  8
DEFAULT_2
100
AcDbCircle
 62
8
  6
HIDDEN
 10
24.7266377028
 20
35.4794230798
 40
16.4435934282
100
AcDbArc
 50
15.5993562257
 51
16.0511576388
  0
ARC
  5
337
100
AcDbEntity
  8
DEFAULT_2
100
AcDbCircle
 62
8
  6
HIDDEN
 10
47.0391281479
 20
41.9171515004
 40
7.4704694205
100
AcDbArc
 50
195.9442686566
 51
196.5308311001
  0
ARC
  5
338
100
AcDbEntity
  8
DEFAULT_2
100
AcDbCircle
 62
8
  6
HIDDEN
 10
34.237518699
 20
37.9063199682
 40
6.6391318115
100
AcDbArc
 50
18.6188518685
 51
18.8700730027
  0
ARC
  5
339
100
AcDbEntity
  8
DEFAULT_2
100
AcDbCircle
 62
8
  6
HIDDEN
 10
46.1560963852
 20
41.498298109
 40
6.5064953189
100
AcDbArc
 50
195.2072631744
 51
195.9260118286
  0
ARC
  5
33A
100
AcDbEntity
  8
DEFAULT_2
100
AcDbCircle
 62
8
  6
HIDDEN
 10
87.5261206891
 20
-55.3164256312
 40
106.2962419717
100
AcDbArc
 50
116.2399721872
 51
116.6190939471
  0
ARC
  5
33B
100
AcDbEntity
  8
DEFAULT_2
100
AcDbCircle
 62
8
  6
HIDDEN
 10
56.7316862635
 20
65.3315780559
 40
16.9063758742
100
AcDbArc
 50
55.5789859719
 51
56.9832590801
  0
ARC
  5
33C
100
AcDbEntity
  8
DEFAULT_2
100
AcDbCircle
 62
8
  6
HIDDEN
 10
57.3136090379
 20
66.2035121475
 40
15.8581739608
100
AcDbArc
 50
55.5325725738
 51
57.0296714545
  0
ARC
  5
33D
100
AcDbEntity
  8
DEFAULT_2
100
AcDbCircle
 62
8
  6
HIDDEN
 10
59.1028411778
 20
68.8167371375
 40
12.6911124652
100
AcDbArc
 50
54.9594023075
 51
55.5154467497
  0
ARC
  5
33E
100
AcDbEntity
  8
DEFAULT_2
100
AcDbCircle
 62
8
  6
HIDDEN
 10
60.5898630857
 20
70.925531421
 40
10.1107654143
100
AcDbArc
 50
53.5881563173
 51
54.9974491913
  0
ARC
  5
33F
100
AcDbEntity
  8
0
100
AcDbCircle
 62
7
  6
CONTINUOUS
 10
66.8624454813
 20
39.8369482882
 40
5.5
100
AcDbArc
 50
132.3957204106
 51
144.9031987724
  0
ARC
  5
340
100
AcDbEntity
  8
A_RUNDUNGEN
100
AcDbCircle
 62
7
  6
CONTINUOUS
 10
65.3624454813
 20
52.8369482882
 40
1.0
100
AcDbArc
 50
180.0
 51
270.0
  0
ARC
  5
341
100
AcDbEntity
  8
A_RUNDUNGEN
100
AcDbCircle
 62
7
  6
CONTINUOUS
 10
66.3624454813
 20
50.8369482882
 40
1.0
100
AcDbArc
 50
30.1949503164
 51
90.0
  0
ARC
  5
342
100
AcDbEntity
  8
DEFAULT_2
100
AcDbCircle
 62
8
  6
HIDDEN
 10
56.7316862636
 20
109.3423185203
 40
16.906375874
100
AcDbArc
 50
303.0167409199
 51
304.4210140281
  0
ARC
  5
343
100
AcDbEntity
  8
DEFAULT_2
100
AcDbCircle
 62
8
  6
HIDDEN
 10
56.7316862636
 20
86.3423185203
 40
16.906375874
100
AcDbArc
 50
303.0167409199
 51
304.4210140281
  0
ARC
  5
344
100
AcDbEntity
  8
DEFAULT_2
100
AcDbCircle
 62
8
  6
HIDDEN
 10
56.7316862636
 20
99.3423185203
 40
16.906375874
100
AcDbArc
 50
303.0167409199
 51
304.4210140281
  0
ARC
  5
345
100
AcDbEntity
  8
DEFAULT_2
100
AcDbCircle
 62
8
  6
HIDDEN
 10
56.7316864179
 20
119.3423182854
 40
16.906375593
100
AcDbArc
 50
303.0167409153
 51
304.4210141871
  0
ARC
  5
346
100
AcDbEntity
  8
DEFAULT_2
100
AcDbCircle
 62
8
  6
HIDDEN
 10
57.313608465
 20
99.2035112868
 40
15.8581749947
100
AcDbArc
 50
55.5325729071
 51
57.0296714103
  0
ARC
  5
347
100
AcDbEntity
  8
DEFAULT_2
100
AcDbCircle
 62
8
  6
HIDDEN
 10
57.3136084651
 20
85.4703852896
 40
15.8581749947
100
AcDbArc
 50
302.9703285897
 51
304.4674270929
  0
ARC
  5
348
100
AcDbEntity
  8
DEFAULT_2
100
AcDbCircle
 62
8
  6
HIDDEN
 10
57.313608465
 20
79.2035112867
 40
15.8581749948
100
AcDbArc
 50
55.532572907
 51
57.0296714103
  0
ARC
  5
349
100
AcDbEntity
  8
DEFAULT_2
100
AcDbCircle
 62
8
  6
HIDDEN
 10
57.3136092411
 20
89.2035124535
 40
15.8581735936
100
AcDbArc
 50
55.5325723519
 51
57.0296714685
  0
ARC
  5
34A
100
AcDbEntity
  8
DEFAULT_2
100
AcDbCircle
 62
8
  6
HIDDEN
 10
71.6466626205
 20
65.7615334057
 40
8.5133573235
100
AcDbArc
 50
125.238079948
 51
126.4268573856
  0
ARC
  5
34B
100
AcDbEntity
  8
DEFAULT_2
100
AcDbCircle
 62
8
  6
HIDDEN
 10
71.6128085485
 20
65.8084171945
 40
8.4555315032
100
AcDbArc
 50
125.2340215121
 51
126.4309223794
  0
ARC
  5
34C
100
AcDbEntity
  8
DEFAULT_2
100
AcDbCircle
 62
8
  6
HIDDEN
 10
71.5163456931
 20
65.9410265069
 40
8.2915528789
100
AcDbArc
 50
123.8811872974
 51
126.4387931347
  0
ARC
  5
34D
100
AcDbEntity
  8
DEFAULT_2
100
AcDbCircle
 62
8
  6
HIDDEN
 10
71.4507254124
 20
66.0365010897
 40
8.1757234671
100
AcDbArc
 50
124.3650943694
 51
125.2283777895
  0
ARC
  5
34E
100
AcDbEntity
  8
DEFAULT_2
100
AcDbCircle
 62
8
  6
HIDDEN
 10
71.4412457494
 20
66.0501435429
 40
8.159111283
100
AcDbArc
 50
124.3639840948
 51
125.2292689793
  0
ARC
  5
34F
100
AcDbEntity
  8
DEFAULT_2
100
AcDbCircle
 62
8
  6
HIDDEN
 10
71.4078395587
 20
66.0958411383
 40
8.1025382203
100
AcDbArc
 50
123.8527573256
 51
124.1006325995
  0
ARC
  5
350
100
AcDbEntity
  8
DEFAULT_2
100
AcDbCircle
 62
8
  6
HIDDEN
 10
71.2902686885
 20
66.2702458367
 40
7.8922058856
100
AcDbArc
 50
123.8510058416
 51
124.1034256833
  0
ARC
  5
351
100
AcDbEntity
  8
DEFAULT_2
100
AcDbCircle
 62
8
  6
HIDDEN
 10
71.2855330964
 20
66.2775386324
 40
7.883512065
100
AcDbArc
 50
124.1046451434
 51
124.3628982437
  0
ARC
  5
352
100
AcDbEntity
  8
DEFAULT_2
100
AcDbCircle
 62
8
  6
HIDDEN
 10
71.2701718145
 20
66.3000788112
 40
7.8562352209
100
AcDbArc
 50
124.1043456624
 51
124.3629585483
  0
ARC
  5
353
100
AcDbEntity
  8
DEFAULT_2
100
AcDbCircle
 62
8
  6
HIDDEN
 10
80.2772996968
 20
36.8369482882
 40
2.2360679775
100
AcDbArc
 50
148.9090696423
 51
211.0909303577
  0
ARC
  5
354
100
AcDbEntity
  8
A_RUNDUNGEN
100
AcDbCircle
 62
7
  6
CONTINUOUS
 10
71.3624454813
 20
50.8369482882
 40
1.0
100
AcDbArc
 50
30.1975753944
 51
90.0
  0
ARC
  5
355
100
AcDbEntity
  8
A_RUNDUNGEN
100
AcDbCircle
 62
7
  6
CONTINUOUS
 10
74.6624454813
 20
45.6369482882
 40
0.3
100
AcDbArc
 50
180.0000000744
 51
270.0
  0
ARC
  5
356
100
AcDbEntity
  8
A_RUNDUNGEN
100
AcDbCircle
 62
7
  6
CONTINUOUS
 10
74.6624454813
 20
32.1369482882
 40
0.3
100
AcDbArc
 50
180.0
 51
270.0
  0
ARC
  5
357
100
AcDbEntity
  8
A_RUNDUNGEN
100
AcDbCircle
 62
7
  6
CONTINUOUS
 10
74.6624454813
 20
41.5369482882
 40
0.3
100
AcDbArc
 50
90.0
 51
180.0
  0
ARC
  5
358
100
AcDbEntity
  8
A_RUNDUNGEN
100
AcDbCircle
 62
7
  6
CONTINUOUS
 10
74.0624454813
 20
40.1369482882
 40
0.3
100
AcDbArc
 50
270.0
 51
360.0
  0
ARC
  5
359
100
AcDbEntity
  8
A_RUNDUNGEN
100
AcDbCircle
 62
7
  6
CONTINUOUS
 10
74.0624454813
 20
33.5369482882
 40
0.3
100
AcDbArc
 50
0.0
 51
90.0
  0
ARC
  5
35A
100
AcDbEntity
  8
DEFAULT_2
100
AcDbCircle
 62
8
  6
HIDDEN
 10
71.4507254121
 20
85.6373954863
 40
8.1757234667
100
AcDbArc
 50
234.7716222105
 51
235.6349056307
  0
ARC
  5
35B
100
AcDbEntity
  8
DEFAULT_2
100
AcDbCircle
 62
8
  6
HIDDEN
 10
71.4507254118
 20
98.6373954858
 40
8.1757234661
100
AcDbArc
 50
234.7716222104
 51
235.6349056307
  0
ARC
  5
35C
100
AcDbEntity
  8
DEFAULT_2
100
AcDbCircle
 62
8
  6
HIDDEN
 10
71.4503602794
 20
85.6368371106
 40
8.1750567303
100
AcDbArc
 50
234.7714555643
 51
235.4049320727
  0
ARC
  5
35D
100
AcDbEntity
  8
DEFAULT_2
100
AcDbCircle
 62
8
  6
HIDDEN
 10
71.44124575
 20
85.6237530343
 40
8.1591112841
100
AcDbArc
 50
234.7707310208
 51
235.6360159052
  0
ARC
  5
35E
100
AcDbEntity
  8
DEFAULT_2
100
AcDbCircle
 62
8
  6
HIDDEN
 10
71.4412457499
 20
79.0501435422
 40
8.1591112839
100
AcDbArc
 50
124.3639840948
 51
125.2292689792
  0
ARC
  5
35F
100
AcDbEntity
  8
DEFAULT_2
100
AcDbCircle
 62
8
  6
HIDDEN
 10
71.44124575
 20
89.0501435422
 40
8.159111284
100
AcDbArc
 50
124.3639840948
 51
125.2292689792
  0
ARC
  5
360
100
AcDbEntity
  8
DEFAULT_2
100
AcDbCircle
 62
8
  6
HIDDEN
 10
71.4307178637
 20
98.6113036451
 40
8.1428945364
100
AcDbArc
 50
233.537852312
 51
236.1438756337
  0
ARC
  5
361
100
AcDbEntity
  8
DEFAULT_2
100
AcDbCircle
 62
8
  6
HIDDEN
 10
71.4307178637
 20
85.6113036451
 40
8.1428945365
100
AcDbArc
 50
233.537852312
 51
236.1438756337
  0
ARC
  5
362
100
AcDbEntity
  8
DEFAULT_2
100
AcDbCircle
 62
8
  6
HIDDEN
 10
71.4078395686
 20
79.0958411237
 40
8.1025382379
100
AcDbArc
 50
123.8527573259
 51
124.1006325989
  0
ARC
  5
363
100
AcDbEntity
  8
DEFAULT_2
100
AcDbCircle
 62
8
  6
HIDDEN
 10
71.4078395657
 20
89.0958411279
 40
8.1025382328
100
AcDbArc
 50
123.8527573259
 51
124.1006325979
  0
ARC
  5
364
100
AcDbEntity
  8
DEFAULT_2
100
AcDbCircle
 62
8
  6
HIDDEN
 10
71.4078395586
 20
85.5780554379
 40
8.10253822
100
AcDbArc
 50
235.8993673984
 51
236.1472426744
  0
ARC
  5
365
100
AcDbEntity
  8
DEFAULT_2
100
AcDbCircle
 62
8
  6
HIDDEN
 10
71.400332482
 20
85.5641155213
 40
8.0867889646
100
AcDbArc
 50
235.4041725352
 51
235.6365589552
  0
ARC
  5
366
100
AcDbEntity
  8
DEFAULT_2
100
AcDbCircle
 62
8
  6
HIDDEN
 10
71.2902686884
 20
85.4036507396
 40
7.8922058855
100
AcDbArc
 50
235.8965743175
 51
236.1489941584
  0
ARC
  5
367
100
AcDbEntity
  8
DEFAULT_2
100
AcDbCircle
 62
8
  6
HIDDEN
 10
71.2902686857
 20
98.4036507355
 40
7.8922058806
100
AcDbArc
 50
235.896574316
 51
236.1489941585
  0
ARC
  5
368
100
AcDbEntity
  8
DEFAULT_2
100
AcDbCircle
 62
8
  6
HIDDEN
 10
71.2855331019
 20
98.3963579521
 40
7.8835120748
100
AcDbArc
 50
235.6371017564
 51
235.8953548558
  0
ARC
  5
369
100
AcDbEntity
  8
DEFAULT_2
100
AcDbCircle
 62
8
  6
HIDDEN
 10
71.2855285852
 20
85.3963513261
 40
7.8835040558
100
AcDbArc
 50
235.6371020138
 51
235.8953797926
  0
ARC
  5
36A
100
AcDbEntity
  8
DEFAULT_2
100
AcDbCircle
 62
8
  6
HIDDEN
 10
71.2701718182
 20
85.3738177706
 40
7.8562352274
100
AcDbArc
 50
235.6370414518
 51
235.8956543353
  0
ARC
  5
36B
100
AcDbEntity
  8
DEFAULT_2
100
AcDbCircle
 62
8
  6
HIDDEN
 10
71.2701718145
 20
79.3000788112
 40
7.8562352209
100
AcDbArc
 50
124.1043456621
 51
124.3629585483
  0
ARC
  5
36C
100
AcDbEntity
  8
DEFAULT_2
100
AcDbCircle
 62
8
  6
HIDDEN
 10
71.270171809
 20
89.3000788193
 40
7.8562352111
100
AcDbArc
 50
124.1043456608
 51
124.3629585484
  0
ARC
  5
36D
100
AcDbEntity
  8
DEFAULT_2
100
AcDbCircle
 62
8
  6
HIDDEN
 10
71.4507254123
 20
118.6373954866
 40
8.1757234671
100
AcDbArc
 50
234.7716222105
 51
235.6349056306
  0
ARC
  5
36E
100
AcDbEntity
  8
DEFAULT_2
100
AcDbCircle
 62
8
  6
HIDDEN
 10
71.4507252196
 20
108.6373952101
 40
8.17572313
100
AcDbArc
 50
234.7716228515
 51
235.6349062385
  0
ARC
  5
36F
100
AcDbEntity
  8
DEFAULT_2
100
AcDbCircle
 62
8
  6
HIDDEN
 10
71.4412457047
 20
99.0501436072
 40
8.1591112047
100
AcDbArc
 50
124.3639838128
 51
125.2292686848
  0
ARC
  5
370
100
AcDbEntity
  8
DEFAULT_2
100
AcDbCircle
 62
8
  6
HIDDEN
 10
71.4307178635
 20
118.6113036449
 40
8.1428945362
100
AcDbArc
 50
233.537852312
 51
236.1438756337
  0
ARC
  5
371
100
AcDbEntity
  8
DEFAULT_2
100
AcDbCircle
 62
8
  6
HIDDEN
 10
71.4307178322
 20
108.6113036003
 40
8.1428944817
100
AcDbArc
 50
233.5378523034
 51
236.1438759323
  0
ARC
  5
372
100
AcDbEntity
  8
DEFAULT_2
100
AcDbCircle
 62
8
  6
HIDDEN
 10
71.4078561514
 20
99.0958164549
 40
8.1025679623
100
AcDbArc
 50
123.8527574168
 51
124.1006144737
  0
ARC
  5
373
100
AcDbEntity
  8
DEFAULT_2
100
AcDbCircle
 62
8
  6
HIDDEN
 10
71.2902901881
 20
108.4036826653
 40
7.8922443755
100
AcDbArc
 50
235.896619207
 51
236.1489938112
  0
ARC
  5
374
100
AcDbEntity
  8
DEFAULT_2
100
AcDbCircle
 62
8
  6
HIDDEN
 10
71.2902686872
 20
118.4036507377
 40
7.8922058833
100
AcDbArc
 50
235.8965743165
 51
236.1489941584
  0
ARC
  5
375
100
AcDbEntity
  8
DEFAULT_2
100
AcDbCircle
 62
8
  6
HIDDEN
 10
71.2855330982
 20
118.3963579466
 40
7.8835120681
100
AcDbArc
 50
235.6371017563
 51
235.8953548564
  0
ARC
  5
376
100
AcDbEntity
  8
DEFAULT_2
100
AcDbCircle
 62
8
  6
HIDDEN
 10
71.285525923
 20
108.3963474277
 40
7.8834993351
100
AcDbArc
 50
235.6371022613
 51
235.8953993971
  0
ARC
  5
377
100
AcDbEntity
  8
DEFAULT_2
100
AcDbCircle
 62
8
  6
HIDDEN
 10
71.2701680153
 20
99.3000843913
 40
7.8562284703
100
AcDbArc
 50
124.1043275666
 51
124.3629583584
  0
ARC
  5
378
100
AcDbEntity
  8
DEFAULT_2
100
AcDbCircle
 62
8
  6
HIDDEN
 10
71.6629352051
 20
85.9345124121
 40
8.5408415455
100
AcDbArc
 50
233.5735400812
 51
234.3910286217
  0
ARC
  5
379
100
AcDbEntity
  8
DEFAULT_2
100
AcDbCircle
 62
8
  6
HIDDEN
 10
71.6466626207
 20
85.9123631709
 40
8.5133573238
100
AcDbArc
 50
233.5731426144
 51
234.7619200519
  0
ARC
  5
37A
100
AcDbEntity
  8
DEFAULT_2
100
AcDbCircle
 62
8
  6
HIDDEN
 10
71.6128085486
 20
88.8084171943
 40
8.4555315033
100
AcDbArc
 50
125.2340215121
 51
126.4309223794
  0
ARC
  5
37B
100
AcDbEntity
  8
DEFAULT_2
100
AcDbCircle
 62
8
  6
HIDDEN
 10
71.6128085484
 20
78.8084171946
 40
8.455531503
100
AcDbArc
 50
125.2340215121
 51
126.4309223795
  0
ARC
  5
37C
100
AcDbEntity
  8
DEFAULT_2
100
AcDbCircle
 62
8
  6
HIDDEN
 10
71.6128085481
 20
85.8654793814
 40
8.4555315025
100
AcDbArc
 50
233.5690776205
 51
234.765978488
  0
ARC
  5
37D
100
AcDbEntity
  8
DEFAULT_2
100
AcDbCircle
 62
8
  6
HIDDEN
 10
71.6128084843
 20
98.8084172831
 40
8.4555313937
100
AcDbArc
 50
125.2340212156
 51
126.4309223861
  0
ARC
  5
37E
100
AcDbEntity
  8
DEFAULT_2
100
AcDbCircle
 62
8
  6
HIDDEN
 10
71.5329903113
 20
85.7530580556
 40
8.3176569607
100
AcDbArc
 50
234.3909914023
 51
234.7683133426
  0
ARC
  5
37F
100
AcDbEntity
  8
DEFAULT_2
100
AcDbCircle
 62
8
  6
HIDDEN
 10
71.5163456931
 20
88.9410265069
 40
8.2915528789
100
AcDbArc
 50
123.8811872974
 51
126.4387931347
  0
ARC
  5
380
100
AcDbEntity
  8
DEFAULT_2
100
AcDbCircle
 62
8
  6
HIDDEN
 10
71.5163456931
 20
78.9410265068
 40
8.291552879
100
AcDbArc
 50
123.8811872974
 51
126.4387931347
  0
ARC
  5
381
100
AcDbEntity
  8
DEFAULT_2
100
AcDbCircle
 62
8
  6
HIDDEN
 10
71.6466626206
 20
118.9123631708
 40
8.5133573237
100
AcDbArc
 50
233.5731426144
 51
234.7619200519
  0
ARC
  5
382
100
AcDbEntity
  8
DEFAULT_2
100
AcDbCircle
 62
8
  6
HIDDEN
 10
71.6466626204
 20
98.9123631705
 40
8.5133573233
100
AcDbArc
 50
233.5731426144
 51
234.761920052
  0
ARC
  5
383
100
AcDbEntity
  8
DEFAULT_2
100
AcDbCircle
 62
8
  6
HIDDEN
 10
71.6466620469
 20
108.9123623846
 40
8.5133563505
100
AcDbArc
 50
233.5731459989
 51
234.761920782
  0
ARC
  5
384
100
AcDbEntity
  8
DEFAULT_2
100
AcDbCircle
 62
8
  6
HIDDEN
 10
71.5163446127
 20
98.9410280874
 40
8.2915509644
100
AcDbArc
 50
123.8811871217
 51
126.4387923472
  0
SPLINE
  5
385
100
AcDbEntity
  8
DEFAULT_2
100
AcDbSpline
 62
8
  6
HIDDEN
 70
0
 71
3
 72
10
 73
6
 74
0
 42
0.0000001
 43
0.0000001
 44
0.0000000001
 40
0.0
 40
0.0
 40
0.0
 40
0.0
 40
0.1813876336
 40
0.5510784582
 40
1.0
 40
1.0
 40
1.0
 40
1.0
 10
53.8990031841
 20
38.5848226783
 30
0.0
 10
53.8965682433
 20
38.6441690573
 30
0.0
 10
53.8903272015
 20
38.8245169024
 30
0.0
 10
53.8818224813
 20
39.1518705546
 30
0.0
 10
53.8786701342
 20
39.4199169163
 30
0.0
 10
53.8770790081
 20
39.5669099639
 30
0.0
  0
SPLINE
  5
386
100
AcDbEntity
  8
DEFAULT_2
100
AcDbSpline
 62
8
  6
HIDDEN
 70
0
 71
3
 72
11
 73
7
 74
0
 42
0.0000001
 43
0.0000001
 44
0.0000000001
 40
0.0
 40
0.0
 40
0.0
 40
0.0
 40
0.3961706041
 40
0.7178647349
 40
0.9273344815
 40
1.0
 40
1.0
 40
1.0
 40
1.0
 10
53.8755344992
 20
39.5673260774
 30
0.0
 10
53.8755344992
 20
39.41805052
 30
0.0
 10
53.871270056
 20
39.1475765611
 30
0.0
 10
53.8726234614
 20
38.7981558329
 30
0.0
 10
53.872445483
 20
38.5706358566
 30
0.0
 10
53.872435474
 20
38.4643284102
 30
0.0
 10
53.8724454813
 20
38.4369482882
 30
0.0
  0
SPLINE
  5
387
100
AcDbEntity
  8
DEFAULT_2
100
AcDbSpline
 62
8
  6
HIDDEN
 70
0
 71
3
 72
13
 73
9
 74
0
 42
0.0000001
 43
0.0000001
 44
0.0000000001
 40
0.0
 40
0.0
 40
0.0
 40
0.0
 40
0.3445606686
 40
0.6192832964
 40
0.731924357
 40
0.8304894137
 40
0.9182564174
 40
1.0
 40
1.0
 40
1.0
 40
1.0
 10
52.7329863779
 20
38.7171996441
 30
0.0
 10
52.7524579981
 20
38.6760456184
 30
0.0
 10
52.7900503963
 20
38.6032836766
 30
0.0
 10
52.8454466946
 20
38.5232180076
 30
0.0
 10
52.8912626508
 20
38.4779491844
 30
0.0
 10
52.9236114171
 20
38.4548885413
 30
0.0
 10
52.9563899931
 20
38.440653963
 30
0.0
 10
52.978888227
 20
38.4373580689
 30
0.0
 10
52.9896892877
 20
38.4373540532
 30
0.0
  0
SPLINE
  5
388
100
AcDbEntity
  8
DEFAULT_2
100
AcDbSpline
 62
8
  6
HIDDEN
 70
0
 71
3
 72
11
 73
7
 74
0
 42
0.0000001
 43
0.0000001
 44
0.0000000001
 40
0.0
 40
0.0
 40
0.0
 40
0.0
 40
0.0802778338
 40
0.3057399309
 40
0.6332153745
 40
1.0
 40
1.0
 40
1.0
 40
1.0
 10
53.8724454813
 20
41.2369482882
 30
0.0
 10
53.8724310195
 20
41.1922701621
 30
0.0
 10
53.8724454825
 20
41.0221126746
 30
0.0
 10
53.8726817372
 20
40.6697014163
 30
0.0
 10
53.8710420521
 20
40.1578324471
 30
0.0
 10
53.8757972487
 20
39.7714574466
 30
0.0
 10
53.8755344992
 20
39.5673260774
 30
0.0
  0
SPLINE
  5
389
100
AcDbEntity
  8
DEFAULT_2
100
AcDbSpline
 62
8
  6
HIDDEN
 70
0
 71
3
 72
11
 73
7
 74
0
 42
0.0000001
 43
0.0000001
 44
0.0000000001
 40
0.0
 40
0.0
 40
0.0
 40
0.0
 40
0.301792134
 40
0.5749877603
 40
0.8100544641
 40
1.0
 40
1.0
 40
1.0
 40
1.0
 10
54.1808156632
 20
39.4643079356
 30
0.0
 10
54.1615878544
 20
39.3801563432
 30
0.0
 10
54.1234236393
 20
39.2201739535
 30
0.0
 10
54.0634489057
 20
38.9963058274
 30
0.0
 10
54.00318398
 20
38.8058707973
 30
0.0
 10
53.9573923785
 20
38.6928860044
 30
0.0
 10
53.9328246587
 20
38.6444287859
 30
0.0
  0
SPLINE
  5
38A
100
AcDbEntity
  8
DEFAULT_2
100
AcDbSpline
 62
8
  6
HIDDEN
 70
0
 71
3
 72
13
 73
9
 74
0
 42
0.0000001
 43
0.0000001
 44
0.0000000001
 40
0.0
 40
0.0
 40
0.0
 40
0.0
 40
0.3434856208
 40
0.6188785592
 40
0.7321040915
 40
0.8308501384
 40
0.9184752898
 40
1.0
 40
1.0
 40
1.0
 40
1.0
 10
50.232415269
 20
38.7183114615
 30
0.0
 10
50.2518785903
 20
38.6772153796
 30
0.0
 10
50.2896263976
 20
38.604415682
 30
0.0
 10
50.3448906397
 20
38.5240646003
 30
0.0
 10
50.3905149914
 20
38.4781676101
 30
0.0
 10
50.4228366745
 20
38.4547803723
 30
0.0
 10
50.455633479
 20
38.4404469668
 30
0.0
 10
50.4781318564
 20
38.437168148
 30
0.0
 10
50.4889244391
 20
38.437170326
 30
0.0
  0
SPLINE
  5
38B
100
AcDbEntity
  8
DEFAULT_2
100
AcDbSpline
 62
8
  6
HIDDEN
 70
0
 71
3
 72
13
 73
9
 74
0
 42
0.0000001
 43
0.0000001
 44
0.0000000001
 40
0.0
 40
0.0
 40
0.0
 40
0.0
 40
0.3437661864
 40
0.6192196774
 40
0.7322477765
 40
0.8308423212
 40
0.9184524608
 40
1.0
 40
1.0
 40
1.0
 40
1.0
 10
47.7324566636
 20
38.7183048563
 30
0.0
 10
47.7519419916
 20
38.67715442
 30
0.0
 10
47.7897048176
 20
38.6042754071
 30
0.0
 10
47.8449548604
 20
38.5238194747
 30
0.0
 10
47.8906766049
 20
38.478021036
 30
0.0
 10
47.9230459383
 20
38.4547547607
 30
0.0
 10
47.9558489676
 20
38.4404560092
 30
0.0
 10
47.9783573657
 20
38.4371714335
 30
0.0
 10
47.9891580474
 20
38.4371717092
 30
0.0
  0
SPLINE
  5
38C
100
AcDbEntity
  8
DEFAULT_2
100
AcDbSpline
 62
8
  6
HIDDEN
 70
0
 71
3
 72
12
 73
8
 74
0
 42
0.0000001
 43
0.0000001
 44
0.0000000001
 40
0.0
 40
0.0
 40
0.0
 40
0.0
 40
0.079357418
 40
0.1744552898
 40
0.408199372
 40
0.6887927928
 40
1.0
 40
1.0
 40
1.0
 40
1.0
 10
53.5058562793
 20
37.692872096
 30
0.0
 10
53.5239044694
 20
37.7366930829
 30
0.0
 10
53.5588135613
 20
37.8349788369
 30
0.0
 10
53.6273908325
 20
38.0689736768
 30
0.0
 10
53.7088397315
 20
38.4239476546
 30
0.0
 10
53.8026363063
 20
38.9079529941
 30
0.0
 10
53.863604065
 20
39.2560990188
 30
0.0
 10
53.8950455275
 20
39.4392727292
 30
0.0
  0
SPLINE
  5
38D
100
AcDbEntity
  8
DEFAULT_2
100
AcDbSpline
 62
8
  6
HIDDEN
 70
0
 71
3
 72
19
 73
15
 74
0
 42
0.0000001
 43
0.0000001
 44
0.0000000001
 40
0.0
 40
0.0
 40
0.0
 40
0.0
 40
0.0385476296
 40
0.085750011
 40
0.1409656036
 40
0.2032973991
 40
0.3441024675
 40
0.4972718265
 40
0.6508575157
 40
0.7927496962
 40
0.8559141874
 40
0.9121969071
 40
0.9604393654
 40
1.0
 40
1.0
 40
1.0
 40
1.0
 10
51.0056406709
 20
37.6920276913
 30
0.0
 10
51.0270207502
 20
37.743973184
 30
0.0
 10
51.0678684238
 20
37.8622554998
 30
0.0
 10
51.1233372264
 20
38.0600890662
 30
0.0
 10
51.1790369324
 20
38.293672665
 30
0.0
 10
51.2565887466
 20
38.6621053585
 30
0.0
 10
51.3502078422
 20
39.1728842282
 30
0.0
 10
51.4591491303
 20
39.8159197042
 30
0.0
 10
51.5680341961
 20
40.4605715147
 30
0.0
 10
51.6616300769
 20
40.9748100389
 30
0.0
 10
51.7391311175
 20
41.3476969792
 30
0.0
 10
51.7947159747
 20
41.5857036443
 30
0.0
 10
51.8502087727
 20
41.7882520335
 30
0.0
 10
51.8910608521
 20
41.9096754216
 30
0.0
 10
51.9123455243
 20
41.9632518115
 30
0.0
  0
SPLINE
  5
38E
100
AcDbEntity
  8
DEFAULT_2
100
AcDbSpline
 62
8
  6
HIDDEN
 70
0
 71
3
 72
18
 73
14
 74
0
 42
0.0000001
 43
0.0000001
 44
0.0000000001
 40
0.0
 40
0.0
 40
0.0
 40
0.0
 40
0.0385216522
 40
0.085724048
 40
0.1410127566
 40
0.2033773383
 40
0.3442410842
 40
0.497488143
 40
0.6510268452
 40
0.7929542355
 40
0.9121071389
 40
0.9603509467
 40
1.0
 40
1.0
 40
1.0
 40
1.0
 10
48.5057297251
 20
37.6924290009
 30
0.0
 10
48.5271182109
 20
37.7443588331
 30
0.0
 10
48.5680206986
 20
37.8626446139
 30
0.0
 10
48.6235452119
 20
38.0606372641
 30
0.0
 10
48.6792041092
 20
38.2945061572
 30
0.0
 10
48.7568470389
 20
38.6633458418
 30
0.0
 10
48.8505263312
 20
39.1746170586
 30
0.0
 10
48.9594811726
 20
39.8180875926
 30
0.0
 10
49.0684851508
 20
40.4631588141
 30
0.0
 10
49.1768964212
 20
41.0578218008
 30
0.0
 10
49.2711884624
 20
41.4991080421
 30
0.0
 10
49.350912829
 20
41.7903109448
 30
0.0
 10
49.3916975417
 20
41.9119601554
 30
0.0
 10
49.4130190862
 20
41.9656899674
 30
0.0
  0
SPLINE
  5
38F
100
AcDbEntity
  8
DEFAULT_2
100
AcDbSpline
 62
8
  6
HIDDEN
 70
0
 71
3
 72
15
 73
11
 74
0
 42
0.0000001
 43
0.0000001
 44
0.0000000001
 40
0.0
 40
0.0
 40
0.0
 40
0.0
 40
0.0970093955
 40
0.1962918123
 40
0.3080798836
 40
0.4355191597
 40
0.575355941
 40
0.7211374693
 40
0.8651002573
 40
1.0
 40
1.0
 40
1.0
 40
1.0
 10
35.4889311075
 20
39.4098567072
 30
0.0
 10
35.5306432675
 20
39.400609344
 30
0.0
 10
35.6195028779
 20
39.3964275796
 30
0.0
 10
35.7495660357
 20
39.4441326646
 30
0.0
 10
35.8691398235
 20
39.5353980094
 30
0.0
 10
35.9826017445
 20
39.6584202244
 30
0.0
 10
36.0923288519
 20
39.8037114513
 30
0.0
 10
36.1988841419
 20
39.9600687308
 30
0.0
 10
36.3027280708
 20
40.115592677
 30
0.0
 10
36.373406935
 20
40.2161059011
 30
0.0
 10
36.4093007148
 20
40.2634503039
 30
0.0
  0
SPLINE
  5
390
100
AcDbEntity
  8
DEFAULT_2
100
AcDbSpline
 62
8
  6
HIDDEN
 70
0
 71
3
 72
17
 73
13
 74
0
 42
0.0000001
 43
0.0000001
 44
0.0000000001
 40
0.0
 40
0.0
 40
0.0
 40
0.0
 40
0.0720008331
 40
0.1172281129
 40
0.169442928
 40
0.293614307
 40
0.4388594946
 40
0.5948182493
 40
0.7486526876
 40
0.8871780614
 40
0.9472048146
 40
1.0
 40
1.0
 40
1.0
 40
1.0
 10
37.4652554629
 20
40.7021804304
 30
0.0
 10
37.4251922671
 20
40.6932986338
 30
0.0
 10
37.3657220359
 20
40.65604392
 30
0.0
 10
37.2980310103
 20
40.5876225566
 30
0.0
 10
37.2199872108
 20
40.4878013484
 30
0.0
 10
37.1251972922
 20
40.3304968843
 30
0.0
 10
37.0145567579
 20
40.1147448545
 30
0.0
 10
36.9019045223
 20
39.8811230584
 30
0.0
 10
36.7872248486
 20
39.6528332649
 30
0.0
 10
36.6861127387
 20
39.4787768309
 30
0.0
 10
36.6007561971
 20
39.363548687
 30
0.0
 10
36.5567803399
 20
39.3162748434
 30
0.0
 10
36.5343781594
 20
39.2961864155
 30
0.0
  0
SPLINE
  5
391
100
AcDbEntity
  8
DEFAULT_2
100
AcDbSpline
 62
8
  6
HIDDEN
 70
0
 71
3
 72
19
 73
15
 74
0
 42
0.0000001
 43
0.0000001
 44
0.0000000001
 40
0.0
 40
0.0
 40
0.0
 40
0.0
 40
0.0275537878
 40
0.0569145361
 40
0.0916749076
 40
0.1338633879
 40
0.1841260895
 40
0.2424819037
 40
0.3083615095
 40
0.3806512695
 40
0.5390806275
 40
0.7047721702
 40
0.8632028047
 40
1.0
 40
1.0
 40
1.0
 40
1.0
 10
37.9890554056
 20
38.8556275795
 30
0.0
 10
38.0093390304
 20
38.8511664984
 30
0.0
 10
38.0535640992
 20
38.8499515442
 30
0.0
 10
38.1191691311
 20
38.8759228139
 30
0.0
 10
38.1819710161
 20
38.9269637646
 30
0.0
 10
38.2435794029
 20
39.0008878568
 30
0.0
 10
38.3050820336
 20
39.0967128875
 30
0.0
 10
38.3664980638
 20
39.2131387413
 30
0.0
 10
38.4279052146
 20
39.3479991783
 30
0.0
 10
38.5125607625
 20
39.5549516282
 30
0.0
 10
38.6145638723
 20
39.8358619276
 30
0.0
 10
38.7338323219
 20
40.1794747367
 30
0.0
 10
38.852393443
 20
40.505980851
 30
0.0
 10
38.9390710421
 20
40.7113562252
 30
0.0
 10
38.9856208601
 20
40.8033600359
 30
0.0
  0
SPLINE
  5
392
100
AcDbEntity
  8
DEFAULT_2
100
AcDbSpline
 62
8
  6
HIDDEN
 70
0
 71
3
 72
8
 73
4
 74
0
 42
0.0000001
 43
0.0000001
 44
0.0000000001
 40
0.0
 40
0.0
 40
0.0
 40
0.0
 40
1.0
 40
1.0
 40
1.0
 40
1.0
 10
39.9118361284
 20
41.2369482882
 30
0.0
 10
39.9002720324
 20
41.2369482882
 30
0.0
 10
39.8886250325
 20
41.2353713849
 30
0.0
 10
39.8774373865
 20
41.2324448011
 30
0.0
  0
SPLINE
  5
393
100
AcDbEntity
  8
DEFAULT_2
100
AcDbSpline
 62
8
  6
HIDDEN
 70
0
 71
3
 72
11
 73
7
 74
0
 42
0.0000001
 43
0.0000001
 44
0.0000000001
 40
0.0
 40
0.0
 40
0.0
 40
0.0
 40
0.1742684977
 40
0.3863630766
 40
0.6594655454
 40
1.0
 40
1.0
 40
1.0
 40
1.0
 10
52.4534559914
 20
41.2494521136
 30
0.0
 10
52.4736862662
 20
41.2501634214
 30
0.0
 10
52.5192370397
 20
41.2383715361
 30
0.0
 10
52.5794084741
 20
41.1889117903
 30
0.0
 10
52.6375336891
 20
41.1120931551
 30
0.0
 10
52.6723902101
 20
41.0497271242
 30
0.0
 10
52.6903617069
 20
41.014489339
 30
0.0
  0
SPLINE
  5
394
100
AcDbEntity
  8
DEFAULT_2
100
AcDbSpline
 62
8
  6
HIDDEN
 70
0
 71
3
 72
9
 73
5
 74
0
 42
0.0000001
 43
0.0000001
 44
0.0000000001
 40
0.0
 40
0.0
 40
0.0
 40
0.0
 40
0.4558063186
 40
1.0
 40
1.0
 40
1.0
 40
1.0
 10
35.4889317677
 20
39.4098565609
 30
0.0
 10
35.429488238
 20
39.4230348741
 30
0.0
 10
35.3063589501
 20
39.4819269532
 30
0.0
 10
35.2008842452
 20
39.5638417006
 30
0.0
 10
35.1445357821
 20
39.6097678531
 30
0.0
  0
SPLINE
  5
395
100
AcDbEntity
  8
DEFAULT_2
100
AcDbSpline
 62
8
  6
HIDDEN
 70
0
 71
3
 72
15
 73
11
 74
0
 42
0.0000001
 43
0.0000001
 44
0.0000000001
 40
0.0
 40
0.0
 40
0.0
 40
0.0
 40
0.2539839541
 40
0.3896149054
 40
0.5248920255
 40
0.6545946033
 40
0.775007067
 40
0.8320699137
 40
0.8879228206
 40
1.0
 40
1.0
 40
1.0
 40
1.0
 10
36.1637772248
 20
39.3289262979
 30
0.0
 10
36.0446543373
 20
39.4010338902
 30
0.0
 10
35.8754300712
 20
39.533386993
 30
0.0
 10
35.6599864879
 20
39.7238215429
 30
0.0
 10
35.4923496875
 20
39.865925095
 30
0.0
 10
35.3210559504
 20
39.9901162874
 30
0.0
 10
35.170796538
 20
40.0687764097
 30
0.0
 10
35.0481979107
 20
40.1067063513
 30
0.0
 10
34.9259604705
 20
40.1257300303
 30
0.0
 10
34.8323875586
 20
40.1184876686
 30
0.0
 10
34.7723975778
 20
40.10518821
 30
0.0
  0
SPLINE
  5
396
100
AcDbEntity
  8
DEFAULT_2
100
AcDbSpline
 62
8
  6
HIDDEN
 70
0
 71
3
 72
18
 73
14
 74
0
 42
0.0000001
 43
0.0000001
 44
0.0000000001
 40
0.0
 40
0.0
 40
0.0
 40
0.0
 40
0.0270010345
 40
0.0613811425
 40
0.1039118462
 40
0.1546310472
 40
0.278073107
 40
0.4243699433
 40
0.5825414477
 40
0.7398224999
 40
0.8829555081
 40
0.9453605069
 40
1.0
 40
1.0
 40
1.0
 40
1.0
 10
39.8774373865
 20
41.2324448011
 30
0.0
 10
39.8572232081
 20
41.2222118453
 30
0.0
 10
39.8164180089
 20
41.1891950242
 30
0.0
 10
39.7622336559
 20
41.1205770019
 30
0.0
 10
39.7074354138
 20
41.0282709001
 30
0.0
 10
39.6288571429
 20
40.8641596233
 30
0.0
 10
39.5340051252
 20
40.6121622215
 30
0.0
 10
39.4236878734
 20
40.2704895597
 30
0.0
 10
39.3111404045
 20
39.8997114603
 30
0.0
 10
39.1967994071
 20
39.5323233416
 30
0.0
 10
39.0968130397
 20
39.2445282532
 30
0.0
 10
39.0120315301
 20
39.0432662928
 30
0.0
 10
38.9681361744
 20
38.9552592052
 30
0.0
 10
38.9455466975
 20
38.9153620829
 30
0.0
  0
SPLINE
  5
397
100
AcDbEntity
  8
DEFAULT_2
100
AcDbSpline
 62
8
  6
HIDDEN
 70
0
 71
3
 72
13
 73
9
 74
0
 42
0.0000001
 43
0.0000001
 44
0.0000000001
 40
0.0
 40
0.0
 40
0.0
 40
0.0
 40
0.0851264197
 40
0.175322029
 40
0.275436689
 40
0.3886851578
 40
0.6611364534
 40
1.0
 40
1.0
 40
1.0
 40
1.0
 10
49.9540283992
 20
41.2495339744
 30
0.0
 10
49.9639341525
 20
41.249886484
 30
0.0
 10
49.9845342089
 20
41.2478224595
 30
0.0
 10
50.0148035279
 20
41.2363732592
 30
0.0
 10
50.0446612567
 20
41.2170767015
 30
0.0
 10
50.0867246545
 20
41.1789852865
 30
0.0
 10
50.1379512014
 20
41.1112131855
 30
0.0
 10
50.1728554044
 20
41.049073976
 30
0.0
 10
50.1907960077
 20
41.013931685
 30
0.0
  0
SPLINE
  5
398
100
AcDbEntity
  8
DEFAULT_2
100
AcDbSpline
 62
8
  6
HIDDEN
 70
0
 71
3
 72
11
 73
7
 74
0
 42
0.0000001
 43
0.0000001
 44
0.0000000001
 40
0.0
 40
0.0
 40
0.0
 40
0.0
 40
0.1742665401
 40
0.3865244324
 40
0.6597048916
 40
1.0
 40
1.0
 40
1.0
 40
1.0
 10
47.4535181695
 20
41.2494786304
 30
0.0
 10
47.4737633006
 20
41.2501916218
 30
0.0
 10
47.5193722785
 20
41.2383673458
 30
0.0
 10
47.5795309288
 20
41.1887525731
 30
0.0
 10
47.6376829118
 20
41.1118795958
 30
0.0
 10
47.6725996105
 20
41.0495051893
 30
0.0
 10
47.6905781214
 20
41.0142690175
 30
0.0
  0
LINE
  5
399
100
AcDbEntity
  8
DEFAULT_2
100
AcDbLine
 62
8
  6
HIDDEN
 10
53.8786235171
 20
39.5667712594
 11
54.1808156632
 21
39.4643079356
  0
SPLINE
  5
39A
100
AcDbEntity
  8
DEFAULT_2
100
AcDbSpline
 62
8
  6
HIDDEN
 70
0
 71
3
 72
13
 73
9
 74
0
 42
0.0000001
 43
0.0000001
 44
0.0000000001
 40
0.0
 40
0.0
 40
0.0
 40
0.0
 40
0.3443642155
 40
0.618987916
 40
0.7317661418
 40
0.8304679409
 40
0.9182910247
 40
1.0
 40
1.0
 40
1.0
 40
1.0
 10
45.2330649288
 20
38.7170665422
 30
0.0
 10
45.25251507
 20
38.6759494146
 30
0.0
 10
45.2900655575
 20
38.6032367912
 30
0.0
 10
45.3454635763
 20
38.5232545738
 30
0.0
 10
45.391189411
 20
38.4779017893
 30
0.0
 10
45.4234913788
 20
38.4547286575
 30
0.0
 10
45.4562300257
 20
38.4403802709
 30
0.0
 10
45.4787236471
 20
38.4370447646
 30
0.0
 10
45.4895162011
 20
38.437042046
 30
0.0
  0
SPLINE
  5
39B
100
AcDbEntity
  8
DEFAULT_2
100
AcDbSpline
 62
8
  6
HIDDEN
 70
0
 71
3
 72
13
 73
9
 74
0
 42
0.0000001
 43
0.0000001
 44
0.0000000001
 40
0.0
 40
0.0
 40
0.0
 40
0.0
 40
0.3431606639
 40
0.6183721437
 40
0.7317388917
 40
0.8307699323
 40
0.9185163395
 40
1.0
 40
1.0
 40
1.0
 40
1.0
 10
42.7324912748
 20
38.718073454
 30
0.0
 10
42.7518860152
 20
38.6771101204
 30
0.0
 10
42.7895346027
 20
38.6045465543
 30
0.0
 10
42.84467938
 20
38.5244555204
 30
0.0
 10
42.8901564392
 20
38.4785929372
 30
0.0
 10
42.9223225494
 20
38.4550419521
 30
0.0
 10
42.9550136055
 20
38.4405293559
 30
0.0
 10
42.9774789371
 20
38.4372490773
 30
0.0
 10
42.98824084
 20
38.4372566676
 30
0.0
  0
SPLINE
  5
39C
100
AcDbEntity
  8
DEFAULT_2
100
AcDbSpline
 62
8
  6
HIDDEN
 70
0
 71
3
 72
13
 73
9
 74
0
 42
0.0000001
 43
0.0000001
 44
0.0000000001
 40
0.0
 40
0.0
 40
0.0
 40
0.0
 40
0.3435723401
 40
0.6184243108
 40
0.7316089706
 40
0.8305859526
 40
0.9184199597
 40
1.0
 40
1.0
 40
1.0
 40
1.0
 10
40.2328921013
 20
38.7172359689
 30
0.0
 10
40.2522682737
 20
38.6762706864
 30
0.0
 10
40.2898296662
 20
38.6037717266
 30
0.0
 10
40.3450452203
 20
38.5238946689
 30
0.0
 10
40.390539607
 20
38.4782783431
 30
0.0
 10
40.4227115826
 20
38.4548671022
 30
0.0
 10
40.4553687374
 20
38.4403682469
 30
0.0
 10
40.47782718
 20
38.4370743303
 30
0.0
 10
40.4885874358
 20
38.4370791046
 30
0.0
  0
SPLINE
  5
39D
100
AcDbEntity
  8
DEFAULT_2
100
AcDbSpline
 62
8
  6
HIDDEN
 70
0
 71
3
 72
19
 73
15
 74
0
 42
0.0000001
 43
0.0000001
 44
0.0000000001
 40
0.0
 40
0.0
 40
0.0
 40
0.0
 40
0.0384806832
 40
0.0857402157
 40
0.141129154
 40
0.2035043293
 40
0.3442890998
 40
0.4974929433
 40
0.6509929059
 40
0.7928215346
 40
0.8559834455
 40
0.9122486304
 40
0.9604576525
 40
1.0
 40
1.0
 40
1.0
 40
1.0
 10
46.0062619545
 20
37.6939982526
 30
0.0
 10
46.0276232212
 20
37.7458136594
 30
0.0
 10
46.0685455108
 20
37.8639861517
 30
0.0
 10
46.123925351
 20
38.0619836875
 30
0.0
 10
46.1794441413
 20
38.2958867746
 30
0.0
 10
46.2570124309
 20
38.6644015623
 30
0.0
 10
46.3506095345
 20
39.1749895393
 30
0.0
 10
46.4593819912
 20
39.8175950936
 30
0.0
 10
46.5682537087
 20
40.4617264562
 30
0.0
 10
46.6617957703
 20
40.9754661478
 30
0.0
 10
46.739209826
 20
41.3480392107
 30
0.0
 10
46.7947483447
 20
41.5858432396
 30
0.0
 10
46.8502206535
 20
41.7881768913
 30
0.0
 10
46.8910406725
 20
41.9094588767
 30
0.0
 10
46.9123053587
 20
41.9629814832
 30
0.0
  0
SPLINE
  5
39E
100
AcDbEntity
  8
DEFAULT_2
100
AcDbSpline
 62
8
  6
HIDDEN
 70
0
 71
3
 72
19
 73
15
 74
0
 42
0.0000001
 43
0.0000001
 44
0.0000000001
 40
0.0
 40
0.0
 40
0.0
 40
0.0
 40
0.0385904906
 40
0.0859677692
 40
0.1412956194
 40
0.2036472726
 40
0.3444860846
 40
0.4975427334
 40
0.6510308573
 40
0.7927572185
 40
0.8558239377
 40
0.9120914119
 40
0.9604132267
 40
1.0
 40
1.0
 40
1.0
 40
1.0
 10
43.5064285023
 20
37.6935281626
 30
0.0
 10
43.5278656376
 20
37.7455044298
 30
0.0
 10
43.5686576078
 20
37.8641224536
 30
0.0
 10
43.6239678578
 20
38.0624477415
 30
0.0
 10
43.6796294232
 20
38.296445454
 30
0.0
 10
43.7571763158
 20
38.6650417394
 30
0.0
 10
43.8506293934
 20
39.1756484899
 30
0.0
 10
43.9595735971
 20
39.8182775573
 30
0.0
 10
44.0683125288
 20
40.4622538231
 30
0.0
 10
44.1618359657
 20
40.9758554527
 30
0.0
 10
44.2393293601
 20
41.3482446363
 30
0.0
 10
44.2949020633
 20
41.5861470086
 30
0.0
 10
44.3502506395
 20
41.7888222225
 30
0.0
 10
44.3910804738
 20
41.9103882508
 30
0.0
 10
44.412364871
 20
41.9639921919
 30
0.0
  0
SPLINE
  5
39F
100
AcDbEntity
  8
DEFAULT_2
100
AcDbSpline
 62
8
  6
HIDDEN
 70
0
 71
3
 72
19
 73
15
 74
0
 42
0.0000001
 43
0.0000001
 44
0.0000000001
 40
0.0
 40
0.0
 40
0.0
 40
0.0
 40
0.0385813187
 40
0.0858833988
 40
0.1411598024
 40
0.2035111794
 40
0.3443210849
 40
0.497448095
 40
0.6509741543
 40
0.7927348348
 40
0.8558466778
 40
0.9121145887
 40
0.960397842
 40
1.0
 40
1.0
 40
1.0
 40
1.0
 10
41.0059398666
 20
37.6923004599
 30
0.0
 10
41.0273581415
 20
37.7442991408
 30
0.0
 10
41.0681897354
 20
37.8628321012
 30
0.0
 10
41.1235968455
 20
38.0610294171
 30
0.0
 10
41.1793084056
 20
38.294943849
 30
0.0
 10
41.2568681137
 20
38.6636017385
 30
0.0
 10
41.3504722062
 20
39.1744939654
 30
0.0
 10
41.4594291668
 20
39.8175551879
 30
0.0
 10
41.5682717424
 20
40.4620418127
 30
0.0
 10
41.6619048049
 20
40.9760509242
 30
0.0
 10
41.7394132287
 20
41.3487411753
 30
0.0
 10
41.7950144114
 20
41.5867692303
 30
0.0
 10
41.8504858967
 20
41.7894798006
 30
0.0
 10
41.8913058685
 20
41.9110770856
 30
0.0
 10
41.912606165
 20
41.9647285369
 30
0.0
  0
SPLINE
  5
3A0
100
AcDbEntity
  8
DEFAULT_2
100
AcDbSpline
 62
8
  6
HIDDEN
 70
0
 71
3
 72
11
 73
7
 74
0
 42
0.0000001
 43
0.0000001
 44
0.0000000001
 40
0.0
 40
0.0
 40
0.0
 40
0.0
 40
0.1743425669
 40
0.3862808328
 40
0.6592684644
 40
1.0
 40
1.0
 40
1.0
 40
1.0
 10
44.9534143069
 20
41.2491832616
 30
0.0
 10
44.9736392138
 20
41.2498938221
 30
0.0
 10
45.0191559088
 20
41.2382097749
 30
0.0
 10
45.0793906516
 20
41.1889319894
 30
0.0
 10
45.1375299175
 20
41.1122081963
 30
0.0
 10
45.1723629888
 20
41.0498741331
 30
0.0
 10
45.1903301402
 20
41.0146391361
 30
0.0
  0
SPLINE
  5
3A1
100
AcDbEntity
  8
DEFAULT_2
100
AcDbSpline
 62
8
  6
HIDDEN
 70
0
 71
3
 72
11
 73
7
 74
0
 42
0.0000001
 43
0.0000001
 44
0.0000000001
 40
0.0
 40
0.0
 40
0.0
 40
0.0
 40
0.174192568
 40
0.3868527755
 40
0.6600989124
 40
1.0
 40
1.0
 40
1.0
 40
1.0
 10
42.453976699
 20
41.2493216995
 30
0.0
 10
42.4741794573
 20
41.2500398633
 30
0.0
 10
42.5197930073
 20
41.2382892006
 30
0.0
 10
42.5796569876
 20
41.1884046543
 30
0.0
 10
42.6377388092
 20
41.1117255792
 30
0.0
 10
42.6726196295
 20
41.0494949783
 30
0.0
 10
42.6905591104
 20
41.0143638422
 30
0.0
  0
SPLINE
  5
3A2
100
AcDbEntity
  8
DEFAULT_2
100
AcDbSpline
 62
8
  6
HIDDEN
 70
0
 71
3
 72
11
 73
7
 74
0
 42
0.0000001
 43
0.0000001
 44
0.0000000001
 40
0.0
 40
0.0
 40
0.0
 40
0.0
 40
0.3285476945
 40
0.6027820662
 40
0.82322717
 40
1.0
 40
1.0
 40
1.0
 40
1.0
 10
38.9856208601
 20
40.8033600359
 30
0.0
 10
39.0052137822
 20
40.8420846447
 30
0.0
 10
39.0433264842
 20
40.9121054066
 30
0.0
 10
39.1055709042
 20
41.0016984397
 30
0.0
 10
39.1682520286
 20
41.0652495667
 30
0.0
 10
39.2162528798
 20
41.090368391
 30
0.0
 10
39.2390492942
 20
41.0954252958
 30
0.0
  0
SPLINE
  5
3A3
100
AcDbEntity
  8
DEFAULT_2
100
AcDbSpline
 62
8
  6
HIDDEN
 70
0
 71
3
 72
11
 73
7
 74
0
 42
0.0000001
 43
0.0000001
 44
0.0000000001
 40
0.0
 40
0.0
 40
0.0
 40
0.0
 40
0.3165144482
 40
0.5880508757
 40
0.8134216451
 40
1.0
 40
1.0
 40
1.0
 40
1.0
 10
37.6983048868
 20
39.1541698155
 30
0.0
 10
37.7210627648
 20
39.115403123
 30
0.0
 10
37.7654774434
 20
39.0445570236
 30
0.0
 10
37.8370265592
 20
38.9534249667
 30
0.0
 10
37.9090896323
 20
38.8875048645
 30
0.0
 10
37.9631751016
 20
38.8613195669
 30
0.0
 10
37.9890554055
 20
38.8556275795
 30
0.0
  0
SPLINE
  5
3A4
100
AcDbEntity
  8
DEFAULT_2
100
AcDbSpline
 62
8
  6
HIDDEN
 70
0
 71
3
 72
10
 73
6
 74
0
 42
0.0000001
 43
0.0000001
 44
0.0000000001
 40
0.0
 40
0.0
 40
0.0
 40
0.0
 40
0.3073948254
 40
0.5767894739
 40
1.0
 40
1.0
 40
1.0
 40
1.0
 10
36.4093007148
 20
40.2634503039
 30
0.0
 10
36.4363692882
 20
40.2991541348
 30
0.0
 10
36.4891882343
 20
40.3649702522
 30
0.0
 10
36.5901642295
 20
40.4689778816
 30
0.0
 10
36.6788289918
 20
40.5278338792
 30
0.0
 10
36.7390525045
 20
40.5411851106
 30
0.0
  0
SPLINE
  5
3A5
100
AcDbEntity
  8
DEFAULT_2
100
AcDbSpline
 62
8
  6
HIDDEN
 70
0
 71
3
 72
12
 73
8
 74
0
 42
0.0000001
 43
0.0000001
 44
0.0000000001
 40
0.0
 40
0.0
 40
0.0
 40
0.0
 40
0.3381812068
 40
0.6116721058
 40
0.7254980252
 40
0.826168892
 40
1.0
 40
1.0
 40
1.0
 40
1.0
 10
40.1887754706
 20
40.9558363179
 30
0.0
 10
40.1677265476
 20
40.9971020697
 30
0.0
 10
40.126816575
 20
41.0703323528
 30
0.0
 10
40.0671034798
 20
41.1505738237
 30
0.0
 10
40.0176961654
 20
41.1959984026
 30
0.0
 10
39.9734646626
 20
41.2256477174
 30
0.0
 10
39.9356475176
 20
41.2369482882
 30
0.0
 10
39.9118361284
 20
41.2369482882
 30
0.0
  0
SPLINE
  5
3A6
100
AcDbEntity
  8
DEFAULT_2
100
AcDbSpline
 62
8
  6
HIDDEN
 70
0
 71
3
 72
12
 73
8
 74
0
 42
0.0000001
 43
0.0000001
 44
0.0000000001
 40
0.0
 40
0.0
 40
0.0
 40
0.0
 40
0.3328939364
 40
0.599451958
 40
0.8110345085
 40
0.9056856975
 40
1.0
 40
1.0
 40
1.0
 40
1.0
 10
38.9455466975
 20
38.9153620829
 30
0.0
 10
38.9256066742
 20
38.8801443775
 30
0.0
 10
38.8866965085
 20
38.8182235859
 30
0.0
 10
38.8208249259
 20
38.7440762111
 30
0.0
 10
38.759583732
 20
38.7067969313
 30
0.0
 10
38.711063538
 20
38.6983929095
 30
0.0
 10
38.6878956853
 20
38.7006713441
 30
0.0
 10
38.6767061333
 20
38.703174234
 30
0.0
  0
SPLINE
  5
3A7
100
AcDbEntity
  8
DEFAULT_2
100
AcDbSpline
 62
8
  6
HIDDEN
 70
0
 71
3
 72
18
 73
14
 74
0
 42
0.0000001
 43
0.0000001
 44
0.0000000001
 40
0.0
 40
0.0
 40
0.0
 40
0.0
 40
0.0400825083
 40
0.0879430502
 40
0.1430616894
 40
0.2045240905
 40
0.342402559
 40
0.4922227972
 40
0.6434090986
 40
0.7850497861
 40
0.90676094
 40
0.9574257118
 40
1.0
 40
1.0
 40
1.0
 40
1.0
 10
38.5621341314
 20
38.1218636384
 30
0.0
 10
38.5821857886
 20
38.1684082154
 30
0.0
 10
38.6210174759
 20
38.2727416802
 30
0.0
 10
38.6742494415
 20
38.4456658789
 30
0.0
 10
38.7275389359
 20
38.6466830894
 30
0.0
 10
38.8017077493
 20
38.9597775595
 30
0.0
 10
38.891330685
 20
39.3921269259
 30
0.0
 10
38.9957198198
 20
39.9371331407
 30
0.0
 10
39.0999820041
 20
40.4870296404
 30
0.0
 10
39.2037427702
 20
41.0007857179
 30
0.0
 10
39.2937714797
 20
41.3876922849
 30
0.0
 10
39.3690255027
 20
41.6489016047
 30
0.0
 10
39.4076314026
 20
41.7604203831
 30
0.0
 10
39.4276402374
 20
41.8103942094
 30
0.0
  0
SPLINE
  5
3A8
100
AcDbEntity
  8
DEFAULT_2
100
AcDbSpline
 62
8
  6
HIDDEN
 70
0
 71
3
 72
11
 73
7
 74
0
 42
0.0000001
 43
0.0000001
 44
0.0000000001
 40
0.0
 40
0.0
 40
0.0
 40
0.0
 40
0.3140921977
 40
0.5751262112
 40
0.7951171051
 40
1.0
 40
1.0
 40
1.0
 40
1.0
 10
37.7379657503
 20
40.5356803582
 30
0.0
 10
37.7175928457
 20
40.5645983173
 30
0.0
 10
37.677437914
 20
40.6157418602
 30
0.0
 10
37.6094408824
 20
40.6752200652
 30
0.0
 10
37.537402659
 20
40.7074713838
 30
0.0
 10
37.4877828807
 20
40.7071746387
 30
0.0
 10
37.4652554629
 20
40.7021804304
 30
0.0
  0
SPLINE
  5
3A9
100
AcDbEntity
  8
DEFAULT_2
100
AcDbSpline
 62
8
  6
HIDDEN
 70
0
 71
3
 72
11
 73
7
 74
0
 42
0.0000001
 43
0.0000001
 44
0.0000000001
 40
0.0
 40
0.0
 40
0.0
 40
0.0
 40
0.2854737591
 40
0.5375965028
 40
0.7697883818
 40
1.0
 40
1.0
 40
1.0
 40
1.0
 10
34.9672656243
 20
40.2840832211
 30
0.0
 10
34.9905750021
 20
40.3036656682
 30
0.0
 10
35.0370855386
 20
40.337731881
 30
0.0
 10
35.1126023586
 20
40.3718949364
 30
0.0
 10
35.1889112825
 20
40.3837202908
 30
0.0
 10
35.2384993598
 20
40.3767107443
 30
0.0
 10
35.2621546995
 20
40.3701430908
 30
0.0
  0
SPLINE
  5
3AA
100
AcDbEntity
  8
DEFAULT_2
100
AcDbSpline
 62
8
  6
HIDDEN
 70
0
 71
3
 72
10
 73
6
 74
0
 42
0.0000001
 43
0.0000001
 44
0.0000000001
 40
0.0
 40
0.0
 40
0.0
 40
0.0
 40
0.5343616399
 40
0.7687345425
 40
1.0
 40
1.0
 40
1.0
 40
1.0
 10
36.5343781594
 20
39.2961864155
 30
0.0
 10
36.5039557967
 20
39.2689061497
 30
0.0
 10
36.4538322076
 20
39.2340635653
 30
0.0
 10
36.3781818987
 20
39.2178190516
 30
0.0
 10
36.342102173
 20
39.2207132357
 30
0.0
 10
36.3248366185
 20
39.224540917
 30
0.0
  0
SPLINE
  5
3AB
100
AcDbEntity
  8
DEFAULT_2
100
AcDbSpline
 62
8
  6
HIDDEN
 70
0
 71
3
 72
15
 73
11
 74
0
 42
0.0000001
 43
0.0000001
 44
0.0000000001
 40
0.0
 40
0.0
 40
0.0
 40
0.0
 40
0.0951503558
 40
0.211871243
 40
0.3445191401
 40
0.4863994838
 40
0.6303749602
 40
0.7687400795
 40
0.8941086034
 40
1.0
 40
1.0
 40
1.0
 40
1.0
 10
36.1248727954
 20
38.6807656091
 30
0.0
 10
36.1611979587
 20
38.7552294247
 30
0.0
 10
36.2288158117
 20
38.9273496042
 30
0.0
 10
36.3199698735
 20
39.2131590184
 30
0.0
 10
36.4113982626
 20
39.541412885
 30
0.0
 10
36.5030202138
 20
39.8941109117
 30
0.0
 10
36.5943205465
 20
40.2520339423
 30
0.0
 10
36.6852492144
 20
40.5952332902
 30
0.0
 10
36.7756514655
 20
40.9041339497
 30
0.0
 10
36.8415161349
 20
41.0946839253
 30
0.0
 10
36.8764246998
 20
41.1800244881
 30
0.0
  0
SPLINE
  5
3AC
100
AcDbEntity
  8
DEFAULT_2
100
AcDbSpline
 62
8
  6
HIDDEN
 70
0
 71
3
 72
9
 73
5
 74
0
 42
0.0000001
 43
0.0000001
 44
0.0000000001
 40
0.0
 40
0.0
 40
0.0
 40
0.0
 40
0.2402297078
 40
1.0
 40
1.0
 40
1.0
 40
1.0
 10
34.6200594213
 20
40.0549750535
 30
0.0
 10
34.5949175064
 20
40.044237539
 30
0.0
 10
34.4918643047
 20
39.9957202735
 30
0.0
 10
34.3942787178
 20
39.9368374115
 30
0.0
 10
34.3190331515
 20
39.8942449283
 30
0.0
  0
SPLINE
  5
3AD
100
AcDbEntity
  8
DEFAULT_2
100
AcDbSpline
 62
8
  6
HIDDEN
 70
0
 71
3
 72
17
 73
13
 74
0
 42
0.0000001
 43
0.0000001
 44
0.0000000001
 40
0.0
 40
0.0
 40
0.0
 40
0.0
 40
0.0616409424
 40
0.0911346644
 40
0.1247400701
 40
0.1652809364
 40
0.2141636867
 40
0.3362375254
 40
0.4845525578
 40
0.6494472601
 40
0.8232193025
 40
1.0
 40
1.0
 40
1.0
 40
1.0
 10
65.7320481437
 20
85.0759491871
 30
0.0
 10
65.7169292954
 20
85.0759578419
 30
0.0
 10
65.6928369559
 20
85.0811113641
 30
0.0
 10
65.6722252735
 20
85.1049207774
 30
0.0
 10
65.6637704932
 20
85.1293498603
 30
0.0
 10
65.661477294
 20
85.1596549864
 30
0.0
 10
65.6669976573
 20
85.2114279741
 30
0.0
 10
65.6899940239
 20
85.2868461403
 30
0.0
 10
65.7342188231
 20
85.3841508107
 30
0.0
 10
65.7935686703
 20
85.4879856628
 30
0.0
 10
65.8641005134
 20
85.5930038731
 30
0.0
 10
65.9163875321
 20
85.6613347929
 30
0.0
 10
65.9437009564
 20
85.6950100637
 30
0.0
  0
SPLINE
  5
3AE
100
AcDbEntity
  8
DEFAULT_2
100
AcDbSpline
 62
8
  6
HIDDEN
 70
0
 71
3
 72
17
 73
13
 74
0
 42
0.0000001
 43
0.0000001
 44
0.0000000001
 40
0.0
 40
0.0
 40
0.0
 40
0.0
 40
0.0616409424
 40
0.0911346644
 40
0.1247400701
 40
0.1652809364
 40
0.2141636867
 40
0.3362375254
 40
0.4845525578
 40
0.6494472601
 40
0.8232193025
 40
1.0
 40
1.0
 40
1.0
 40
1.0
 10
65.7320481437
 20
95.0759491871
 30
0.0
 10
65.7169292954
 20
95.0759578419
 30
0.0
 10
65.6928369559
 20
95.0811113641
 30
0.0
 10
65.6722252735
 20
95.1049207774
 30
0.0
 10
65.6637704932
 20
95.1293498603
 30
0.0
 10
65.661477294
 20
95.1596549864
 30
0.0
 10
65.6669976573
 20
95.2114279741
 30
0.0
 10
65.6899940239
 20
95.2868461403
 30
0.0
 10
65.7342188231
 20
95.3841508107
 30
0.0
 10
65.7935686703
 20
95.4879856628
 30
0.0
 10
65.8641005134
 20
95.5930038731
 30
0.0
 10
65.9163875321
 20
95.6613347929
 30
0.0
 10
65.9437009564
 20
95.6950100637
 30
0.0
  0
SPLINE
  5
3AF
100
AcDbEntity
  8
DEFAULT_2
100
AcDbSpline
 62
8
  6
HIDDEN
 70
0
 71
3
 72
17
 73
13
 74
0
 42
0.0000001
 43
0.0000001
 44
0.0000000001
 40
0.0
 40
0.0
 40
0.0
 40
0.0
 40
0.0616409424
 40
0.0911346644
 40
0.1247400701
 40
0.1652809364
 40
0.2141636867
 40
0.3362375254
 40
0.4845525578
 40
0.6494472601
 40
0.8232193025
 40
1.0
 40
1.0
 40
1.0
 40
1.0
 10
65.7320481437
 20
105.0759491871
 30
0.0
 10
65.7169292954
 20
105.0759578419
 30
0.0
 10
65.6928369559
 20
105.0811113641
 30
0.0
 10
65.6722252735
 20
105.1049207774
 30
0.0
 10
65.6637704932
 20
105.1293498603
 30
0.0
 10
65.661477294
 20
105.1596549864
 30
0.0
 10
65.6669976573
 20
105.2114279741
 30
0.0
 10
65.6899940239
 20
105.2868461403
 30
0.0
 10
65.7342188231
 20
105.3841508107
 30
0.0
 10
65.7935686703
 20
105.4879856628
 30
0.0
 10
65.8641005134
 20
105.5930038731
 30
0.0
 10
65.9163875321
 20
105.6613347929
 30
0.0
 10
65.9437009564
 20
105.6950100637
 30
0.0
  0
SPLINE
  5
3B0
100
AcDbEntity
  8
DEFAULT_2
100
AcDbSpline
 62
8
  6
HIDDEN
 70
0
 71
3
 72
17
 73
13
 74
0
 42
0.0000001
 43
0.0000001
 44
0.0000000001
 40
0.0
 40
0.0
 40
0.0
 40
0.0
 40
0.0616409424
 40
0.0911346644
 40
0.1247400701
 40
0.1652809364
 40
0.2141636867
 40
0.3362375254
 40
0.4845525578
 40
0.6494472601
 40
0.8232193025
 40
1.0
 40
1.0
 40
1.0
 40
1.0
 10
65.7320481437
 20
72.0759491871
 30
0.0
 10
65.7169292954
 20
72.0759578419
 30
0.0
 10
65.6928369559
 20
72.0811113641
 30
0.0
 10
65.6722252735
 20
72.1049207774
 30
0.0
 10
65.6637704932
 20
72.1293498603
 30
0.0
 10
65.661477294
 20
72.1596549864
 30
0.0
 10
65.6669976573
 20
72.2114279741
 30
0.0
 10
65.6899940239
 20
72.2868461403
 30
0.0
 10
65.7342188231
 20
72.3841508107
 30
0.0
 10
65.7935686703
 20
72.4879856628
 30
0.0
 10
65.8641005134
 20
72.5930038731
 30
0.0
 10
65.9163875321
 20
72.6613347929
 30
0.0
 10
65.9437009564
 20
72.6950100637
 30
0.0
  0
SPLINE
  5
3B1
100
AcDbEntity
  8
DEFAULT_2
100
AcDbSpline
 62
8
  6
HIDDEN
 70
0
 71
3
 72
9
 73
5
 74
0
 42
0.0000001
 43
0.0000001
 44
0.0000000001
 40
0.0
 40
0.0
 40
0.0
 40
0.0
 40
0.24561054
 40
1.0
 40
1.0
 40
1.0
 40
1.0
 10
66.5914641145
 20
74.9091492876
 30
0.0
 10
66.539502398
 20
74.9434961997
 30
0.0
 10
66.3264953533
 20
75.0811539044
 30
0.0
 10
66.1090123682
 20
75.2117683412
 30
0.0
 10
65.9437009016
 20
75.3080679212
 30
0.0
  0
SPLINE
  5
3B2
100
AcDbEntity
  8
DEFAULT_2
100
AcDbSpline
 62
8
  6
HIDDEN
 70
0
 71
3
 72
17
 73
13
 74
0
 42
0.0000001
 43
0.0000001
 44
0.0000000001
 40
0.0
 40
0.0
 40
0.0
 40
0.0
 40
0.1767879383
 40
0.3506281175
 40
0.5156099211
 40
0.6639287242
 40
0.7859487171
 40
0.8348441701
 40
0.8753602593
 40
0.9088979212
 40
0.9383917425
 40
1.0
 40
1.0
 40
1.0
 40
1.0
 10
65.9437009564
 20
111.9788865127
 30
0.0
 10
65.9163860531
 20
112.0125636069
 30
0.0
 10
65.86408601
 20
112.0809095896
 30
0.0
 10
65.7935377209
 20
112.1859660467
 30
0.0
 10
65.7341616094
 20
112.2898345456
 30
0.0
 10
65.6899614483
 20
112.3871591974
 30
0.0
 10
65.6669824735
 20
112.4625819034
 30
0.0
 10
65.661491073
 20
112.5143319625
 30
0.0
 10
65.6637383158
 20
112.5446347832
 30
0.0
 10
65.6722919672
 20
112.5689951777
 30
0.0
 10
65.692823371
 20
112.5928384204
 30
0.0
 10
65.7169424572
 20
112.5979253227
 30
0.0
 10
65.732053485
 20
112.5979382705
 30
0.0
  0
SPLINE
  5
3B3
100
AcDbEntity
  8
DEFAULT_2
100
AcDbSpline
 62
8
  6
HIDDEN
 70
0
 71
3
 72
9
 73
5
 74
0
 42
0.0000001
 43
0.0000001
 44
0.0000000001
 40
0.0
 40
0.0
 40
0.0
 40
0.0
 40
0.2456105473
 40
1.0
 40
1.0
 40
1.0
 40
1.0
 10
66.5914641145
 20
107.9091492876
 30
0.0
 10
66.5395024002
 20
107.9434961983
 30
0.0
 10
66.3264953664
 20
108.0811538864
 30
0.0
 10
66.1090124119
 20
108.2117683386
 30
0.0
 10
65.9437009594
 20
108.3080679118
 30
0.0
  0
SPLINE
  5
3B4
100
AcDbEntity
  8
DEFAULT_2
100
AcDbSpline
 62
8
  6
HIDDEN
 70
0
 71
3
 72
15
 73
11
 74
0
 42
0.0000001
 43
0.0000001
 44
0.0000000001
 40
0.0
 40
0.0
 40
0.0
 40
0.0
 40
0.108252355
 40
0.2268784026
 40
0.3584563097
 40
0.5001420893
 40
0.6417730821
 40
0.7732658424
 40
0.8917830483
 40
1.0
 40
1.0
 40
1.0
 40
1.0
 10
65.9437009564
 20
98.3080678884
 30
0.0
 10
65.9047193265
 20
98.330776021
 30
0.0
 10
65.8290499699
 20
98.3895590541
 30
0.0
 10
65.7383425901
 20
98.5103709056
 30
0.0
 10
65.6768772873
 20
98.6636981889
 30
0.0
 10
65.6549555605
 20
98.8371060473
 30
0.0
 10
65.6769405225
 20
99.010471334
 30
0.0
 10
65.7384414267
 20
99.163669737
 30
0.0
 10
65.8291093347
 20
99.2843845232
 30
0.0
 10
65.9047320752
 20
99.343127982
 30
0.0
 10
65.9437009564
 20
99.365828688
 30
0.0
  0
SPLINE
  5
3B5
100
AcDbEntity
  8
DEFAULT_2
100
AcDbSpline
 62
8
  6
HIDDEN
 70
0
 71
3
 72
15
 73
11
 74
0
 42
0.0000001
 43
0.0000001
 44
0.0000000001
 40
0.0
 40
0.0
 40
0.0
 40
0.0
 40
0.1455692687
 40
0.2897329047
 40
0.4293659988
 40
0.5606622884
 40
0.6812067172
 40
0.7923844079
 40
0.8977216636
 40
1.0
 40
1.0
 40
1.0
 40
1.0
 10
66.5914641559
 20
101.1345844704
 30
0.0
 10
66.6353610102
 20
101.0731727658
 30
0.0
 10
66.718170482
 20
100.9475505759
 30
0.0
 10
66.8213842938
 20
100.7496839424
 30
0.0
 10
66.8930692332
 20
100.5456399027
 30
0.0
 10
66.9210568825
 20
100.3426856217
 30
0.0
 10
66.8970067098
 20
100.1534008202
 30
0.0
 10
66.8253813403
 20
99.9914014282
 30
0.0
 10
66.7204822543
 20
99.8616346675
 30
0.0
 10
66.6357097584
 20
99.7939938446
 30
0.0
 10
66.5914641145
 20
99.7647472888
 30
0.0
  0
SPLINE
  5
3B6
100
AcDbEntity
  8
DEFAULT_2
100
AcDbSpline
 62
8
  6
HIDDEN
 70
0
 71
3
 72
17
 73
13
 74
0
 42
0.0000001
 43
0.0000001
 44
0.0000000001
 40
0.0
 40
0.0
 40
0.0
 40
0.0
 40
0.1767879383
 40
0.3506281175
 40
0.5156099211
 40
0.6639287242
 40
0.7859487171
 40
0.8348441701
 40
0.8753602593
 40
0.9088979212
 40
0.9383917425
 40
1.0
 40
1.0
 40
1.0
 40
1.0
 10
65.9437009564
 20
101.9788865127
 30
0.0
 10
65.9163860531
 20
102.0125636069
 30
0.0
 10
65.86408601
 20
102.0809095896
 30
0.0
 10
65.7935377209
 20
102.1859660467
 30
0.0
 10
65.7341616094
 20
102.2898345456
 30
0.0
 10
65.6899614483
 20
102.3871591974
 30
0.0
 10
65.6669824735
 20
102.4625819034
 30
0.0
 10
65.661491073
 20
102.5143319625
 30
0.0
 10
65.6637383158
 20
102.5446347832
 30
0.0
 10
65.6722919672
 20
102.5689951777
 30
0.0
 10
65.692823371
 20
102.5928384204
 30
0.0
 10
65.7169424572
 20
102.5979253227
 30
0.0
 10
65.732053485
 20
102.5979382705
 30
0.0
  0
SPLINE
  5
3B7
100
AcDbEntity
  8
DEFAULT_2
100
AcDbSpline
 62
8
  6
HIDDEN
 70
0
 71
3
 72
9
 73
5
 74
0
 42
0.0000001
 43
0.0000001
 44
0.0000000001
 40
0.0
 40
0.0
 40
0.0
 40
0.0
 40
0.2539309255
 40
1.0
 40
1.0
 40
1.0
 40
1.0
 10
65.9437009564
 20
76.365828688
 30
0.0
 10
65.9993445446
 20
76.3982429811
 30
0.0
 10
66.2178476518
 20
76.5269456376
 30
0.0
 10
66.4336275774
 20
76.6604166737
 30
0.0
 10
66.591464169
 20
76.7647473235
 30
0.0
  0
SPLINE
  5
3B8
100
AcDbEntity
  8
DEFAULT_2
100
AcDbSpline
 62
8
  6
HIDDEN
 70
0
 71
3
 72
8
 73
4
 74
0
 42
0.0000001
 43
0.0000001
 44
0.0000000001
 40
0.0
 40
0.0
 40
0.0
 40
0.0
 40
1.0
 40
1.0
 40
1.0
 40
1.0
 10
65.9437009564
 20
95.6950100637
 30
0.0
 10
66.1671501059
 20
95.9705050192
 30
0.0
 10
66.3851891707
 20
96.2507333844
 30
0.0
 10
66.5914641145
 20
96.53931204
 30
0.0
  0
SPLINE
  5
3B9
100
AcDbEntity
  8
DEFAULT_2
100
AcDbSpline
 62
8
  6
HIDDEN
 70
0
 71
3
 72
9
 73
5
 74
0
 42
0.0000001
 43
0.0000001
 44
0.0000000001
 40
0.0
 40
0.0
 40
0.0
 40
0.0
 40
0.2456105399
 40
1.0
 40
1.0
 40
1.0
 40
1.0
 10
66.5914641145
 20
97.9091492876
 30
0.0
 10
66.5395024024
 20
97.9434961968
 30
0.0
 10
66.3264953761
 20
98.0811538909
 30
0.0
 10
66.1090124079
 20
98.2117683145
 30
0.0
 10
65.9437009564
 20
98.3080678884
 30
0.0
  0
SPLINE
  5
3BA
100
AcDbEntity
  8
DEFAULT_2
100
AcDbSpline
 62
8
  6
HIDDEN
 70
0
 71
3
 72
9
 73
5
 74
0
 42
0.0000001
 43
0.0000001
 44
0.0000000001
 40
0.0
 40
0.0
 40
0.0
 40
0.0
 40
0.2539309255
 40
1.0
 40
1.0
 40
1.0
 40
1.0
 10
65.9437009564
 20
99.365828688
 30
0.0
 10
65.9993445399
 20
99.3982429783
 30
0.0
 10
66.2178476288
 20
99.5269456233
 30
0.0
 10
66.4336275353
 20
99.6604166493
 30
0.0
 10
66.5914641145
 20
99.7647472888
 30
0.0
  0
SPLINE
  5
3BB
100
AcDbEntity
  8
DEFAULT_2
100
AcDbSpline
 62
8
  6
HIDDEN
 70
0
 71
3
 72
17
 73
13
 74
0
 42
0.0000001
 43
0.0000001
 44
0.0000000001
 40
0.0
 40
0.0
 40
0.0
 40
0.0
 40
0.1767879383
 40
0.3506281175
 40
0.5156099211
 40
0.6639287242
 40
0.7859487171
 40
0.8348441701
 40
0.8753602593
 40
0.9088979212
 40
0.9383917425
 40
1.0
 40
1.0
 40
1.0
 40
1.0
 10
65.9437009564
 20
78.9788865127
 30
0.0
 10
65.9163860531
 20
79.0125636069
 30
0.0
 10
65.86408601
 20
79.0809095896
 30
0.0
 10
65.7935377209
 20
79.1859660467
 30
0.0
 10
65.7341616094
 20
79.2898345456
 30
0.0
 10
65.6899614483
 20
79.3871591974
 30
0.0
 10
65.6669824735
 20
79.4625819034
 30
0.0
 10
65.661491073
 20
79.5143319625
 30
0.0
 10
65.6637383158
 20
79.5446347832
 30
0.0
 10
65.6722919672
 20
79.5689951777
 30
0.0
 10
65.692823371
 20
79.5928384204
 30
0.0
 10
65.7169424572
 20
79.5979253227
 30
0.0
 10
65.732053485
 20
79.5979382705
 30
0.0
  0
SPLINE
  5
3BC
100
AcDbEntity
  8
DEFAULT_2
100
AcDbSpline
 62
8
  6
HIDDEN
 70
0
 71
3
 72
8
 73
4
 74
0
 42
0.0000001
 43
0.0000001
 44
0.0000000001
 40
0.0
 40
0.0
 40
0.0
 40
0.0
 40
1.0
 40
1.0
 40
1.0
 40
1.0
 10
66.5914641598
 20
101.1345844704
 30
0.0
 10
66.3851892019
 20
101.4231631487
 30
0.0
 10
66.1671501226
 20
101.7033915365
 30
0.0
 10
65.9437009564
 20
101.9788865127
 30
0.0
  0
SPLINE
  5
3BD
100
AcDbEntity
  8
DEFAULT_2
100
AcDbSpline
 62
8
  6
HIDDEN
 70
0
 71
3
 72
15
 73
11
 74
0
 42
0.0000001
 43
0.0000001
 44
0.0000000001
 40
0.0
 40
0.0
 40
0.0
 40
0.0
 40
0.1455692679
 40
0.2897329038
 40
0.4293659982
 40
0.5606622888
 40
0.6812067183
 40
0.7923844091
 40
0.8977216643
 40
1.0
 40
1.0
 40
1.0
 40
1.0
 10
66.5914641145
 20
91.1345845364
 30
0.0
 10
66.6353609723
 20
91.0731728302
 30
0.0
 10
66.7181704481
 20
90.9475506345
 30
0.0
 10
66.8213842702
 20
90.7496839945
 30
0.0
 10
66.8930692229
 20
90.5456399473
 30
0.0
 10
66.9210568827
 20
90.3426856563
 30
0.0
 10
66.8970067171
 20
90.1534008432
 30
0.0
 10
66.8253813488
 20
89.9914014406
 30
0.0
 10
66.7204822598
 20
89.8616346722
 30
0.0
 10
66.6357097603
 20
89.7939938459
 30
0.0
 10
66.5914641145
 20
89.7647472888
 30
0.0
  0
SPLINE
  5
3BE
100
AcDbEntity
  8
DEFAULT_2
100
AcDbSpline
 62
8
  6
HIDDEN
 70
0
 71
3
 72
17
 73
13
 74
0
 42
0.0000001
 43
0.0000001
 44
0.0000000001
 40
0.0
 40
0.0
 40
0.0
 40
0.0
 40
0.1767879383
 40
0.3506281175
 40
0.5156099211
 40
0.6639287242
 40
0.7859487171
 40
0.8348441701
 40
0.8753602593
 40
0.9088979212
 40
0.9383917425
 40
1.0
 40
1.0
 40
1.0
 40
1.0
 10
65.9437009564
 20
91.9788865127
 30
0.0
 10
65.9163860531
 20
92.0125636069
 30
0.0
 10
65.86408601
 20
92.0809095896
 30
0.0
 10
65.7935377209
 20
92.1859660467
 30
0.0
 10
65.7341616094
 20
92.2898345456
 30
0.0
 10
65.6899614483
 20
92.3871591974
 30
0.0
 10
65.6669824735
 20
92.4625819034
 30
0.0
 10
65.661491073
 20
92.5143319625
 30
0.0
 10
65.6637383158
 20
92.5446347832
 30
0.0
 10
65.6722919672
 20
92.5689951777
 30
0.0
 10
65.692823371
 20
92.5928384204
 30
0.0
 10
65.7169424572
 20
92.5979253227
 30
0.0
 10
65.732053485
 20
92.5979382705
 30
0.0
  0
SPLINE
  5
3BF
100
AcDbEntity
  8
DEFAULT_2
100
AcDbSpline
 62
8
  6
HIDDEN
 70
0
 71
3
 72
9
 73
5
 74
0
 42
0.0000001
 43
0.0000001
 44
0.0000000001
 40
0.0
 40
0.0
 40
0.0
 40
0.0
 40
0.2539309255
 40
1.0
 40
1.0
 40
1.0
 40
1.0
 10
65.9437009564
 20
89.365828688
 30
0.0
 10
65.9993445399
 20
89.3982429783
 30
0.0
 10
66.2178476288
 20
89.5269456233
 30
0.0
 10
66.4336275353
 20
89.6604166493
 30
0.0
 10
66.5914641145
 20
89.7647472888
 30
0.0
  0
SPLINE
  5
3C0
100
AcDbEntity
  8
DEFAULT_2
100
AcDbSpline
 62
8
  6
HIDDEN
 70
0
 71
3
 72
18
 73
14
 74
0
 42
0.0000001
 43
0.0000001
 44
0.0000000001
 40
0.0
 40
0.0
 40
0.0
 40
0.0
 40
0.1815441283
 40
0.323374815
 40
0.3804655335
 40
0.4294066539
 40
0.509197513
 40
0.5466424691
 40
0.5869972438
 40
0.6333213452
 40
0.687676118
 40
0.8241274082
 40
1.0
 40
1.0
 40
1.0
 40
1.0
 10
53.1621633862
 20
37.7101378237
 30
0.0
 10
53.1750365803
 20
37.6777331298
 30
0.0
 10
53.1999827178
 20
37.6207874389
 30
0.0
 10
53.2370926393
 20
37.5574056769
 30
0.0
 10
53.267956602
 20
37.5209092924
 30
0.0
 10
53.2946983483
 20
37.4973116831
 30
0.0
 10
53.325663682
 20
37.483647103
 30
0.0
 10
53.3563506715
 20
37.4867268569
 30
0.0
 10
53.3784999825
 20
37.4963210677
 30
0.0
 10
53.4001886391
 20
37.5128714886
 30
0.0
 10
53.4310771011
 20
37.54655737
 30
0.0
 10
53.468179434
 20
37.6069796412
 30
0.0
 10
53.4929924203
 20
37.6616386594
 30
0.0
 10
53.5058562793
 20
37.692872096
 30
0.0
  0
SPLINE
  5
3C1
100
AcDbEntity
  8
DEFAULT_2
100
AcDbSpline
 62
8
  6
HIDDEN
 70
0
 71
3
 72
18
 73
14
 74
0
 42
0.0000001
 43
0.0000001
 44
0.0000000001
 40
0.0
 40
0.0
 40
0.0
 40
0.0
 40
0.1819926322
 40
0.3247869038
 40
0.3822082927
 40
0.4312457305
 40
0.5107066573
 40
0.5481809323
 40
0.5887143293
 40
0.6351515209
 40
0.6893476467
 40
0.8248767818
 40
1.0
 40
1.0
 40
1.0
 40
1.0
 10
51.9123455243
 20
41.9632518115
 30
0.0
 10
51.9252564603
 20
41.9957503785
 30
0.0
 10
51.9502517451
 20
42.0529898662
 30
0.0
 10
51.9872181615
 20
42.1168709697
 30
0.0
 10
52.0180462372
 20
42.1537720764
 30
0.0
 10
52.0446851435
 20
42.1775485395
 30
0.0
 10
52.0758552694
 20
42.1909600417
 30
0.0
 10
52.1064681567
 20
42.1872755757
 30
0.0
 10
52.1285356339
 20
42.177369335
 30
0.0
 10
52.1501771796
 20
42.1607210331
 30
0.0
 10
52.181049697
 20
42.1272588271
 30
0.0
 10
52.2182675752
 20
42.0672852343
 30
0.0
 10
52.2430326204
 20
42.0129171292
 30
0.0
 10
52.2558485617
 20
41.9818039688
 30
0.0
  0
SPLINE
  5
3C2
100
AcDbEntity
  8
DEFAULT_2
100
AcDbSpline
 62
8
  6
HIDDEN
 70
0
 71
3
 72
18
 73
14
 74
0
 42
0.0000001
 43
0.0000001
 44
0.0000000001
 40
0.0
 40
0.0
 40
0.0
 40
0.0
 40
0.18223235
 40
0.3244644318
 40
0.3813983301
 40
0.4300739734
 40
0.5095231784
 40
0.5470431369
 40
0.5875341498
 40
0.6338783205
 40
0.6880329974
 40
0.8240556544
 40
1.0
 40
1.0
 40
1.0
 40
1.0
 10
50.6627865116
 20
37.7088956708
 30
0.0
 10
50.6756573348
 20
37.676467315
 30
0.0
 10
50.7005150084
 20
37.6194845295
 30
0.0
 10
50.7374250963
 20
37.5560231287
 30
0.0
 10
50.7682914126
 20
37.5197261734
 30
0.0
 10
50.7950078037
 20
37.4964665096
 30
0.0
 10
50.8260131918
 20
37.4833761193
 30
0.0
 10
50.8565139121
 20
37.4868689012
 30
0.0
 10
50.8785592876
 20
37.4965762044
 30
0.0
 10
50.9001836645
 20
37.513036308
 30
0.0
 10
50.9310707077
 20
37.5463657388
 30
0.0
 10
50.9681379714
 20
37.6064438312
 30
0.0
 10
50.9928197249
 20
37.6608776497
 30
0.0
 10
51.0056406709
 20
37.6920276913
 30
0.0
  0
SPLINE
  5
3C3
100
AcDbEntity
  8
DEFAULT_2
100
AcDbSpline
 62
8
  6
HIDDEN
 70
0
 71
3
 72
18
 73
14
 74
0
 42
0.0000001
 43
0.0000001
 44
0.0000000001
 40
0.0
 40
0.0
 40
0.0
 40
0.0
 40
0.1819945304
 40
0.3236787692
 40
0.3805015191
 40
0.4291488808
 40
0.5086087885
 40
0.5461229834
 40
0.5866358126
 40
0.6330875998
 40
0.687490998
 40
0.8240344604
 40
1.0
 40
1.0
 40
1.0
 40
1.0
 10
49.4130190862
 20
41.9656899674
 30
0.0
 10
49.4258710278
 20
41.9980765709
 30
0.0
 10
49.4506643649
 20
42.0549317536
 30
0.0
 10
49.4876845519
 20
42.118128409
 30
0.0
 10
49.5185238622
 20
42.1542718758
 30
0.0
 10
49.5452341369
 20
42.1774943518
 30
0.0
 10
49.5762143225
 20
42.1906230755
 30
0.0
 10
49.6067270299
 20
42.1871420609
 30
0.0
 10
49.6287809758
 20
42.1773844809
 30
0.0
 10
49.6504087014
 20
42.1608036729
 30
0.0
 10
49.6812413033
 20
42.1271953514
 30
0.0
 10
49.7182389888
 20
42.0669178875
 30
0.0
 10
49.7429928487
 20
42.0124043141
 30
0.0
 10
49.7558243731
 20
41.9812544921
 30
0.0
  0
SPLINE
  5
3C4
100
AcDbEntity
  8
DEFAULT_2
100
AcDbSpline
 62
8
  6
HIDDEN
 70
0
 71
3
 72
18
 73
14
 74
0
 42
0.0000001
 43
0.0000001
 44
0.0000000001
 40
0.0
 40
0.0
 40
0.0
 40
0.0
 40
0.1820544062
 40
0.3238657418
 40
0.3807286055
 40
0.4294058504
 40
0.5089000888
 40
0.5464091724
 40
0.5868931961
 40
0.6332865999
 40
0.6876010078
 40
0.8240350153
 40
1.0
 40
1.0
 40
1.0
 40
1.0
 10
48.1628825615
 20
37.7085100687
 30
0.0
 10
48.1757410466
 20
37.6761103527
 30
0.0
 10
48.2005478538
 20
37.6192174711
 30
0.0
 10
48.2375530671
 20
37.5559545356
 30
0.0
 10
48.2683992212
 20
37.5197614679
 30
0.0
 10
48.2951116692
 20
37.4965063442
 30
0.0
 10
48.326087499
 20
37.4833403246
 30
0.0
 10
48.3566076312
 20
37.4867705076
 30
0.0
 10
48.3786649963
 20
37.496481592
 30
0.0
 10
48.4002967089
 20
37.5130052874
 30
0.0
 10
48.4311566972
 20
37.5465287301
 30
0.0
 10
48.4681538131
 20
37.6067771893
 30
0.0
 10
48.4928985905
 20
37.6612758529
 30
0.0
 10
48.5057297251
 20
37.6924290009
 30
0.0
  0
SPLINE
  5
3C5
100
AcDbEntity
  8
DEFAULT_2
100
AcDbSpline
 62
8
  6
HIDDEN
 70
0
 71
3
 72
21
 73
17
 74
0
 42
0.0000001
 43
0.0000001
 44
0.0000000001
 40
0.0
 40
0.0
 40
0.0
 40
0.0
 40
0.0538690181
 40
0.1162978695
 40
0.2619383054
 40
0.4238807052
 40
0.5873843894
 40
0.6649207536
 40
0.7371645231
 40
0.802626167
 40
0.8599985443
 40
0.9081481743
 40
0.9466709505
 40
0.962558171
 40
0.9764681304
 40
1.0
 40
1.0
 40
1.0
 40
1.0
 10
52.6903617069
 20
41.014489339
 30
0.0
 10
52.7134187837
 20
40.9692799539
 30
0.0
 10
52.7583267655
 20
40.8691996063
 30
0.0
 10
52.8459040417
 20
40.6384185477
 30
0.0
 10
52.9501202744
 20
40.3055545406
 30
0.0
 10
53.071201793
 20
39.8786262127
 30
0.0
 10
53.1735981591
 20
39.5130269685
 30
0.0
 10
53.2584465183
 20
39.2303316791
 30
0.0
 10
53.3209556608
 20
39.0374016001
 30
0.0
 10
53.3833098106
 20
38.8644809483
 30
0.0
 10
53.4453366974
 20
38.715689681
 30
0.0
 10
53.5072180048
 20
38.5947569511
 30
0.0
 10
53.5619385436
 20
38.5144623541
 30
0.0
 10
53.6071217783
 20
38.4682716554
 30
0.0
 10
53.6471471195
 20
38.43789756
 30
0.0
 10
53.6820805576
 20
38.4251590001
 30
0.0
 10
53.7042355988
 20
38.4243673915
 30
0.0
  0
SPLINE
  5
3C6
100
AcDbEntity
  8
DEFAULT_2
100
AcDbSpline
 62
8
  6
HIDDEN
 70
0
 71
3
 72
22
 73
18
 74
0
 42
0.0000001
 43
0.0000001
 44
0.0000000001
 40
0.0
 40
0.0
 40
0.0
 40
0.0
 40
0.0538411941
 40
0.1163561501
 40
0.2618218832
 40
0.4237221789
 40
0.5870466845
 40
0.6644855763
 40
0.7367786937
 40
0.8022608164
 40
0.8594656956
 40
0.907611314
 40
0.9463792145
 40
0.9623647973
 40
0.9763076104
 40
0.9886276385
 40
1.0
 40
1.0
 40
1.0
 40
1.0
 10
51.4407581731
 20
38.6600569686
 30
0.0
 10
51.4638224462
 20
38.7052167425
 30
0.0
 10
51.5087082171
 20
38.8053379672
 30
0.0
 10
51.595937745
 20
39.0360534903
 30
0.0
 10
51.7003473594
 20
39.3686128442
 30
0.0
 10
51.8210734837
 20
39.7951270157
 30
0.0
 10
51.9234106399
 20
40.1603158186
 30
0.0
 10
52.008253937
 20
40.4426994073
 30
0.0
 10
52.0706222809
 20
40.6355839093
 30
0.0
 10
52.1327718093
 20
40.8084254361
 30
0.0
 10
52.1949363253
 20
40.9569671715
 30
0.0
 10
52.2568847697
 20
41.0778638036
 30
0.0
 10
52.3113759473
 20
41.158679612
 30
0.0
 10
52.3563343744
 20
41.2054529081
 30
0.0
 10
52.3881616153
 20
41.2296940305
 30
0.0
 10
52.4204704998
 20
41.2450113504
 30
0.0
 10
52.4427519045
 20
41.2490757519
 30
0.0
 10
52.4534559914
 20
41.2494521136
 30
0.0
  0
SPLINE
  5
3C7
100
AcDbEntity
  8
DEFAULT_2
100
AcDbSpline
 62
8
  6
HIDDEN
 70
0
 71
3
 72
21
 73
17
 74
0
 42
0.0000001
 43
0.0000001
 44
0.0000000001
 40
0.0
 40
0.0
 40
0.0
 40
0.0
 40
0.0539494941
 40
0.116532305
 40
0.2620367827
 40
0.4240235215
 40
0.5874357255
 40
0.6649015066
 40
0.7371881608
 40
0.8026230761
 40
0.859865504
 40
0.9080699115
 40
0.9467453066
 40
0.9626272513
 40
0.9765035439
 40
1.0
 40
1.0
 40
1.0
 40
1.0
 10
50.1907960077
 20
41.013931685
 30
0.0
 10
50.213899443
 20
40.9686763703
 30
0.0
 10
50.2587307937
 20
40.8683451568
 30
0.0
 10
50.346026425
 20
40.6374392855
 30
0.0
 10
50.4505409247
 20
40.3047130544
 30
0.0
 10
50.5713003426
 20
39.8779922347
 30
0.0
 10
50.6736818284
 20
39.512611851
 30
0.0
 10
50.758566496
 20
39.2301291913
 30
0.0
 10
50.8209464328
 20
39.0372700674
 30
0.0
 10
50.8832075173
 20
38.8644814114
 30
0.0
 10
50.9453770659
 20
38.7158921843
 30
0.0
 10
51.0072542227
 20
38.5949516352
 30
0.0
 10
51.0616759418
 20
38.5142397733
 30
0.0
 10
51.1069161113
 20
38.4679689959
 30
0.0
 10
51.1469777202
 20
38.4377495022
 30
0.0
 10
51.1818872538
 20
38.4252613411
 30
0.0
 10
51.2040030578
 20
38.4244746616
 30
0.0
  0
SPLINE
  5
3C8
100
AcDbEntity
  8
DEFAULT_2
100
AcDbSpline
 62
8
  6
HIDDEN
 70
0
 71
3
 72
21
 73
17
 74
0
 42
0.0000001
 43
0.0000001
 44
0.0000000001
 40
0.0
 40
0.0
 40
0.0
 40
0.0
 40
0.0539205606
 40
0.1164823775
 40
0.262066084
 40
0.4240622872
 40
0.5874440649
 40
0.664945713
 40
0.7372023837
 40
0.8025633488
 40
0.8598479795
 40
0.9080966553
 40
0.9467257113
 40
0.9626048187
 40
0.9764923468
 40
1.0
 40
1.0
 40
1.0
 40
1.0
 10
48.9408696189
 20
38.6601642844
 30
0.0
 10
48.9639637004
 20
38.7053904138
 30
0.0
 10
49.0088114104
 20
38.8056549655
 30
0.0
 10
49.0961426567
 20
39.0365635113
 30
0.0
 10
49.2005556562
 20
39.3693680386
 30
0.0
 10
49.3213350602
 20
39.7961115336
 30
0.0
 10
49.4237776548
 20
40.1614658299
 30
0.0
 10
49.5085844204
 20
40.4439292427
 30
0.0
 10
49.5709558044
 20
40.6367124735
 30
0.0
 10
49.6333154482
 20
40.8093930402
 30
0.0
 10
49.6954352394
 20
40.9579971467
 30
0.0
 10
49.7571981599
 20
41.0790404736
 30
0.0
 10
49.8117357737
 20
41.1596634723
 30
0.0
 10
49.8569641145
 20
41.2058866635
 30
0.0
 10
49.8969959128
 20
41.2361565635
 30
0.0
 10
49.9319033735
 20
41.2487466255
 30
0.0
 10
49.9540283992
 20
41.2495339744
 30
0.0
  0
SPLINE
  5
3C9
100
AcDbEntity
  8
DEFAULT_2
100
AcDbSpline
 62
8
  6
HIDDEN
 70
0
 71
3
 72
21
 73
17
 74
0
 42
0.0000001
 43
0.0000001
 44
0.0000000001
 40
0.0
 40
0.0
 40
0.0
 40
0.0
 40
0.0538816889
 40
0.1164097729
 40
0.2619581849
 40
0.4239526074
 40
0.5873721811
 40
0.6648675902
 40
0.7371654108
 40
0.8025788401
 40
0.859858938
 40
0.9080927096
 40
0.9467271436
 40
0.9626058811
 40
0.9764919644
 40
1.0
 40
1.0
 40
1.0
 40
1.0
 10
47.6905781214
 20
41.0142690175
 30
0.0
 10
47.7136461316
 20
40.9690579111
 30
0.0
 10
47.7585659169
 20
40.8688764971
 30
0.0
 10
47.8459035132
 20
40.6380152651
 30
0.0
 10
47.9503624885
 20
40.3052158137
 30
0.0
 10
48.0711877103
 20
39.8783800266
 30
0.0
 10
48.1736149341
 20
39.5129037874
 30
0.0
 10
48.2584978088
 20
39.230322618
 30
0.0
 10
48.3208770824
 20
39.0374084904
 30
0.0
 10
48.3832134637
 20
38.8645863432
 30
0.0
 10
48.4453747372
 20
38.715924127
 30
0.0
 10
48.5071869624
 20
38.5948889354
 30
0.0
 10
48.5617176878
 20
38.5142461955
 30
0.0
 10
48.6069639698
 20
38.4680149238
 30
0.0
 10
48.6470133423
 20
38.4377498253
 30
0.0
 10
48.6819305099
 20
38.4251731161
 30
0.0
 10
48.7040608339
 20
38.4243849786
 30
0.0
  0
SPLINE
  5
3CA
100
AcDbEntity
  8
DEFAULT_2
100
AcDbSpline
 62
8
  6
HIDDEN
 70
0
 71
3
 72
17
 73
13
 74
0
 42
0.0000001
 43
0.0000001
 44
0.0000000001
 40
0.0
 40
0.0
 40
0.0
 40
0.0
 40
0.026125684
 40
0.0546908078
 40
0.0876223506
 40
0.1259980327
 40
0.2205653605
 40
0.3391993761
 40
0.480456506
 40
0.6408759446
 40
0.8157073868
 40
1.0
 40
1.0
 40
1.0
 40
1.0
 10
52.9896892877
 20
38.4373540532
 30
0.0
 10
53.0017680329
 20
38.4373495624
 30
0.0
 10
53.0271962441
 20
38.4415287523
 30
0.0
 10
53.0638953445
 20
38.4597033481
 30
0.0
 10
53.0998334703
 20
38.48913838
 30
0.0
 10
53.1508688611
 20
38.5466649721
 30
0.0
 10
53.2123350095
 20
38.6461735176
 30
0.0
 10
53.2821881692
 20
38.794526284
 30
0.0
 10
53.3521158055
 20
38.9759810292
 30
0.0
 10
53.4222736242
 20
39.1848440891
 30
0.0
 10
53.492708297
 20
39.414507572
 30
0.0
 10
53.5389700312
 20
39.5739693284
 30
0.0
 10
53.5624454813
 20
39.6558759574
 30
0.0
  0
SPLINE
  5
3CB
100
AcDbEntity
  8
DEFAULT_2
100
AcDbSpline
 62
8
  6
HIDDEN
 70
0
 71
3
 72
21
 73
17
 74
0
 42
0.0000001
 43
0.0000001
 44
0.0000000001
 40
0.0
 40
0.0
 40
0.0
 40
0.0
 40
0.0233847134
 40
0.0370267489
 40
0.052547965
 40
0.0901534957
 40
0.1371628389
 40
0.1931255041
 40
0.2571251747
 40
0.3280684513
 40
0.4044973364
 40
0.5667023471
 40
0.7293277878
 40
0.8780630284
 40
0.9430034862
 40
1.0
 40
1.0
 40
1.0
 40
1.0
 10
51.7389205297
 20
41.2369578722
 30
0.0
 10
51.7604012656
 20
41.2369534834
 30
0.0
 10
51.794590615
 20
41.2262090054
 30
0.0
 10
51.8340848984
 20
41.1983845885
 30
0.0
 10
51.8784255952
 20
41.1556506469
 30
0.0
 10
51.932099868
 20
41.0802346363
 30
0.0
 10
51.9927196782
 20
40.9660619334
 30
0.0
 10
52.0536589115
 20
40.8251754449
 30
0.0
 10
52.1148539611
 20
40.6607909481
 30
0.0
 10
52.1761126321
 20
40.476515197
 30
0.0
 10
52.2595009892
 20
40.2046302747
 30
0.0
 10
52.3603281667
 20
39.8500754313
 30
0.0
 10
52.479260893
 20
39.4316768379
 30
0.0
 10
52.5813888699
 20
39.1012827331
 30
0.0
 10
52.6668686319
 20
38.8677484621
 30
0.0
 10
52.7105945771
 20
38.7645255852
 30
0.0
 10
52.7329863779
 20
38.7171996441
 30
0.0
  0
SPLINE
  5
3CC
100
AcDbEntity
  8
DEFAULT_2
100
AcDbSpline
 62
8
  6
HIDDEN
 70
0
 71
3
 72
21
 73
17
 74
0
 42
0.0000001
 43
0.0000001
 44
0.0000000001
 40
0.0
 40
0.0
 40
0.0
 40
0.0
 40
0.0233579665
 40
0.0369706887
 40
0.0524916126
 40
0.0901787732
 40
0.1371109078
 40
0.1929323543
 40
0.256928978
 40
0.327901145
 40
0.4042550025
 40
0.5664089296
 40
0.7291205373
 40
0.8778023136
 40
0.9429125148
 40
1.0
 40
1.0
 40
1.0
 40
1.0
 10
50.4889244391
 20
38.437170326
 30
0.0
 10
50.5103688582
 20
38.4371746537
 30
0.0
 10
50.5445259249
 20
38.4476718759
 30
0.0
 10
50.5840613981
 20
38.475337431
 30
0.0
 10
50.628388504
 20
38.5181145413
 30
0.0
 10
50.6818088763
 20
38.5936507311
 30
0.0
 10
50.7425407567
 20
38.7075186174
 30
0.0
 10
50.8035300417
 20
38.8480827557
 30
0.0
 10
50.8646035451
 20
39.0122968727
 30
0.0
 10
50.9257589972
 20
39.1964464947
 30
0.0
 10
51.0091900101
 20
39.4680615673
 30
0.0
 10
51.1099719321
 20
39.8223817636
 30
0.0
 10
51.22862655
 20
40.240598288
 30
0.0
 10
51.3309843179
 20
40.5709126191
 30
0.0
 10
51.4162050823
 20
40.8045927812
 30
0.0
 10
51.45986511
 20
40.9080422094
 30
0.0
 10
51.4822955432
 20
40.9554105521
 30
0.0
  0
SPLINE
  5
3CD
100
AcDbEntity
  8
DEFAULT_2
100
AcDbSpline
 62
8
  6
HIDDEN
 70
0
 71
3
 72
21
 73
17
 74
0
 42
0.0000001
 43
0.0000001
 44
0.0000000001
 40
0.0
 40
0.0
 40
0.0
 40
0.0
 40
0.0233601669
 40
0.0370014545
 40
0.0525718557
 40
0.0902838929
 40
0.1371816509
 40
0.1930232247
 40
0.2571113353
 40
0.3280980655
 40
0.4044243822
 40
0.5665355714
 40
0.7292314516
 40
0.8779084563
 40
0.9429770433
 40
1.0
 40
1.0
 40
1.0
 40
1.0
 10
49.2391860547
 20
41.2367503712
 30
0.0
 10
49.2606323137
 20
41.2367501681
 30
0.0
 10
49.2948313668
 20
41.2262252719
 30
0.0
 10
49.334327063
 20
41.1983660824
 30
0.0
 10
49.3785485283
 20
41.1553529309
 30
0.0
 10
49.4320144897
 20
41.07983358
 30
0.0
 10
49.4928053997
 20
40.9659744947
 30
0.0
 10
49.5537834828
 20
40.8253299303
 30
0.0
 10
49.6147621658
 20
40.6609581431
 30
0.0
 10
49.6759450256
 20
40.4767451796
 30
0.0
 10
49.7593839985
 20
40.2051879526
 30
0.0
 10
49.8601538246
 20
39.8509498206
 30
0.0
 10
49.9787910809
 20
39.4327923709
 30
0.0
 10
50.0811028071
 20
39.1025274717
 30
0.0
 10
50.1663063424
 20
38.8689486127
 30
0.0
 10
50.2100075526
 20
38.7656245247
 30
0.0
 10
50.232415269
 20
38.7183114615
 30
0.0
  0
SPLINE
  5
3CE
100
AcDbEntity
  8
DEFAULT_2
100
AcDbSpline
 62
8
  6
HIDDEN
 70
0
 71
3
 72
21
 73
17
 74
0
 42
0.0000001
 43
0.0000001
 44
0.0000000001
 40
0.0
 40
0.0
 40
0.0
 40
0.0
 40
0.0233609913
 40
0.0369970195
 40
0.0525635547
 40
0.0902882923
 40
0.1372054581
 40
0.1930399776
 40
0.2570979369
 40
0.3280754299
 40
0.404431793
 40
0.5666411174
 40
0.7292881148
 40
0.8780148991
 40
0.9430367842
 40
1.0
 40
1.0
 40
1.0
 40
1.0
 10
47.9891580474
 20
38.4371717092
 30
0.0
 10
48.0106049058
 20
38.4371722565
 30
0.0
 10
48.0447971781
 20
38.4476865021
 30
0.0
 10
48.0843120497
 20
38.4755048026
 30
0.0
 10
48.1285514007
 20
38.5185066737
 30
0.0
 10
48.182005567
 20
38.5940686974
 30
0.0
 10
48.2427853863
 20
38.7079558108
 30
0.0
 10
48.303777518
 20
38.8485746976
 30
0.0
 10
48.3647858338
 20
39.0128887091
 30
0.0
 10
48.4259785919
 20
39.1970883352
 30
0.0
 10
48.5094228626
 20
39.4687562397
 30
0.0
 10
48.6101087108
 20
39.8230913513
 30
0.0
 10
48.7289090861
 20
40.241292751
 30
0.0
 10
48.8311107151
 20
40.5715441092
 30
0.0
 10
48.9163491107
 20
40.8050573637
 30
0.0
 10
48.9601104644
 20
40.9082468217
 30
0.0
 10
48.9824904817
 20
40.9555118916
 30
0.0
  0
SPLINE
  5
3CF
100
AcDbEntity
  8
DEFAULT_2
100
AcDbSpline
 62
8
  6
HIDDEN
 70
0
 71
3
 72
21
 73
17
 74
0
 42
0.0000001
 43
0.0000001
 44
0.0000000001
 40
0.0
 40
0.0
 40
0.0
 40
0.0
 40
0.0233796485
 40
0.0370170406
 40
0.0525348033
 40
0.0901448283
 40
0.1371037905
 40
0.1929964647
 40
0.2570114715
 40
0.3279889258
 40
0.4043522328
 40
0.5665198265
 40
0.7292223552
 40
0.877930723
 40
0.9430005973
 40
1.0
 40
1.0
 40
1.0
 40
1.0
 10
46.7389627609
 20
41.2369442142
 30
0.0
 10
46.7604291642
 20
41.236940679
 30
0.0
 10
46.7945976177
 20
41.2262232114
 30
0.0
 10
46.8340743191
 20
41.1984304005
 30
0.0
 10
46.8783986741
 20
41.1557227478
 30
0.0
 10
46.9319827169
 20
41.0803499484
 30
0.0
 10
46.9926152982
 20
40.9663772395
 30
0.0
 10
47.0535733004
 20
40.825674902
 30
0.0
 10
47.1146853424
 20
40.6613628515
 30
0.0
 10
47.1758527898
 20
40.4771656699
 30
0.0
 10
47.2592909266
 20
40.2054965622
 30
0.0
 10
47.3600733706
 20
39.851126305
 30
0.0
 10
47.4787785873
 20
39.4328500037
 30
0.0
 10
47.5811037537
 20
39.1025152461
 30
0.0
 10
47.6663052787
 20
38.8688964874
 30
0.0
 10
47.7100593529
 20
38.7656050149
 30
0.0
 10
47.7324566636
 20
38.7183048563
 30
0.0
  0
SPLINE
  5
3D0
100
AcDbEntity
  8
DEFAULT_2
100
AcDbSpline
 62
8
  6
HIDDEN
 70
0
 71
3
 72
10
 73
6
 74
0
 42
0.0000001
 43
0.0000001
 44
0.0000000001
 40
0.0
 40
0.0
 40
0.0
 40
0.0
 40
0.5498241358
 40
0.7927516838
 40
1.0
 40
1.0
 40
1.0
 40
1.0
 10
34.5161530698
 20
39.6657708085
 30
0.0
 10
34.5908790035
 20
39.7850331993
 30
0.0
 10
34.6951956463
 20
39.9593824427
 30
0.0
 10
34.84712383
 20
40.1656214511
 30
0.0
 10
34.9266475171
 20
40.2499595329
 30
0.0
 10
34.9672656243
 20
40.2840832211
 30
0.0
  0
SPLINE
  5
3D1
100
AcDbEntity
  8
DEFAULT_2
100
AcDbSpline
 62
8
  6
HIDDEN
 70
0
 71
3
 72
18
 73
14
 74
0
 42
0.0000001
 43
0.0000001
 44
0.0000000001
 40
0.0
 40
0.0
 40
0.0
 40
0.0
 40
0.187170847
 40
0.3374520393
 40
0.3991424136
 40
0.4526398985
 40
0.5407076959
 40
0.5807655895
 40
0.6220629632
 40
0.6674380334
 40
0.7188381596
 40
0.843523361
 40
1.0
 40
1.0
 40
1.0
 40
1.0
 10
34.3776024134
 20
40.6452585779
 30
0.0
 10
34.398357319
 20
40.6937352473
 30
0.0
 10
34.4386526985
 20
40.7799415455
 30
0.0
 10
34.4972739876
 20
40.8764687973
 30
0.0
 10
34.5457608001
 20
40.9337462341
 30
0.0
 10
34.5882829352
 20
40.9720623432
 30
0.0
 10
34.6359620858
 20
40.9962724821
 30
0.0
 10
34.6843797033
 20
40.9975265323
 30
0.0
 10
34.719276952
 20
40.9881311267
 30
0.0
 10
34.7534963009
 20
40.9690037551
 30
0.0
 10
34.8015671861
 20
40.9288255817
 30
0.0
 10
34.8597313688
 20
40.8543421157
 30
0.0
 10
34.8989269215
 20
40.7853977924
 30
0.0
 10
34.9191501423
 20
40.746224793
 30
0.0
  0
SPLINE
  5
3D2
100
AcDbEntity
  8
DEFAULT_2
100
AcDbSpline
 62
8
  6
HIDDEN
 70
0
 71
3
 72
10
 73
6
 74
0
 42
0.0000001
 43
0.0000001
 44
0.0000000001
 40
0.0
 40
0.0
 40
0.0
 40
0.0
 40
0.5530585736
 40
0.7943149384
 40
1.0
 40
1.0
 40
1.0
 40
1.0
 10
39.8993409488
 20
39.7129430339
 30
0.0
 10
39.9525018223
 20
39.5266272521
 30
0.0
 10
40.0294844497
 20
39.2590868633
 30
0.0
 10
40.1430555621
 20
38.92762327
 30
0.0
 10
40.2020823779
 20
38.7823741706
 30
0.0
 10
40.2328921013
 20
38.7172359689
 30
0.0
  0
SPLINE
  5
3D3
100
AcDbEntity
  8
DEFAULT_2
100
AcDbSpline
 62
8
  6
HIDDEN
 70
0
 71
3
 72
15
 73
11
 74
0
 42
0.0000001
 43
0.0000001
 44
0.0000000001
 40
0.0
 40
0.0
 40
0.0
 40
0.0
 40
0.1787116808
 40
0.3522979745
 40
0.5142885992
 40
0.6590952879
 40
0.7817824704
 40
0.8337464058
 40
0.8792294583
 40
1.0
 40
1.0
 40
1.0
 40
1.0
 10
40.564541041
 20
39.9012533207
 30
0.0
 10
40.5911131148
 20
39.8070064311
 30
0.0
 10
40.6432753702
 20
39.6211573706
 30
0.0
 10
40.7215825433
 20
39.3504406413
 30
0.0
 10
40.7997605767
 20
39.0991196662
 30
0.0
 10
40.8777184817
 20
38.876842797
 30
0.0
 10
40.9450915414
 20
38.7155280111
 30
0.0
 10
41.001488842
 20
38.6079089984
 30
0.0
 10
41.0628965213
 20
38.5087456587
 30
0.0
 10
41.1374001161
 20
38.4269600977
 30
0.0
 10
41.2035326855
 20
38.4246309779
 30
0.0
  0
SPLINE
  5
3D4
100
AcDbEntity
  8
DEFAULT_2
100
AcDbSpline
 62
8
  6
HIDDEN
 70
0
 71
3
 72
18
 73
14
 74
0
 42
0.0000001
 43
0.0000001
 44
0.0000000001
 40
0.0
 40
0.0
 40
0.0
 40
0.0
 40
0.181403862
 40
0.3232773194
 40
0.3803666854
 40
0.4292557522
 40
0.5088084369
 40
0.5462335799
 40
0.5867702717
 40
0.6334140133
 40
0.6880053538
 40
0.8245046144
 40
1.0
 40
1.0
 40
1.0
 40
1.0
 10
45.6621914886
 20
37.7101079764
 30
0.0
 10
45.6750903665
 20
37.6776393399
 30
0.0
 10
45.7000800211
 20
37.6205486928
 30
0.0
 10
45.7371972301
 20
37.5569636374
 30
0.0
 10
45.768092337
 20
37.520321215
 30
0.0
 10
45.7948327108
 20
37.4966662854
 30
0.0
 10
45.825911612
 20
37.4830346967
 30
0.0
 10
45.8566528878
 20
37.4864877704
 30
0.0
 10
45.8787902271
 20
37.4965051003
 30
0.0
 10
45.900444216
 20
37.5134347219
 30
0.0
 10
45.9313307686
 20
37.5474357311
 30
0.0
 10
45.9684998375
 20
37.6080063348
 30
0.0
 10
45.993379814
 20
37.6627504169
 30
0.0
 10
46.0062619545
 20
37.6939982526
 30
0.0
  0
SPLINE
  5
3D5
100
AcDbEntity
  8
DEFAULT_2
100
AcDbSpline
 62
8
  6
HIDDEN
 70
0
 71
3
 72
13
 73
9
 74
0
 42
0.0000001
 43
0.0000001
 44
0.0000000001
 40
0.0
 40
0.0
 40
0.0
 40
0.0
 40
0.0806245384
 40
0.1612815848
 40
0.251332695
 40
0.3574763919
 40
0.6317842415
 40
1.0
 40
1.0
 40
1.0
 40
1.0
 10
47.0634932612
 20
42.1845161867
 30
0.0
 10
47.0711549825
 20
42.1872638167
 30
0.0
 10
47.0875582027
 20
42.1903634894
 30
0.0
 10
47.1129845476
 20
42.1854446077
 30
0.0
 10
47.1376425666
 20
42.1715407568
 30
0.0
 10
47.1727600973
 20
42.1391486323
 30
0.0
 10
47.2145889527
 20
42.075212305
 30
0.0
 10
47.2416563498
 20
42.0162320946
 30
0.0
 10
47.2558124261
 20
41.9818595695
 30
0.0
  0
SPLINE
  5
3D6
100
AcDbEntity
  8
DEFAULT_2
100
AcDbSpline
 62
8
  6
HIDDEN
 70
0
 71
3
 72
18
 73
14
 74
0
 42
0.0000001
 43
0.0000001
 44
0.0000000001
 40
0.0
 40
0.0
 40
0.0
 40
0.0
 40
0.1821686565
 40
0.3247714363
 40
0.381994218
 40
0.4308051884
 40
0.5101212425
 40
0.5476723673
 40
0.5883115256
 40
0.634844846
 40
0.6891147222
 40
0.8247461096
 40
1.0
 40
1.0
 40
1.0
 40
1.0
 10
44.412364871
 20
41.9639921919
 30
0.0
 10
44.4252721556
 20
41.9964986949
 30
0.0
 10
44.4502471285
 20
42.0536891988
 30
0.0
 10
44.4872473938
 20
42.1174488624
 30
0.0
 10
44.5181139715
 20
42.1541164868
 30
0.0
 10
44.544832078
 20
42.1776173649
 30
0.0
 10
44.5760519301
 20
42.1906497474
 30
0.0
 10
44.6066120236
 20
42.1867949241
 30
0.0
 10
44.628682299
 20
42.1768214798
 30
0.0
 10
44.6503360813
 20
42.1601410629
 30
0.0
 10
44.6812251818
 20
42.1266732837
 30
0.0
 10
44.7184785157
 20
42.0667190038
 30
0.0
 10
44.7432600431
 20
42.0123599221
 30
0.0
 10
44.7560806722
 20
41.9812504577
 30
0.0
  0
SPLINE
  5
3D7
100
AcDbEntity
  8
DEFAULT_2
100
AcDbSpline
 62
8
  6
HIDDEN
 70
0
 71
3
 72
18
 73
14
 74
0
 42
0.0000001
 43
0.0000001
 44
0.0000000001
 40
0.0
 40
0.0
 40
0.0
 40
0.0
 40
0.1822603649
 40
0.324761272
 40
0.381808842
 40
0.4304000811
 40
0.5095278374
 40
0.5471258587
 40
0.5878703951
 40
0.6345300472
 40
0.6889203118
 40
0.8247199314
 40
1.0
 40
1.0
 40
1.0
 40
1.0
 10
43.1626066011
 20
37.7094405148
 30
0.0
 10
43.1755175691
 20
37.6769200906
 30
0.0
 10
43.2004810752
 20
37.619735815
 30
0.0
 10
43.2374707912
 20
37.5560093266
 30
0.0
 10
43.2683688063
 20
37.5194929778
 30
0.0
 10
43.2951491408
 20
37.4962248495
 30
0.0
 10
43.3264135629
 20
37.4834967581
 30
0.0
 10
43.3569278588
 20
37.4875769365
 30
0.0
 10
43.3789911141
 20
37.4976783319
 30
0.0
 10
43.4006454623
 20
37.5144604754
 30
0.0
 10
43.4315317042
 20
37.5480306332
 30
0.0
 10
43.468792823
 20
37.6080373099
 30
0.0
 10
43.4935984659
 20
37.6624205828
 30
0.0
 10
43.5064285023
 20
37.6935281626
 30
0.0
  0
SPLINE
  5
3D8
100
AcDbEntity
  8
DEFAULT_2
100
AcDbSpline
 62
8
  6
HIDDEN
 70
0
 71
3
 72
18
 73
14
 74
0
 42
0.0000001
 43
0.0000001
 44
0.0000000001
 40
0.0
 40
0.0
 40
0.0
 40
0.0
 40
0.1822682962
 40
0.3246222293
 40
0.3816041932
 40
0.4302967373
 40
0.5097586505
 40
0.547300252
 40
0.5878158593
 40
0.634168934
 40
0.6882967521
 40
0.8241317633
 40
1.0
 40
1.0
 40
1.0
 40
1.0
 10
41.912606165
 20
41.9647285369
 30
0.0
 10
41.9254867651
 20
41.9971723526
 30
0.0
 10
41.9503823948
 20
42.0541926844
 30
0.0
 10
41.9873055461
 20
42.1177169371
 30
0.0
 10
42.0181893742
 20
42.1540664006
 30
0.0
 10
42.0449290802
 20
42.1773419526
 30
0.0
 10
42.0759715683
 20
42.1904078904
 30
0.0
 10
42.1064881852
 20
42.1868805699
 30
0.0
 10
42.1285459902
 20
42.1771605223
 30
0.0
 10
42.1501849236
 20
42.1607049179
 30
0.0
 10
42.1810871214
 20
42.1274254194
 30
0.0
 10
42.2182307699
 20
42.067433489
 30
0.0
 10
42.2429094347
 20
42.0130288589
 30
0.0
 10
42.2557335137
 20
41.9818842885
 30
0.0
  0
SPLINE
  5
3D9
100
AcDbEntity
  8
DEFAULT_2
100
AcDbSpline
 62
8
  6
HIDDEN
 70
0
 71
3
 72
18
 73
14
 74
0
 42
0.0000001
 43
0.0000001
 44
0.0000000001
 40
0.0
 40
0.0
 40
0.0
 40
0.0
 40
0.1821768741
 40
0.3247866757
 40
0.3820298613
 40
0.4308762614
 40
0.5102634163
 40
0.5478006024
 40
0.5883890763
 40
0.6348519777
 40
0.6890528131
 40
0.824623833
 40
1.0
 40
1.0
 40
1.0
 40
1.0
 10
40.6623067396
 20
37.7099642604
 30
0.0
 10
40.6752094877
 20
37.6774641046
 30
0.0
 10
40.7001785974
 20
37.6202848835
 30
0.0
 10
40.7371768146
 20
37.5565398237
 30
0.0
 10
40.7680339582
 20
37.5198650887
 30
0.0
 10
40.794747768
 20
37.4963395184
 30
0.0
 10
40.8259300076
 20
37.483226042
 30
0.0
 10
40.8564973033
 20
37.4869663594
 30
0.0
 10
40.8785697731
 20
37.4968611011
 30
0.0
 10
40.9002237391
 20
37.513471963
 30
0.0
 10
40.9311180518
 20
37.5468684135
 30
0.0
 10
40.9683739381
 20
37.6068042507
 30
0.0
 10
40.9931193193
 20
37.6611750986
 30
0.0
 10
41.0059398666
 20
37.6923004599
 30
0.0
  0
SPLINE
  5
3DA
100
AcDbEntity
  8
DEFAULT_2
100
AcDbSpline
 62
8
  6
HIDDEN
 70
0
 71
3
 72
19
 73
15
 74
0
 42
0.0000001
 43
0.0000001
 44
0.0000000001
 40
0.0
 40
0.0
 40
0.0
 40
0.0
 40
0.0517624387
 40
0.1113680624
 40
0.2496349183
 40
0.4043927979
 40
0.5627543619
 40
0.7117756359
 40
0.7790095691
 40
0.8394725732
 40
0.8921024981
 40
0.9363903156
 40
0.9721651765
 40
1.0
 40
1.0
 40
1.0
 40
1.0
 10
46.440724655
 20
38.6597378273
 30
0.0
 10
46.4623992812
 20
38.7022448227
 30
0.0
 10
46.5045690093
 20
38.7959684931
 30
0.0
 10
46.5870161401
 20
39.0108628322
 30
0.0
 10
46.6859829515
 20
39.3206879263
 30
0.0
 10
46.800296376
 20
39.7207422359
 30
0.0
 10
46.9149416712
 20
40.1310150846
 30
0.0
 10
47.0131559155
 20
40.4621449522
 30
0.0
 10
47.0944123838
 20
40.7039678345
 30
0.0
 10
47.1531713019
 20
40.8595269426
 30
0.0
 10
47.2118899508
 20
40.9922728595
 30
0.0
 10
47.2704942014
 20
41.099940214
 30
0.0
 10
47.3287981523
 20
41.1807737905
 30
0.0
 10
47.3735847914
 20
41.2204614465
 30
0.0
 10
47.3960933073
 20
41.2327777882
 30
0.0
  0
SPLINE
  5
3DB
100
AcDbEntity
  8
DEFAULT_2
100
AcDbSpline
 62
8
  6
HIDDEN
 70
0
 71
3
 72
21
 73
17
 74
0
 42
0.0000001
 43
0.0000001
 44
0.0000000001
 40
0.0
 40
0.0
 40
0.0
 40
0.0
 40
0.0538451456
 40
0.1162353732
 40
0.2617708505
 40
0.4235860649
 40
0.5870105535
 40
0.6645086987
 40
0.7367418561
 40
0.8022419834
 40
0.8596726557
 40
0.9078930951
 40
0.946554975
 40
0.9625071462
 40
0.9764613549
 40
1.0
 40
1.0
 40
1.0
 40
1.0
 10
45.1903301402
 20
41.0146391361
 30
0.0
 10
45.2133697388
 20
40.9694566712
 30
0.0
 10
45.2582331674
 20
40.8694433912
 30
0.0
 10
45.3457447352
 20
40.6388557038
 30
0.0
 10
45.4498725358
 20
40.3062992931
 30
0.0
 10
45.570889285
 20
39.8797432709
 30
0.0
 10
45.6731742353
 20
39.5144252425
 30
0.0
 10
45.7579687004
 20
39.2318970247
 30
0.0
 10
45.8204413717
 20
39.0390052027
 30
0.0
 10
45.882737617
 20
38.8660153492
 30
0.0
 10
45.9446999005
 20
38.717057405
 30
0.0
 10
46.0066078255
 20
38.5958860736
 30
0.0
 10
46.0612209884
 20
38.5152460465
 30
0.0
 10
46.1063425407
 20
38.4686844895
 30
0.0
 10
46.146270745
 20
38.438034233
 30
0.0
 10
46.1812310681
 20
38.4251103693
 30
0.0
 10
46.2033891969
 20
38.4243422398
 30
0.0
  0
SPLINE
  5
3DC
100
AcDbEntity
  8
DEFAULT_2
100
AcDbSpline
 62
8
  6
HIDDEN
 70
0
 71
3
 72
21
 73
17
 74
0
 42
0.0000001
 43
0.0000001
 44
0.0000000001
 40
0.0
 40
0.0
 40
0.0
 40
0.0
 40
0.0538729744
 40
0.1163457979
 40
0.2618193239
 40
0.4236828493
 40
0.5870797944
 40
0.6645107123
 40
0.7367971594
 40
0.80235157
 40
0.8596965357
 40
0.9079024119
 40
0.9466509424
 40
0.9626037825
 40
0.976511071
 40
1.0
 40
1.0
 40
1.0
 40
1.0
 10
43.9404015311
 20
38.6591632949
 30
0.0
 10
43.9634530242
 20
38.7043700329
 30
0.0
 10
44.0083309816
 20
38.8044951004
 30
0.0
 10
44.0956890514
 20
39.0351920734
 30
0.0
 10
44.2000238083
 20
39.367751666
 30
0.0
 10
44.3209032618
 20
39.7943179036
 30
0.0
 10
44.4231694007
 20
40.1596020637
 30
0.0
 10
44.5080725791
 20
40.4420617373
 30
0.0
 10
44.570496563
 20
40.6350109095
 30
0.0
 10
44.6326867909
 20
40.8080650838
 30
0.0
 10
44.6947663195
 20
40.9569379183
 30
0.0
 10
44.7567494538
 20
41.0780417896
 30
0.0
 10
44.8112056072
 20
41.1588731173
 30
0.0
 10
44.8563081155
 20
41.2055092162
 30
0.0
 10
44.8963337124
 20
41.2359545818
 30
0.0
 10
44.9313029832
 20
41.2484064258
 30
0.0
 10
44.9534143069
 20
41.2491832616
 30
0.0
  0
SPLINE
  5
3DD
100
AcDbEntity
  8
DEFAULT_2
100
AcDbSpline
 62
8
  6
HIDDEN
 70
0
 71
3
 72
21
 73
17
 74
0
 42
0.0000001
 43
0.0000001
 44
0.0000000001
 40
0.0
 40
0.0
 40
0.0
 40
0.0
 40
0.0538755982
 40
0.1164086917
 40
0.2618304879
 40
0.4237261826
 40
0.587085778
 40
0.6645407606
 40
0.7368601546
 40
0.8023829997
 40
0.8596750566
 40
0.9079149405
 40
0.9466917132
 40
0.9626318896
 40
0.9765198421
 40
1.0
 40
1.0
 40
1.0
 40
1.0
 10
42.6905591104
 20
41.0143638422
 30
0.0
 10
42.7136330347
 20
40.969177854
 30
0.0
 10
42.7584975986
 20
40.8690034538
 30
0.0
 10
42.8457210349
 20
40.6383033436
 30
0.0
 10
42.9501941343
 20
40.3058275206
 30
0.0
 10
43.0709174863
 20
39.8793674004
 30
0.0
 10
43.1732450646
 20
39.5141666454
 30
0.0
 10
43.2581036084
 20
39.2317398425
 30
0.0
 10
43.3204748057
 20
39.0387936748
 30
0.0
 10
43.3826569206
 20
38.8658274988
 30
0.0
 10
43.4448059626
 20
38.717072636
 30
0.0
 10
43.5067237795
 20
38.5959664431
 30
0.0
 10
43.561115676
 20
38.5150529134
 30
0.0
 10
43.6062371584
 20
38.4684526537
 30
0.0
 10
43.6462950505
 20
38.438125683
 30
0.0
 10
43.6812345151
 20
38.4257386712
 30
0.0
 10
43.7033329555
 20
38.4249639777
 30
0.0
  0
SPLINE
  5
3DE
100
AcDbEntity
  8
DEFAULT_2
100
AcDbSpline
 62
8
  6
HIDDEN
 70
0
 71
3
 72
21
 73
17
 74
0
 42
0.0000001
 43
0.0000001
 44
0.0000000001
 40
0.0
 40
0.0
 40
0.0
 40
0.0
 40
0.0538748112
 40
0.1163995977
 40
0.2619145408
 40
0.4238885658
 40
0.5872940724
 40
0.6647444348
 40
0.7370549878
 40
0.8025841438
 40
0.859878433
 40
0.9080744066
 40
0.9467482793
 40
0.9626321428
 40
0.9765055089
 40
1.0
 40
1.0
 40
1.0
 40
1.0
 10
41.440427448
 20
38.6592792367
 30
0.0
 10
41.4634998189
 20
38.7044859313
 30
0.0
 10
41.5084215952
 20
38.8046670997
 30
0.0
 10
41.5957516878
 20
39.0355104062
 30
0.0
 10
41.7002380404
 20
39.3682770553
 30
0.0
 10
41.8210706132
 20
39.7950857612
 30
0.0
 10
41.9234640714
 20
40.1605290716
 30
0.0
 10
42.0084038844
 20
40.4430755718
 30
0.0
 10
42.0708331333
 20
40.6360737475
 30
0.0
 10
42.1330561847
 20
40.8090948249
 30
0.0
 10
42.1952231605
 20
40.9578725992
 30
0.0
 10
42.2571666231
 20
41.0788648044
 30
0.0
 10
42.3116088585
 20
41.1595802176
 30
0.0
 10
42.3568503423
 20
41.2058695139
 30
0.0
 10
42.3969360633
 20
41.2360791816
 30
0.0
 10
42.4318570995
 20
41.2485353961
 30
0.0
 10
42.453976699
 20
41.2493216995
 30
0.0
  0
SPLINE
  5
3DF
100
AcDbEntity
  8
DEFAULT_2
100
AcDbSpline
 62
8
  6
HIDDEN
 70
0
 71
3
 72
22
 73
18
 74
0
 42
0.0000001
 43
0.0000001
 44
0.0000000001
 40
0.0
 40
0.0
 40
0.0
 40
0.0
 40
0.0113716333
 40
0.0235762062
 40
0.0372735961
 40
0.0528745838
 40
0.0905564226
 40
0.1373878684
 40
0.1932557802
 40
0.2573504308
 40
0.3282897657
 40
0.4045814082
 40
0.5667023168
 40
0.7292837466
 40
0.8778540201
 40
0.9429467276
 40
1.0
 40
1.0
 40
1.0
 40
1.0
 10
45.4895162011
 20
38.437042046
 30
0.0
 10
45.4999554703
 20
38.4370394163
 30
0.0
 10
45.52170423
 20
38.4401423699
 30
0.0
 10
45.5533937175
 20
38.4538534412
 30
0.0
 10
45.584621592
 20
38.4760438461
 30
0.0
 10
45.6287033943
 20
38.5191677772
 30
0.0
 10
45.6822578466
 20
38.5945652765
 30
0.0
 10
45.7430752441
 20
38.7083270398
 30
0.0
 10
45.8039360649
 20
38.8489819404
 30
0.0
 10
45.8648826106
 20
39.0133359651
 30
0.0
 10
45.9260685745
 20
39.197462031
 30
0.0
 10
46.0094861055
 20
39.4689372513
 30
0.0
 10
46.1101167873
 20
39.8230570951
 30
0.0
 10
46.2287493068
 20
40.2409851946
 30
0.0
 10
46.3310712291
 20
40.5710330746
 30
0.0
 10
46.4161954915
 20
40.8045690653
 30
0.0
 10
46.4598330296
 20
40.9079682205
 30
0.0
 10
46.4822548174
 20
40.9553016327
 30
0.0
  0
SPLINE
  5
3E0
100
AcDbEntity
  8
DEFAULT_2
100
AcDbSpline
 62
8
  6
HIDDEN
 70
0
 71
3
 72
21
 73
17
 74
0
 42
0.0000001
 43
0.0000001
 44
0.0000000001
 40
0.0
 40
0.0
 40
0.0
 40
0.0
 40
0.0233816554
 40
0.0370003255
 40
0.0524852733
 40
0.0900014557
 40
0.136955002
 40
0.1929072287
 40
0.2569172363
 40
0.3278683012
 40
0.4043110133
 40
0.5665766543
 40
0.7292888095
 40
0.878025265
 40
0.9429732099
 40
1.0
 40
1.0
 40
1.0
 40
1.0
 10
44.2384884985
 20
41.2367963694
 30
0.0
 10
44.2599696456
 20
41.2367853187
 30
0.0
 10
44.2941462683
 20
41.2261453776
 30
0.0
 10
44.3336936214
 20
41.1984761083
 30
0.0
 10
44.3780647133
 20
41.1559589996
 30
0.0
 10
44.4318104504
 20
41.0807722227
 30
0.0
 10
44.4924460835
 20
40.9667435444
 30
0.0
 10
44.5533981954
 20
40.8258930605
 30
0.0
 10
44.614611821
 20
40.6614797719
 30
0.0
 10
44.6759081918
 20
40.4771550046
 30
0.0
 10
44.7593452064
 20
40.2051611833
 30
0.0
 10
44.8602311265
 20
39.8504115527
 30
0.0
 10
44.9791683209
 20
39.4318042785
 30
0.0
 10
45.0813918496
 20
39.1012925711
 30
0.0
 10
45.1669289381
 20
38.8677022154
 30
0.0
 10
45.2106616564
 20
38.7644265178
 30
0.0
 10
45.2330649288
 20
38.7170665422
 30
0.0
  0
SPLINE
  5
3E1
100
AcDbEntity
  8
DEFAULT_2
100
AcDbSpline
 62
8
  6
HIDDEN
 70
0
 71
3
 72
21
 73
17
 74
0
 42
0.0000001
 43
0.0000001
 44
0.0000000001
 40
0.0
 40
0.0
 40
0.0
 40
0.0
 40
0.0233788515
 40
0.0369837632
 40
0.0524436005
 40
0.0898719462
 40
0.1367283639
 40
0.1926315723
 40
0.256655163
 40
0.3276460116
 40
0.4040536248
 40
0.5662734528
 40
0.7290840158
 40
0.8777832206
 40
0.9428643374
 40
1.0
 40
1.0
 40
1.0
 40
1.0
 10
42.98824084
 20
38.4372566676
 30
0.0
 10
43.0097151336
 20
38.4372718135
 30
0.0
 10
43.0438697044
 20
38.4478661246
 30
0.0
 10
43.0834265915
 20
38.4754396742
 30
0.0
 10
43.1277818281
 20
38.5177853014
 30
0.0
 10
43.1815555039
 20
38.5926924544
 30
0.0
 10
43.2422090954
 20
38.7064443608
 30
0.0
 10
43.3031486976
 20
38.8471359155
 30
0.0
 10
43.3643348626
 20
39.0115274121
 30
0.0
 10
43.4255733252
 20
39.1958478056
 30
0.0
 10
43.509057173
 20
39.4677279311
 30
0.0
 10
43.609996314
 20
39.8224028256
 30
0.0
 10
43.7287308129
 20
40.2409956012
 30
0.0
 10
43.8311874601
 20
40.5715463459
 30
0.0
 10
43.9165818609
 20
40.805331937
 30
0.0
 10
43.9602788876
 20
40.9088424416
 30
0.0
 10
43.982707504
 20
40.9562895182
 30
0.0
  0
SPLINE
  5
3E2
100
AcDbEntity
  8
DEFAULT_2
100
AcDbSpline
 62
8
  6
HIDDEN
 70
0
 71
3
 72
21
 73
17
 74
0
 42
0.0000001
 43
0.0000001
 44
0.0000000001
 40
0.0
 40
0.0
 40
0.0
 40
0.0
 40
0.0233589438
 40
0.0369630113
 40
0.0524615275
 40
0.0901027353
 40
0.1370269967
 40
0.1928802175
 40
0.2569316265
 40
0.3279263555
 40
0.4042784383
 40
0.5664281057
 40
0.7291568419
 40
0.8778122433
 40
0.942915592
 40
1.0
 40
1.0
 40
1.0
 40
1.0
 10
41.7388066732
 20
41.2366682267
 30
0.0
 10
41.7602561496
 20
41.2366621271
 30
0.0
 10
41.7944094165
 20
41.2261739426
 30
0.0
 10
41.8339599631
 20
41.1985658703
 30
0.0
 10
41.8783254037
 20
41.1559138716
 30
0.0
 10
41.9317866438
 20
41.0804605593
 30
0.0
 10
41.9925234172
 20
40.9665890305
 30
0.0
 10
42.0535212364
 20
40.8259163801
 30
0.0
 10
42.1145839239
 20
40.6615554948
 30
0.0
 10
42.175769734
 20
40.477303728
 30
0.0
 10
42.2592371699
 20
40.205626206
 30
0.0
 10
42.3600634114
 20
39.8512338456
 30
0.0
 10
42.4787175466
 20
39.4329418636
 30
0.0
 10
42.5811393801
 20
39.1025929338
 30
0.0
 10
42.6663782628
 20
38.8689030774
 30
0.0
 10
42.7100602642
 20
38.765449647
 30
0.0
 10
42.7324912748
 20
38.718073454
 30
0.0
  0
SPLINE
  5
3E3
100
AcDbEntity
  8
DEFAULT_2
100
AcDbSpline
 62
8
  6
HIDDEN
 70
0
 71
3
 72
21
 73
17
 74
0
 42
0.0000001
 43
0.0000001
 44
0.0000000001
 40
0.0
 40
0.0
 40
0.0
 40
0.0
 40
0.0233738507
 40
0.0369877133
 40
0.0524719709
 40
0.0900141758
 40
0.136937306
 40
0.1928226729
 40
0.2568460221
 40
0.3278365107
 40
0.4042116622
 40
0.566401849
 40
0.7291524643
 40
0.8777928282
 40
0.942890147
 40
1.0
 40
1.0
 40
1.0
 40
1.0
 10
40.4885874358
 20
38.4370791046
 30
0.0
 10
40.5100549556
 20
38.4370886299
 30
0.0
 10
40.5442147595
 20
38.4476992175
 30
0.0
 10
40.5837464756
 20
38.4753475281
 30
0.0
 10
40.6281114274
 20
38.5178741384
 30
0.0
 10
40.6817491922
 20
38.5930988133
 30
0.0
 10
40.7423971598
 20
38.7069929805
 30
0.0
 10
40.8033798767
 20
38.8477006234
 30
0.0
 10
40.8645191558
 20
39.0120725363
 30
0.0
 10
40.9257186319
 20
39.1963526189
 30
0.0
 10
41.0092014171
 20
39.4681427965
 30
0.0
 10
41.1100634582
 20
39.8226842287
 30
0.0
 10
41.2287506655
 20
40.2411037485
 30
0.0
 10
41.3312201602
 20
40.5715129742
 30
0.0
 10
41.4165126178
 20
40.8052410295
 30
0.0
 10
41.4601979163
 20
40.9087362992
 30
0.0
 10
41.4826315027
 20
40.9561488988
 30
0.0
  0
SPLINE
  5
3E4
100
AcDbEntity
  8
DEFAULT_2
100
AcDbSpline
 62
8
  6
HIDDEN
 70
0
 71
3
 72
18
 73
14
 74
0
 42
0.0000001
 43
0.0000001
 44
0.0000000001
 40
0.0
 40
0.0
 40
0.0
 40
0.0
 40
0.1823614181
 40
0.3266088342
 40
0.385039776
 40
0.4351563729
 40
0.5162164243
 40
0.5537201271
 40
0.5937564253
 40
0.6393410231
 40
0.6925192455
 40
0.8260773018
 40
1.0
 40
1.0
 40
1.0
 40
1.0
 10
39.4276402374
 20
41.8103942094
 30
0.0
 10
39.4412371217
 20
41.8443536247
 30
0.0
 10
39.4675970696
 20
41.9043952089
 30
0.0
 10
39.5063686982
 20
41.9715934037
 30
0.0
 10
39.538622644
 20
42.0109722769
 30
0.0
 10
39.5665336826
 20
42.03673907
 30
0.0
 10
39.5988512375
 20
42.0522560165
 30
0.0
 10
39.6311973922
 20
42.0500541218
 30
0.0
 10
39.6544390624
 20
42.0408130582
 30
0.0
 10
39.6772063794
 20
42.0244348307
 30
0.0
 10
39.7096816061
 20
41.990769855
 30
0.0
 10
39.7488058592
 20
41.9292620444
 30
0.0
 10
39.7746489229
 20
41.8731967503
 30
0.0
 10
39.7880434319
 20
41.8409829688
 30
0.0
  0
SPLINE
  5
3E5
100
AcDbEntity
  8
DEFAULT_2
100
AcDbSpline
 62
8
  6
HIDDEN
 70
0
 71
3
 72
18
 73
14
 74
0
 42
0.0000001
 43
0.0000001
 44
0.0000000001
 40
0.0
 40
0.0
 40
0.0
 40
0.0
 40
0.1831654464
 40
0.3294473451
 40
0.3890065187
 40
0.4402073593
 40
0.5231924707
 40
0.5609818528
 40
0.6006899943
 40
0.6454880449
 40
0.6976739293
 40
0.8291545454
 40
1.0
 40
1.0
 40
1.0
 40
1.0
 10
38.1572755213
 20
38.1708841031
 30
0.0
 10
38.1726415027
 20
38.1330008014
 30
0.0
 10
38.2024313708
 20
38.0657098417
 30
0.0
 10
38.2458865041
 20
37.9901353653
 30
0.0
 10
38.282024562
 20
37.9453086523
 30
0.0
 10
38.3134546663
 20
37.91569095
 30
0.0
 10
38.3493281045
 20
37.8970493313
 30
0.0
 10
38.3857925283
 20
37.8974943432
 30
0.0
 10
38.4120019863
 20
37.906364275
 30
0.0
 10
38.4376731413
 20
37.923310779
 30
0.0
 10
38.4742335549
 20
37.9591716455
 30
0.0
 10
38.5179991239
 20
38.0258909951
 30
0.0
 10
38.5470474079
 20
38.0868438315
 30
0.0
 10
38.5621341314
 20
38.1218636384
 30
0.0
  0
SPLINE
  5
3E6
100
AcDbEntity
  8
DEFAULT_2
100
AcDbSpline
 62
8
  6
HIDDEN
 70
0
 71
3
 72
18
 73
14
 74
0
 42
0.0000001
 43
0.0000001
 44
0.0000000001
 40
0.0
 40
0.0
 40
0.0
 40
0.0
 40
0.1853932211
 40
0.335584716
 40
0.3974403396
 40
0.4508807967
 40
0.5370999886
 40
0.5753615587
 40
0.6146242341
 40
0.6581621779
 40
0.7084532116
 40
0.8349661523
 40
1.0
 40
1.0
 40
1.0
 40
1.0
 10
36.8764246998
 20
41.1800244881
 30
0.0
 10
36.8942042702
 20
41.2234899974
 30
0.0
 10
36.9287234483
 20
41.3012449323
 30
0.0
 10
36.9785414317
 20
41.3891162327
 30
0.0
 10
37.0198061973
 20
41.4424906371
 30
0.0
 10
37.0557652051
 20
41.4785988858
 30
0.0
 10
37.0963234279
 20
41.5027249845
 30
0.0
 10
37.1384122318
 20
41.5056270889
 30
0.0
 10
37.1685784198
 20
41.4979926749
 30
0.0
 10
37.1981356209
 20
41.4811298193
 30
0.0
 10
37.2401269636
 20
41.4439319624
 30
0.0
 10
37.2904052937
 20
41.3723733776
 30
0.0
 10
37.32354814
 20
41.3063191159
 30
0.0
 10
37.3407910855
 20
41.2682367469
 30
0.0
  0
SPLINE
  5
3E7
100
AcDbEntity
  8
DEFAULT_2
100
AcDbSpline
 62
8
  6
HIDDEN
 70
0
 71
3
 72
18
 73
14
 74
0
 42
0.0000001
 43
0.0000001
 44
0.0000000001
 40
0.0
 40
0.0
 40
0.0
 40
0.0
 40
0.1921656642
 40
0.3513529182
 40
0.4753886531
 40
0.5248824731
 40
0.5676977018
 40
0.6064713261
 40
0.6445852636
 40
0.6854847346
 40
0.7319126082
 40
0.847729734
 40
1.0
 40
1.0
 40
1.0
 40
1.0
 10
35.5653503486
 20
38.8706250054
 30
0.0
 10
35.5872042146
 20
38.8158907428
 30
0.0
 10
35.6295561357
 20
38.7166499588
 30
0.0
 10
35.6979451003
 20
38.5878183434
 30
0.0
 10
35.7584302251
 20
38.5044118143
 30
0.0
 10
35.8090352701
 20
38.4609445166
 30
0.0
 10
35.8447999563
 20
38.4417031218
 30
0.0
 10
35.881234882
 20
38.4337924527
 30
0.0
 10
35.9177462943
 20
38.4377044805
 30
0.0
 10
35.9535646422
 20
38.4529357859
 30
0.0
 10
36.0040554427
 20
38.4901244303
 30
0.0
 10
36.0649271913
 20
38.5665463069
 30
0.0
 10
36.1043977133
 20
38.6387932516
 30
0.0
 10
36.1248727954
 20
38.6807656091
 30
0.0
  0
SPLINE
  5
3E8
100
AcDbEntity
  8
DEFAULT_2
100
AcDbSpline
 62
8
  6
HIDDEN
 70
0
 71
3
 72
15
 73
11
 74
0
 42
0.0000001
 43
0.0000001
 44
0.0000000001
 40
0.0
 40
0.0
 40
0.0
 40
0.0
 40
0.0935179912
 40
0.2047244646
 40
0.3335570366
 40
0.4745222109
 40
0.6198753883
 40
0.7610297117
 40
0.8897290097
 40
1.0
 40
1.0
 40
1.0
 40
1.0
 10
35.2621546995
 20
40.3701430908
 30
0.0
 10
35.3040041651
 20
40.3585240319
 30
0.0
 10
35.3895653663
 20
40.3120428561
 30
0.0
 10
35.50263529
 20
40.2052457627
 30
0.0
 10
35.6135907288
 20
40.06697196
 30
0.0
 10
35.7233289629
 20
39.9083924461
 30
0.0
 10
35.8320400174
 20
39.7422786569
 30
0.0
 10
35.9397043859
 20
39.5822490128
 30
0.0
 10
36.0462340669
 20
39.441330034
 30
0.0
 10
36.1240980507
 20
39.3613043882
 30
0.0
 10
36.1637772248
 20
39.3289262979
 30
0.0
  0
SPLINE
  5
3E9
100
AcDbEntity
  8
DEFAULT_2
100
AcDbSpline
 62
8
  6
HIDDEN
 70
0
 71
3
 72
19
 73
15
 74
0
 42
0.0000001
 43
0.0000001
 44
0.0000000001
 40
0.0
 40
0.0
 40
0.0
 40
0.0
 40
0.0385496393
 40
0.0857882449
 40
0.1410678092
 40
0.2034360037
 40
0.3442255035
 40
0.4973678046
 40
0.6509329994
 40
0.792760018
 40
0.8558966415
 40
0.9121553862
 40
0.9604071112
 40
1.0
 40
1.0
 40
1.0
 40
1.0
 10
42.2557335137
 20
41.9818842885
 30
0.0
 10
42.2771283328
 20
41.9299248108
 30
0.0
 10
42.3179910496
 20
41.8115504353
 30
0.0
 10
42.3734640626
 20
41.6135039722
 30
0.0
 10
42.4291419005
 20
41.3796418729
 30
0.0
 10
42.5066981792
 20
41.0109776034
 30
0.0
 10
42.6003660162
 20
40.5000704481
 30
0.0
 10
42.7093312237
 20
39.8569483279
 30
0.0
 10
42.8182077217
 20
39.2122772869
 30
0.0
 10
42.9118478136
 20
38.6980672289
 30
0.0
 10
42.9893584569
 20
38.3252484425
 30
0.0
 10
43.0449712129
 20
38.0872419489
 30
0.0
 10
43.1004829845
 20
37.8846134417
 30
0.0
 10
43.1413109794
 20
37.7630803849
 30
0.0
 10
43.1626066011
 20
37.7094405148
 30
0.0
  0
LINE
  5
3EA
100
AcDbEntity
  8
DEFAULT_2
100
AcDbLine
 62
8
  6
HIDDEN
 10
40.1886182892
 20
40.0383031329
 11
40.2319409949
 21
39.7229517547
  0
SPLINE
  5
3EB
100
AcDbEntity
  8
DEFAULT_2
100
AcDbSpline
 62
8
  6
HIDDEN
 70
0
 71
3
 72
9
 73
5
 74
0
 42
0.0000001
 43
0.0000001
 44
0.0000000001
 40
0.0
 40
0.0
 40
0.0
 40
0.0
 40
0.2202548162
 40
1.0
 40
1.0
 40
1.0
 40
1.0
 10
36.3248366185
 20
39.224540917
 30
0.0
 10
36.3109510919
 20
39.2276192641
 30
0.0
 10
36.2493143031
 20
39.2483790522
 30
0.0
 10
36.1981396665
 20
39.2921234977
 30
0.0
 10
36.1637772248
 20
39.3289262979
 30
0.0
  0
SPLINE
  5
3EC
100
AcDbEntity
  8
DEFAULT_2
100
AcDbSpline
 62
8
  6
HIDDEN
 70
0
 71
3
 72
11
 73
7
 74
0
 42
0.0000001
 43
0.0000001
 44
0.0000000001
 40
0.0
 40
0.0
 40
0.0
 40
0.0
 40
0.1885085308
 40
0.4068967787
 40
0.6746256845
 40
1.0
 40
1.0
 40
1.0
 40
1.0
 10
53.7042355988
 20
38.4243673915
 30
0.0
 10
53.7207346365
 20
38.4237778742
 30
0.0
 10
53.7569111157
 20
38.4312461298
 30
0.0
 10
53.8066396234
 20
38.4647603142
 30
0.0
 10
53.8550162416
 20
38.5173158364
 30
0.0
 10
53.8841486849
 20
38.560504354
 30
0.0
 10
53.8990031841
 20
38.5848226783
 30
0.0
  0
SPLINE
  5
3ED
100
AcDbEntity
  8
DEFAULT_2
100
AcDbSpline
 62
8
  6
HIDDEN
 70
0
 71
3
 72
13
 73
9
 74
0
 42
0.0000001
 43
0.0000001
 44
0.0000000001
 40
0.0
 40
0.0
 40
0.0
 40
0.0
 40
0.0850960305
 40
0.1752456434
 40
0.2753450425
 40
0.3886196942
 40
0.6611719152
 40
1.0
 40
1.0
 40
1.0
 40
1.0
 10
48.7040608339
 20
38.4243849786
 30
0.0
 10
48.7139680302
 20
38.424032149
 30
0.0
 10
48.7345686077
 20
38.4260899321
 30
0.0
 10
48.7648530073
 20
38.4375182287
 30
0.0
 10
48.7947150586
 20
38.4568378521
 30
0.0
 10
48.8367828963
 20
38.4949857067
 30
0.0
 10
48.8879994671
 20
38.5628310194
 30
0.0
 10
48.922918436
 20
38.6250097135
 30
0.0
 10
48.9408696189
 20
38.6601642844
 30
0.0
  0
SPLINE
  5
3EE
100
AcDbEntity
  8
DEFAULT_2
100
AcDbSpline
 62
8
  6
HIDDEN
 70
0
 71
3
 72
11
 73
7
 74
0
 42
0.0000001
 43
0.0000001
 44
0.0000000001
 40
0.0
 40
0.0
 40
0.0
 40
0.0
 40
0.1746464914
 40
0.3875852382
 40
0.6601516511
 40
1.0
 40
1.0
 40
1.0
 40
1.0
 10
46.2033891969
 20
38.4243422398
 30
0.0
 10
46.2236831619
 20
38.423638733
 30
0.0
 10
46.2693595682
 20
38.4359183032
 30
0.0
 10
46.3293416579
 20
38.4857001541
 30
0.0
 10
46.387835644
 20
38.5622792347
 30
0.0
 10
46.4227749218
 20
38.6245358718
 30
0.0
 10
46.440724655
 20
38.6597378273
 30
0.0
  0
SPLINE
  5
3EF
100
AcDbEntity
  8
DEFAULT_2
100
AcDbSpline
 62
8
  6
HIDDEN
 70
0
 71
3
 72
13
 73
9
 74
0
 42
0.0000001
 43
0.0000001
 44
0.0000000001
 40
0.0
 40
0.0
 40
0.0
 40
0.0
 40
0.3069466244
 40
0.5882343037
 40
0.7130357105
 40
0.8244927892
 40
0.9206448469
 40
1.0
 40
1.0
 40
1.0
 40
1.0
 10
40.2319409949
 20
39.7229517547
 30
0.0
 10
40.2671543475
 20
39.5150511138
 30
0.0
 10
40.3350431987
 20
39.1167033945
 30
0.0
 10
40.424137452
 20
38.6349813905
 30
0.0
 10
40.4979250255
 20
38.2871643331
 30
0.0
 10
40.5508237377
 20
38.0649799007
 30
0.0
 10
40.6034728174
 20
37.874963226
 30
0.0
 10
40.6421915118
 20
37.7606316086
 30
0.0
 10
40.6623067396
 20
37.7099642604
 30
0.0
  0
SPLINE
  5
3F0
100
AcDbEntity
  8
DEFAULT_2
100
AcDbSpline
 62
8
  6
HIDDEN
 70
0
 71
3
 72
17
 73
13
 74
0
 42
0.0000001
 43
0.0000001
 44
0.0000000001
 40
0.0
 40
0.0
 40
0.0
 40
0.0
 40
0.0268730937
 40
0.0544943973
 40
0.0851939085
 40
0.1206642104
 40
0.2096629336
 40
0.3251177343
 40
0.4656558683
 40
0.6283900445
 40
0.8084547738
 40
1.0
 40
1.0
 40
1.0
 40
1.0
 10
39.2390492941
 20
41.0954252957
 30
0.0
 10
39.2516252687
 20
41.098215011
 30
0.0
 10
39.2782021719
 20
41.100034059
 30
0.0
 10
39.3183029946
 20
41.0896185387
 30
0.0
 10
39.3575796096
 20
41.0668905781
 30
0.0
 10
39.4133603216
 20
41.0171409757
 30
0.0
 10
39.480203514
 20
40.9221870399
 30
0.0
 10
39.5548817157
 20
40.774513589
 30
0.0
 10
39.6302327817
 20
40.5882521713
 30
0.0
 10
39.705616428
 20
40.3691265821
 30
0.0
 10
39.7812656957
 20
40.1243832169
 30
0.0
 10
39.8308383111
 20
39.9532847624
 30
0.0
 10
39.8560525297
 20
39.8649970373
 30
0.0
  0
SPLINE
  5
3F1
100
AcDbEntity
  8
DEFAULT_2
100
AcDbSpline
 62
8
  6
HIDDEN
 70
0
 71
3
 72
11
 73
7
 74
0
 42
0.0000001
 43
0.0000001
 44
0.0000000001
 40
0.0
 40
0.0
 40
0.0
 40
0.0
 40
0.1744821376
 40
0.3863588968
 40
0.6591343052
 40
1.0
 40
1.0
 40
1.0
 40
1.0
 10
43.7033329555
 20
38.4249639777
 30
0.0
 10
43.7235674747
 20
38.4242546267
 30
0.0
 10
43.7690779657
 20
38.4358882314
 30
0.0
 10
43.8293787971
 20
38.4850164861
 30
0.0
 10
43.8876091357
 20
38.5616205245
 30
0.0
 10
43.9224334943
 20
38.6239258232
 30
0.0
 10
43.9404015311
 20
38.6591632949
 30
0.0
  0
SPLINE
  5
3F2
100
AcDbEntity
  8
DEFAULT_2
100
AcDbSpline
 62
8
  6
HIDDEN
 70
0
 71
3
 72
19
 73
15
 74
0
 42
0.0000001
 43
0.0000001
 44
0.0000000001
 40
0.0
 40
0.0
 40
0.0
 40
0.0
 40
0.0385120333
 40
0.0857235422
 40
0.1410500146
 40
0.2034360974
 40
0.3442291561
 40
0.4973994911
 40
0.6509885971
 40
0.7928636583
 40
0.8559743833
 40
0.9121623371
 40
0.9603893839
 40
1.0
 40
1.0
 40
1.0
 40
1.0
 10
49.7558243731
 20
41.9812544921
 30
0.0
 10
49.777205589
 20
41.92934943
 30
0.0
 10
49.8181070663
 20
41.8110913136
 30
0.0
 10
49.8736121839
 20
41.6130803337
 30
0.0
 10
49.9292240454
 20
41.3791491329
 30
0.0
 10
50.0068103038
 20
41.0103948493
 30
0.0
 10
50.100502376
 20
40.4994245949
 30
0.0
 10
50.2094596479
 20
39.8562271404
 30
0.0
 10
50.3183738066
 20
39.2114228912
 30
0.0
 10
50.4119730318
 20
38.6971435118
 30
0.0
 10
50.4894912231
 20
38.3244026586
 30
0.0
 10
50.5451608938
 20
38.0865936559
 30
0.0
 10
50.600689937
 20
37.8840918242
 30
0.0
 10
50.6414867491
 20
37.762560947
 30
0.0
 10
50.6627865116
 20
37.7088956708
 30
0.0
  0
SPLINE
  5
3F3
100
AcDbEntity
  8
DEFAULT_2
100
AcDbSpline
 62
8
  6
HIDDEN
 70
0
 71
3
 72
11
 73
7
 74
0
 42
0.0000001
 43
0.0000001
 44
0.0000000001
 40
0.0
 40
0.0
 40
0.0
 40
0.0
 40
0.1743296097
 40
0.3864621846
 40
0.6595975858
 40
1.0
 40
1.0
 40
1.0
 40
1.0
 10
41.2035326855
 20
38.4246309779
 30
0.0
 10
41.223757263
 20
38.4239186894
 30
0.0
 10
41.269306445
 20
38.4356210603
 30
0.0
 10
41.3294795032
 20
38.4850527427
 30
0.0
 10
41.387580002
 20
38.5617946946
 30
0.0
 10
41.422463941
 20
38.6240825601
 30
0.0
 10
41.440427448
 20
38.6592792367
 30
0.0
  0
SPLINE
  5
3F4
100
AcDbEntity
  8
DEFAULT_2
100
AcDbSpline
 62
8
  6
HIDDEN
 70
0
 71
3
 72
13
 73
9
 74
0
 42
0.0000001
 43
0.0000001
 44
0.0000000001
 40
0.0
 40
0.0
 40
0.0
 40
0.0
 40
0.3438173503
 40
0.6193307585
 40
0.7323137732
 40
0.8308787772
 40
0.9184707881
 40
1.0
 40
1.0
 40
1.0
 40
1.0
 10
48.9824904817
 20
40.9555118916
 30
0.0
 10
49.0019823975
 20
40.9966774878
 30
0.0
 10
49.0397449422
 20
41.0695892592
 30
0.0
 10
49.0949656327
 20
41.1501065376
 30
0.0
 10
49.1407090541
 20
41.1959014045
 30
0.0
 10
49.1730770524
 20
41.2191617586
 30
0.0
 10
49.205877309
 20
41.233463025
 30
0.0
 10
49.2283854896
 20
41.2367504736
 30
0.0
 10
49.2391860547
 20
41.2367503712
 30
0.0
  0
SPLINE
  5
3F5
100
AcDbEntity
  8
DEFAULT_2
100
AcDbSpline
 62
8
  6
HIDDEN
 70
0
 71
3
 72
13
 73
9
 74
0
 42
0.0000001
 43
0.0000001
 44
0.0000000001
 40
0.0
 40
0.0
 40
0.0
 40
0.0
 40
0.3434613347
 40
0.6183754647
 40
0.7316117712
 40
0.8306208572
 40
0.9184518473
 40
1.0
 40
1.0
 40
1.0
 40
1.0
 10
43.982707504
 20
40.9562895182
 30
0.0
 10
44.0020827837
 20
40.9972773513
 30
0.0
 10
44.0396871091
 20
41.0698173413
 30
0.0
 10
44.0949050057
 20
41.1497778578
 30
0.0
 10
44.140405995
 20
41.1954836628
 30
0.0
 10
44.172584768
 20
41.2189545396
 30
0.0
 10
44.205252146
 20
41.2335000028
 30
0.0
 10
44.2277242229
 20
41.236801907
 30
0.0
 10
44.2384884985
 20
41.2367963694
 30
0.0
  0
SPLINE
  5
3F6
100
AcDbEntity
  8
DEFAULT_2
100
AcDbSpline
 62
8
  6
HIDDEN
 70
0
 71
3
 72
10
 73
6
 74
0
 42
0.0000001
 43
0.0000001
 44
0.0000000001
 40
0.0
 40
0.0
 40
0.0
 40
0.0
 40
0.5514877624
 40
0.7924372215
 40
1.0
 40
1.0
 40
1.0
 40
1.0
 10
40.5198265193
 20
40.0535692925
 30
0.0
 10
40.4673828326
 20
40.2224532805
 30
0.0
 10
40.3904525703
 20
40.4647734613
 30
0.0
 10
40.2774268052
 20
40.7649167128
 30
0.0
 10
40.2190178238
 20
40.8965471352
 30
0.0
 10
40.1887754706
 20
40.9558363179
 30
0.0
  0
SPLINE
  5
3F7
100
AcDbEntity
  8
DEFAULT_2
100
AcDbSpline
 62
8
  6
HIDDEN
 70
0
 71
3
 72
13
 73
9
 74
0
 42
0.0000001
 43
0.0000001
 44
0.0000000001
 40
0.0
 40
0.0
 40
0.0
 40
0.0
 40
0.3435991381
 40
0.6188013786
 40
0.7319925707
 40
0.8307800807
 40
0.918438647
 40
1.0
 40
1.0
 40
1.0
 40
1.0
 10
41.4826315027
 20
40.9561488988
 30
0.0
 10
41.5020514192
 20
40.9971922126
 30
0.0
 10
41.5397304953
 20
41.0698545151
 30
0.0
 10
41.5949680807
 20
41.1499992841
 30
0.0
 10
41.6405393323
 20
41.1957476825
 30
0.0
 10
41.6728029138
 20
41.2191012849
 30
0.0
 10
41.7055606329
 20
41.2334052471
 30
0.0
 10
41.7280285366
 20
41.2366712917
 30
0.0
 10
41.7388066732
 20
41.2366682267
 30
0.0
  0
SPLINE
  5
3F8
100
AcDbEntity
  8
DEFAULT_2
100
AcDbSpline
 62
8
  6
HIDDEN
 70
0
 71
3
 72
13
 73
9
 74
0
 42
0.0000001
 43
0.0000001
 44
0.0000000001
 40
0.0
 40
0.0
 40
0.0
 40
0.0
 40
0.2632994286
 40
0.3950864572
 40
0.52200478
 40
0.6433185948
 40
0.7610029725
 40
1.0
 40
1.0
 40
1.0
 40
1.0
 10
35.1445357821
 20
39.6097678531
 30
0.0
 10
35.074745298
 20
39.6666497669
 30
0.0
 10
34.9729166789
 20
39.7555220461
 30
0.0
 10
34.8304281921
 20
39.8632819735
 30
0.0
 10
34.719420647
 20
39.9314034965
 30
0.0
 10
34.6040457959
 20
39.9813333752
 30
0.0
 10
34.4433876771
 20
40.0169562485
 30
0.0
 10
34.3188391843
 20
40.004636735
 30
0.0
 10
34.2390517569
 20
39.9869482882
 30
0.0
  0
SPLINE
  5
3F9
100
AcDbEntity
  8
DEFAULT_2
100
AcDbSpline
 62
8
  6
HIDDEN
 70
0
 71
3
 72
11
 73
7
 74
0
 42
0.0000001
 43
0.0000001
 44
0.0000000001
 40
0.0
 40
0.0
 40
0.0
 40
0.0
 40
0.1741108518
 40
0.3869736502
 40
0.6602903227
 40
1.0
 40
1.0
 40
1.0
 40
1.0
 10
51.2040030578
 20
38.4244746616
 30
0.0
 10
51.2242267948
 20
38.4237552847
 30
0.0
 10
51.2699208638
 20
38.435618502
 30
0.0
 10
51.3297396838
 20
38.4857621823
 30
0.0
 10
51.3878807357
 20
38.5625745349
 30
0.0
 10
51.4227994315
 20
38.6248938093
 30
0.0
 10
51.4407581731
 20
38.6600569686
 30
0.0
  0
SPLINE
  5
3FA
100
AcDbEntity
  8
DEFAULT_2
100
AcDbSpline
 62
8
  6
HIDDEN
 70
0
 71
3
 72
19
 73
15
 74
0
 42
0.0000001
 43
0.0000001
 44
0.0000000001
 40
0.0
 40
0.0
 40
0.0
 40
0.0
 40
0.0385836014
 40
0.0858756753
 40
0.1411397938
 40
0.2034863344
 40
0.3443252679
 40
0.4975003407
 40
0.6510468127
 40
0.7929090221
 40
0.8560035705
 40
0.9121372582
 40
0.9603713806
 40
1.0
 40
1.0
 40
1.0
 40
1.0
 10
47.2558124261
 20
41.9818595695
 30
0.0
 10
47.2772342915
 20
41.9298449014
 30
0.0
 10
47.3180837458
 20
41.8113005268
 30
0.0
 10
47.373521886
 20
41.6130931783
 30
0.0
 10
47.4292625659
 20
41.3791699744
 30
0.0
 10
47.5068658075
 20
41.0104155544
 30
0.0
 10
47.6005053828
 20
40.4993020142
 30
0.0
 10
47.7094841752
 20
39.8559495656
 30
0.0
 10
47.8184409236
 20
39.211079803
 30
0.0
 10
47.9120418311
 20
38.6967895496
 30
0.0
 10
47.9895369673
 20
38.3240806374
 30
0.0
 10
48.0452800089
 20
38.0863278307
 30
0.0
 10
48.1007919358
 20
37.8838191079
 30
0.0
 10
48.1415697693
 20
37.7622122277
 30
0.0
 10
48.1628825615
 20
37.7085100687
 30
0.0
  0
SPLINE
  5
3FB
100
AcDbEntity
  8
DEFAULT_2
100
AcDbSpline
 62
8
  6
HIDDEN
 70
0
 71
3
 72
12
 73
8
 74
0
 42
0.0000001
 43
0.0000001
 44
0.0000000001
 40
0.0
 40
0.0
 40
0.0
 40
0.0
 40
0.0788320908
 40
0.1736565049
 40
0.4067690311
 40
0.6877991562
 40
1.0
 40
1.0
 40
1.0
 40
1.0
 10
39.7880434319
 20
41.8409829688
 30
0.0
 10
39.8066990073
 20
41.7961163275
 30
0.0
 10
39.8426497608
 20
41.6951581478
 30
0.0
 10
39.9131485866
 20
41.4544879101
 30
0.0
 10
39.997268052
 20
41.0884173579
 30
0.0
 10
40.0935932822
 20
40.5882648856
 30
0.0
 10
40.1562537932
 20
40.2279966489
 30
0.0
 10
40.1886182892
 20
40.0383031329
 30
0.0
  0
SPLINE
  5
3FC
100
AcDbEntity
  8
DEFAULT_2
100
AcDbSpline
 62
8
  6
HIDDEN
 70
0
 71
3
 72
13
 73
9
 74
0
 42
0.0000001
 43
0.0000001
 44
0.0000000001
 40
0.0
 40
0.0
 40
0.0
 40
0.0
 40
0.3430675058
 40
0.6179756091
 40
0.7313138726
 40
0.830459267
 40
0.9184169128
 40
1.0
 40
1.0
 40
1.0
 40
1.0
 10
51.4822955432
 20
40.9554105521
 30
0.0
 10
51.5017379761
 20
40.9964688686
 30
0.0
 10
51.5394999579
 20
41.0691616157
 30
0.0
 10
51.5948888529
 20
41.149323802
 30
0.0
 10
51.6405219712
 20
41.195229801
 30
0.0
 10
51.6728029023
 20
41.2188522167
 30
0.0
 10
51.7055552024
 20
41.233572986
 30
0.0
 10
51.7281172986
 20
41.2369600794
 30
0.0
 10
51.7389205297
 20
41.2369578722
 30
0.0
  0
SPLINE
  5
3FD
100
AcDbEntity
  8
DEFAULT_2
100
AcDbSpline
 62
8
  6
HIDDEN
 70
0
 71
3
 72
11
 73
7
 74
0
 42
0.0000001
 43
0.0000001
 44
0.0000000001
 40
0.0
 40
0.0
 40
0.0
 40
0.0
 40
0.3431368204
 40
0.4900042939
 40
0.6206700509
 40
1.0
 40
1.0
 40
1.0
 40
1.0
 10
46.4822548174
 20
40.9553016327
 30
0.0
 10
46.5011521175
 20
40.9951946912
 30
0.0
 10
46.5300781772
 20
41.0512287863
 30
0.0
 10
46.573821052
 20
41.1184889546
 30
0.0
 10
46.6246051929
 20
41.1845141109
 30
0.0
 10
46.6822211315
 20
41.2331426712
 30
0.0
 10
46.7308932151
 20
41.23665399
 30
0.0
  0
SPLINE
  5
3FE
100
AcDbEntity
  8
DEFAULT_2
100
AcDbSpline
 62
8
  6
HIDDEN
 70
0
 71
3
 72
18
 73
14
 74
0
 42
0.0000001
 43
0.0000001
 44
0.0000000001
 40
0.0
 40
0.0
 40
0.0
 40
0.0
 40
0.0341789272
 40
0.0688637504
 40
0.1065461364
 40
0.1492684955
 40
0.1981990597
 40
0.2537661857
 40
0.3839367406
 40
0.5343459411
 40
0.695248467
 40
0.8546513646
 40
1.0
 40
1.0
 40
1.0
 40
1.0
 10
36.7390521554
 20
40.5411840421
 30
0.0
 10
36.7586358005
 20
40.5455047895
 30
0.0
 10
36.7994898867
 20
40.5490964063
 30
0.0
 10
36.861541821
 20
40.5367116516
 30
0.0
 10
36.9227726593
 20
40.5067899916
 30
0.0
 10
36.9829466051
 20
40.4599144017
 30
0.0
 10
37.0426230257
 20
40.3971535793
 30
0.0
 10
37.1263347082
 20
40.2875929791
 30
0.0
 10
37.2270370611
 20
40.1174134306
 30
0.0
 10
37.3425146468
 20
39.8855204827
 30
0.0
 10
37.4579638738
 20
39.6345759703
 30
0.0
 10
37.5730938446
 20
39.3868361702
 30
0.0
 10
37.6551291642
 20
39.2277170925
 30
0.0
 10
37.6983048868
 20
39.1541698155
 30
0.0
  0
SPLINE
  5
3FF
100
AcDbEntity
  8
DEFAULT_2
100
AcDbSpline
 62
8
  6
HIDDEN
 70
0
 71
3
 72
19
 73
15
 74
0
 42
0.0000001
 43
0.0000001
 44
0.0000000001
 40
0.0
 40
0.0
 40
0.0
 40
0.0
 40
0.0386029636
 40
0.0859570482
 40
0.1412160005
 40
0.20345739
 40
0.3442920895
 40
0.49734117
 40
0.6507902254
 40
0.7926705819
 40
0.8556875081
 40
0.9119061312
 40
0.9603201355
 40
1.0
 40
1.0
 40
1.0
 40
1.0
 10
44.7560806722
 20
41.9812504577
 30
0.0
 10
44.7775135454
 20
41.9292432433
 30
0.0
 10
44.8182989643
 20
41.8106201692
 30
0.0
 10
44.873622503
 20
41.612385833
 30
0.0
 10
44.9292966239
 20
41.3786561232
 30
0.0
 10
45.0069769046
 20
41.0102999637
 30
0.0
 10
45.1003253693
 20
40.4997696241
 30
0.0
 10
45.2092865615
 20
39.8571157599
 30
0.0
 10
45.3181911825
 20
39.2129062397
 30
0.0
 10
45.41151557
 20
38.6990876759
 30
0.0
 10
45.4891122373
 20
38.3265756296
 30
0.0
 10
45.5447884859
 20
38.0886672842
 30
0.0
 10
45.6001066502
 20
37.8857511178
 30
0.0
 10
45.6408442198
 20
37.763842628
 30
0.0
 10
45.6621914886
 20
37.7101079764
 30
0.0
  0
SPLINE
  5
400
100
AcDbEntity
  8
DEFAULT_2
100
AcDbSpline
 62
8
  6
HIDDEN
 70
0
 71
3
 72
17
 73
13
 74
0
 42
0.0000001
 43
0.0000001
 44
0.0000000001
 40
0.0
 40
0.0
 40
0.0
 40
0.0
 40
0.0422959966
 40
0.0915221748
 40
0.2081578542
 40
0.3436628583
 40
0.4899028375
 40
0.6378000588
 40
0.7779144992
 40
0.9012531998
 40
0.9541269196
 40
1.0
 40
1.0
 40
1.0
 40
1.0
 10
37.3407910855
 20
41.2682367469
 30
0.0
 10
37.3594386864
 20
41.2270520888
 30
0.0
 10
37.3958479737
 20
41.1361505845
 30
0.0
 10
37.4671246591
 20
40.9253187658
 30
0.0
 10
37.5528414109
 20
40.6145971274
 30
0.0
 10
37.6514630134
 20
40.2003431897
 30
0.0
 10
37.7503360911
 20
39.7518620687
 30
0.0
 10
37.8490901047
 20
39.2983198733
 30
0.0
 10
37.9474834603
 20
38.8697850813
 30
0.0
 10
38.0323749417
 20
38.5423488819
 30
0.0
 10
38.102838435
 20
38.3156180278
 30
0.0
 10
38.1388454086
 20
38.2163217164
 30
0.0
 10
38.1572755213
 20
38.1708841031
 30
0.0
  0
SPLINE
  5
401
100
AcDbEntity
  8
DEFAULT_2
100
AcDbSpline
 62
8
  6
HIDDEN
 70
0
 71
3
 72
19
 73
15
 74
0
 42
0.0000001
 43
0.0000001
 44
0.0000000001
 40
0.0
 40
0.0
 40
0.0
 40
0.0
 40
0.0617559556
 40
0.1029948282
 40
0.1520561079
 40
0.2086691616
 40
0.2722549472
 40
0.4163984145
 40
0.4942931085
 40
0.5741075913
 40
0.7326950812
 40
0.8786893599
 40
0.9430523211
 40
1.0
 40
1.0
 40
1.0
 40
1.0
 10
38.6767061333
 20
38.703174234
 30
0.0
 10
38.6348060464
 20
38.7125464861
 30
0.0
 10
38.5735395093
 20
38.7585611532
 30
0.0
 10
38.507160061
 20
38.8398868038
 30
0.0
 10
38.4517431456
 20
38.9262140417
 30
0.0
 10
38.3959772611
 20
39.0298133489
 30
0.0
 10
38.3174356616
 20
39.1960742402
 30
0.0
 10
38.2424667905
 20
39.3800452201
 30
0.0
 10
38.1667155133
 20
39.5757479918
 30
0.0
 10
38.0885511199
 20
39.7812982959
 30
0.0
 10
37.9924435678
 20
40.0306378375
 30
0.0
 10
37.8910528831
 20
40.2665295789
 30
0.0
 10
37.8052192512
 20
40.4314589353
 30
0.0
 10
37.760768395
 20
40.5033135475
 30
0.0
 10
37.7379657503
 20
40.5356803582
 30
0.0
  0
SPLINE
  5
402
100
AcDbEntity
  8
DEFAULT_2
100
AcDbSpline
 62
8
  6
HIDDEN
 70
0
 71
3
 72
19
 73
15
 74
0
 42
0.0000001
 43
0.0000001
 44
0.0000000001
 40
0.0
 40
0.0
 40
0.0
 40
0.0
 40
0.0385998383
 40
0.0859221698
 40
0.1411413506
 40
0.2033560651
 40
0.344170622
 40
0.4972163852
 40
0.650670404
 40
0.7926271497
 40
0.8556756079
 40
0.9118930822
 40
0.9603031596
 40
1.0
 40
1.0
 40
1.0
 40
1.0
 10
52.2558485617
 20
41.9818039688
 30
0.0
 10
52.2772735663
 20
41.9297906526
 30
0.0
 10
52.3180671517
 20
41.8112088951
 30
0.0
 10
52.37341611
 20
41.6130667097
 30
0.0
 10
52.4291128812
 20
41.3794579109
 30
0.0
 10
52.5068131926
 20
41.0111853892
 30
0.0
 10
52.6001770661
 20
40.5006644477
 30
0.0
 10
52.7091552248
 20
39.8579561941
 30
0.0
 10
52.8181194815
 20
39.21355675
 30
0.0
 10
52.9114324674
 20
38.6995012951
 30
0.0
 10
52.9890293028
 20
38.3267805928
 30
0.0
 10
53.0447284198
 20
38.0888050126
 30
0.0
 10
53.1000865476
 20
37.8858551264
 30
0.0
 10
53.1408046544
 20
37.7639025041
 30
0.0
 10
53.1621633862
 20
37.7101378237
 30
0.0
  0
SPLINE
  5
403
100
AcDbEntity
  8
DEFAULT_2
100
AcDbSpline
 62
8
  6
HIDDEN
 70
0
 71
3
 72
14
 73
10
 74
0
 42
0.0000001
 43
0.0000001
 44
0.0000000001
 40
0.0
 40
0.0
 40
0.0
 40
0.0
 40
0.0996047779
 40
0.2157878171
 40
0.3445705821
 40
0.4810421145
 40
0.7562276305
 40
0.8843940163
 40
1.0
 40
1.0
 40
1.0
 40
1.0
 10
34.9191501423
 20
40.746224793
 30
0.0
 10
34.9493874477
 20
40.6876542045
 30
0.0
 10
35.0073260113
 20
40.5568950992
 30
0.0
 10
35.086965661
 20
40.343185445
 30
0.0
 10
35.166419362
 20
40.1035495834
 30
0.0
 10
35.2725357354
 20
39.7620107919
 30
0.0
 10
35.3748471297
 20
39.4197083062
 30
0.0
 10
35.4817608275
 20
39.0933240426
 30
0.0
 10
35.5369819774
 20
38.9416752204
 30
0.0
 10
35.5653503486
 20
38.8706250054
 30
0.0
  0
SPLINE
  5
404
100
AcDbEntity
  8
DEFAULT_2
100
AcDbSpline
 62
8
  6
HIDDEN
 70
0
 71
3
 72
11
 73
7
 74
0
 42
0.0000001
 43
0.0000001
 44
0.0000000001
 40
0.0
 40
0.0
 40
0.0
 40
0.0
 40
0.2500126786
 40
0.5000007917
 40
0.7499880028
 40
1.0
 40
1.0
 40
1.0
 40
1.0
 10
76.1184285455
 20
35.6822477498
 30
0.0
 10
76.0642778132
 20
35.869831389
 30
0.0
 10
75.9738861441
 20
36.2507854652
 30
0.0
 10
75.9227511045
 20
36.8369494479
 30
0.0
 10
75.9738873428
 20
37.4231126651
 30
0.0
 10
76.0642779608
 20
37.8040656987
 30
0.0
 10
76.1184285455
 20
37.9916488266
 30
0.0
  0
SPLINE
  5
405
100
AcDbEntity
  8
DEFAULT_2
100
AcDbSpline
 62
8
  6
HIDDEN
 70
0
 71
3
 72
11
 73
7
 74
0
 42
0.0000001
 43
0.0000001
 44
0.0000000001
 40
0.0
 40
0.0
 40
0.0
 40
0.0
 40
0.2574278162
 40
0.5000007908
 40
0.7425729806
 40
1.0
 40
1.0
 40
1.0
 40
1.0
 10
76.1184285455
 20
37.9916488266
 30
0.0
 10
76.066110957
 20
38.082265548
 30
0.0
 10
75.9766930568
 20
38.2665454927
 30
0.0
 10
75.9218949311
 20
38.5689997601
 30
0.0
 10
75.9766942063
 20
38.8714532673
 30
0.0
 10
76.0661111189
 20
39.0557329241
 30
0.0
 10
76.1184285455
 20
39.146349365
 30
0.0
  0
SPLINE
  5
406
100
AcDbEntity
  8
DEFAULT_2
100
AcDbSpline
 62
8
  6
HIDDEN
 70
0
 71
3
 72
15
 73
11
 74
0
 42
0.0000001
 43
0.0000001
 44
0.0000000001
 40
0.0
 40
0.0
 40
0.0
 40
0.0
 40
0.1417099404
 40
0.2702338757
 40
0.3880850351
 40
0.5
 40
0.6119149649
 40
0.7297661243
 40
0.8582900596
 40
1.0
 40
1.0
 40
1.0
 40
1.0
 10
78.3624454813
 20
34.5275472114
 30
0.0
 10
78.3128912183
 20
34.5686354358
 30
0.0
 10
78.223782714
 20
34.6539915475
 30
0.0
 10
78.1199057841
 20
34.7978744932
 30
0.0
 10
78.0558672487
 20
34.9492728126
 30
0.0
 10
78.0341030151
 20
35.1048974806
 30
0.0
 10
78.0558672487
 20
35.2605221487
 30
0.0
 10
78.1199057841
 20
35.4119204681
 30
0.0
 10
78.223782714
 20
35.5558034138
 30
0.0
 10
78.3128912183
 20
35.6411595255
 30
0.0
 10
78.3624454813
 20
35.6822477498
 30
0.0
  0
SPLINE
  5
407
100
AcDbEntity
  8
DEFAULT_2
100
AcDbSpline
 62
8
  6
HIDDEN
 70
0
 71
3
 72
15
 73
11
 74
0
 42
0.0000001
 43
0.0000001
 44
0.0000000001
 40
0.0
 40
0.0
 40
0.0
 40
0.0
 40
0.1417099404
 40
0.2702338757
 40
0.3880850351
 40
0.5
 40
0.6119149649
 40
0.7297661243
 40
0.8582900596
 40
1.0
 40
1.0
 40
1.0
 40
1.0
 10
78.3624454813
 20
37.9916488266
 30
0.0
 10
78.3128912183
 20
38.0327370509
 30
0.0
 10
78.223782714
 20
38.1180931626
 30
0.0
 10
78.1199057841
 20
38.2619761083
 30
0.0
 10
78.0558672487
 20
38.4133744277
 30
0.0
 10
78.0341030151
 20
38.5689990958
 30
0.0
 10
78.0558672487
 20
38.7246237638
 30
0.0
 10
78.1199057841
 20
38.8760220832
 30
0.0
 10
78.223782714
 20
39.019905029
 30
0.0
 10
78.3128912183
 20
39.1052611406
 30
0.0
 10
78.3624454813
 20
39.146349365
 30
0.0
  0
SPLINE
  5
408
100
AcDbEntity
  8
DEFAULT_2
100
AcDbSpline
 62
8
  6
HIDDEN
 70
0
 71
3
 72
11
 73
7
 74
0
 42
0.0000001
 43
0.0000001
 44
0.0000000001
 40
0.0
 40
0.0
 40
0.0
 40
0.0
 40
0.2574278162
 40
0.5000007908
 40
0.7425729806
 40
1.0
 40
1.0
 40
1.0
 40
1.0
 10
76.1184285455
 20
34.5275472114
 30
0.0
 10
76.066110957
 20
34.6181639328
 30
0.0
 10
75.9766930568
 20
34.8024438776
 30
0.0
 10
75.9218949311
 20
35.104898145
 30
0.0
 10
75.9766942063
 20
35.4073516522
 30
0.0
 10
76.0661111189
 20
35.5916313089
 30
0.0
 10
76.1184285455
 20
35.6822477498
 30
0.0
  0
SPLINE
  5
409
100
AcDbEntity
  8
DEFAULT_2
100
AcDbSpline
 62
8
  6
HIDDEN
 70
0
 71
3
 72
9
 73
5
 74
0
 42
0.0000001
 43
0.0000001
 44
0.0000000001
 40
0.0
 40
0.0
 40
0.0
 40
0.0
 40
0.4535848523
 40
1.0
 40
1.0
 40
1.0
 40
1.0
 10
65.732053485
 20
79.5979382705
 30
0.0
 10
65.7452421306
 20
79.5979495712
 30
0.0
 10
65.7742706648
 20
79.5931425777
 30
0.0
 10
65.801738472
 20
79.5834287744
 30
0.0
 10
65.8164304788
 20
79.5773816237
 30
0.0
  0
SPLINE
  5
40A
100
AcDbEntity
  8
DEFAULT_2
100
AcDbSpline
 62
8
  6
HIDDEN
 70
0
 71
3
 72
10
 73
6
 74
0
 42
0.0000001
 43
0.0000001
 44
0.0000000001
 40
0.0
 40
0.0
 40
0.0
 40
0.0
 40
0.1905091682
 40
0.4235949525
 40
1.0
 40
1.0
 40
1.0
 40
1.0
 10
65.732053485
 20
92.5979382705
 30
0.0
 10
65.7468062417
 20
92.5979509114
 30
0.0
 10
65.7795226536
 20
92.5919482298
 30
0.0
 10
65.8519919385
 20
92.5643171786
 30
0.0
 10
65.9062827903
 20
92.5321031615
 30
0.0
 10
65.9437009564
 20
92.5077669125
 30
0.0
  0
SPLINE
  5
40B
100
AcDbEntity
  8
DEFAULT_2
100
AcDbSpline
 62
8
  6
HIDDEN
 70
0
 71
3
 72
9
 73
5
 74
0
 42
0.0000001
 43
0.0000001
 44
0.0000000001
 40
0.0
 40
0.0
 40
0.0
 40
0.0
 40
0.4535848523
 40
1.0
 40
1.0
 40
1.0
 40
1.0
 10
65.732053485
 20
85.0759583059
 30
0.0
 10
65.7452421306
 20
85.0759470052
 30
0.0
 10
65.7742706648
 20
85.0807539987
 30
0.0
 10
65.801738472
 20
85.090467802
 30
0.0
 10
65.8164304788
 20
85.0965149527
 30
0.0
  0
SPLINE
  5
40C
100
AcDbEntity
  8
DEFAULT_2
100
AcDbSpline
 62
8
  6
HIDDEN
 70
0
 71
3
 72
10
 73
6
 74
0
 42
0.0000001
 43
0.0000001
 44
0.0000000001
 40
0.0
 40
0.0
 40
0.0
 40
0.0
 40
0.1905091682
 40
0.4235949525
 40
1.0
 40
1.0
 40
1.0
 40
1.0
 10
65.732053485
 20
102.5979382705
 30
0.0
 10
65.7468062417
 20
102.5979509114
 30
0.0
 10
65.7795226536
 20
102.5919482298
 30
0.0
 10
65.8519919385
 20
102.5643171786
 30
0.0
 10
65.9062827903
 20
102.5321031615
 30
0.0
 10
65.9437009564
 20
102.5077669125
 30
0.0
  0
SPLINE
  5
40D
100
AcDbEntity
  8
DEFAULT_2
100
AcDbSpline
 62
8
  6
HIDDEN
 70
0
 71
3
 72
9
 73
5
 74
0
 42
0.0000001
 43
0.0000001
 44
0.0000000001
 40
0.0
 40
0.0
 40
0.0
 40
0.0
 40
0.4535848523
 40
1.0
 40
1.0
 40
1.0
 40
1.0
 10
65.732053485
 20
95.0759583059
 30
0.0
 10
65.7452421306
 20
95.0759470052
 30
0.0
 10
65.7742706648
 20
95.0807539987
 30
0.0
 10
65.801738472
 20
95.090467802
 30
0.0
 10
65.8164304788
 20
95.0965149527
 30
0.0
  0
SPLINE
  5
40E
100
AcDbEntity
  8
DEFAULT_2
100
AcDbSpline
 62
8
  6
HIDDEN
 70
0
 71
3
 72
10
 73
6
 74
0
 42
0.0000001
 43
0.0000001
 44
0.0000000001
 40
0.0
 40
0.0
 40
0.0
 40
0.0
 40
0.1905091682
 40
0.4235949525
 40
1.0
 40
1.0
 40
1.0
 40
1.0
 10
65.732053485
 20
112.5979382705
 30
0.0
 10
65.7468062417
 20
112.5979509114
 30
0.0
 10
65.7795226536
 20
112.5919482298
 30
0.0
 10
65.8519919385
 20
112.5643171786
 30
0.0
 10
65.9062827903
 20
112.5321031615
 30
0.0
 10
65.9437009564
 20
112.5077669125
 30
0.0
  0
SPLINE
  5
40F
100
AcDbEntity
  8
DEFAULT_2
100
AcDbSpline
 62
8
  6
HIDDEN
 70
0
 71
3
 72
9
 73
5
 74
0
 42
0.0000001
 43
0.0000001
 44
0.0000000001
 40
0.0
 40
0.0
 40
0.0
 40
0.0
 40
0.4535848523
 40
1.0
 40
1.0
 40
1.0
 40
1.0
 10
65.732053485
 20
105.0759583059
 30
0.0
 10
65.7452421306
 20
105.0759470052
 30
0.0
 10
65.7742706648
 20
105.0807539987
 30
0.0
 10
65.801738472
 20
105.090467802
 30
0.0
 10
65.8164304788
 20
105.0965149527
 30
0.0
  0
SPLINE
  5
410
100
AcDbEntity
  8
DEFAULT_2
100
AcDbSpline
 62
8
  6
HIDDEN
 70
0
 71
3
 72
10
 73
6
 74
0
 42
0.0000001
 43
0.0000001
 44
0.0000000001
 40
0.0
 40
0.0
 40
0.0
 40
0.0
 40
0.1905091682
 40
0.4235949525
 40
1.0
 40
1.0
 40
1.0
 40
1.0
 10
65.732053485
 20
79.5979382705
 30
0.0
 10
65.7468062417
 20
79.5979509114
 30
0.0
 10
65.7795226536
 20
79.5919482298
 30
0.0
 10
65.8519919385
 20
79.5643171786
 30
0.0
 10
65.9062827903
 20
79.5321031615
 30
0.0
 10
65.9437009564
 20
79.5077669125
 30
0.0
  0
SPLINE
  5
411
100
AcDbEntity
  8
DEFAULT_2
100
AcDbSpline
 62
8
  6
HIDDEN
 70
0
 71
3
 72
9
 73
5
 74
0
 42
0.0000001
 43
0.0000001
 44
0.0000000001
 40
0.0
 40
0.0
 40
0.0
 40
0.0
 40
0.4535848523
 40
1.0
 40
1.0
 40
1.0
 40
1.0
 10
65.732053485
 20
72.0759583059
 30
0.0
 10
65.7452421306
 20
72.0759470052
 30
0.0
 10
65.7742706648
 20
72.0807539987
 30
0.0
 10
65.801738472
 20
72.090467802
 30
0.0
 10
65.8164304788
 20
72.0965149527
 30
0.0
  0
SPLINE
  5
412
100
AcDbEntity
  8
DEFAULT_2
100
AcDbSpline
 62
8
  6
HIDDEN
 70
0
 71
3
 72
10
 73
6
 74
0
 42
0.0000001
 43
0.0000001
 44
0.0000000001
 40
0.0
 40
0.0
 40
0.0
 40
0.0
 40
0.5762939399
 40
0.8094449452
 40
1.0
 40
1.0
 40
1.0
 40
1.0
 10
65.9437009564
 20
72.1661296639
 30
0.0
 10
65.9062889831
 20
72.1417974426
 30
0.0
 10
65.8520031527
 20
72.109575617
 30
0.0
 10
65.7795277334
 20
72.0819574567
 30
0.0
 10
65.7468048591
 20
72.0759407395
 30
0.0
 10
65.7320481437
 20
72.0759491871
 30
0.0
  0
SPLINE
  5
413
100
AcDbEntity
  8
DEFAULT_2
100
AcDbSpline
 62
8
  6
HIDDEN
 70
0
 71
3
 72
9
 73
5
 74
0
 42
0.0000001
 43
0.0000001
 44
0.0000000001
 40
0.0
 40
0.0
 40
0.0
 40
0.0
 40
0.2461840844
 40
1.0
 40
1.0
 40
1.0
 40
1.0
 10
66.5914641145
 20
72.6115130394
 30
0.0
 10
66.5395547324
 20
72.5732041304
 30
0.0
 10
66.3270297293
 20
72.4198530958
 30
0.0
 10
66.1093015143
 20
72.2738339378
 30
0.0
 10
65.9437009564
 20
72.1661296639
 30
0.0
  0
SPLINE
  5
414
100
AcDbEntity
  8
DEFAULT_2
100
AcDbSpline
 62
8
  6
HIDDEN
 70
0
 71
3
 72
9
 73
5
 74
0
 42
0.0000001
 43
0.0000001
 44
0.0000000001
 40
0.0
 40
0.0
 40
0.0
 40
0.0
 40
0.2534247132
 40
1.0
 40
1.0
 40
1.0
 40
1.0
 10
65.9437009564
 20
79.5077669125
 30
0.0
 10
65.9993729786
 20
79.4715586122
 30
0.0
 10
66.2183172216
 20
79.3275753429
 30
0.0
 10
66.4340473303
 20
79.1785564719
 30
0.0
 10
66.5914641145
 20
79.062383537
 30
0.0
  0
SPLINE
  5
415
100
AcDbEntity
  8
DEFAULT_2
100
AcDbSpline
 62
8
  6
HIDDEN
 70
0
 71
3
 72
9
 73
5
 74
0
 42
0.0000001
 43
0.0000001
 44
0.0000000001
 40
0.0
 40
0.0
 40
0.0
 40
0.0
 40
0.2478634737
 40
1.0
 40
1.0
 40
1.0
 40
1.0
 10
66.5914641145
 20
79.062383537
 30
0.0
 10
66.5667442935
 20
79.0806266625
 30
0.0
 10
66.4666401003
 20
79.1537232123
 30
0.0
 10
66.3651854951
 20
79.2249602143
 30
0.0
 10
66.2883463742
 20
79.2777528949
 30
0.0
  0
SPLINE
  5
416
100
AcDbEntity
  8
DEFAULT_2
100
AcDbSpline
 62
8
  6
HIDDEN
 70
0
 71
3
 72
10
 73
6
 74
0
 42
0.0000001
 43
0.0000001
 44
0.0000000001
 40
0.0
 40
0.0
 40
0.0
 40
0.0
 40
0.5762939399
 40
0.8094449452
 40
1.0
 40
1.0
 40
1.0
 40
1.0
 10
65.9437009564
 20
105.1661296639
 30
0.0
 10
65.9062889831
 20
105.1417974426
 30
0.0
 10
65.8520031527
 20
105.109575617
 30
0.0
 10
65.7795277334
 20
105.0819574567
 30
0.0
 10
65.7468048591
 20
105.0759407395
 30
0.0
 10
65.7320481437
 20
105.0759491871
 30
0.0
  0
SPLINE
  5
417
100
AcDbEntity
  8
DEFAULT_2
100
AcDbSpline
 62
8
  6
HIDDEN
 70
0
 71
3
 72
9
 73
5
 74
0
 42
0.0000001
 43
0.0000001
 44
0.0000000001
 40
0.0
 40
0.0
 40
0.0
 40
0.0
 40
0.2520258882
 40
1.0
 40
1.0
 40
1.0
 40
1.0
 10
66.2883464113
 20
105.3961437038
 30
0.0
 10
66.3140935811
 20
105.413833404
 30
0.0
 10
66.4160124044
 20
105.4843736198
 30
0.0
 10
66.5168677126
 20
105.5564612037
 30
0.0
 10
66.5914641145
 20
105.6115130394
 30
0.0
  0
SPLINE
  5
418
100
AcDbEntity
  8
DEFAULT_2
100
AcDbSpline
 62
8
  6
HIDDEN
 70
0
 71
3
 72
9
 73
5
 74
0
 42
0.0000001
 43
0.0000001
 44
0.0000000001
 40
0.0
 40
0.0
 40
0.0
 40
0.0
 40
0.2461840832
 40
1.0
 40
1.0
 40
1.0
 40
1.0
 10
66.5914642616
 20
105.6115131475
 30
0.0
 10
66.5395548686
 20
105.5732042287
 30
0.0
 10
66.3270298182
 20
105.4198531555
 30
0.0
 10
66.109301553
 20
105.273833963
 30
0.0
 10
65.9437009564
 20
105.1661296639
 30
0.0
  0
SPLINE
  5
419
100
AcDbEntity
  8
DEFAULT_2
100
AcDbSpline
 62
8
  6
HIDDEN
 70
0
 71
3
 72
9
 73
5
 74
0
 42
0.0000001
 43
0.0000001
 44
0.0000000001
 40
0.0
 40
0.0
 40
0.0
 40
0.0
 40
0.2534247132
 40
1.0
 40
1.0
 40
1.0
 40
1.0
 10
65.9437009564
 20
112.5077669125
 30
0.0
 10
65.9993729786
 20
112.4715586122
 30
0.0
 10
66.2183172216
 20
112.3275753429
 30
0.0
 10
66.4340473303
 20
112.1785564719
 30
0.0
 10
66.5914641145
 20
112.062383537
 30
0.0
  0
SPLINE
  5
41A
100
AcDbEntity
  8
DEFAULT_2
100
AcDbSpline
 62
8
  6
HIDDEN
 70
0
 71
3
 72
9
 73
5
 74
0
 42
0.0000001
 43
0.0000001
 44
0.0000000001
 40
0.0
 40
0.0
 40
0.0
 40
0.0
 40
0.2478634737
 40
1.0
 40
1.0
 40
1.0
 40
1.0
 10
66.5914641145
 20
112.062383537
 30
0.0
 10
66.5667442935
 20
112.0806266625
 30
0.0
 10
66.4666401003
 20
112.1537232123
 30
0.0
 10
66.3651854951
 20
112.2249602143
 30
0.0
 10
66.2883463742
 20
112.2777528949
 30
0.0
  0
SPLINE
  5
41B
100
AcDbEntity
  8
DEFAULT_2
100
AcDbSpline
 62
8
  6
HIDDEN
 70
0
 71
3
 72
10
 73
6
 74
0
 42
0.0000001
 43
0.0000001
 44
0.0000000001
 40
0.0
 40
0.0
 40
0.0
 40
0.0
 40
0.5762939399
 40
0.8094449452
 40
1.0
 40
1.0
 40
1.0
 40
1.0
 10
65.9437009564
 20
95.1661296639
 30
0.0
 10
65.9062889831
 20
95.1417974426
 30
0.0
 10
65.8520031527
 20
95.109575617
 30
0.0
 10
65.7795277334
 20
95.0819574567
 30
0.0
 10
65.7468048591
 20
95.0759407395
 30
0.0
 10
65.7320481437
 20
95.0759491871
 30
0.0
  0
SPLINE
  5
41C
100
AcDbEntity
  8
DEFAULT_2
100
AcDbSpline
 62
8
  6
HIDDEN
 70
0
 71
3
 72
9
 73
5
 74
0
 42
0.0000001
 43
0.0000001
 44
0.0000000001
 40
0.0
 40
0.0
 40
0.0
 40
0.0
 40
0.2520258884
 40
1.0
 40
1.0
 40
1.0
 40
1.0
 10
66.2883463771
 20
79.2777528961
 30
0.0
 10
66.3140935499
 20
79.2600631939
 30
0.0
 10
66.4160123847
 20
79.1895229706
 30
0.0
 10
66.5168677043
 20
79.1174353788
 30
0.0
 10
66.5914641145
 20
79.062383537
 30
0.0
  0
SPLINE
  5
41D
100
AcDbEntity
  8
DEFAULT_2
100
AcDbSpline
 62
8
  6
HIDDEN
 70
0
 71
3
 72
9
 73
5
 74
0
 42
0.0000001
 43
0.0000001
 44
0.0000000001
 40
0.0
 40
0.0
 40
0.0
 40
0.0
 40
0.2520258884
 40
1.0
 40
1.0
 40
1.0
 40
1.0
 10
66.2883463771
 20
95.3961436803
 30
0.0
 10
66.3140935499
 20
95.4138333825
 30
0.0
 10
66.4160123847
 20
95.4843736059
 30
0.0
 10
66.5168677043
 20
95.5564611976
 30
0.0
 10
66.5914641145
 20
95.6115130394
 30
0.0
  0
SPLINE
  5
41E
100
AcDbEntity
  8
DEFAULT_2
100
AcDbSpline
 62
8
  6
HIDDEN
 70
0
 71
3
 72
9
 73
5
 74
0
 42
0.0000001
 43
0.0000001
 44
0.0000000001
 40
0.0
 40
0.0
 40
0.0
 40
0.0
 40
0.2461840844
 40
1.0
 40
1.0
 40
1.0
 40
1.0
 10
66.5914641145
 20
95.6115130394
 30
0.0
 10
66.5395547324
 20
95.5732041304
 30
0.0
 10
66.3270297293
 20
95.4198530958
 30
0.0
 10
66.1093015143
 20
95.2738339378
 30
0.0
 10
65.9437009564
 20
95.1661296639
 30
0.0
  0
SPLINE
  5
41F
100
AcDbEntity
  8
DEFAULT_2
100
AcDbSpline
 62
8
  6
HIDDEN
 70
0
 71
3
 72
9
 73
5
 74
0
 42
0.0000001
 43
0.0000001
 44
0.0000000001
 40
0.0
 40
0.0
 40
0.0
 40
0.0
 40
0.2478634737
 40
1.0
 40
1.0
 40
1.0
 40
1.0
 10
66.5914641145
 20
72.6115130394
 30
0.0
 10
66.5667442935
 20
72.5932699139
 30
0.0
 10
66.4666401003
 20
72.5201733642
 30
0.0
 10
66.3651854951
 20
72.4489363621
 30
0.0
 10
66.2883463742
 20
72.3961436816
 30
0.0
  0
SPLINE
  5
420
100
AcDbEntity
  8
DEFAULT_2
100
AcDbSpline
 62
8
  6
HIDDEN
 70
0
 71
3
 72
9
 73
5
 74
0
 42
0.0000001
 43
0.0000001
 44
0.0000000001
 40
0.0
 40
0.0
 40
0.0
 40
0.0
 40
0.2520258884
 40
1.0
 40
1.0
 40
1.0
 40
1.0
 10
66.2883463771
 20
72.3961436803
 30
0.0
 10
66.3140935499
 20
72.4138333825
 30
0.0
 10
66.4160123847
 20
72.4843736059
 30
0.0
 10
66.5168677043
 20
72.5564611976
 30
0.0
 10
66.5914641145
 20
72.6115130394
 30
0.0
  0
SPLINE
  5
421
100
AcDbEntity
  8
DEFAULT_2
100
AcDbSpline
 62
8
  6
HIDDEN
 70
0
 71
3
 72
9
 73
5
 74
0
 42
0.0000001
 43
0.0000001
 44
0.0000000001
 40
0.0
 40
0.0
 40
0.0
 40
0.0
 40
0.2534247132
 40
1.0
 40
1.0
 40
1.0
 40
1.0
 10
65.9437009564
 20
102.5077669125
 30
0.0
 10
65.9993729786
 20
102.4715586122
 30
0.0
 10
66.2183172216
 20
102.3275753429
 30
0.0
 10
66.4340473303
 20
102.1785564719
 30
0.0
 10
66.5914641145
 20
102.062383537
 30
0.0
  0
SPLINE
  5
422
100
AcDbEntity
  8
DEFAULT_2
100
AcDbSpline
 62
8
  6
HIDDEN
 70
0
 71
3
 72
9
 73
5
 74
0
 42
0.0000001
 43
0.0000001
 44
0.0000000001
 40
0.0
 40
0.0
 40
0.0
 40
0.0
 40
0.2478634707
 40
1.0
 40
1.0
 40
1.0
 40
1.0
 10
66.5914645234
 20
102.0623832352
 30
0.0
 10
66.5667446788
 20
102.0806263803
 30
0.0
 10
66.4666403882
 20
102.1537230086
 30
0.0
 10
66.3651856821
 20
102.2249600847
 30
0.0
 10
66.2883464839
 20
102.2777528195
 30
0.0
  0
SPLINE
  5
423
100
AcDbEntity
  8
DEFAULT_2
100
AcDbSpline
 62
8
  6
HIDDEN
 70
0
 71
3
 72
10
 73
6
 74
0
 42
0.0000001
 43
0.0000001
 44
0.0000000001
 40
0.0
 40
0.0
 40
0.0
 40
0.0
 40
0.5762939399
 40
0.8094449452
 40
1.0
 40
1.0
 40
1.0
 40
1.0
 10
65.9437009564
 20
85.1661296639
 30
0.0
 10
65.9062889831
 20
85.1417974426
 30
0.0
 10
65.8520031527
 20
85.109575617
 30
0.0
 10
65.7795277334
 20
85.0819574567
 30
0.0
 10
65.7468048591
 20
85.0759407395
 30
0.0
 10
65.7320481437
 20
85.0759491871
 30
0.0
  0
SPLINE
  5
424
100
AcDbEntity
  8
DEFAULT_2
100
AcDbSpline
 62
8
  6
HIDDEN
 70
0
 71
3
 72
9
 73
5
 74
0
 42
0.0000001
 43
0.0000001
 44
0.0000000001
 40
0.0
 40
0.0
 40
0.0
 40
0.0
 40
0.2478634737
 40
1.0
 40
1.0
 40
1.0
 40
1.0
 10
66.5914641145
 20
92.062383537
 30
0.0
 10
66.5667442935
 20
92.0806266625
 30
0.0
 10
66.4666401003
 20
92.1537232123
 30
0.0
 10
66.3651854951
 20
92.2249602143
 30
0.0
 10
66.2883463742
 20
92.2777528949
 30
0.0
  0
SPLINE
  5
425
100
AcDbEntity
  8
DEFAULT_2
100
AcDbSpline
 62
8
  6
HIDDEN
 70
0
 71
3
 72
9
 73
5
 74
0
 42
0.0000001
 43
0.0000001
 44
0.0000000001
 40
0.0
 40
0.0
 40
0.0
 40
0.0
 40
0.2520258884
 40
1.0
 40
1.0
 40
1.0
 40
1.0
 10
66.2883463771
 20
85.3961436804
 30
0.0
 10
66.3140935499
 20
85.4138333825
 30
0.0
 10
66.4160123847
 20
85.4843736059
 30
0.0
 10
66.5168677043
 20
85.5564611976
 30
0.0
 10
66.5914641145
 20
85.6115130394
 30
0.0
  0
SPLINE
  5
426
100
AcDbEntity
  8
DEFAULT_2
100
AcDbSpline
 62
8
  6
HIDDEN
 70
0
 71
3
 72
9
 73
5
 74
0
 42
0.0000001
 43
0.0000001
 44
0.0000000001
 40
0.0
 40
0.0
 40
0.0
 40
0.0
 40
0.2534247132
 40
1.0
 40
1.0
 40
1.0
 40
1.0
 10
65.9437009564
 20
92.5077669125
 30
0.0
 10
65.9993729786
 20
92.4715586122
 30
0.0
 10
66.2183172216
 20
92.3275753429
 30
0.0
 10
66.4340473303
 20
92.1785564719
 30
0.0
 10
66.5914641145
 20
92.062383537
 30
0.0
  0
SPLINE
  5
427
100
AcDbEntity
  8
DEFAULT_2
100
AcDbSpline
 62
8
  6
HIDDEN
 70
0
 71
3
 72
9
 73
5
 74
0
 42
0.0000001
 43
0.0000001
 44
0.0000000001
 40
0.0
 40
0.0
 40
0.0
 40
0.0
 40
0.2461840844
 40
1.0
 40
1.0
 40
1.0
 40
1.0
 10
66.5914641145
 20
85.6115130394
 30
0.0
 10
66.5395547324
 20
85.5732041304
 30
0.0
 10
66.3270297293
 20
85.4198530958
 30
0.0
 10
66.1093015143
 20
85.2738339378
 30
0.0
 10
65.9437009564
 20
85.1661296639
 30
0.0
  0
SPLINE
  5
428
100
AcDbEntity
  8
DEFAULT_2
100
AcDbSpline
 62
8
  6
HIDDEN
 70
0
 71
3
 72
15
 73
11
 74
0
 42
0.0000001
 43
0.0000001
 44
0.0000000001
 40
0.0
 40
0.0
 40
0.0
 40
0.0
 40
0.1022856589
 40
0.2076514828
 40
0.3188524521
 40
0.4394051744
 40
0.5706989798
 40
0.710313669
 40
0.8544405363
 40
1.0
 40
1.0
 40
1.0
 40
1.0
 10
66.5914641145
 20
109.7647472888
 30
0.0
 10
66.6357128927
 20
109.7939959164
 30
0.0
 10
66.7205021514
 20
109.8616448018
 30
0.0
 10
66.8254177365
 20
109.9914427692
 30
0.0
 10
66.8970081183
 20
110.1534915809
 30
0.0
 10
66.9210574695
 20
110.3427874262
 30
0.0
 10
66.8930645543
 20
110.5457373724
 30
0.0
 10
66.821350842
 20
110.7497390593
 30
0.0
 10
66.718151767
 20
110.9475731772
 30
0.0
 10
66.6353579805
 20
111.0731770158
 30
0.0
 10
66.5914641145
 20
111.1345845364
 30
0.0
  0
SPLINE
  5
429
100
AcDbEntity
  8
DEFAULT_2
100
AcDbSpline
 62
8
  6
HIDDEN
 70
0
 71
3
 72
15
 73
11
 74
0
 42
0.0000001
 43
0.0000001
 44
0.0000000001
 40
0.0
 40
0.0
 40
0.0
 40
0.0
 40
0.1082523564
 40
0.2268784064
 40
0.3584563168
 40
0.5001420992
 40
0.6417730919
 40
0.7732658494
 40
0.8917830519
 40
1.0
 40
1.0
 40
1.0
 40
1.0
 10
65.9437009564
 20
109.365828688
 30
0.0
 10
65.9047193241
 20
109.343120554
 30
0.0
 10
65.829049963
 20
109.2843375164
 30
0.0
 10
65.7383425799
 20
109.1635256545
 30
0.0
 10
65.6768772788
 20
109.0101983581
 30
0.0
 10
65.6549555597
 20
108.8367904876
 30
0.0
 10
65.6769405341
 20
108.663425194
 30
0.0
 10
65.7384414532
 20
108.5102267909
 30
0.0
 10
65.8291093755
 20
108.3895120121
 30
0.0
 10
65.9047321213
 20
108.3307685572
 30
0.0
 10
65.9437010062
 20
108.3080678561
 30
0.0
  0
SPLINE
  5
42A
100
AcDbEntity
  8
DEFAULT_2
100
AcDbSpline
 62
8
  6
HIDDEN
 70
0
 71
3
 72
9
 73
5
 74
0
 42
0.0000001
 43
0.0000001
 44
0.0000000001
 40
0.0
 40
0.0
 40
0.0
 40
0.0
 40
0.2539309258
 40
1.0
 40
1.0
 40
1.0
 40
1.0
 10
65.9437010133
 20
108.3080678561
 30
0.0
 10
65.9993445923
 20
108.2756535689
 30
0.0
 10
66.2178476618
 20
108.1469509339
 30
0.0
 10
66.433627549
 20
108.0134799181
 30
0.0
 10
66.5914641145
 20
107.9091492876
 30
0.0
  0
SPLINE
  5
42B
100
AcDbEntity
  8
DEFAULT_2
100
AcDbSpline
 62
8
  6
HIDDEN
 70
0
 71
3
 72
8
 73
4
 74
0
 42
0.0000001
 43
0.0000001
 44
0.0000000001
 40
0.0
 40
0.0
 40
0.0
 40
0.0
 40
1.0
 40
1.0
 40
1.0
 40
1.0
 10
66.5914641145
 20
106.53931204
 30
0.0
 10
66.3851891707
 20
106.2507333844
 30
0.0
 10
66.1671501059
 20
105.9705050192
 30
0.0
 10
65.9437009564
 20
105.6950100637
 30
0.0
  0
SPLINE
  5
42C
100
AcDbEntity
  8
DEFAULT_2
100
AcDbSpline
 62
8
  6
HIDDEN
 70
0
 71
3
 72
17
 73
13
 74
0
 42
0.0000001
 43
0.0000001
 44
0.0000000001
 40
0.0
 40
0.0
 40
0.0
 40
0.0
 40
0.0616409424
 40
0.0911346644
 40
0.1247400701
 40
0.1652809364
 40
0.2141636867
 40
0.3362375254
 40
0.4845525578
 40
0.6494472601
 40
0.8232193025
 40
1.0
 40
1.0
 40
1.0
 40
1.0
 10
65.7320481437
 20
112.5979473893
 30
0.0
 10
65.7169292954
 20
112.5979387345
 30
0.0
 10
65.6928369559
 20
112.5927852123
 30
0.0
 10
65.6722252735
 20
112.568975799
 30
0.0
 10
65.6637704932
 20
112.5445467161
 30
0.0
 10
65.661477294
 20
112.51424159
 30
0.0
 10
65.6669976573
 20
112.4624686023
 30
0.0
 10
65.6899940239
 20
112.3870504361
 30
0.0
 10
65.7342188231
 20
112.2897457657
 30
0.0
 10
65.7935686703
 20
112.1859109137
 30
0.0
 10
65.8641005134
 20
112.0808927033
 30
0.0
 10
65.9163875321
 20
112.0125617835
 30
0.0
 10
65.9437009564
 20
111.9788865127
 30
0.0
  0
SPLINE
  5
42D
100
AcDbEntity
  8
DEFAULT_2
100
AcDbSpline
 62
8
  6
HIDDEN
 70
0
 71
3
 72
15
 73
11
 74
0
 42
0.0000001
 43
0.0000001
 44
0.0000000001
 40
0.0
 40
0.0
 40
0.0
 40
0.0
 40
0.1022856589
 40
0.2076514828
 40
0.3188524521
 40
0.4394051744
 40
0.5706989798
 40
0.710313669
 40
0.8544405363
 40
1.0
 40
1.0
 40
1.0
 40
1.0
 10
66.5914641145
 20
76.7647472888
 30
0.0
 10
66.6357128927
 20
76.7939959164
 30
0.0
 10
66.7205021514
 20
76.8616448018
 30
0.0
 10
66.8254177365
 20
76.9914427692
 30
0.0
 10
66.8970081183
 20
77.1534915809
 30
0.0
 10
66.9210574695
 20
77.3427874262
 30
0.0
 10
66.8930645543
 20
77.5457373724
 30
0.0
 10
66.821350842
 20
77.7497390593
 30
0.0
 10
66.718151767
 20
77.9475731772
 30
0.0
 10
66.6353579805
 20
78.0731770158
 30
0.0
 10
66.5914641145
 20
78.1345845364
 30
0.0
  0
SPLINE
  5
42E
100
AcDbEntity
  8
DEFAULT_2
100
AcDbSpline
 62
8
  6
HIDDEN
 70
0
 71
3
 72
8
 73
4
 74
0
 42
0.0000001
 43
0.0000001
 44
0.0000000001
 40
0.0
 40
0.0
 40
0.0
 40
0.0
 40
1.0
 40
1.0
 40
1.0
 40
1.0
 10
65.9437009564
 20
111.9788865127
 30
0.0
 10
66.1671501059
 20
111.7033915572
 30
0.0
 10
66.3851891707
 20
111.4231631921
 30
0.0
 10
66.5914641145
 20
111.1345845364
 30
0.0
  0
SPLINE
  5
42F
100
AcDbEntity
  8
DEFAULT_2
100
AcDbSpline
 62
8
  6
HIDDEN
 70
0
 71
3
 72
9
 73
5
 74
0
 42
0.0000001
 43
0.0000001
 44
0.0000000001
 40
0.0
 40
0.0
 40
0.0
 40
0.0
 40
0.2456105399
 40
1.0
 40
1.0
 40
1.0
 40
1.0
 10
66.5914641145
 20
109.7647472888
 30
0.0
 10
66.5395024024
 20
109.7304003796
 30
0.0
 10
66.3264953761
 20
109.5927426855
 30
0.0
 10
66.1090124079
 20
109.4621282619
 30
0.0
 10
65.9437009564
 20
109.365828688
 30
0.0
  0
SPLINE
  5
430
100
AcDbEntity
  8
DEFAULT_2
100
AcDbSpline
 62
8
  6
HIDDEN
 70
0
 71
3
 72
15
 73
11
 74
0
 42
0.0000001
 43
0.0000001
 44
0.0000000001
 40
0.0
 40
0.0
 40
0.0
 40
0.0
 40
0.1455692679
 40
0.2897329038
 40
0.4293659982
 40
0.5606622888
 40
0.6812067183
 40
0.7923844091
 40
0.8977216643
 40
1.0
 40
1.0
 40
1.0
 40
1.0
 10
66.5914641145
 20
96.53931204
 30
0.0
 10
66.6353609723
 20
96.6007237462
 30
0.0
 10
66.7181704481
 20
96.7263459419
 30
0.0
 10
66.8213842702
 20
96.9242125819
 30
0.0
 10
66.8930692229
 20
97.1282566291
 30
0.0
 10
66.9210568827
 20
97.3312109201
 30
0.0
 10
66.8970067171
 20
97.5204957332
 30
0.0
 10
66.8253813488
 20
97.6824951358
 30
0.0
 10
66.7204822598
 20
97.8122619042
 30
0.0
 10
66.6357097603
 20
97.8799027305
 30
0.0
 10
66.5914641145
 20
97.9091492876
 30
0.0
  0
SPLINE
  5
431
100
AcDbEntity
  8
DEFAULT_2
100
AcDbSpline
 62
8
  6
HIDDEN
 70
0
 71
3
 72
17
 73
13
 74
0
 42
0.0000001
 43
0.0000001
 44
0.0000000001
 40
0.0
 40
0.0
 40
0.0
 40
0.0
 40
0.1767879415
 40
0.3506281223
 40
0.5156099261
 40
0.6639287276
 40
0.7859487176
 40
0.8348441693
 40
0.8753602575
 40
0.9088979192
 40
0.9383917408
 40
1.0
 40
1.0
 40
1.0
 40
1.0
 10
65.9437009253
 20
95.6950100206
 30
0.0
 10
65.9163860242
 20
95.6613329277
 30
0.0
 10
65.8640859844
 20
95.5929869488
 30
0.0
 10
65.7935377004
 20
95.4879304977
 30
0.0
 10
65.7341615961
 20
95.3840620046
 30
0.0
 10
65.6899614411
 20
95.2867373597
 30
0.0
 10
65.6669824707
 20
95.2113146597
 30
0.0
 10
65.6614910729
 20
95.1595646053
 30
0.0
 10
65.6637383171
 20
95.1292617875
 30
0.0
 10
65.6722919691
 20
95.1049013955
 30
0.0
 10
65.6928233731
 20
95.0810581554
 30
0.0
 10
65.7169424579
 20
95.0759712538
 30
0.0
 10
65.732053485
 20
95.0759583059
 30
0.0
  0
SPLINE
  5
432
100
AcDbEntity
  8
DEFAULT_2
100
AcDbSpline
 62
8
  6
HIDDEN
 70
0
 71
3
 72
17
 73
13
 74
0
 42
0.0000001
 43
0.0000001
 44
0.0000000001
 40
0.0
 40
0.0
 40
0.0
 40
0.0
 40
0.0616409424
 40
0.0911346644
 40
0.1247400701
 40
0.1652809364
 40
0.2141636867
 40
0.3362375254
 40
0.4845525578
 40
0.6494472601
 40
0.8232193025
 40
1.0
 40
1.0
 40
1.0
 40
1.0
 10
65.7320481437
 20
79.5979473893
 30
0.0
 10
65.7169292954
 20
79.5979387345
 30
0.0
 10
65.6928369559
 20
79.5927852123
 30
0.0
 10
65.6722252735
 20
79.568975799
 30
0.0
 10
65.6637704932
 20
79.5445467161
 30
0.0
 10
65.661477294
 20
79.51424159
 30
0.0
 10
65.6669976573
 20
79.4624686023
 30
0.0
 10
65.6899940239
 20
79.3870504361
 30
0.0
 10
65.7342188231
 20
79.2897457657
 30
0.0
 10
65.7935686703
 20
79.1859109137
 30
0.0
 10
65.8641005134
 20
79.0808927033
 30
0.0
 10
65.9163875321
 20
79.0125617835
 30
0.0
 10
65.9437009564
 20
78.9788865127
 30
0.0
  0
SPLINE
  5
433
100
AcDbEntity
  8
DEFAULT_2
100
AcDbSpline
 62
8
  6
HIDDEN
 70
0
 71
3
 72
17
 73
13
 74
0
 42
0.0000001
 43
0.0000001
 44
0.0000000001
 40
0.0
 40
0.0
 40
0.0
 40
0.0
 40
0.0616409424
 40
0.0911346644
 40
0.1247400701
 40
0.1652809364
 40
0.2141636867
 40
0.3362375254
 40
0.4845525578
 40
0.6494472601
 40
0.8232193025
 40
1.0
 40
1.0
 40
1.0
 40
1.0
 10
65.7320481437
 20
92.5979473893
 30
0.0
 10
65.7169292954
 20
92.5979387345
 30
0.0
 10
65.6928369559
 20
92.5927852123
 30
0.0
 10
65.6722252735
 20
92.568975799
 30
0.0
 10
65.6637704932
 20
92.5445467161
 30
0.0
 10
65.661477294
 20
92.51424159
 30
0.0
 10
65.6669976573
 20
92.4624686023
 30
0.0
 10
65.6899940239
 20
92.3870504361
 30
0.0
 10
65.7342188231
 20
92.2897457657
 30
0.0
 10
65.7935686703
 20
92.1859109137
 30
0.0
 10
65.8641005134
 20
92.0808927033
 30
0.0
 10
65.9163875321
 20
92.0125617835
 30
0.0
 10
65.9437009564
 20
91.9788865127
 30
0.0
  0
SPLINE
  5
434
100
AcDbEntity
  8
DEFAULT_2
100
AcDbSpline
 62
8
  6
HIDDEN
 70
0
 71
3
 72
17
 73
13
 74
0
 42
0.0000001
 43
0.0000001
 44
0.0000000001
 40
0.0
 40
0.0
 40
0.0
 40
0.0
 40
0.0616409424
 40
0.0911346644
 40
0.1247400701
 40
0.1652809364
 40
0.2141636867
 40
0.3362375254
 40
0.4845525578
 40
0.6494472601
 40
0.8232193025
 40
1.0
 40
1.0
 40
1.0
 40
1.0
 10
65.7320481437
 20
102.5979473893
 30
0.0
 10
65.7169292954
 20
102.5979387345
 30
0.0
 10
65.6928369559
 20
102.5927852123
 30
0.0
 10
65.6722252735
 20
102.568975799
 30
0.0
 10
65.6637704932
 20
102.5445467161
 30
0.0
 10
65.661477294
 20
102.51424159
 30
0.0
 10
65.6669976573
 20
102.4624686023
 30
0.0
 10
65.6899940239
 20
102.3870504361
 30
0.0
 10
65.7342188231
 20
102.2897457657
 30
0.0
 10
65.7935686703
 20
102.1859109137
 30
0.0
 10
65.8641005134
 20
102.0808927033
 30
0.0
 10
65.9163875321
 20
102.0125617835
 30
0.0
 10
65.9437009564
 20
101.9788865127
 30
0.0
  0
SPLINE
  5
435
100
AcDbEntity
  8
DEFAULT_2
100
AcDbSpline
 62
8
  6
HIDDEN
 70
0
 71
3
 72
15
 73
11
 74
0
 42
0.0000001
 43
0.0000001
 44
0.0000000001
 40
0.0
 40
0.0
 40
0.0
 40
0.0
 40
0.1082523564
 40
0.2268784064
 40
0.3584563168
 40
0.5001420992
 40
0.6417730919
 40
0.7732658494
 40
0.8917830519
 40
1.0
 40
1.0
 40
1.0
 40
1.0
 10
65.9437009564
 20
99.365828688
 30
0.0
 10
65.9047193241
 20
99.343120554
 30
0.0
 10
65.829049963
 20
99.2843375164
 30
0.0
 10
65.7383425799
 20
99.1635256545
 30
0.0
 10
65.6768772788
 20
99.0101983581
 30
0.0
 10
65.6549555597
 20
98.8367904876
 30
0.0
 10
65.6769405341
 20
98.663425194
 30
0.0
 10
65.7384414532
 20
98.5102267909
 30
0.0
 10
65.8291093755
 20
98.3895120121
 30
0.0
 10
65.9047321213
 20
98.3307685572
 30
0.0
 10
65.9437010062
 20
98.3080678561
 30
0.0
  0
SPLINE
  5
436
100
AcDbEntity
  8
DEFAULT_2
100
AcDbSpline
 62
8
  6
HIDDEN
 70
0
 71
3
 72
9
 73
5
 74
0
 42
0.0000001
 43
0.0000001
 44
0.0000000001
 40
0.0
 40
0.0
 40
0.0
 40
0.0
 40
0.2456105372
 40
1.0
 40
1.0
 40
1.0
 40
1.0
 10
66.5914643697
 20
76.7647474578
 30
0.0
 10
66.5395026384
 20
76.7304005334
 30
0.0
 10
66.3264955301
 20
76.5927427781
 30
0.0
 10
66.109012475
 20
76.462128301
 30
0.0
 10
65.9437009564
 20
76.365828688
 30
0.0
  0
SPLINE
  5
437
100
AcDbEntity
  8
DEFAULT_2
100
AcDbSpline
 62
8
  6
HIDDEN
 70
0
 71
3
 72
9
 73
5
 74
0
 42
0.0000001
 43
0.0000001
 44
0.0000000001
 40
0.0
 40
0.0
 40
0.0
 40
0.0
 40
0.2539309258
 40
1.0
 40
1.0
 40
1.0
 40
1.0
 10
65.9437010133
 20
98.3080678561
 30
0.0
 10
65.9993445923
 20
98.2756535689
 30
0.0
 10
66.2178476618
 20
98.1469509339
 30
0.0
 10
66.433627549
 20
98.0134799181
 30
0.0
 10
66.5914641145
 20
97.9091492876
 30
0.0
  0
SPLINE
  5
438
100
AcDbEntity
  8
DEFAULT_2
100
AcDbSpline
 62
8
  6
HIDDEN
 70
0
 71
3
 72
8
 73
4
 74
0
 42
0.0000001
 43
0.0000001
 44
0.0000000001
 40
0.0
 40
0.0
 40
0.0
 40
0.0
 40
1.0
 40
1.0
 40
1.0
 40
1.0
 10
66.5914641145
 20
96.53931204
 30
0.0
 10
66.3851891651
 20
96.2507333764
 30
0.0
 10
66.1671501223
 20
95.9705049819
 30
0.0
 10
65.9437009646
 20
95.6950100206
 30
0.0
  0
SPLINE
  5
439
100
AcDbEntity
  8
DEFAULT_2
100
AcDbSpline
 62
8
  6
HIDDEN
 70
0
 71
3
 72
8
 73
4
 74
0
 42
0.0000001
 43
0.0000001
 44
0.0000000001
 40
0.0
 40
0.0
 40
0.0
 40
0.0
 40
1.0
 40
1.0
 40
1.0
 40
1.0
 10
66.5914641145
 20
73.53931204
 30
0.0
 10
66.3851891707
 20
73.2507333844
 30
0.0
 10
66.1671501059
 20
72.9705050192
 30
0.0
 10
65.9437009564
 20
72.6950100637
 30
0.0
  0
SPLINE
  5
43A
100
AcDbEntity
  8
DEFAULT_2
100
AcDbSpline
 62
8
  6
HIDDEN
 70
0
 71
3
 72
9
 73
5
 74
0
 42
0.0000001
 43
0.0000001
 44
0.0000000001
 40
0.0
 40
0.0
 40
0.0
 40
0.0
 40
0.2539309255
 40
1.0
 40
1.0
 40
1.0
 40
1.0
 10
65.9437009564
 20
75.3080678884
 30
0.0
 10
65.9993445399
 20
75.2756535981
 30
0.0
 10
66.2178476288
 20
75.1469509531
 30
0.0
 10
66.4336275353
 20
75.0134799271
 30
0.0
 10
66.5914641145
 20
74.9091492876
 30
0.0
  0
SPLINE
  5
43B
100
AcDbEntity
  8
DEFAULT_2
100
AcDbSpline
 62
8
  6
HIDDEN
 70
0
 71
3
 72
15
 73
11
 74
0
 42
0.0000001
 43
0.0000001
 44
0.0000000001
 40
0.0
 40
0.0
 40
0.0
 40
0.0
 40
0.108252355
 40
0.2268784026
 40
0.3584563097
 40
0.5001420893
 40
0.6417730821
 40
0.7732658424
 40
0.8917830483
 40
1.0
 40
1.0
 40
1.0
 40
1.0
 10
65.9437009564
 20
76.365828688
 30
0.0
 10
65.9047193265
 20
76.3431205554
 30
0.0
 10
65.8290499699
 20
76.2843375223
 30
0.0
 10
65.7383425901
 20
76.1635256708
 30
0.0
 10
65.6768772873
 20
76.0101983875
 30
0.0
 10
65.6549555605
 20
75.8367905291
 30
0.0
 10
65.6769405225
 20
75.6634252424
 30
0.0
 10
65.7384414267
 20
75.5102268394
 30
0.0
 10
65.8291093347
 20
75.3895120532
 30
0.0
 10
65.9047320752
 20
75.3307685944
 30
0.0
 10
65.9437009564
 20
75.3080678884
 30
0.0
  0
SPLINE
  5
43C
100
AcDbEntity
  8
DEFAULT_2
100
AcDbSpline
 62
8
  6
HIDDEN
 70
0
 71
3
 72
9
 73
5
 74
0
 42
0.0000001
 43
0.0000001
 44
0.0000000001
 40
0.0
 40
0.0
 40
0.0
 40
0.0
 40
0.2456105347
 40
1.0
 40
1.0
 40
1.0
 40
1.0
 10
66.5914646143
 20
99.7647476193
 30
0.0
 10
66.5395028646
 20
99.7304006804
 30
0.0
 10
66.3264956777
 20
99.5927428669
 30
0.0
 10
66.1090125392
 20
99.4621283384
 30
0.0
 10
65.9437009564
 20
99.365828688
 30
0.0
  0
SPLINE
  5
43D
100
AcDbEntity
  8
DEFAULT_2
100
AcDbSpline
 62
8
  6
HIDDEN
 70
0
 71
3
 72
15
 73
11
 74
0
 42
0.0000001
 43
0.0000001
 44
0.0000000001
 40
0.0
 40
0.0
 40
0.0
 40
0.0
 40
0.1455692679
 40
0.2897329038
 40
0.4293659982
 40
0.5606622888
 40
0.6812067183
 40
0.7923844091
 40
0.8977216643
 40
1.0
 40
1.0
 40
1.0
 40
1.0
 10
66.5914641145
 20
86.53931204
 30
0.0
 10
66.6353609723
 20
86.6007237462
 30
0.0
 10
66.7181704481
 20
86.7263459419
 30
0.0
 10
66.8213842702
 20
86.9242125819
 30
0.0
 10
66.8930692229
 20
87.1282566291
 30
0.0
 10
66.9210568827
 20
87.3312109201
 30
0.0
 10
66.8970067171
 20
87.5204957332
 30
0.0
 10
66.8253813488
 20
87.6824951358
 30
0.0
 10
66.7204822598
 20
87.8122619042
 30
0.0
 10
66.6357097603
 20
87.8799027305
 30
0.0
 10
66.5914641145
 20
87.9091492876
 30
0.0
  0
SPLINE
  5
43E
100
AcDbEntity
  8
DEFAULT_2
100
AcDbSpline
 62
8
  6
HIDDEN
 70
0
 71
3
 72
17
 73
13
 74
0
 42
0.0000001
 43
0.0000001
 44
0.0000000001
 40
0.0
 40
0.0
 40
0.0
 40
0.0
 40
0.1767879383
 40
0.3506281175
 40
0.5156099211
 40
0.6639287242
 40
0.7859487171
 40
0.8348441701
 40
0.8753602593
 40
0.9088979212
 40
0.9383917425
 40
1.0
 40
1.0
 40
1.0
 40
1.0
 10
65.9437009564
 20
85.6950100637
 30
0.0
 10
65.9163860531
 20
85.6613329695
 30
0.0
 10
65.86408601
 20
85.5929869868
 30
0.0
 10
65.7935377209
 20
85.4879305297
 30
0.0
 10
65.7341616094
 20
85.3840620308
 30
0.0
 10
65.6899614483
 20
85.286737379
 30
0.0
 10
65.6669824735
 20
85.211314673
 30
0.0
 10
65.661491073
 20
85.1595646139
 30
0.0
 10
65.6637383158
 20
85.1292617932
 30
0.0
 10
65.6722919672
 20
85.1049013987
 30
0.0
 10
65.692823371
 20
85.081058156
 30
0.0
 10
65.7169424572
 20
85.0759712538
 30
0.0
 10
65.732053485
 20
85.0759583059
 30
0.0
  0
SPLINE
  5
43F
100
AcDbEntity
  8
DEFAULT_2
100
AcDbSpline
 62
8
  6
HIDDEN
 70
0
 71
3
 72
8
 73
4
 74
0
 42
0.0000001
 43
0.0000001
 44
0.0000000001
 40
0.0
 40
0.0
 40
0.0
 40
0.0
 40
1.0
 40
1.0
 40
1.0
 40
1.0
 10
65.9437009564
 20
78.9788865127
 30
0.0
 10
66.1671501059
 20
78.7033915572
 30
0.0
 10
66.3851891707
 20
78.4231631921
 30
0.0
 10
66.5914641145
 20
78.1345845364
 30
0.0
  0
SPLINE
  5
440
100
AcDbEntity
  8
DEFAULT_2
100
AcDbSpline
 62
8
  6
HIDDEN
 70
0
 71
3
 72
15
 73
11
 74
0
 42
0.0000001
 43
0.0000001
 44
0.0000000001
 40
0.0
 40
0.0
 40
0.0
 40
0.0
 40
0.1022856578
 40
0.2076514834
 40
0.3188524577
 40
0.4394051858
 40
0.5706989937
 40
0.7103136805
 40
0.8544405426
 40
1.0
 40
1.0
 40
1.0
 40
1.0
 10
66.5914643572
 20
89.7647474488
 30
0.0
 10
66.6357131172
 20
89.7939960853
 30
0.0
 10
66.7205023374
 20
89.8616449875
 30
0.0
 10
66.8254178579
 20
89.9914429712
 30
0.0
 10
66.897008171
 20
90.1534917838
 30
0.0
 10
66.9210574632
 20
90.3427876062
 30
0.0
 10
66.8930645159
 20
90.545737511
 30
0.0
 10
66.8213507992
 20
90.74973915
 30
0.0
 10
66.7181517392
 20
90.9475732204
 30
0.0
 10
66.6353579705
 20
91.0731770299
 30
0.0
 10
66.5914641145
 20
91.1345845364
 30
0.0
  0
SPLINE
  5
441
100
AcDbEntity
  8
DEFAULT_2
100
AcDbSpline
 62
8
  6
HIDDEN
 70
0
 71
3
 72
15
 73
11
 74
0
 42
0.0000001
 43
0.0000001
 44
0.0000000001
 40
0.0
 40
0.0
 40
0.0
 40
0.0
 40
0.108252355
 40
0.2268784026
 40
0.3584563097
 40
0.5001420893
 40
0.6417730821
 40
0.7732658424
 40
0.8917830483
 40
1.0
 40
1.0
 40
1.0
 40
1.0
 10
65.9437009564
 20
89.365828688
 30
0.0
 10
65.9047193265
 20
89.3431205554
 30
0.0
 10
65.8290499699
 20
89.2843375223
 30
0.0
 10
65.7383425901
 20
89.1635256708
 30
0.0
 10
65.6768772873
 20
89.0101983875
 30
0.0
 10
65.6549555605
 20
88.8367905291
 30
0.0
 10
65.6769405225
 20
88.6634252424
 30
0.0
 10
65.7384414267
 20
88.5102268394
 30
0.0
 10
65.8291093347
 20
88.3895120532
 30
0.0
 10
65.9047320752
 20
88.3307685944
 30
0.0
 10
65.9437009564
 20
88.3080678884
 30
0.0
  0
SPLINE
  5
442
100
AcDbEntity
  8
DEFAULT_2
100
AcDbSpline
 62
8
  6
HIDDEN
 70
0
 71
3
 72
17
 73
13
 74
0
 42
0.0000001
 43
0.0000001
 44
0.0000000001
 40
0.0
 40
0.0
 40
0.0
 40
0.0
 40
0.1767879383
 40
0.3506281175
 40
0.5156099211
 40
0.6639287242
 40
0.7859487171
 40
0.8348441701
 40
0.8753602593
 40
0.9088979212
 40
0.9383917425
 40
1.0
 40
1.0
 40
1.0
 40
1.0
 10
65.9437009564
 20
72.6950100637
 30
0.0
 10
65.9163860531
 20
72.6613329695
 30
0.0
 10
65.86408601
 20
72.5929869868
 30
0.0
 10
65.7935377209
 20
72.4879305297
 30
0.0
 10
65.7341616094
 20
72.3840620308
 30
0.0
 10
65.6899614483
 20
72.286737379
 30
0.0
 10
65.6669824735
 20
72.211314673
 30
0.0
 10
65.661491073
 20
72.1595646139
 30
0.0
 10
65.6637383158
 20
72.1292617932
 30
0.0
 10
65.6722919672
 20
72.1049013987
 30
0.0
 10
65.692823371
 20
72.081058156
 30
0.0
 10
65.7169424572
 20
72.0759712538
 30
0.0
 10
65.732053485
 20
72.0759583059
 30
0.0
  0
SPLINE
  5
443
100
AcDbEntity
  8
DEFAULT_2
100
AcDbSpline
 62
8
  6
HIDDEN
 70
0
 71
3
 72
15
 73
11
 74
0
 42
0.0000001
 43
0.0000001
 44
0.0000000001
 40
0.0
 40
0.0
 40
0.0
 40
0.0
 40
0.1455692679
 40
0.2897329038
 40
0.4293659982
 40
0.5606622888
 40
0.6812067183
 40
0.7923844091
 40
0.8977216643
 40
1.0
 40
1.0
 40
1.0
 40
1.0
 10
66.5914641145
 20
73.53931204
 30
0.0
 10
66.6353609723
 20
73.6007237462
 30
0.0
 10
66.7181704481
 20
73.7263459419
 30
0.0
 10
66.8213842702
 20
73.9242125819
 30
0.0
 10
66.8930692229
 20
74.1282566291
 30
0.0
 10
66.9210568827
 20
74.3312109201
 30
0.0
 10
66.8970067171
 20
74.5204957332
 30
0.0
 10
66.8253813488
 20
74.6824951358
 30
0.0
 10
66.7204822598
 20
74.8122619042
 30
0.0
 10
66.6357097603
 20
74.8799027305
 30
0.0
 10
66.5914641145
 20
74.9091492876
 30
0.0
  0
SPLINE
  5
444
100
AcDbEntity
  8
DEFAULT_2
100
AcDbSpline
 62
8
  6
HIDDEN
 70
0
 71
3
 72
9
 73
5
 74
0
 42
0.0000001
 43
0.0000001
 44
0.0000000001
 40
0.0
 40
0.0
 40
0.0
 40
0.0
 40
0.2456105374
 40
1.0
 40
1.0
 40
1.0
 40
1.0
 10
66.5914643568
 20
89.7647474488
 30
0.0
 10
66.5395026265
 20
89.7304005252
 30
0.0
 10
66.3264955223
 20
89.5927427734
 30
0.0
 10
66.1090124715
 20
89.462128299
 30
0.0
 10
65.9437009564
 20
89.365828688
 30
0.0
  0
SPLINE
  5
445
100
AcDbEntity
  8
DEFAULT_2
100
AcDbSpline
 62
8
  6
HIDDEN
 70
0
 71
3
 72
8
 73
4
 74
0
 42
0.0000001
 43
0.0000001
 44
0.0000000001
 40
0.0
 40
0.0
 40
0.0
 40
0.0
 40
1.0
 40
1.0
 40
1.0
 40
1.0
 10
65.9437009564
 20
91.9788865127
 30
0.0
 10
66.1671501059
 20
91.7033915572
 30
0.0
 10
66.3851891707
 20
91.4231631921
 30
0.0
 10
66.5914641145
 20
91.1345845364
 30
0.0
  0
SPLINE
  5
446
100
AcDbEntity
  8
DEFAULT_2
100
AcDbSpline
 62
8
  6
HIDDEN
 70
0
 71
3
 72
9
 73
5
 74
0
 42
0.0000001
 43
0.0000001
 44
0.0000000001
 40
0.0
 40
0.0
 40
0.0
 40
0.0
 40
0.2539309255
 40
1.0
 40
1.0
 40
1.0
 40
1.0
 10
65.9437009564
 20
88.3080678884
 30
0.0
 10
65.9993445399
 20
88.2756535981
 30
0.0
 10
66.2178476288
 20
88.1469509531
 30
0.0
 10
66.4336275353
 20
88.0134799271
 30
0.0
 10
66.5914641145
 20
87.9091492876
 30
0.0
  0
SPLINE
  5
447
100
AcDbEntity
  8
DEFAULT_2
100
AcDbSpline
 62
8
  6
HIDDEN
 70
0
 71
3
 72
8
 73
4
 74
0
 42
0.0000001
 43
0.0000001
 44
0.0000000001
 40
0.0
 40
0.0
 40
0.0
 40
0.0
 40
1.0
 40
1.0
 40
1.0
 40
1.0
 10
66.5914641145
 20
86.53931204
 30
0.0
 10
66.3851891707
 20
86.2507333844
 30
0.0
 10
66.1671501059
 20
85.9705050192
 30
0.0
 10
65.9437009564
 20
85.6950100637
 30
0.0
  0
SPLINE
  5
448
100
AcDbEntity
  8
DEFAULT_2
100
AcDbSpline
 62
8
  6
HIDDEN
 70
0
 71
3
 72
15
 73
11
 74
0
 42
0.0000001
 43
0.0000001
 44
0.0000000001
 40
0.0
 40
0.0
 40
0.0
 40
0.0
 40
0.1455692679
 40
0.2897329038
 40
0.4293659982
 40
0.5606622888
 40
0.6812067183
 40
0.7923844091
 40
0.8977216643
 40
1.0
 40
1.0
 40
1.0
 40
1.0
 10
66.5914641145
 20
106.53931204
 30
0.0
 10
66.6353609723
 20
106.6007237462
 30
0.0
 10
66.7181704481
 20
106.7263459419
 30
0.0
 10
66.8213842702
 20
106.9242125819
 30
0.0
 10
66.8930692229
 20
107.1282566291
 30
0.0
 10
66.9210568827
 20
107.3312109201
 30
0.0
 10
66.8970067171
 20
107.5204957332
 30
0.0
 10
66.8253813488
 20
107.6824951358
 30
0.0
 10
66.7204822598
 20
107.8122619042
 30
0.0
 10
66.6357097603
 20
107.8799027305
 30
0.0
 10
66.5914641145
 20
107.9091492876
 30
0.0
  0
SPLINE
  5
449
100
AcDbEntity
  8
DEFAULT_2
100
AcDbSpline
 62
8
  6
HIDDEN
 70
0
 71
3
 72
17
 73
13
 74
0
 42
0.0000001
 43
0.0000001
 44
0.0000000001
 40
0.0
 40
0.0
 40
0.0
 40
0.0
 40
0.1767879383
 40
0.3506281175
 40
0.5156099211
 40
0.6639287242
 40
0.7859487171
 40
0.8348441701
 40
0.8753602593
 40
0.9088979212
 40
0.9383917425
 40
1.0
 40
1.0
 40
1.0
 40
1.0
 10
65.9437009564
 20
105.6950100637
 30
0.0
 10
65.9163860531
 20
105.6613329695
 30
0.0
 10
65.86408601
 20
105.5929869868
 30
0.0
 10
65.7935377209
 20
105.4879305297
 30
0.0
 10
65.7341616094
 20
105.3840620308
 30
0.0
 10
65.6899614483
 20
105.286737379
 30
0.0
 10
65.6669824735
 20
105.211314673
 30
0.0
 10
65.661491073
 20
105.1595646139
 30
0.0
 10
65.6637383158
 20
105.1292617932
 30
0.0
 10
65.6722919672
 20
105.1049013987
 30
0.0
 10
65.692823371
 20
105.081058156
 30
0.0
 10
65.7169424572
 20
105.0759712538
 30
0.0
 10
65.732053485
 20
105.0759583059
 30
0.0
  0
SPLINE
  5
44A
100
AcDbEntity
  8
DEFAULT_2
100
AcDbSpline
 62
8
  6
HIDDEN
 70
0
 71
3
 72
9
 73
5
 74
0
 42
0.0000001
 43
0.0000001
 44
0.0000000001
 40
0.0
 40
0.0
 40
0.0
 40
0.0
 40
0.5464731167
 40
1.0
 40
1.0
 40
1.0
 40
1.0
 10
65.816402173
 20
92.5773936947
 30
0.0
 10
65.8017125187
 20
92.5834366733
 30
0.0
 10
65.7742520886
 20
92.5931393904
 30
0.0
 10
65.7452359148
 20
92.5979543474
 30
0.0
 10
65.7320534802
 20
92.5979473923
 30
0.0
  0
SPLINE
  5
44B
100
AcDbEntity
  8
DEFAULT_2
100
AcDbSpline
 62
8
  6
HIDDEN
 70
0
 71
3
 72
9
 73
5
 74
0
 42
0.0000001
 43
0.0000001
 44
0.0000000001
 40
0.0
 40
0.0
 40
0.0
 40
0.0
 40
0.5464731167
 40
1.0
 40
1.0
 40
1.0
 40
1.0
 10
65.816402173
 20
102.5773936947
 30
0.0
 10
65.8017125187
 20
102.5834366733
 30
0.0
 10
65.7742520886
 20
102.5931393904
 30
0.0
 10
65.7452359148
 20
102.5979543474
 30
0.0
 10
65.7320534802
 20
102.5979473923
 30
0.0
  0
SPLINE
  5
44C
100
AcDbEntity
  8
DEFAULT_2
100
AcDbSpline
 62
8
  6
HIDDEN
 70
0
 71
3
 72
9
 73
5
 74
0
 42
0.0000001
 43
0.0000001
 44
0.0000000001
 40
0.0
 40
0.0
 40
0.0
 40
0.0
 40
0.5464731167
 40
1.0
 40
1.0
 40
1.0
 40
1.0
 10
65.816402173
 20
112.5773936947
 30
0.0
 10
65.8017125187
 20
112.5834366733
 30
0.0
 10
65.7742520886
 20
112.5931393904
 30
0.0
 10
65.7452359148
 20
112.5979543474
 30
0.0
 10
65.7320534802
 20
112.5979473923
 30
0.0
  0
ELLIPSE
  5
44D
100
AcDbEntity
  8
DEFAULT_2
100
AcDbEllipse
 62
8
  6
HIDDEN
 10
34.2790424542
 20
39.8291402724
 30
0.0
 11
-0.0406865246
 21
0.1576411457
 31
0.0
 40
0.3572681643
 41
-1.2389227987
 42
-0.012300511
  0
ENDSEC
  0
SECTION
  2
OBJECTS
  0
DICTIONARY
  5
44E
100
AcDbDictionary
  3
ACAD_GROUP
350
44F
  3
ACAD_MLINESTYLE
350
450
  0
DICTIONARY
  5
44F
102
{ACAD_REACTORS
330
44E
102
}
100
AcDbDictionary
  0
DICTIONARY
  5
450
102
{ACAD_REACTORS
330
44E
102
}
100
AcDbDictionary
  3
STANDARD
350
451
  0
MLINESTYLE
  5
451
102
{ACAD_REACTORS
330
450
102
}
100
AcDbMlineStyle
  2
STANDARD
 70
0
  3

 62
256
 51
90.0
 52
90.0
 71
2
 49
0.5
 62
256
  6
BYLAYER
 49
-0.5
 62
256
  6
BYLAYER
  0
ENDSEC
  0
EOF
