999
DXF file: d:\tmp\workingDir\0000109848\5_071262_0_00000_mkt_q_01_01.dxf
999
Pro/ENGINEER 2020184 by Parametric Technology Corporation
  0
SECTION
  2
HEADER
  9
$ACADVER
  1
AC1014
  9
$DWGCODEPAGE
  3
ANSI_1252
  9
$EXTMAX
 10
94.996
 20
110.0
 30
0.0
  9
$EXTMIN
 10
-0.0
 20
0.0
 30
0.0
  9
$LIMMIN
 10
-0.0
 20
0.0
  9
$LIMMAX
 10
94.996
 20
110.0
  9
$VIEWCTR
 10
47.498
 20
55.0
  9
$VIEWSIZE
 40
110.0
  9
$CLAYER
  8
0
  9
$LTSCALE
 40
7.1703703704
  9
$CELTYPE
  6
BYLAYER
  9
$DIMSCALE
 40
1.0
  9
$DIMASZ
 40
3.5
  9
$DIMEXO
 40
0.0
  9
$DIMDLI
 40
4.9540740741
  9
$DIMEXE
 40
2.0
  9
$DIMCEN
 40
1.1733333333
  9
$DIMLFAC
 40
1.0
  9
$DIMBLK
  1
_ARROW_FILLED
  9
$DIMALT
 70
0
  9
$DIMALTF
 40
0.0393700787
  9
$DIMTXT
 40
3.5
  9
$DIMTOL
 70
1
  9
$DIMLIM
 70
0
  9
$DIMTFAC
 40
1.0
  9
$DIMTP
 40
0.01
  9
$DIMTM
 40
0.01
  9
$DIMGAP
 40
0.625
  9
$AUNITS
 70
0
  9
$PDMODE
 70
0
  9
$PDSIZE
 40
0.04
  9
$HANDSEED
  5
4A2
  9
$TILEMODE
 70
1
  9
$MEASUREMENT
 70
1
  0
ENDSEC
  0
SECTION
  2
CLASSES
  0
ENDSEC
  0
SECTION
  2
TABLES
  0
TABLE
  2
VPORT
  5
8
100
AcDbSymbolTable
 70
2
  0
VPORT
  5
1F4
100
AcDbSymbolTableRecord
100
AcDbViewportTableRecord
  2
*ACTIVE
 70
0
 10
0.0
 20
0.0
 11
1.0
 21
1.0
 12
47.498
 22
55.0
 13
0.0
 23
0.0
 14
1.0
 24
1.0
 15
0.0
 25
0.0
 16
0.0
 26
0.0
 36
1.0
 17
0.0
 27
0.0
 37
0.0
 40
110.0
 41
0.8636
 42
50.0
 43
0.0
 44
0.0
 50
0.0
 51
0.0
 71
0
 72
100
 73
1
 74
1
 75
0
 76
0
 77
0
 78
0
  0
ENDTAB
  0
TABLE
  2
LTYPE
  5
5
100
AcDbSymbolTable
 70
6
  0
LTYPE
  5
14
100
AcDbSymbolTableRecord
100
AcDbLinetypeTableRecord
  2
BYBLOCK
 70
0
  3

 72
65
 73
0
 40
0.0
  0
LTYPE
  5
15
100
AcDbSymbolTableRecord
100
AcDbLinetypeTableRecord
  2
BYLAYER
 70
0
  3

 72
65
 73
0
 40
0.0
  0
LTYPE
  5
16
100
AcDbSymbolTableRecord
100
AcDbLinetypeTableRecord
  2
CONTINUOUS
 70
64
  3
Solid line
 72
65
 73
0
 40
0.0
  0
LTYPE
  5
1F5
100
AcDbSymbolTableRecord
100
AcDbLinetypeTableRecord
  2
CENTER
 70
64
  3
____ _ ____ _ ____ _ ____ _ ____ _ ____ _ ____
 72
65
 73
4
 40
0.6
 49
0.375
 74
0
 49
-0.075
 74
0
 49
0.075
 74
0
 49
-0.075
 74
0
  0
LTYPE
  5
1F6
100
AcDbSymbolTableRecord
100
AcDbLinetypeTableRecord
  2
HIDDEN
 70
64
  3
- - - - - - - - - - - - - - - - - - - -
 72
65
 73
2
 40
0.2
 49
0.1
 74
0
 49
-0.1
 74
0
  0
LTYPE
  5
1F7
100
AcDbSymbolTableRecord
100
AcDbLinetypeTableRecord
  2
PHANTOM
 70
64
  3
_____ _ _ _____ _ _ _____ _ _ _____
 72
65
 73
6
 40
0.8
 49
0.45
 74
0
 49
-0.05
 74
0
 49
0.1
 74
0
 49
-0.05
 74
0
 49
0.1
 74
0
 49
-0.05
 74
0
  0
LTYPE
  5
1F8
100
AcDbSymbolTableRecord
100
AcDbLinetypeTableRecord
  2
DOT
 70
64
  3
. . . . . . . . . . . . . . . . . . . .
 72
65
 73
2
 40
0.2
 49
0.1
 74
0
 49
-0.1
 74
0
  0
LTYPE
  5
1F9
100
AcDbSymbolTableRecord
100
AcDbLinetypeTableRecord
  2
DASHED
 70
64
  3
- - - - - - - - - - - - - - - - - - - -
 72
65
 73
2
 40
0.2
 49
0.1
 74
0
 49
-0.1
 74
0
  0
ENDTAB
  0
TABLE
  2
LAYER
  5
2
100
AcDbSymbolTable
 70
36
  0
LAYER
  5
10
100
AcDbSymbolTableRecord
100
AcDbLayerTableRecord
  2
0
 70
0
 62
7
  6
CONTINUOUS
  0
LAYER
  5
1FA
100
AcDbSymbolTableRecord
100
AcDbLayerTableRecord
  2
DEFAULT_1
 70
0
 62
7
  6
CENTER
  0
LAYER
  5
1FB
100
AcDbSymbolTableRecord
100
AcDbLayerTableRecord
  2
DEFAULT_2
 70
0
 62
8
  6
HIDDEN
  0
LAYER
  5
1FC
100
AcDbSymbolTableRecord
100
AcDbLayerTableRecord
  2
DEFAULT_3
 70
0
 62
7
  6
PHANTOM
  0
LAYER
  5
1FD
100
AcDbSymbolTableRecord
100
AcDbLayerTableRecord
  2
A_ACHSEN
 70
0
 62
7
  6
CONTINUOUS
  0
LAYER
  5
1FE
100
AcDbSymbolTableRecord
100
AcDbLayerTableRecord
  2
A_BASISEBENEN
 70
0
 62
7
  6
CONTINUOUS
  0
LAYER
  5
1FF
100
AcDbSymbolTableRecord
100
AcDbLayerTableRecord
  2
A_BEMASSUNGEN
 70
0
 62
7
  6
CONTINUOUS
  0
LAYER
  5
200
100
AcDbSymbolTableRecord
100
AcDbLayerTableRecord
  2
A_BOHRUNGEN
 70
0
 62
7
  6
CONTINUOUS
  0
LAYER
  5
201
100
AcDbSymbolTableRecord
100
AcDbLayerTableRecord
  2
A_EBENEN
 70
0
 62
7
  6
CONTINUOUS
  0
LAYER
  5
202
100
AcDbSymbolTableRecord
100
AcDbLayerTableRecord
  2
A_FASEN
 70
0
 62
7
  6
CONTINUOUS
  0
LAYER
  5
203
100
AcDbSymbolTableRecord
100
AcDbLayerTableRecord
  2
A_FLAECHEN
 70
0
 62
7
  6
CONTINUOUS
  0
LAYER
  5
204
100
AcDbSymbolTableRecord
100
AcDbLayerTableRecord
  2
A_FL_VERBAENDE
 70
0
 62
7
  6
CONTINUOUS
  0
LAYER
  5
205
100
AcDbSymbolTableRecord
100
AcDbLayerTableRecord
  2
A_KURVEN
 70
0
 62
7
  6
CONTINUOUS
  0
LAYER
  5
206
100
AcDbSymbolTableRecord
100
AcDbLayerTableRecord
  2
A_NOTIZEN_SYMB
 70
0
 62
7
  6
CONTINUOUS
  0
LAYER
  5
207
100
AcDbSymbolTableRecord
100
AcDbLayerTableRecord
  2
A_PUNKTE
 70
0
 62
7
  6
CONTINUOUS
  0
LAYER
  5
208
100
AcDbSymbolTableRecord
100
AcDbLayerTableRecord
  2
A_RUNDUNGEN
 70
0
 62
7
  6
CONTINUOUS
  0
LAYER
  5
209
100
AcDbSymbolTableRecord
100
AcDbLayerTableRecord
  2
BASISEBENEN
 70
0
 62
7
  6
CONTINUOUS
  0
LAYER
  5
20A
100
AcDbSymbolTableRecord
100
AcDbLayerTableRecord
  2
XSEC_DATUMS
 70
0
 62
7
  6
CONTINUOUS
  0
ENDTAB
  0
TABLE
  2
STYLE
  5
3
100
AcDbSymbolTable
 70
1
  0
STYLE
  5
11
100
AcDbSymbolTableRecord
100
AcDbTextStyleTableRecord
  2
STANDARD
 70
0
 40
0.0
 41
1.0
 50
0.0
 71
0
 42
0.2
  3
txt
  4

  0
STYLE
  5
20B
100
AcDbSymbolTableRecord
100
AcDbTextStyleTableRecord
  2
TEXTSTYLE_1
 70
0
 40
0.0
 41
0.8
 50
0.0
 71
0
 42
0.2
  3
gdt
  4

  0
ENDTAB
  0
TABLE
  2
VIEW
  5
6
100
AcDbSymbolTable
 70
0
  0
ENDTAB
  0
TABLE
  2
UCS
  5
7
100
AcDbSymbolTable
 70
0
  0
ENDTAB
  0
TABLE
  2
APPID
  5
9
100
AcDbSymbolTable
 70
1
  0
APPID
  5
20C
100
AcDbSymbolTableRecord
100
AcDbRegAppTableRecord
  2
ACAD
 70
0
  0
ENDTAB
  0
TABLE
  2
BLOCK_RECORD
  5
1
100
AcDbSymbolTable
 70
0
  0
BLOCK_RECORD
  5
1F
100
AcDbSymbolTableRecord
100
AcDbBlockTableRecord
  2
*MODEL_SPACE
  0
BLOCK_RECORD
  5
1B
100
AcDbSymbolTableRecord
100
AcDbBlockTableRecord
  2
*PAPER_SPACE
  0
BLOCK_RECORD
  5
20D
100
AcDbSymbolTableRecord
100
AcDbBlockTableRecord
  2
_ARROW_FILLED
  0
BLOCK_RECORD
  5
20E
100
AcDbSymbolTableRecord
100
AcDbBlockTableRecord
  2
*D0
  0
BLOCK_RECORD
  5
20F
100
AcDbSymbolTableRecord
100
AcDbBlockTableRecord
  2
*D1
  0
BLOCK_RECORD
  5
210
100
AcDbSymbolTableRecord
100
AcDbBlockTableRecord
  2
*D2
  0
BLOCK_RECORD
  5
211
100
AcDbSymbolTableRecord
100
AcDbBlockTableRecord
  2
*D3
  0
BLOCK_RECORD
  5
212
100
AcDbSymbolTableRecord
100
AcDbBlockTableRecord
  2
*D4
  0
BLOCK_RECORD
  5
213
100
AcDbSymbolTableRecord
100
AcDbBlockTableRecord
  2
*D5
  0
ENDTAB
  0
TABLE
  2
DIMSTYLE
  5
A
100
AcDbSymbolTable
 70
1
  0
DIMSTYLE
105
214
100
AcDbSymbolTableRecord
100
AcDbDimStyleTableRecord
  2
STANDARD
 70
0
  3

  4

  5
_ARROW_FILLED
  6
_ARROW_FILLED
  7
_ARROW_FILLED
 40
1.0
 41
3.5
 42
0.0
 43
0.38
 44
2.0
 45
0.0
 46
0.0
 47
0.01
 48
0.01
140
3.5
141
0.09
142
0.0
143
25.4
144
1.0
145
0.0
146
1.0
147
0.625
 71
1
 72
0
 73
0
 74
0
 75
0
 76
0
 77
1
 78
8
 79
2
170
0
171
1
172
0
173
0
174
0
175
0
176
0
177
0
178
5
270
2
271
2
272
2
273
2
274
2
275
0
280
0
281
0
282
0
283
1
284
8
285
0
286
0
287
3
288
0
340
11
  0
DIMSTYLE
105
215
100
AcDbSymbolTableRecord
100
AcDbDimStyleTableRecord
  2
DIMSTYLE_1
 70
0
  3

  4

  5
_ARROW_FILLED
  6
_ARROW_FILLED
  7
_ARROW_FILLED
 40
1.0
 41
3.5
 42
0.0
 43
0.38
 44
2.0
 45
0.0
 46
0.0
 47
0.2
 48
0.2
140
3.5
141
0.09
142
0.0
143
25.4
144
1.0
145
0.0
146
1.0
147
0.875
 71
0
 72
0
 73
0
 74
0
 75
0
 76
0
 77
1
 78
8
 79
2
170
0
171
1
172
0
173
0
174
0
175
0
176
0
177
0
178
5
270
2
271
4
272
-1
273
2
274
2
275
0
280
0
281
0
282
0
283
1
284
8
285
0
286
0
287
3
288
0
340
11
  0
DIMSTYLE
105
216
100
AcDbSymbolTableRecord
100
AcDbDimStyleTableRecord
  2
DIMSTYLE_2
 70
0
  3

  4

  5
_ARROW_FILLED
  6
_ARROW_FILLED
  7
_ARROW_FILLED
 40
1.0
 41
3.5
 42
0.0
 43
0.38
 44
2.0
 45
0.0
 46
0.0
 47
0.3
 48
0.3
140
3.5
141
0.09
142
0.0
143
25.4
144
1.0
145
0.0
146
1.0
147
0.875
 71
0
 72
0
 73
0
 74
0
 75
0
 76
0
 77
1
 78
8
 79
2
170
0
171
1
172
0
173
0
174
0
175
0
176
0
177
0
178
5
270
2
271
4
272
-1
273
2
274
2
275
0
280
0
281
0
282
0
283
1
284
8
285
0
286
0
287
3
288
0
340
11
  0
ENDTAB
  0
ENDSEC
  0
SECTION
  2
BLOCKS
  0
BLOCK
  5
20
100
AcDbEntity
  8
0
100
AcDbBlockBegin
  2
*MODEL_SPACE
 70
0
 10
0.0
 20
0.0
 30
0.0
  3
*MODEL_SPACE
  1

  0
ENDBLK
  5
21
100
AcDbEntity
  8
0
100
AcDbBlockEnd
  0
BLOCK
  5
1C
100
AcDbEntity
  8
0
100
AcDbBlockBegin
  2
*PAPER_SPACE
 70
0
 10
0.0
 20
0.0
 30
0.0
  3
*PAPER_SPACE
  1

  0
ENDBLK
  5
1D
100
AcDbEntity
  8
0
100
AcDbBlockEnd
  0
BLOCK
  5
217
100
AcDbEntity
  8
0
100
AcDbBlockBegin
  2
_ARROW_FILLED
 70
64
 10
0.0
 20
0.0
  3
_ARROW_FILLED
  1

  0
SOLID
  5
218
100
AcDbEntity
  8
0
  6
BYBLOCK
 62
0
100
AcDbTrace
 10
0.0
 20
0.0
 11
-1.0
 21
0.1428571429
 12
-1.0
 22
-0.1428571429
 13
-1.0
 23
-0.1428571429
  0
ENDBLK
  5
219
100
AcDbEntity
  8
0
  6
BYBLOCK
 62
0
100
AcDbBlockEnd
  0
BLOCK
  5
21A
100
AcDbEntity
  8
A_BEMASSUNGEN
100
AcDbBlockBegin
 62
2
  6
CONTINUOUS
  2
*D0
 70
65
 10
0.0
 20
0.0
  3
*D0
  1

  0
MTEXT
  5
21B
100
AcDbEntity
  8
A_BEMASSUNGEN
100
AcDbMText
 62
5
  6
CONTINUOUS
  7
STANDARD
 71
2
 72
1
 10
69.3288739925
 20
27.376548067
 30
0.0
 11
1.0
 21
0.0
 31
0.0
  1
10
 40
3.5
 41
7.125
  0
LINE
  5
21C
100
AcDbEntity
  8
A_BEMASSUNGEN
100
AcDbLine
 62
2
  6
CONTINUOUS
 10
74.3288739925
 20
32.1323750354
 11
74.3288739925
 21
21.001548067
  0
LINE
  5
21D
100
AcDbEntity
  8
A_BEMASSUNGEN
100
AcDbLine
 62
2
  6
CONTINUOUS
 10
64.3288739925
 20
38.6323750354
 11
64.3288739925
 21
21.001548067
  0
LINE
  5
21E
100
AcDbEntity
  8
A_BEMASSUNGEN
100
AcDbLine
 62
2
  6
CONTINUOUS
 10
74.3288739925
 20
23.001548067
 11
69.3288739925
 21
23.001548067
  0
LINE
  5
21F
100
AcDbEntity
  8
A_BEMASSUNGEN
100
AcDbLine
 62
2
  6
CONTINUOUS
 10
64.3288739925
 20
23.001548067
 11
69.3288739925
 21
23.001548067
  0
INSERT
  5
220
100
AcDbEntity
  8
A_BEMASSUNGEN
100
AcDbBlockReference
 62
2
  6
CONTINUOUS
  2
_ARROW_FILLED
 10
74.3288739925
 20
23.001548067
 41
3.5
 42
3.5
 43
3.5
  0
INSERT
  5
221
100
AcDbEntity
  8
A_BEMASSUNGEN
100
AcDbBlockReference
 62
2
  6
CONTINUOUS
  2
_ARROW_FILLED
 10
64.3288739925
 20
23.001548067
 41
3.5
 42
3.5
 43
3.5
 50
180.0
  0
ENDBLK
  5
222
100
AcDbEntity
  8
0
  6
BYBLOCK
 62
0
100
AcDbBlockEnd
  0
BLOCK
  5
223
100
AcDbEntity
  8
A_BEMASSUNGEN
100
AcDbBlockBegin
 62
2
  6
CONTINUOUS
  2
*D1
 70
65
 10
0.0
 20
0.0
  3
*D1
  1

  0
MTEXT
  5
224
100
AcDbEntity
  8
A_BEMASSUNGEN
100
AcDbMText
 62
5
  6
CONTINUOUS
  7
STANDARD
 71
2
 72
1
 10
62.3288739925
 20
19.718267524
 30
0.0
 11
1.0
 21
0.0
 31
0.0
  1
24
 40
3.5
 41
8.25
  0
LINE
  5
225
100
AcDbEntity
  8
A_BEMASSUNGEN
100
AcDbLine
 62
2
  6
CONTINUOUS
 10
74.3288739925
 20
32.1323750354
 11
74.3288739925
 21
13.343267524
  0
LINE
  5
226
100
AcDbEntity
  8
A_BEMASSUNGEN
100
AcDbLine
 62
2
  6
CONTINUOUS
 10
50.3288739925
 20
40.1323750354
 11
50.3288739925
 21
13.343267524
  0
LINE
  5
227
100
AcDbEntity
  8
A_BEMASSUNGEN
100
AcDbLine
 62
2
  6
CONTINUOUS
 10
74.3288739925
 20
15.343267524
 11
62.3288739925
 21
15.343267524
  0
LINE
  5
228
100
AcDbEntity
  8
A_BEMASSUNGEN
100
AcDbLine
 62
2
  6
CONTINUOUS
 10
50.3288739925
 20
15.343267524
 11
62.3288739925
 21
15.343267524
  0
INSERT
  5
229
100
AcDbEntity
  8
A_BEMASSUNGEN
100
AcDbBlockReference
 62
2
  6
CONTINUOUS
  2
_ARROW_FILLED
 10
74.3288739925
 20
15.343267524
 41
3.5
 42
3.5
 43
3.5
  0
INSERT
  5
22A
100
AcDbEntity
  8
A_BEMASSUNGEN
100
AcDbBlockReference
 62
2
  6
CONTINUOUS
  2
_ARROW_FILLED
 10
50.3288739925
 20
15.343267524
 41
3.5
 42
3.5
 43
3.5
 50
180.0
  0
ENDBLK
  5
22B
100
AcDbEntity
  8
0
  6
BYBLOCK
 62
0
100
AcDbBlockEnd
  0
BLOCK
  5
22C
100
AcDbEntity
  8
A_BEMASSUNGEN
100
AcDbBlockBegin
 62
2
  6
CONTINUOUS
  2
*D2
 70
65
 10
0.0
 20
0.0
  3
*D2
  1

  0
MTEXT
  5
22D
100
AcDbEntity
  8
A_BEMASSUNGEN
100
AcDbMText
 62
5
  6
CONTINUOUS
  7
STANDARD
 71
2
 72
1
 10
60.3288739925
 20
11.220747162
 30
0.0
 11
1.0
 21
0.0
 31
0.0
  1
28
 40
3.5
 41
8.25
  0
LINE
  5
22E
100
AcDbEntity
  8
A_BEMASSUNGEN
100
AcDbLine
 62
2
  6
CONTINUOUS
 10
74.3288739925
 20
32.1323750354
 11
74.3288739925
 21
4.845747162
  0
LINE
  5
22F
100
AcDbEntity
  8
A_BEMASSUNGEN
100
AcDbLine
 62
2
  6
CONTINUOUS
 10
46.3288739925
 20
40.1323750354
 11
46.3288739925
 21
4.845747162
  0
LINE
  5
230
100
AcDbEntity
  8
A_BEMASSUNGEN
100
AcDbLine
 62
2
  6
CONTINUOUS
 10
74.3288739925
 20
6.845747162
 11
60.3288739925
 21
6.845747162
  0
LINE
  5
231
100
AcDbEntity
  8
A_BEMASSUNGEN
100
AcDbLine
 62
2
  6
CONTINUOUS
 10
46.3288739925
 20
6.845747162
 11
60.3288739925
 21
6.845747162
  0
INSERT
  5
232
100
AcDbEntity
  8
A_BEMASSUNGEN
100
AcDbBlockReference
 62
2
  6
CONTINUOUS
  2
_ARROW_FILLED
 10
74.3288739925
 20
6.845747162
 41
3.5
 42
3.5
 43
3.5
  0
INSERT
  5
233
100
AcDbEntity
  8
A_BEMASSUNGEN
100
AcDbBlockReference
 62
2
  6
CONTINUOUS
  2
_ARROW_FILLED
 10
46.3288739925
 20
6.845747162
 41
3.5
 42
3.5
 43
3.5
 50
180.0
  0
ENDBLK
  5
234
100
AcDbEntity
  8
0
  6
BYBLOCK
 62
0
100
AcDbBlockEnd
  0
BLOCK
  5
235
100
AcDbEntity
  8
A_BEMASSUNGEN
100
AcDbBlockBegin
 62
2
  6
CONTINUOUS
  2
*D3
 70
65
 10
0.0
 20
0.0
  3
*D3
  1

  0
MTEXT
  5
236
100
AcDbEntity
  8
A_BEMASSUNGEN
100
AcDbMText
 62
5
  6
CONTINUOUS
  7
STANDARD
 71
2
 72
1
 10
29.9818756667
 20
46.6323750354
 30
0.0
 11
0.0
 21
1.0
 31
0.0
  1
29
 40
3.5
 41
8.25
  0
LINE
  5
237
100
AcDbEntity
  8
A_BEMASSUNGEN
100
AcDbLine
 62
2
  6
CONTINUOUS
 10
50.3288739925
 20
32.1323750354
 11
32.3568756667
 21
32.1323750354
  0
LINE
  5
238
100
AcDbEntity
  8
A_BEMASSUNGEN
100
AcDbLine
 62
2
  6
CONTINUOUS
 10
50.3288739925
 20
61.1323750354
 11
32.3568756667
 21
61.1323750354
  0
LINE
  5
239
100
AcDbEntity
  8
A_BEMASSUNGEN
100
AcDbLine
 62
2
  6
CONTINUOUS
 10
34.3568756667
 20
32.1323750354
 11
34.3568756667
 21
46.6323750354
  0
LINE
  5
23A
100
AcDbEntity
  8
A_BEMASSUNGEN
100
AcDbLine
 62
2
  6
CONTINUOUS
 10
34.3568756667
 20
61.1323750354
 11
34.3568756667
 21
46.6323750354
  0
INSERT
  5
23B
100
AcDbEntity
  8
A_BEMASSUNGEN
100
AcDbBlockReference
 62
2
  6
CONTINUOUS
  2
_ARROW_FILLED
 10
34.3568756667
 20
32.1323750354
 41
3.5
 42
3.5
 43
3.5
 50
270.0
  0
INSERT
  5
23C
100
AcDbEntity
  8
A_BEMASSUNGEN
100
AcDbBlockReference
 62
2
  6
CONTINUOUS
  2
_ARROW_FILLED
 10
34.3568756667
 20
61.1323750354
 41
3.5
 42
3.5
 43
3.5
 50
90.0
  0
ENDBLK
  5
23D
100
AcDbEntity
  8
0
  6
BYBLOCK
 62
0
100
AcDbBlockEnd
  0
BLOCK
  5
23E
100
AcDbEntity
  8
A_BEMASSUNGEN
100
AcDbBlockBegin
 62
2
  6
CONTINUOUS
  2
*D4
 70
65
 10
0.0
 20
0.0
  3
*D4
  1

  0
MTEXT
  5
23F
100
AcDbEntity
  8
A_BEMASSUNGEN
100
AcDbMText
 62
5
  6
CONTINUOUS
  7
STANDARD
 71
2
 72
1
 10
18.0439933138
 20
68.6323750354
 30
0.0
 11
0.0
 21
1.0
 31
0.0
  1
57
 40
3.5
 41
7.875
  0
LINE
  5
240
100
AcDbEntity
  8
A_BEMASSUNGEN
100
AcDbLine
 62
2
  6
CONTINUOUS
 10
46.3288739925
 20
40.1323750354
 11
36.3242783816
 21
40.1323750354
  0
LINE
  5
241
100
AcDbEntity
  8
A_BEMASSUNGEN
100
AcDbLine
 62
2
  6
CONTINUOUS
 10
31.9206150332
 20
40.1323750354
 11
20.4189933138
 21
40.1323750354
  0
LINE
  5
242
100
AcDbEntity
  8
A_BEMASSUNGEN
100
AcDbLine
 62
2
  6
CONTINUOUS
 10
44.3288739925
 20
97.1323750354
 11
20.4189933138
 21
97.1323750354
  0
LINE
  5
243
100
AcDbEntity
  8
A_BEMASSUNGEN
100
AcDbLine
 62
2
  6
CONTINUOUS
 10
22.4189933138
 20
40.1323750354
 11
22.4189933138
 21
68.6323750354
  0
LINE
  5
244
100
AcDbEntity
  8
A_BEMASSUNGEN
100
AcDbLine
 62
2
  6
CONTINUOUS
 10
22.4189933138
 20
97.1323750354
 11
22.4189933138
 21
68.6323750354
  0
INSERT
  5
245
100
AcDbEntity
  8
A_BEMASSUNGEN
100
AcDbBlockReference
 62
2
  6
CONTINUOUS
  2
_ARROW_FILLED
 10
22.4189933138
 20
40.1323750354
 41
3.5
 42
3.5
 43
3.5
 50
270.0
  0
INSERT
  5
246
100
AcDbEntity
  8
A_BEMASSUNGEN
100
AcDbBlockReference
 62
2
  6
CONTINUOUS
  2
_ARROW_FILLED
 10
22.4189933138
 20
97.1323750354
 41
3.5
 42
3.5
 43
3.5
 50
90.0
  0
ENDBLK
  5
247
100
AcDbEntity
  8
0
  6
BYBLOCK
 62
0
100
AcDbBlockEnd
  0
BLOCK
  5
248
100
AcDbEntity
  8
A_BEMASSUNGEN
100
AcDbBlockBegin
 62
2
  6
CONTINUOUS
  2
*D5
 70
65
 10
0.0
 20
0.0
  3
*D5
  1

  0
MTEXT
  5
249
100
AcDbEntity
  8
A_BEMASSUNGEN
100
AcDbMText
 62
5
  6
CONTINUOUS
  7
STANDARD
 71
2
 72
1
 10
5.8726810966
 20
64.6323750354
 30
0.0
 11
0.0
 21
1.0
 31
0.0
  1
65
 40
3.5
 41
7.875
  0
LINE
  5
24A
100
AcDbEntity
  8
A_BEMASSUNGEN
100
AcDbLine
 62
2
  6
CONTINUOUS
 10
44.3288739925
 20
97.1323750354
 11
8.2476810966
 21
97.1323750354
  0
LINE
  5
24B
100
AcDbEntity
  8
A_BEMASSUNGEN
100
AcDbLine
 62
2
  6
CONTINUOUS
 10
50.3288739925
 20
32.1323750354
 11
8.2476810966
 21
32.1323750354
  0
LINE
  5
24C
100
AcDbEntity
  8
A_BEMASSUNGEN
100
AcDbLine
 62
2
  6
CONTINUOUS
 10
10.2476810966
 20
97.1323750354
 11
10.2476810966
 21
64.6323750354
  0
LINE
  5
24D
100
AcDbEntity
  8
A_BEMASSUNGEN
100
AcDbLine
 62
2
  6
CONTINUOUS
 10
10.2476810966
 20
32.1323750354
 11
10.2476810966
 21
64.6323750354
  0
INSERT
  5
24E
100
AcDbEntity
  8
A_BEMASSUNGEN
100
AcDbBlockReference
 62
2
  6
CONTINUOUS
  2
_ARROW_FILLED
 10
10.2476810966
 20
97.1323750354
 41
3.5
 42
3.5
 43
3.5
 50
90.0
  0
INSERT
  5
24F
100
AcDbEntity
  8
A_BEMASSUNGEN
100
AcDbBlockReference
 62
2
  6
CONTINUOUS
  2
_ARROW_FILLED
 10
10.2476810966
 20
32.1323750354
 41
3.5
 42
3.5
 43
3.5
 50
270.0
  0
ENDBLK
  5
250
100
AcDbEntity
  8
0
  6
BYBLOCK
 62
0
100
AcDbBlockEnd
  0
ENDSEC
  0
SECTION
  2
ENTITIES
  0
DIMENSION
  5
251
100
AcDbEntity
  8
A_BEMASSUNGEN
100
AcDbDimension
 62
2
  6
CONTINUOUS
  2
*D0
 10
64.3288739925
 20
23.001548067
 11
68.8288731192
 21
23.001548067
 70
160
  3
DIMSTYLE_1
100
AcDbAlignedDimension
 13
74.3288739925
 23
32.1323750354
 14
64.3288739925
 24
38.6323750354
 50
180.0
100
AcDbRotatedDimension
  0
DIMENSION
  5
252
100
AcDbEntity
  8
A_BEMASSUNGEN
100
AcDbDimension
 62
2
  6
CONTINUOUS
  2
*D1
 10
50.3288739925
 20
15.343267524
 11
61.8288738426
 21
15.343267524
 70
160
  3
DIMSTYLE_1
100
AcDbAlignedDimension
 13
74.3288739925
 23
32.1323750354
 14
50.3288739925
 24
40.1323750354
 50
180.0
100
AcDbRotatedDimension
  0
DIMENSION
  5
253
100
AcDbEntity
  8
A_BEMASSUNGEN
100
AcDbDimension
 62
2
  6
CONTINUOUS
  2
*D2
 10
46.3288739925
 20
6.845747162
 11
59.8288734809
 21
6.845747162
 70
160
  3
DIMSTYLE_1
100
AcDbAlignedDimension
 13
74.3288739925
 23
32.1323750354
 14
46.3288739925
 24
40.1323750354
 50
180.0
100
AcDbRotatedDimension
  0
DIMENSION
  5
254
100
AcDbEntity
  8
A_BEMASSUNGEN
100
AcDbDimension
 62
2
  6
CONTINUOUS
  2
*D3
 10
34.3568756667
 20
61.1323750354
 11
34.3568756667
 21
46.1323745133
 70
160
  3
DIMSTYLE_1
100
AcDbAlignedDimension
 13
50.3288739925
 23
32.1323750354
 14
50.3288739925
 24
61.1323750354
 50
90.0
100
AcDbRotatedDimension
  0
DIMENSION
  5
255
100
AcDbEntity
  8
A_BEMASSUNGEN
100
AcDbDimension
 62
2
  6
CONTINUOUS
  2
*D4
 10
22.4189933138
 20
97.1323750354
 11
22.4189933138
 21
68.1323751027
 70
160
  3
DIMSTYLE_2
100
AcDbAlignedDimension
 13
46.3288739925
 23
40.1323750354
 14
44.3288739925
 24
97.1323750354
 50
90.0
100
AcDbRotatedDimension
  0
DIMENSION
  5
256
100
AcDbEntity
  8
A_BEMASSUNGEN
100
AcDbDimension
 62
2
  6
CONTINUOUS
  2
*D5
 10
10.2476810966
 20
32.1323750354
 11
10.2476810966
 21
64.1323751092
 70
160
  3
DIMSTYLE_2
100
AcDbAlignedDimension
 13
44.3288739925
 23
97.1323750354
 14
50.3288739925
 24
32.1323750354
 50
270.0
100
AcDbRotatedDimension
  0
LINE
  5
257
100
AcDbEntity
  8
0
100
AcDbLine
 62
7
  6
CONTINUOUS
 10
44.3288739925
 20
32.1323750354
 11
74.3288739925
 21
32.1323750354
  0
LINE
  5
258
100
AcDbEntity
  8
0
100
AcDbLine
 62
7
  6
CONTINUOUS
 10
44.3288739925
 20
42.1323750354
 11
44.8288739925
 21
41.6323750354
  0
LINE
  5
259
100
AcDbEntity
  8
0
100
AcDbLine
 62
7
  6
CONTINUOUS
 10
68.9954216146
 20
35.1323750354
 11
50.3288739925
 21
35.1323750354
  0
LINE
  5
25A
100
AcDbEntity
  8
0
100
AcDbLine
 62
7
  6
CONTINUOUS
 10
71.5794253509
 20
37.1323750354
 11
50.3288739925
 21
37.1323750354
  0
LINE
  5
25B
100
AcDbEntity
  8
0
100
AcDbLine
 62
7
  6
CONTINUOUS
 10
50.3288739925
 20
37.2323750354
 11
53.3288739925
 21
37.2323750354
  0
LINE
  5
25C
100
AcDbEntity
  8
0
100
AcDbLine
 62
7
  6
CONTINUOUS
 10
61.1288739925
 20
37.6323750354
 11
55.1288739925
 21
37.6323750354
  0
LINE
  5
25D
100
AcDbEntity
  8
0
100
AcDbLine
 62
7
  6
CONTINUOUS
 10
62.3288739925
 20
37.6323750354
 11
69.3288739925
 21
37.6323750354
  0
LINE
  5
25E
100
AcDbEntity
  8
0
100
AcDbLine
 62
7
  6
CONTINUOUS
 10
55.1288739925
 20
38.7323750354
 11
50.3288739925
 21
38.7323750354
  0
LINE
  5
25F
100
AcDbEntity
  8
A_ACHSEN
100
AcDbLine
 62
7
  6
CONTINUOUS
 10
45.6288739925
 20
47.1323750354
 11
46.1288739925
 21
46.6323750354
  0
LINE
  5
260
100
AcDbEntity
  8
DEFAULT_2
100
AcDbLine
 62
8
  6
HIDDEN
 10
48.414377186
 20
84.5178782288
 11
46.6288739925
 21
82.7323750354
  0
LINE
  5
261
100
AcDbEntity
  8
DEFAULT_2
100
AcDbLine
 62
8
  6
HIDDEN
 10
50.9962739464
 20
86.7346994763
 11
51.3288739925
 21
86.9513027046
  0
LINE
  5
262
100
AcDbEntity
  8
0
100
AcDbLine
 62
7
  6
CONTINUOUS
 10
44.3288739925
 20
40.1323750354
 11
50.3288739925
 21
40.1323750354
  0
LINE
  5
263
100
AcDbEntity
  8
0
100
AcDbLine
 62
7
  6
CONTINUOUS
 10
71.3288739925
 20
40.8823750354
 11
74.3288739925
 21
40.8823750354
  0
LINE
  5
264
100
AcDbEntity
  8
0
100
AcDbLine
 62
7
  6
CONTINUOUS
 10
73.0288739925
 20
41.1323750354
 11
69.6288739925
 21
41.1323750354
  0
LINE
  5
265
100
AcDbEntity
  8
A_RUNDUNGEN
100
AcDbLine
 62
7
  6
CONTINUOUS
 10
44.8288739925
 20
41.6323750354
 11
46.3288739925
 21
41.6323750354
  0
LINE
  5
266
100
AcDbEntity
  8
0
100
AcDbLine
 62
7
  6
CONTINUOUS
 10
50.3288739925
 20
41.6323750354
 11
55.1288739925
 21
41.6323750354
  0
LINE
  5
267
100
AcDbEntity
  8
0
100
AcDbLine
 62
7
  6
CONTINUOUS
 10
58.1288739925
 20
41.8823750354
 11
61.1288739925
 21
41.8823750354
  0
LINE
  5
268
100
AcDbEntity
  8
0
100
AcDbLine
 62
7
  6
CONTINUOUS
 10
60.4288739925
 20
42.1323750354
 11
58.1288739925
 21
42.1323750354
  0
LINE
  5
269
100
AcDbEntity
  8
0
100
AcDbLine
 62
2
  6
CONTINUOUS
 10
44.3288739925
 20
42.1323750354
 11
46.3288739925
 21
42.1323750354
  0
LINE
  5
26A
100
AcDbEntity
  8
0
100
AcDbLine
 62
7
  6
CONTINUOUS
 10
44.3288739925
 20
52.1323750354
 11
44.8288739925
 21
51.6323750354
  0
LINE
  5
26B
100
AcDbEntity
  8
0
100
AcDbLine
 62
7
  6
CONTINUOUS
 10
53.8288739925
 20
43.1323750354
 11
53.3288739925
 21
43.6323750354
  0
LINE
  5
26C
100
AcDbEntity
  8
A_RUNDUNGEN
100
AcDbLine
 62
8
  6
HIDDEN
 10
50.9167419581
 20
46.5445070697
 11
53.3288739925
 21
44.1323750354
  0
LINE
  5
26D
100
AcDbEntity
  8
DEFAULT_2
100
AcDbLine
 62
8
  6
HIDDEN
 10
51.0188739925
 20
85.7323750354
 11
48.414377186
 21
84.5178782288
  0
LINE
  5
26E
100
AcDbEntity
  8
0
100
AcDbLine
 62
7
  6
CONTINUOUS
 10
64.3288739925
 20
43.0323750354
 11
69.2386801008
 21
43.0323750354
  0
LINE
  5
26F
100
AcDbEntity
  8
0
100
AcDbLine
 62
7
  6
CONTINUOUS
 10
69.0288739925
 20
43.1323750354
 11
53.3288739925
 21
43.1323750354
  0
LINE
  5
270
100
AcDbEntity
  8
0
100
AcDbLine
 62
2
  6
CONTINUOUS
 10
53.3288739925
 20
43.6323750354
 11
69.3288739925
 21
43.6323750354
  0
LINE
  5
271
100
AcDbEntity
  8
DEFAULT_2
100
AcDbLine
 62
8
  6
HIDDEN
 10
73.3288739925
 20
43.8229739586
 11
71.0848570566
 21
43.8229739586
  0
LINE
  5
272
100
AcDbEntity
  8
A_ACHSEN
100
AcDbLine
 62
7
  6
CENTER
 10
41.3288739925
 20
44.1323750354
 11
47.0956548522
 21
44.1323750354
  0
LINE
  5
273
100
AcDbEntity
  8
A_ACHSEN
100
AcDbLine
 62
8
  6
HIDDEN
 10
53.3288739925
 20
44.1323750354
 11
53.6288739925
 21
44.1323750354
  0
LINE
  5
274
100
AcDbEntity
  8
DEFAULT_2
100
AcDbLine
 62
8
  6
HIDDEN
 10
73.3288739925
 20
44.977674497
 11
71.0848570566
 21
44.977674497
  0
LINE
  5
275
100
AcDbEntity
  8
0
100
AcDbLine
 62
7
  6
CONTINUOUS
 10
50.3288739925
 20
45.2323750354
 11
53.3288739925
 21
45.2323750354
  0
LINE
  5
276
100
AcDbEntity
  8
0
100
AcDbLine
 62
7
  6
CONTINUOUS
 10
68.9954216146
 20
35.1323750354
 11
71.2707754178
 21
33.422706657
  0
LINE
  5
277
100
AcDbEntity
  8
A_FLAECHEN
100
AcDbLine
 62
8
  6
HIDDEN
 10
50.8958612906
 20
49.1323750354
 11
51.7618866944
 21
47.6323750354
  0
LINE
  5
278
100
AcDbEntity
  8
0
100
AcDbLine
 62
7
  6
CONTINUOUS
 10
44.3288739925
 20
102.1323750354
 11
44.3288739925
 21
32.1323750354
  0
LINE
  5
279
100
AcDbEntity
  8
0
100
AcDbLine
 62
7
  6
CONTINUOUS
 10
44.8288739925
 20
56.6323750354
 11
44.8288739925
 21
51.6323750354
  0
LINE
  5
27A
100
AcDbEntity
  8
0
100
AcDbLine
 62
7
  6
CONTINUOUS
 10
44.8288739925
 20
46.6323750354
 11
44.8288739925
 21
41.6323750354
  0
LINE
  5
27B
100
AcDbEntity
  8
A_ACHSEN
100
AcDbLine
 62
7
  6
CONTINUOUS
 10
45.6288739925
 20
51.1323750354
 11
45.6288739925
 21
47.1323750354
  0
LINE
  5
27C
100
AcDbEntity
  8
A_ACHSEN
100
AcDbLine
 62
7
  6
CONTINUOUS
 10
46.1288739925
 20
51.6323750354
 11
46.1288739925
 21
46.6323750354
  0
LINE
  5
27D
100
AcDbEntity
  8
0
100
AcDbLine
 62
7
  6
CONTINUOUS
 10
46.1288739925
 20
51.631668169
 11
46.1288739925
 21
46.6330819017
  0
LINE
  5
27E
100
AcDbEntity
  8
0
100
AcDbLine
 62
7
  6
CONTINUOUS
 10
46.3288739925
 20
40.1323750354
 11
46.3288739925
 21
97.1323750354
  0
LINE
  5
27F
100
AcDbEntity
  8
DEFAULT_2
100
AcDbLine
 62
8
  6
HIDDEN
 10
46.5288739925
 20
69.718161473
 11
46.5288739925
 21
70.620988628
  0
LINE
  5
280
100
AcDbEntity
  8
DEFAULT_2
100
AcDbLine
 62
8
  6
HIDDEN
 10
46.5288739925
 20
71.6437614427
 11
46.5288739925
 21
72.5465885977
  0
LINE
  5
281
100
AcDbEntity
  8
DEFAULT_2
100
AcDbLine
 62
8
  6
HIDDEN
 10
46.5288739925
 20
85.718161473
 11
46.5288739925
 21
86.620988628
  0
LINE
  5
282
100
AcDbEntity
  8
DEFAULT_2
100
AcDbLine
 62
8
  6
HIDDEN
 10
46.5288739925
 20
87.6437614427
 11
46.5288739925
 21
88.5465885977
  0
LINE
  5
283
100
AcDbEntity
  8
DEFAULT_2
100
AcDbLine
 62
8
  6
HIDDEN
 10
46.6288739925
 20
91.5323750354
 11
46.6288739925
 21
82.7323750354
  0
LINE
  5
284
100
AcDbEntity
  8
DEFAULT_2
100
AcDbLine
 62
8
  6
HIDDEN
 10
46.6288739925
 20
75.5323750354
 11
46.6288739925
 21
66.7323750354
  0
LWPOLYLINE
  5
285
100
AcDbEntity
  8
DEFAULT_2
100
AcDbPolyline
 62
8
  6
HIDDEN
 90
4
 70
0
 10
51.7291560877
 20
85.0055645708
 10
51.8635833072
 20
85.3384025121
 10
52.0495641646
 20
85.7748606662
 10
52.1583330959
 20
86.0126263912
  0
LWPOLYLINE
  5
286
100
AcDbEntity
  8
DEFAULT_2
100
AcDbPolyline
 62
8
  6
HIDDEN
 90
4
 70
0
 10
52.6354709121
 20
89.277230716
 10
52.4985026046
 20
88.9516807523
 10
52.3093288926
 20
88.5310324619
 10
52.200957767
 20
88.3099160861
  0
LINE
  5
287
100
AcDbEntity
  8
0
100
AcDbLine
 62
2
  6
CONTINUOUS
 10
44.3288739925
 20
46.1323750354
 11
46.3288739925
 21
46.1323750354
  0
LINE
  5
288
100
AcDbEntity
  8
A_ACHSEN
100
AcDbLine
 62
7
  6
CENTER
 10
50.3288739925
 20
46.1323750354
 11
76.3288739925
 21
46.1323750354
  0
LINE
  5
289
100
AcDbEntity
  8
A_RUNDUNGEN
100
AcDbLine
 62
7
  6
CONTINUOUS
 10
44.8288739925
 20
46.6323750354
 11
46.3288739925
 21
46.6323750354
  0
LINE
  5
28A
100
AcDbEntity
  8
A_RUNDUNGEN
100
AcDbLine
 62
8
  6
HIDDEN
 10
46.3288739925
 20
46.6323750354
 11
50.7046099238
 21
46.6323750354
  0
LINE
  5
28B
100
AcDbEntity
  8
DEFAULT_2
100
AcDbLine
 62
8
  6
HIDDEN
 10
73.3288739925
 20
47.2870755737
 11
71.0848570566
 21
47.2870755737
  0
LINE
  5
28C
100
AcDbEntity
  8
0
100
AcDbLine
 62
2
  6
CONTINUOUS
 10
46.1288739925
 20
47.3323750354
 11
46.3288739925
 21
47.3323750354
  0
LINE
  5
28D
100
AcDbEntity
  8
DEFAULT_2
100
AcDbLine
 62
8
  6
HIDDEN
 10
46.3288739925
 20
47.3323750354
 11
50.7046099238
 21
47.3323750354
  0
LINE
  5
28E
100
AcDbEntity
  8
DEFAULT_2
100
AcDbLine
 62
8
  6
HIDDEN
 10
53.6288739925
 20
47.6323750354
 11
51.7622086707
 21
47.6323750354
  0
LINE
  5
28F
100
AcDbEntity
  8
0
100
AcDbLine
 62
7
  6
CONTINUOUS
 10
71.2707754178
 20
33.422706657
 11
71.8364608428
 21
32.8570212321
  0
LINE
  5
290
100
AcDbEntity
  8
DEFAULT_2
100
AcDbLine
 62
8
  6
HIDDEN
 10
53.4802875239
 20
47.6323750354
 11
53.6288739925
 21
47.4003242278
  0
LINE
  5
291
100
AcDbEntity
  8
DEFAULT_2
100
AcDbLine
 62
8
  6
HIDDEN
 10
48.1288739925
 20
69.0247636006
 11
48.1288739925
 21
73.2399864701
  0
LINE
  5
292
100
AcDbEntity
  8
DEFAULT_2
100
AcDbLine
 62
8
  6
HIDDEN
 10
48.1288739925
 20
85.0247636006
 11
48.1288739925
 21
89.2399864701
  0
LINE
  5
293
100
AcDbEntity
  8
DEFAULT_2
100
AcDbLine
 62
8
  6
HIDDEN
 10
48.414377186
 20
89.7468718419
 11
48.414377186
 21
84.5178782288
  0
LINE
  5
294
100
AcDbEntity
  8
DEFAULT_2
100
AcDbLine
 62
8
  6
HIDDEN
 10
48.414377186
 20
73.7468718419
 11
48.414377186
 21
68.5178782288
  0
LWPOLYLINE
  5
295
100
AcDbEntity
  8
DEFAULT_2
100
AcDbPolyline
 62
8
  6
HIDDEN
 90
4
 70
0
 10
54.2285329622
 20
85.0043224179
 10
54.3584112112
 20
85.3262235952
 10
54.545477947
 20
85.7657709251
 10
54.6589042048
 20
86.0137382086
  0
LWPOLYLINE
  5
296
100
AcDbEntity
  8
DEFAULT_2
100
AcDbPolyline
 62
8
  6
HIDDEN
 90
4
 70
0
 10
57.6355070478
 20
89.2772863167
 10
57.4985198135
 20
88.9517157052
 10
57.3092177383
 20
88.5309287416
 10
57.2007413524
 20
88.3096957647
  0
LWPOLYLINE
  5
297
100
AcDbEntity
  8
DEFAULT_2
100
AcDbPolyline
 62
8
  6
HIDDEN
 90
4
 70
0
 10
55.1354951008
 20
89.2766812393
 10
54.9985348453
 20
88.9513428455
 10
54.8090955855
 20
88.5306206546
 10
54.7005234662
 20
88.3093584321
  0
LINE
  5
298
100
AcDbEntity
  8
DEFAULT_2
100
AcDbLine
 62
8
  6
HIDDEN
 10
73.3288739925
 20
48.4417761121
 11
71.0848570566
 21
48.4417761121
  0
LINE
  5
299
100
AcDbEntity
  8
0
100
AcDbLine
 62
2
  6
CONTINUOUS
 10
53.3288739925
 20
48.6323750354
 11
69.3288739925
 21
48.6323750354
  0
LINE
  5
29A
100
AcDbEntity
  8
0
100
AcDbLine
 62
7
  6
CONTINUOUS
 10
69.0288739925
 20
49.1323750354
 11
53.8288739925
 21
49.1323750354
  0
LINE
  5
29B
100
AcDbEntity
  8
DEFAULT_2
100
AcDbLine
 62
8
  6
HIDDEN
 10
53.6288739925
 20
49.1323750354
 11
51.8958612906
 21
49.1323750354
  0
LINE
  5
29C
100
AcDbEntity
  8
A_ACHSEN
100
AcDbLine
 62
7
  6
CENTER
 10
44.6427924324
 20
49.1323750354
 11
53.6288739925
 21
49.1323750354
  0
LINE
  5
29D
100
AcDbEntity
  8
0
100
AcDbLine
 62
7
  6
CONTINUOUS
 10
64.3288739925
 20
49.2323750354
 11
69.2386801008
 21
49.2323750354
  0
LINE
  5
29E
100
AcDbEntity
  8
0
100
AcDbLine
 62
7
  6
CONTINUOUS
 10
50.3288739925
 20
49.6323750354
 11
53.3288739925
 21
49.6323750354
  0
LINE
  5
29F
100
AcDbEntity
  8
0
100
AcDbLine
 62
7
  6
CONTINUOUS
 10
60.4288739925
 20
50.1323750354
 11
58.1288739925
 21
50.1323750354
  0
LINE
  5
2A0
100
AcDbEntity
  8
0
100
AcDbLine
 62
7
  6
CONTINUOUS
 10
58.1288739925
 20
50.3823750354
 11
61.1288739925
 21
50.3823750354
  0
LINE
  5
2A1
100
AcDbEntity
  8
DEFAULT_2
100
AcDbLine
 62
8
  6
HIDDEN
 10
51.7622086707
 20
50.6323750354
 11
53.6288739925
 21
50.6323750354
  0
LINE
  5
2A2
100
AcDbEntity
  8
0
100
AcDbLine
 62
2
  6
CONTINUOUS
 10
46.1288739925
 20
50.9323750354
 11
46.3288739925
 21
50.9323750354
  0
LINE
  5
2A3
100
AcDbEntity
  8
DEFAULT_2
100
AcDbLine
 62
8
  6
HIDDEN
 10
46.3288739925
 20
50.9323750354
 11
50.7046099238
 21
50.9323750354
  0
LINE
  5
2A4
100
AcDbEntity
  8
0
100
AcDbLine
 62
7
  6
CONTINUOUS
 10
73.6042277958
 20
34.6247881851
 11
73.0385423708
 21
35.19047361
  0
LINE
  5
2A5
100
AcDbEntity
  8
0
100
AcDbLine
 62
7
  6
CONTINUOUS
 10
50.3288739925
 20
32.1323750354
 11
50.3288739925
 21
97.1323750354
  0
LINE
  5
2A6
100
AcDbEntity
  8
DEFAULT_2
100
AcDbLine
 62
8
  6
HIDDEN
 10
50.7046099238
 20
46.6330819017
 11
50.7046099238
 21
51.631668169
  0
LINE
  5
2A7
100
AcDbEntity
  8
DEFAULT_2
100
AcDbLine
 62
8
  6
HIDDEN
 10
51.0188739925
 20
88.5323750354
 11
51.0188739925
 21
85.7323750354
  0
LINE
  5
2A8
100
AcDbEntity
  8
DEFAULT_2
100
AcDbLine
 62
8
  6
HIDDEN
 10
51.0188739925
 20
72.5323750354
 11
51.0188739925
 21
69.7323750354
  0
LINE
  5
2A9
100
AcDbEntity
  8
0
100
AcDbLine
 62
7
  6
CONTINUOUS
 10
51.8288739925
 20
45.2323750354
 11
51.8288739925
 21
49.6323750354
  0
LWPOLYLINE
  5
2AA
100
AcDbEntity
  8
DEFAULT_2
100
AcDbPolyline
 62
8
  6
HIDDEN
 90
4
 70
0
 10
56.7284369124
 20
85.0039368159
 10
56.8568305747
 20
85.3223013782
 10
57.0438024618
 20
85.762031925
 10
57.1588628103
 20
86.0137316034
  0
LWPOLYLINE
  5
2AB
100
AcDbEntity
  8
DEFAULT_2
100
AcDbPolyline
 62
8
  6
HIDDEN
 90
4
 70
0
 10
51.7291560877
 20
69.0055645708
 10
51.8635833072
 20
69.3384025121
 10
52.0495641646
 20
69.7748606662
 10
52.1583330959
 20
70.0126263912
  0
LWPOLYLINE
  5
2AC
100
AcDbEntity
  8
DEFAULT_2
100
AcDbPolyline
 62
8
  6
HIDDEN
 90
4
 70
0
 10
52.6354709121
 20
73.277230716
 10
52.4985026046
 20
72.9516807523
 10
52.3093288926
 20
72.5310324619
 10
52.200957767
 20
72.3099160861
  0
LWPOLYLINE
  5
2AD
100
AcDbEntity
  8
DEFAULT_2
100
AcDbPolyline
 62
8
  6
HIDDEN
 90
4
 70
0
 10
60.1352388017
 20
89.2766772049
 10
59.9983122042
 20
88.951326743
 10
59.80925366
 20
88.5309823424
 10
59.7009893336
 20
88.3100658833
  0
LINE
  5
2AE
100
AcDbEntity
  8
0
100
AcDbLine
 62
7
  6
CONTINUOUS
 10
73.0288739925
 20
51.1323750354
 11
69.6288739925
 21
51.1323750354
  0
LINE
  5
2AF
100
AcDbEntity
  8
0
100
AcDbLine
 62
7
  6
CONTINUOUS
 10
71.3288739925
 20
51.3823750354
 11
74.3288739925
 21
51.3823750354
  0
LINE
  5
2B0
100
AcDbEntity
  8
0
100
AcDbLine
 62
7
  6
CONTINUOUS
 10
58.1288739925
 20
51.6323750354
 11
55.1288739925
 21
51.6323750354
  0
LINE
  5
2B1
100
AcDbEntity
  8
A_RUNDUNGEN
100
AcDbLine
 62
7
  6
CONTINUOUS
 10
44.8288739925
 20
51.6323750354
 11
46.3288739925
 21
51.6323750354
  0
LINE
  5
2B2
100
AcDbEntity
  8
A_RUNDUNGEN
100
AcDbLine
 62
8
  6
HIDDEN
 10
46.3288739925
 20
51.6323750354
 11
50.7046099238
 21
51.6323750354
  0
LINE
  5
2B3
100
AcDbEntity
  8
0
100
AcDbLine
 62
7
  6
CONTINUOUS
 10
50.3288739925
 20
51.6323750354
 11
53.3288739925
 21
51.6323750354
  0
LINE
  5
2B4
100
AcDbEntity
  8
0
100
AcDbLine
 62
2
  6
CONTINUOUS
 10
44.3288739925
 20
52.1323750354
 11
46.3288739925
 21
52.1323750354
  0
LINE
  5
2B5
100
AcDbEntity
  8
0
100
AcDbLine
 62
7
  6
CONTINUOUS
 10
60.9288739925
 20
49.6323750354
 11
60.4288739925
 21
50.1323750354
  0
LINE
  5
2B6
100
AcDbEntity
  8
0
100
AcDbLine
 62
7
  6
CONTINUOUS
 10
73.0385423708
 20
35.19047361
 11
71.3288739925
 21
37.4658274133
  0
LINE
  5
2B7
100
AcDbEntity
  8
A_ACHSEN
100
AcDbLine
 62
8
  6
HIDDEN
 10
53.3288739925
 20
54.1323750354
 11
53.3288739925
 21
44.1323750354
  0
LINE
  5
2B8
100
AcDbEntity
  8
0
100
AcDbLine
 62
7
  6
CONTINUOUS
 10
53.3288739925
 20
37.2323750354
 11
53.3288739925
 21
38.7323750354
  0
LINE
  5
2B9
100
AcDbEntity
  8
0
100
AcDbLine
 62
7
  6
CONTINUOUS
 10
53.3288739925
 20
41.6323750354
 11
53.3288739925
 21
61.0323750354
  0
LINE
  5
2BA
100
AcDbEntity
  8
A_ACHSEN
100
AcDbLine
 62
7
  6
CONTINUOUS
 10
53.6288739925
 20
54.1323750354
 11
53.6288739925
 21
48.9323750354
  0
LINE
  5
2BB
100
AcDbEntity
  8
A_ACHSEN
100
AcDbLine
 62
8
  6
HIDDEN
 10
53.6288739925
 20
48.9323750354
 11
53.6288739925
 21
44.1323750354
  0
LINE
  5
2BC
100
AcDbEntity
  8
DEFAULT_2
100
AcDbLine
 62
8
  6
HIDDEN
 10
53.6288739925
 20
47.401189321
 11
53.6288739925
 21
50.8635607497
  0
LINE
  5
2BD
100
AcDbEntity
  8
0
100
AcDbLine
 62
7
  6
CONTINUOUS
 10
53.8288739925
 20
43.1323750354
 11
53.8288739925
 21
55.1323750354
  0
LINE
  5
2BE
100
AcDbEntity
  8
0
100
AcDbLine
 62
7
  6
CONTINUOUS
 10
55.1288739925
 20
37.6323750354
 11
55.1288739925
 21
43.1323750354
  0
LINE
  5
2BF
100
AcDbEntity
  8
0
100
AcDbLine
 62
7
  6
CONTINUOUS
 10
55.1288739925
 20
49.1323750354
 11
55.1288739925
 21
51.6323750354
  0
LWPOLYLINE
  5
2C0
100
AcDbEntity
  8
DEFAULT_2
100
AcDbPolyline
 62
8
  6
HIDDEN
 90
4
 70
0
 10
54.2285329622
 20
69.0043224179
 10
54.3584112112
 20
69.3262235952
 10
54.545477947
 20
69.7657709251
 10
54.6589042048
 20
70.0137382086
  0
LWPOLYLINE
  5
2C1
100
AcDbEntity
  8
DEFAULT_2
100
AcDbPolyline
 62
8
  6
HIDDEN
 90
4
 70
0
 10
59.2291279852
 20
85.0055347235
 10
59.3632493622
 20
85.3376037922
 10
59.5491431103
 20
85.7739213722
 10
59.658254545
 20
86.0124932893
  0
LWPOLYLINE
  5
2C2
100
AcDbEntity
  8
DEFAULT_2
100
AcDbPolyline
 62
8
  6
HIDDEN
 90
4
 70
0
 10
55.1354951008
 20
73.2766812393
 10
54.9985348453
 20
72.9513428455
 10
54.8090955855
 20
72.5306206546
 10
54.7005234662
 20
72.3093584321
  0
LWPOLYLINE
  5
2C3
100
AcDbEntity
  8
DEFAULT_2
100
AcDbPolyline
 62
8
  6
HIDDEN
 90
4
 70
0
 10
62.6355859601
 20
89.2773110357
 10
62.4940185584
 20
88.9411463803
 10
62.3019153415
 20
88.5155257207
 10
62.2007603635
 20
88.3097905894
  0
LINE
  5
2C4
100
AcDbEntity
  8
DEFAULT_2
100
AcDbLine
 62
8
  6
HIDDEN
 10
48.414377186
 20
68.5178782288
 11
46.6288739925
 21
66.7323750354
  0
LINE
  5
2C5
100
AcDbEntity
  8
DEFAULT_2
100
AcDbLine
 62
8
  6
HIDDEN
 10
50.9962739464
 20
70.7346994763
 11
51.3288739925
 21
70.9513027046
  0
LINE
  5
2C6
100
AcDbEntity
  8
A_ACHSEN
100
AcDbLine
 62
7
  6
CENTER
 10
41.3288739925
 20
54.1323750354
 11
48.2966539473
 21
54.1323750354
  0
LINE
  5
2C7
100
AcDbEntity
  8
A_ACHSEN
100
AcDbLine
 62
7
  6
CONTINUOUS
 10
53.3288739925
 20
54.1323750354
 11
53.6288739925
 21
54.1323750354
  0
LINE
  5
2C8
100
AcDbEntity
  8
0
100
AcDbLine
 62
2
  6
CONTINUOUS
 10
53.3288739925
 20
54.5173750354
 11
58.1288739925
 21
54.5173750354
  0
LINE
  5
2C9
100
AcDbEntity
  8
A_RUNDUNGEN
100
AcDbLine
 62
7
  6
CONTINUOUS
 10
71.3288739925
 20
54.6323750354
 11
69.6288739925
 21
54.6323750354
  0
LINE
  5
2CA
100
AcDbEntity
  8
0
100
AcDbLine
 62
7
  6
CONTINUOUS
 10
53.3288739925
 20
55.1323750354
 11
58.1288739925
 21
55.1323750354
  0
LINE
  5
2CB
100
AcDbEntity
  8
0
100
AcDbLine
 62
7
  6
CONTINUOUS
 10
69.3288739925
 20
55.1323750354
 11
71.1288739925
 21
55.1323750354
  0
LINE
  5
2CC
100
AcDbEntity
  8
0
100
AcDbLine
 62
2
  6
CONTINUOUS
 10
44.3288739925
 20
56.1323750354
 11
46.3288739925
 21
56.1323750354
  0
LINE
  5
2CD
100
AcDbEntity
  8
DEFAULT_2
100
AcDbLine
 62
8
  6
HIDDEN
 10
50.9584987473
 20
69.939813839
 11
50.9923162897
 21
69.8802494254
  0
LWPOLYLINE
  5
2CE
100
AcDbEntity
  8
DEFAULT_2
100
AcDbPolyline
 62
8
  6
HIDDEN
 90
4
 70
0
 10
50.9584727675
 20
69.939799668
 10
51.0483890176
 20
69.7567289483
 10
51.2409542632
 20
69.3310754301
 10
51.3854631945
 20
68.9882988431
  0
LINE
  5
2CF
100
AcDbEntity
  8
0
100
AcDbLine
 62
7
  6
CONTINUOUS
 10
56.3288739925
 20
32.1323750354
 11
56.3288739925
 21
35.1323750354
  0
LINE
  5
2D0
100
AcDbEntity
  8
0
100
AcDbLine
 62
7
  6
CONTINUOUS
 10
57.3288739925
 20
51.6323750354
 11
57.3288739925
 21
52.2946526955
  0
LWPOLYLINE
  5
2D1
100
AcDbEntity
  8
DEFAULT_2
100
AcDbPolyline
 62
8
  6
HIDDEN
 90
4
 70
0
 10
56.7284369124
 20
69.0039368159
 10
56.8568305747
 20
69.3223013782
 10
57.0438024618
 20
69.762031925
 10
57.1588628103
 20
70.0137316034
  0
LWPOLYLINE
  5
2D2
100
AcDbEntity
  8
DEFAULT_2
100
AcDbPolyline
 62
8
  6
HIDDEN
 90
4
 70
0
 10
61.7287128728
 20
85.0048672619
 10
61.8581865933
 20
85.325683474
 10
62.0451322519
 20
85.7649041036
 10
62.1588281991
 20
86.0135002012
  0
LWPOLYLINE
  5
2D3
100
AcDbEntity
  8
DEFAULT_2
100
AcDbPolyline
 62
8
  6
HIDDEN
 90
4
 70
0
 10
64.2290127343
 20
85.0053910075
 10
64.3634417638
 20
85.3381873657
 10
64.5505609837
 20
85.7769776655
 10
64.6584273725
 20
86.012662716
  0
LWPOLYLINE
  5
2D4
100
AcDbEntity
  8
DEFAULT_2
100
AcDbPolyline
 62
8
  6
HIDDEN
 90
4
 70
0
 10
57.6355070478
 20
73.2772863167
 10
57.4985198135
 20
72.9517157052
 10
57.3092177383
 20
72.5309287416
 10
57.2007413524
 20
72.3096957647
  0
LWPOLYLINE
  5
2D5
100
AcDbEntity
  8
DEFAULT_2
100
AcDbPolyline
 62
8
  6
HIDDEN
 90
4
 70
0
 10
65.1032760419
 20
89.136409716
 10
64.9572660982
 20
88.7940563823
 10
64.7593607518
 20
88.365003498
 10
64.7025908475
 20
88.2512730157
  0
LINE
  5
2D6
100
AcDbEntity
  8
DEFAULT_2
100
AcDbLine
 62
8
  6
HIDDEN
 10
70.5722863223
 20
87.1896716755
 11
70.375166404
 21
86.9611975557
  0
LINE
  5
2D7
100
AcDbEntity
  8
DEFAULT_2
100
AcDbLine
 62
8
  6
HIDDEN
 10
51.0188739925
 20
69.7323750354
 11
48.414377186
 21
68.5178782288
  0
LINE
  5
2D8
100
AcDbEntity
  8
A_RUNDUNGEN
100
AcDbLine
 62
7
  6
CONTINUOUS
 10
44.8288739925
 20
56.6323750354
 11
46.3288739925
 21
56.6323750354
  0
LINE
  5
2D9
100
AcDbEntity
  8
0
100
AcDbLine
 62
7
  6
CONTINUOUS
 10
83.8288739925
 20
57.1323750354
 11
77.8288739925
 21
57.1323750354
  0
LINE
  5
2DA
100
AcDbEntity
  8
0
100
AcDbLine
 62
7
  6
CONTINUOUS
 10
83.5633095554
 20
58.1323750354
 11
78.0944384296
 21
58.1323750354
  0
LWPOLYLINE
  5
2DB
100
AcDbEntity
  8
DEFAULT_2
100
AcDbPolyline
 62
8
  6
HIDDEN
 90
4
 70
0
 10
53.4505613007
 20
69.9554837158
 10
53.5538636297
 20
69.7453179968
 10
53.7424803608
 20
69.3274125903
 10
53.8856788029
 20
68.9874544384
  0
LWPOLYLINE
  5
2DC
100
AcDbEntity
  8
DEFAULT_2
100
AcDbPolyline
 62
8
  6
HIDDEN
 90
4
 70
0
 10
53.4090239307
 20
72.2508372992
 10
53.2939153827
 20
72.5024960767
 10
53.1070814121
 20
72.9413997175
 10
52.9789739496
 20
73.2586785586
  0
LINE
  5
2DD
100
AcDbEntity
  8
0
100
AcDbLine
 62
7
  6
CONTINUOUS
 10
58.1288739925
 20
37.6323750354
 11
58.1288739925
 21
42.1323750354
  0
LINE
  5
2DE
100
AcDbEntity
  8
0
100
AcDbLine
 62
7
  6
CONTINUOUS
 10
58.1288739925
 20
50.1323750354
 11
58.1288739925
 21
60.6323750354
  0
LWPOLYLINE
  5
2DF
100
AcDbEntity
  8
DEFAULT_2
100
AcDbPolyline
 62
8
  6
HIDDEN
 90
4
 70
0
 10
59.2291279852
 20
69.0055347235
 10
59.3632493622
 20
69.3376037922
 10
59.5491431103
 20
69.7739213722
 10
59.658254545
 20
70.0124932893
  0
LWPOLYLINE
  5
2E0
100
AcDbEntity
  8
DEFAULT_2
100
AcDbPolyline
 62
8
  6
HIDDEN
 90
4
 70
0
 10
60.1352388017
 20
73.2766772049
 10
59.9983122042
 20
72.951326743
 10
59.80925366
 20
72.5309823424
 10
59.7009893336
 20
72.3100658833
  0
LWPOLYLINE
  5
2E1
100
AcDbEntity
  8
DEFAULT_2
100
AcDbPolyline
 62
8
  6
HIDDEN
 90
4
 70
0
 10
66.7340439526
 20
85.4663108503
 10
66.8941548042
 20
85.8464422201
 10
67.0938105797
 20
86.2687409485
 10
67.1929935455
 20
86.4495605957
  0
LWPOLYLINE
  5
2E2
100
AcDbEntity
  8
DEFAULT_2
100
AcDbPolyline
 62
8
  6
HIDDEN
 90
4
 70
0
 10
62.6355859601
 20
73.2773110357
 10
62.4940185584
 20
72.9411463803
 10
62.3019153415
 20
72.5155257207
 10
62.2007603635
 20
72.3097905894
  0
LWPOLYLINE
  5
2E3
100
AcDbEntity
  8
DEFAULT_2
100
AcDbPolyline
 62
8
  6
HIDDEN
 90
4
 70
0
 10
67.5505283883
 20
88.5636634941
 10
67.3953407236
 20
88.2410295579
 10
67.2042161657
 20
87.9063968926
 10
67.1534240345
 20
87.8311029687
  0
LWPOLYLINE
  5
2E4
100
AcDbEntity
  8
DEFAULT_2
100
AcDbPolyline
 62
8
  6
HIDDEN
 90
4
 70
0
 10
69.9721693315
 20
88.0416515401
 10
69.8654625246
 20
87.8632929759
 10
69.7178333168
 20
87.7085268769
 10
69.6291647743
 20
87.665569838
  0
LINE
  5
2E5
100
AcDbEntity
  8
0
100
AcDbLine
 62
7
  6
CONTINUOUS
 10
44.3288739925
 20
56.1323750354
 11
44.8288739925
 21
56.6323750354
  0
LINE
  5
2E6
100
AcDbEntity
  8
0
100
AcDbLine
 62
7
  6
CONTINUOUS
 10
61.1288739925
 20
60.6323750354
 11
58.1288739925
 21
60.6323750354
  0
LINE
  5
2E7
100
AcDbEntity
  8
A_RUNDUNGEN
100
AcDbLine
 62
7
  6
CONTINUOUS
 10
61.1288739925
 20
60.6323750354
 11
62.1288739925
 21
60.6323750354
  0
LINE
  5
2E8
100
AcDbEntity
  8
0
100
AcDbLine
 62
7
  6
CONTINUOUS
 10
62.1288739925
 20
60.6323750354
 11
69.3288739925
 21
60.6323750354
  0
LINE
  5
2E9
100
AcDbEntity
  8
0
100
AcDbLine
 62
7
  6
CONTINUOUS
 10
50.3288739925
 20
61.0323750354
 11
53.3288739925
 21
61.0323750354
  0
LINE
  5
2EA
100
AcDbEntity
  8
0
100
AcDbLine
 62
7
  6
CONTINUOUS
 10
50.3288739925
 20
61.1323750354
 11
74.3288739925
 21
61.1323750354
  0
LINE
  5
2EB
100
AcDbEntity
  8
0
100
AcDbLine
 62
7
  6
CONTINUOUS
 10
75.3288739925
 20
61.1323750354
 11
86.3288739925
 21
61.1323750354
  0
LINE
  5
2EC
100
AcDbEntity
  8
DEFAULT_2
100
AcDbLine
 62
8
  6
HIDDEN
 10
48.414377186
 20
73.7468718419
 11
46.6288739925
 21
75.5323750354
  0
LINE
  5
2ED
100
AcDbEntity
  8
A_FASEN
100
AcDbLine
 62
7
  6
CONTINUOUS
 10
73.3288739925
 20
50.8323750354
 11
73.0288739925
 21
51.1323750354
  0
LINE
  5
2EE
100
AcDbEntity
  8
DEFAULT_2
100
AcDbLine
 62
8
  6
HIDDEN
 10
69.7515237233
 20
46.1323750354
 11
71.0848570566
 21
43.8229739586
  0
LWPOLYLINE
  5
2EF
100
AcDbEntity
  8
DEFAULT_2
100
AcDbPolyline
 62
8
  6
HIDDEN
 90
4
 70
0
 10
55.9504498549
 20
69.9555910315
 10
56.0590885496
 20
69.734221084
 10
56.248592373
 20
69.3133279969
 10
56.3855897488
 20
68.9878557481
  0
LWPOLYLINE
  5
2F0
100
AcDbEntity
  8
DEFAULT_2
100
AcDbPolyline
 62
8
  6
HIDDEN
 90
4
 70
0
 10
58.4505948188
 20
69.9551645745
 10
58.5590136369
 20
69.7341804604
 10
58.7481995836
 20
69.3142523866
 10
58.8850575193
 20
68.9894249997
  0
LWPOLYLINE
  5
2F1
100
AcDbEntity
  8
DEFAULT_2
100
AcDbPolyline
 62
8
  6
HIDDEN
 90
4
 70
0
 10
55.9088289921
 20
72.2509386387
 10
55.7929121313
 20
72.5045842575
 10
55.6059579075
 20
72.9444876331
 10
55.4783003876
 20
73.2611167146
  0
LINE
  5
2F2
100
AcDbEntity
  8
0
100
AcDbLine
 62
7
  6
CONTINUOUS
 10
60.9288739925
 20
49.6323750354
 11
60.9288739925
 21
49.1323750354
  0
LINE
  5
2F3
100
AcDbEntity
  8
0
100
AcDbLine
 62
7
  6
CONTINUOUS
 10
60.9288739925
 20
43.1323750354
 11
60.9288739925
 21
42.6323750354
  0
LINE
  5
2F4
100
AcDbEntity
  8
0
100
AcDbLine
 62
7
  6
CONTINUOUS
 10
61.1288739925
 20
37.6323750354
 11
61.1288739925
 21
43.1323750354
  0
LINE
  5
2F5
100
AcDbEntity
  8
0
100
AcDbLine
 62
7
  6
CONTINUOUS
 10
61.1288739925
 20
49.1323750354
 11
61.1288739925
 21
60.6323750354
  0
LINE
  5
2F6
100
AcDbEntity
  8
0
100
AcDbLine
 62
7
  6
CONTINUOUS
 10
62.1288739925
 20
49.1323750354
 11
62.1288739925
 21
60.6323750354
  0
LINE
  5
2F7
100
AcDbEntity
  8
0
100
AcDbLine
 62
7
  6
CONTINUOUS
 10
62.3288739925
 20
43.1323750354
 11
62.3288739925
 21
37.6323750354
  0
LWPOLYLINE
  5
2F8
100
AcDbEntity
  8
DEFAULT_2
100
AcDbPolyline
 62
8
  6
HIDDEN
 90
4
 70
0
 10
61.7287128728
 20
69.0048672619
 10
61.8581865933
 20
69.325683474
 10
62.0451322519
 20
69.7649041036
 10
62.1588281991
 20
70.0135002012
  0
LWPOLYLINE
  5
2F9
100
AcDbEntity
  8
DEFAULT_2
100
AcDbPolyline
 62
8
  6
HIDDEN
 90
4
 70
0
 10
65.1032760419
 20
73.136409716
 10
64.9572660982
 20
72.7940563823
 10
64.7593607518
 20
72.365003498
 10
64.7025908475
 20
72.2512730157
  0
LWPOLYLINE
  5
2FA
100
AcDbEntity
  8
DEFAULT_2
100
AcDbPolyline
 62
8
  6
HIDDEN
 90
4
 70
0
 10
69.3259691253
 20
86.1660517526
 10
69.4702515362
 20
86.4960356024
 10
69.6466546992
 20
86.7972245414
 10
69.7468263203
 20
86.9051169989
  0
LINE
  5
2FB
100
AcDbEntity
  8
A_FLAECHEN
100
AcDbLine
 62
8
  6
HIDDEN
 10
50.8958612906
 20
49.1323750354
 11
51.7618866944
 21
50.6323750354
  0
LINE
  5
2FC
100
AcDbEntity
  8
A_ACHSEN
100
AcDbLine
 62
7
  6
CONTINUOUS
 10
45.6288739925
 20
51.1323750354
 11
46.1288739925
 21
51.6323750354
  0
LINE
  5
2FD
100
AcDbEntity
  8
0
100
AcDbLine
 62
7
  6
CONTINUOUS
 10
74.3288739925
 20
62.1323750354
 11
87.3288739925
 21
62.1323750354
  0
LINE
  5
2FE
100
AcDbEntity
  8
0
100
AcDbLine
 62
7
  6
CONTINUOUS
 10
77.8288739925
 20
57.1323750354
 11
74.3288739925
 21
59.1323750354
  0
LINE
  5
2FF
100
AcDbEntity
  8
0
100
AcDbLine
 62
7
  6
CONTINUOUS
 10
70.8288739925
 20
55.1323750354
 11
71.3288739925
 21
54.6323750354
  0
LINE
  5
300
100
AcDbEntity
  8
DEFAULT_2
100
AcDbLine
 62
8
  6
HIDDEN
 10
57.9790141151
 20
73.2584082304
 11
57.8278262127
 21
73.4799429339
  0
LINE
  5
301
100
AcDbEntity
  8
DEFAULT_2
100
AcDbLine
 62
8
  6
HIDDEN
 10
50.9584987473
 20
85.939813839
 11
50.9923162897
 21
85.8802494254
  0
LWPOLYLINE
  5
302
100
AcDbEntity
  8
DEFAULT_2
100
AcDbPolyline
 62
8
  6
HIDDEN
 90
4
 70
0
 10
53.4505613007
 20
85.9554837158
 10
53.5538636297
 20
85.7453179968
 10
53.7424803608
 20
85.3274125903
 10
53.8856788029
 20
84.9874544384
  0
LWPOLYLINE
  5
303
100
AcDbEntity
  8
DEFAULT_2
100
AcDbPolyline
 62
8
  6
HIDDEN
 90
4
 70
0
 10
50.9584727675
 20
85.939799668
 10
51.0483890176
 20
85.7567289483
 10
51.2409542632
 20
85.3310754301
 10
51.3854631945
 20
84.9882988431
  0
LWPOLYLINE
  5
304
100
AcDbEntity
  8
DEFAULT_2
100
AcDbPolyline
 62
8
  6
HIDDEN
 90
4
 70
0
 10
60.9509179427
 20
69.954590042
 10
61.0590682236
 20
69.7339321539
 10
61.2480137254
 20
69.3140025051
 10
61.3848909715
 20
68.9889549098
  0
LWPOLYLINE
  5
305
100
AcDbEntity
  8
DEFAULT_2
100
AcDbPolyline
 62
8
  6
HIDDEN
 90
4
 70
0
 10
58.4090646564
 20
72.2507283799
 10
58.29528158
 20
72.4993523739
 10
58.1083592619
 20
72.9381652707
 10
57.9790141151
 20
73.2584082304
  0
LWPOLYLINE
  5
306
100
AcDbEntity
  8
DEFAULT_2
100
AcDbPolyline
 62
8
  6
HIDDEN
 90
4
 70
0
 10
53.4090239307
 20
88.2508372992
 10
53.2939153827
 20
88.5024960767
 10
53.1070814121
 20
88.9413997175
 10
52.9789739496
 20
89.2586785586
  0
LINE
  5
307
100
AcDbEntity
  8
0
100
AcDbLine
 62
7
  6
CONTINUOUS
 10
64.3288739925
 20
37.6323750354
 11
64.3288739925
 21
43.1323750354
  0
LINE
  5
308
100
AcDbEntity
  8
0
100
AcDbLine
 62
7
  6
CONTINUOUS
 10
64.3288739925
 20
49.1323750354
 11
64.3288739925
 21
60.6323750354
  0
LINE
  5
309
100
AcDbEntity
  8
DEFAULT_2
100
AcDbLine
 62
8
  6
HIDDEN
 10
65.0138820874
 20
88.5278715482
 11
65.0138820874
 21
85.7323750354
  0
LINE
  5
30A
100
AcDbEntity
  8
DEFAULT_2
100
AcDbLine
 62
8
  6
HIDDEN
 10
65.0138820874
 20
72.5278715482
 11
65.0138820874
 21
69.7323750354
  0
LWPOLYLINE
  5
30B
100
AcDbEntity
  8
DEFAULT_2
100
AcDbPolyline
 62
8
  6
HIDDEN
 90
4
 70
0
 10
64.2290127343
 20
69.0053910075
 10
64.3634417638
 20
69.3381873657
 10
64.5505609837
 20
69.7769776655
 10
64.6584273725
 20
70.012662716
  0
LWPOLYLINE
  5
30C
100
AcDbEntity
  8
DEFAULT_2
100
AcDbPolyline
 62
8
  6
HIDDEN
 90
4
 70
0
 10
66.7340439526
 20
69.4663108503
 10
66.8941548042
 20
69.8464422201
 10
67.0938105797
 20
70.2687409485
 10
67.1929935455
 20
70.4495605957
  0
LWPOLYLINE
  5
30D
100
AcDbEntity
  8
DEFAULT_2
100
AcDbPolyline
 62
8
  6
HIDDEN
 90
4
 70
0
 10
67.5505283883
 20
72.5636634941
 10
67.3953407236
 20
72.2410295579
 10
67.2042161657
 20
71.9063968926
 10
67.1534240345
 20
71.8311029687
  0
LINE
  5
30E
100
AcDbEntity
  8
DEFAULT_2
100
AcDbLine
 62
8
  6
HIDDEN
 10
53.4802875239
 20
50.6323750354
 11
53.6288739925
 21
50.8644258429
  0
LINE
  5
30F
100
AcDbEntity
  8
0
100
AcDbLine
 62
7
  6
CONTINUOUS
 10
44.3288739925
 20
46.1323750354
 11
44.8288739925
 21
46.6323750354
  0
LINE
  5
310
100
AcDbEntity
  8
0
100
AcDbLine
 62
7
  6
CONTINUOUS
 10
53.3288739925
 20
54.6323750354
 11
53.8288739925
 21
55.1323750354
  0
LINE
  5
311
100
AcDbEntity
  8
A_RUNDUNGEN
100
AcDbLine
 62
8
  6
HIDDEN
 10
50.9167419581
 20
51.720243001
 11
53.3288739925
 21
54.1323750354
  0
LINE
  5
312
100
AcDbEntity
  8
DEFAULT_2
100
AcDbLine
 62
8
  6
HIDDEN
 10
46.6288739925
 20
66.7323750354
 11
46.3288739925
 21
66.7323750354
  0
LINE
  5
313
100
AcDbEntity
  8
DEFAULT_2
100
AcDbLine
 62
8
  6
HIDDEN
 10
51.0188739925
 20
72.5323750354
 11
48.414377186
 21
73.7468718419
  0
LINE
  5
314
100
AcDbEntity
  8
0
100
AcDbLine
 62
7
  6
CONTINUOUS
 10
78.0944384296
 20
58.1323750354
 11
75.3288739925
 21
59.7126975708
  0
LWPOLYLINE
  5
315
100
AcDbEntity
  8
DEFAULT_2
100
AcDbPolyline
 62
8
  6
HIDDEN
 90
4
 70
0
 10
63.4508920258
 20
69.9547059839
 10
63.553463466
 20
69.7458915913
 10
63.7451132906
 20
69.3208546488
 10
63.8853796073
 20
68.987727207
  0
LWPOLYLINE
  5
316
100
AcDbEntity
  8
DEFAULT_2
100
AcDbPolyline
 62
8
  6
HIDDEN
 90
4
 70
0
 10
55.9504498549
 20
85.9555910315
 10
56.0590885496
 20
85.734221084
 10
56.248592373
 20
85.3133279969
 10
56.3855897488
 20
84.9878557481
  0
LWPOLYLINE
  5
317
100
AcDbEntity
  8
DEFAULT_2
100
AcDbPolyline
 62
8
  6
HIDDEN
 90
4
 70
0
 10
55.9088289921
 20
88.2509386387
 10
55.7929121313
 20
88.5045842575
 10
55.6059579075
 20
88.9444876331
 10
55.4783003876
 20
89.2611167146
  0
LWPOLYLINE
  5
318
100
AcDbEntity
  8
DEFAULT_2
100
AcDbPolyline
 62
8
  6
HIDDEN
 90
4
 70
0
 10
60.9086119699
 20
72.2517162653
 10
60.7934775
 20
72.5037262972
 10
60.6082170389
 20
72.9391828119
 10
60.4789546028
 20
73.259418939
  0
LWPOLYLINE
  5
319
100
AcDbEntity
  8
DEFAULT_2
100
AcDbPolyline
 62
8
  6
HIDDEN
 90
4
 70
0
 10
63.4086879711
 20
72.251575646
 10
63.2928803691
 20
72.5050422204
 10
63.1061398816
 20
72.9442720427
 10
62.9787133089
 20
73.2601552841
  0
LINE
  5
31A
100
AcDbEntity
  8
0
100
AcDbLine
 62
7
  6
CONTINUOUS
 10
66.3288739925
 20
32.1323750354
 11
66.3288739925
 21
35.1323750354
  0
LINE
  5
31B
100
AcDbEntity
  8
DEFAULT_2
100
AcDbLine
 62
8
  6
HIDDEN
 10
70.375166404
 20
86.9611975557
 11
70.5137170605
 21
87.940685325
  0
LWPOLYLINE
  5
31C
100
AcDbEntity
  8
DEFAULT_2
100
AcDbPolyline
 62
8
  6
HIDDEN
 90
4
 70
0
 10
69.3259691253
 20
70.1660517526
 10
69.4702515362
 20
70.4960356024
 10
69.6466546992
 20
70.7972245414
 10
69.7468263203
 20
70.9051169989
  0
LWPOLYLINE
  5
31D
100
AcDbEntity
  8
DEFAULT_2
100
AcDbPolyline
 62
8
  6
HIDDEN
 90
4
 70
0
 10
69.9721693315
 20
72.0416515401
 10
69.8654625246
 20
71.8632929759
 10
69.7178333168
 20
71.7085268769
 10
69.6291647743
 20
71.665569838
  0
LINE
  5
31E
100
AcDbEntity
  8
DEFAULT_2
100
AcDbLine
 62
8
  6
HIDDEN
 10
70.5722863223
 20
71.1896716755
 11
70.375166404
 21
70.9611975557
  0
LINE
  5
31F
100
AcDbEntity
  8
DEFAULT_2
100
AcDbLine
 62
8
  6
HIDDEN
 10
71.3288739925
 20
71.1323750354
 11
69.4023877062
 21
70.705283308
  0
LINE
  5
320
100
AcDbEntity
  8
DEFAULT_2
100
AcDbLine
 62
8
  6
HIDDEN
 10
68.5664828554
 20
70.5199676641
 11
66.9022510458
 21
70.1510163545
  0
LINE
  5
321
100
AcDbEntity
  8
DEFAULT_2
100
AcDbLine
 62
8
  6
HIDDEN
 10
65.0138820874
 20
69.7323750354
 11
66.2146408159
 21
69.9985768366
  0
LWPOLYLINE
  5
322
100
AcDbEntity
  8
DEFAULT_2
100
AcDbPolyline
 62
8
  6
HIDDEN
 90
4
 70
0
 10
51.187083875
 20
69.7197941387
 10
51.3539903413
 20
69.7250694395
 10
51.6708208131
 20
69.7313424181
 10
51.9016301861
 20
69.7327808003
  0
LWPOLYLINE
  5
323
100
AcDbEntity
  8
DEFAULT_2
100
AcDbPolyline
 62
8
  6
HIDDEN
 90
4
 70
0
 10
56.1872586399
 20
69.7198117258
 10
56.353706141
 20
69.7250461048
 10
56.6707044043
 20
69.7312394875
 10
56.9021614264
 20
69.7325984563
  0
LWPOLYLINE
  5
324
100
AcDbEntity
  8
DEFAULT_2
100
AcDbPolyline
 62
8
  6
HIDDEN
 90
4
 70
0
 10
53.687316416
 20
69.7199014088
 10
53.8535655853
 20
69.7251184469
 10
54.1706491219
 20
69.7312747153
 10
54.4023950348
 20
69.7325970732
  0
LWPOLYLINE
  5
325
100
AcDbEntity
  8
DEFAULT_2
100
AcDbPolyline
 62
8
  6
HIDDEN
 90
4
 70
0
 10
58.6879302769
 20
69.7197689869
 10
58.8507833694
 20
69.7248345458
 10
59.1673355765
 20
69.7310333131
 10
59.4018032728
 20
69.7324687931
  0
LWPOLYLINE
  5
326
100
AcDbEntity
  8
DEFAULT_2
100
AcDbPolyline
 62
8
  6
HIDDEN
 90
4
 70
0
 10
63.6877867884
 20
69.720057725
 10
63.8535090087
 20
69.7251997448
 10
64.170550106
 20
69.7312471553
 10
64.4027320381
 20
69.7325058518
  0
LWPOLYLINE
  5
327
100
AcDbEntity
  8
DEFAULT_2
100
AcDbPolyline
 62
8
  6
HIDDEN
 90
4
 70
0
 10
61.1879865184
 20
69.7203907249
 10
61.3536443313
 20
69.7255014623
 10
61.6707537427
 20
69.7314820538
 10
61.9030786338
 20
69.7326834148
  0
LINE
  5
328
100
AcDbEntity
  8
DEFAULT_2
100
AcDbLine
 62
8
  6
HIDDEN
 10
46.3288739925
 20
69.718161473
 11
46.5288739925
 21
69.718161473
  0
LINE
  5
329
100
AcDbEntity
  8
DEFAULT_2
100
AcDbLine
 62
8
  6
HIDDEN
 10
65.0138820874
 20
69.7323750354
 11
51.0188739925
 21
69.7323750354
  0
LINE
  5
32A
100
AcDbEntity
  8
DEFAULT_2
100
AcDbLine
 62
8
  6
HIDDEN
 10
50.7105038106
 20
70.7597346827
 11
50.9962739464
 21
70.7346994763
  0
LINE
  5
32B
100
AcDbEntity
  8
DEFAULT_2
100
AcDbLine
 62
8
  6
HIDDEN
 10
46.3288739925
 20
71.6323750354
 11
48.1288739925
 21
71.3149864701
  0
LINE
  5
32C
100
AcDbEntity
  8
DEFAULT_2
100
AcDbLine
 62
8
  6
HIDDEN
 10
46.3288739925
 20
73.5573750354
 11
48.1288739925
 21
73.2399864701
  0
LINE
  5
32D
100
AcDbEntity
  8
DEFAULT_2
100
AcDbLine
 62
8
  6
HIDDEN
 10
57.4952261665
 20
72.5282045354
 11
57.4378013043
 21
72.5449053775
  0
LWPOLYLINE
  5
32E
100
AcDbEntity
  8
DEFAULT_2
100
AcDbPolyline
 62
8
  6
HIDDEN
 90
4
 70
0
 10
65.9457008167
 20
70.2106733416
 10
65.9877353188
 20
70.1348334207
 10
66.1816553274
 20
69.7470212821
 10
66.3291853424
 20
69.4172903855
  0
LWPOLYLINE
  5
32F
100
AcDbEntity
  8
DEFAULT_2
100
AcDbPolyline
 62
8
  6
HIDDEN
 90
4
 70
0
 10
58.4505948188
 20
85.9551645745
 10
58.5590136369
 20
85.7341804604
 10
58.7481995836
 20
85.3142523866
 10
58.8850575193
 20
84.9894249997
  0
LWPOLYLINE
  5
330
100
AcDbEntity
  8
DEFAULT_2
100
AcDbPolyline
 62
8
  6
HIDDEN
 90
4
 70
0
 10
65.9056148835
 20
72.0989524219
 10
65.7980478695
 20
72.3214263162
 10
65.6079205292
 20
72.7536760255
 10
65.4636792364
 20
73.1058209565
  0
LWPOLYLINE
  5
331
100
AcDbEntity
  8
DEFAULT_2
100
AcDbPolyline
 62
8
  6
HIDDEN
 90
4
 70
0
 10
58.4090646564
 20
88.2507283799
 10
58.29528158
 20
88.4993523739
 10
58.1083592619
 20
88.9381652707
 10
57.9790141151
 20
89.2584082304
  0
LINE
  5
332
100
AcDbEntity
  8
DEFAULT_2
100
AcDbLine
 62
8
  6
HIDDEN
 10
69.3288739925
 20
49.1323750354
 11
69.3288739925
 21
43.1323750354
  0
LINE
  5
333
100
AcDbEntity
  8
A_RUNDUNGEN
100
AcDbLine
 62
7
  6
CONTINUOUS
 10
69.3288739925
 20
50.832375019
 11
69.3288739925
 21
41.4323750517
  0
LINE
  5
334
100
AcDbEntity
  8
0
100
AcDbLine
 62
7
  6
CONTINUOUS
 10
69.3288739925
 20
37.6323750354
 11
69.3288739925
 21
41.4323750354
  0
LINE
  5
335
100
AcDbEntity
  8
0
100
AcDbLine
 62
7
  6
CONTINUOUS
 10
69.3288739925
 20
50.832375019
 11
69.3288739925
 21
60.6323750354
  0
LINE
  5
336
100
AcDbEntity
  8
0
100
AcDbLine
 62
7
  6
CONTINUOUS
 10
70.8288739925
 20
54.6323750354
 11
70.8288739925
 21
55.1323750354
  0
LINE
  5
337
100
AcDbEntity
  8
0
100
AcDbLine
 62
7
  6
CONTINUOUS
 10
71.1288739925
 20
54.8323750354
 11
71.1288739925
 21
55.1323750354
  0
LINE
  5
338
100
AcDbEntity
  8
0
100
AcDbLine
 62
7
  6
CONTINUOUS
 10
71.3288739925
 20
37.1323750354
 11
71.3288739925
 21
41.1323750354
  0
LINE
  5
339
100
AcDbEntity
  8
0
100
AcDbLine
 62
7
  6
CONTINUOUS
 10
71.3288739925
 20
51.1323750354
 11
71.3288739925
 21
61.1323750354
  0
LINE
  5
33A
100
AcDbEntity
  8
DEFAULT_2
100
AcDbLine
 62
8
  6
HIDDEN
 10
70.375166404
 20
70.9611975557
 11
70.5137170605
 21
71.940685325
  0
LINE
  5
33B
100
AcDbEntity
  8
0
100
AcDbLine
 62
7
  6
CONTINUOUS
 10
53.8288739925
 20
49.1323750354
 11
53.3288739925
 21
48.6323750354
  0
LINE
  5
33C
100
AcDbEntity
  8
DEFAULT_2
100
AcDbLine
 62
8
  6
HIDDEN
 10
46.3288739925
 20
68.7073750354
 11
48.1288739925
 21
69.0247636006
  0
LINE
  5
33D
100
AcDbEntity
  8
A_ACHSEN
100
AcDbLine
 62
7
  6
CENTER
 10
43.3288739925
 20
71.1323750354
 11
74.3288739925
 21
71.1323750354
  0
LINE
  5
33E
100
AcDbEntity
  8
DEFAULT_2
100
AcDbLine
 62
8
  6
HIDDEN
 10
64.9794833454
 20
72.5323750354
 11
51.0188739925
 21
72.5323750354
  0
LINE
  5
33F
100
AcDbEntity
  8
DEFAULT_2
100
AcDbLine
 62
8
  6
HIDDEN
 10
46.3288739925
 20
72.5465885977
 11
46.5288739925
 21
72.5465885977
  0
LWPOLYLINE
  5
340
100
AcDbEntity
  8
DEFAULT_2
100
AcDbPolyline
 62
8
  6
HIDDEN
 90
4
 70
0
 10
60.6528309754
 20
72.5322231166
 10
60.4205706895
 20
72.5334644413
 10
60.1035356446
 20
72.5394850606
 10
59.937905167
 20
72.5446100087
  0
LWPOLYLINE
  5
341
100
AcDbEntity
  8
DEFAULT_2
100
AcDbPolyline
 62
8
  6
HIDDEN
 90
4
 70
0
 10
53.1523989442
 20
72.5323846193
 10
52.9201329797
 20
72.5336863662
 10
52.6032677503
 20
72.5397512019
 10
52.4378634824
 20
72.5448788607
  0
LWPOLYLINE
  5
342
100
AcDbEntity
  8
DEFAULT_2
100
AcDbPolyline
 62
8
  6
HIDDEN
 90
4
 70
0
 10
63.1525128007
 20
72.5320949739
 10
62.9206597099
 20
72.5333998669
 10
62.6035325581
 20
72.5395386878
 10
62.4373427748
 20
72.5447484466
  0
LWPOLYLINE
  5
343
100
AcDbEntity
  8
DEFAULT_2
100
AcDbPolyline
 62
8
  6
HIDDEN
 90
4
 70
0
 10
58.152356713
 20
72.5323709613
 10
57.9201314595
 20
72.5336832551
 10
57.6032594635
 20
72.5397662614
 10
57.4378013043
 20
72.5449053775
  0
LWPOLYLINE
  5
344
100
AcDbEntity
  8
DEFAULT_2
100
AcDbPolyline
 62
8
  6
HIDDEN
 90
4
 70
0
 10
55.6521334192
 20
72.5321771184
 10
55.420731717
 20
72.5335380878
 10
55.1037611594
 20
72.5397291494
 10
54.9372910746
 20
72.5449607216
  0
LINE
  5
345
100
AcDbEntity
  8
DEFAULT_2
100
AcDbLine
 62
8
  6
HIDDEN
 10
64.6593784789
 20
71.0183785018
 11
64.991978525
 21
71.008369781
  0
LINE
  5
346
100
AcDbEntity
  8
DEFAULT_2
100
AcDbLine
 62
8
  6
HIDDEN
 10
58.1604262588
 20
72.5320807371
 11
58.152356713
 21
72.5323709613
  0
LINE
  5
347
100
AcDbEntity
  8
DEFAULT_2
100
AcDbLine
 62
8
  6
HIDDEN
 10
64.3714949915
 20
71.3490019117
 11
64.7027011846
 21
71.33372988
  0
LINE
  5
348
100
AcDbEntity
  8
DEFAULT_2
100
AcDbLine
 62
8
  6
HIDDEN
 10
71.3288739925
 20
71.1323750354
 11
70.652267717
 21
71.2823750354
  0
LINE
  5
349
100
AcDbEntity
  8
DEFAULT_2
100
AcDbLine
 62
8
  6
HIDDEN
 10
70.118921896
 20
71.4006149572
 11
68.1522669693
 21
71.8366118577
  0
LINE
  5
34A
100
AcDbEntity
  8
DEFAULT_2
100
AcDbLine
 62
8
  6
HIDDEN
 10
67.4260640109
 20
71.9976071776
 11
65.6522717918
 21
72.3908474452
  0
LINE
  5
34B
100
AcDbEntity
  8
DEFAULT_2
100
AcDbLine
 62
8
  6
HIDDEN
 10
64.991978525
 20
71.008369781
 11
64.3267784328
 21
71.1966800679
  0
LINE
  5
34C
100
AcDbEntity
  8
DEFAULT_2
100
AcDbLine
 62
8
  6
HIDDEN
 10
70.118921896
 20
71.4006149572
 11
70.2712627993
 21
71.3504034193
  0
LINE
  5
34D
100
AcDbEntity
  8
DEFAULT_2
100
AcDbLine
 62
8
  6
HIDDEN
 10
64.7027011846
 20
71.33372988
 11
65.0352664479
 21
71.1604220465
  0
LINE
  5
34E
100
AcDbEntity
  8
DEFAULT_2
100
AcDbLine
 62
8
  6
HIDDEN
 10
48.414377186
 20
89.7468718419
 11
46.6288739925
 21
91.5323750354
  0
LWPOLYLINE
  5
34F
100
AcDbEntity
  8
DEFAULT_2
100
AcDbPolyline
 62
8
  6
HIDDEN
 90
4
 70
0
 10
68.3570026692
 20
70.5916301339
 10
68.4312010827
 20
70.5162757389
 10
68.6241879494
 20
70.2427856255
 10
68.7664466784
 20
69.9761923562
  0
LWPOLYLINE
  5
350
100
AcDbEntity
  8
DEFAULT_2
100
AcDbPolyline
 62
8
  6
HIDDEN
 90
4
 70
0
 10
68.4820174405
 20
71.5588754534
 10
68.361003727
 20
71.7426843861
 10
68.1598609196
 20
72.138145207
 10
68.0148947741
 20
72.4754512353
  0
LWPOLYLINE
  5
351
100
AcDbEntity
  8
DEFAULT_2
100
AcDbPolyline
 62
8
  6
HIDDEN
 90
4
 70
0
 10
60.9509179427
 20
85.954590042
 10
61.0590682236
 20
85.7339321539
 10
61.2480137254
 20
85.3140025051
 10
61.3848909715
 20
84.9889549098
  0
LWPOLYLINE
  5
352
100
AcDbEntity
  8
DEFAULT_2
100
AcDbPolyline
 62
8
  6
HIDDEN
 90
4
 70
0
 10
60.9086119699
 20
88.2517162653
 10
60.7934775
 20
88.5037262972
 10
60.6082170389
 20
88.9391828119
 10
60.4789546028
 20
89.259418939
  0
LINE
  5
353
100
AcDbEntity
  8
DEFAULT_2
100
AcDbLine
 62
8
  6
HIDDEN
 10
70.5137170605
 20
71.940685325
 11
70.652267717
 21
71.2823750354
  0
LINE
  5
354
100
AcDbEntity
  8
A_FASEN
100
AcDbLine
 62
7
  6
CONTINUOUS
 10
73.0288739925
 20
41.1323750354
 11
73.0288739925
 21
51.1323750354
  0
LINE
  5
355
100
AcDbEntity
  8
A_FASEN
100
AcDbLine
 62
7
  6
CONTINUOUS
 10
73.3288739925
 20
41.433993966
 11
73.3288739925
 21
50.8307561047
  0
LINE
  5
356
100
AcDbEntity
  8
DEFAULT_2
100
AcDbLine
 62
8
  6
HIDDEN
 10
73.3288739925
 20
43.8229739586
 11
73.3288739925
 21
48.4417761121
  0
LINE
  5
357
100
AcDbEntity
  8
0
100
AcDbLine
 62
7
  6
CONTINUOUS
 10
74.3288739925
 20
32.1323750354
 11
74.3288739925
 21
62.1323750354
  0
LINE
  5
358
100
AcDbEntity
  8
DEFAULT_2
100
AcDbLine
 62
8
  6
HIDDEN
 10
51.3288739925
 20
70.9513027046
 11
51.0126959568
 21
70.8621980065
  0
LINE
  5
359
100
AcDbEntity
  8
DEFAULT_2
100
AcDbLine
 62
8
  6
HIDDEN
 10
46.3288739925
 20
70.6323750354
 11
48.1288739925
 21
70.9497636006
  0
LINE
  5
35A
100
AcDbEntity
  8
DEFAULT_2
100
AcDbLine
 62
8
  6
HIDDEN
 10
46.6288739925
 20
75.5323750354
 11
46.3288739925
 21
75.5323750354
  0
LWPOLYLINE
  5
35B
100
AcDbEntity
  8
DEFAULT_2
100
AcDbPolyline
 62
8
  6
HIDDEN
 90
3
 70
0
 10
70.2712639481
 20
71.3504039177
 10
70.0373217623
 20
71.4898996709
 10
69.9240538495
 20
71.5795099682
  0
LINE
  5
35C
100
AcDbEntity
  8
DEFAULT_2
100
AcDbLine
 62
8
  6
HIDDEN
 10
57.9790141151
 20
89.2584082304
 11
57.8278262127
 21
89.4799429339
  0
LWPOLYLINE
  5
35D
100
AcDbEntity
  8
DEFAULT_2
100
AcDbPolyline
 62
8
  6
HIDDEN
 90
4
 70
0
 10
63.4508920258
 20
85.9547059839
 10
63.553463466
 20
85.7458915913
 10
63.7451132906
 20
85.3208546488
 10
63.8853796073
 20
84.987727207
  0
LWPOLYLINE
  5
35E
100
AcDbEntity
  8
DEFAULT_2
100
AcDbPolyline
 62
8
  6
HIDDEN
 90
4
 70
0
 10
63.4086879711
 20
88.251575646
 10
63.2928803691
 20
88.5050422204
 10
63.1061398816
 20
88.9442720427
 10
62.9787133089
 20
89.2601552841
  0
LINE
  5
35F
100
AcDbEntity
  8
0
100
AcDbLine
 62
7
  6
CONTINUOUS
 10
75.3288739925
 20
59.7126975708
 11
75.3288739925
 21
61.1323750354
  0
LWPOLYLINE
  5
360
100
AcDbEntity
  8
DEFAULT_2
100
AcDbPolyline
 62
8
  6
HIDDEN
 90
4
 70
0
 10
65.9457008167
 20
86.2106733416
 10
65.9877353188
 20
86.1348334207
 10
66.1816553274
 20
85.7470212821
 10
66.3291853424
 20
85.4172903855
  0
LWPOLYLINE
  5
361
100
AcDbEntity
  8
DEFAULT_2
100
AcDbPolyline
 62
8
  6
HIDDEN
 90
4
 70
0
 10
65.9056148835
 20
88.0989524219
 10
65.7980478695
 20
88.3214263162
 10
65.6079205292
 20
88.7536760255
 10
65.4636792364
 20
89.1058209565
  0
LINE
  5
362
100
AcDbEntity
  8
DEFAULT_2
100
AcDbLine
 62
8
  6
HIDDEN
 10
70.5137170605
 20
87.940685325
 11
70.652267717
 21
87.2823750354
  0
LINE
  5
363
100
AcDbEntity
  8
DEFAULT_2
100
AcDbLine
 62
8
  6
HIDDEN
 10
69.7515237233
 20
46.1323750354
 11
71.0848570566
 21
48.4417761121
  0
LINE
  5
364
100
AcDbEntity
  8
0
100
AcDbLine
 62
7
  6
CONTINUOUS
 10
60.9288739925
 20
42.6323750354
 11
60.4288739925
 21
42.1323750354
  0
LINE
  5
365
100
AcDbEntity
  8
DEFAULT_2
100
AcDbLine
 62
8
  6
HIDDEN
 10
51.0188739925
 20
88.5323750354
 11
48.414377186
 21
89.7468718419
  0
LWPOLYLINE
  5
366
100
AcDbEntity
  8
DEFAULT_2
100
AcDbPolyline
 62
8
  6
HIDDEN
 90
4
 70
0
 10
68.4820174405
 20
87.5588754534
 10
68.361003727
 20
87.7426843861
 10
68.1598609196
 20
88.138145207
 10
68.0148947741
 20
88.4754512353
  0
LINE
  5
367
100
AcDbEntity
  8
0
100
AcDbLine
 62
7
  6
CONTINUOUS
 10
86.3288739925
 20
59.7126975708
 11
83.5633095554
 21
58.1323750354
  0
LINE
  5
368
100
AcDbEntity
  8
DEFAULT_2
100
AcDbLine
 62
8
  6
HIDDEN
 10
46.6288739925
 20
82.7323750354
 11
46.3288739925
 21
82.7323750354
  0
LWPOLYLINE
  5
369
100
AcDbEntity
  8
DEFAULT_2
100
AcDbPolyline
 62
8
  6
HIDDEN
 90
4
 70
0
 10
68.3570026692
 20
86.5916301339
 10
68.4312010827
 20
86.5162757389
 10
68.6241879494
 20
86.2427856255
 10
68.7664466784
 20
85.9761923562
  0
LINE
  5
36A
100
AcDbEntity
  8
0
100
AcDbLine
 62
7
  6
CONTINUOUS
 10
87.3288739925
 20
59.1323750354
 11
83.8288739925
 21
57.1323750354
  0
LINE
  5
36B
100
AcDbEntity
  8
DEFAULT_2
100
AcDbLine
 62
8
  6
HIDDEN
 10
71.3288739925
 20
87.1323750354
 11
69.4023877062
 21
86.705283308
  0
LINE
  5
36C
100
AcDbEntity
  8
DEFAULT_2
100
AcDbLine
 62
8
  6
HIDDEN
 10
68.5664828554
 20
86.5199676641
 11
66.9022510458
 21
86.1510163545
  0
LINE
  5
36D
100
AcDbEntity
  8
DEFAULT_2
100
AcDbLine
 62
8
  6
HIDDEN
 10
65.0138820874
 20
85.7323750354
 11
66.2146408159
 21
85.9985768366
  0
LWPOLYLINE
  5
36E
100
AcDbEntity
  8
DEFAULT_2
100
AcDbPolyline
 62
8
  6
HIDDEN
 90
4
 70
0
 10
51.187083875
 20
85.7197941387
 10
51.3539903413
 20
85.7250694395
 10
51.6708208131
 20
85.7313424181
 10
51.9016301861
 20
85.7327808003
  0
LWPOLYLINE
  5
36F
100
AcDbEntity
  8
DEFAULT_2
100
AcDbPolyline
 62
8
  6
HIDDEN
 90
4
 70
0
 10
56.1872586399
 20
85.7198117258
 10
56.353706141
 20
85.7250461048
 10
56.6707044043
 20
85.7312394875
 10
56.9021614264
 20
85.7325984563
  0
LWPOLYLINE
  5
370
100
AcDbEntity
  8
DEFAULT_2
100
AcDbPolyline
 62
8
  6
HIDDEN
 90
4
 70
0
 10
53.687316416
 20
85.7199014088
 10
53.8535655853
 20
85.7251184469
 10
54.1706491219
 20
85.7312747153
 10
54.4023950348
 20
85.7325970732
  0
LWPOLYLINE
  5
371
100
AcDbEntity
  8
DEFAULT_2
100
AcDbPolyline
 62
8
  6
HIDDEN
 90
4
 70
0
 10
58.6879302769
 20
85.7197689869
 10
58.8507833694
 20
85.7248345458
 10
59.1673355765
 20
85.7310333131
 10
59.4018032728
 20
85.7324687931
  0
LWPOLYLINE
  5
372
100
AcDbEntity
  8
DEFAULT_2
100
AcDbPolyline
 62
8
  6
HIDDEN
 90
4
 70
0
 10
63.6877867884
 20
85.720057725
 10
63.8535090087
 20
85.7251997448
 10
64.170550106
 20
85.7312471553
 10
64.4027320381
 20
85.7325058518
  0
LWPOLYLINE
  5
373
100
AcDbEntity
  8
DEFAULT_2
100
AcDbPolyline
 62
8
  6
HIDDEN
 90
4
 70
0
 10
61.1879865184
 20
85.7203907249
 10
61.3536443313
 20
85.7255014623
 10
61.6707537427
 20
85.7314820538
 10
61.9030786338
 20
85.7326834148
  0
LINE
  5
374
100
AcDbEntity
  8
DEFAULT_2
100
AcDbLine
 62
8
  6
HIDDEN
 10
46.3288739925
 20
85.718161473
 11
46.5288739925
 21
85.718161473
  0
LINE
  5
375
100
AcDbEntity
  8
DEFAULT_2
100
AcDbLine
 62
8
  6
HIDDEN
 10
65.0138820874
 20
85.7323750354
 11
51.0188739925
 21
85.7323750354
  0
LINE
  5
376
100
AcDbEntity
  8
DEFAULT_2
100
AcDbLine
 62
8
  6
HIDDEN
 10
50.7105038106
 20
86.7597346827
 11
50.9962739464
 21
86.7346994763
  0
LINE
  5
377
100
AcDbEntity
  8
DEFAULT_2
100
AcDbLine
 62
8
  6
HIDDEN
 10
46.3288739925
 20
87.6323750354
 11
48.1288739925
 21
87.3149864701
  0
LINE
  5
378
100
AcDbEntity
  8
DEFAULT_2
100
AcDbLine
 62
8
  6
HIDDEN
 10
46.3288739925
 20
89.5573750354
 11
48.1288739925
 21
89.2399864701
  0
LINE
  5
379
100
AcDbEntity
  8
DEFAULT_2
100
AcDbLine
 62
8
  6
HIDDEN
 10
64.991978525
 20
87.008369781
 11
64.3267784328
 21
87.1966800679
  0
LINE
  5
37A
100
AcDbEntity
  8
DEFAULT_2
100
AcDbLine
 62
8
  6
HIDDEN
 10
57.4952261665
 20
88.5282045354
 11
57.4378013043
 21
88.5449053775
  0
LINE
  5
37B
100
AcDbEntity
  8
DEFAULT_2
100
AcDbLine
 62
8
  6
HIDDEN
 10
64.7027011846
 20
87.33372988
 11
65.0352664479
 21
87.1604220465
  0
LINE
  5
37C
100
AcDbEntity
  8
0
100
AcDbLine
 62
7
  6
CONTINUOUS
 10
86.3288739925
 20
61.1323750354
 11
86.3288739925
 21
59.7126975708
  0
LINE
  5
37D
100
AcDbEntity
  8
0
100
AcDbLine
 62
7
  6
CONTINUOUS
 10
87.3288739925
 20
59.1323750354
 11
87.3288739925
 21
102.1323750354
  0
LINE
  5
37E
100
AcDbEntity
  8
DEFAULT_2
100
AcDbLine
 62
8
  6
HIDDEN
 10
46.3288739925
 20
84.7073750354
 11
48.1288739925
 21
85.0247636006
  0
LINE
  5
37F
100
AcDbEntity
  8
A_ACHSEN
100
AcDbLine
 62
7
  6
CENTER
 10
43.3288739925
 20
87.1323750354
 11
74.3288739925
 21
87.1323750354
  0
LINE
  5
380
100
AcDbEntity
  8
DEFAULT_2
100
AcDbLine
 62
8
  6
HIDDEN
 10
64.9794833454
 20
88.5323750354
 11
51.0188739925
 21
88.5323750354
  0
LINE
  5
381
100
AcDbEntity
  8
DEFAULT_2
100
AcDbLine
 62
8
  6
HIDDEN
 10
46.3288739925
 20
88.5465885977
 11
46.5288739925
 21
88.5465885977
  0
LWPOLYLINE
  5
382
100
AcDbEntity
  8
DEFAULT_2
100
AcDbPolyline
 62
8
  6
HIDDEN
 90
4
 70
0
 10
60.6528309754
 20
88.5322231166
 10
60.4205706895
 20
88.5334644413
 10
60.1035356446
 20
88.5394850606
 10
59.937905167
 20
88.5446100087
  0
LWPOLYLINE
  5
383
100
AcDbEntity
  8
DEFAULT_2
100
AcDbPolyline
 62
8
  6
HIDDEN
 90
4
 70
0
 10
53.1523989442
 20
88.5323846193
 10
52.9201329797
 20
88.5336863662
 10
52.6032677503
 20
88.5397512019
 10
52.4378634824
 20
88.5448788607
  0
LWPOLYLINE
  5
384
100
AcDbEntity
  8
DEFAULT_2
100
AcDbPolyline
 62
8
  6
HIDDEN
 90
4
 70
0
 10
63.1525128007
 20
88.5320949739
 10
62.9206597099
 20
88.5333998669
 10
62.6035325581
 20
88.5395386878
 10
62.4373427748
 20
88.5447484466
  0
LWPOLYLINE
  5
385
100
AcDbEntity
  8
DEFAULT_2
100
AcDbPolyline
 62
8
  6
HIDDEN
 90
4
 70
0
 10
58.152356713
 20
88.5323709613
 10
57.9201314595
 20
88.5336832551
 10
57.6032594635
 20
88.5397662614
 10
57.4378013043
 20
88.5449053775
  0
LWPOLYLINE
  5
386
100
AcDbEntity
  8
DEFAULT_2
100
AcDbPolyline
 62
8
  6
HIDDEN
 90
4
 70
0
 10
55.6521334192
 20
88.5321771184
 10
55.420731717
 20
88.5335380878
 10
55.1037611594
 20
88.5397291494
 10
54.9372910746
 20
88.5449607216
  0
LINE
  5
387
100
AcDbEntity
  8
DEFAULT_2
100
AcDbLine
 62
8
  6
HIDDEN
 10
64.6593784789
 20
87.0183785018
 11
64.991978525
 21
87.008369781
  0
LINE
  5
388
100
AcDbEntity
  8
DEFAULT_2
100
AcDbLine
 62
8
  6
HIDDEN
 10
58.1604262588
 20
88.5320807371
 11
58.152356713
 21
88.5323709613
  0
LINE
  5
389
100
AcDbEntity
  8
DEFAULT_2
100
AcDbLine
 62
8
  6
HIDDEN
 10
64.3714949915
 20
87.3490019117
 11
64.7027011846
 21
87.33372988
  0
LINE
  5
38A
100
AcDbEntity
  8
DEFAULT_2
100
AcDbLine
 62
8
  6
HIDDEN
 10
71.3288739925
 20
87.1323750354
 11
70.652267717
 21
87.2823750354
  0
LINE
  5
38B
100
AcDbEntity
  8
DEFAULT_2
100
AcDbLine
 62
8
  6
HIDDEN
 10
70.118921896
 20
87.4006149572
 11
68.1522669693
 21
87.8366118577
  0
LINE
  5
38C
100
AcDbEntity
  8
DEFAULT_2
100
AcDbLine
 62
8
  6
HIDDEN
 10
67.4260640109
 20
87.9976071776
 11
65.6522717918
 21
88.3908474452
  0
LINE
  5
38D
100
AcDbEntity
  8
DEFAULT_2
100
AcDbLine
 62
8
  6
HIDDEN
 10
70.118921896
 20
87.4006149572
 11
70.2712627993
 21
87.3504034193
  0
LWPOLYLINE
  5
38E
100
AcDbEntity
  8
DEFAULT_2
100
AcDbPolyline
 62
8
  6
HIDDEN
 90
3
 70
0
 10
70.2712639481
 20
87.3504039177
 10
70.0373217623
 20
87.4898996709
 10
69.9240538495
 20
87.5795099682
  0
LINE
  5
38F
100
AcDbEntity
  8
A_FASEN
100
AcDbLine
 62
7
  6
CONTINUOUS
 10
73.3288739925
 20
41.4323750354
 11
73.0288739925
 21
41.1323750354
  0
LINE
  5
390
100
AcDbEntity
  8
DEFAULT_2
100
AcDbLine
 62
8
  6
HIDDEN
 10
51.3288739925
 20
86.9513027046
 11
51.0126959568
 21
86.8621980065
  0
LINE
  5
391
100
AcDbEntity
  8
DEFAULT_2
100
AcDbLine
 62
8
  6
HIDDEN
 10
46.3288739925
 20
86.6323750354
 11
48.1288739925
 21
86.9497636006
  0
LINE
  5
392
100
AcDbEntity
  8
DEFAULT_2
100
AcDbLine
 62
8
  6
HIDDEN
 10
46.6288739925
 20
91.5323750354
 11
46.3288739925
 21
91.5323750354
  0
LINE
  5
393
100
AcDbEntity
  8
0
100
AcDbLine
 62
7
  6
CONTINUOUS
 10
72.1193035553
 20
32.8570212321
 11
73.6042277958
 21
34.3419454726
  0
LINE
  5
394
100
AcDbEntity
  8
0
100
AcDbLine
 62
7
  6
CONTINUOUS
 10
44.3288739925
 20
97.1323750354
 11
50.3288739925
 21
97.1323750354
  0
LINE
  5
395
100
AcDbEntity
  8
0
100
AcDbLine
 62
7
  6
CONTINUOUS
 10
87.3288739925
 20
102.1323750354
 11
44.3288739925
 21
102.1323750354
  0
ARC
  5
396
100
AcDbEntity
  8
DEFAULT_2
100
AcDbCircle
 62
8
  6
HIDDEN
 10
17.3651987844
 20
-8.0209988846
 40
106.2962419724
100
AcDbArc
 50
63.3809060529
 51
63.7600278128
  0
ARC
  5
397
100
AcDbEntity
  8
DEFAULT_2
100
AcDbCircle
 62
8
  6
HIDDEN
 10
17.3651987844
 20
-24.0209988846
 40
106.2962419724
100
AcDbArc
 50
63.3809060529
 51
63.7600278128
  0
ARC
  5
398
100
AcDbEntity
  8
DEFAULT_2
100
AcDbCircle
 62
8
  6
HIDDEN
 10
80.1646817739
 20
82.7748498262
 40
16.4435934312
100
AcDbArc
 50
163.9488423612
 51
164.4006437742
  0
ARC
  5
399
100
AcDbEntity
  8
DEFAULT_2
100
AcDbCircle
 62
8
  6
HIDDEN
 10
80.1646817716
 20
66.7748498268
 40
16.4435934287
100
AcDbArc
 50
163.9488423612
 51
164.4006437742
  0
ARC
  5
39A
100
AcDbEntity
  8
DEFAULT_2
100
AcDbCircle
 62
8
  6
HIDDEN
 10
57.8521913264
 20
89.2125782474
 40
7.47046942
100
AcDbArc
 50
343.4691688998
 51
344.0557313435
  0
ARC
  5
39B
100
AcDbEntity
  8
DEFAULT_2
100
AcDbCircle
 62
8
  6
HIDDEN
 10
57.8521913264
 20
73.2125782474
 40
7.47046942
100
AcDbArc
 50
343.4691688998
 51
344.0557313435
  0
ARC
  5
39C
100
AcDbEntity
  8
DEFAULT_2
100
AcDbCircle
 62
8
  6
HIDDEN
 10
70.6538007691
 20
85.2017467173
 40
6.6391318054
100
AcDbArc
 50
161.1299269972
 51
161.3811481316
  0
ARC
  5
39D
100
AcDbEntity
  8
DEFAULT_2
100
AcDbCircle
 62
8
  6
HIDDEN
 10
70.6538007691
 20
69.2017467173
 40
6.6391318054
100
AcDbArc
 50
161.1299269972
 51
161.3811481316
  0
ARC
  5
39E
100
AcDbEntity
  8
DEFAULT_2
100
AcDbCircle
 62
8
  6
HIDDEN
 10
58.7352230883
 20
88.7937248562
 40
6.5064953193
100
AcDbArc
 50
344.0739881714
 51
344.7927368255
  0
ARC
  5
39F
100
AcDbEntity
  8
DEFAULT_2
100
AcDbCircle
 62
8
  6
HIDDEN
 10
58.7352230883
 20
72.7937248562
 40
6.5064953193
100
AcDbArc
 50
344.0739881714
 51
344.7927368255
  0
ARC
  5
3A0
100
AcDbEntity
  8
0
100
AcDbCircle
 62
7
  6
CONTINUOUS
 10
61.8288739925
 20
49.1323750354
 40
5.5
100
AcDbArc
 50
132.3957204106
 51
144.9031987724
  0
ARC
  5
3A1
100
AcDbEntity
  8
DEFAULT_2
100
AcDbCircle
 62
8
  6
HIDDEN
 10
75.243728208
 20
46.1323750354
 40
2.2360679775
100
AcDbArc
 50
148.9090696423
 51
211.0909303577
  0
ARC
  5
3A2
100
AcDbEntity
  8
DEFAULT_2
100
AcDbCircle
 62
8
  6
HIDDEN
 10
55.514185257
 20
49.8626956446
 40
2.0363705283
100
AcDbArc
 50
157.7922339505
 51
158.8712738662
  0
ARC
  5
3A3
100
AcDbEntity
  8
DEFAULT_2
100
AcDbCircle
 62
8
  6
HIDDEN
 10
53.7967668557
 20
49.8838507939
 40
2.034598842
100
AcDbArc
 50
186.9202123889
 51
187.4234697533
  0
ARC
  5
3A4
100
AcDbEntity
  8
DEFAULT_2
100
AcDbCircle
 62
8
  6
HIDDEN
 10
55.499521969
 20
48.3680758789
 40
2.0207615032
100
AcDbArc
 50
157.776324674
 51
165.8106860271
  0
ARC
  5
3A5
100
AcDbEntity
  8
A_RUNDUNGEN
100
AcDbCircle
 62
8
  6
HIDDEN
 10
50.7046099238
 20
46.3323750354
 40
0.3
100
AcDbArc
 50
44.9999985314
 51
90.0
  0
ARC
  5
3A6
100
AcDbEntity
  8
A_RUNDUNGEN
100
AcDbCircle
 62
8
  6
HIDDEN
 10
50.7046099238
 20
51.9323750354
 40
0.3
100
AcDbArc
 50
270.0
 51
315.0000014686
  0
ARC
  5
3A7
100
AcDbEntity
  8
A_RUNDUNGEN
100
AcDbCircle
 62
7
  6
CONTINUOUS
 10
69.6288739925
 20
54.9323750354
 40
0.3
100
AcDbArc
 50
180.0000000744
 51
270.0
  0
ARC
  5
3A8
100
AcDbEntity
  8
A_RUNDUNGEN
100
AcDbCircle
 62
7
  6
CONTINUOUS
 10
69.6288739925
 20
41.4323750354
 40
0.3
100
AcDbArc
 50
180.0
 51
270.0
  0
ARC
  5
3A9
100
AcDbEntity
  8
A_RUNDUNGEN
100
AcDbCircle
 62
7
  6
CONTINUOUS
 10
69.6288739925
 20
50.8323750354
 40
0.3
100
AcDbArc
 50
90.0
 51
180.0
  0
ARC
  5
3AA
100
AcDbEntity
  8
A_RUNDUNGEN
100
AcDbCircle
 62
7
  6
CONTINUOUS
 10
69.0288739925
 20
49.4323750354
 40
0.3
100
AcDbArc
 50
270.0
 51
360.0
  0
ARC
  5
3AB
100
AcDbEntity
  8
A_RUNDUNGEN
100
AcDbCircle
 62
7
  6
CONTINUOUS
 10
69.0288739925
 20
42.8323750354
 40
0.3
100
AcDbArc
 50
0.0
 51
90.0
  0
ARC
  5
3AC
100
AcDbEntity
  8
0
100
AcDbCircle
 62
7
  6
CONTINUOUS
 10
73.4628064395
 20
34.4833668288
 40
0.2
100
AcDbArc
 50
315.0
 51
45.0
  0
ARC
  5
3AD
100
AcDbEntity
  8
0
100
AcDbCircle
 62
7
  6
CONTINUOUS
 10
71.977882199
 20
32.9984425883
 40
0.2
100
AcDbArc
 50
225.0
 51
315.0
  0
SPLINE
  5
3AE
100
AcDbEntity
  8
DEFAULT_2
100
AcDbSpline
 62
8
  6
HIDDEN
 70
0
 71
3
 72
13
 73
9
 74
0
 42
0.0000001
 43
0.0000001
 44
0.0000000001
 40
0.0
 40
0.0
 40
0.0
 40
0.0
 40
0.2507683396
 40
0.375489783
 40
0.5000008473
 40
0.6245123097
 40
0.7492336759
 40
1.0
 40
1.0
 40
1.0
 40
1.0
 10
51.8958612906
 20
50.6323750354
 30
0.0
 10
51.8554288716
 20
50.5110777783
 30
0.0
 10
51.8044477496
 20
50.325688166
 30
0.0
 10
51.7682050673
 20
50.0730184087
 30
0.0
 10
51.7592987861
 20
49.8823735454
 30
0.0
 10
51.7682093427
 20
49.6917292068
 30
0.0
 10
51.8044452315
 20
49.4390593849
 30
0.0
 10
51.8554291966
 20
49.2536713175
 30
0.0
 10
51.8958612906
 20
49.1323750354
 30
0.0
  0
SPLINE
  5
3AF
100
AcDbEntity
  8
DEFAULT_2
100
AcDbSpline
 62
8
  6
HIDDEN
 70
0
 71
3
 72
13
 73
9
 74
0
 42
0.0000001
 43
0.0000001
 44
0.0000000001
 40
0.0
 40
0.0
 40
0.0
 40
0.0
 40
0.2507683396
 40
0.375489783
 40
0.5000008473
 40
0.6245123097
 40
0.7492336759
 40
1.0
 40
1.0
 40
1.0
 40
1.0
 10
51.8958612906
 20
49.1323750354
 30
0.0
 10
51.8554288716
 20
49.0110777783
 30
0.0
 10
51.8044477496
 20
48.825688166
 30
0.0
 10
51.7682050673
 20
48.5730184087
 30
0.0
 10
51.7592987861
 20
48.3823735454
 30
0.0
 10
51.7682093427
 20
48.1917292068
 30
0.0
 10
51.8044452315
 20
47.9390593849
 30
0.0
 10
51.8554291966
 20
47.7536713175
 30
0.0
 10
51.8958612906
 20
47.6323750354
 30
0.0
  0
SPLINE
  5
3B0
100
AcDbEntity
  8
DEFAULT_2
100
AcDbSpline
 62
8
  6
HIDDEN
 70
0
 71
3
 72
11
 73
7
 74
0
 42
0.0000001
 43
0.0000001
 44
0.0000000001
 40
0.0
 40
0.0
 40
0.0
 40
0.0
 40
0.25111694
 40
0.5
 40
0.74888306
 40
1.0
 40
1.0
 40
1.0
 40
1.0
 10
53.6288739925
 20
49.1323750354
 30
0.0
 10
53.5802663214
 20
49.0133110437
 30
0.0
 10
53.5056869037
 20
48.7664147274
 30
0.0
 10
53.4676123569
 20
48.3823750354
 30
0.0
 10
53.5056869037
 20
47.9983353433
 30
0.0
 10
53.5802663214
 20
47.751439027
 30
0.0
 10
53.6288739925
 20
47.6323750354
 30
0.0
  0
SPLINE
  5
3B1
100
AcDbEntity
  8
DEFAULT_2
100
AcDbSpline
 62
8
  6
HIDDEN
 70
0
 71
3
 72
11
 73
7
 74
0
 42
0.0000001
 43
0.0000001
 44
0.0000000001
 40
0.0
 40
0.0
 40
0.0
 40
0.0
 40
0.25111694
 40
0.5
 40
0.74888306
 40
1.0
 40
1.0
 40
1.0
 40
1.0
 10
53.6288739925
 20
50.6323750354
 30
0.0
 10
53.5802663214
 20
50.5133110437
 30
0.0
 10
53.5056869037
 20
50.2664147274
 30
0.0
 10
53.4676123569
 20
49.8823750354
 30
0.0
 10
53.5056869037
 20
49.4983353433
 30
0.0
 10
53.5802663214
 20
49.251439027
 30
0.0
 10
53.6288739925
 20
49.1323750354
 30
0.0
  0
SPLINE
  5
3B2
100
AcDbEntity
  8
DEFAULT_2
100
AcDbSpline
 62
8
  6
HIDDEN
 70
0
 71
3
 72
10
 73
6
 74
0
 42
0.0000001
 43
0.0000001
 44
0.0000000001
 40
0.0
 40
0.0
 40
0.0
 40
0.0
 40
0.1813876336
 40
0.5510784582
 40
1.0
 40
1.0
 40
1.0
 40
1.0
 10
50.9923162897
 20
85.8802494254
 30
0.0
 10
50.9947512305
 20
85.9395958044
 30
0.0
 10
51.0009922723
 20
86.1199436496
 30
0.0
 10
51.0094969925
 20
86.4472973017
 30
0.0
 10
51.0126493396
 20
86.7153436635
 30
0.0
 10
51.0142404657
 20
86.862336711
 30
0.0
  0
SPLINE
  5
3B3
100
AcDbEntity
  8
DEFAULT_2
100
AcDbSpline
 62
8
  6
HIDDEN
 70
0
 71
3
 72
10
 73
6
 74
0
 42
0.0000001
 43
0.0000001
 44
0.0000000001
 40
0.0
 40
0.0
 40
0.0
 40
0.0
 40
0.1813876336
 40
0.5510784582
 40
1.0
 40
1.0
 40
1.0
 40
1.0
 10
50.9923162897
 20
69.8802494254
 30
0.0
 10
50.9947512305
 20
69.9395958044
 30
0.0
 10
51.0009922723
 20
70.1199436496
 30
0.0
 10
51.0094969925
 20
70.4472973017
 30
0.0
 10
51.0126493396
 20
70.7153436635
 30
0.0
 10
51.0142404657
 20
70.862336711
 30
0.0
  0
SPLINE
  5
3B4
100
AcDbEntity
  8
DEFAULT_2
100
AcDbSpline
 62
8
  6
HIDDEN
 70
0
 71
3
 72
13
 73
9
 74
0
 42
0.0000001
 43
0.0000001
 44
0.0000000001
 40
0.0
 40
0.0
 40
0.0
 40
0.0
 40
0.3430675058
 40
0.6179756091
 40
0.7313138726
 40
0.830459267
 40
0.9184169128
 40
1.0
 40
1.0
 40
1.0
 40
1.0
 10
53.4090239307
 20
88.2508372992
 30
0.0
 10
53.3895814977
 20
88.2918956157
 30
0.0
 10
53.3518195159
 20
88.3645883629
 30
0.0
 10
53.2964306209
 20
88.4447505491
 30
0.0
 10
53.2507975026
 20
88.4906565481
 30
0.0
 10
53.2185165715
 20
88.5142789639
 30
0.0
 10
53.1857642714
 20
88.5289997332
 30
0.0
 10
53.1632021753
 20
88.5323868265
 30
0.0
 10
53.1523989442
 20
88.5323846193
 30
0.0
  0
SPLINE
  5
3B5
100
AcDbEntity
  8
DEFAULT_2
100
AcDbSpline
 62
8
  6
HIDDEN
 70
0
 71
3
 72
13
 73
9
 74
0
 42
0.0000001
 43
0.0000001
 44
0.0000000001
 40
0.0
 40
0.0
 40
0.0
 40
0.0
 40
0.3430675058
 40
0.6179756091
 40
0.7313138726
 40
0.830459267
 40
0.9184169128
 40
1.0
 40
1.0
 40
1.0
 40
1.0
 10
53.4090239307
 20
72.2508372992
 30
0.0
 10
53.3895814977
 20
72.2918956157
 30
0.0
 10
53.3518195159
 20
72.3645883629
 30
0.0
 10
53.2964306209
 20
72.4447505491
 30
0.0
 10
53.2507975026
 20
72.4906565481
 30
0.0
 10
53.2185165715
 20
72.5142789639
 30
0.0
 10
53.1857642714
 20
72.5289997332
 30
0.0
 10
53.1632021753
 20
72.5323868265
 30
0.0
 10
53.1523989442
 20
72.5323846193
 30
0.0
  0
SPLINE
  5
3B6
100
AcDbEntity
  8
DEFAULT_2
100
AcDbSpline
 62
8
  6
HIDDEN
 70
0
 71
3
 72
13
 73
9
 74
0
 42
0.0000001
 43
0.0000001
 44
0.0000000001
 40
0.0
 40
0.0
 40
0.0
 40
0.0
 40
0.3438173503
 40
0.6193307585
 40
0.7323137732
 40
0.8308787772
 40
0.9184707881
 40
1.0
 40
1.0
 40
1.0
 40
1.0
 10
55.9088289921
 20
88.2509386387
 30
0.0
 10
55.8893370764
 20
88.292104235
 30
0.0
 10
55.8515745317
 20
88.3650160064
 30
0.0
 10
55.7963538411
 20
88.4455332848
 30
0.0
 10
55.7506104198
 20
88.4913281516
 30
0.0
 10
55.7182424214
 20
88.5145885058
 30
0.0
 10
55.6854421649
 20
88.5288897721
 30
0.0
 10
55.6629339842
 20
88.5321772207
 30
0.0
 10
55.6521334192
 20
88.5321771184
 30
0.0
  0
SPLINE
  5
3B7
100
AcDbEntity
  8
DEFAULT_2
100
AcDbSpline
 62
8
  6
HIDDEN
 70
0
 71
3
 72
13
 73
9
 74
0
 42
0.0000001
 43
0.0000001
 44
0.0000000001
 40
0.0
 40
0.0
 40
0.0
 40
0.0
 40
0.3438173503
 40
0.6193307585
 40
0.7323137732
 40
0.8308787772
 40
0.9184707881
 40
1.0
 40
1.0
 40
1.0
 40
1.0
 10
55.9088289921
 20
72.2509386387
 30
0.0
 10
55.8893370764
 20
72.292104235
 30
0.0
 10
55.8515745317
 20
72.3650160064
 30
0.0
 10
55.7963538411
 20
72.4455332848
 30
0.0
 10
55.7506104198
 20
72.4913281516
 30
0.0
 10
55.7182424214
 20
72.5145885058
 30
0.0
 10
55.6854421649
 20
72.5288897721
 30
0.0
 10
55.6629339842
 20
72.5321772207
 30
0.0
 10
55.6521334192
 20
72.5321771184
 30
0.0
  0
SPLINE
  5
3B8
100
AcDbEntity
  8
DEFAULT_2
100
AcDbSpline
 62
8
  6
HIDDEN
 70
0
 71
3
 72
19
 73
15
 74
0
 42
0.0000001
 43
0.0000001
 44
0.0000000001
 40
0.0
 40
0.0
 40
0.0
 40
0.0
 40
0.0385998383
 40
0.0859221698
 40
0.1411413506
 40
0.2033560651
 40
0.344170622
 40
0.4972163852
 40
0.650670404
 40
0.7926271497
 40
0.8556756079
 40
0.9118930822
 40
0.9603031596
 40
1.0
 40
1.0
 40
1.0
 40
1.0
 10
52.6354709121
 20
89.277230716
 30
0.0
 10
52.6140459075
 20
89.2252173998
 30
0.0
 10
52.5732523221
 20
89.1066356422
 30
0.0
 10
52.5179033638
 20
88.9084934569
 30
0.0
 10
52.4622065926
 20
88.6748846581
 30
0.0
 10
52.3845062813
 20
88.3066121363
 30
0.0
 10
52.2911424077
 20
87.7960911949
 30
0.0
 10
52.1821642491
 20
87.1533829413
 30
0.0
 10
52.0731999924
 20
86.5089834971
 30
0.0
 10
51.9798870065
 20
85.9949280423
 30
0.0
 10
51.902290171
 20
85.62220734
 30
0.0
 10
51.8465910541
 20
85.3842317598
 30
0.0
 10
51.7912329263
 20
85.1812818735
 30
0.0
 10
51.7505148194
 20
85.0593292512
 30
0.0
 10
51.7291560877
 20
85.0055645708
 30
0.0
  0
SPLINE
  5
3B9
100
AcDbEntity
  8
DEFAULT_2
100
AcDbSpline
 62
8
  6
HIDDEN
 70
0
 71
3
 72
19
 73
15
 74
0
 42
0.0000001
 43
0.0000001
 44
0.0000000001
 40
0.0
 40
0.0
 40
0.0
 40
0.0
 40
0.0385998383
 40
0.0859221698
 40
0.1411413506
 40
0.2033560651
 40
0.344170622
 40
0.4972163852
 40
0.650670404
 40
0.7926271497
 40
0.8556756079
 40
0.9118930822
 40
0.9603031596
 40
1.0
 40
1.0
 40
1.0
 40
1.0
 10
52.6354709121
 20
73.277230716
 30
0.0
 10
52.6140459075
 20
73.2252173998
 30
0.0
 10
52.5732523221
 20
73.1066356422
 30
0.0
 10
52.5179033638
 20
72.9084934569
 30
0.0
 10
52.4622065926
 20
72.6748846581
 30
0.0
 10
52.3845062813
 20
72.3066121363
 30
0.0
 10
52.2911424077
 20
71.7960911949
 30
0.0
 10
52.1821642491
 20
71.1533829413
 30
0.0
 10
52.0731999924
 20
70.5089834971
 30
0.0
 10
51.9798870065
 20
69.9949280423
 30
0.0
 10
51.902290171
 20
69.62220734
 30
0.0
 10
51.8465910541
 20
69.3842317598
 30
0.0
 10
51.7912329263
 20
69.1812818735
 30
0.0
 10
51.7505148194
 20
69.0593292512
 30
0.0
 10
51.7291560877
 20
69.0055645708
 30
0.0
  0
SPLINE
  5
3BA
100
AcDbEntity
  8
DEFAULT_2
100
AcDbSpline
 62
8
  6
HIDDEN
 70
0
 71
3
 72
19
 73
15
 74
0
 42
0.0000001
 43
0.0000001
 44
0.0000000001
 40
0.0
 40
0.0
 40
0.0
 40
0.0
 40
0.0385120333
 40
0.0857235422
 40
0.1410500146
 40
0.2034360974
 40
0.3442291561
 40
0.4973994911
 40
0.6509885971
 40
0.7928636583
 40
0.8559743833
 40
0.9121623371
 40
0.9603893839
 40
1.0
 40
1.0
 40
1.0
 40
1.0
 10
55.1354951008
 20
89.2766812393
 30
0.0
 10
55.1141138849
 20
89.2247761772
 30
0.0
 10
55.0732124075
 20
89.1065180607
 30
0.0
 10
55.01770729
 20
88.9085070809
 30
0.0
 10
54.9620954284
 20
88.67457588
 30
0.0
 10
54.8845091701
 20
88.3058215964
 30
0.0
 10
54.7908170978
 20
87.7948513421
 30
0.0
 10
54.6818598259
 20
87.1516538876
 30
0.0
 10
54.5729456673
 20
86.5068496384
 30
0.0
 10
54.479346442
 20
85.9925702589
 30
0.0
 10
54.4018282507
 20
85.6198294058
 30
0.0
 10
54.34615858
 20
85.382020403
 30
0.0
 10
54.2906295368
 20
85.1795185714
 30
0.0
 10
54.2498327248
 20
85.0579876941
 30
0.0
 10
54.2285329622
 20
85.0043224179
 30
0.0
  0
SPLINE
  5
3BB
100
AcDbEntity
  8
DEFAULT_2
100
AcDbSpline
 62
8
  6
HIDDEN
 70
0
 71
3
 72
19
 73
15
 74
0
 42
0.0000001
 43
0.0000001
 44
0.0000000001
 40
0.0
 40
0.0
 40
0.0
 40
0.0
 40
0.0385120333
 40
0.0857235422
 40
0.1410500146
 40
0.2034360974
 40
0.3442291561
 40
0.4973994911
 40
0.6509885971
 40
0.7928636583
 40
0.8559743833
 40
0.9121623371
 40
0.9603893839
 40
1.0
 40
1.0
 40
1.0
 40
1.0
 10
55.1354951008
 20
73.2766812393
 30
0.0
 10
55.1141138849
 20
73.2247761772
 30
0.0
 10
55.0732124075
 20
73.1065180607
 30
0.0
 10
55.01770729
 20
72.9085070809
 30
0.0
 10
54.9620954284
 20
72.67457588
 30
0.0
 10
54.8845091701
 20
72.3058215964
 30
0.0
 10
54.7908170978
 20
71.7948513421
 30
0.0
 10
54.6818598259
 20
71.1516538876
 30
0.0
 10
54.5729456673
 20
70.5068496384
 30
0.0
 10
54.479346442
 20
69.9925702589
 30
0.0
 10
54.4018282507
 20
69.6198294058
 30
0.0
 10
54.34615858
 20
69.382020403
 30
0.0
 10
54.2906295368
 20
69.1795185714
 30
0.0
 10
54.2498327248
 20
69.0579876941
 30
0.0
 10
54.2285329622
 20
69.0043224179
 30
0.0
  0
SPLINE
  5
3BC
100
AcDbEntity
  8
DEFAULT_2
100
AcDbSpline
 62
8
  6
HIDDEN
 70
0
 71
3
 72
9
 73
5
 74
0
 42
0.0000001
 43
0.0000001
 44
0.0000000001
 40
0.0
 40
0.0
 40
0.0
 40
0.0
 40
0.4558063186
 40
1.0
 40
1.0
 40
1.0
 40
1.0
 10
69.4023877062
 20
86.705283308
 30
0.0
 10
69.4618312358
 20
86.7184616213
 30
0.0
 10
69.5849605237
 20
86.7773537004
 30
0.0
 10
69.6904352287
 20
86.8592684477
 30
0.0
 10
69.7467836917
 20
86.9051946002
 30
0.0
  0
SPLINE
  5
3BD
100
AcDbEntity
  8
DEFAULT_2
100
AcDbSpline
 62
8
  6
HIDDEN
 70
0
 71
3
 72
9
 73
5
 74
0
 42
0.0000001
 43
0.0000001
 44
0.0000000001
 40
0.0
 40
0.0
 40
0.0
 40
0.0
 40
0.4558063186
 40
1.0
 40
1.0
 40
1.0
 40
1.0
 10
69.4023877062
 20
70.705283308
 30
0.0
 10
69.4618312358
 20
70.7184616213
 30
0.0
 10
69.5849605237
 20
70.7773537004
 30
0.0
 10
69.6904352287
 20
70.8592684477
 30
0.0
 10
69.7467836917
 20
70.9051946002
 30
0.0
  0
SPLINE
  5
3BE
100
AcDbEntity
  8
DEFAULT_2
100
AcDbSpline
 62
8
  6
HIDDEN
 70
0
 71
3
 72
18
 73
14
 74
0
 42
0.0000001
 43
0.0000001
 44
0.0000000001
 40
0.0
 40
0.0
 40
0.0
 40
0.0
 40
0.0341789272
 40
0.0688637504
 40
0.1065461364
 40
0.1492684955
 40
0.1981990597
 40
0.2537661857
 40
0.3839367406
 40
0.5343459411
 40
0.695248467
 40
0.8546513646
 40
1.0
 40
1.0
 40
1.0
 40
1.0
 10
68.1522673185
 20
87.8366107893
 30
0.0
 10
68.1326836733
 20
87.8409315366
 30
0.0
 10
68.0918295871
 20
87.8445231534
 30
0.0
 10
68.0297776528
 20
87.8321383987
 30
0.0
 10
67.9685468146
 20
87.8022167388
 30
0.0
 10
67.9083728687
 20
87.7553411488
 30
0.0
 10
67.8486964481
 20
87.6925803265
 30
0.0
 10
67.7649847656
 20
87.5830197262
 30
0.0
 10
67.6642824127
 20
87.4128401778
 30
0.0
 10
67.548804827
 20
87.1809472299
 30
0.0
 10
67.4333556001
 20
86.9300027174
 30
0.0
 10
67.3182256292
 20
86.6822629173
 30
0.0
 10
67.2361903096
 20
86.5231438397
 30
0.0
 10
67.1930145871
 20
86.4495965626
 30
0.0
  0
SPLINE
  5
3BF
100
AcDbEntity
  8
DEFAULT_2
100
AcDbSpline
 62
8
  6
HIDDEN
 70
0
 71
3
 72
18
 73
14
 74
0
 42
0.0000001
 43
0.0000001
 44
0.0000000001
 40
0.0
 40
0.0
 40
0.0
 40
0.0
 40
0.0341789272
 40
0.0688637504
 40
0.1065461364
 40
0.1492684955
 40
0.1981990597
 40
0.2537661857
 40
0.3839367406
 40
0.5343459411
 40
0.695248467
 40
0.8546513646
 40
1.0
 40
1.0
 40
1.0
 40
1.0
 10
68.1522673185
 20
71.8366107893
 30
0.0
 10
68.1326836733
 20
71.8409315366
 30
0.0
 10
68.0918295871
 20
71.8445231534
 30
0.0
 10
68.0297776528
 20
71.8321383987
 30
0.0
 10
67.9685468146
 20
71.8022167388
 30
0.0
 10
67.9083728687
 20
71.7553411488
 30
0.0
 10
67.8486964481
 20
71.6925803265
 30
0.0
 10
67.7649847656
 20
71.5830197262
 30
0.0
 10
67.6642824127
 20
71.4128401778
 30
0.0
 10
67.548804827
 20
71.1809472299
 30
0.0
 10
67.4333556001
 20
70.9300027174
 30
0.0
 10
67.3182256292
 20
70.6822629173
 30
0.0
 10
67.2361903096
 20
70.5231438397
 30
0.0
 10
67.1930145871
 20
70.4495965626
 30
0.0
  0
SPLINE
  5
3C0
100
AcDbEntity
  8
DEFAULT_2
100
AcDbSpline
 62
8
  6
HIDDEN
 70
0
 71
3
 72
9
 73
5
 74
0
 42
0.0000001
 43
0.0000001
 44
0.0000000001
 40
0.0
 40
0.0
 40
0.0
 40
0.0
 40
0.2202548162
 40
1.0
 40
1.0
 40
1.0
 40
1.0
 10
68.5664828554
 20
86.5199676641
 30
0.0
 10
68.5803683819
 20
86.5230460112
 30
0.0
 10
68.6420051708
 20
86.5438057994
 30
0.0
 10
68.6931798074
 20
86.5875502448
 30
0.0
 10
68.727542249
 20
86.624353045
 30
0.0
  0
SPLINE
  5
3C1
100
AcDbEntity
  8
DEFAULT_2
100
AcDbSpline
 62
8
  6
HIDDEN
 70
0
 71
3
 72
9
 73
5
 74
0
 42
0.0000001
 43
0.0000001
 44
0.0000000001
 40
0.0
 40
0.0
 40
0.0
 40
0.0
 40
0.2202548162
 40
1.0
 40
1.0
 40
1.0
 40
1.0
 10
68.5664828554
 20
70.5199676641
 30
0.0
 10
68.5803683819
 20
70.5230460112
 30
0.0
 10
68.6420051708
 20
70.5438057994
 30
0.0
 10
68.6931798074
 20
70.5875502448
 30
0.0
 10
68.727542249
 20
70.624353045
 30
0.0
  0
SPLINE
  5
3C2
100
AcDbEntity
  8
DEFAULT_2
100
AcDbSpline
 62
8
  6
HIDDEN
 70
0
 71
3
 72
16
 73
12
 74
0
 42
0.0000001
 43
0.0000001
 44
0.0000000001
 40
0.0
 40
0.0
 40
0.0
 40
0.0
 40
0.1230618304
 40
0.2541291349
 40
0.3897336912
 40
0.5249844853
 40
0.654661822
 40
0.7750508524
 40
0.8321025942
 40
0.8879446317
 40
1.0
 40
1.0
 40
1.0
 40
1.0
 10
68.727542249
 20
86.624353045
 30
0.0
 10
68.7852716203
 20
86.6592978491
 30
0.0
 10
68.9001735197
 20
86.7386186882
 30
0.0
 10
69.0662689565
 20
86.8732626133
 30
0.0
 10
69.2313496813
 20
87.019285455
 30
0.0
 10
69.398965504
 20
87.1613423093
 30
0.0
 10
69.5702645866
 20
87.2855454012
 30
0.0
 10
69.7205228158
 20
87.3642028896
 30
0.0
 10
69.8431215842
 20
87.4021331452
 30
0.0
 10
69.9653589908
 20
87.4211567496
 30
0.0
 10
70.0589319152
 20
87.4139144157
 30
0.0
 10
70.118921896
 20
87.4006149572
 30
0.0
  0
SPLINE
  5
3C3
100
AcDbEntity
  8
DEFAULT_2
100
AcDbSpline
 62
8
  6
HIDDEN
 70
0
 71
3
 72
16
 73
12
 74
0
 42
0.0000001
 43
0.0000001
 44
0.0000000001
 40
0.0
 40
0.0
 40
0.0
 40
0.0
 40
0.1230618304
 40
0.2541291349
 40
0.3897336912
 40
0.5249844853
 40
0.654661822
 40
0.7750508524
 40
0.8321025942
 40
0.8879446317
 40
1.0
 40
1.0
 40
1.0
 40
1.0
 10
68.727542249
 20
70.624353045
 30
0.0
 10
68.7852716203
 20
70.6592978491
 30
0.0
 10
68.9001735197
 20
70.7386186882
 30
0.0
 10
69.0662689565
 20
70.8732626133
 30
0.0
 10
69.2313496813
 20
71.019285455
 30
0.0
 10
69.398965504
 20
71.1613423093
 30
0.0
 10
69.5702645866
 20
71.2855454012
 30
0.0
 10
69.7205228158
 20
71.3642028896
 30
0.0
 10
69.8431215842
 20
71.4021331452
 30
0.0
 10
69.9653589908
 20
71.4211567496
 30
0.0
 10
70.0589319152
 20
71.4139144157
 30
0.0
 10
70.118921896
 20
71.4006149572
 30
0.0
  0
SPLINE
  5
3C4
100
AcDbEntity
  8
DEFAULT_2
100
AcDbSpline
 62
8
  6
HIDDEN
 70
0
 71
3
 72
17
 73
13
 74
0
 42
0.0000001
 43
0.0000001
 44
0.0000000001
 40
0.0
 40
0.0
 40
0.0
 40
0.0
 40
0.0268730937
 40
0.0544943973
 40
0.0851939085
 40
0.1206642104
 40
0.2096629336
 40
0.3251177343
 40
0.4656558683
 40
0.6283900445
 40
0.8084547738
 40
1.0
 40
1.0
 40
1.0
 40
1.0
 10
65.6522701797
 20
88.3908520429
 30
0.0
 10
65.6396942051
 20
88.3936417581
 30
0.0
 10
65.6131173019
 20
88.3954608062
 30
0.0
 10
65.5730164793
 20
88.3850452858
 30
0.0
 10
65.5337398642
 20
88.3623173252
 30
0.0
 10
65.4779591523
 20
88.3125677228
 30
0.0
 10
65.4111159598
 20
88.217613787
 30
0.0
 10
65.3364377582
 20
88.0699403361
 30
0.0
 10
65.2610866922
 20
87.8836789185
 30
0.0
 10
65.1857030459
 20
87.6645533292
 30
0.0
 10
65.1100537781
 20
87.4198099641
 30
0.0
 10
65.0604811628
 20
87.2487115095
 30
0.0
 10
65.0352669442
 20
87.1604237844
 30
0.0
  0
SPLINE
  5
3C5
100
AcDbEntity
  8
DEFAULT_2
100
AcDbSpline
 62
8
  6
HIDDEN
 70
0
 71
3
 72
17
 73
13
 74
0
 42
0.0000001
 43
0.0000001
 44
0.0000000001
 40
0.0
 40
0.0
 40
0.0
 40
0.0
 40
0.0268730937
 40
0.0544943973
 40
0.0851939085
 40
0.1206642104
 40
0.2096629336
 40
0.3251177343
 40
0.4656558683
 40
0.6283900445
 40
0.8084547738
 40
1.0
 40
1.0
 40
1.0
 40
1.0
 10
65.6522701797
 20
72.3908520429
 30
0.0
 10
65.6396942051
 20
72.3936417581
 30
0.0
 10
65.6131173019
 20
72.3954608062
 30
0.0
 10
65.5730164793
 20
72.3850452858
 30
0.0
 10
65.5337398642
 20
72.3623173252
 30
0.0
 10
65.4779591523
 20
72.3125677228
 30
0.0
 10
65.4111159598
 20
72.217613787
 30
0.0
 10
65.3364377582
 20
72.0699403361
 30
0.0
 10
65.2610866922
 20
71.8836789185
 30
0.0
 10
65.1857030459
 20
71.6645533292
 30
0.0
 10
65.1100537781
 20
71.4198099641
 30
0.0
 10
65.0604811628
 20
71.2487115095
 30
0.0
 10
65.0352669442
 20
71.1604237844
 30
0.0
  0
SPLINE
  5
3C6
100
AcDbEntity
  8
DEFAULT_2
100
AcDbSpline
 62
8
  6
HIDDEN
 70
0
 71
3
 72
19
 73
15
 74
0
 42
0.0000001
 43
0.0000001
 44
0.0000000001
 40
0.0
 40
0.0
 40
0.0
 40
0.0
 40
0.0385836014
 40
0.0858756753
 40
0.1411397938
 40
0.2034863344
 40
0.3443252679
 40
0.4975003407
 40
0.6510468127
 40
0.7929090221
 40
0.8560035705
 40
0.9121372582
 40
0.9603713806
 40
1.0
 40
1.0
 40
1.0
 40
1.0
 10
57.6355070478
 20
89.2772863167
 30
0.0
 10
57.6140851824
 20
89.2252716486
 30
0.0
 10
57.573235728
 20
89.106727274
 30
0.0
 10
57.5177975878
 20
88.9085199254
 30
0.0
 10
57.4620569079
 20
88.6745967216
 30
0.0
 10
57.3844536663
 20
88.3058423016
 30
0.0
 10
57.2908140911
 20
87.7947287614
 30
0.0
 10
57.1818352986
 20
87.1513763127
 30
0.0
 10
57.0728785503
 20
86.5065065501
 30
0.0
 10
56.9792776428
 20
85.9922162967
 30
0.0
 10
56.9017825065
 20
85.6195073845
 30
0.0
 10
56.8460394649
 20
85.3817545778
 30
0.0
 10
56.790527538
 20
85.179245855
 30
0.0
 10
56.7497497045
 20
85.0576389749
 30
0.0
 10
56.7284369124
 20
85.0039368159
 30
0.0
  0
SPLINE
  5
3C7
100
AcDbEntity
  8
DEFAULT_2
100
AcDbSpline
 62
8
  6
HIDDEN
 70
0
 71
3
 72
19
 73
15
 74
0
 42
0.0000001
 43
0.0000001
 44
0.0000000001
 40
0.0
 40
0.0
 40
0.0
 40
0.0
 40
0.0385836014
 40
0.0858756753
 40
0.1411397938
 40
0.2034863344
 40
0.3443252679
 40
0.4975003407
 40
0.6510468127
 40
0.7929090221
 40
0.8560035705
 40
0.9121372582
 40
0.9603713806
 40
1.0
 40
1.0
 40
1.0
 40
1.0
 10
57.6355070478
 20
73.2772863167
 30
0.0
 10
57.6140851824
 20
73.2252716486
 30
0.0
 10
57.573235728
 20
73.106727274
 30
0.0
 10
57.5177975878
 20
72.9085199254
 30
0.0
 10
57.4620569079
 20
72.6745967216
 30
0.0
 10
57.3844536663
 20
72.3058423016
 30
0.0
 10
57.2908140911
 20
71.7947287614
 30
0.0
 10
57.1818352986
 20
71.1513763127
 30
0.0
 10
57.0728785503
 20
70.5065065501
 30
0.0
 10
56.9792776428
 20
69.9922162967
 30
0.0
 10
56.9017825065
 20
69.6195073845
 30
0.0
 10
56.8460394649
 20
69.3817545778
 30
0.0
 10
56.790527538
 20
69.179245855
 30
0.0
 10
56.7497497045
 20
69.0576389749
 30
0.0
 10
56.7284369124
 20
69.0039368159
 30
0.0
  0
SPLINE
  5
3C8
100
AcDbEntity
  8
DEFAULT_2
100
AcDbSpline
 62
8
  6
HIDDEN
 70
0
 71
3
 72
11
 73
7
 74
0
 42
0.0000001
 43
0.0000001
 44
0.0000000001
 40
0.0
 40
0.0
 40
0.0
 40
0.0
 40
0.1885085308
 40
0.4068967787
 40
0.6746256845
 40
1.0
 40
1.0
 40
1.0
 40
1.0
 10
51.187083875
 20
85.7197941387
 30
0.0
 10
51.1705848373
 20
85.7192046214
 30
0.0
 10
51.1344083581
 20
85.7266728769
 30
0.0
 10
51.0846798504
 20
85.7601870614
 30
0.0
 10
51.0363032322
 20
85.8127425835
 30
0.0
 10
51.0071707889
 20
85.8559311011
 30
0.0
 10
50.9923162897
 20
85.8802494254
 30
0.0
  0
SPLINE
  5
3C9
100
AcDbEntity
  8
DEFAULT_2
100
AcDbSpline
 62
8
  6
HIDDEN
 70
0
 71
3
 72
11
 73
7
 74
0
 42
0.0000001
 43
0.0000001
 44
0.0000000001
 40
0.0
 40
0.0
 40
0.0
 40
0.0
 40
0.1885085308
 40
0.4068967787
 40
0.6746256845
 40
1.0
 40
1.0
 40
1.0
 40
1.0
 10
51.187083875
 20
69.7197941387
 30
0.0
 10
51.1705848373
 20
69.7192046214
 30
0.0
 10
51.1344083581
 20
69.7266728769
 30
0.0
 10
51.0846798504
 20
69.7601870614
 30
0.0
 10
51.0363032322
 20
69.8127425835
 30
0.0
 10
51.0071707889
 20
69.8559311011
 30
0.0
 10
50.9923162897
 20
69.8802494254
 30
0.0
  0
SPLINE
  5
3CA
100
AcDbEntity
  8
DEFAULT_2
100
AcDbSpline
 62
8
  6
HIDDEN
 70
0
 71
3
 72
13
 73
9
 74
0
 42
0.0000001
 43
0.0000001
 44
0.0000000001
 40
0.0
 40
0.0
 40
0.0
 40
0.0
 40
0.0850854036
 40
0.1751122429
 40
0.2750390303
 40
0.3882613827
 40
0.6610039221
 40
1.0
 40
1.0
 40
1.0
 40
1.0
 10
53.687316416
 20
85.7199014088
 30
0.0
 10
53.67741257
 20
85.7195491198
 30
0.0
 10
53.6568375818
 20
85.7215855878
 30
0.0
 10
53.6265430041
 20
85.732854631
 30
0.0
 10
53.5966607295
 20
85.7520680425
 30
0.0
 10
53.5545988066
 20
85.7902042466
 30
0.0
 10
53.5034307366
 20
85.8581110514
 30
0.0
 10
53.4685200423
 20
85.9203205564
 30
0.0
 10
53.4505613007
 20
85.9554837158
 30
0.0
  0
SPLINE
  5
3CB
100
AcDbEntity
  8
DEFAULT_2
100
AcDbSpline
 62
8
  6
HIDDEN
 70
0
 71
3
 72
13
 73
9
 74
0
 42
0.0000001
 43
0.0000001
 44
0.0000000001
 40
0.0
 40
0.0
 40
0.0
 40
0.0
 40
0.0850854036
 40
0.1751122429
 40
0.2750390303
 40
0.3882613827
 40
0.6610039221
 40
1.0
 40
1.0
 40
1.0
 40
1.0
 10
53.687316416
 20
69.7199014088
 30
0.0
 10
53.67741257
 20
69.7195491198
 30
0.0
 10
53.6568375818
 20
69.7215855878
 30
0.0
 10
53.6265430041
 20
69.732854631
 30
0.0
 10
53.5966607295
 20
69.7520680425
 30
0.0
 10
53.5545988066
 20
69.7902042466
 30
0.0
 10
53.5034307366
 20
69.8581110514
 30
0.0
 10
53.4685200423
 20
69.9203205564
 30
0.0
 10
53.4505613007
 20
69.9554837158
 30
0.0
  0
SPLINE
  5
3CC
100
AcDbEntity
  8
DEFAULT_2
100
AcDbSpline
 62
8
  6
HIDDEN
 70
0
 71
3
 72
10
 73
6
 74
0
 42
0.0000001
 43
0.0000001
 44
0.0000000001
 40
0.0
 40
0.0
 40
0.0
 40
0.0
 40
0.5514877624
 40
0.7924372215
 40
1.0
 40
1.0
 40
1.0
 40
1.0
 10
64.3714929546
 20
87.3489960397
 30
0.0
 10
64.4239366413
 20
87.5178800276
 30
0.0
 10
64.5008669036
 20
87.7602002084
 30
0.0
 10
64.6138926687
 20
88.06034346
 30
0.0
 10
64.67230165
 20
88.1919738823
 30
0.0
 10
64.7025440032
 20
88.251263065
 30
0.0
  0
SPLINE
  5
3CD
100
AcDbEntity
  8
DEFAULT_2
100
AcDbSpline
 62
8
  6
HIDDEN
 70
0
 71
3
 72
10
 73
6
 74
0
 42
0.0000001
 43
0.0000001
 44
0.0000000001
 40
0.0
 40
0.0
 40
0.0
 40
0.0
 40
0.5514877624
 40
0.7924372215
 40
1.0
 40
1.0
 40
1.0
 40
1.0
 10
64.3714929546
 20
71.3489960397
 30
0.0
 10
64.4239366413
 20
71.5178800276
 30
0.0
 10
64.5008669036
 20
71.7602002084
 30
0.0
 10
64.6138926687
 20
72.06034346
 30
0.0
 10
64.67230165
 20
72.1919738823
 30
0.0
 10
64.7025440032
 20
72.251263065
 30
0.0
  0
SPLINE
  5
3CE
100
AcDbEntity
  8
DEFAULT_2
100
AcDbSpline
 62
8
  6
HIDDEN
 70
0
 71
3
 72
13
 73
9
 74
0
 42
0.0000001
 43
0.0000001
 44
0.0000000001
 40
0.0
 40
0.0
 40
0.0
 40
0.0
 40
0.0850960305
 40
0.1752456434
 40
0.2753450425
 40
0.3886196942
 40
0.6611719152
 40
1.0
 40
1.0
 40
1.0
 40
1.0
 10
56.1872586399
 20
85.7198117258
 30
0.0
 10
56.1773514436
 20
85.7194588962
 30
0.0
 10
56.1567508661
 20
85.7215166792
 30
0.0
 10
56.1264664665
 20
85.7329449759
 30
0.0
 10
56.0966044152
 20
85.7522645992
 30
0.0
 10
56.0545365775
 20
85.7904124539
 30
0.0
 10
56.0033200067
 20
85.8582577666
 30
0.0
 10
55.9684010379
 20
85.9204364607
 30
0.0
 10
55.9504498549
 20
85.9555910315
 30
0.0
  0
SPLINE
  5
3CF
100
AcDbEntity
  8
DEFAULT_2
100
AcDbSpline
 62
8
  6
HIDDEN
 70
0
 71
3
 72
13
 73
9
 74
0
 42
0.0000001
 43
0.0000001
 44
0.0000000001
 40
0.0
 40
0.0
 40
0.0
 40
0.0
 40
0.0850960305
 40
0.1752456434
 40
0.2753450425
 40
0.3886196942
 40
0.6611719152
 40
1.0
 40
1.0
 40
1.0
 40
1.0
 10
56.1872586399
 20
69.7198117258
 30
0.0
 10
56.1773514436
 20
69.7194588962
 30
0.0
 10
56.1567508661
 20
69.7215166792
 30
0.0
 10
56.1264664665
 20
69.7329449759
 30
0.0
 10
56.0966044152
 20
69.7522645992
 30
0.0
 10
56.0545365775
 20
69.7904124539
 30
0.0
 10
56.0033200067
 20
69.8582577666
 30
0.0
 10
55.9684010379
 20
69.9204364607
 30
0.0
 10
55.9504498549
 20
69.9555910315
 30
0.0
  0
LINE
  5
3D0
100
AcDbEntity
  8
DEFAULT_2
100
AcDbLine
 62
8
  6
HIDDEN
 10
64.7027011846
 20
87.33372988
 11
64.6593784789
 21
87.0183785018
  0
LINE
  5
3D1
100
AcDbEntity
  8
DEFAULT_2
100
AcDbLine
 62
8
  6
HIDDEN
 10
64.7027011846
 20
71.33372988
 11
64.6593784789
 21
71.0183785018
  0
SPLINE
  5
3D2
100
AcDbEntity
  8
DEFAULT_2
100
AcDbSpline
 62
8
  6
HIDDEN
 70
0
 71
3
 72
11
 73
7
 74
0
 42
0.0000001
 43
0.0000001
 44
0.0000000001
 40
0.0
 40
0.0
 40
0.0
 40
0.0
 40
0.3431368204
 40
0.4900042939
 40
0.6206700509
 40
1.0
 40
1.0
 40
1.0
 40
1.0
 10
58.4090646564
 20
88.2507283799
 30
0.0
 10
58.3901673563
 20
88.2906214383
 30
0.0
 10
58.3612412967
 20
88.3466555334
 30
0.0
 10
58.3174984218
 20
88.4139157017
 30
0.0
 10
58.2667142809
 20
88.479940858
 30
0.0
 10
58.2090983423
 20
88.5285694184
 30
0.0
 10
58.1604262588
 20
88.5320807371
 30
0.0
  0
SPLINE
  5
3D3
100
AcDbEntity
  8
DEFAULT_2
100
AcDbSpline
 62
8
  6
HIDDEN
 70
0
 71
3
 72
11
 73
7
 74
0
 42
0.0000001
 43
0.0000001
 44
0.0000000001
 40
0.0
 40
0.0
 40
0.0
 40
0.0
 40
0.3431368204
 40
0.4900042939
 40
0.6206700509
 40
1.0
 40
1.0
 40
1.0
 40
1.0
 10
58.4090646564
 20
72.2507283799
 30
0.0
 10
58.3901673563
 20
72.2906214383
 30
0.0
 10
58.3612412967
 20
72.3466555334
 30
0.0
 10
58.3174984218
 20
72.4139157017
 30
0.0
 10
58.2667142809
 20
72.479940858
 30
0.0
 10
58.2090983423
 20
72.5285694184
 30
0.0
 10
58.1604262588
 20
72.5320807371
 30
0.0
  0
SPLINE
  5
3D4
100
AcDbEntity
  8
DEFAULT_2
100
AcDbSpline
 62
8
  6
HIDDEN
 70
0
 71
3
 72
13
 73
9
 74
0
 42
0.0000001
 43
0.0000001
 44
0.0000000001
 40
0.0
 40
0.0
 40
0.0
 40
0.0
 40
0.3069466244
 40
0.5882343037
 40
0.7130357105
 40
0.8244927892
 40
0.9206448469
 40
1.0
 40
1.0
 40
1.0
 40
1.0
 10
64.6593784789
 20
87.0183785018
 30
0.0
 10
64.6241651263
 20
86.810477861
 30
0.0
 10
64.5562762752
 20
86.4121301416
 30
0.0
 10
64.4671820219
 20
85.9304081377
 30
0.0
 10
64.3933944484
 20
85.5825910802
 30
0.0
 10
64.3404957362
 20
85.3604066478
 30
0.0
 10
64.2878466564
 20
85.1703899731
 30
0.0
 10
64.249127962
 20
85.0560583557
 30
0.0
 10
64.2290127343
 20
85.0053910075
 30
0.0
  0
SPLINE
  5
3D5
100
AcDbEntity
  8
DEFAULT_2
100
AcDbSpline
 62
8
  6
HIDDEN
 70
0
 71
3
 72
13
 73
9
 74
0
 42
0.0000001
 43
0.0000001
 44
0.0000000001
 40
0.0
 40
0.0
 40
0.0
 40
0.0
 40
0.3069466244
 40
0.5882343037
 40
0.7130357105
 40
0.8244927892
 40
0.9206448469
 40
1.0
 40
1.0
 40
1.0
 40
1.0
 10
64.6593784789
 20
71.0183785018
 30
0.0
 10
64.6241651263
 20
70.810477861
 30
0.0
 10
64.5562762752
 20
70.4121301416
 30
0.0
 10
64.4671820219
 20
69.9304081377
 30
0.0
 10
64.3933944484
 20
69.5825910802
 30
0.0
 10
64.3404957362
 20
69.3604066478
 30
0.0
 10
64.2878466564
 20
69.1703899731
 30
0.0
 10
64.249127962
 20
69.0560583557
 30
0.0
 10
64.2290127343
 20
69.0053910075
 30
0.0
  0
SPLINE
  5
3D6
100
AcDbEntity
  8
DEFAULT_2
100
AcDbSpline
 62
8
  6
HIDDEN
 70
0
 71
3
 72
13
 73
9
 74
0
 42
0.0000001
 43
0.0000001
 44
0.0000000001
 40
0.0
 40
0.0
 40
0.0
 40
0.0
 40
0.3434613347
 40
0.6183754647
 40
0.7316117712
 40
0.8306208572
 40
0.9184518473
 40
1.0
 40
1.0
 40
1.0
 40
1.0
 10
60.9086119699
 20
88.2517162653
 30
0.0
 10
60.8892366901
 20
88.2927040984
 30
0.0
 10
60.8516323648
 20
88.3652440885
 30
0.0
 10
60.7964144682
 20
88.4452046049
 30
0.0
 10
60.7509134788
 20
88.49091041
 30
0.0
 10
60.7187347059
 20
88.5143812867
 30
0.0
 10
60.6860673278
 20
88.5289267499
 30
0.0
 10
60.6635952509
 20
88.5322286541
 30
0.0
 10
60.6528309754
 20
88.5322231166
 30
0.0
  0
SPLINE
  5
3D7
100
AcDbEntity
  8
DEFAULT_2
100
AcDbSpline
 62
8
  6
HIDDEN
 70
0
 71
3
 72
13
 73
9
 74
0
 42
0.0000001
 43
0.0000001
 44
0.0000000001
 40
0.0
 40
0.0
 40
0.0
 40
0.0
 40
0.3434613347
 40
0.6183754647
 40
0.7316117712
 40
0.8306208572
 40
0.9184518473
 40
1.0
 40
1.0
 40
1.0
 40
1.0
 10
60.9086119699
 20
72.2517162653
 30
0.0
 10
60.8892366901
 20
72.2927040984
 30
0.0
 10
60.8516323648
 20
72.3652440885
 30
0.0
 10
60.7964144682
 20
72.4452046049
 30
0.0
 10
60.7509134788
 20
72.49091041
 30
0.0
 10
60.7187347059
 20
72.5143812867
 30
0.0
 10
60.6860673278
 20
72.5289267499
 30
0.0
 10
60.6635952509
 20
72.5322286541
 30
0.0
 10
60.6528309754
 20
72.5322231166
 30
0.0
  0
SPLINE
  5
3D8
100
AcDbEntity
  8
DEFAULT_2
100
AcDbSpline
 62
8
  6
HIDDEN
 70
0
 71
3
 72
13
 73
9
 74
0
 42
0.0000001
 43
0.0000001
 44
0.0000000001
 40
0.0
 40
0.0
 40
0.0
 40
0.0
 40
0.3435991381
 40
0.6188013786
 40
0.7319925707
 40
0.8307800807
 40
0.918438647
 40
1.0
 40
1.0
 40
1.0
 40
1.0
 10
63.4086879711
 20
88.251575646
 30
0.0
 10
63.3892680546
 20
88.2926189598
 30
0.0
 10
63.3515889785
 20
88.3652812623
 30
0.0
 10
63.2963513932
 20
88.4454260313
 30
0.0
 10
63.2507801416
 20
88.4911744297
 30
0.0
 10
63.21851656
 20
88.514528032
 30
0.0
 10
63.185758841
 20
88.5288319943
 30
0.0
 10
63.1632909372
 20
88.5320980389
 30
0.0
 10
63.1525128007
 20
88.5320949739
 30
0.0
  0
SPLINE
  5
3D9
100
AcDbEntity
  8
DEFAULT_2
100
AcDbSpline
 62
8
  6
HIDDEN
 70
0
 71
3
 72
13
 73
9
 74
0
 42
0.0000001
 43
0.0000001
 44
0.0000000001
 40
0.0
 40
0.0
 40
0.0
 40
0.0
 40
0.3435991381
 40
0.6188013786
 40
0.7319925707
 40
0.8307800807
 40
0.918438647
 40
1.0
 40
1.0
 40
1.0
 40
1.0
 10
63.4086879711
 20
72.251575646
 30
0.0
 10
63.3892680546
 20
72.2926189598
 30
0.0
 10
63.3515889785
 20
72.3652812623
 30
0.0
 10
63.2963513932
 20
72.4454260313
 30
0.0
 10
63.2507801416
 20
72.4911744297
 30
0.0
 10
63.21851656
 20
72.514528032
 30
0.0
 10
63.185758841
 20
72.5288319943
 30
0.0
 10
63.1632909372
 20
72.5320980389
 30
0.0
 10
63.1525128007
 20
72.5320949739
 30
0.0
  0
SPLINE
  5
3DA
100
AcDbEntity
  8
DEFAULT_2
100
AcDbSpline
 62
8
  6
HIDDEN
 70
0
 71
3
 72
19
 73
15
 74
0
 42
0.0000001
 43
0.0000001
 44
0.0000000001
 40
0.0
 40
0.0
 40
0.0
 40
0.0
 40
0.0386029636
 40
0.0859570482
 40
0.1412160005
 40
0.20345739
 40
0.3442920895
 40
0.49734117
 40
0.6507902254
 40
0.7926705819
 40
0.8556875081
 40
0.9119061312
 40
0.9603201355
 40
1.0
 40
1.0
 40
1.0
 40
1.0
 10
60.1352388017
 20
89.2766772049
 30
0.0
 10
60.1138059284
 20
89.2246699904
 30
0.0
 10
60.0730205095
 20
89.1060469164
 30
0.0
 10
60.0176969708
 20
88.9078125801
 30
0.0
 10
59.9620228499
 20
88.6740828704
 30
0.0
 10
59.8843425693
 20
88.3057267109
 30
0.0
 10
59.7909941046
 20
87.7951963713
 30
0.0
 10
59.6820329123
 20
87.152542507
 30
0.0
 10
59.5731282913
 20
86.5083329868
 30
0.0
 10
59.4798039038
 20
85.9945144231
 30
0.0
 10
59.4022072366
 20
85.6220023767
 30
0.0
 10
59.3465309879
 20
85.3840940313
 30
0.0
 10
59.2912128236
 20
85.1811778649
 30
0.0
 10
59.250475254
 20
85.0592693751
 30
0.0
 10
59.2291279852
 20
85.0055347235
 30
0.0
  0
SPLINE
  5
3DB
100
AcDbEntity
  8
DEFAULT_2
100
AcDbSpline
 62
8
  6
HIDDEN
 70
0
 71
3
 72
19
 73
15
 74
0
 42
0.0000001
 43
0.0000001
 44
0.0000000001
 40
0.0
 40
0.0
 40
0.0
 40
0.0
 40
0.0386029636
 40
0.0859570482
 40
0.1412160005
 40
0.20345739
 40
0.3442920895
 40
0.49734117
 40
0.6507902254
 40
0.7926705819
 40
0.8556875081
 40
0.9119061312
 40
0.9603201355
 40
1.0
 40
1.0
 40
1.0
 40
1.0
 10
60.1352388017
 20
73.2766772049
 30
0.0
 10
60.1138059284
 20
73.2246699904
 30
0.0
 10
60.0730205095
 20
73.1060469164
 30
0.0
 10
60.0176969708
 20
72.9078125801
 30
0.0
 10
59.9620228499
 20
72.6740828704
 30
0.0
 10
59.8843425693
 20
72.3057267109
 30
0.0
 10
59.7909941046
 20
71.7951963713
 30
0.0
 10
59.6820329123
 20
71.152542507
 30
0.0
 10
59.5731282913
 20
70.5083329868
 30
0.0
 10
59.4798039038
 20
69.9945144231
 30
0.0
 10
59.4022072366
 20
69.6220023767
 30
0.0
 10
59.3465309879
 20
69.3840940313
 30
0.0
 10
59.2912128236
 20
69.1811778649
 30
0.0
 10
59.250475254
 20
69.0592693751
 30
0.0
 10
59.2291279852
 20
69.0055347235
 30
0.0
  0
SPLINE
  5
3DC
100
AcDbEntity
  8
DEFAULT_2
100
AcDbSpline
 62
8
  6
HIDDEN
 70
0
 71
3
 72
19
 73
15
 74
0
 42
0.0000001
 43
0.0000001
 44
0.0000000001
 40
0.0
 40
0.0
 40
0.0
 40
0.0
 40
0.0385496393
 40
0.0857882449
 40
0.1410678092
 40
0.2034360037
 40
0.3442255035
 40
0.4973678046
 40
0.6509329994
 40
0.792760018
 40
0.8558966415
 40
0.9121553862
 40
0.9604071112
 40
1.0
 40
1.0
 40
1.0
 40
1.0
 10
62.6355859601
 20
89.2773110357
 30
0.0
 10
62.614191141
 20
89.2253515579
 30
0.0
 10
62.5733284242
 20
89.1069771824
 30
0.0
 10
62.5178554112
 20
88.9089307194
 30
0.0
 10
62.4621775734
 20
88.6750686201
 30
0.0
 10
62.3846212947
 20
88.3064043506
 30
0.0
 10
62.2909534577
 20
87.7954971953
 30
0.0
 10
62.1819882502
 20
87.152375075
 30
0.0
 10
62.0731117521
 20
86.5077040341
 30
0.0
 10
61.9794716602
 20
85.993493976
 30
0.0
 10
61.9019610169
 20
85.6206751897
 30
0.0
 10
61.8463482609
 20
85.382668696
 30
0.0
 10
61.7908364893
 20
85.1800401889
 30
0.0
 10
61.7500084944
 20
85.058507132
 30
0.0
 10
61.7287128728
 20
85.0048672619
 30
0.0
  0
SPLINE
  5
3DD
100
AcDbEntity
  8
DEFAULT_2
100
AcDbSpline
 62
8
  6
HIDDEN
 70
0
 71
3
 72
19
 73
15
 74
0
 42
0.0000001
 43
0.0000001
 44
0.0000000001
 40
0.0
 40
0.0
 40
0.0
 40
0.0
 40
0.0385496393
 40
0.0857882449
 40
0.1410678092
 40
0.2034360037
 40
0.3442255035
 40
0.4973678046
 40
0.6509329994
 40
0.792760018
 40
0.8558966415
 40
0.9121553862
 40
0.9604071112
 40
1.0
 40
1.0
 40
1.0
 40
1.0
 10
62.6355859601
 20
73.2773110357
 30
0.0
 10
62.614191141
 20
73.2253515579
 30
0.0
 10
62.5733284242
 20
73.1069771824
 30
0.0
 10
62.5178554112
 20
72.9089307194
 30
0.0
 10
62.4621775734
 20
72.6750686201
 30
0.0
 10
62.3846212947
 20
72.3064043506
 30
0.0
 10
62.2909534577
 20
71.7954971953
 30
0.0
 10
62.1819882502
 20
71.152375075
 30
0.0
 10
62.0731117521
 20
70.5077040341
 30
0.0
 10
61.9794716602
 20
69.993493976
 30
0.0
 10
61.9019610169
 20
69.6206751897
 30
0.0
 10
61.8463482609
 20
69.382668696
 30
0.0
 10
61.7908364893
 20
69.1800401889
 30
0.0
 10
61.7500084944
 20
69.058507132
 30
0.0
 10
61.7287128728
 20
69.0048672619
 30
0.0
  0
SPLINE
  5
3DE
100
AcDbEntity
  8
DEFAULT_2
100
AcDbSpline
 62
8
  6
HIDDEN
 70
0
 71
3
 72
13
 73
9
 74
0
 42
0.0000001
 43
0.0000001
 44
0.0000000001
 40
0.0
 40
0.0
 40
0.0
 40
0.0
 40
0.085297063
 40
0.1756609524
 40
0.2757765139
 40
0.3888602973
 40
0.6608592218
 40
1.0
 40
1.0
 40
1.0
 40
1.0
 10
58.6879302769
 20
85.7197689869
 30
0.0
 10
58.6779980583
 20
85.7194246785
 30
0.0
 10
58.6573522727
 20
85.7215800564
 30
0.0
 10
58.6270407858
 20
85.7330492966
 30
0.0
 10
58.597100981
 20
85.7522547711
 30
0.0
 10
58.5549177206
 20
85.7901607944
 30
0.0
 10
58.5034838068
 20
85.8578062248
 30
0.0
 10
58.468544552
 20
85.9199626189
 30
0.0
 10
58.4505948188
 20
85.9551645745
 30
0.0
  0
SPLINE
  5
3DF
100
AcDbEntity
  8
DEFAULT_2
100
AcDbSpline
 62
8
  6
HIDDEN
 70
0
 71
3
 72
13
 73
9
 74
0
 42
0.0000001
 43
0.0000001
 44
0.0000000001
 40
0.0
 40
0.0
 40
0.0
 40
0.0
 40
0.085297063
 40
0.1756609524
 40
0.2757765139
 40
0.3888602973
 40
0.6608592218
 40
1.0
 40
1.0
 40
1.0
 40
1.0
 10
58.6879302769
 20
69.7197689869
 30
0.0
 10
58.6779980583
 20
69.7194246785
 30
0.0
 10
58.6573522727
 20
69.7215800564
 30
0.0
 10
58.6270407858
 20
69.7330492966
 30
0.0
 10
58.597100981
 20
69.7522547711
 30
0.0
 10
58.5549177206
 20
69.7901607944
 30
0.0
 10
58.5034838068
 20
69.8578062248
 30
0.0
 10
58.468544552
 20
69.9199626189
 30
0.0
 10
58.4505948188
 20
69.9551645745
 30
0.0
  0
SPLINE
  5
3E0
100
AcDbEntity
  8
DEFAULT_2
100
AcDbSpline
 62
8
  6
HIDDEN
 70
0
 71
3
 72
13
 73
9
 74
0
 42
0.0000001
 43
0.0000001
 44
0.0000000001
 40
0.0
 40
0.0
 40
0.0
 40
0.0
 40
0.0853307784
 40
0.1754449627
 40
0.2750484062
 40
0.3876179086
 40
0.6598336618
 40
1.0
 40
1.0
 40
1.0
 40
1.0
 10
61.1879865184
 20
85.7203907249
 30
0.0
 10
61.1780704483
 20
85.7200431024
 30
0.0
 10
61.1574965529
 20
85.7220627876
 30
0.0
 10
61.1272005642
 20
85.7331342027
 30
0.0
 10
61.0972488759
 20
85.7519208885
 30
0.0
 10
61.0549744173
 20
85.789433633
 30
0.0
 10
61.0036995871
 20
85.857145108
 30
0.0
 10
60.9688859795
 20
85.9193525703
 30
0.0
 10
60.9509179427
 20
85.954590042
 30
0.0
  0
SPLINE
  5
3E1
100
AcDbEntity
  8
DEFAULT_2
100
AcDbSpline
 62
8
  6
HIDDEN
 70
0
 71
3
 72
13
 73
9
 74
0
 42
0.0000001
 43
0.0000001
 44
0.0000000001
 40
0.0
 40
0.0
 40
0.0
 40
0.0
 40
0.0853307784
 40
0.1754449627
 40
0.2750484062
 40
0.3876179086
 40
0.6598336618
 40
1.0
 40
1.0
 40
1.0
 40
1.0
 10
61.1879865184
 20
69.7203907249
 30
0.0
 10
61.1780704483
 20
69.7200431024
 30
0.0
 10
61.1574965529
 20
69.7220627876
 30
0.0
 10
61.1272005642
 20
69.7331342027
 30
0.0
 10
61.0972488759
 20
69.7519208885
 30
0.0
 10
61.0549744173
 20
69.789433633
 30
0.0
 10
61.0036995871
 20
69.857145108
 30
0.0
 10
60.9688859795
 20
69.9193525703
 30
0.0
 10
60.9509179427
 20
69.954590042
 30
0.0
  0
SPLINE
  5
3E2
100
AcDbEntity
  8
DEFAULT_2
100
AcDbSpline
 62
8
  6
HIDDEN
 70
0
 71
3
 72
12
 73
8
 74
0
 42
0.0000001
 43
0.0000001
 44
0.0000000001
 40
0.0
 40
0.0
 40
0.0
 40
0.0
 40
0.085299817
 40
0.1754311386
 40
0.3872807069
 40
0.6600517175
 40
1.0
 40
1.0
 40
1.0
 40
1.0
 10
63.6877867884
 20
85.720057725
 30
0.0
 10
63.6778776435
 20
85.7197087353
 30
0.0
 10
63.657310855
 20
85.7217317527
 30
0.0
 10
63.614687207
 20
85.7374231901
 30
0.0
 10
63.5616802045
 20
85.7804449691
 30
0.0
 10
63.5038032408
 20
85.8572352203
 30
0.0
 10
63.4688555328
 20
85.9195093073
 30
0.0
 10
63.4508920258
 20
85.9547059839
 30
0.0
  0
SPLINE
  5
3E3
100
AcDbEntity
  8
DEFAULT_2
100
AcDbSpline
 62
8
  6
HIDDEN
 70
0
 71
3
 72
12
 73
8
 74
0
 42
0.0000001
 43
0.0000001
 44
0.0000000001
 40
0.0
 40
0.0
 40
0.0
 40
0.0
 40
0.085299817
 40
0.1754311386
 40
0.3872807069
 40
0.6600517175
 40
1.0
 40
1.0
 40
1.0
 40
1.0
 10
63.6877867884
 20
69.720057725
 30
0.0
 10
63.6778776435
 20
69.7197087353
 30
0.0
 10
63.657310855
 20
69.7217317527
 30
0.0
 10
63.614687207
 20
69.7374231901
 30
0.0
 10
63.5616802045
 20
69.7804449691
 30
0.0
 10
63.5038032408
 20
69.8572352203
 30
0.0
 10
63.4688555328
 20
69.9195093073
 30
0.0
 10
63.4508920258
 20
69.9547059839
 30
0.0
  0
SPLINE
  5
3E4
100
AcDbEntity
  8
DEFAULT_2
100
AcDbSpline
 62
8
  6
HIDDEN
 70
0
 71
3
 72
11
 73
7
 74
0
 42
0.0000001
 43
0.0000001
 44
0.0000000001
 40
0.0
 40
0.0
 40
0.0
 40
0.0
 40
0.3285476945
 40
0.6027820662
 40
0.82322717
 40
1.0
 40
1.0
 40
1.0
 40
1.0
 10
65.9056986137
 20
88.098786783
 30
0.0
 10
65.8861056917
 20
88.1375113919
 30
0.0
 10
65.8479929896
 20
88.2075321538
 30
0.0
 10
65.7857485696
 20
88.2971251868
 30
0.0
 10
65.7230674452
 20
88.3606763139
 30
0.0
 10
65.6750665941
 20
88.3857951382
 30
0.0
 10
65.6522701796
 20
88.3908520429
 30
0.0
  0
SPLINE
  5
3E5
100
AcDbEntity
  8
DEFAULT_2
100
AcDbSpline
 62
8
  6
HIDDEN
 70
0
 71
3
 72
11
 73
7
 74
0
 42
0.0000001
 43
0.0000001
 44
0.0000000001
 40
0.0
 40
0.0
 40
0.0
 40
0.0
 40
0.3285476945
 40
0.6027820662
 40
0.82322717
 40
1.0
 40
1.0
 40
1.0
 40
1.0
 10
65.9056986137
 20
72.098786783
 30
0.0
 10
65.8861056917
 20
72.1375113919
 30
0.0
 10
65.8479929896
 20
72.2075321538
 30
0.0
 10
65.7857485696
 20
72.2971251868
 30
0.0
 10
65.7230674452
 20
72.3606763139
 30
0.0
 10
65.6750665941
 20
72.3857951382
 30
0.0
 10
65.6522701796
 20
72.3908520429
 30
0.0
  0
SPLINE
  5
3E6
100
AcDbEntity
  8
DEFAULT_2
100
AcDbSpline
 62
8
  6
HIDDEN
 70
0
 71
3
 72
11
 73
7
 74
0
 42
0.0000001
 43
0.0000001
 44
0.0000000001
 40
0.0
 40
0.0
 40
0.0
 40
0.0
 40
0.3165144482
 40
0.5880508757
 40
0.8134216451
 40
1.0
 40
1.0
 40
1.0
 40
1.0
 10
67.1930145871
 20
86.4495965626
 30
0.0
 10
67.170256709
 20
86.4108298701
 30
0.0
 10
67.1258420304
 20
86.3399837707
 30
0.0
 10
67.0542929147
 20
86.2488517139
 30
0.0
 10
66.9822298415
 20
86.1829316117
 30
0.0
 10
66.9281443722
 20
86.1567463141
 30
0.0
 10
66.9022640683
 20
86.1510543267
 30
0.0
  0
SPLINE
  5
3E7
100
AcDbEntity
  8
DEFAULT_2
100
AcDbSpline
 62
8
  6
HIDDEN
 70
0
 71
3
 72
11
 73
7
 74
0
 42
0.0000001
 43
0.0000001
 44
0.0000000001
 40
0.0
 40
0.0
 40
0.0
 40
0.0
 40
0.3165144482
 40
0.5880508757
 40
0.8134216451
 40
1.0
 40
1.0
 40
1.0
 40
1.0
 10
67.1930145871
 20
70.4495965626
 30
0.0
 10
67.170256709
 20
70.4108298701
 30
0.0
 10
67.1258420304
 20
70.3399837707
 30
0.0
 10
67.0542929147
 20
70.2488517139
 30
0.0
 10
66.9822298415
 20
70.1829316117
 30
0.0
 10
66.9281443722
 20
70.1567463141
 30
0.0
 10
66.9022640683
 20
70.1510543267
 30
0.0
  0
SPLINE
  5
3E8
100
AcDbEntity
  8
DEFAULT_2
100
AcDbSpline
 62
8
  6
HIDDEN
 70
0
 71
3
 72
11
 73
7
 74
0
 42
0.0000001
 43
0.0000001
 44
0.0000000001
 40
0.0
 40
0.0
 40
0.0
 40
0.0
 40
0.3064191689
 40
0.5749587717
 40
0.804156541
 40
1.0
 40
1.0
 40
1.0
 40
1.0
 10
68.4820187591
 20
87.5588770511
 30
0.0
 10
68.4549501857
 20
87.5945808819
 30
0.0
 10
68.402323074
 20
87.6602364036
 30
0.0
 10
68.3201254374
 20
87.7447594385
 30
0.0
 10
68.2384568661
 20
87.8057783942
 30
0.0
 10
68.1802245325
 20
87.8304138152
 30
0.0
 10
68.1522669693
 20
87.8366118577
 30
0.0
  0
SPLINE
  5
3E9
100
AcDbEntity
  8
DEFAULT_2
100
AcDbSpline
 62
8
  6
HIDDEN
 70
0
 71
3
 72
11
 73
7
 74
0
 42
0.0000001
 43
0.0000001
 44
0.0000000001
 40
0.0
 40
0.0
 40
0.0
 40
0.0
 40
0.3064191689
 40
0.5749587717
 40
0.804156541
 40
1.0
 40
1.0
 40
1.0
 40
1.0
 10
68.4820187591
 20
71.5588770511
 30
0.0
 10
68.4549501857
 20
71.5945808819
 30
0.0
 10
68.402323074
 20
71.6602364036
 30
0.0
 10
68.3201254374
 20
71.7447594385
 30
0.0
 10
68.2384568661
 20
71.8057783942
 30
0.0
 10
68.1802245325
 20
71.8304138152
 30
0.0
 10
68.1522669693
 20
71.8366118577
 30
0.0
  0
SPLINE
  5
3EA
100
AcDbEntity
  8
DEFAULT_2
100
AcDbSpline
 62
8
  6
HIDDEN
 70
0
 71
3
 72
13
 73
9
 74
0
 42
0.0000001
 43
0.0000001
 44
0.0000000001
 40
0.0
 40
0.0
 40
0.0
 40
0.0
 40
0.2632994286
 40
0.3950864572
 40
0.52200478
 40
0.6433185948
 40
0.7610029725
 40
1.0
 40
1.0
 40
1.0
 40
1.0
 10
69.7467836917
 20
86.9051946002
 30
0.0
 10
69.8165741759
 20
86.962076514
 30
0.0
 10
69.9184027949
 20
87.0509487933
 30
0.0
 10
70.0608912817
 20
87.1587087207
 30
0.0
 10
70.1718988268
 20
87.2268302437
 30
0.0
 10
70.2872736779
 20
87.2767601224
 30
0.0
 10
70.4479317967
 20
87.3123829956
 30
0.0
 10
70.5724802895
 20
87.3000634822
 30
0.0
 10
70.652267717
 20
87.2823750354
 30
0.0
  0
SPLINE
  5
3EB
100
AcDbEntity
  8
DEFAULT_2
100
AcDbSpline
 62
8
  6
HIDDEN
 70
0
 71
3
 72
13
 73
9
 74
0
 42
0.0000001
 43
0.0000001
 44
0.0000000001
 40
0.0
 40
0.0
 40
0.0
 40
0.0
 40
0.2632994286
 40
0.3950864572
 40
0.52200478
 40
0.6433185948
 40
0.7610029725
 40
1.0
 40
1.0
 40
1.0
 40
1.0
 10
69.7467836917
 20
70.9051946002
 30
0.0
 10
69.8165741759
 20
70.962076514
 30
0.0
 10
69.9184027949
 20
71.0509487933
 30
0.0
 10
70.0608912817
 20
71.1587087207
 30
0.0
 10
70.1718988268
 20
71.2268302437
 30
0.0
 10
70.2872736779
 20
71.2767601224
 30
0.0
 10
70.4479317967
 20
71.3123829956
 30
0.0
 10
70.5724802895
 20
71.3000634822
 30
0.0
 10
70.652267717
 20
71.2823750354
 30
0.0
  0
SPLINE
  5
3EC
100
AcDbEntity
  8
DEFAULT_2
100
AcDbSpline
 62
8
  6
HIDDEN
 70
0
 71
3
 72
13
 73
9
 74
0
 42
0.0000001
 43
0.0000001
 44
0.0000000001
 40
0.0
 40
0.0
 40
0.0
 40
0.0
 40
0.33774484
 40
0.6108828443
 40
0.7245618902
 40
0.825102858
 40
0.9154852313
 40
1.0
 40
1.0
 40
1.0
 40
1.0
 10
64.7025440032
 20
88.251263065
 30
0.0
 10
64.7235929262
 20
88.2925288168
 30
0.0
 10
64.7644842158
 20
88.3657602946
 30
0.0
 10
64.8242553123
 20
88.4459980567
 30
0.0
 10
64.8735700309
 20
88.4914285565
 30
0.0
 10
64.9085335646
 20
88.5147010659
 30
0.0
 10
64.9438073877
 20
88.5290468037
 30
0.0
 10
64.9678915532
 20
88.5323750354
 30
0.0
 10
64.9794833454
 20
88.5323750354
 30
0.0
  0
SPLINE
  5
3ED
100
AcDbEntity
  8
DEFAULT_2
100
AcDbSpline
 62
8
  6
HIDDEN
 70
0
 71
3
 72
13
 73
9
 74
0
 42
0.0000001
 43
0.0000001
 44
0.0000000001
 40
0.0
 40
0.0
 40
0.0
 40
0.0
 40
0.33774484
 40
0.6108828443
 40
0.7245618902
 40
0.825102858
 40
0.9154852313
 40
1.0
 40
1.0
 40
1.0
 40
1.0
 10
64.7025440032
 20
72.251263065
 30
0.0
 10
64.7235929262
 20
72.2925288168
 30
0.0
 10
64.7644842158
 20
72.3657602946
 30
0.0
 10
64.8242553123
 20
72.4459980567
 30
0.0
 10
64.8735700309
 20
72.4914285565
 30
0.0
 10
64.9085335646
 20
72.5147010659
 30
0.0
 10
64.9438073877
 20
72.5290468037
 30
0.0
 10
64.9678915532
 20
72.5323750354
 30
0.0
 10
64.9794833454
 20
72.5323750354
 30
0.0
  0
SPLINE
  5
3EE
100
AcDbEntity
  8
DEFAULT_2
100
AcDbSpline
 62
8
  6
HIDDEN
 70
0
 71
3
 72
12
 73
8
 74
0
 42
0.0000001
 43
0.0000001
 44
0.0000000001
 40
0.0
 40
0.0
 40
0.0
 40
0.0
 40
0.0788320908
 40
0.1736565049
 40
0.4067690311
 40
0.6877991562
 40
1.0
 40
1.0
 40
1.0
 40
1.0
 10
65.1032760419
 20
89.136409716
 30
0.0
 10
65.0846204665
 20
89.0915430746
 30
0.0
 10
65.0486697131
 20
88.9905848949
 30
0.0
 10
64.9781708872
 20
88.7499146572
 30
0.0
 10
64.8940514219
 20
88.3838441051
 30
0.0
 10
64.7977261916
 20
87.8836916327
 30
0.0
 10
64.7350656806
 20
87.5234233961
 30
0.0
 10
64.7027011846
 20
87.33372988
 30
0.0
  0
SPLINE
  5
3EF
100
AcDbEntity
  8
DEFAULT_2
100
AcDbSpline
 62
8
  6
HIDDEN
 70
0
 71
3
 72
12
 73
8
 74
0
 42
0.0000001
 43
0.0000001
 44
0.0000000001
 40
0.0
 40
0.0
 40
0.0
 40
0.0
 40
0.0788320908
 40
0.1736565049
 40
0.4067690311
 40
0.6877991562
 40
1.0
 40
1.0
 40
1.0
 40
1.0
 10
65.1032760419
 20
73.136409716
 30
0.0
 10
65.0846204665
 20
73.0915430746
 30
0.0
 10
65.0486697131
 20
72.9905848949
 30
0.0
 10
64.9781708872
 20
72.7499146572
 30
0.0
 10
64.8940514219
 20
72.3838441051
 30
0.0
 10
64.7977261916
 20
71.8836916327
 30
0.0
 10
64.7350656806
 20
71.5234233961
 30
0.0
 10
64.7027011846
 20
71.33372988
 30
0.0
  0
SPLINE
  5
3F0
100
AcDbEntity
  8
DEFAULT_2
100
AcDbSpline
 62
8
  6
HIDDEN
 70
0
 71
3
 72
12
 73
8
 74
0
 42
0.0000001
 43
0.0000001
 44
0.0000000001
 40
0.0
 40
0.0
 40
0.0
 40
0.0
 40
0.3328939364
 40
0.599451958
 40
0.8110345085
 40
0.9056856975
 40
1.0
 40
1.0
 40
1.0
 40
1.0
 10
65.9457727764
 20
86.21078883
 30
0.0
 10
65.9657127996
 20
86.1755711246
 30
0.0
 10
66.0046229653
 20
86.113650333
 30
0.0
 10
66.070494548
 20
86.0395029582
 30
0.0
 10
66.1317357419
 20
86.0022236784
 30
0.0
 10
66.1802559358
 20
85.9938196567
 30
0.0
 10
66.2034237885
 20
85.9960980913
 30
0.0
 10
66.2146133406
 20
85.9986009811
 30
0.0
  0
SPLINE
  5
3F1
100
AcDbEntity
  8
DEFAULT_2
100
AcDbSpline
 62
8
  6
HIDDEN
 70
0
 71
3
 72
12
 73
8
 74
0
 42
0.0000001
 43
0.0000001
 44
0.0000000001
 40
0.0
 40
0.0
 40
0.0
 40
0.0
 40
0.3328939364
 40
0.599451958
 40
0.8110345085
 40
0.9056856975
 40
1.0
 40
1.0
 40
1.0
 40
1.0
 10
65.9457727764
 20
70.21078883
 30
0.0
 10
65.9657127996
 20
70.1755711246
 30
0.0
 10
66.0046229653
 20
70.113650333
 30
0.0
 10
66.070494548
 20
70.0395029582
 30
0.0
 10
66.1317357419
 20
70.0022236784
 30
0.0
 10
66.1802559358
 20
69.9938196567
 30
0.0
 10
66.2034237885
 20
69.9960980913
 30
0.0
 10
66.2146133406
 20
69.9986009811
 30
0.0
  0
SPLINE
  5
3F2
100
AcDbEntity
  8
DEFAULT_2
100
AcDbSpline
 62
8
  6
HIDDEN
 70
0
 71
3
 72
11
 73
7
 74
0
 42
0.0000001
 43
0.0000001
 44
0.0000000001
 40
0.0
 40
0.0
 40
0.0
 40
0.0
 40
0.3140921977
 40
0.5751262112
 40
0.7951171051
 40
1.0
 40
1.0
 40
1.0
 40
1.0
 10
67.1533537235
 20
87.8311071053
 30
0.0
 10
67.1737266281
 20
87.8600250645
 30
0.0
 10
67.2138815598
 20
87.9111686074
 30
0.0
 10
67.2818785914
 20
87.9706468124
 30
0.0
 10
67.3539168148
 20
88.0028981309
 30
0.0
 10
67.4035365931
 20
88.0026013859
 30
0.0
 10
67.4260640109
 20
87.9976071776
 30
0.0
  0
SPLINE
  5
3F3
100
AcDbEntity
  8
DEFAULT_2
100
AcDbSpline
 62
8
  6
HIDDEN
 70
0
 71
3
 72
11
 73
7
 74
0
 42
0.0000001
 43
0.0000001
 44
0.0000000001
 40
0.0
 40
0.0
 40
0.0
 40
0.0
 40
0.3140921977
 40
0.5751262112
 40
0.7951171051
 40
1.0
 40
1.0
 40
1.0
 40
1.0
 10
67.1533537235
 20
71.8311071053
 30
0.0
 10
67.1737266281
 20
71.8600250645
 30
0.0
 10
67.2138815598
 20
71.9111686074
 30
0.0
 10
67.2818785914
 20
71.9706468124
 30
0.0
 10
67.3539168148
 20
72.0028981309
 30
0.0
 10
67.4035365931
 20
72.0026013859
 30
0.0
 10
67.4260640109
 20
71.9976071776
 30
0.0
  0
SPLINE
  5
3F4
100
AcDbEntity
  8
DEFAULT_2
100
AcDbSpline
 62
8
  6
HIDDEN
 70
0
 71
3
 72
17
 73
13
 74
0
 42
0.0000001
 43
0.0000001
 44
0.0000000001
 40
0.0
 40
0.0
 40
0.0
 40
0.0
 40
0.0422959966
 40
0.0915221748
 40
0.2081578542
 40
0.3436628583
 40
0.4899028375
 40
0.6378000588
 40
0.7779144992
 40
0.9012531998
 40
0.9541269196
 40
1.0
 40
1.0
 40
1.0
 40
1.0
 10
67.5505283883
 20
88.5636634941
 30
0.0
 10
67.5318807874
 20
88.5224788359
 30
0.0
 10
67.4954715001
 20
88.4315773316
 30
0.0
 10
67.4241948147
 20
88.220745513
 30
0.0
 10
67.338478063
 20
87.9100238745
 30
0.0
 10
67.2398564604
 20
87.4957699369
 30
0.0
 10
67.1409833827
 20
87.0472888158
 30
0.0
 10
67.0422293692
 20
86.5937466205
 30
0.0
 10
66.9438360136
 20
86.1652118284
 30
0.0
 10
66.8589445321
 20
85.837775629
 30
0.0
 10
66.7884810388
 20
85.611044775
 30
0.0
 10
66.7524740652
 20
85.5117484635
 30
0.0
 10
66.7340439526
 20
85.4663108503
 30
0.0
  0
SPLINE
  5
3F5
100
AcDbEntity
  8
DEFAULT_2
100
AcDbSpline
 62
8
  6
HIDDEN
 70
0
 71
3
 72
17
 73
13
 74
0
 42
0.0000001
 43
0.0000001
 44
0.0000000001
 40
0.0
 40
0.0
 40
0.0
 40
0.0
 40
0.0422959966
 40
0.0915221748
 40
0.2081578542
 40
0.3436628583
 40
0.4899028375
 40
0.6378000588
 40
0.7779144992
 40
0.9012531998
 40
0.9541269196
 40
1.0
 40
1.0
 40
1.0
 40
1.0
 10
67.5505283883
 20
72.5636634941
 30
0.0
 10
67.5318807874
 20
72.5224788359
 30
0.0
 10
67.4954715001
 20
72.4315773316
 30
0.0
 10
67.4241948147
 20
72.220745513
 30
0.0
 10
67.338478063
 20
71.9100238745
 30
0.0
 10
67.2398564604
 20
71.4957699369
 30
0.0
 10
67.1409833827
 20
71.0472888158
 30
0.0
 10
67.0422293692
 20
70.5937466205
 30
0.0
 10
66.9438360136
 20
70.1652118284
 30
0.0
 10
66.8589445321
 20
69.837775629
 30
0.0
 10
66.7884810388
 20
69.611044775
 30
0.0
 10
66.7524740652
 20
69.5117484635
 30
0.0
 10
66.7340439526
 20
69.4663108503
 30
0.0
  0
SPLINE
  5
3F6
100
AcDbEntity
  8
DEFAULT_2
100
AcDbSpline
 62
8
  6
HIDDEN
 70
0
 71
3
 72
19
 73
15
 74
0
 42
0.0000001
 43
0.0000001
 44
0.0000000001
 40
0.0
 40
0.0
 40
0.0
 40
0.0
 40
0.0617559556
 40
0.1029948282
 40
0.1520561079
 40
0.2086691616
 40
0.2722549472
 40
0.4163984145
 40
0.4942931085
 40
0.5741075913
 40
0.7326950812
 40
0.8786893599
 40
0.9430523211
 40
1.0
 40
1.0
 40
1.0
 40
1.0
 10
66.2146133406
 20
85.9986009811
 30
0.0
 10
66.2565134274
 20
86.0079732333
 30
0.0
 10
66.3177799645
 20
86.0539879003
 30
0.0
 10
66.3841594129
 20
86.135313551
 30
0.0
 10
66.4395763283
 20
86.2216407889
 30
0.0
 10
66.4953422127
 20
86.325240096
 30
0.0
 10
66.5738838122
 20
86.4915009874
 30
0.0
 10
66.6488526834
 20
86.6754719672
 30
0.0
 10
66.7246039606
 20
86.8711747389
 30
0.0
 10
66.802768354
 20
87.0767250431
 30
0.0
 10
66.898875906
 20
87.3260645847
 30
0.0
 10
67.0002665908
 20
87.561956326
 30
0.0
 10
67.0861002226
 20
87.7268856824
 30
0.0
 10
67.1305510789
 20
87.7987402947
 30
0.0
 10
67.1533537235
 20
87.8311071053
 30
0.0
  0
SPLINE
  5
3F7
100
AcDbEntity
  8
DEFAULT_2
100
AcDbSpline
 62
8
  6
HIDDEN
 70
0
 71
3
 72
19
 73
15
 74
0
 42
0.0000001
 43
0.0000001
 44
0.0000000001
 40
0.0
 40
0.0
 40
0.0
 40
0.0
 40
0.0617559556
 40
0.1029948282
 40
0.1520561079
 40
0.2086691616
 40
0.2722549472
 40
0.4163984145
 40
0.4942931085
 40
0.5741075913
 40
0.7326950812
 40
0.8786893599
 40
0.9430523211
 40
1.0
 40
1.0
 40
1.0
 40
1.0
 10
66.2146133406
 20
69.9986009811
 30
0.0
 10
66.2565134274
 20
70.0079732333
 30
0.0
 10
66.3177799645
 20
70.0539879003
 30
0.0
 10
66.3841594129
 20
70.135313551
 30
0.0
 10
66.4395763283
 20
70.2216407889
 30
0.0
 10
66.4953422127
 20
70.325240096
 30
0.0
 10
66.5738838122
 20
70.4915009874
 30
0.0
 10
66.6488526834
 20
70.6754719672
 30
0.0
 10
66.7246039606
 20
70.8711747389
 30
0.0
 10
66.802768354
 20
71.0767250431
 30
0.0
 10
66.898875906
 20
71.3260645847
 30
0.0
 10
67.0002665908
 20
71.561956326
 30
0.0
 10
67.0861002226
 20
71.7268856824
 30
0.0
 10
67.1305510789
 20
71.7987402947
 30
0.0
 10
67.1533537235
 20
71.8311071053
 30
0.0
  0
SPLINE
  5
3F8
100
AcDbEntity
  8
DEFAULT_2
100
AcDbSpline
 62
8
  6
HIDDEN
 70
0
 71
3
 72
11
 73
7
 74
0
 42
0.0000001
 43
0.0000001
 44
0.0000000001
 40
0.0
 40
0.0
 40
0.0
 40
0.0
 40
0.2829188841
 40
0.5355921386
 40
0.769345686
 40
1.0
 40
1.0
 40
1.0
 40
1.0
 10
68.3569413144
 20
86.5916131627
 30
0.0
 10
68.3730911755
 20
86.5771312992
 30
0.0
 10
68.4055712837
 20
86.5516418552
 30
0.0
 10
68.4587306155
 20
86.5249360863
 30
0.0
 10
68.5131418807
 20
86.5132428619
 30
0.0
 10
68.5492173008
 20
86.5161399828
 30
0.0
 10
68.5664828554
 20
86.5199676641
 30
0.0
  0
SPLINE
  5
3F9
100
AcDbEntity
  8
DEFAULT_2
100
AcDbSpline
 62
8
  6
HIDDEN
 70
0
 71
3
 72
11
 73
7
 74
0
 42
0.0000001
 43
0.0000001
 44
0.0000000001
 40
0.0
 40
0.0
 40
0.0
 40
0.0
 40
0.2829188841
 40
0.5355921386
 40
0.769345686
 40
1.0
 40
1.0
 40
1.0
 40
1.0
 10
68.3569413144
 20
70.5916131627
 30
0.0
 10
68.3730911755
 20
70.5771312992
 30
0.0
 10
68.4055712837
 20
70.5516418552
 30
0.0
 10
68.4587306155
 20
70.5249360863
 30
0.0
 10
68.5131418807
 20
70.5132428619
 30
0.0
 10
68.5492173008
 20
70.5161399828
 30
0.0
 10
68.5664828554
 20
70.5199676641
 30
0.0
  0
SPLINE
  5
3FA
100
AcDbEntity
  8
DEFAULT_2
100
AcDbSpline
 62
8
  6
HIDDEN
 70
0
 71
3
 72
9
 73
5
 74
0
 42
0.0000001
 43
0.0000001
 44
0.0000000001
 40
0.0
 40
0.0
 40
0.0
 40
0.0
 40
0.2402297078
 40
1.0
 40
1.0
 40
1.0
 40
1.0
 10
70.2712600525
 20
87.3504018006
 30
0.0
 10
70.2964019675
 20
87.3396642861
 30
0.0
 10
70.3994551691
 20
87.2911470206
 30
0.0
 10
70.497040756
 20
87.2322641586
 30
0.0
 10
70.5722863223
 20
87.1896716755
 30
0.0
  0
SPLINE
  5
3FB
100
AcDbEntity
  8
DEFAULT_2
100
AcDbSpline
 62
8
  6
HIDDEN
 70
0
 71
3
 72
9
 73
5
 74
0
 42
0.0000001
 43
0.0000001
 44
0.0000000001
 40
0.0
 40
0.0
 40
0.0
 40
0.0
 40
0.2402297078
 40
1.0
 40
1.0
 40
1.0
 40
1.0
 10
70.2712600525
 20
71.3504018006
 30
0.0
 10
70.2964019675
 20
71.3396642861
 30
0.0
 10
70.3994551691
 20
71.2911470206
 30
0.0
 10
70.497040756
 20
71.2322641586
 30
0.0
 10
70.5722863223
 20
71.1896716755
 30
0.0
  0
SPLINE
  5
3FC
100
AcDbEntity
  8
DEFAULT_2
100
AcDbSpline
 62
8
  6
HIDDEN
 70
0
 71
3
 72
14
 73
10
 74
0
 42
0.0000001
 43
0.0000001
 44
0.0000000001
 40
0.0
 40
0.0
 40
0.0
 40
0.0
 40
0.0996047779
 40
0.2157878171
 40
0.3445705821
 40
0.4810421145
 40
0.7562276305
 40
0.8843940163
 40
1.0
 40
1.0
 40
1.0
 40
1.0
 10
69.9721693315
 20
88.0416515401
 30
0.0
 10
69.9419320261
 20
87.9830809516
 30
0.0
 10
69.8839934625
 20
87.8523218464
 30
0.0
 10
69.8043538129
 20
87.6386121921
 30
0.0
 10
69.7249001119
 20
87.3989763305
 30
0.0
 10
69.6187837384
 20
87.0574375391
 30
0.0
 10
69.5164723442
 20
86.7151350533
 30
0.0
 10
69.4095586464
 20
86.3887507898
 30
0.0
 10
69.3543374964
 20
86.2371019675
 30
0.0
 10
69.3259691253
 20
86.1660517526
 30
0.0
  0
SPLINE
  5
3FD
100
AcDbEntity
  8
DEFAULT_2
100
AcDbSpline
 62
8
  6
HIDDEN
 70
0
 71
3
 72
14
 73
10
 74
0
 42
0.0000001
 43
0.0000001
 44
0.0000000001
 40
0.0
 40
0.0
 40
0.0
 40
0.0
 40
0.0996047779
 40
0.2157878171
 40
0.3445705821
 40
0.4810421145
 40
0.7562276305
 40
0.8843940163
 40
1.0
 40
1.0
 40
1.0
 40
1.0
 10
69.9721693315
 20
72.0416515401
 30
0.0
 10
69.9419320261
 20
71.9830809516
 30
0.0
 10
69.8839934625
 20
71.8523218464
 30
0.0
 10
69.8043538129
 20
71.6386121921
 30
0.0
 10
69.7249001119
 20
71.3989763305
 30
0.0
 10
69.6187837384
 20
71.0574375391
 30
0.0
 10
69.5164723442
 20
70.7151350533
 30
0.0
 10
69.4095586464
 20
70.3887507898
 30
0.0
 10
69.3543374964
 20
70.2371019675
 30
0.0
 10
69.3259691253
 20
70.1660517526
 30
0.0
  0
SPLINE
  5
3FE
100
AcDbEntity
  8
DEFAULT_2
100
AcDbSpline
 62
8
  6
HIDDEN
 70
0
 71
3
 72
9
 73
5
 74
0
 42
0.0000001
 43
0.0000001
 44
0.0000000001
 40
0.0
 40
0.0
 40
0.0
 40
0.0
 40
0.2504847683
 40
1.0
 40
1.0
 40
1.0
 40
1.0
 10
51.8958612906
 20
49.1323750354
 30
0.0
 10
51.8880918096
 20
49.1556834785
 30
0.0
 10
51.8580416501
 20
49.2490517374
 30
0.0
 10
51.832231289
 20
49.3438229524
 30
0.0
 10
51.8160421724
 20
49.4155358929
 30
0.0
  0
SPLINE
  5
3FF
100
AcDbEntity
  8
DEFAULT_2
100
AcDbSpline
 62
8
  6
HIDDEN
 70
0
 71
3
 72
8
 73
4
 74
0
 42
0.0000001
 43
0.0000001
 44
0.0000000001
 40
0.0
 40
0.0
 40
0.0
 40
0.0
 40
1.0
 40
1.0
 40
1.0
 40
1.0
 10
51.8160421724
 20
49.4155358929
 30
0.0
 10
51.8007219991
 20
49.4833996748
 30
0.0
 10
51.7882093536
 20
49.5519884383
 30
0.0
 10
51.7792213674
 20
49.6209769642
 30
0.0
  0
SPLINE
  5
400
100
AcDbEntity
  8
DEFAULT_2
100
AcDbSpline
 62
8
  6
HIDDEN
 70
0
 71
3
 72
9
 73
5
 74
0
 42
0.0000001
 43
0.0000001
 44
0.0000000001
 40
0.0
 40
0.0
 40
0.0
 40
0.0
 40
0.4982646459
 40
1.0
 40
1.0
 40
1.0
 40
1.0
 10
51.7769902715
 20
49.6387079834
 30
0.0
 10
51.7568324394
 20
49.8048078845
 30
0.0
 10
51.7582292829
 20
50.1449660492
 30
0.0
 10
51.8425819472
 20
50.4725370051
 30
0.0
 10
51.8958612906
 20
50.6323750354
 30
0.0
  0
SPLINE
  5
401
100
AcDbEntity
  8
DEFAULT_2
100
AcDbSpline
 62
8
  6
HIDDEN
 70
0
 71
3
 72
9
 73
5
 74
0
 42
0.0000001
 43
0.0000001
 44
0.0000000001
 40
0.0
 40
0.0
 40
0.0
 40
0.0
 40
0.2504847683
 40
1.0
 40
1.0
 40
1.0
 40
1.0
 10
51.8958612906
 20
47.6323750354
 30
0.0
 10
51.8880918096
 20
47.6556834785
 30
0.0
 10
51.8580416501
 20
47.7490517374
 30
0.0
 10
51.832231289
 20
47.8438229524
 30
0.0
 10
51.8160421724
 20
47.9155358929
 30
0.0
  0
SPLINE
  5
402
100
AcDbEntity
  8
DEFAULT_2
100
AcDbSpline
 62
8
  6
HIDDEN
 70
0
 71
3
 72
9
 73
5
 74
0
 42
0.0000001
 43
0.0000001
 44
0.0000000001
 40
0.0
 40
0.0
 40
0.0
 40
0.0
 40
0.249506425
 40
1.0
 40
1.0
 40
1.0
 40
1.0
 10
51.8161068592
 20
48.8495040545
 30
0.0
 10
51.8214935645
 20
48.8733525193
 30
0.0
 10
51.8444795262
 20
48.9686189354
 30
0.0
 10
51.8726055165
 20
49.0626077129
 30
0.0
 10
51.8958612906
 20
49.1323750354
 30
0.0
  0
SPLINE
  5
403
100
AcDbEntity
  8
DEFAULT_2
100
AcDbSpline
 62
8
  6
HIDDEN
 70
0
 71
3
 72
18
 73
14
 74
0
 42
0.0000001
 43
0.0000001
 44
0.0000000001
 40
0.0
 40
0.0
 40
0.0
 40
0.0
 40
0.1815441283
 40
0.323374815
 40
0.3804655335
 40
0.4294066539
 40
0.509197513
 40
0.5466424691
 40
0.5869972438
 40
0.6333213452
 40
0.687676118
 40
0.8241274082
 40
1.0
 40
1.0
 40
1.0
 40
1.0
 10
51.7291560877
 20
85.0055645708
 30
0.0
 10
51.7162828936
 20
84.9731598769
 30
0.0
 10
51.6913367561
 20
84.9162141861
 30
0.0
 10
51.6542268346
 20
84.852832424
 30
0.0
 10
51.6233628718
 20
84.8163360396
 30
0.0
 10
51.5966211256
 20
84.7927384302
 30
0.0
 10
51.5656557918
 20
84.7790738501
 30
0.0
 10
51.5349688023
 20
84.7821536041
 30
0.0
 10
51.5128194913
 20
84.7917478149
 30
0.0
 10
51.4911308347
 20
84.8082982357
 30
0.0
 10
51.4602423727
 20
84.8419841171
 30
0.0
 10
51.4231400399
 20
84.9024063883
 30
0.0
 10
51.3983270536
 20
84.9570654065
 30
0.0
 10
51.3854631945
 20
84.9882988431
 30
0.0
  0
SPLINE
  5
404
100
AcDbEntity
  8
DEFAULT_2
100
AcDbSpline
 62
8
  6
HIDDEN
 70
0
 71
3
 72
18
 73
14
 74
0
 42
0.0000001
 43
0.0000001
 44
0.0000000001
 40
0.0
 40
0.0
 40
0.0
 40
0.0
 40
0.1819926322
 40
0.3247869038
 40
0.3822082927
 40
0.4312457305
 40
0.5107066573
 40
0.5481809323
 40
0.5887143293
 40
0.6351515209
 40
0.6893476467
 40
0.8248767818
 40
1.0
 40
1.0
 40
1.0
 40
1.0
 10
52.9789739496
 20
89.2586785586
 30
0.0
 10
52.9660630135
 20
89.2911771256
 30
0.0
 10
52.9410677287
 20
89.3484166134
 30
0.0
 10
52.9041013124
 20
89.4122977168
 30
0.0
 10
52.8732732366
 20
89.4491988235
 30
0.0
 10
52.8466343304
 20
89.4729752866
 30
0.0
 10
52.8154642044
 20
89.4863867889
 30
0.0
 10
52.7848513172
 20
89.4827023229
 30
0.0
 10
52.7627838399
 20
89.4727960822
 30
0.0
 10
52.7411422943
 20
89.4561477803
 30
0.0
 10
52.7102697768
 20
89.4226855743
 30
0.0
 10
52.6730518986
 20
89.3627119814
 30
0.0
 10
52.6482868534
 20
89.3083438764
 30
0.0
 10
52.6354709121
 20
89.277230716
 30
0.0
  0
SPLINE
  5
405
100
AcDbEntity
  8
DEFAULT_2
100
AcDbSpline
 62
8
  6
HIDDEN
 70
0
 71
3
 72
18
 73
14
 74
0
 42
0.0000001
 43
0.0000001
 44
0.0000000001
 40
0.0
 40
0.0
 40
0.0
 40
0.0
 40
0.18223235
 40
0.3244644318
 40
0.3813983301
 40
0.4300739734
 40
0.5095231784
 40
0.5470431369
 40
0.5875341498
 40
0.6338783205
 40
0.6880329974
 40
0.8240556544
 40
1.0
 40
1.0
 40
1.0
 40
1.0
 10
54.2285329622
 20
85.0043224179
 30
0.0
 10
54.2156621391
 20
84.9718940622
 30
0.0
 10
54.1908044655
 20
84.9149112766
 30
0.0
 10
54.1538943775
 20
84.8514498759
 30
0.0
 10
54.1230280613
 20
84.8151529206
 30
0.0
 10
54.0963116701
 20
84.7918932568
 30
0.0
 10
54.0653062821
 20
84.7788028665
 30
0.0
 10
54.0348055617
 20
84.7822956484
 30
0.0
 10
54.0127601862
 20
84.7920029515
 30
0.0
 10
53.9911358093
 20
84.8084630552
 30
0.0
 10
53.9602487662
 20
84.8417924859
 30
0.0
 10
53.9231815024
 20
84.9018705783
 30
0.0
 10
53.8984997489
 20
84.9563043968
 30
0.0
 10
53.8856788029
 20
84.9874544384
 30
0.0
  0
SPLINE
  5
406
100
AcDbEntity
  8
DEFAULT_2
100
AcDbSpline
 62
8
  6
HIDDEN
 70
0
 71
3
 72
18
 73
14
 74
0
 42
0.0000001
 43
0.0000001
 44
0.0000000001
 40
0.0
 40
0.0
 40
0.0
 40
0.0
 40
0.1819945304
 40
0.3236787692
 40
0.3805015191
 40
0.4291488808
 40
0.5086087885
 40
0.5461229834
 40
0.5866358126
 40
0.6330875998
 40
0.687490998
 40
0.8240344604
 40
1.0
 40
1.0
 40
1.0
 40
1.0
 10
55.4783003876
 20
89.2611167146
 30
0.0
 10
55.465448446
 20
89.2935033181
 30
0.0
 10
55.440655109
 20
89.3503585007
 30
0.0
 10
55.4036349219
 20
89.4135551561
 30
0.0
 10
55.3727956117
 20
89.4496986229
 30
0.0
 10
55.346085337
 20
89.4729210989
 30
0.0
 10
55.3151051514
 20
89.4860498226
 30
0.0
 10
55.2845924439
 20
89.4825688081
 30
0.0
 10
55.2625384981
 20
89.472811228
 30
0.0
 10
55.2409107724
 20
89.4562304201
 30
0.0
 10
55.2100781705
 20
89.4226220986
 30
0.0
 10
55.173080485
 20
89.3623446346
 30
0.0
 10
55.1483266251
 20
89.3078310613
 30
0.0
 10
55.1354951008
 20
89.2766812393
 30
0.0
  0
SPLINE
  5
407
100
AcDbEntity
  8
DEFAULT_2
100
AcDbSpline
 62
8
  6
HIDDEN
 70
0
 71
3
 72
18
 73
14
 74
0
 42
0.0000001
 43
0.0000001
 44
0.0000000001
 40
0.0
 40
0.0
 40
0.0
 40
0.0
 40
0.1820544062
 40
0.3238657418
 40
0.3807286055
 40
0.4294058504
 40
0.5089000888
 40
0.5464091724
 40
0.5868931961
 40
0.6332865999
 40
0.6876010078
 40
0.8240350153
 40
1.0
 40
1.0
 40
1.0
 40
1.0
 10
56.7284369124
 20
85.0039368159
 30
0.0
 10
56.7155784272
 20
84.9715370998
 30
0.0
 10
56.6907716201
 20
84.9146442182
 30
0.0
 10
56.6537664067
 20
84.8513812827
 30
0.0
 10
56.6229202527
 20
84.815188215
 30
0.0
 10
56.5962078047
 20
84.7919330913
 30
0.0
 10
56.5652319748
 20
84.7787670717
 30
0.0
 10
56.5347118426
 20
84.7821972548
 30
0.0
 10
56.5126544776
 20
84.7919083392
 30
0.0
 10
56.4910227649
 20
84.8084320345
 30
0.0
 10
56.4601627766
 20
84.8419554773
 30
0.0
 10
56.4231656607
 20
84.9022039365
 30
0.0
 10
56.3984208834
 20
84.9567026
 30
0.0
 10
56.3855897488
 20
84.9878557481
 30
0.0
  0
SPLINE
  5
408
100
AcDbEntity
  8
DEFAULT_2
100
AcDbSpline
 62
8
  6
HIDDEN
 70
0
 71
3
 72
23
 73
19
 74
0
 42
0.0000001
 43
0.0000001
 44
0.0000000001
 40
0.0
 40
0.0
 40
0.0
 40
0.0
 40
0.0538580674
 40
0.116274228
 40
0.1861655069
 40
0.2618973458
 40
0.4238068253
 40
0.5872772719
 40
0.6647978742
 40
0.7370269577
 40
0.8024752942
 40
0.8598360087
 40
0.9079758506
 40
0.9464907957
 40
0.9623747866
 40
0.9762819183
 40
0.988615406
 40
1.0
 40
1.0
 40
1.0
 40
1.0
 10
52.200957767
 20
88.3099160861
 30
0.0
 10
52.1779006901
 20
88.2647067011
 30
0.0
 10
52.1330042535
 20
88.1646215032
 30
0.0
 10
52.070687108
 20
88.000592575
 30
0.0
 10
52.0083549199
 20
87.8146950596
 30
0.0
 10
51.9231031087
 20
87.537719057
 30
0.0
 10
51.8201649014
 20
87.174024525
 30
0.0
 10
51.7177156095
 20
86.8084570692
 30
0.0
 10
51.632874113
 20
86.5257578645
 30
0.0
 10
51.5703628568
 20
86.3328284626
 30
0.0
 10
51.5080120557
 20
86.1599077209
 30
0.0
 10
51.4459756975
 20
86.0111162681
 30
0.0
 10
51.3841214591
 20
85.890184167
 30
0.0
 10
51.3293366116
 20
85.8098880591
 30
0.0
 10
51.2842571046
 20
85.7636997997
 30
0.0
 10
51.2523882019
 20
85.7396966308
 30
0.0
 10
51.2201115926
 20
85.724330728
 30
0.0
 10
51.1978045461
 20
85.7201771926
 30
0.0
 10
51.187083875
 20
85.7197941387
 30
0.0
  0
SPLINE
  5
409
100
AcDbEntity
  8
DEFAULT_2
100
AcDbSpline
 62
8
  6
HIDDEN
 70
0
 71
3
 72
22
 73
18
 74
0
 42
0.0000001
 43
0.0000001
 44
0.0000000001
 40
0.0
 40
0.0
 40
0.0
 40
0.0
 40
0.0538411941
 40
0.1163561501
 40
0.2618218832
 40
0.4237221789
 40
0.5870466845
 40
0.6644855763
 40
0.7367786937
 40
0.8022608164
 40
0.8594656956
 40
0.907611314
 40
0.9463792145
 40
0.9623647973
 40
0.9763076104
 40
0.9886276385
 40
1.0
 40
1.0
 40
1.0
 40
1.0
 10
53.4505613007
 20
85.9554837158
 30
0.0
 10
53.4274970277
 20
86.0006434897
 30
0.0
 10
53.3826112568
 20
86.1007647143
 30
0.0
 10
53.2953817288
 20
86.3314802374
 30
0.0
 10
53.1909721145
 20
86.6640395914
 30
0.0
 10
53.0702459901
 20
87.0905537628
 30
0.0
 10
52.967908834
 20
87.4557425657
 30
0.0
 10
52.8830655368
 20
87.7381261545
 30
0.0
 10
52.820697193
 20
87.9310106564
 30
0.0
 10
52.7585476646
 20
88.1038521833
 30
0.0
 10
52.6963831485
 20
88.2523939186
 30
0.0
 10
52.6344347041
 20
88.3732905507
 30
0.0
 10
52.5799435265
 20
88.4541063591
 30
0.0
 10
52.5349850995
 20
88.5008796552
 30
0.0
 10
52.5031578585
 20
88.5251207776
 30
0.0
 10
52.470848974
 20
88.5404380976
 30
0.0
 10
52.4485675693
 20
88.544502499
 30
0.0
 10
52.4378634824
 20
88.5448788607
 30
0.0
  0
SPLINE
  5
40A
100
AcDbEntity
  8
DEFAULT_2
100
AcDbSpline
 62
8
  6
HIDDEN
 70
0
 71
3
 72
22
 73
18
 74
0
 42
0.0000001
 43
0.0000001
 44
0.0000000001
 40
0.0
 40
0.0
 40
0.0
 40
0.0
 40
0.0539393476
 40
0.1165103881
 40
0.2619875001
 40
0.4239437732
 40
0.5873252434
 40
0.6647764552
 40
0.737049514
 40
0.8024721227
 40
0.8597037847
 40
0.9078991261
 40
0.9465672473
 40
0.962446205
 40
0.9763198879
 40
0.9886247068
 40
1.0
 40
1.0
 40
1.0
 40
1.0
 10
54.7005234662
 20
88.3093584321
 30
0.0
 10
54.6774200308
 20
88.2641031174
 30
0.0
 10
54.63258868
 20
88.163771904
 30
0.0
 10
54.5452930499
 20
87.9328660326
 30
0.0
 10
54.4407785381
 20
87.6001398016
 30
0.0
 10
54.3200191767
 20
87.1734189819
 30
0.0
 10
54.217637513
 20
86.8080385982
 30
0.0
 10
54.1327531884
 20
86.5255559384
 30
0.0
 10
54.0703723261
 20
86.3326968147
 30
0.0
 10
54.0081142283
 20
86.1599081578
 30
0.0
 10
53.9459355605
 20
86.0113189337
 30
0.0
 10
53.8840847077
 20
85.8903783761
 30
0.0
 10
53.829600306
 20
85.8096665344
 30
0.0
 10
53.7844609916
 20
85.7633957244
 30
0.0
 10
53.7525780367
 20
85.7395257136
 30
0.0
 10
53.7202946063
 20
85.7243508344
 30
0.0
 10
53.6980253109
 20
85.720282334
 30
0.0
 10
53.687316416
 20
85.7199014088
 30
0.0
  0
SPLINE
  5
40B
100
AcDbEntity
  8
DEFAULT_2
100
AcDbSpline
 62
8
  6
HIDDEN
 70
0
 71
3
 72
22
 73
18
 74
0
 42
0.0000001
 43
0.0000001
 44
0.0000000001
 40
0.0
 40
0.0
 40
0.0
 40
0.0
 40
0.0539103547
 40
0.11646033
 40
0.2620164808
 40
0.4239820218
 40
0.587332875
 40
0.6648198538
 40
0.7370628479
 40
0.8024114416
 40
0.8596852296
 40
0.907924773
 40
0.9465465174
 40
0.9624226193
 40
0.9763075188
 40
0.988622494
 40
1.0
 40
1.0
 40
1.0
 40
1.0
 10
55.9504498549
 20
85.9555910315
 30
0.0
 10
55.9273557734
 20
86.0008171609
 30
0.0
 10
55.8825080632
 20
86.1010817126
 30
0.0
 10
55.7951768183
 20
86.3319902585
 30
0.0
 10
55.6907638064
 20
86.6647947858
 30
0.0
 10
55.5699844597
 20
87.0915382803
 30
0.0
 10
55.467541685
 20
87.4568925785
 30
0.0
 10
55.3827352667
 20
87.7393559876
 30
0.0
 10
55.3203629462
 20
87.9321392282
 30
0.0
 10
55.2580063237
 20
88.1048197633
 30
0.0
 10
55.1958772928
 20
88.2534239666
 30
0.0
 10
55.134141026
 20
88.3744670143
 30
0.0
 10
55.0795399973
 20
88.4550906772
 30
0.0
 10
55.0344137114
 20
88.5013127995
 30
0.0
 10
55.0025487836
 20
88.5252269936
 30
0.0
 10
54.9702793313
 20
88.5404765897
 30
0.0
 10
54.9480014277
 20
88.5445795792
 30
0.0
 10
54.9372910746
 20
88.5449607216
 30
0.0
  0
SPLINE
  5
40C
100
AcDbEntity
  8
DEFAULT_2
100
AcDbSpline
 62
8
  6
HIDDEN
 70
0
 71
3
 72
22
 73
18
 74
0
 42
0.0000001
 43
0.0000001
 44
0.0000000001
 40
0.0
 40
0.0
 40
0.0
 40
0.0
 40
0.0538715039
 40
0.1163877686
 40
0.2619086684
 40
0.42387247
 40
0.5872611534
 40
0.664741914
 40
0.7370260686
 40
0.8024271331
 40
0.8596964037
 40
0.9079210579
 40
0.9465481891
 40
0.9624239252
 40
0.9763073836
 40
0.9886217137
 40
1.0
 40
1.0
 40
1.0
 40
1.0
 10
57.2007413524
 20
88.3096957647
 30
0.0
 10
57.1776733422
 20
88.2644846582
 30
0.0
 10
57.1327535567
 20
88.1643032442
 30
0.0
 10
57.0454159618
 20
87.9334420123
 30
0.0
 10
56.9409569741
 20
87.6006425607
 30
0.0
 10
56.8201318095
 20
87.1738067742
 30
0.0
 10
56.7177044059
 20
86.8083305334
 30
0.0
 10
56.6328218778
 20
86.5257493671
 30
0.0
 10
56.5704416691
 20
86.3328352311
 30
0.0
 10
56.5081083051
 20
86.1600131111
 30
0.0
 10
56.4459378118
 20
86.0113508117
 30
0.0
 10
56.3841521744
 20
85.8903158599
 30
0.0
 10
56.3295581722
 20
85.8096725493
 30
0.0
 10
56.2844137249
 20
85.763442196
 30
0.0
 10
56.2525364719
 20
85.7395329083
 30
0.0
 10
56.2202552357
 20
85.7242923946
 30
0.0
 10
56.1979721157
 20
85.7201932698
 30
0.0
 10
56.1872586399
 20
85.7198117258
 30
0.0
  0
SPLINE
  5
40D
100
AcDbEntity
  8
DEFAULT_2
100
AcDbSpline
 62
8
  6
HIDDEN
 70
0
 71
3
 72
17
 73
13
 74
0
 42
0.0000001
 43
0.0000001
 44
0.0000000001
 40
0.0
 40
0.0
 40
0.0
 40
0.0
 40
0.026125684
 40
0.0546908078
 40
0.0876223506
 40
0.1259980327
 40
0.2205653605
 40
0.3391993761
 40
0.480456506
 40
0.6408759446
 40
0.8157073868
 40
1.0
 40
1.0
 40
1.0
 40
1.0
 10
51.9016301861
 20
85.7327808003
 30
0.0
 10
51.8895514409
 20
85.7327763096
 30
0.0
 10
51.8641232297
 20
85.7369554995
 30
0.0
 10
51.8274241293
 20
85.7551300952
 30
0.0
 10
51.7914860036
 20
85.7845651272
 30
0.0
 10
51.7404506127
 20
85.8420917193
 30
0.0
 10
51.6789844643
 20
85.9416002647
 30
0.0
 10
51.6091313046
 20
86.0899530311
 30
0.0
 10
51.5392036683
 20
86.2714077764
 30
0.0
 10
51.4690458496
 20
86.4802708362
 30
0.0
 10
51.3986111769
 20
86.7099343191
 30
0.0
 10
51.3523494427
 20
86.8693960755
 30
0.0
 10
51.3288739925
 20
86.9513027046
 30
0.0
  0
SPLINE
  5
40E
100
AcDbEntity
  8
DEFAULT_2
100
AcDbSpline
 62
8
  6
HIDDEN
 70
0
 71
3
 72
22
 73
18
 74
0
 42
0.0000001
 43
0.0000001
 44
0.0000000001
 40
0.0
 40
0.0
 40
0.0
 40
0.0
 40
0.0113781885
 40
0.0235689585
 40
0.0372084203
 40
0.0527267082
 40
0.0903251444
 40
0.137325619
 40
0.1932777265
 40
0.257265323
 40
0.3281952158
 40
0.4046096821
 40
0.5667840917
 40
0.729378852
 40
0.8780860326
 40
0.9430142389
 40
1.0
 40
1.0
 40
1.0
 40
1.0
 10
53.1523989442
 20
88.5323846193
 30
0.0
 10
53.1419451928
 20
88.5323824835
 30
0.0
 10
53.1201969382
 20
88.5292389625
 30
0.0
 10
53.0884886765
 20
88.5156979416
 30
0.0
 10
53.0571805697
 20
88.4938150492
 30
0.0
 10
53.0129340762
 20
88.45107463
 30
0.0
 10
52.9592014766
 20
88.3756626301
 30
0.0
 10
52.8986062003
 20
88.2614882401
 30
0.0
 10
52.8376584347
 20
88.1206023383
 30
0.0
 10
52.7764661849
 20
87.956217649
 30
0.0
 10
52.7152066424
 20
87.7719419579
 30
0.0
 10
52.6318186111
 20
87.5000570131
 30
0.0
 10
52.5309912631
 20
87.1455021815
 30
0.0
 10
52.4120585918
 20
86.7271035843
 30
0.0
 10
52.3099306028
 20
86.3967094803
 30
0.0
 10
52.2244508421
 20
86.1631752092
 30
0.0
 10
52.1807248967
 20
86.0599523323
 30
0.0
 10
52.1583330959
 20
86.0126263912
 30
0.0
  0
SPLINE
  5
40F
100
AcDbEntity
  8
DEFAULT_2
100
AcDbSpline
 62
8
  6
HIDDEN
 70
0
 71
3
 72
22
 73
18
 74
0
 42
0.0000001
 43
0.0000001
 44
0.0000000001
 40
0.0
 40
0.0
 40
0.0
 40
0.0
 40
0.0113725807
 40
0.0235391286
 40
0.0371493258
 40
0.0526673706
 40
0.0903475405
 40
0.1372709694
 40
0.1930820612
 40
0.2570668139
 40
0.328025816
 40
0.4043655102
 40
0.5664893586
 40
0.729170784
 40
0.8778249806
 40
0.9429231043
 40
1.0
 40
1.0
 40
1.0
 40
1.0
 10
54.4023950348
 20
85.7325970732
 30
0.0
 10
54.3919521893
 20
85.7325991806
 30
0.0
 10
54.3702427667
 20
85.7356622501
 30
0.0
 10
54.338531187
 20
85.7490112883
 30
0.0
 10
54.307205917
 20
85.7707592959
 30
0.0
 10
54.2629699174
 20
85.813544934
 30
0.0
 10
54.2094930954
 20
85.88907584
 30
0.0
 10
54.1487848852
 20
86.0029459419
 30
0.0
 10
54.0877873782
 20
86.1435093106
 30
0.0
 10
54.0267165786
 20
86.3077236806
 30
0.0
 10
53.9655602841
 20
86.4918732238
 30
0.0
 10
53.8821295858
 20
86.7634883258
 30
0.0
 10
53.7813474992
 20
87.1178085067
 30
0.0
 10
53.6626929345
 20
87.5360250362
 30
0.0
 10
53.5603351549
 20
87.8663393662
 30
0.0
 10
53.4751143917
 20
88.1000195284
 30
0.0
 10
53.4314543639
 20
88.2034689566
 30
0.0
 10
53.4090239307
 20
88.2508372992
 30
0.0
  0
SPLINE
  5
410
100
AcDbEntity
  8
DEFAULT_2
100
AcDbSpline
 62
8
  6
HIDDEN
 70
0
 71
3
 72
22
 73
18
 74
0
 42
0.0000001
 43
0.0000001
 44
0.0000000001
 40
0.0
 40
0.0
 40
0.0
 40
0.0
 40
0.0113711874
 40
0.0235433151
 40
0.0371820445
 40
0.0527495259
 40
0.090454491
 40
0.1373434543
 40
0.1931745562
 40
0.2572506484
 40
0.3282240666
 40
0.4045360699
 40
0.5666168585
 40
0.7292822286
 40
0.877931352
 40
0.9429877367
 40
1.0
 40
1.0
 40
1.0
 40
1.0
 10
55.6521334192
 20
88.5321771184
 30
0.0
 10
55.6416919197
 20
88.5321770195
 30
0.0
 10
55.6199767991
 20
88.5291152033
 30
0.0
 10
55.5882509881
 20
88.5157079977
 30
0.0
 10
55.5569397222
 20
88.4937980217
 30
0.0
 10
55.5128101967
 20
88.4507758101
 30
0.0
 10
55.4592873828
 20
88.3752620617
 30
0.0
 10
55.3985202813
 20
88.2614006301
 30
0.0
 10
55.3375339206
 20
88.1207568814
 30
0.0
 10
55.2765579625
 20
87.9563848257
 30
0.0
 10
55.2153742547
 20
87.7721719459
 30
0.0
 10
55.1319355982
 20
87.5006146877
 30
0.0
 10
55.0311656064
 20
87.1463765719
 30
0.0
 10
54.9125284036
 20
86.728219117
 30
0.0
 10
54.8102166656
 20
86.397954219
 30
0.0
 10
54.7250131316
 20
86.1643753599
 30
0.0
 10
54.6813119213
 20
86.0610512719
 30
0.0
 10
54.6589042048
 20
86.0137382086
 30
0.0
  0
SPLINE
  5
411
100
AcDbEntity
  8
DEFAULT_2
100
AcDbSpline
 62
8
  6
HIDDEN
 70
0
 71
3
 72
11
 73
7
 74
0
 42
0.0000001
 43
0.0000001
 44
0.0000000001
 40
0.0
 40
0.0
 40
0.0
 40
0.0
 40
0.2805091684
 40
0.5498397895
 40
0.7927588903
 40
1.0
 40
1.0
 40
1.0
 40
1.0
 10
70.375166404
 20
86.9611975557
 30
0.0
 10
70.3370414163
 20
87.0220449343
 30
0.0
 10
70.2634517854
 20
87.1420109674
 30
0.0
 10
70.1535305791
 20
87.3126863626
 30
0.0
 10
70.0441909952
 20
87.461041202
 30
0.0
 10
69.9646719568
 20
87.54538628
 30
0.0
 10
69.9240538495
 20
87.5795099682
 30
0.0
  0
SPLINE
  5
412
100
AcDbEntity
  8
DEFAULT_2
100
AcDbSpline
 62
8
  6
HIDDEN
 70
0
 71
3
 72
18
 73
14
 74
0
 42
0.0000001
 43
0.0000001
 44
0.0000000001
 40
0.0
 40
0.0
 40
0.0
 40
0.0
 40
0.187170847
 40
0.3374520393
 40
0.3991424136
 40
0.4526398985
 40
0.5407076959
 40
0.5807655895
 40
0.6220629632
 40
0.6674380334
 40
0.7188381596
 40
0.843523361
 40
1.0
 40
1.0
 40
1.0
 40
1.0
 10
70.5137170605
 20
87.940685325
 30
0.0
 10
70.4929621548
 20
87.9891619945
 30
0.0
 10
70.4526667753
 20
88.0753682927
 30
0.0
 10
70.3940454863
 20
88.1718955444
 30
0.0
 10
70.3455586738
 20
88.2291729813
 30
0.0
 10
70.3030365386
 20
88.2674890904
 30
0.0
 10
70.255357388
 20
88.2916992293
 30
0.0
 10
70.2069397705
 20
88.2929532794
 30
0.0
 10
70.1720425218
 20
88.2835578739
 30
0.0
 10
70.137823173
 20
88.2644305023
 30
0.0
 10
70.0897522878
 20
88.2242523288
 30
0.0
 10
70.0315881051
 20
88.1497688629
 30
0.0
 10
69.9923925523
 20
88.0808245395
 30
0.0
 10
69.9721693315
 20
88.0416515401
 30
0.0
  0
SPLINE
  5
413
100
AcDbEntity
  8
DEFAULT_2
100
AcDbSpline
 62
8
  6
HIDDEN
 70
0
 71
3
 72
22
 73
18
 74
0
 42
0.0000001
 43
0.0000001
 44
0.0000000001
 40
0.0
 40
0.0
 40
0.0
 40
0.0
 40
0.0113722932
 40
0.0235436886
 40
0.0371771659
 40
0.0527407891
 40
0.0904584697
 40
0.1373668588
 40
0.1931909335
 40
0.2572369096
 40
0.328201125
 40
0.4045432043
 40
0.5667221847
 40
0.7293387561
 40
0.8780377185
 40
0.9430474401
 40
1.0
 40
1.0
 40
1.0
 40
1.0
 10
56.9021614264
 20
85.7325984563
 30
0.0
 10
56.8917189931
 20
85.7325987228
 30
0.0
 10
56.870003884
 20
85.7356583715
 30
0.0
 10
56.8382783061
 20
85.7490503822
 30
0.0
 10
56.8069548261
 20
85.7709263416
 30
0.0
 10
56.7628072837
 20
85.8139373034
 30
0.0
 10
56.7092963195
 20
85.8894937031
 30
0.0
 10
56.6485402862
 20
86.0033831718
 30
0.0
 10
56.5875398895
 20
86.1440012401
 30
0.0
 10
56.5265342933
 20
86.308315521
 30
0.0
 10
56.4653406885
 20
86.4925150632
 30
0.0
 10
56.3818967339
 20
86.764182999
 30
0.0
 10
56.2812107204
 20
87.1185180942
 30
0.0
 10
56.1624103984
 20
87.5367194992
 30
0.0
 10
56.0602087576
 20
87.8669708563
 30
0.0
 10
55.9749703633
 20
88.1004841108
 30
0.0
 10
55.9312090094
 20
88.2036735688
 30
0.0
 10
55.9088289921
 20
88.2509386387
 30
0.0
  0
SPLINE
  5
414
100
AcDbEntity
  8
DEFAULT_2
100
AcDbSpline
 62
8
  6
HIDDEN
 70
0
 71
3
 72
22
 73
18
 74
0
 42
0.0000001
 43
0.0000001
 44
0.0000000001
 40
0.0
 40
0.0
 40
0.0
 40
0.0
 40
0.0113764052
 40
0.0235636042
 40
0.0371984275
 40
0.0527132673
 40
0.0903162081
 40
0.1372663251
 40
0.1931484714
 40
0.2571514204
 40
0.3281155054
 40
0.4044644287
 40
0.5666014765
 40
0.7292733587
 40
0.8779537158
 40
0.9430113336
 40
1.0
 40
1.0
 40
1.0
 40
1.0
 10
58.152356713
 20
88.5323709613
 30
0.0
 10
58.1419093143
 20
88.5323692408
 30
0.0
 10
58.1201756697
 20
88.529234521
 30
0.0
 10
58.0884838042
 20
88.515717926
 30
0.0
 10
58.057191341
 20
88.493860943
 30
0.0
 10
58.0129608718
 20
88.4511466687
 30
0.0
 10
57.9593187061
 20
88.3757779687
 30
0.0
 10
57.8987105482
 20
88.2618035372
 30
0.0
 10
57.8377440531
 20
88.1211017986
 30
0.0
 10
57.7766348019
 20
87.9567895514
 30
0.0
 10
57.7154664855
 20
87.772592431
 30
0.0
 10
57.6320286732
 20
87.5009233004
 30
0.0
 10
57.5312460594
 20
87.1465530552
 30
0.0
 10
57.4125408975
 20
86.7282767501
 30
0.0
 10
57.310215719
 20
86.3979419933
 30
0.0
 10
57.2250141953
 20
86.1643232346
 30
0.0
 10
57.181260121
 20
86.061031762
 30
0.0
 10
57.1588628103
 20
86.0137316034
 30
0.0
  0
SPLINE
  5
415
100
AcDbEntity
  8
DEFAULT_2
100
AcDbSpline
 62
8
  6
HIDDEN
 70
0
 71
3
 72
10
 73
6
 74
0
 42
0.0000001
 43
0.0000001
 44
0.0000000001
 40
0.0
 40
0.0
 40
0.0
 40
0.0
 40
0.5530585736
 40
0.7943149384
 40
1.0
 40
1.0
 40
1.0
 40
1.0
 10
64.991978525
 20
87.008369781
 30
0.0
 10
64.9388176515
 20
86.8220539992
 30
0.0
 10
64.8618350241
 20
86.5545136105
 30
0.0
 10
64.7482639117
 20
86.2230500172
 30
0.0
 10
64.6892370959
 20
86.0778009177
 30
0.0
 10
64.6584273725
 20
86.012662716
 30
0.0
  0
SPLINE
  5
416
100
AcDbEntity
  8
DEFAULT_2
100
AcDbSpline
 62
8
  6
HIDDEN
 70
0
 71
3
 72
19
 73
15
 74
0
 42
0.0000001
 43
0.0000001
 44
0.0000000001
 40
0.0
 40
0.0
 40
0.0
 40
0.0
 40
0.1779993495
 40
0.3508937414
 40
0.5122386836
 40
0.6564681838
 40
0.7206070051
 40
0.7786943004
 40
0.8304511115
 40
0.8757528719
 40
0.9146427238
 40
0.9474771121
 40
0.9752660109
 40
1.0
 40
1.0
 40
1.0
 40
1.0
 10
64.3267784328
 20
87.1966800679
 30
0.0
 10
64.300206359
 20
87.1024331782
 30
0.0
 10
64.2480401466
 20
86.916582723
 30
0.0
 10
64.1697499719
 20
86.6458719852
 30
0.0
 10
64.0915159952
 20
86.3945312913
 30
0.0
 10
64.0242905527
 20
86.2024763508
 30
0.0
 10
63.9693150224
 20
86.0665593067
 30
0.0
 10
63.9296924404
 20
85.9793938702
 30
0.0
 10
63.8901065869
 20
85.9037165321
 30
0.0
 10
63.8505529017
 20
85.840133436
 30
0.0
 10
63.8109707271
 20
85.7891621516
 30
0.0
 10
63.7710597215
 20
85.7512456289
 30
0.0
 10
63.7302243758
 20
85.7270055693
 30
0.0
 10
63.7013850399
 20
85.7205366412
 30
0.0
 10
63.6877867884
 20
85.720057725
 30
0.0
  0
SPLINE
  5
417
100
AcDbEntity
  8
DEFAULT_2
100
AcDbSpline
 62
8
  6
HIDDEN
 70
0
 71
3
 72
18
 73
14
 74
0
 42
0.0000001
 43
0.0000001
 44
0.0000000001
 40
0.0
 40
0.0
 40
0.0
 40
0.0
 40
0.181403862
 40
0.3232773194
 40
0.3803666854
 40
0.4292557522
 40
0.5088084369
 40
0.5462335799
 40
0.5867702717
 40
0.6334140133
 40
0.6880053538
 40
0.8245046144
 40
1.0
 40
1.0
 40
1.0
 40
1.0
 10
59.2291279852
 20
85.0055347235
 30
0.0
 10
59.2162291073
 20
84.9730660871
 30
0.0
 10
59.1912394527
 20
84.9159754399
 30
0.0
 10
59.1541222437
 20
84.8523903846
 30
0.0
 10
59.1232271368
 20
84.8157479622
 30
0.0
 10
59.0964867631
 20
84.7920930325
 30
0.0
 10
59.0654078619
 20
84.7784614439
 30
0.0
 10
59.0346665861
 20
84.7819145175
 30
0.0
 10
59.0125292468
 20
84.7919318474
 30
0.0
 10
58.9908752578
 20
84.808861469
 30
0.0
 10
58.9599887052
 20
84.8428624782
 30
0.0
 10
58.9228196363
 20
84.9034330819
 30
0.0
 10
58.8979396598
 20
84.9581771641
 30
0.0
 10
58.8850575193
 20
84.9894249997
 30
0.0
  0
SPLINE
  5
418
100
AcDbEntity
  8
DEFAULT_2
100
AcDbSpline
 62
8
  6
HIDDEN
 70
0
 71
3
 72
13
 73
9
 74
0
 42
0.0000001
 43
0.0000001
 44
0.0000000001
 40
0.0
 40
0.0
 40
0.0
 40
0.0
 40
0.0806245384
 40
0.1612815848
 40
0.251332695
 40
0.3574763919
 40
0.6317842415
 40
1.0
 40
1.0
 40
1.0
 40
1.0
 10
57.8278262127
 20
89.4799429339
 30
0.0
 10
57.8201644913
 20
89.4826905638
 30
0.0
 10
57.8037612712
 20
89.4857902365
 30
0.0
 10
57.7783349263
 20
89.4808713549
 30
0.0
 10
57.7536769072
 20
89.466967504
 30
0.0
 10
57.7185593766
 20
89.4345753795
 30
0.0
 10
57.6767305212
 20
89.3706390521
 30
0.0
 10
57.649663124
 20
89.3116588418
 30
0.0
 10
57.6355070478
 20
89.2772863167
 30
0.0
  0
SPLINE
  5
419
100
AcDbEntity
  8
DEFAULT_2
100
AcDbSpline
 62
8
  6
HIDDEN
 70
0
 71
3
 72
18
 73
14
 74
0
 42
0.0000001
 43
0.0000001
 44
0.0000000001
 40
0.0
 40
0.0
 40
0.0
 40
0.0
 40
0.1821686565
 40
0.3247714363
 40
0.381994218
 40
0.4308051884
 40
0.5101212425
 40
0.5476723673
 40
0.5883115256
 40
0.634844846
 40
0.6891147222
 40
0.8247461096
 40
1.0
 40
1.0
 40
1.0
 40
1.0
 10
60.4789546028
 20
89.259418939
 30
0.0
 10
60.4660473182
 20
89.2919254421
 30
0.0
 10
60.4410723454
 20
89.349115946
 30
0.0
 10
60.4040720801
 20
89.4128756095
 30
0.0
 10
60.3732055024
 20
89.449543234
 30
0.0
 10
60.3464873959
 20
89.473044112
 30
0.0
 10
60.3152675438
 20
89.4860764945
 30
0.0
 10
60.2847074503
 20
89.4822216713
 30
0.0
 10
60.2626371748
 20
89.4722482269
 30
0.0
 10
60.2409833925
 20
89.4555678101
 30
0.0
 10
60.210094292
 20
89.4221000308
 30
0.0
 10
60.1728409581
 20
89.3621457509
 30
0.0
 10
60.1480594308
 20
89.3077866693
 30
0.0
 10
60.1352388017
 20
89.2766772049
 30
0.0
  0
SPLINE
  5
41A
100
AcDbEntity
  8
DEFAULT_2
100
AcDbSpline
 62
8
  6
HIDDEN
 70
0
 71
3
 72
18
 73
14
 74
0
 42
0.0000001
 43
0.0000001
 44
0.0000000001
 40
0.0
 40
0.0
 40
0.0
 40
0.0
 40
0.1822603649
 40
0.324761272
 40
0.381808842
 40
0.4304000811
 40
0.5095278374
 40
0.5471258587
 40
0.5878703951
 40
0.6345300472
 40
0.6889203118
 40
0.8247199314
 40
1.0
 40
1.0
 40
1.0
 40
1.0
 10
61.7287128728
 20
85.0048672619
 30
0.0
 10
61.7158019047
 20
84.9723468377
 30
0.0
 10
61.6908383987
 20
84.9151625621
 30
0.0
 10
61.6538486826
 20
84.8514360737
 30
0.0
 10
61.6229506675
 20
84.8149197249
 30
0.0
 10
61.596170333
 20
84.7916515966
 30
0.0
 10
61.5649059109
 20
84.7789235053
 30
0.0
 10
61.534391615
 20
84.7830036837
 30
0.0
 10
61.5123283597
 20
84.793105079
 30
0.0
 10
61.4906740115
 20
84.8098872225
 30
0.0
 10
61.4597877697
 20
84.8434573804
 30
0.0
 10
61.4225266508
 20
84.903464057
 30
0.0
 10
61.3977210079
 20
84.95784733
 30
0.0
 10
61.3848909715
 20
84.9889549098
 30
0.0
  0
SPLINE
  5
41B
100
AcDbEntity
  8
DEFAULT_2
100
AcDbSpline
 62
8
  6
HIDDEN
 70
0
 71
3
 72
18
 73
14
 74
0
 42
0.0000001
 43
0.0000001
 44
0.0000000001
 40
0.0
 40
0.0
 40
0.0
 40
0.0
 40
0.1822682962
 40
0.3246222293
 40
0.3816041932
 40
0.4302967373
 40
0.5097586505
 40
0.547300252
 40
0.5878158593
 40
0.634168934
 40
0.6882967521
 40
0.8241317633
 40
1.0
 40
1.0
 40
1.0
 40
1.0
 10
62.9787133089
 20
89.2601552841
 30
0.0
 10
62.9658327088
 20
89.2925990997
 30
0.0
 10
62.940937079
 20
89.3496194315
 30
0.0
 10
62.9040139278
 20
89.4131436842
 30
0.0
 10
62.8731300997
 20
89.4494931478
 30
0.0
 10
62.8463903936
 20
89.4727686997
 30
0.0
 10
62.8153479056
 20
89.4858346375
 30
0.0
 10
62.7848312887
 20
89.4823073171
 30
0.0
 10
62.7627734836
 20
89.4725872695
 30
0.0
 10
62.7411345503
 20
89.4561316651
 30
0.0
 10
62.7102323524
 20
89.4228521665
 30
0.0
 10
62.6730887039
 20
89.3628602362
 30
0.0
 10
62.6484100392
 20
89.308455606
 30
0.0
 10
62.6355859601
 20
89.2773110357
 30
0.0
  0
SPLINE
  5
41C
100
AcDbEntity
  8
DEFAULT_2
100
AcDbSpline
 62
8
  6
HIDDEN
 70
0
 71
3
 72
18
 73
14
 74
0
 42
0.0000001
 43
0.0000001
 44
0.0000000001
 40
0.0
 40
0.0
 40
0.0
 40
0.0
 40
0.1821768741
 40
0.3247866757
 40
0.3820298613
 40
0.4308762614
 40
0.5102634163
 40
0.5478006024
 40
0.5883890763
 40
0.6348519777
 40
0.6890528131
 40
0.824623833
 40
1.0
 40
1.0
 40
1.0
 40
1.0
 10
64.2290127343
 20
85.0053910075
 30
0.0
 10
64.2161099861
 20
84.9728908517
 30
0.0
 10
64.1911408765
 20
84.9157116307
 30
0.0
 10
64.1541426592
 20
84.8519665708
 30
0.0
 10
64.1232855157
 20
84.8152918359
 30
0.0
 10
64.0965717058
 20
84.7917662655
 30
0.0
 10
64.0653894663
 20
84.7786527891
 30
0.0
 10
64.0348221705
 20
84.7823931066
 30
0.0
 10
64.0127497008
 20
84.7922878483
 30
0.0
 10
63.9910957347
 20
84.8088987101
 30
0.0
 10
63.960201422
 20
84.8422951607
 30
0.0
 10
63.9229455358
 20
84.9022309979
 30
0.0
 10
63.8982001545
 20
84.9566018458
 30
0.0
 10
63.8853796073
 20
84.987727207
 30
0.0
  0
SPLINE
  5
41D
100
AcDbEntity
  8
DEFAULT_2
100
AcDbSpline
 62
8
  6
HIDDEN
 70
0
 71
3
 72
19
 73
15
 74
0
 42
0.0000001
 43
0.0000001
 44
0.0000000001
 40
0.0
 40
0.0
 40
0.0
 40
0.0
 40
0.0517624387
 40
0.1113680624
 40
0.2496349183
 40
0.4043927979
 40
0.5627543619
 40
0.7117756359
 40
0.7790095691
 40
0.8394725732
 40
0.8921024981
 40
0.9363903156
 40
0.9721651765
 40
1.0
 40
1.0
 40
1.0
 40
1.0
 10
58.4505948188
 20
85.9551645745
 30
0.0
 10
58.4289201926
 20
85.9976715699
 30
0.0
 10
58.3867504645
 20
86.0913952402
 30
0.0
 10
58.3043033337
 20
86.3062895793
 30
0.0
 10
58.2053365223
 20
86.6161146734
 30
0.0
 10
58.0910230978
 20
87.016168983
 30
0.0
 10
57.9763778026
 20
87.4264418317
 30
0.0
 10
57.8781635584
 20
87.7575716994
 30
0.0
 10
57.7969070901
 20
87.9993945817
 30
0.0
 10
57.7381481719
 20
88.1549536897
 30
0.0
 10
57.679429523
 20
88.2876996067
 30
0.0
 10
57.6208252724
 20
88.3953669612
 30
0.0
 10
57.5625213215
 20
88.4762005377
 30
0.0
 10
57.5177346824
 20
88.5158881936
 30
0.0
 10
57.4952261665
 20
88.5282045354
 30
0.0
  0
SPLINE
  5
41E
100
AcDbEntity
  8
DEFAULT_2
100
AcDbSpline
 62
8
  6
HIDDEN
 70
0
 71
3
 72
23
 73
19
 74
0
 42
0.0000001
 43
0.0000001
 44
0.0000000001
 40
0.0
 40
0.0
 40
0.0
 40
0.0
 40
0.0538339352
 40
0.1162111733
 40
0.1860517166
 40
0.2617286328
 40
0.4235101576
 40
0.5869006217
 40
0.664382632
 40
0.7366007506
 40
0.8020872408
 40
0.8595059562
 40
0.9077163563
 40
0.9463701869
 40
0.9623190369
 40
0.9762703403
 40
0.988620367
 40
1.0
 40
1.0
 40
1.0
 40
1.0
 10
59.7009893336
 20
88.3100658833
 30
0.0
 10
59.677949735
 20
88.2648834184
 30
0.0
 10
59.6330976948
 20
88.16486533
 30
0.0
 10
59.5708260517
 20
88.0009682277
 30
0.0
 10
59.5085406472
 20
87.8152360217
 30
0.0
 10
59.4233634721
 20
87.5385223142
 30
0.0
 10
59.3204767323
 20
87.1751417688
 30
0.0
 10
59.2181396081
 20
86.8098553216
 30
0.0
 10
59.1333519254
 20
86.5273232136
 30
0.0
 10
59.0708771226
 20
86.3344320642
 30
0.0
 10
59.0085843345
 20
86.1614421228
 30
0.0
 10
58.946612231
 20
86.0124839894
 30
0.0
 10
58.8847324097
 20
85.8913132977
 30
0.0
 10
58.8300523459
 20
85.8106717308
 30
0.0
 10
58.7850387931
 20
85.7641126617
 30
0.0
 10
58.7532112735
 20
85.7398716014
 30
0.0
 10
58.720963439
 20
85.7243262488
 30
0.0
 10
58.6986447374
 20
85.7201404124
 30
0.0
 10
58.6879302769
 20
85.7197689869
 30
0.0
  0
SPLINE
  5
41F
100
AcDbEntity
  8
DEFAULT_2
100
AcDbSpline
 62
8
  6
HIDDEN
 70
0
 71
3
 72
22
 73
18
 74
0
 42
0.0000001
 43
0.0000001
 44
0.0000000001
 40
0.0
 40
0.0
 40
0.0
 40
0.0
 40
0.05386274
 40
0.1163236954
 40
0.2617695855
 40
0.4236023613
 40
0.5869682655
 40
0.6643844736
 40
0.7366571883
 40
0.8021991455
 40
0.8595332172
 40
0.9077299356
 40
0.946471105
 40
0.9624209144
 40
0.9763255609
 40
0.9886296375
 40
1.0
 40
1.0
 40
1.0
 40
1.0
 10
60.9509179427
 20
85.954590042
 30
0.0
 10
60.9278664497
 20
85.9997967801
 30
0.0
 10
60.8829884921
 20
86.0999218475
 30
0.0
 10
60.7956304235
 20
86.3306188205
 30
0.0
 10
60.6912956545
 20
86.663178413
 30
0.0
 10
60.5704162575
 20
87.0897446515
 30
0.0
 10
60.4681499407
 20
87.4550288087
 30
0.0
 10
60.3832471053
 20
87.7374884878
 30
0.0
 10
60.3208221951
 20
87.9304376452
 30
0.0
 10
60.2586349617
 20
88.1034918673
 30
0.0
 10
60.1965462911
 20
88.252364556
 30
0.0
 10
60.1345894968
 20
88.3734688475
 30
0.0
 10
60.0800704815
 20
88.4542991722
 30
0.0
 10
60.035069314
 20
88.5009368881
 30
0.0
 10
60.0031940971
 20
88.5249967702
 30
0.0
 10
59.9708818697
 20
88.5401956834
 30
0.0
 10
59.9486107013
 20
88.5442338918
 30
0.0
 10
59.937905167
 20
88.5446100087
 30
0.0
  0
SPLINE
  5
420
100
AcDbEntity
  8
DEFAULT_2
100
AcDbSpline
 62
8
  6
HIDDEN
 70
0
 71
3
 72
22
 73
18
 74
0
 42
0.0000001
 43
0.0000001
 44
0.0000000001
 40
0.0
 40
0.0
 40
0.0
 40
0.0
 40
0.0538654358
 40
0.1163867339
 40
0.2617810995
 40
0.4236462563
 40
0.5869750377
 40
0.6644154101
 40
0.7367211627
 40
0.8022316485
 40
0.8595128985
 40
0.9077436831
 40
0.9465131414
 40
0.9624503111
 40
0.9763356439
 40
0.9886311534
 40
1.0
 40
1.0
 40
1.0
 40
1.0
 10
62.2007603635
 20
88.3097905894
 30
0.0
 10
62.1776864392
 20
88.2646046011
 30
0.0
 10
62.1328218751
 20
88.164430201
 30
0.0
 10
62.0455984401
 20
87.9337300907
 30
0.0
 10
61.9411253285
 20
87.601254268
 30
0.0
 10
61.8204020326
 20
87.1747941466
 30
0.0
 10
61.7180742777
 20
86.8095933952
 30
0.0
 10
61.6332160747
 20
86.5271665854
 30
0.0
 10
61.5708439571
 20
86.3342204363
 30
0.0
 10
61.5086648143
 20
86.1612542002
 30
0.0
 10
61.4465067001
 20
86.0124995207
 30
0.0
 10
61.3846150585
 20
85.8913927991
 30
0.0
 10
61.3301606793
 20
85.8104805315
 30
0.0
 10
61.2851398072
 20
85.7638782395
 30
0.0
 10
61.2532473289
 20
85.7399176675
 30
0.0
 10
61.2209460102
 20
85.7247847185
 30
0.0
 10
61.1986883705
 20
85.7207658941
 30
0.0
 10
61.1879865184
 20
85.7203907249
 30
0.0
  0
SPLINE
  5
421
100
AcDbEntity
  8
DEFAULT_2
100
AcDbSpline
 62
8
  6
HIDDEN
 70
0
 71
3
 72
22
 73
18
 74
0
 42
0.0000001
 43
0.0000001
 44
0.0000000001
 40
0.0
 40
0.0
 40
0.0
 40
0.0
 40
0.0538647005
 40
0.116377753
 40
0.2618653872
 40
0.4238090145
 40
0.5871838547
 40
0.664619682
 40
0.7369166645
 40
0.8024335225
 40
0.8597170592
 40
0.9079039879
 40
0.9465706027
 40
0.9624514852
 40
0.9763222478
 40
0.9886245149
 40
1.0
 40
1.0
 40
1.0
 40
1.0
 10
63.4508920258
 20
85.9547059839
 30
0.0
 10
63.427819655
 20
85.9999126784
 30
0.0
 10
63.3828978785
 20
86.1000938469
 30
0.0
 10
63.2955677872
 20
86.3309371533
 30
0.0
 10
63.1910814224
 20
86.6637038024
 30
0.0
 10
63.0702489059
 20
87.0905125086
 30
0.0
 10
62.9678552706
 20
87.4559558182
 30
0.0
 10
62.8829157992
 20
87.7385023199
 30
0.0
 10
62.8204856277
 20
87.9315004916
 30
0.0
 10
62.7582655563
 20
88.1045215817
 30
0.0
 10
62.6960894866
 20
88.2532993174
 30
0.0
 10
62.6341722266
 20
88.3742916335
 30
0.0
 10
62.5796675595
 20
88.4550067825
 30
0.0
 10
62.5345265368
 20
88.5012965041
 30
0.0
 10
62.5026264466
 20
88.5251571339
 30
0.0
 10
62.4703280065
 20
88.5403102422
 30
0.0
 10
62.4480545798
 20
88.5443676654
 30
0.0
 10
62.4373427748
 20
88.5447484466
 30
0.0
  0
SPLINE
  5
422
100
AcDbEntity
  8
DEFAULT_2
100
AcDbSpline
 62
8
  6
HIDDEN
 70
0
 71
3
 72
22
 73
18
 74
0
 42
0.0000001
 43
0.0000001
 44
0.0000000001
 40
0.0
 40
0.0
 40
0.0
 40
0.0
 40
0.0113716333
 40
0.0235762062
 40
0.0372735961
 40
0.0528745838
 40
0.0905564226
 40
0.1373878684
 40
0.1932557802
 40
0.2573504308
 40
0.3282897657
 40
0.4045814082
 40
0.5667023168
 40
0.7292837466
 40
0.8778540201
 40
0.9429467276
 40
1.0
 40
1.0
 40
1.0
 40
1.0
 10
59.4018032728
 20
85.7324687931
 30
0.0
 10
59.3913640036
 20
85.7324661634
 30
0.0
 10
59.3696152438
 20
85.735569117
 30
0.0
 10
59.3379257564
 20
85.7492801883
 30
0.0
 10
59.3066978819
 20
85.7714705933
 30
0.0
 10
59.2626160795
 20
85.8145945243
 30
0.0
 10
59.2090616273
 20
85.8899920237
 30
0.0
 10
59.1482442297
 20
86.0037537869
 30
0.0
 10
59.087383409
 20
86.1444086875
 30
0.0
 10
59.0264368632
 20
86.3087627123
 30
0.0
 10
58.9652508993
 20
86.4928887782
 30
0.0
 10
58.8818333684
 20
86.7643639985
 30
0.0
 10
58.7812026865
 20
87.1184838422
 30
0.0
 10
58.662570167
 20
87.5364119417
 30
0.0
 10
58.5602482448
 20
87.8664598218
 30
0.0
 10
58.4751239823
 20
88.0999958125
 30
0.0
 10
58.4314864443
 20
88.2033949677
 30
0.0
 10
58.4090646564
 20
88.2507283799
 30
0.0
  0
SPLINE
  5
423
100
AcDbEntity
  8
DEFAULT_2
100
AcDbSpline
 62
8
  6
HIDDEN
 70
0
 71
3
 72
22
 73
18
 74
0
 42
0.0000001
 43
0.0000001
 44
0.0000000001
 40
0.0
 40
0.0
 40
0.0
 40
0.0
 40
0.0113809555
 40
0.0235634768
 40
0.0371796114
 40
0.0526616763
 40
0.0901708742
 40
0.137115679
 40
0.1930574888
 40
0.2570555794
 40
0.3279934349
 40
0.4044219154
 40
0.5666573467
 40
0.729339209
 40
0.8780479736
 40
0.9429838268
 40
1.0
 40
1.0
 40
1.0
 40
1.0
 10
60.6528309754
 20
88.5322231166
 30
0.0
 10
60.64237314
 20
88.5322177366
 30
0.0
 10
60.6206285088
 20
88.5290992385
 30
0.0
 10
60.5889042644
 20
88.5156569634
 30
0.0
 10
60.5575729963
 20
88.4939067543
 30
0.0
 10
60.5132940912
 20
88.4513828455
 30
0.0
 10
60.4594912629
 20
88.3762002799
 30
0.0
 10
60.3988796743
 20
88.262169828
 30
0.0
 10
60.3379191893
 20
88.1213199618
 30
0.0
 10
60.2767083129
 20
87.9569064703
 30
0.0
 10
60.2154110862
 20
87.7725817662
 30
0.0
 10
60.1319743917
 20
87.5005879213
 30
0.0
 10
60.0310883041
 20
87.145838303
 30
0.0
 10
59.9121511637
 20
86.7272310248
 30
0.0
 10
59.8099276232
 20
86.3967193183
 30
0.0
 10
59.7243905359
 20
86.1631289625
 30
0.0
 10
59.6806578174
 20
86.0598532649
 30
0.0
 10
59.658254545
 20
86.0124932893
 30
0.0
  0
SPLINE
  5
424
100
AcDbEntity
  8
DEFAULT_2
100
AcDbSpline
 62
8
  6
HIDDEN
 70
0
 71
3
 72
22
 73
18
 74
0
 42
0.0000001
 43
0.0000001
 44
0.0000000001
 40
0.0
 40
0.0
 40
0.0
 40
0.0
 40
0.0113815007
 40
0.0235594437
 40
0.0371618396
 40
0.0526188181
 40
0.0900402428
 40
0.136887996
 40
0.192780867
 40
0.2567926189
 40
0.3277703402
 40
0.4041638244
 40
0.5663536554
 40
0.7291341123
 40
0.8778058204
 40
0.9428749027
 40
1.0
 40
1.0
 40
1.0
 40
1.0
 10
61.9030786338
 20
85.7326834148
 30
0.0
 10
61.8926223935
 20
85.7326907896
 30
0.0
 10
61.8708869911
 20
85.7358001535
 30
0.0
 10
61.83916915
 20
85.7491932308
 30
0.0
 10
61.8078405744
 20
85.7708625254
 30
0.0
 10
61.7635765292
 20
85.8132149446
 30
0.0
 10
61.7097464098
 20
85.8881178937
 30
0.0
 10
61.6491166001
 20
86.0018715714
 30
0.0
 10
61.5881687045
 20
86.1425625084
 30
0.0
 10
61.5269852664
 20
86.3069542081
 30
0.0
 10
61.4657459546
 20
86.4912745383
 30
0.0
 10
61.3822624239
 20
86.7631546874
 30
0.0
 10
61.281323117
 20
87.1178295695
 30
0.0
 10
61.1625886716
 20
87.5364223491
 30
0.0
 10
61.0601320126
 20
87.866973093
 30
0.0
 10
60.9747376131
 20
88.1007586842
 30
0.0
 10
60.9310405862
 20
88.2042691888
 30
0.0
 10
60.9086119699
 20
88.2517162653
 30
0.0
  0
SPLINE
  5
425
100
AcDbEntity
  8
DEFAULT_2
100
AcDbSpline
 62
8
  6
HIDDEN
 70
0
 71
3
 72
22
 73
18
 74
0
 42
0.0000001
 43
0.0000001
 44
0.0000000001
 40
0.0
 40
0.0
 40
0.0
 40
0.0
 40
0.0113739158
 40
0.0235394273
 40
0.0371409808
 40
0.0526366328
 40
0.0902708845
 40
0.1371864744
 40
0.1930293734
 40
0.2570689458
 40
0.3280505549
 40
0.4043885278
 40
0.5665082299
 40
0.7292068938
 40
0.8778348236
 40
0.9429261412
 40
1.0
 40
1.0
 40
1.0
 40
1.0
 10
63.1525128007
 20
88.5320949739
 30
0.0
 10
63.1420667106
 20
88.5320920033
 30
0.0
 10
63.120353685
 20
88.5290276933
 30
0.0
 10
63.0886375061
 20
88.5156963208
 30
0.0
 10
63.0573076057
 20
88.4939973419
 30
0.0
 10
63.0130328258
 20
88.4513370912
 30
0.0
 10
62.9595153938
 20
88.3758888935
 30
0.0
 10
62.8988022087
 20
88.2620152177
 30
0.0
 10
62.8377961875
 20
88.1213433138
 30
0.0
 10
62.7767361982
 20
87.9569821829
 30
0.0
 10
62.7155495479
 20
87.7727304926
 30
0.0
 10
62.6320824256
 20
87.5010529421
 30
0.0
 10
62.5312560201
 20
87.1466605966
 30
0.0
 10
62.4126019378
 20
86.7283686098
 30
0.0
 10
62.3101800927
 20
86.3980196811
 30
0.0
 10
62.2249412112
 20
86.1643298246
 30
0.0
 10
62.1812592096
 20
86.0608763941
 30
0.0
 10
62.1588281991
 20
86.0135002012
 30
0.0
  0
SPLINE
  5
426
100
AcDbEntity
  8
DEFAULT_2
100
AcDbSpline
 62
8
  6
HIDDEN
 70
0
 71
3
 72
22
 73
18
 74
0
 42
0.0000001
 43
0.0000001
 44
0.0000000001
 40
0.0
 40
0.0
 40
0.0
 40
0.0
 40
0.0113778295
 40
0.0235554402
 40
0.0371667714
 40
0.0526481499
 40
0.0901833744
 40
0.1370977799
 40
0.1929727558
 40
0.2569842007
 40
0.3279614898
 40
0.4043224404
 40
0.5664824702
 40
0.7292028245
 40
0.8778155509
 40
0.9429007657
 40
1.0
 40
1.0
 40
1.0
 40
1.0
 10
64.4027320381
 20
85.7325058518
 30
0.0
 10
64.3922802214
 20
85.7325104893
 30
0.0
 10
64.3705492057
 20
85.7356184911
 30
0.0
 10
64.3388385255
 20
85.7490370259
 30
0.0
 10
64.3075203199
 20
85.7707702494
 30
0.0
 10
64.2632472816
 20
85.813303884
 30
0.0
 10
64.2095525869
 20
85.8885242082
 30
0.0
 10
64.1489285676
 20
86.0024202056
 30
0.0
 10
64.0879375154
 20
86.1431272114
 30
0.0
 10
64.0268009763
 20
86.3074993338
 30
0.0
 10
63.9656006469
 20
86.4917793512
 30
0.0
 10
63.8821181804
 20
86.7635695531
 30
0.0
 10
63.7812559725
 20
87.1181109726
 30
0.0
 10
63.662568819
 20
87.5365304964
 30
0.0
 10
63.5600993125
 20
87.8669397212
 30
0.0
 10
63.4748068562
 20
88.1006677766
 30
0.0
 10
63.4311215575
 20
88.2041630464
 30
0.0
 10
63.4086879711
 20
88.251575646
 30
0.0
  0
SPLINE
  5
427
100
AcDbEntity
  8
DEFAULT_2
100
AcDbSpline
 62
8
  6
HIDDEN
 70
0
 71
3
 72
19
 73
15
 74
0
 42
0.0000001
 43
0.0000001
 44
0.0000000001
 40
0.0
 40
0.0
 40
0.0
 40
0.0
 40
0.1822246736
 40
0.3263639253
 40
0.3847510524
 40
0.4348300693
 40
0.4779740356
 40
0.5165791913
 40
0.5540547718
 40
0.5940610486
 40
0.6396114646
 40
0.6927498111
 40
0.8262077184
 40
1.0
 40
1.0
 40
1.0
 40
1.0
 10
65.4636792364
 20
89.1058209565
 30
0.0
 10
65.4500823522
 20
89.1397803718
 30
0.0
 10
65.423742769
 20
89.1998193229
 30
0.0
 10
65.3849091517
 20
89.2670255326
 30
0.0
 10
65.3527510229
 20
89.3063920171
 30
0.0
 10
65.3301975167
 20
89.3270389195
 30
0.0
 10
65.3072794076
 20
89.3407615213
 30
0.0
 10
65.2837966415
 20
89.3470633832
 30
0.0
 10
65.2601274393
 20
89.3454894707
 30
0.0
 10
65.2368787191
 20
89.3362370882
 30
0.0
 10
65.2141136466
 20
89.3198624643
 30
0.0
 10
65.1816374358
 20
89.2861959086
 30
0.0
 10
65.1425138334
 20
89.2246891428
 30
0.0
 10
65.1166705509
 20
89.1686234974
 30
0.0
 10
65.1032760419
 20
89.136409716
 30
0.0
  0
SPLINE
  5
428
100
AcDbEntity
  8
DEFAULT_2
100
AcDbSpline
 62
8
  6
HIDDEN
 70
0
 71
3
 72
18
 73
14
 74
0
 42
0.0000001
 43
0.0000001
 44
0.0000000001
 40
0.0
 40
0.0
 40
0.0
 40
0.0
 40
0.1831654464
 40
0.3294473451
 40
0.3890065187
 40
0.4402073593
 40
0.5231924707
 40
0.5609818528
 40
0.6006899943
 40
0.6454880449
 40
0.6976739293
 40
0.8291545454
 40
1.0
 40
1.0
 40
1.0
 40
1.0
 10
66.7340439526
 20
85.4663108503
 30
0.0
 10
66.7186779712
 20
85.4284275485
 30
0.0
 10
66.6888881031
 20
85.3611365888
 30
0.0
 10
66.6454329697
 20
85.2855621125
 30
0.0
 10
66.6092949118
 20
85.2407353995
 30
0.0
 10
66.5778648075
 20
85.2111176972
 30
0.0
 10
66.5419913693
 20
85.1924760785
 30
0.0
 10
66.5055269455
 20
85.1929210904
 30
0.0
 10
66.4793174876
 20
85.2017910221
 30
0.0
 10
66.4536463325
 20
85.2187375262
 30
0.0
 10
66.4170859189
 20
85.2545983927
 30
0.0
 10
66.3733203499
 20
85.3213177422
 30
0.0
 10
66.3442720659
 20
85.3822705786
 30
0.0
 10
66.3291853424
 20
85.4172903855
 30
0.0
  0
SPLINE
  5
429
100
AcDbEntity
  8
DEFAULT_2
100
AcDbSpline
 62
8
  6
HIDDEN
 70
0
 71
3
 72
18
 73
14
 74
0
 42
0.0000001
 43
0.0000001
 44
0.0000000001
 40
0.0
 40
0.0
 40
0.0
 40
0.0
 40
0.1853932211
 40
0.335584716
 40
0.3974403396
 40
0.4508807967
 40
0.5370999886
 40
0.5753615587
 40
0.6146242341
 40
0.6581621779
 40
0.7084532116
 40
0.8349661523
 40
1.0
 40
1.0
 40
1.0
 40
1.0
 10
68.0148947741
 20
88.4754512353
 30
0.0
 10
67.9971152036
 20
88.5189167445
 30
0.0
 10
67.9625960255
 20
88.5966716795
 30
0.0
 10
67.9127780421
 20
88.6845429799
 30
0.0
 10
67.8715132766
 20
88.7379173842
 30
0.0
 10
67.8355542688
 20
88.774025633
 30
0.0
 10
67.794996046
 20
88.7981517316
 30
0.0
 10
67.7529072421
 20
88.8010538361
 30
0.0
 10
67.7227410541
 20
88.793419422
 30
0.0
 10
67.6931838529
 20
88.7765565664
 30
0.0
 10
67.6511925103
 20
88.7393587096
 30
0.0
 10
67.6009141802
 20
88.6678001248
 30
0.0
 10
67.5677713339
 20
88.601745863
 30
0.0
 10
67.5505283883
 20
88.5636634941
 30
0.0
  0
SPLINE
  5
42A
100
AcDbEntity
  8
DEFAULT_2
100
AcDbSpline
 62
8
  6
HIDDEN
 70
0
 71
3
 72
19
 73
15
 74
0
 42
0.0000001
 43
0.0000001
 44
0.0000000001
 40
0.0
 40
0.0
 40
0.0
 40
0.0
 40
0.1921298748
 40
0.3512874812
 40
0.4177707479
 40
0.4754863582
 40
0.5249709604
 40
0.5677782151
 40
0.6065446181
 40
0.6446514571
 40
0.6855433108
 40
0.7319625376
 40
0.8477580932
 40
1.0
 40
1.0
 40
1.0
 40
1.0
 10
69.3259691253
 20
86.1660517526
 30
0.0
 10
69.3041152593
 20
86.11131749
 30
0.0
 10
69.2617426375
 20
86.0121932445
 30
0.0
 10
69.2016967406
 20
85.8985869351
 30
0.0
 10
69.1522542954
 20
85.8269626861
 30
0.0
 10
69.1174138809
 20
85.7864727014
 30
0.0
 10
69.0822767257
 20
85.7563804905
 30
0.0
 10
69.0465212005
 20
85.7371277924
 30
0.0
 10
69.0100841693
 20
85.7292197212
 30
0.0
 10
68.9735733004
 20
85.7331310785
 30
0.0
 10
68.9377547942
 20
85.7483625791
 30
0.0
 10
68.8872640599
 20
85.785551142
 30
0.0
 10
68.8263922678
 20
85.8619730721
 30
0.0
 10
68.7869217605
 20
85.9342199988
 30
0.0
 10
68.7664466784
 20
85.9761923562
 30
0.0
  0
LINE
  5
42B
100
AcDbEntity
  8
DEFAULT_2
100
AcDbLine
 62
8
  6
HIDDEN
 10
46.5288739925
 20
86.5029771454
 11
46.3288739925
 21
86.4794067184
  0
LINE
  5
42C
100
AcDbEntity
  8
DEFAULT_2
100
AcDbLine
 62
8
  6
HIDDEN
 10
46.3288739925
 20
87.7853433523
 11
46.5288739925
 21
87.7617729253
  0
SPLINE
  5
42D
100
AcDbEntity
  8
DEFAULT_2
100
AcDbSpline
 62
8
  6
HIDDEN
 70
0
 71
3
 72
15
 73
11
 74
0
 42
0.0000001
 43
0.0000001
 44
0.0000000001
 40
0.0
 40
0.0
 40
0.0
 40
0.0
 40
0.0935179912
 40
0.2047244646
 40
0.3335570366
 40
0.4745222109
 40
0.6198753883
 40
0.7610297117
 40
0.8897290097
 40
1.0
 40
1.0
 40
1.0
 40
1.0
 10
69.6291647743
 20
87.665569838
 30
0.0
 10
69.5873153087
 20
87.653950779
 30
0.0
 10
69.5017541075
 20
87.6074696033
 30
0.0
 10
69.3886841838
 20
87.5006725098
 30
0.0
 10
69.2777287451
 20
87.3623987072
 30
0.0
 10
69.1679905109
 20
87.2038191933
 30
0.0
 10
69.0592794565
 20
87.0377054041
 30
0.0
 10
68.9516150879
 20
86.87767576
 30
0.0
 10
68.8450854069
 20
86.7367567812
 30
0.0
 10
68.7672214231
 20
86.6567311353
 30
0.0
 10
68.727542249
 20
86.624353045
 30
0.0
  0
SPLINE
  5
42E
100
AcDbEntity
  8
DEFAULT_2
100
AcDbSpline
 62
8
  6
HIDDEN
 70
0
 71
3
 72
20
 73
16
 74
0
 42
0.0000001
 43
0.0000001
 44
0.0000000001
 40
0.0
 40
0.0
 40
0.0
 40
0.0
 40
0.0275528374
 40
0.0569125729
 40
0.0916717453
 40
0.1338587704
 40
0.1841197382
 40
0.2424735395
 40
0.3083508728
 40
0.3806381393
 40
0.5390620324
 40
0.7047478598
 40
0.8631730294
 40
0.9350724708
 40
1.0
 40
1.0
 40
1.0
 40
1.0
 10
66.9022640682
 20
86.1510543266
 30
0.0
 10
66.8819804435
 20
86.1465932455
 30
0.0
 10
66.8377553747
 20
86.1453782914
 30
0.0
 10
66.7721503426
 20
86.171349561
 30
0.0
 10
66.7093484582
 20
86.2223905122
 30
0.0
 10
66.6477400688
 20
86.2963146014
 30
0.0
 10
66.5862374502
 20
86.3921396466
 30
0.0
 10
66.5248213642
 20
86.5085654332
 30
0.0
 10
66.4634144619
 20
86.6434261697
 30
0.0
 10
66.3787574521
 20
86.8503768576
 30
0.0
 10
66.2767669973
 20
87.1313024094
 30
0.0
 10
66.1574443867
 20
87.4748499418
 30
0.0
 10
66.0557354227
 20
87.7555775414
 30
0.0
 10
65.9711167815
 20
87.9614520042
 30
0.0
 10
65.9277931378
 20
88.0551178601
 30
0.0
 10
65.9056986137
 20
88.098786783
 30
0.0
  0
SPLINE
  5
42F
100
AcDbEntity
  8
DEFAULT_2
100
AcDbSpline
 62
8
  6
HIDDEN
 70
0
 71
3
 72
9
 73
5
 74
0
 42
0.0000001
 43
0.0000001
 44
0.0000000001
 40
0.0
 40
0.0
 40
0.0
 40
0.0
 40
0.7460357168
 40
1.0
 40
1.0
 40
1.0
 40
1.0
 10
64.9794833454
 20
88.5323750354
 30
0.0
 10
64.9881238086
 20
88.5323750354
 30
0.0
 10
64.9997467098
 20
88.5312094
 30
0.0
 10
65.0110364663
 20
88.5286159361
 30
0.0
 10
65.0138820874
 20
88.5278715482
 30
0.0
  0
SPLINE
  5
430
100
AcDbEntity
  8
DEFAULT_2
100
AcDbSpline
 62
8
  6
HIDDEN
 70
0
 71
3
 72
19
 73
15
 74
0
 42
0.0000001
 43
0.0000001
 44
0.0000000001
 40
0.0
 40
0.0
 40
0.0
 40
0.0
 40
0.0385813187
 40
0.0858833988
 40
0.1411598024
 40
0.2035111794
 40
0.3443210849
 40
0.497448095
 40
0.6509741543
 40
0.7927348348
 40
0.8558466778
 40
0.9121145887
 40
0.960397842
 40
1.0
 40
1.0
 40
1.0
 40
1.0
 10
63.8853796073
 20
84.987727207
 30
0.0
 10
63.8639613323
 20
85.039725888
 30
0.0
 10
63.8231297385
 20
85.1582588484
 30
0.0
 10
63.7677226283
 20
85.3564561643
 30
0.0
 10
63.7120110683
 20
85.5903705961
 30
0.0
 10
63.6344513601
 20
85.9590284857
 30
0.0
 10
63.5408472677
 20
86.4699207126
 30
0.0
 10
63.431890307
 20
87.1129819351
 30
0.0
 10
63.3230477314
 20
87.7574685598
 30
0.0
 10
63.229414669
 20
88.2714776713
 30
0.0
 10
63.1519062451
 20
88.6441679224
 30
0.0
 10
63.0963050624
 20
88.8821959775
 30
0.0
 10
63.0408335772
 20
89.0849065477
 30
0.0
 10
63.0000136053
 20
89.2065038327
 30
0.0
 10
62.9787133089
 20
89.2601552841
 30
0.0
  0
SPLINE
  5
431
100
AcDbEntity
  8
DEFAULT_2
100
AcDbSpline
 62
8
  6
HIDDEN
 70
0
 71
3
 72
19
 73
15
 74
0
 42
0.0000001
 43
0.0000001
 44
0.0000000001
 40
0.0
 40
0.0
 40
0.0
 40
0.0
 40
0.0270003625
 40
0.0613796149
 40
0.1039092602
 40
0.1546271988
 40
0.2129595891
 40
0.2780910737
 40
0.4243842691
 40
0.5825518371
 40
0.739828975
 40
0.882958421
 40
0.9453618668
 40
1.0
 40
1.0
 40
1.0
 40
1.0
 10
65.0138820874
 20
88.5278715482
 30
0.0
 10
65.0340962657
 20
88.5176385924
 30
0.0
 10
65.0749010972
 20
88.4846215823
 30
0.0
 10
65.1290876578
 20
88.416004695
 30
0.0
 10
65.1838747696
 20
88.3236928707
 30
0.0
 10
65.2388968685
 20
88.208918848
 30
0.0
 10
65.2945464195
 20
88.0737073966
 30
0.0
 10
65.3724694312
 20
87.8611421028
 30
0.0
 10
65.4675848131
 20
87.5658740216
 30
0.0
 10
65.5801920016
 20
87.1951498952
 30
0.0
 10
65.6945168658
 20
86.8277471958
 30
0.0
 10
65.7945067659
 20
86.5399553002
 30
0.0
 10
65.8792878911
 20
86.3386929923
 30
0.0
 10
65.9231832994
 20
86.2506859523
 30
0.0
 10
65.9457727764
 20
86.21078883
 30
0.0
  0
SPLINE
  5
432
100
AcDbEntity
  8
DEFAULT_2
100
AcDbSpline
 62
8
  6
HIDDEN
 70
0
 71
3
 72
13
 73
9
 74
0
 42
0.0000001
 43
0.0000001
 44
0.0000000001
 40
0.0
 40
0.0
 40
0.0
 40
0.0
 40
0.3443642155
 40
0.618987916
 40
0.7317661418
 40
0.8304679409
 40
0.9182910247
 40
1.0
 40
1.0
 40
1.0
 40
1.0
 10
59.658254545
 20
86.0124932893
 30
0.0
 10
59.6388044039
 20
85.9713761618
 30
0.0
 10
59.6012539163
 20
85.8986635383
 30
0.0
 10
59.5458558975
 20
85.818681321
 30
0.0
 10
59.5001300628
 20
85.7733285364
 30
0.0
 10
59.467828095
 20
85.7501554046
 30
0.0
 10
59.4350894481
 20
85.735807018
 30
0.0
 10
59.4125958268
 20
85.7324715118
 30
0.0
 10
59.4018032728
 20
85.7324687931
 30
0.0
  0
SPLINE
  5
433
100
AcDbEntity
  8
DEFAULT_2
100
AcDbSpline
 62
8
  6
HIDDEN
 70
0
 71
3
 72
12
 73
8
 74
0
 42
0.0000001
 43
0.0000001
 44
0.0000000001
 40
0.0
 40
0.0
 40
0.0
 40
0.0
 40
0.079357418
 40
0.1744552898
 40
0.408199372
 40
0.6887927928
 40
1.0
 40
1.0
 40
1.0
 40
1.0
 10
51.3854631945
 20
84.9882988431
 30
0.0
 10
51.3674150045
 20
85.03211983
 30
0.0
 10
51.3325059126
 20
85.1304055841
 30
0.0
 10
51.2639286413
 20
85.3644004239
 30
0.0
 10
51.1824797423
 20
85.7193744017
 30
0.0
 10
51.0886831675
 20
86.2033797412
 30
0.0
 10
51.0277154089
 20
86.5515257659
 30
0.0
 10
50.9962739464
 20
86.7346994763
 30
0.0
  0
SPLINE
  5
434
100
AcDbEntity
  8
DEFAULT_2
100
AcDbSpline
 62
8
  6
HIDDEN
 70
0
 71
3
 72
13
 73
9
 74
0
 42
0.0000001
 43
0.0000001
 44
0.0000000001
 40
0.0
 40
0.0
 40
0.0
 40
0.0
 40
0.0852499712
 40
0.1753111904
 40
0.2749130359
 40
0.3875455119
 40
0.6599706032
 40
1.0
 40
1.0
 40
1.0
 40
1.0
 10
59.937905167
 20
88.5446100087
 30
0.0
 10
59.9279951773
 20
88.5449581758
 30
0.0
 10
59.9074290022
 20
88.5429312425
 30
0.0
 10
59.8771496413
 20
88.5318247467
 30
0.0
 10
59.8472172388
 20
88.5129818713
 30
0.0
 10
59.8049743318
 20
88.475357165
 30
0.0
 10
59.75377907
 20
88.4075365479
 30
0.0
 10
59.7189564851
 20
88.3453008803
 30
0.0
 10
59.7009893336
 20
88.3100658833
 30
0.0
  0
LINE
  5
435
100
AcDbEntity
  8
DEFAULT_2
100
AcDbLine
 62
8
  6
HIDDEN
 10
51.0126959568
 20
86.8621980065
 11
50.7105038106
 21
86.7597346827
  0
SPLINE
  5
436
100
AcDbEntity
  8
DEFAULT_2
100
AcDbSpline
 62
8
  6
HIDDEN
 70
0
 71
3
 72
13
 73
9
 74
0
 42
0.0000001
 43
0.0000001
 44
0.0000000001
 40
0.0
 40
0.0
 40
0.0
 40
0.0
 40
0.3445606686
 40
0.6192832964
 40
0.731924357
 40
0.8304894137
 40
0.9182564174
 40
1.0
 40
1.0
 40
1.0
 40
1.0
 10
52.1583330959
 20
86.0126263912
 30
0.0
 10
52.1388614758
 20
85.9714723655
 30
0.0
 10
52.1012690775
 20
85.8987104237
 30
0.0
 10
52.0458727792
 20
85.8186447547
 30
0.0
 10
52.0000568231
 20
85.7733759316
 30
0.0
 10
51.9677080568
 20
85.7503152884
 30
0.0
 10
51.9349294808
 20
85.7360807102
 30
0.0
 10
51.9124312469
 20
85.7327848161
 30
0.0
 10
51.9016301861
 20
85.7327808003
 30
0.0
  0
SPLINE
  5
437
100
AcDbEntity
  8
DEFAULT_2
100
AcDbSpline
 62
8
  6
HIDDEN
 70
0
 71
3
 72
13
 73
9
 74
0
 42
0.0000001
 43
0.0000001
 44
0.0000000001
 40
0.0
 40
0.0
 40
0.0
 40
0.0
 40
0.0851472131
 40
0.1751807823
 40
0.2750137349
 40
0.3881363903
 40
0.6608104904
 40
1.0
 40
1.0
 40
1.0
 40
1.0
 10
62.4373427748
 20
88.5447484466
 30
0.0
 10
62.4274467306
 20
88.5451002293
 30
0.0
 10
62.4068964045
 20
88.5430785207
 30
0.0
 10
62.3766306259
 20
88.5318923349
 30
0.0
 10
62.3467501162
 20
88.5128154191
 30
0.0
 10
62.3047062803
 20
88.4748266992
 30
0.0
 10
62.253567308
 20
88.4070491328
 30
0.0
 10
62.2186998444
 20
88.3449217254
 30
0.0
 10
62.2007603635
 20
88.3097905894
 30
0.0
  0
SPLINE
  5
438
100
AcDbEntity
  8
DEFAULT_2
100
AcDbSpline
 62
8
  6
HIDDEN
 70
0
 71
3
 72
12
 73
8
 74
0
 42
0.0000001
 43
0.0000001
 44
0.0000000001
 40
0.0
 40
0.0
 40
0.0
 40
0.0
 40
0.3961703047
 40
0.569004113
 40
0.7178649482
 40
0.9273345364
 40
1.0
 40
1.0
 40
1.0
 40
1.0
 10
51.0157849746
 20
86.8627528246
 30
0.0
 10
51.0157849746
 20
86.7134772671
 30
0.0
 10
51.0189975365
 20
86.4990910651
 30
0.0
 10
51.0194472973
 20
86.2286002678
 30
0.0
 10
51.0186628732
 20
86.0284606243
 30
0.0
 10
51.0188739908
 20
85.8660626038
 30
0.0
 10
51.0188906235
 20
85.7597550985
 30
0.0
 10
51.0188739925
 20
85.7323750354
 30
0.0
  0
SPLINE
  5
439
100
AcDbEntity
  8
DEFAULT_2
100
AcDbSpline
 62
8
  6
HIDDEN
 70
0
 71
3
 72
11
 73
7
 74
0
 42
0.0000001
 43
0.0000001
 44
0.0000000001
 40
0.0
 40
0.0
 40
0.0
 40
0.0
 40
0.0802778338
 40
0.3057399309
 40
0.6332153745
 40
1.0
 40
1.0
 40
1.0
 40
1.0
 10
51.0188739925
 20
88.5323750354
 30
0.0
 10
51.0188884543
 20
88.4876969092
 30
0.0
 10
51.0188739914
 20
88.3175394217
 30
0.0
 10
51.0186377366
 20
87.9651281634
 30
0.0
 10
51.0202774218
 20
87.4532591942
 30
0.0
 10
51.0155222251
 20
87.0668841937
 30
0.0
 10
51.0157849746
 20
86.8627528246
 30
0.0
  0
SPLINE
  5
43A
100
AcDbEntity
  8
DEFAULT_2
100
AcDbSpline
 62
8
  6
HIDDEN
 70
0
 71
3
 72
13
 73
9
 74
0
 42
0.0000001
 43
0.0000001
 44
0.0000000001
 40
0.0
 40
0.0
 40
0.0
 40
0.0
 40
0.08519298
 40
0.1752467543
 40
0.2749038225
 40
0.3876332288
 40
0.6601704094
 40
1.0
 40
1.0
 40
1.0
 40
1.0
 10
52.4378634824
 20
88.5448788607
 30
0.0
 10
52.4279531877
 20
88.5452273122
 30
0.0
 10
52.4073788387
 20
88.5431802957
 30
0.0
 10
52.3771009236
 20
88.532003844
 30
0.0
 10
52.3471749986
 20
88.5130730651
 30
0.0
 10
52.3049517755
 20
88.4753227453
 30
0.0
 10
52.2537767277
 20
88.4074207828
 30
0.0
 10
52.2189292638
 20
88.3451538713
 30
0.0
 10
52.200957767
 20
88.3099160861
 30
0.0
  0
SPLINE
  5
43B
100
AcDbEntity
  8
DEFAULT_2
100
AcDbSpline
 62
8
  6
HIDDEN
 70
0
 71
3
 72
11
 73
7
 74
0
 42
0.0000001
 43
0.0000001
 44
0.0000000001
 40
0.0
 40
0.0
 40
0.0
 40
0.0
 40
0.301792134
 40
0.5749877603
 40
0.8100544641
 40
1.0
 40
1.0
 40
1.0
 40
1.0
 10
50.7105038106
 20
86.7597346827
 30
0.0
 10
50.7297316194
 20
86.6755830903
 30
0.0
 10
50.7678958345
 20
86.5156007007
 30
0.0
 10
50.8278705682
 20
86.2917325745
 30
0.0
 10
50.8881354939
 20
86.1012975444
 30
0.0
 10
50.9339270953
 20
85.9883127516
 30
0.0
 10
50.9584948151
 20
85.939855533
 30
0.0
  0
SPLINE
  5
43C
100
AcDbEntity
  8
DEFAULT_2
100
AcDbSpline
 62
8
  6
HIDDEN
 70
0
 71
3
 72
19
 73
15
 74
0
 42
0.0000001
 43
0.0000001
 44
0.0000000001
 40
0.0
 40
0.0
 40
0.0
 40
0.0
 40
0.0385476296
 40
0.085750011
 40
0.1409656036
 40
0.2032973991
 40
0.3441024675
 40
0.4972718265
 40
0.6508575157
 40
0.7927496962
 40
0.8559141874
 40
0.9121969071
 40
0.9604393654
 40
1.0
 40
1.0
 40
1.0
 40
1.0
 10
53.8856788029
 20
84.9874544384
 30
0.0
 10
53.8642987236
 20
85.0393999312
 30
0.0
 10
53.82345105
 20
85.157682247
 30
0.0
 10
53.7679822475
 20
85.3555158133
 30
0.0
 10
53.7122825414
 20
85.5890994122
 30
0.0
 10
53.6347307272
 20
85.9575321056
 30
0.0
 10
53.5411116317
 20
86.4683109753
 30
0.0
 10
53.4321703436
 20
87.1113464514
 30
0.0
 10
53.3232852777
 20
87.7559982619
 30
0.0
 10
53.2296893969
 20
88.270236786
 30
0.0
 10
53.1521883563
 20
88.6431237264
 30
0.0
 10
53.0966034991
 20
88.8811303914
 30
0.0
 10
53.0411107011
 20
89.0836787807
 30
0.0
 10
53.0002586217
 20
89.2051021687
 30
0.0
 10
52.9789739496
 20
89.2586785586
 30
0.0
  0
SPLINE
  5
43D
100
AcDbEntity
  8
DEFAULT_2
100
AcDbSpline
 62
8
  6
HIDDEN
 70
0
 71
3
 72
13
 73
9
 74
0
 42
0.0000001
 43
0.0000001
 44
0.0000000001
 40
0.0
 40
0.0
 40
0.0
 40
0.0
 40
0.3431606639
 40
0.6183721437
 40
0.7317388917
 40
0.8307699323
 40
0.9185163395
 40
1.0
 40
1.0
 40
1.0
 40
1.0
 10
62.1588281991
 20
86.0135002012
 30
0.0
 10
62.1394334586
 20
85.9725368676
 30
0.0
 10
62.1017848711
 20
85.8999733015
 30
0.0
 10
62.0466400938
 20
85.8198822676
 30
0.0
 10
62.0011630346
 20
85.7740196843
 30
0.0
 10
61.9689969244
 20
85.7504686992
 30
0.0
 10
61.9363058683
 20
85.7359561031
 30
0.0
 10
61.9138405368
 20
85.7326758244
 30
0.0
 10
61.9030786338
 20
85.7326834148
 30
0.0
  0
SPLINE
  5
43E
100
AcDbEntity
  8
DEFAULT_2
100
AcDbSpline
 62
8
  6
HIDDEN
 70
0
 71
3
 72
13
 73
9
 74
0
 42
0.0000001
 43
0.0000001
 44
0.0000000001
 40
0.0
 40
0.0
 40
0.0
 40
0.0
 40
0.0851264197
 40
0.175322029
 40
0.275436689
 40
0.3886851578
 40
0.6611364534
 40
1.0
 40
1.0
 40
1.0
 40
1.0
 10
54.9372910746
 20
88.5449607216
 30
0.0
 10
54.9273853214
 20
88.5453132312
 30
0.0
 10
54.9067852649
 20
88.5432492066
 30
0.0
 10
54.8765159459
 20
88.5318000064
 30
0.0
 10
54.8466582172
 20
88.5125034486
 30
0.0
 10
54.8045948193
 20
88.4744120336
 30
0.0
 10
54.7533682724
 20
88.4066399327
 30
0.0
 10
54.7184640695
 20
88.3445007231
 30
0.0
 10
54.7005234662
 20
88.3093584321
 30
0.0
  0
SPLINE
  5
43F
100
AcDbEntity
  8
DEFAULT_2
100
AcDbSpline
 62
8
  6
HIDDEN
 70
0
 71
3
 72
13
 73
9
 74
0
 42
0.0000001
 43
0.0000001
 44
0.0000000001
 40
0.0
 40
0.0
 40
0.0
 40
0.0
 40
0.3434856208
 40
0.6188785592
 40
0.7321040915
 40
0.8308501384
 40
0.9184752898
 40
1.0
 40
1.0
 40
1.0
 40
1.0
 10
54.6589042048
 20
86.0137382086
 30
0.0
 10
54.6394408835
 20
85.9726421267
 30
0.0
 10
54.6016930763
 20
85.8998424291
 30
0.0
 10
54.5464288342
 20
85.8194913474
 30
0.0
 10
54.5008044824
 20
85.7735943572
 30
0.0
 10
54.4684827994
 20
85.7502071194
 30
0.0
 10
54.4356859949
 20
85.7358737139
 30
0.0
 10
54.4131876175
 20
85.7325948952
 30
0.0
 10
54.4023950348
 20
85.7325970732
 30
0.0
  0
LINE
  5
440
100
AcDbEntity
  8
DEFAULT_2
100
AcDbLine
 62
8
  6
HIDDEN
 10
46.3288739925
 20
87.6708761172
 11
46.5288739925
 21
87.6437614427
  0
SPLINE
  5
441
100
AcDbEntity
  8
DEFAULT_2
100
AcDbSpline
 62
8
  6
HIDDEN
 70
0
 71
3
 72
13
 73
9
 74
0
 42
0.0000001
 43
0.0000001
 44
0.0000000001
 40
0.0
 40
0.0
 40
0.0
 40
0.0
 40
0.3437661864
 40
0.6192196774
 40
0.7322477765
 40
0.8308423212
 40
0.9184524608
 40
1.0
 40
1.0
 40
1.0
 40
1.0
 10
57.1588628103
 20
86.0137316034
 30
0.0
 10
57.1393774822
 20
85.9725811672
 30
0.0
 10
57.1016146562
 20
85.8997021543
 30
0.0
 10
57.0463646134
 20
85.8192462219
 30
0.0
 10
57.000642869
 20
85.7734477832
 30
0.0
 10
56.9682735355
 20
85.7501815078
 30
0.0
 10
56.9354705062
 20
85.7358827564
 30
0.0
 10
56.9129621082
 20
85.7325981807
 30
0.0
 10
56.9021614264
 20
85.7325984563
 30
0.0
  0
LINE
  5
442
100
AcDbEntity
  8
DEFAULT_2
100
AcDbLine
 62
8
  6
HIDDEN
 10
46.5288739925
 20
86.620988628
 11
46.3288739925
 21
86.5938739535
  0
SPLINE
  5
443
100
AcDbEntity
  8
DEFAULT_2
100
AcDbSpline
 62
8
  6
HIDDEN
 70
0
 71
3
 72
13
 73
9
 74
0
 42
0.0000001
 43
0.0000001
 44
0.0000000001
 40
0.0
 40
0.0
 40
0.0
 40
0.0
 40
0.3435723401
 40
0.6184243108
 40
0.7316089706
 40
0.8305859526
 40
0.9184199597
 40
1.0
 40
1.0
 40
1.0
 40
1.0
 10
64.6584273725
 20
86.012662716
 30
0.0
 10
64.6390512001
 20
85.9716974335
 30
0.0
 10
64.6014898077
 20
85.8991984737
 30
0.0
 10
64.5462742535
 20
85.819321416
 30
0.0
 10
64.5007798669
 20
85.7737050903
 30
0.0
 10
64.4686078912
 20
85.7502938494
 30
0.0
 10
64.4359507364
 20
85.735794994
 30
0.0
 10
64.4134922939
 20
85.7325010774
 30
0.0
 10
64.4027320381
 20
85.7325058518
 30
0.0
  0
SPLINE
  5
444
100
AcDbEntity
  8
DEFAULT_2
100
AcDbSpline
 62
8
  6
HIDDEN
 70
0
 71
3
 72
18
 73
14
 74
0
 42
0.0000001
 43
0.0000001
 44
0.0000000001
 40
0.0
 40
0.0
 40
0.0
 40
0.0
 40
0.0400825083
 40
0.0879430502
 40
0.1430616894
 40
0.2045240905
 40
0.342402559
 40
0.4922227972
 40
0.6434090986
 40
0.7850497861
 40
0.90676094
 40
0.9574257118
 40
1.0
 40
1.0
 40
1.0
 40
1.0
 10
66.3291853424
 20
85.4172903855
 30
0.0
 10
66.3091336852
 20
85.4638349626
 30
0.0
 10
66.2703019979
 20
85.5681684274
 30
0.0
 10
66.2170700324
 20
85.741092626
 30
0.0
 10
66.163780538
 20
85.9421098365
 30
0.0
 10
66.0896117245
 20
86.2552043067
 30
0.0
 10
65.9999887888
 20
86.6875536731
 30
0.0
 10
65.895599654
 20
87.2325598878
 30
0.0
 10
65.7913374698
 20
87.7824563876
 30
0.0
 10
65.6875767036
 20
88.2962124651
 30
0.0
 10
65.5975479941
 20
88.683119032
 30
0.0
 10
65.5222939711
 20
88.9443283518
 30
0.0
 10
65.4836880712
 20
89.0558471303
 30
0.0
 10
65.4636792364
 20
89.1058209565
 30
0.0
  0
SPLINE
  5
445
100
AcDbEntity
  8
DEFAULT_2
100
AcDbSpline
 62
8
  6
HIDDEN
 70
0
 71
3
 72
19
 73
15
 74
0
 42
0.0000001
 43
0.0000001
 44
0.0000000001
 40
0.0
 40
0.0
 40
0.0
 40
0.0
 40
0.0384806832
 40
0.0857402157
 40
0.141129154
 40
0.2035043293
 40
0.3442890998
 40
0.4974929433
 40
0.6509929059
 40
0.7928215346
 40
0.8559834455
 40
0.9122486304
 40
0.9604576525
 40
1.0
 40
1.0
 40
1.0
 40
1.0
 10
58.8850575193
 20
84.9894249997
 30
0.0
 10
58.8636962526
 20
85.0412404065
 30
0.0
 10
58.8227739631
 20
85.1594128989
 30
0.0
 10
58.7673941228
 20
85.3574104346
 30
0.0
 10
58.7118753325
 20
85.5913135218
 30
0.0
 10
58.6343070429
 20
85.9598283094
 30
0.0
 10
58.5407099393
 20
86.4704162864
 30
0.0
 10
58.4319374827
 20
87.1130218408
 30
0.0
 10
58.3230657651
 20
87.7571532034
 30
0.0
 10
58.2295237035
 20
88.270892895
 30
0.0
 10
58.1521096478
 20
88.6434659578
 30
0.0
 10
58.0965711291
 20
88.8812699867
 30
0.0
 10
58.0410988204
 20
89.0836036384
 30
0.0
 10
58.0002788014
 20
89.2048856239
 30
0.0
 10
57.9790141151
 20
89.2584082304
 30
0.0
  0
SPLINE
  5
446
100
AcDbEntity
  8
DEFAULT_2
100
AcDbSpline
 62
8
  6
HIDDEN
 70
0
 71
3
 72
19
 73
15
 74
0
 42
0.0000001
 43
0.0000001
 44
0.0000000001
 40
0.0
 40
0.0
 40
0.0
 40
0.0
 40
0.0385212594
 40
0.0857231738
 40
0.1410113186
 40
0.2033752644
 40
0.3442375739
 40
0.4974830699
 40
0.6510202065
 40
0.7929461495
 40
0.8560167025
 40
0.9121080352
 40
0.960351351
 40
1.0
 40
1.0
 40
1.0
 40
1.0
 10
56.3855897488
 20
84.9878557481
 30
0.0
 10
56.3642012629
 20
85.0397855802
 30
0.0
 10
56.3232987721
 20
85.1580713594
 30
0.0
 10
56.2677742762
 20
85.3560640191
 30
0.0
 10
56.2121152985
 20
85.5899328682
 30
0.0
 10
56.134472867
 20
85.9587728246
 30
0.0
 10
56.0407890321
 20
86.4700415633
 30
0.0
 10
55.9318547133
 20
87.1135232933
 30
0.0
 10
55.8227751831
 20
87.7585532975
 30
0.0
 10
55.7292418859
 20
88.2728985213
 30
0.0
 10
55.6517036959
 20
88.6455937095
 30
0.0
 10
55.5959002556
 20
88.8832453308
 30
0.0
 10
55.540395551
 20
89.0857339365
 30
0.0
 10
55.4996219321
 20
89.2073869026
 30
0.0
 10
55.4783003876
 20
89.2611167146
 30
0.0
  0
SPLINE
  5
447
100
AcDbEntity
  8
DEFAULT_2
100
AcDbSpline
 62
8
  6
HIDDEN
 70
0
 71
3
 72
16
 73
12
 74
0
 42
0.0000001
 43
0.0000001
 44
0.0000000001
 40
0.0
 40
0.0
 40
0.0
 40
0.0
 40
0.0969722079
 40
0.1457450823
 40
0.196599906
 40
0.3083451244
 40
0.435735548
 40
0.5755187242
 40
0.7212443685
 40
0.8651519698
 40
1.0
 40
1.0
 40
1.0
 40
1.0
 10
69.4023883663
 20
86.7052834544
 30
0.0
 10
69.3606762064
 20
86.6960360911
 30
0.0
 10
69.2946125409
 20
86.6930888433
 30
0.0
 10
69.2102021354
 20
86.7142020951
 30
0.0
 10
69.1248998274
 20
86.7526756609
 30
0.0
 10
69.0220813099
 20
86.8307987647
 30
0.0
 10
68.9087484935
 20
86.9538551027
 30
0.0
 10
68.798981645
 20
87.0991358258
 30
0.0
 10
68.6924377625
 20
87.2554961204
 30
0.0
 10
68.5885907588
 20
87.4110192539
 30
0.0
 10
68.5179125389
 20
87.5115326482
 30
0.0
 10
68.4820187591
 20
87.5588770511
 30
0.0
  0
SPLINE
  5
448
100
AcDbEntity
  8
DEFAULT_2
100
AcDbSpline
 62
8
  6
HIDDEN
 70
0
 71
3
 72
15
 73
11
 74
0
 42
0.0000001
 43
0.0000001
 44
0.0000000001
 40
0.0
 40
0.0
 40
0.0
 40
0.0
 40
0.0951503558
 40
0.211871243
 40
0.3445191401
 40
0.4863994838
 40
0.6303749602
 40
0.7687400795
 40
0.8941086034
 40
1.0
 40
1.0
 40
1.0
 40
1.0
 10
68.7664466784
 20
85.9761923562
 30
0.0
 10
68.7301215151
 20
86.0506561719
 30
0.0
 10
68.6625036621
 20
86.2227763513
 30
0.0
 10
68.5713496003
 20
86.5085857655
 30
0.0
 10
68.4799212113
 20
86.8368396322
 30
0.0
 10
68.38829926
 20
87.1895376589
 30
0.0
 10
68.2969989273
 20
87.5474606894
 30
0.0
 10
68.2060702595
 20
87.8906600373
 30
0.0
 10
68.1156680083
 20
88.1995606968
 30
0.0
 10
68.049803339
 20
88.3901106724
 30
0.0
 10
68.0148947741
 20
88.4754512353
 30
0.0
  0
SPLINE
  5
449
100
AcDbEntity
  8
DEFAULT_2
100
AcDbSpline
 62
8
  6
HIDDEN
 70
0
 71
3
 72
17
 73
13
 74
0
 42
0.0000001
 43
0.0000001
 44
0.0000000001
 40
0.0
 40
0.0
 40
0.0
 40
0.0
 40
0.0720008331
 40
0.1172281129
 40
0.169442928
 40
0.293614307
 40
0.4388594946
 40
0.5948182493
 40
0.7486526876
 40
0.8871780614
 40
0.9472048146
 40
1.0
 40
1.0
 40
1.0
 40
1.0
 10
67.4260640109
 20
87.9976071776
 30
0.0
 10
67.4661272067
 20
87.9887253809
 30
0.0
 10
67.5255974379
 20
87.9514706672
 30
0.0
 10
67.5932884635
 20
87.8830493037
 30
0.0
 10
67.671332263
 20
87.7832280955
 30
0.0
 10
67.7661221817
 20
87.6259236315
 30
0.0
 10
67.8767627159
 20
87.4101716016
 30
0.0
 10
67.9894149515
 20
87.1765498055
 30
0.0
 10
68.1040946252
 20
86.948260012
 30
0.0
 10
68.2052067351
 20
86.774203578
 30
0.0
 10
68.2905632767
 20
86.6589754342
 30
0.0
 10
68.3345391339
 20
86.6117015905
 30
0.0
 10
68.3569413144
 20
86.5916131627
 30
0.0
  0
SPLINE
  5
44A
100
AcDbEntity
  8
DEFAULT_2
100
AcDbSpline
 62
8
  6
HIDDEN
 70
0
 71
3
 72
19
 73
15
 74
0
 42
0.0000001
 43
0.0000001
 44
0.0000000001
 40
0.0
 40
0.0
 40
0.0
 40
0.0
 40
0.0385904906
 40
0.0859677692
 40
0.1412956194
 40
0.2036472726
 40
0.3444860846
 40
0.4975427334
 40
0.6510308573
 40
0.7927572185
 40
0.8558239377
 40
0.9120914119
 40
0.9604132267
 40
1.0
 40
1.0
 40
1.0
 40
1.0
 10
61.3848909715
 20
84.9889549098
 30
0.0
 10
61.3634538362
 20
85.0409311769
 30
0.0
 10
61.322661866
 20
85.1595492007
 30
0.0
 10
61.2673516161
 20
85.3578744886
 30
0.0
 10
61.2116900507
 20
85.5918722012
 30
0.0
 10
61.1341431581
 20
85.9604684866
 30
0.0
 10
61.0406900804
 20
86.4710752371
 30
0.0
 10
60.9317458768
 20
87.1137043044
 30
0.0
 10
60.823006945
 20
87.7576805702
 30
0.0
 10
60.7294835082
 20
88.2712821998
 30
0.0
 10
60.6519901137
 20
88.6436713835
 30
0.0
 10
60.5964174105
 20
88.8815737558
 30
0.0
 10
60.5410688343
 20
89.0842489696
 30
0.0
 10
60.500239
 20
89.205814998
 30
0.0
 10
60.4789546028
 20
89.259418939
 30
0.0
  0
SPLINE
  5
44B
100
AcDbEntity
  8
DEFAULT_2
100
AcDbSpline
 62
8
  6
HIDDEN
 70
0
 71
3
 72
13
 73
9
 74
0
 42
0.0000001
 43
0.0000001
 44
0.0000000001
 40
0.0
 40
0.0
 40
0.0
 40
0.0
 40
0.0851852054
 40
0.1752482218
 40
0.2749554466
 40
0.3877990962
 40
0.6604119481
 40
1.0
 40
1.0
 40
1.0
 40
1.0
 10
57.4378013043
 20
88.5449053775
 30
0.0
 10
57.427884447
 20
88.5452546286
 30
0.0
 10
57.4072936843
 20
88.5432035454
 30
0.0
 10
57.3769932443
 20
88.5319974351
 30
0.0
 10
57.3470450367
 20
88.5130114861
 30
0.0
 10
57.3048265409
 20
88.4751505821
 30
0.0
 10
57.2536256972
 20
88.4072082919
 30
0.0
 10
57.2187198634
 20
88.3449319364
 30
0.0
 10
57.2007413524
 20
88.3096957647
 30
0.0
  0
SPLINE
  5
44C
100
AcDbEntity
  8
DEFAULT_2
100
AcDbSpline
 62
8
  6
HIDDEN
 70
0
 71
3
 72
11
 73
7
 74
0
 42
0.0000001
 43
0.0000001
 44
0.0000000001
 40
0.0
 40
0.0
 40
0.0
 40
0.0
 40
0.2854737591
 40
0.5375965028
 40
0.7697883818
 40
1.0
 40
1.0
 40
1.0
 40
1.0
 10
69.9240538495
 20
87.5795099682
 30
0.0
 10
69.9007444718
 20
87.5990924154
 30
0.0
 10
69.8542339352
 20
87.6331586281
 30
0.0
 10
69.7787171152
 20
87.6673216835
 30
0.0
 10
69.7024081913
 20
87.6791470379
 30
0.0
 10
69.652820114
 20
87.6721374914
 30
0.0
 10
69.6291647743
 20
87.665569838
 30
0.0
  0
SPLINE
  5
44D
100
AcDbEntity
  8
DEFAULT_2
100
AcDbSpline
 62
8
  6
HIDDEN
 70
0
 71
3
 72
18
 73
14
 74
0
 42
0.0000001
 43
0.0000001
 44
0.0000000001
 40
0.0
 40
0.0
 40
0.0
 40
0.0
 40
0.1815441283
 40
0.323374815
 40
0.3804655335
 40
0.4294066539
 40
0.509197513
 40
0.5466424691
 40
0.5869972438
 40
0.6333213452
 40
0.687676118
 40
0.8241274082
 40
1.0
 40
1.0
 40
1.0
 40
1.0
 10
51.7291560877
 20
69.0055645708
 30
0.0
 10
51.7162828936
 20
68.9731598769
 30
0.0
 10
51.6913367561
 20
68.9162141861
 30
0.0
 10
51.6542268346
 20
68.852832424
 30
0.0
 10
51.6233628718
 20
68.8163360396
 30
0.0
 10
51.5966211256
 20
68.7927384302
 30
0.0
 10
51.5656557918
 20
68.7790738501
 30
0.0
 10
51.5349688023
 20
68.7821536041
 30
0.0
 10
51.5128194913
 20
68.7917478149
 30
0.0
 10
51.4911308347
 20
68.8082982357
 30
0.0
 10
51.4602423727
 20
68.8419841171
 30
0.0
 10
51.4231400399
 20
68.9024063883
 30
0.0
 10
51.3983270536
 20
68.9570654065
 30
0.0
 10
51.3854631945
 20
68.9882988431
 30
0.0
  0
SPLINE
  5
44E
100
AcDbEntity
  8
DEFAULT_2
100
AcDbSpline
 62
8
  6
HIDDEN
 70
0
 71
3
 72
18
 73
14
 74
0
 42
0.0000001
 43
0.0000001
 44
0.0000000001
 40
0.0
 40
0.0
 40
0.0
 40
0.0
 40
0.1819926322
 40
0.3247869038
 40
0.3822082927
 40
0.4312457305
 40
0.5107066573
 40
0.5481809323
 40
0.5887143293
 40
0.6351515209
 40
0.6893476467
 40
0.8248767818
 40
1.0
 40
1.0
 40
1.0
 40
1.0
 10
52.9789739496
 20
73.2586785586
 30
0.0
 10
52.9660630135
 20
73.2911771256
 30
0.0
 10
52.9410677287
 20
73.3484166134
 30
0.0
 10
52.9041013124
 20
73.4122977168
 30
0.0
 10
52.8732732366
 20
73.4491988235
 30
0.0
 10
52.8466343304
 20
73.4729752866
 30
0.0
 10
52.8154642044
 20
73.4863867889
 30
0.0
 10
52.7848513172
 20
73.4827023229
 30
0.0
 10
52.7627838399
 20
73.4727960822
 30
0.0
 10
52.7411422943
 20
73.4561477803
 30
0.0
 10
52.7102697768
 20
73.4226855743
 30
0.0
 10
52.6730518986
 20
73.3627119814
 30
0.0
 10
52.6482868534
 20
73.3083438764
 30
0.0
 10
52.6354709121
 20
73.277230716
 30
0.0
  0
SPLINE
  5
44F
100
AcDbEntity
  8
DEFAULT_2
100
AcDbSpline
 62
8
  6
HIDDEN
 70
0
 71
3
 72
18
 73
14
 74
0
 42
0.0000001
 43
0.0000001
 44
0.0000000001
 40
0.0
 40
0.0
 40
0.0
 40
0.0
 40
0.18223235
 40
0.3244644318
 40
0.3813983301
 40
0.4300739734
 40
0.5095231784
 40
0.5470431369
 40
0.5875341498
 40
0.6338783205
 40
0.6880329974
 40
0.8240556544
 40
1.0
 40
1.0
 40
1.0
 40
1.0
 10
54.2285329622
 20
69.0043224179
 30
0.0
 10
54.2156621391
 20
68.9718940622
 30
0.0
 10
54.1908044655
 20
68.9149112766
 30
0.0
 10
54.1538943775
 20
68.8514498759
 30
0.0
 10
54.1230280613
 20
68.8151529206
 30
0.0
 10
54.0963116701
 20
68.7918932568
 30
0.0
 10
54.0653062821
 20
68.7788028665
 30
0.0
 10
54.0348055617
 20
68.7822956484
 30
0.0
 10
54.0127601862
 20
68.7920029515
 30
0.0
 10
53.9911358093
 20
68.8084630552
 30
0.0
 10
53.9602487662
 20
68.8417924859
 30
0.0
 10
53.9231815024
 20
68.9018705783
 30
0.0
 10
53.8984997489
 20
68.9563043968
 30
0.0
 10
53.8856788029
 20
68.9874544384
 30
0.0
  0
SPLINE
  5
450
100
AcDbEntity
  8
DEFAULT_2
100
AcDbSpline
 62
8
  6
HIDDEN
 70
0
 71
3
 72
18
 73
14
 74
0
 42
0.0000001
 43
0.0000001
 44
0.0000000001
 40
0.0
 40
0.0
 40
0.0
 40
0.0
 40
0.1819945304
 40
0.3236787692
 40
0.3805015191
 40
0.4291488808
 40
0.5086087885
 40
0.5461229834
 40
0.5866358126
 40
0.6330875998
 40
0.687490998
 40
0.8240344604
 40
1.0
 40
1.0
 40
1.0
 40
1.0
 10
55.4783003876
 20
73.2611167146
 30
0.0
 10
55.465448446
 20
73.2935033181
 30
0.0
 10
55.440655109
 20
73.3503585007
 30
0.0
 10
55.4036349219
 20
73.4135551561
 30
0.0
 10
55.3727956117
 20
73.4496986229
 30
0.0
 10
55.346085337
 20
73.4729210989
 30
0.0
 10
55.3151051514
 20
73.4860498226
 30
0.0
 10
55.2845924439
 20
73.4825688081
 30
0.0
 10
55.2625384981
 20
73.472811228
 30
0.0
 10
55.2409107724
 20
73.4562304201
 30
0.0
 10
55.2100781705
 20
73.4226220986
 30
0.0
 10
55.173080485
 20
73.3623446346
 30
0.0
 10
55.1483266251
 20
73.3078310613
 30
0.0
 10
55.1354951008
 20
73.2766812393
 30
0.0
  0
SPLINE
  5
451
100
AcDbEntity
  8
DEFAULT_2
100
AcDbSpline
 62
8
  6
HIDDEN
 70
0
 71
3
 72
18
 73
14
 74
0
 42
0.0000001
 43
0.0000001
 44
0.0000000001
 40
0.0
 40
0.0
 40
0.0
 40
0.0
 40
0.1820544062
 40
0.3238657418
 40
0.3807286055
 40
0.4294058504
 40
0.5089000888
 40
0.5464091724
 40
0.5868931961
 40
0.6332865999
 40
0.6876010078
 40
0.8240350153
 40
1.0
 40
1.0
 40
1.0
 40
1.0
 10
56.7284369124
 20
69.0039368159
 30
0.0
 10
56.7155784272
 20
68.9715370998
 30
0.0
 10
56.6907716201
 20
68.9146442182
 30
0.0
 10
56.6537664067
 20
68.8513812827
 30
0.0
 10
56.6229202527
 20
68.815188215
 30
0.0
 10
56.5962078047
 20
68.7919330913
 30
0.0
 10
56.5652319748
 20
68.7787670717
 30
0.0
 10
56.5347118426
 20
68.7821972548
 30
0.0
 10
56.5126544776
 20
68.7919083392
 30
0.0
 10
56.4910227649
 20
68.8084320345
 30
0.0
 10
56.4601627766
 20
68.8419554773
 30
0.0
 10
56.4231656607
 20
68.9022039365
 30
0.0
 10
56.3984208834
 20
68.9567026
 30
0.0
 10
56.3855897488
 20
68.9878557481
 30
0.0
  0
SPLINE
  5
452
100
AcDbEntity
  8
DEFAULT_2
100
AcDbSpline
 62
8
  6
HIDDEN
 70
0
 71
3
 72
23
 73
19
 74
0
 42
0.0000001
 43
0.0000001
 44
0.0000000001
 40
0.0
 40
0.0
 40
0.0
 40
0.0
 40
0.0538580674
 40
0.116274228
 40
0.1861655069
 40
0.2618973458
 40
0.4238068253
 40
0.5872772719
 40
0.6647978742
 40
0.7370269577
 40
0.8024752942
 40
0.8598360087
 40
0.9079758506
 40
0.9464907957
 40
0.9623747866
 40
0.9762819183
 40
0.988615406
 40
1.0
 40
1.0
 40
1.0
 40
1.0
 10
52.200957767
 20
72.3099160861
 30
0.0
 10
52.1779006901
 20
72.2647067011
 30
0.0
 10
52.1330042535
 20
72.1646215032
 30
0.0
 10
52.070687108
 20
72.000592575
 30
0.0
 10
52.0083549199
 20
71.8146950596
 30
0.0
 10
51.9231031087
 20
71.537719057
 30
0.0
 10
51.8201649014
 20
71.174024525
 30
0.0
 10
51.7177156095
 20
70.8084570692
 30
0.0
 10
51.632874113
 20
70.5257578645
 30
0.0
 10
51.5703628568
 20
70.3328284626
 30
0.0
 10
51.5080120557
 20
70.1599077209
 30
0.0
 10
51.4459756975
 20
70.0111162681
 30
0.0
 10
51.3841214591
 20
69.890184167
 30
0.0
 10
51.3293366116
 20
69.8098880591
 30
0.0
 10
51.2842571046
 20
69.7636997997
 30
0.0
 10
51.2523882019
 20
69.7396966308
 30
0.0
 10
51.2201115926
 20
69.724330728
 30
0.0
 10
51.1978045461
 20
69.7201771926
 30
0.0
 10
51.187083875
 20
69.7197941387
 30
0.0
  0
SPLINE
  5
453
100
AcDbEntity
  8
DEFAULT_2
100
AcDbSpline
 62
8
  6
HIDDEN
 70
0
 71
3
 72
22
 73
18
 74
0
 42
0.0000001
 43
0.0000001
 44
0.0000000001
 40
0.0
 40
0.0
 40
0.0
 40
0.0
 40
0.0538411941
 40
0.1163561501
 40
0.2618218832
 40
0.4237221789
 40
0.5870466845
 40
0.6644855763
 40
0.7367786937
 40
0.8022608164
 40
0.8594656956
 40
0.907611314
 40
0.9463792145
 40
0.9623647973
 40
0.9763076104
 40
0.9886276385
 40
1.0
 40
1.0
 40
1.0
 40
1.0
 10
53.4505613007
 20
69.9554837158
 30
0.0
 10
53.4274970277
 20
70.0006434897
 30
0.0
 10
53.3826112568
 20
70.1007647143
 30
0.0
 10
53.2953817288
 20
70.3314802374
 30
0.0
 10
53.1909721145
 20
70.6640395914
 30
0.0
 10
53.0702459901
 20
71.0905537628
 30
0.0
 10
52.967908834
 20
71.4557425657
 30
0.0
 10
52.8830655368
 20
71.7381261545
 30
0.0
 10
52.820697193
 20
71.9310106564
 30
0.0
 10
52.7585476646
 20
72.1038521833
 30
0.0
 10
52.6963831485
 20
72.2523939186
 30
0.0
 10
52.6344347041
 20
72.3732905507
 30
0.0
 10
52.5799435265
 20
72.4541063591
 30
0.0
 10
52.5349850995
 20
72.5008796552
 30
0.0
 10
52.5031578585
 20
72.5251207776
 30
0.0
 10
52.470848974
 20
72.5404380976
 30
0.0
 10
52.4485675693
 20
72.544502499
 30
0.0
 10
52.4378634824
 20
72.5448788607
 30
0.0
  0
SPLINE
  5
454
100
AcDbEntity
  8
DEFAULT_2
100
AcDbSpline
 62
8
  6
HIDDEN
 70
0
 71
3
 72
22
 73
18
 74
0
 42
0.0000001
 43
0.0000001
 44
0.0000000001
 40
0.0
 40
0.0
 40
0.0
 40
0.0
 40
0.0539393476
 40
0.1165103881
 40
0.2619875001
 40
0.4239437732
 40
0.5873252434
 40
0.6647764552
 40
0.737049514
 40
0.8024721227
 40
0.8597037847
 40
0.9078991261
 40
0.9465672473
 40
0.962446205
 40
0.9763198879
 40
0.9886247068
 40
1.0
 40
1.0
 40
1.0
 40
1.0
 10
54.7005234662
 20
72.3093584321
 30
0.0
 10
54.6774200308
 20
72.2641031174
 30
0.0
 10
54.63258868
 20
72.163771904
 30
0.0
 10
54.5452930499
 20
71.9328660326
 30
0.0
 10
54.4407785381
 20
71.6001398016
 30
0.0
 10
54.3200191767
 20
71.1734189819
 30
0.0
 10
54.217637513
 20
70.8080385982
 30
0.0
 10
54.1327531884
 20
70.5255559384
 30
0.0
 10
54.0703723261
 20
70.3326968147
 30
0.0
 10
54.0081142283
 20
70.1599081578
 30
0.0
 10
53.9459355605
 20
70.0113189337
 30
0.0
 10
53.8840847077
 20
69.8903783761
 30
0.0
 10
53.829600306
 20
69.8096665344
 30
0.0
 10
53.7844609916
 20
69.7633957244
 30
0.0
 10
53.7525780367
 20
69.7395257136
 30
0.0
 10
53.7202946063
 20
69.7243508344
 30
0.0
 10
53.6980253109
 20
69.720282334
 30
0.0
 10
53.687316416
 20
69.7199014088
 30
0.0
  0
SPLINE
  5
455
100
AcDbEntity
  8
DEFAULT_2
100
AcDbSpline
 62
8
  6
HIDDEN
 70
0
 71
3
 72
22
 73
18
 74
0
 42
0.0000001
 43
0.0000001
 44
0.0000000001
 40
0.0
 40
0.0
 40
0.0
 40
0.0
 40
0.0539103547
 40
0.11646033
 40
0.2620164808
 40
0.4239820218
 40
0.587332875
 40
0.6648198538
 40
0.7370628479
 40
0.8024114416
 40
0.8596852296
 40
0.907924773
 40
0.9465465174
 40
0.9624226193
 40
0.9763075188
 40
0.988622494
 40
1.0
 40
1.0
 40
1.0
 40
1.0
 10
55.9504498549
 20
69.9555910315
 30
0.0
 10
55.9273557734
 20
70.0008171609
 30
0.0
 10
55.8825080632
 20
70.1010817126
 30
0.0
 10
55.7951768183
 20
70.3319902585
 30
0.0
 10
55.6907638064
 20
70.6647947858
 30
0.0
 10
55.5699844597
 20
71.0915382803
 30
0.0
 10
55.467541685
 20
71.4568925785
 30
0.0
 10
55.3827352667
 20
71.7393559876
 30
0.0
 10
55.3203629462
 20
71.9321392282
 30
0.0
 10
55.2580063237
 20
72.1048197633
 30
0.0
 10
55.1958772928
 20
72.2534239666
 30
0.0
 10
55.134141026
 20
72.3744670143
 30
0.0
 10
55.0795399973
 20
72.4550906772
 30
0.0
 10
55.0344137114
 20
72.5013127995
 30
0.0
 10
55.0025487836
 20
72.5252269936
 30
0.0
 10
54.9702793313
 20
72.5404765897
 30
0.0
 10
54.9480014277
 20
72.5445795792
 30
0.0
 10
54.9372910746
 20
72.5449607216
 30
0.0
  0
SPLINE
  5
456
100
AcDbEntity
  8
DEFAULT_2
100
AcDbSpline
 62
8
  6
HIDDEN
 70
0
 71
3
 72
22
 73
18
 74
0
 42
0.0000001
 43
0.0000001
 44
0.0000000001
 40
0.0
 40
0.0
 40
0.0
 40
0.0
 40
0.0538715039
 40
0.1163877686
 40
0.2619086684
 40
0.42387247
 40
0.5872611534
 40
0.664741914
 40
0.7370260686
 40
0.8024271331
 40
0.8596964037
 40
0.9079210579
 40
0.9465481891
 40
0.9624239252
 40
0.9763073836
 40
0.9886217137
 40
1.0
 40
1.0
 40
1.0
 40
1.0
 10
57.2007413524
 20
72.3096957647
 30
0.0
 10
57.1776733422
 20
72.2644846582
 30
0.0
 10
57.1327535567
 20
72.1643032442
 30
0.0
 10
57.0454159618
 20
71.9334420123
 30
0.0
 10
56.9409569741
 20
71.6006425607
 30
0.0
 10
56.8201318095
 20
71.1738067742
 30
0.0
 10
56.7177044059
 20
70.8083305334
 30
0.0
 10
56.6328218778
 20
70.5257493671
 30
0.0
 10
56.5704416691
 20
70.3328352311
 30
0.0
 10
56.5081083051
 20
70.1600131111
 30
0.0
 10
56.4459378118
 20
70.0113508117
 30
0.0
 10
56.3841521744
 20
69.8903158599
 30
0.0
 10
56.3295581722
 20
69.8096725493
 30
0.0
 10
56.2844137249
 20
69.763442196
 30
0.0
 10
56.2525364719
 20
69.7395329083
 30
0.0
 10
56.2202552357
 20
69.7242923946
 30
0.0
 10
56.1979721157
 20
69.7201932698
 30
0.0
 10
56.1872586399
 20
69.7198117258
 30
0.0
  0
SPLINE
  5
457
100
AcDbEntity
  8
DEFAULT_2
100
AcDbSpline
 62
8
  6
HIDDEN
 70
0
 71
3
 72
17
 73
13
 74
0
 42
0.0000001
 43
0.0000001
 44
0.0000000001
 40
0.0
 40
0.0
 40
0.0
 40
0.0
 40
0.026125684
 40
0.0546908078
 40
0.0876223506
 40
0.1259980327
 40
0.2205653605
 40
0.3391993761
 40
0.480456506
 40
0.6408759446
 40
0.8157073868
 40
1.0
 40
1.0
 40
1.0
 40
1.0
 10
51.9016301861
 20
69.7327808003
 30
0.0
 10
51.8895514409
 20
69.7327763096
 30
0.0
 10
51.8641232297
 20
69.7369554995
 30
0.0
 10
51.8274241293
 20
69.7551300952
 30
0.0
 10
51.7914860036
 20
69.7845651272
 30
0.0
 10
51.7404506127
 20
69.8420917193
 30
0.0
 10
51.6789844643
 20
69.9416002647
 30
0.0
 10
51.6091313046
 20
70.0899530311
 30
0.0
 10
51.5392036683
 20
70.2714077764
 30
0.0
 10
51.4690458496
 20
70.4802708362
 30
0.0
 10
51.3986111769
 20
70.7099343191
 30
0.0
 10
51.3523494427
 20
70.8693960755
 30
0.0
 10
51.3288739925
 20
70.9513027046
 30
0.0
  0
SPLINE
  5
458
100
AcDbEntity
  8
DEFAULT_2
100
AcDbSpline
 62
8
  6
HIDDEN
 70
0
 71
3
 72
22
 73
18
 74
0
 42
0.0000001
 43
0.0000001
 44
0.0000000001
 40
0.0
 40
0.0
 40
0.0
 40
0.0
 40
0.0113781885
 40
0.0235689585
 40
0.0372084203
 40
0.0527267082
 40
0.0903251444
 40
0.137325619
 40
0.1932777265
 40
0.257265323
 40
0.3281952158
 40
0.4046096821
 40
0.5667840917
 40
0.729378852
 40
0.8780860326
 40
0.9430142389
 40
1.0
 40
1.0
 40
1.0
 40
1.0
 10
53.1523989442
 20
72.5323846193
 30
0.0
 10
53.1419451928
 20
72.5323824835
 30
0.0
 10
53.1201969382
 20
72.5292389625
 30
0.0
 10
53.0884886765
 20
72.5156979416
 30
0.0
 10
53.0571805697
 20
72.4938150492
 30
0.0
 10
53.0129340762
 20
72.45107463
 30
0.0
 10
52.9592014766
 20
72.3756626301
 30
0.0
 10
52.8986062003
 20
72.2614882401
 30
0.0
 10
52.8376584347
 20
72.1206023383
 30
0.0
 10
52.7764661849
 20
71.956217649
 30
0.0
 10
52.7152066424
 20
71.7719419579
 30
0.0
 10
52.6318186111
 20
71.5000570131
 30
0.0
 10
52.5309912631
 20
71.1455021815
 30
0.0
 10
52.4120585918
 20
70.7271035843
 30
0.0
 10
52.3099306028
 20
70.3967094803
 30
0.0
 10
52.2244508421
 20
70.1631752092
 30
0.0
 10
52.1807248967
 20
70.0599523323
 30
0.0
 10
52.1583330959
 20
70.0126263912
 30
0.0
  0
SPLINE
  5
459
100
AcDbEntity
  8
DEFAULT_2
100
AcDbSpline
 62
8
  6
HIDDEN
 70
0
 71
3
 72
22
 73
18
 74
0
 42
0.0000001
 43
0.0000001
 44
0.0000000001
 40
0.0
 40
0.0
 40
0.0
 40
0.0
 40
0.0113725807
 40
0.0235391286
 40
0.0371493258
 40
0.0526673706
 40
0.0903475405
 40
0.1372709694
 40
0.1930820612
 40
0.2570668139
 40
0.328025816
 40
0.4043655102
 40
0.5664893586
 40
0.729170784
 40
0.8778249806
 40
0.9429231043
 40
1.0
 40
1.0
 40
1.0
 40
1.0
 10
54.4023950348
 20
69.7325970732
 30
0.0
 10
54.3919521893
 20
69.7325991806
 30
0.0
 10
54.3702427667
 20
69.7356622501
 30
0.0
 10
54.338531187
 20
69.7490112883
 30
0.0
 10
54.307205917
 20
69.7707592959
 30
0.0
 10
54.2629699174
 20
69.813544934
 30
0.0
 10
54.2094930954
 20
69.88907584
 30
0.0
 10
54.1487848852
 20
70.0029459419
 30
0.0
 10
54.0877873782
 20
70.1435093106
 30
0.0
 10
54.0267165786
 20
70.3077236806
 30
0.0
 10
53.9655602841
 20
70.4918732238
 30
0.0
 10
53.8821295858
 20
70.7634883258
 30
0.0
 10
53.7813474992
 20
71.1178085067
 30
0.0
 10
53.6626929345
 20
71.5360250362
 30
0.0
 10
53.5603351549
 20
71.8663393662
 30
0.0
 10
53.4751143917
 20
72.1000195284
 30
0.0
 10
53.4314543639
 20
72.2034689566
 30
0.0
 10
53.4090239307
 20
72.2508372992
 30
0.0
  0
SPLINE
  5
45A
100
AcDbEntity
  8
DEFAULT_2
100
AcDbSpline
 62
8
  6
HIDDEN
 70
0
 71
3
 72
22
 73
18
 74
0
 42
0.0000001
 43
0.0000001
 44
0.0000000001
 40
0.0
 40
0.0
 40
0.0
 40
0.0
 40
0.0113711874
 40
0.0235433151
 40
0.0371820445
 40
0.0527495259
 40
0.090454491
 40
0.1373434543
 40
0.1931745562
 40
0.2572506484
 40
0.3282240666
 40
0.4045360699
 40
0.5666168585
 40
0.7292822286
 40
0.877931352
 40
0.9429877367
 40
1.0
 40
1.0
 40
1.0
 40
1.0
 10
55.6521334192
 20
72.5321771184
 30
0.0
 10
55.6416919197
 20
72.5321770195
 30
0.0
 10
55.6199767991
 20
72.5291152033
 30
0.0
 10
55.5882509881
 20
72.5157079977
 30
0.0
 10
55.5569397222
 20
72.4937980217
 30
0.0
 10
55.5128101967
 20
72.4507758101
 30
0.0
 10
55.4592873828
 20
72.3752620617
 30
0.0
 10
55.3985202813
 20
72.2614006301
 30
0.0
 10
55.3375339206
 20
72.1207568814
 30
0.0
 10
55.2765579625
 20
71.9563848257
 30
0.0
 10
55.2153742547
 20
71.7721719459
 30
0.0
 10
55.1319355982
 20
71.5006146877
 30
0.0
 10
55.0311656064
 20
71.1463765719
 30
0.0
 10
54.9125284036
 20
70.728219117
 30
0.0
 10
54.8102166656
 20
70.397954219
 30
0.0
 10
54.7250131316
 20
70.1643753599
 30
0.0
 10
54.6813119213
 20
70.0610512719
 30
0.0
 10
54.6589042048
 20
70.0137382086
 30
0.0
  0
SPLINE
  5
45B
100
AcDbEntity
  8
DEFAULT_2
100
AcDbSpline
 62
8
  6
HIDDEN
 70
0
 71
3
 72
11
 73
7
 74
0
 42
0.0000001
 43
0.0000001
 44
0.0000000001
 40
0.0
 40
0.0
 40
0.0
 40
0.0
 40
0.2805091684
 40
0.5498397895
 40
0.7927588903
 40
1.0
 40
1.0
 40
1.0
 40
1.0
 10
70.375166404
 20
70.9611975557
 30
0.0
 10
70.3370414163
 20
71.0220449343
 30
0.0
 10
70.2634517854
 20
71.1420109674
 30
0.0
 10
70.1535305791
 20
71.3126863626
 30
0.0
 10
70.0441909952
 20
71.461041202
 30
0.0
 10
69.9646719568
 20
71.54538628
 30
0.0
 10
69.9240538495
 20
71.5795099682
 30
0.0
  0
SPLINE
  5
45C
100
AcDbEntity
  8
DEFAULT_2
100
AcDbSpline
 62
8
  6
HIDDEN
 70
0
 71
3
 72
18
 73
14
 74
0
 42
0.0000001
 43
0.0000001
 44
0.0000000001
 40
0.0
 40
0.0
 40
0.0
 40
0.0
 40
0.187170847
 40
0.3374520393
 40
0.3991424136
 40
0.4526398985
 40
0.5407076959
 40
0.5807655895
 40
0.6220629632
 40
0.6674380334
 40
0.7188381596
 40
0.843523361
 40
1.0
 40
1.0
 40
1.0
 40
1.0
 10
70.5137170605
 20
71.940685325
 30
0.0
 10
70.4929621548
 20
71.9891619945
 30
0.0
 10
70.4526667753
 20
72.0753682927
 30
0.0
 10
70.3940454863
 20
72.1718955444
 30
0.0
 10
70.3455586738
 20
72.2291729813
 30
0.0
 10
70.3030365386
 20
72.2674890904
 30
0.0
 10
70.255357388
 20
72.2916992293
 30
0.0
 10
70.2069397705
 20
72.2929532794
 30
0.0
 10
70.1720425218
 20
72.2835578739
 30
0.0
 10
70.137823173
 20
72.2644305023
 30
0.0
 10
70.0897522878
 20
72.2242523288
 30
0.0
 10
70.0315881051
 20
72.1497688629
 30
0.0
 10
69.9923925523
 20
72.0808245395
 30
0.0
 10
69.9721693315
 20
72.0416515401
 30
0.0
  0
SPLINE
  5
45D
100
AcDbEntity
  8
DEFAULT_2
100
AcDbSpline
 62
8
  6
HIDDEN
 70
0
 71
3
 72
22
 73
18
 74
0
 42
0.0000001
 43
0.0000001
 44
0.0000000001
 40
0.0
 40
0.0
 40
0.0
 40
0.0
 40
0.0113722932
 40
0.0235436886
 40
0.0371771659
 40
0.0527407891
 40
0.0904584697
 40
0.1373668588
 40
0.1931909335
 40
0.2572369096
 40
0.328201125
 40
0.4045432043
 40
0.5667221847
 40
0.7293387561
 40
0.8780377185
 40
0.9430474401
 40
1.0
 40
1.0
 40
1.0
 40
1.0
 10
56.9021614264
 20
69.7325984563
 30
0.0
 10
56.8917189931
 20
69.7325987228
 30
0.0
 10
56.870003884
 20
69.7356583715
 30
0.0
 10
56.8382783061
 20
69.7490503822
 30
0.0
 10
56.8069548261
 20
69.7709263416
 30
0.0
 10
56.7628072837
 20
69.8139373034
 30
0.0
 10
56.7092963195
 20
69.8894937031
 30
0.0
 10
56.6485402862
 20
70.0033831718
 30
0.0
 10
56.5875398895
 20
70.1440012401
 30
0.0
 10
56.5265342933
 20
70.308315521
 30
0.0
 10
56.4653406885
 20
70.4925150632
 30
0.0
 10
56.3818967339
 20
70.764182999
 30
0.0
 10
56.2812107204
 20
71.1185180942
 30
0.0
 10
56.1624103984
 20
71.5367194992
 30
0.0
 10
56.0602087576
 20
71.8669708563
 30
0.0
 10
55.9749703633
 20
72.1004841108
 30
0.0
 10
55.9312090094
 20
72.2036735688
 30
0.0
 10
55.9088289921
 20
72.2509386387
 30
0.0
  0
SPLINE
  5
45E
100
AcDbEntity
  8
DEFAULT_2
100
AcDbSpline
 62
8
  6
HIDDEN
 70
0
 71
3
 72
22
 73
18
 74
0
 42
0.0000001
 43
0.0000001
 44
0.0000000001
 40
0.0
 40
0.0
 40
0.0
 40
0.0
 40
0.0113764052
 40
0.0235636042
 40
0.0371984275
 40
0.0527132673
 40
0.0903162081
 40
0.1372663251
 40
0.1931484714
 40
0.2571514204
 40
0.3281155054
 40
0.4044644287
 40
0.5666014765
 40
0.7292733587
 40
0.8779537158
 40
0.9430113336
 40
1.0
 40
1.0
 40
1.0
 40
1.0
 10
58.152356713
 20
72.5323709613
 30
0.0
 10
58.1419093143
 20
72.5323692408
 30
0.0
 10
58.1201756697
 20
72.529234521
 30
0.0
 10
58.0884838042
 20
72.515717926
 30
0.0
 10
58.057191341
 20
72.493860943
 30
0.0
 10
58.0129608718
 20
72.4511466687
 30
0.0
 10
57.9593187061
 20
72.3757779687
 30
0.0
 10
57.8987105482
 20
72.2618035372
 30
0.0
 10
57.8377440531
 20
72.1211017986
 30
0.0
 10
57.7766348019
 20
71.9567895514
 30
0.0
 10
57.7154664855
 20
71.772592431
 30
0.0
 10
57.6320286732
 20
71.5009233004
 30
0.0
 10
57.5312460594
 20
71.1465530552
 30
0.0
 10
57.4125408975
 20
70.7282767501
 30
0.0
 10
57.310215719
 20
70.3979419933
 30
0.0
 10
57.2250141953
 20
70.1643232346
 30
0.0
 10
57.181260121
 20
70.061031762
 30
0.0
 10
57.1588628103
 20
70.0137316034
 30
0.0
  0
SPLINE
  5
45F
100
AcDbEntity
  8
DEFAULT_2
100
AcDbSpline
 62
8
  6
HIDDEN
 70
0
 71
3
 72
10
 73
6
 74
0
 42
0.0000001
 43
0.0000001
 44
0.0000000001
 40
0.0
 40
0.0
 40
0.0
 40
0.0
 40
0.5530585736
 40
0.7943149384
 40
1.0
 40
1.0
 40
1.0
 40
1.0
 10
64.991978525
 20
71.008369781
 30
0.0
 10
64.9388176515
 20
70.8220539992
 30
0.0
 10
64.8618350241
 20
70.5545136105
 30
0.0
 10
64.7482639117
 20
70.2230500172
 30
0.0
 10
64.6892370959
 20
70.0778009177
 30
0.0
 10
64.6584273725
 20
70.012662716
 30
0.0
  0
SPLINE
  5
460
100
AcDbEntity
  8
DEFAULT_2
100
AcDbSpline
 62
8
  6
HIDDEN
 70
0
 71
3
 72
19
 73
15
 74
0
 42
0.0000001
 43
0.0000001
 44
0.0000000001
 40
0.0
 40
0.0
 40
0.0
 40
0.0
 40
0.1779993495
 40
0.3508937414
 40
0.5122386836
 40
0.6564681838
 40
0.7206070051
 40
0.7786943004
 40
0.8304511115
 40
0.8757528719
 40
0.9146427238
 40
0.9474771121
 40
0.9752660109
 40
1.0
 40
1.0
 40
1.0
 40
1.0
 10
64.3267784328
 20
71.1966800679
 30
0.0
 10
64.300206359
 20
71.1024331782
 30
0.0
 10
64.2480401466
 20
70.916582723
 30
0.0
 10
64.1697499719
 20
70.6458719852
 30
0.0
 10
64.0915159952
 20
70.3945312913
 30
0.0
 10
64.0242905527
 20
70.2024763508
 30
0.0
 10
63.9693150224
 20
70.0665593067
 30
0.0
 10
63.9296924404
 20
69.9793938702
 30
0.0
 10
63.8901065869
 20
69.9037165321
 30
0.0
 10
63.8505529017
 20
69.840133436
 30
0.0
 10
63.8109707271
 20
69.7891621516
 30
0.0
 10
63.7710597215
 20
69.7512456289
 30
0.0
 10
63.7302243758
 20
69.7270055693
 30
0.0
 10
63.7013850399
 20
69.7205366412
 30
0.0
 10
63.6877867884
 20
69.720057725
 30
0.0
  0
SPLINE
  5
461
100
AcDbEntity
  8
DEFAULT_2
100
AcDbSpline
 62
8
  6
HIDDEN
 70
0
 71
3
 72
18
 73
14
 74
0
 42
0.0000001
 43
0.0000001
 44
0.0000000001
 40
0.0
 40
0.0
 40
0.0
 40
0.0
 40
0.181403862
 40
0.3232773194
 40
0.3803666854
 40
0.4292557522
 40
0.5088084369
 40
0.5462335799
 40
0.5867702717
 40
0.6334140133
 40
0.6880053538
 40
0.8245046144
 40
1.0
 40
1.0
 40
1.0
 40
1.0
 10
59.2291279852
 20
69.0055347235
 30
0.0
 10
59.2162291073
 20
68.9730660871
 30
0.0
 10
59.1912394527
 20
68.9159754399
 30
0.0
 10
59.1541222437
 20
68.8523903846
 30
0.0
 10
59.1232271368
 20
68.8157479622
 30
0.0
 10
59.0964867631
 20
68.7920930325
 30
0.0
 10
59.0654078619
 20
68.7784614439
 30
0.0
 10
59.0346665861
 20
68.7819145175
 30
0.0
 10
59.0125292468
 20
68.7919318474
 30
0.0
 10
58.9908752578
 20
68.808861469
 30
0.0
 10
58.9599887052
 20
68.8428624782
 30
0.0
 10
58.9228196363
 20
68.9034330819
 30
0.0
 10
58.8979396598
 20
68.9581771641
 30
0.0
 10
58.8850575193
 20
68.9894249997
 30
0.0
  0
SPLINE
  5
462
100
AcDbEntity
  8
DEFAULT_2
100
AcDbSpline
 62
8
  6
HIDDEN
 70
0
 71
3
 72
13
 73
9
 74
0
 42
0.0000001
 43
0.0000001
 44
0.0000000001
 40
0.0
 40
0.0
 40
0.0
 40
0.0
 40
0.0806245384
 40
0.1612815848
 40
0.251332695
 40
0.3574763919
 40
0.6317842415
 40
1.0
 40
1.0
 40
1.0
 40
1.0
 10
57.8278262127
 20
73.4799429339
 30
0.0
 10
57.8201644913
 20
73.4826905638
 30
0.0
 10
57.8037612712
 20
73.4857902365
 30
0.0
 10
57.7783349263
 20
73.4808713549
 30
0.0
 10
57.7536769072
 20
73.466967504
 30
0.0
 10
57.7185593766
 20
73.4345753795
 30
0.0
 10
57.6767305212
 20
73.3706390521
 30
0.0
 10
57.649663124
 20
73.3116588418
 30
0.0
 10
57.6355070478
 20
73.2772863167
 30
0.0
  0
SPLINE
  5
463
100
AcDbEntity
  8
DEFAULT_2
100
AcDbSpline
 62
8
  6
HIDDEN
 70
0
 71
3
 72
18
 73
14
 74
0
 42
0.0000001
 43
0.0000001
 44
0.0000000001
 40
0.0
 40
0.0
 40
0.0
 40
0.0
 40
0.1821686565
 40
0.3247714363
 40
0.381994218
 40
0.4308051884
 40
0.5101212425
 40
0.5476723673
 40
0.5883115256
 40
0.634844846
 40
0.6891147222
 40
0.8247461096
 40
1.0
 40
1.0
 40
1.0
 40
1.0
 10
60.4789546028
 20
73.259418939
 30
0.0
 10
60.4660473182
 20
73.2919254421
 30
0.0
 10
60.4410723454
 20
73.349115946
 30
0.0
 10
60.4040720801
 20
73.4128756095
 30
0.0
 10
60.3732055024
 20
73.449543234
 30
0.0
 10
60.3464873959
 20
73.473044112
 30
0.0
 10
60.3152675438
 20
73.4860764945
 30
0.0
 10
60.2847074503
 20
73.4822216713
 30
0.0
 10
60.2626371748
 20
73.4722482269
 30
0.0
 10
60.2409833925
 20
73.4555678101
 30
0.0
 10
60.210094292
 20
73.4221000308
 30
0.0
 10
60.1728409581
 20
73.3621457509
 30
0.0
 10
60.1480594308
 20
73.3077866693
 30
0.0
 10
60.1352388017
 20
73.2766772049
 30
0.0
  0
SPLINE
  5
464
100
AcDbEntity
  8
DEFAULT_2
100
AcDbSpline
 62
8
  6
HIDDEN
 70
0
 71
3
 72
18
 73
14
 74
0
 42
0.0000001
 43
0.0000001
 44
0.0000000001
 40
0.0
 40
0.0
 40
0.0
 40
0.0
 40
0.1822603649
 40
0.324761272
 40
0.381808842
 40
0.4304000811
 40
0.5095278374
 40
0.5471258587
 40
0.5878703951
 40
0.6345300472
 40
0.6889203118
 40
0.8247199314
 40
1.0
 40
1.0
 40
1.0
 40
1.0
 10
61.7287128728
 20
69.0048672619
 30
0.0
 10
61.7158019047
 20
68.9723468377
 30
0.0
 10
61.6908383987
 20
68.9151625621
 30
0.0
 10
61.6538486826
 20
68.8514360737
 30
0.0
 10
61.6229506675
 20
68.8149197249
 30
0.0
 10
61.596170333
 20
68.7916515966
 30
0.0
 10
61.5649059109
 20
68.7789235053
 30
0.0
 10
61.534391615
 20
68.7830036837
 30
0.0
 10
61.5123283597
 20
68.793105079
 30
0.0
 10
61.4906740115
 20
68.8098872225
 30
0.0
 10
61.4597877697
 20
68.8434573804
 30
0.0
 10
61.4225266508
 20
68.903464057
 30
0.0
 10
61.3977210079
 20
68.95784733
 30
0.0
 10
61.3848909715
 20
68.9889549098
 30
0.0
  0
SPLINE
  5
465
100
AcDbEntity
  8
DEFAULT_2
100
AcDbSpline
 62
8
  6
HIDDEN
 70
0
 71
3
 72
18
 73
14
 74
0
 42
0.0000001
 43
0.0000001
 44
0.0000000001
 40
0.0
 40
0.0
 40
0.0
 40
0.0
 40
0.1822682962
 40
0.3246222293
 40
0.3816041932
 40
0.4302967373
 40
0.5097586505
 40
0.547300252
 40
0.5878158593
 40
0.634168934
 40
0.6882967521
 40
0.8241317633
 40
1.0
 40
1.0
 40
1.0
 40
1.0
 10
62.9787133089
 20
73.2601552841
 30
0.0
 10
62.9658327088
 20
73.2925990997
 30
0.0
 10
62.940937079
 20
73.3496194315
 30
0.0
 10
62.9040139278
 20
73.4131436842
 30
0.0
 10
62.8731300997
 20
73.4494931478
 30
0.0
 10
62.8463903936
 20
73.4727686997
 30
0.0
 10
62.8153479056
 20
73.4858346375
 30
0.0
 10
62.7848312887
 20
73.4823073171
 30
0.0
 10
62.7627734836
 20
73.4725872695
 30
0.0
 10
62.7411345503
 20
73.4561316651
 30
0.0
 10
62.7102323524
 20
73.4228521665
 30
0.0
 10
62.6730887039
 20
73.3628602362
 30
0.0
 10
62.6484100392
 20
73.308455606
 30
0.0
 10
62.6355859601
 20
73.2773110357
 30
0.0
  0
SPLINE
  5
466
100
AcDbEntity
  8
DEFAULT_2
100
AcDbSpline
 62
8
  6
HIDDEN
 70
0
 71
3
 72
18
 73
14
 74
0
 42
0.0000001
 43
0.0000001
 44
0.0000000001
 40
0.0
 40
0.0
 40
0.0
 40
0.0
 40
0.1821768741
 40
0.3247866757
 40
0.3820298613
 40
0.4308762614
 40
0.5102634163
 40
0.5478006024
 40
0.5883890763
 40
0.6348519777
 40
0.6890528131
 40
0.824623833
 40
1.0
 40
1.0
 40
1.0
 40
1.0
 10
64.2290127343
 20
69.0053910075
 30
0.0
 10
64.2161099861
 20
68.9728908517
 30
0.0
 10
64.1911408765
 20
68.9157116307
 30
0.0
 10
64.1541426592
 20
68.8519665708
 30
0.0
 10
64.1232855157
 20
68.8152918359
 30
0.0
 10
64.0965717058
 20
68.7917662655
 30
0.0
 10
64.0653894663
 20
68.7786527891
 30
0.0
 10
64.0348221705
 20
68.7823931066
 30
0.0
 10
64.0127497008
 20
68.7922878483
 30
0.0
 10
63.9910957347
 20
68.8088987101
 30
0.0
 10
63.960201422
 20
68.8422951607
 30
0.0
 10
63.9229455358
 20
68.9022309979
 30
0.0
 10
63.8982001545
 20
68.9566018458
 30
0.0
 10
63.8853796073
 20
68.987727207
 30
0.0
  0
SPLINE
  5
467
100
AcDbEntity
  8
DEFAULT_2
100
AcDbSpline
 62
8
  6
HIDDEN
 70
0
 71
3
 72
19
 73
15
 74
0
 42
0.0000001
 43
0.0000001
 44
0.0000000001
 40
0.0
 40
0.0
 40
0.0
 40
0.0
 40
0.0517624387
 40
0.1113680624
 40
0.2496349183
 40
0.4043927979
 40
0.5627543619
 40
0.7117756359
 40
0.7790095691
 40
0.8394725732
 40
0.8921024981
 40
0.9363903156
 40
0.9721651765
 40
1.0
 40
1.0
 40
1.0
 40
1.0
 10
58.4505948188
 20
69.9551645745
 30
0.0
 10
58.4289201926
 20
69.9976715699
 30
0.0
 10
58.3867504645
 20
70.0913952402
 30
0.0
 10
58.3043033337
 20
70.3062895793
 30
0.0
 10
58.2053365223
 20
70.6161146734
 30
0.0
 10
58.0910230978
 20
71.016168983
 30
0.0
 10
57.9763778026
 20
71.4264418317
 30
0.0
 10
57.8781635584
 20
71.7575716994
 30
0.0
 10
57.7969070901
 20
71.9993945817
 30
0.0
 10
57.7381481719
 20
72.1549536897
 30
0.0
 10
57.679429523
 20
72.2876996067
 30
0.0
 10
57.6208252724
 20
72.3953669612
 30
0.0
 10
57.5625213215
 20
72.4762005377
 30
0.0
 10
57.5177346824
 20
72.5158881936
 30
0.0
 10
57.4952261665
 20
72.5282045354
 30
0.0
  0
SPLINE
  5
468
100
AcDbEntity
  8
DEFAULT_2
100
AcDbSpline
 62
8
  6
HIDDEN
 70
0
 71
3
 72
23
 73
19
 74
0
 42
0.0000001
 43
0.0000001
 44
0.0000000001
 40
0.0
 40
0.0
 40
0.0
 40
0.0
 40
0.0538339352
 40
0.1162111733
 40
0.1860517166
 40
0.2617286328
 40
0.4235101576
 40
0.5869006217
 40
0.664382632
 40
0.7366007506
 40
0.8020872408
 40
0.8595059562
 40
0.9077163563
 40
0.9463701869
 40
0.9623190369
 40
0.9762703403
 40
0.988620367
 40
1.0
 40
1.0
 40
1.0
 40
1.0
 10
59.7009893336
 20
72.3100658833
 30
0.0
 10
59.677949735
 20
72.2648834184
 30
0.0
 10
59.6330976948
 20
72.16486533
 30
0.0
 10
59.5708260517
 20
72.0009682277
 30
0.0
 10
59.5085406472
 20
71.8152360217
 30
0.0
 10
59.4233634721
 20
71.5385223142
 30
0.0
 10
59.3204767323
 20
71.1751417688
 30
0.0
 10
59.2181396081
 20
70.8098553216
 30
0.0
 10
59.1333519254
 20
70.5273232136
 30
0.0
 10
59.0708771226
 20
70.3344320642
 30
0.0
 10
59.0085843345
 20
70.1614421228
 30
0.0
 10
58.946612231
 20
70.0124839894
 30
0.0
 10
58.8847324097
 20
69.8913132977
 30
0.0
 10
58.8300523459
 20
69.8106717308
 30
0.0
 10
58.7850387931
 20
69.7641126617
 30
0.0
 10
58.7532112735
 20
69.7398716014
 30
0.0
 10
58.720963439
 20
69.7243262488
 30
0.0
 10
58.6986447374
 20
69.7201404124
 30
0.0
 10
58.6879302769
 20
69.7197689869
 30
0.0
  0
SPLINE
  5
469
100
AcDbEntity
  8
DEFAULT_2
100
AcDbSpline
 62
8
  6
HIDDEN
 70
0
 71
3
 72
22
 73
18
 74
0
 42
0.0000001
 43
0.0000001
 44
0.0000000001
 40
0.0
 40
0.0
 40
0.0
 40
0.0
 40
0.05386274
 40
0.1163236954
 40
0.2617695855
 40
0.4236023613
 40
0.5869682655
 40
0.6643844736
 40
0.7366571883
 40
0.8021991455
 40
0.8595332172
 40
0.9077299356
 40
0.946471105
 40
0.9624209144
 40
0.9763255609
 40
0.9886296375
 40
1.0
 40
1.0
 40
1.0
 40
1.0
 10
60.9509179427
 20
69.954590042
 30
0.0
 10
60.9278664497
 20
69.9997967801
 30
0.0
 10
60.8829884921
 20
70.0999218475
 30
0.0
 10
60.7956304235
 20
70.3306188205
 30
0.0
 10
60.6912956545
 20
70.663178413
 30
0.0
 10
60.5704162575
 20
71.0897446515
 30
0.0
 10
60.4681499407
 20
71.4550288087
 30
0.0
 10
60.3832471053
 20
71.7374884878
 30
0.0
 10
60.3208221951
 20
71.9304376452
 30
0.0
 10
60.2586349617
 20
72.1034918673
 30
0.0
 10
60.1965462911
 20
72.252364556
 30
0.0
 10
60.1345894968
 20
72.3734688475
 30
0.0
 10
60.0800704815
 20
72.4542991722
 30
0.0
 10
60.035069314
 20
72.5009368881
 30
0.0
 10
60.0031940971
 20
72.5249967702
 30
0.0
 10
59.9708818697
 20
72.5401956834
 30
0.0
 10
59.9486107013
 20
72.5442338918
 30
0.0
 10
59.937905167
 20
72.5446100087
 30
0.0
  0
SPLINE
  5
46A
100
AcDbEntity
  8
DEFAULT_2
100
AcDbSpline
 62
8
  6
HIDDEN
 70
0
 71
3
 72
22
 73
18
 74
0
 42
0.0000001
 43
0.0000001
 44
0.0000000001
 40
0.0
 40
0.0
 40
0.0
 40
0.0
 40
0.0538654358
 40
0.1163867339
 40
0.2617810995
 40
0.4236462563
 40
0.5869750377
 40
0.6644154101
 40
0.7367211627
 40
0.8022316485
 40
0.8595128985
 40
0.9077436831
 40
0.9465131414
 40
0.9624503111
 40
0.9763356439
 40
0.9886311534
 40
1.0
 40
1.0
 40
1.0
 40
1.0
 10
62.2007603635
 20
72.3097905894
 30
0.0
 10
62.1776864392
 20
72.2646046011
 30
0.0
 10
62.1328218751
 20
72.164430201
 30
0.0
 10
62.0455984401
 20
71.9337300907
 30
0.0
 10
61.9411253285
 20
71.601254268
 30
0.0
 10
61.8204020326
 20
71.1747941466
 30
0.0
 10
61.7180742777
 20
70.8095933952
 30
0.0
 10
61.6332160747
 20
70.5271665854
 30
0.0
 10
61.5708439571
 20
70.3342204363
 30
0.0
 10
61.5086648143
 20
70.1612542002
 30
0.0
 10
61.4465067001
 20
70.0124995207
 30
0.0
 10
61.3846150585
 20
69.8913927991
 30
0.0
 10
61.3301606793
 20
69.8104805315
 30
0.0
 10
61.2851398072
 20
69.7638782395
 30
0.0
 10
61.2532473289
 20
69.7399176675
 30
0.0
 10
61.2209460102
 20
69.7247847185
 30
0.0
 10
61.1986883705
 20
69.7207658941
 30
0.0
 10
61.1879865184
 20
69.7203907249
 30
0.0
  0
SPLINE
  5
46B
100
AcDbEntity
  8
DEFAULT_2
100
AcDbSpline
 62
8
  6
HIDDEN
 70
0
 71
3
 72
22
 73
18
 74
0
 42
0.0000001
 43
0.0000001
 44
0.0000000001
 40
0.0
 40
0.0
 40
0.0
 40
0.0
 40
0.0538647005
 40
0.116377753
 40
0.2618653872
 40
0.4238090145
 40
0.5871838547
 40
0.664619682
 40
0.7369166645
 40
0.8024335225
 40
0.8597170592
 40
0.9079039879
 40
0.9465706027
 40
0.9624514852
 40
0.9763222478
 40
0.9886245149
 40
1.0
 40
1.0
 40
1.0
 40
1.0
 10
63.4508920258
 20
69.9547059839
 30
0.0
 10
63.427819655
 20
69.9999126784
 30
0.0
 10
63.3828978785
 20
70.1000938469
 30
0.0
 10
63.2955677872
 20
70.3309371533
 30
0.0
 10
63.1910814224
 20
70.6637038024
 30
0.0
 10
63.0702489059
 20
71.0905125086
 30
0.0
 10
62.9678552706
 20
71.4559558182
 30
0.0
 10
62.8829157992
 20
71.7385023199
 30
0.0
 10
62.8204856277
 20
71.9315004916
 30
0.0
 10
62.7582655563
 20
72.1045215817
 30
0.0
 10
62.6960894866
 20
72.2532993174
 30
0.0
 10
62.6341722266
 20
72.3742916335
 30
0.0
 10
62.5796675595
 20
72.4550067825
 30
0.0
 10
62.5345265368
 20
72.5012965041
 30
0.0
 10
62.5026264466
 20
72.5251571339
 30
0.0
 10
62.4703280065
 20
72.5403102422
 30
0.0
 10
62.4480545798
 20
72.5443676654
 30
0.0
 10
62.4373427748
 20
72.5447484466
 30
0.0
  0
SPLINE
  5
46C
100
AcDbEntity
  8
DEFAULT_2
100
AcDbSpline
 62
8
  6
HIDDEN
 70
0
 71
3
 72
22
 73
18
 74
0
 42
0.0000001
 43
0.0000001
 44
0.0000000001
 40
0.0
 40
0.0
 40
0.0
 40
0.0
 40
0.0113716333
 40
0.0235762062
 40
0.0372735961
 40
0.0528745838
 40
0.0905564226
 40
0.1373878684
 40
0.1932557802
 40
0.2573504308
 40
0.3282897657
 40
0.4045814082
 40
0.5667023168
 40
0.7292837466
 40
0.8778540201
 40
0.9429467276
 40
1.0
 40
1.0
 40
1.0
 40
1.0
 10
59.4018032728
 20
69.7324687931
 30
0.0
 10
59.3913640036
 20
69.7324661634
 30
0.0
 10
59.3696152438
 20
69.735569117
 30
0.0
 10
59.3379257564
 20
69.7492801883
 30
0.0
 10
59.3066978819
 20
69.7714705933
 30
0.0
 10
59.2626160795
 20
69.8145945243
 30
0.0
 10
59.2090616273
 20
69.8899920237
 30
0.0
 10
59.1482442297
 20
70.0037537869
 30
0.0
 10
59.087383409
 20
70.1444086875
 30
0.0
 10
59.0264368632
 20
70.3087627123
 30
0.0
 10
58.9652508993
 20
70.4928887782
 30
0.0
 10
58.8818333684
 20
70.7643639985
 30
0.0
 10
58.7812026865
 20
71.1184838422
 30
0.0
 10
58.662570167
 20
71.5364119417
 30
0.0
 10
58.5602482448
 20
71.8664598218
 30
0.0
 10
58.4751239823
 20
72.0999958125
 30
0.0
 10
58.4314864443
 20
72.2033949677
 30
0.0
 10
58.4090646564
 20
72.2507283799
 30
0.0
  0
SPLINE
  5
46D
100
AcDbEntity
  8
DEFAULT_2
100
AcDbSpline
 62
8
  6
HIDDEN
 70
0
 71
3
 72
22
 73
18
 74
0
 42
0.0000001
 43
0.0000001
 44
0.0000000001
 40
0.0
 40
0.0
 40
0.0
 40
0.0
 40
0.0113809555
 40
0.0235634768
 40
0.0371796114
 40
0.0526616763
 40
0.0901708742
 40
0.137115679
 40
0.1930574888
 40
0.2570555794
 40
0.3279934349
 40
0.4044219154
 40
0.5666573467
 40
0.729339209
 40
0.8780479736
 40
0.9429838268
 40
1.0
 40
1.0
 40
1.0
 40
1.0
 10
60.6528309754
 20
72.5322231166
 30
0.0
 10
60.64237314
 20
72.5322177366
 30
0.0
 10
60.6206285088
 20
72.5290992385
 30
0.0
 10
60.5889042644
 20
72.5156569634
 30
0.0
 10
60.5575729963
 20
72.4939067543
 30
0.0
 10
60.5132940912
 20
72.4513828455
 30
0.0
 10
60.4594912629
 20
72.3762002799
 30
0.0
 10
60.3988796743
 20
72.262169828
 30
0.0
 10
60.3379191893
 20
72.1213199618
 30
0.0
 10
60.2767083129
 20
71.9569064703
 30
0.0
 10
60.2154110862
 20
71.7725817662
 30
0.0
 10
60.1319743917
 20
71.5005879213
 30
0.0
 10
60.0310883041
 20
71.145838303
 30
0.0
 10
59.9121511637
 20
70.7272310248
 30
0.0
 10
59.8099276232
 20
70.3967193183
 30
0.0
 10
59.7243905359
 20
70.1631289625
 30
0.0
 10
59.6806578174
 20
70.0598532649
 30
0.0
 10
59.658254545
 20
70.0124932893
 30
0.0
  0
SPLINE
  5
46E
100
AcDbEntity
  8
DEFAULT_2
100
AcDbSpline
 62
8
  6
HIDDEN
 70
0
 71
3
 72
22
 73
18
 74
0
 42
0.0000001
 43
0.0000001
 44
0.0000000001
 40
0.0
 40
0.0
 40
0.0
 40
0.0
 40
0.0113815007
 40
0.0235594437
 40
0.0371618396
 40
0.0526188181
 40
0.0900402428
 40
0.136887996
 40
0.192780867
 40
0.2567926189
 40
0.3277703402
 40
0.4041638244
 40
0.5663536554
 40
0.7291341123
 40
0.8778058204
 40
0.9428749027
 40
1.0
 40
1.0
 40
1.0
 40
1.0
 10
61.9030786338
 20
69.7326834148
 30
0.0
 10
61.8926223935
 20
69.7326907896
 30
0.0
 10
61.8708869911
 20
69.7358001535
 30
0.0
 10
61.83916915
 20
69.7491932308
 30
0.0
 10
61.8078405744
 20
69.7708625254
 30
0.0
 10
61.7635765292
 20
69.8132149446
 30
0.0
 10
61.7097464098
 20
69.8881178937
 30
0.0
 10
61.6491166001
 20
70.0018715714
 30
0.0
 10
61.5881687045
 20
70.1425625084
 30
0.0
 10
61.5269852664
 20
70.3069542081
 30
0.0
 10
61.4657459546
 20
70.4912745383
 30
0.0
 10
61.3822624239
 20
70.7631546874
 30
0.0
 10
61.281323117
 20
71.1178295695
 30
0.0
 10
61.1625886716
 20
71.5364223491
 30
0.0
 10
61.0601320126
 20
71.866973093
 30
0.0
 10
60.9747376131
 20
72.1007586842
 30
0.0
 10
60.9310405862
 20
72.2042691888
 30
0.0
 10
60.9086119699
 20
72.2517162653
 30
0.0
  0
SPLINE
  5
46F
100
AcDbEntity
  8
DEFAULT_2
100
AcDbSpline
 62
8
  6
HIDDEN
 70
0
 71
3
 72
22
 73
18
 74
0
 42
0.0000001
 43
0.0000001
 44
0.0000000001
 40
0.0
 40
0.0
 40
0.0
 40
0.0
 40
0.0113739158
 40
0.0235394273
 40
0.0371409808
 40
0.0526366328
 40
0.0902708845
 40
0.1371864744
 40
0.1930293734
 40
0.2570689458
 40
0.3280505549
 40
0.4043885278
 40
0.5665082299
 40
0.7292068938
 40
0.8778348236
 40
0.9429261412
 40
1.0
 40
1.0
 40
1.0
 40
1.0
 10
63.1525128007
 20
72.5320949739
 30
0.0
 10
63.1420667106
 20
72.5320920033
 30
0.0
 10
63.120353685
 20
72.5290276933
 30
0.0
 10
63.0886375061
 20
72.5156963208
 30
0.0
 10
63.0573076057
 20
72.4939973419
 30
0.0
 10
63.0130328258
 20
72.4513370912
 30
0.0
 10
62.9595153938
 20
72.3758888935
 30
0.0
 10
62.8988022087
 20
72.2620152177
 30
0.0
 10
62.8377961875
 20
72.1213433138
 30
0.0
 10
62.7767361982
 20
71.9569821829
 30
0.0
 10
62.7155495479
 20
71.7727304926
 30
0.0
 10
62.6320824256
 20
71.5010529421
 30
0.0
 10
62.5312560201
 20
71.1466605966
 30
0.0
 10
62.4126019378
 20
70.7283686098
 30
0.0
 10
62.3101800927
 20
70.3980196811
 30
0.0
 10
62.2249412112
 20
70.1643298246
 30
0.0
 10
62.1812592096
 20
70.0608763941
 30
0.0
 10
62.1588281991
 20
70.0135002012
 30
0.0
  0
SPLINE
  5
470
100
AcDbEntity
  8
DEFAULT_2
100
AcDbSpline
 62
8
  6
HIDDEN
 70
0
 71
3
 72
22
 73
18
 74
0
 42
0.0000001
 43
0.0000001
 44
0.0000000001
 40
0.0
 40
0.0
 40
0.0
 40
0.0
 40
0.0113778295
 40
0.0235554402
 40
0.0371667714
 40
0.0526481499
 40
0.0901833744
 40
0.1370977799
 40
0.1929727558
 40
0.2569842007
 40
0.3279614898
 40
0.4043224404
 40
0.5664824702
 40
0.7292028245
 40
0.8778155509
 40
0.9429007657
 40
1.0
 40
1.0
 40
1.0
 40
1.0
 10
64.4027320381
 20
69.7325058518
 30
0.0
 10
64.3922802214
 20
69.7325104893
 30
0.0
 10
64.3705492057
 20
69.7356184911
 30
0.0
 10
64.3388385255
 20
69.7490370259
 30
0.0
 10
64.3075203199
 20
69.7707702494
 30
0.0
 10
64.2632472816
 20
69.813303884
 30
0.0
 10
64.2095525869
 20
69.8885242082
 30
0.0
 10
64.1489285676
 20
70.0024202056
 30
0.0
 10
64.0879375154
 20
70.1431272114
 30
0.0
 10
64.0268009763
 20
70.3074993338
 30
0.0
 10
63.9656006469
 20
70.4917793512
 30
0.0
 10
63.8821181804
 20
70.7635695531
 30
0.0
 10
63.7812559725
 20
71.1181109726
 30
0.0
 10
63.662568819
 20
71.5365304964
 30
0.0
 10
63.5600993125
 20
71.8669397212
 30
0.0
 10
63.4748068562
 20
72.1006677766
 30
0.0
 10
63.4311215575
 20
72.2041630464
 30
0.0
 10
63.4086879711
 20
72.251575646
 30
0.0
  0
SPLINE
  5
471
100
AcDbEntity
  8
DEFAULT_2
100
AcDbSpline
 62
8
  6
HIDDEN
 70
0
 71
3
 72
19
 73
15
 74
0
 42
0.0000001
 43
0.0000001
 44
0.0000000001
 40
0.0
 40
0.0
 40
0.0
 40
0.0
 40
0.1822246736
 40
0.3263639253
 40
0.3847510524
 40
0.4348300693
 40
0.4779740356
 40
0.5165791913
 40
0.5540547718
 40
0.5940610486
 40
0.6396114646
 40
0.6927498111
 40
0.8262077184
 40
1.0
 40
1.0
 40
1.0
 40
1.0
 10
65.4636792364
 20
73.1058209565
 30
0.0
 10
65.4500823522
 20
73.1397803718
 30
0.0
 10
65.423742769
 20
73.1998193229
 30
0.0
 10
65.3849091517
 20
73.2670255326
 30
0.0
 10
65.3527510229
 20
73.3063920171
 30
0.0
 10
65.3301975167
 20
73.3270389195
 30
0.0
 10
65.3072794076
 20
73.3407615213
 30
0.0
 10
65.2837966415
 20
73.3470633832
 30
0.0
 10
65.2601274393
 20
73.3454894707
 30
0.0
 10
65.2368787191
 20
73.3362370882
 30
0.0
 10
65.2141136466
 20
73.3198624643
 30
0.0
 10
65.1816374358
 20
73.2861959086
 30
0.0
 10
65.1425138334
 20
73.2246891428
 30
0.0
 10
65.1166705509
 20
73.1686234974
 30
0.0
 10
65.1032760419
 20
73.136409716
 30
0.0
  0
SPLINE
  5
472
100
AcDbEntity
  8
DEFAULT_2
100
AcDbSpline
 62
8
  6
HIDDEN
 70
0
 71
3
 72
18
 73
14
 74
0
 42
0.0000001
 43
0.0000001
 44
0.0000000001
 40
0.0
 40
0.0
 40
0.0
 40
0.0
 40
0.1831654464
 40
0.3294473451
 40
0.3890065187
 40
0.4402073593
 40
0.5231924707
 40
0.5609818528
 40
0.6006899943
 40
0.6454880449
 40
0.6976739293
 40
0.8291545454
 40
1.0
 40
1.0
 40
1.0
 40
1.0
 10
66.7340439526
 20
69.4663108503
 30
0.0
 10
66.7186779712
 20
69.4284275485
 30
0.0
 10
66.6888881031
 20
69.3611365888
 30
0.0
 10
66.6454329697
 20
69.2855621125
 30
0.0
 10
66.6092949118
 20
69.2407353995
 30
0.0
 10
66.5778648075
 20
69.2111176972
 30
0.0
 10
66.5419913693
 20
69.1924760785
 30
0.0
 10
66.5055269455
 20
69.1929210904
 30
0.0
 10
66.4793174876
 20
69.2017910221
 30
0.0
 10
66.4536463325
 20
69.2187375262
 30
0.0
 10
66.4170859189
 20
69.2545983927
 30
0.0
 10
66.3733203499
 20
69.3213177422
 30
0.0
 10
66.3442720659
 20
69.3822705786
 30
0.0
 10
66.3291853424
 20
69.4172903855
 30
0.0
  0
SPLINE
  5
473
100
AcDbEntity
  8
DEFAULT_2
100
AcDbSpline
 62
8
  6
HIDDEN
 70
0
 71
3
 72
18
 73
14
 74
0
 42
0.0000001
 43
0.0000001
 44
0.0000000001
 40
0.0
 40
0.0
 40
0.0
 40
0.0
 40
0.1853932211
 40
0.335584716
 40
0.3974403396
 40
0.4508807967
 40
0.5370999886
 40
0.5753615587
 40
0.6146242341
 40
0.6581621779
 40
0.7084532116
 40
0.8349661523
 40
1.0
 40
1.0
 40
1.0
 40
1.0
 10
68.0148947741
 20
72.4754512353
 30
0.0
 10
67.9971152036
 20
72.5189167445
 30
0.0
 10
67.9625960255
 20
72.5966716795
 30
0.0
 10
67.9127780421
 20
72.6845429799
 30
0.0
 10
67.8715132766
 20
72.7379173842
 30
0.0
 10
67.8355542688
 20
72.774025633
 30
0.0
 10
67.794996046
 20
72.7981517316
 30
0.0
 10
67.7529072421
 20
72.8010538361
 30
0.0
 10
67.7227410541
 20
72.793419422
 30
0.0
 10
67.6931838529
 20
72.7765565664
 30
0.0
 10
67.6511925103
 20
72.7393587096
 30
0.0
 10
67.6009141802
 20
72.6678001248
 30
0.0
 10
67.5677713339
 20
72.601745863
 30
0.0
 10
67.5505283883
 20
72.5636634941
 30
0.0
  0
SPLINE
  5
474
100
AcDbEntity
  8
DEFAULT_2
100
AcDbSpline
 62
8
  6
HIDDEN
 70
0
 71
3
 72
19
 73
15
 74
0
 42
0.0000001
 43
0.0000001
 44
0.0000000001
 40
0.0
 40
0.0
 40
0.0
 40
0.0
 40
0.1921298748
 40
0.3512874812
 40
0.4177707479
 40
0.4754863582
 40
0.5249709604
 40
0.5677782151
 40
0.6065446181
 40
0.6446514571
 40
0.6855433108
 40
0.7319625376
 40
0.8477580932
 40
1.0
 40
1.0
 40
1.0
 40
1.0
 10
69.3259691253
 20
70.1660517526
 30
0.0
 10
69.3041152593
 20
70.11131749
 30
0.0
 10
69.2617426375
 20
70.0121932445
 30
0.0
 10
69.2016967406
 20
69.8985869351
 30
0.0
 10
69.1522542954
 20
69.8269626861
 30
0.0
 10
69.1174138809
 20
69.7864727014
 30
0.0
 10
69.0822767257
 20
69.7563804905
 30
0.0
 10
69.0465212005
 20
69.7371277924
 30
0.0
 10
69.0100841693
 20
69.7292197212
 30
0.0
 10
68.9735733004
 20
69.7331310785
 30
0.0
 10
68.9377547942
 20
69.7483625791
 30
0.0
 10
68.8872640599
 20
69.785551142
 30
0.0
 10
68.8263922678
 20
69.8619730721
 30
0.0
 10
68.7869217605
 20
69.9342199988
 30
0.0
 10
68.7664466784
 20
69.9761923562
 30
0.0
  0
LINE
  5
475
100
AcDbEntity
  8
DEFAULT_2
100
AcDbLine
 62
8
  6
HIDDEN
 10
46.5288739925
 20
70.5029771454
 11
46.3288739925
 21
70.4794067184
  0
LINE
  5
476
100
AcDbEntity
  8
DEFAULT_2
100
AcDbLine
 62
8
  6
HIDDEN
 10
46.3288739925
 20
71.7853433523
 11
46.5288739925
 21
71.7617729253
  0
SPLINE
  5
477
100
AcDbEntity
  8
DEFAULT_2
100
AcDbSpline
 62
8
  6
HIDDEN
 70
0
 71
3
 72
15
 73
11
 74
0
 42
0.0000001
 43
0.0000001
 44
0.0000000001
 40
0.0
 40
0.0
 40
0.0
 40
0.0
 40
0.0935179912
 40
0.2047244646
 40
0.3335570366
 40
0.4745222109
 40
0.6198753883
 40
0.7610297117
 40
0.8897290097
 40
1.0
 40
1.0
 40
1.0
 40
1.0
 10
69.6291647743
 20
71.665569838
 30
0.0
 10
69.5873153087
 20
71.653950779
 30
0.0
 10
69.5017541075
 20
71.6074696033
 30
0.0
 10
69.3886841838
 20
71.5006725098
 30
0.0
 10
69.2777287451
 20
71.3623987072
 30
0.0
 10
69.1679905109
 20
71.2038191933
 30
0.0
 10
69.0592794565
 20
71.0377054041
 30
0.0
 10
68.9516150879
 20
70.87767576
 30
0.0
 10
68.8450854069
 20
70.7367567812
 30
0.0
 10
68.7672214231
 20
70.6567311353
 30
0.0
 10
68.727542249
 20
70.624353045
 30
0.0
  0
SPLINE
  5
478
100
AcDbEntity
  8
DEFAULT_2
100
AcDbSpline
 62
8
  6
HIDDEN
 70
0
 71
3
 72
20
 73
16
 74
0
 42
0.0000001
 43
0.0000001
 44
0.0000000001
 40
0.0
 40
0.0
 40
0.0
 40
0.0
 40
0.0275528374
 40
0.0569125729
 40
0.0916717453
 40
0.1338587704
 40
0.1841197382
 40
0.2424735395
 40
0.3083508728
 40
0.3806381393
 40
0.5390620324
 40
0.7047478598
 40
0.8631730294
 40
0.9350724708
 40
1.0
 40
1.0
 40
1.0
 40
1.0
 10
66.9022640682
 20
70.1510543266
 30
0.0
 10
66.8819804435
 20
70.1465932455
 30
0.0
 10
66.8377553747
 20
70.1453782914
 30
0.0
 10
66.7721503426
 20
70.171349561
 30
0.0
 10
66.7093484582
 20
70.2223905122
 30
0.0
 10
66.6477400688
 20
70.2963146014
 30
0.0
 10
66.5862374502
 20
70.3921396466
 30
0.0
 10
66.5248213642
 20
70.5085654332
 30
0.0
 10
66.4634144619
 20
70.6434261697
 30
0.0
 10
66.3787574521
 20
70.8503768576
 30
0.0
 10
66.2767669973
 20
71.1313024094
 30
0.0
 10
66.1574443867
 20
71.4748499418
 30
0.0
 10
66.0557354227
 20
71.7555775414
 30
0.0
 10
65.9711167815
 20
71.9614520042
 30
0.0
 10
65.9277931378
 20
72.0551178601
 30
0.0
 10
65.9056986137
 20
72.098786783
 30
0.0
  0
SPLINE
  5
479
100
AcDbEntity
  8
DEFAULT_2
100
AcDbSpline
 62
8
  6
HIDDEN
 70
0
 71
3
 72
9
 73
5
 74
0
 42
0.0000001
 43
0.0000001
 44
0.0000000001
 40
0.0
 40
0.0
 40
0.0
 40
0.0
 40
0.7460357168
 40
1.0
 40
1.0
 40
1.0
 40
1.0
 10
64.9794833454
 20
72.5323750354
 30
0.0
 10
64.9881238086
 20
72.5323750354
 30
0.0
 10
64.9997467098
 20
72.5312094
 30
0.0
 10
65.0110364663
 20
72.5286159361
 30
0.0
 10
65.0138820874
 20
72.5278715482
 30
0.0
  0
SPLINE
  5
47A
100
AcDbEntity
  8
DEFAULT_2
100
AcDbSpline
 62
8
  6
HIDDEN
 70
0
 71
3
 72
19
 73
15
 74
0
 42
0.0000001
 43
0.0000001
 44
0.0000000001
 40
0.0
 40
0.0
 40
0.0
 40
0.0
 40
0.0385813187
 40
0.0858833988
 40
0.1411598024
 40
0.2035111794
 40
0.3443210849
 40
0.497448095
 40
0.6509741543
 40
0.7927348348
 40
0.8558466778
 40
0.9121145887
 40
0.960397842
 40
1.0
 40
1.0
 40
1.0
 40
1.0
 10
63.8853796073
 20
68.987727207
 30
0.0
 10
63.8639613323
 20
69.039725888
 30
0.0
 10
63.8231297385
 20
69.1582588484
 30
0.0
 10
63.7677226283
 20
69.3564561643
 30
0.0
 10
63.7120110683
 20
69.5903705961
 30
0.0
 10
63.6344513601
 20
69.9590284857
 30
0.0
 10
63.5408472677
 20
70.4699207126
 30
0.0
 10
63.431890307
 20
71.1129819351
 30
0.0
 10
63.3230477314
 20
71.7574685598
 30
0.0
 10
63.229414669
 20
72.2714776713
 30
0.0
 10
63.1519062451
 20
72.6441679224
 30
0.0
 10
63.0963050624
 20
72.8821959775
 30
0.0
 10
63.0408335772
 20
73.0849065477
 30
0.0
 10
63.0000136053
 20
73.2065038327
 30
0.0
 10
62.9787133089
 20
73.2601552841
 30
0.0
  0
SPLINE
  5
47B
100
AcDbEntity
  8
DEFAULT_2
100
AcDbSpline
 62
8
  6
HIDDEN
 70
0
 71
3
 72
19
 73
15
 74
0
 42
0.0000001
 43
0.0000001
 44
0.0000000001
 40
0.0
 40
0.0
 40
0.0
 40
0.0
 40
0.0270003625
 40
0.0613796149
 40
0.1039092602
 40
0.1546271988
 40
0.2129595891
 40
0.2780910737
 40
0.4243842691
 40
0.5825518371
 40
0.739828975
 40
0.882958421
 40
0.9453618668
 40
1.0
 40
1.0
 40
1.0
 40
1.0
 10
65.0138820874
 20
72.5278715482
 30
0.0
 10
65.0340962657
 20
72.5176385924
 30
0.0
 10
65.0749010972
 20
72.4846215823
 30
0.0
 10
65.1290876578
 20
72.416004695
 30
0.0
 10
65.1838747696
 20
72.3236928707
 30
0.0
 10
65.2388968685
 20
72.208918848
 30
0.0
 10
65.2945464195
 20
72.0737073966
 30
0.0
 10
65.3724694312
 20
71.8611421028
 30
0.0
 10
65.4675848131
 20
71.5658740216
 30
0.0
 10
65.5801920016
 20
71.1951498952
 30
0.0
 10
65.6945168658
 20
70.8277471958
 30
0.0
 10
65.7945067659
 20
70.5399553002
 30
0.0
 10
65.8792878911
 20
70.3386929923
 30
0.0
 10
65.9231832994
 20
70.2506859523
 30
0.0
 10
65.9457727764
 20
70.21078883
 30
0.0
  0
SPLINE
  5
47C
100
AcDbEntity
  8
DEFAULT_2
100
AcDbSpline
 62
8
  6
HIDDEN
 70
0
 71
3
 72
13
 73
9
 74
0
 42
0.0000001
 43
0.0000001
 44
0.0000000001
 40
0.0
 40
0.0
 40
0.0
 40
0.0
 40
0.3443642155
 40
0.618987916
 40
0.7317661418
 40
0.8304679409
 40
0.9182910247
 40
1.0
 40
1.0
 40
1.0
 40
1.0
 10
59.658254545
 20
70.0124932893
 30
0.0
 10
59.6388044039
 20
69.9713761618
 30
0.0
 10
59.6012539163
 20
69.8986635383
 30
0.0
 10
59.5458558975
 20
69.818681321
 30
0.0
 10
59.5001300628
 20
69.7733285364
 30
0.0
 10
59.467828095
 20
69.7501554046
 30
0.0
 10
59.4350894481
 20
69.735807018
 30
0.0
 10
59.4125958268
 20
69.7324715118
 30
0.0
 10
59.4018032728
 20
69.7324687931
 30
0.0
  0
SPLINE
  5
47D
100
AcDbEntity
  8
DEFAULT_2
100
AcDbSpline
 62
8
  6
HIDDEN
 70
0
 71
3
 72
12
 73
8
 74
0
 42
0.0000001
 43
0.0000001
 44
0.0000000001
 40
0.0
 40
0.0
 40
0.0
 40
0.0
 40
0.079357418
 40
0.1744552898
 40
0.408199372
 40
0.6887927928
 40
1.0
 40
1.0
 40
1.0
 40
1.0
 10
51.3854631945
 20
68.9882988431
 30
0.0
 10
51.3674150045
 20
69.03211983
 30
0.0
 10
51.3325059126
 20
69.1304055841
 30
0.0
 10
51.2639286413
 20
69.3644004239
 30
0.0
 10
51.1824797423
 20
69.7193744017
 30
0.0
 10
51.0886831675
 20
70.2033797412
 30
0.0
 10
51.0277154089
 20
70.5515257659
 30
0.0
 10
50.9962739464
 20
70.7346994763
 30
0.0
  0
SPLINE
  5
47E
100
AcDbEntity
  8
DEFAULT_2
100
AcDbSpline
 62
8
  6
HIDDEN
 70
0
 71
3
 72
13
 73
9
 74
0
 42
0.0000001
 43
0.0000001
 44
0.0000000001
 40
0.0
 40
0.0
 40
0.0
 40
0.0
 40
0.0852499712
 40
0.1753111904
 40
0.2749130359
 40
0.3875455119
 40
0.6599706032
 40
1.0
 40
1.0
 40
1.0
 40
1.0
 10
59.937905167
 20
72.5446100087
 30
0.0
 10
59.9279951773
 20
72.5449581758
 30
0.0
 10
59.9074290022
 20
72.5429312425
 30
0.0
 10
59.8771496413
 20
72.5318247467
 30
0.0
 10
59.8472172388
 20
72.5129818713
 30
0.0
 10
59.8049743318
 20
72.475357165
 30
0.0
 10
59.75377907
 20
72.4075365479
 30
0.0
 10
59.7189564851
 20
72.3453008803
 30
0.0
 10
59.7009893336
 20
72.3100658833
 30
0.0
  0
LINE
  5
47F
100
AcDbEntity
  8
DEFAULT_2
100
AcDbLine
 62
8
  6
HIDDEN
 10
51.0126959568
 20
70.8621980065
 11
50.7105038106
 21
70.7597346827
  0
SPLINE
  5
480
100
AcDbEntity
  8
DEFAULT_2
100
AcDbSpline
 62
8
  6
HIDDEN
 70
0
 71
3
 72
13
 73
9
 74
0
 42
0.0000001
 43
0.0000001
 44
0.0000000001
 40
0.0
 40
0.0
 40
0.0
 40
0.0
 40
0.3445606686
 40
0.6192832964
 40
0.731924357
 40
0.8304894137
 40
0.9182564174
 40
1.0
 40
1.0
 40
1.0
 40
1.0
 10
52.1583330959
 20
70.0126263912
 30
0.0
 10
52.1388614758
 20
69.9714723655
 30
0.0
 10
52.1012690775
 20
69.8987104237
 30
0.0
 10
52.0458727792
 20
69.8186447547
 30
0.0
 10
52.0000568231
 20
69.7733759316
 30
0.0
 10
51.9677080568
 20
69.7503152884
 30
0.0
 10
51.9349294808
 20
69.7360807102
 30
0.0
 10
51.9124312469
 20
69.7327848161
 30
0.0
 10
51.9016301861
 20
69.7327808003
 30
0.0
  0
SPLINE
  5
481
100
AcDbEntity
  8
DEFAULT_2
100
AcDbSpline
 62
8
  6
HIDDEN
 70
0
 71
3
 72
13
 73
9
 74
0
 42
0.0000001
 43
0.0000001
 44
0.0000000001
 40
0.0
 40
0.0
 40
0.0
 40
0.0
 40
0.0851472131
 40
0.1751807823
 40
0.2750137349
 40
0.3881363903
 40
0.6608104904
 40
1.0
 40
1.0
 40
1.0
 40
1.0
 10
62.4373427748
 20
72.5447484466
 30
0.0
 10
62.4274467306
 20
72.5451002293
 30
0.0
 10
62.4068964045
 20
72.5430785207
 30
0.0
 10
62.3766306259
 20
72.5318923349
 30
0.0
 10
62.3467501162
 20
72.5128154191
 30
0.0
 10
62.3047062803
 20
72.4748266992
 30
0.0
 10
62.253567308
 20
72.4070491328
 30
0.0
 10
62.2186998444
 20
72.3449217254
 30
0.0
 10
62.2007603635
 20
72.3097905894
 30
0.0
  0
SPLINE
  5
482
100
AcDbEntity
  8
DEFAULT_2
100
AcDbSpline
 62
8
  6
HIDDEN
 70
0
 71
3
 72
12
 73
8
 74
0
 42
0.0000001
 43
0.0000001
 44
0.0000000001
 40
0.0
 40
0.0
 40
0.0
 40
0.0
 40
0.3961703047
 40
0.569004113
 40
0.7178649482
 40
0.9273345364
 40
1.0
 40
1.0
 40
1.0
 40
1.0
 10
51.0157849746
 20
70.8627528246
 30
0.0
 10
51.0157849746
 20
70.7134772671
 30
0.0
 10
51.0189975365
 20
70.4990910651
 30
0.0
 10
51.0194472973
 20
70.2286002678
 30
0.0
 10
51.0186628732
 20
70.0284606243
 30
0.0
 10
51.0188739908
 20
69.8660626038
 30
0.0
 10
51.0188906235
 20
69.7597550985
 30
0.0
 10
51.0188739925
 20
69.7323750354
 30
0.0
  0
SPLINE
  5
483
100
AcDbEntity
  8
DEFAULT_2
100
AcDbSpline
 62
8
  6
HIDDEN
 70
0
 71
3
 72
11
 73
7
 74
0
 42
0.0000001
 43
0.0000001
 44
0.0000000001
 40
0.0
 40
0.0
 40
0.0
 40
0.0
 40
0.0802778338
 40
0.3057399309
 40
0.6332153745
 40
1.0
 40
1.0
 40
1.0
 40
1.0
 10
51.0188739925
 20
72.5323750354
 30
0.0
 10
51.0188884543
 20
72.4876969092
 30
0.0
 10
51.0188739914
 20
72.3175394217
 30
0.0
 10
51.0186377366
 20
71.9651281634
 30
0.0
 10
51.0202774218
 20
71.4532591942
 30
0.0
 10
51.0155222251
 20
71.0668841937
 30
0.0
 10
51.0157849746
 20
70.8627528246
 30
0.0
  0
SPLINE
  5
484
100
AcDbEntity
  8
DEFAULT_2
100
AcDbSpline
 62
8
  6
HIDDEN
 70
0
 71
3
 72
13
 73
9
 74
0
 42
0.0000001
 43
0.0000001
 44
0.0000000001
 40
0.0
 40
0.0
 40
0.0
 40
0.0
 40
0.08519298
 40
0.1752467543
 40
0.2749038225
 40
0.3876332288
 40
0.6601704094
 40
1.0
 40
1.0
 40
1.0
 40
1.0
 10
52.4378634824
 20
72.5448788607
 30
0.0
 10
52.4279531877
 20
72.5452273122
 30
0.0
 10
52.4073788387
 20
72.5431802957
 30
0.0
 10
52.3771009236
 20
72.532003844
 30
0.0
 10
52.3471749986
 20
72.5130730651
 30
0.0
 10
52.3049517755
 20
72.4753227453
 30
0.0
 10
52.2537767277
 20
72.4074207828
 30
0.0
 10
52.2189292638
 20
72.3451538713
 30
0.0
 10
52.200957767
 20
72.3099160861
 30
0.0
  0
SPLINE
  5
485
100
AcDbEntity
  8
DEFAULT_2
100
AcDbSpline
 62
8
  6
HIDDEN
 70
0
 71
3
 72
11
 73
7
 74
0
 42
0.0000001
 43
0.0000001
 44
0.0000000001
 40
0.0
 40
0.0
 40
0.0
 40
0.0
 40
0.301792134
 40
0.5749877603
 40
0.8100544641
 40
1.0
 40
1.0
 40
1.0
 40
1.0
 10
50.7105038106
 20
70.7597346827
 30
0.0
 10
50.7297316194
 20
70.6755830903
 30
0.0
 10
50.7678958345
 20
70.5156007007
 30
0.0
 10
50.8278705682
 20
70.2917325745
 30
0.0
 10
50.8881354939
 20
70.1012975444
 30
0.0
 10
50.9339270953
 20
69.9883127516
 30
0.0
 10
50.9584948151
 20
69.939855533
 30
0.0
  0
SPLINE
  5
486
100
AcDbEntity
  8
DEFAULT_2
100
AcDbSpline
 62
8
  6
HIDDEN
 70
0
 71
3
 72
19
 73
15
 74
0
 42
0.0000001
 43
0.0000001
 44
0.0000000001
 40
0.0
 40
0.0
 40
0.0
 40
0.0
 40
0.0385476296
 40
0.085750011
 40
0.1409656036
 40
0.2032973991
 40
0.3441024675
 40
0.4972718265
 40
0.6508575157
 40
0.7927496962
 40
0.8559141874
 40
0.9121969071
 40
0.9604393654
 40
1.0
 40
1.0
 40
1.0
 40
1.0
 10
53.8856788029
 20
68.9874544384
 30
0.0
 10
53.8642987236
 20
69.0393999312
 30
0.0
 10
53.82345105
 20
69.157682247
 30
0.0
 10
53.7679822475
 20
69.3555158133
 30
0.0
 10
53.7122825414
 20
69.5890994122
 30
0.0
 10
53.6347307272
 20
69.9575321056
 30
0.0
 10
53.5411116317
 20
70.4683109753
 30
0.0
 10
53.4321703436
 20
71.1113464514
 30
0.0
 10
53.3232852777
 20
71.7559982619
 30
0.0
 10
53.2296893969
 20
72.270236786
 30
0.0
 10
53.1521883563
 20
72.6431237264
 30
0.0
 10
53.0966034991
 20
72.8811303914
 30
0.0
 10
53.0411107011
 20
73.0836787807
 30
0.0
 10
53.0002586217
 20
73.2051021687
 30
0.0
 10
52.9789739496
 20
73.2586785586
 30
0.0
  0
SPLINE
  5
487
100
AcDbEntity
  8
DEFAULT_2
100
AcDbSpline
 62
8
  6
HIDDEN
 70
0
 71
3
 72
13
 73
9
 74
0
 42
0.0000001
 43
0.0000001
 44
0.0000000001
 40
0.0
 40
0.0
 40
0.0
 40
0.0
 40
0.3431606639
 40
0.6183721437
 40
0.7317388917
 40
0.8307699323
 40
0.9185163395
 40
1.0
 40
1.0
 40
1.0
 40
1.0
 10
62.1588281991
 20
70.0135002012
 30
0.0
 10
62.1394334586
 20
69.9725368676
 30
0.0
 10
62.1017848711
 20
69.8999733015
 30
0.0
 10
62.0466400938
 20
69.8198822676
 30
0.0
 10
62.0011630346
 20
69.7740196843
 30
0.0
 10
61.9689969244
 20
69.7504686992
 30
0.0
 10
61.9363058683
 20
69.7359561031
 30
0.0
 10
61.9138405368
 20
69.7326758244
 30
0.0
 10
61.9030786338
 20
69.7326834148
 30
0.0
  0
SPLINE
  5
488
100
AcDbEntity
  8
DEFAULT_2
100
AcDbSpline
 62
8
  6
HIDDEN
 70
0
 71
3
 72
13
 73
9
 74
0
 42
0.0000001
 43
0.0000001
 44
0.0000000001
 40
0.0
 40
0.0
 40
0.0
 40
0.0
 40
0.0851264197
 40
0.175322029
 40
0.275436689
 40
0.3886851578
 40
0.6611364534
 40
1.0
 40
1.0
 40
1.0
 40
1.0
 10
54.9372910746
 20
72.5449607216
 30
0.0
 10
54.9273853214
 20
72.5453132312
 30
0.0
 10
54.9067852649
 20
72.5432492066
 30
0.0
 10
54.8765159459
 20
72.5318000064
 30
0.0
 10
54.8466582172
 20
72.5125034486
 30
0.0
 10
54.8045948193
 20
72.4744120336
 30
0.0
 10
54.7533682724
 20
72.4066399327
 30
0.0
 10
54.7184640695
 20
72.3445007231
 30
0.0
 10
54.7005234662
 20
72.3093584321
 30
0.0
  0
SPLINE
  5
489
100
AcDbEntity
  8
DEFAULT_2
100
AcDbSpline
 62
8
  6
HIDDEN
 70
0
 71
3
 72
13
 73
9
 74
0
 42
0.0000001
 43
0.0000001
 44
0.0000000001
 40
0.0
 40
0.0
 40
0.0
 40
0.0
 40
0.3434856208
 40
0.6188785592
 40
0.7321040915
 40
0.8308501384
 40
0.9184752898
 40
1.0
 40
1.0
 40
1.0
 40
1.0
 10
54.6589042048
 20
70.0137382086
 30
0.0
 10
54.6394408835
 20
69.9726421267
 30
0.0
 10
54.6016930763
 20
69.8998424291
 30
0.0
 10
54.5464288342
 20
69.8194913474
 30
0.0
 10
54.5008044824
 20
69.7735943572
 30
0.0
 10
54.4684827994
 20
69.7502071194
 30
0.0
 10
54.4356859949
 20
69.7358737139
 30
0.0
 10
54.4131876175
 20
69.7325948952
 30
0.0
 10
54.4023950348
 20
69.7325970732
 30
0.0
  0
LINE
  5
48A
100
AcDbEntity
  8
DEFAULT_2
100
AcDbLine
 62
8
  6
HIDDEN
 10
46.3288739925
 20
71.6708761172
 11
46.5288739925
 21
71.6437614427
  0
SPLINE
  5
48B
100
AcDbEntity
  8
DEFAULT_2
100
AcDbSpline
 62
8
  6
HIDDEN
 70
0
 71
3
 72
13
 73
9
 74
0
 42
0.0000001
 43
0.0000001
 44
0.0000000001
 40
0.0
 40
0.0
 40
0.0
 40
0.0
 40
0.3437661864
 40
0.6192196774
 40
0.7322477765
 40
0.8308423212
 40
0.9184524608
 40
1.0
 40
1.0
 40
1.0
 40
1.0
 10
57.1588628103
 20
70.0137316034
 30
0.0
 10
57.1393774822
 20
69.9725811672
 30
0.0
 10
57.1016146562
 20
69.8997021543
 30
0.0
 10
57.0463646134
 20
69.8192462219
 30
0.0
 10
57.000642869
 20
69.7734477832
 30
0.0
 10
56.9682735355
 20
69.7501815078
 30
0.0
 10
56.9354705062
 20
69.7358827564
 30
0.0
 10
56.9129621082
 20
69.7325981807
 30
0.0
 10
56.9021614264
 20
69.7325984563
 30
0.0
  0
LINE
  5
48C
100
AcDbEntity
  8
DEFAULT_2
100
AcDbLine
 62
8
  6
HIDDEN
 10
46.5288739925
 20
70.620988628
 11
46.3288739925
 21
70.5938739535
  0
SPLINE
  5
48D
100
AcDbEntity
  8
DEFAULT_2
100
AcDbSpline
 62
8
  6
HIDDEN
 70
0
 71
3
 72
13
 73
9
 74
0
 42
0.0000001
 43
0.0000001
 44
0.0000000001
 40
0.0
 40
0.0
 40
0.0
 40
0.0
 40
0.3435723401
 40
0.6184243108
 40
0.7316089706
 40
0.8305859526
 40
0.9184199597
 40
1.0
 40
1.0
 40
1.0
 40
1.0
 10
64.6584273725
 20
70.012662716
 30
0.0
 10
64.6390512001
 20
69.9716974335
 30
0.0
 10
64.6014898077
 20
69.8991984737
 30
0.0
 10
64.5462742535
 20
69.819321416
 30
0.0
 10
64.5007798669
 20
69.7737050903
 30
0.0
 10
64.4686078912
 20
69.7502938494
 30
0.0
 10
64.4359507364
 20
69.735794994
 30
0.0
 10
64.4134922939
 20
69.7325010774
 30
0.0
 10
64.4027320381
 20
69.7325058518
 30
0.0
  0
SPLINE
  5
48E
100
AcDbEntity
  8
DEFAULT_2
100
AcDbSpline
 62
8
  6
HIDDEN
 70
0
 71
3
 72
18
 73
14
 74
0
 42
0.0000001
 43
0.0000001
 44
0.0000000001
 40
0.0
 40
0.0
 40
0.0
 40
0.0
 40
0.0400825083
 40
0.0879430502
 40
0.1430616894
 40
0.2045240905
 40
0.342402559
 40
0.4922227972
 40
0.6434090986
 40
0.7850497861
 40
0.90676094
 40
0.9574257118
 40
1.0
 40
1.0
 40
1.0
 40
1.0
 10
66.3291853424
 20
69.4172903855
 30
0.0
 10
66.3091336852
 20
69.4638349626
 30
0.0
 10
66.2703019979
 20
69.5681684274
 30
0.0
 10
66.2170700324
 20
69.741092626
 30
0.0
 10
66.163780538
 20
69.9421098365
 30
0.0
 10
66.0896117245
 20
70.2552043067
 30
0.0
 10
65.9999887888
 20
70.6875536731
 30
0.0
 10
65.895599654
 20
71.2325598878
 30
0.0
 10
65.7913374698
 20
71.7824563876
 30
0.0
 10
65.6875767036
 20
72.2962124651
 30
0.0
 10
65.5975479941
 20
72.683119032
 30
0.0
 10
65.5222939711
 20
72.9443283518
 30
0.0
 10
65.4836880712
 20
73.0558471303
 30
0.0
 10
65.4636792364
 20
73.1058209565
 30
0.0
  0
SPLINE
  5
48F
100
AcDbEntity
  8
DEFAULT_2
100
AcDbSpline
 62
8
  6
HIDDEN
 70
0
 71
3
 72
19
 73
15
 74
0
 42
0.0000001
 43
0.0000001
 44
0.0000000001
 40
0.0
 40
0.0
 40
0.0
 40
0.0
 40
0.0384806832
 40
0.0857402157
 40
0.141129154
 40
0.2035043293
 40
0.3442890998
 40
0.4974929433
 40
0.6509929059
 40
0.7928215346
 40
0.8559834455
 40
0.9122486304
 40
0.9604576525
 40
1.0
 40
1.0
 40
1.0
 40
1.0
 10
58.8850575193
 20
68.9894249997
 30
0.0
 10
58.8636962526
 20
69.0412404065
 30
0.0
 10
58.8227739631
 20
69.1594128989
 30
0.0
 10
58.7673941228
 20
69.3574104346
 30
0.0
 10
58.7118753325
 20
69.5913135218
 30
0.0
 10
58.6343070429
 20
69.9598283094
 30
0.0
 10
58.5407099393
 20
70.4704162864
 30
0.0
 10
58.4319374827
 20
71.1130218408
 30
0.0
 10
58.3230657651
 20
71.7571532034
 30
0.0
 10
58.2295237035
 20
72.270892895
 30
0.0
 10
58.1521096478
 20
72.6434659578
 30
0.0
 10
58.0965711291
 20
72.8812699867
 30
0.0
 10
58.0410988204
 20
73.0836036384
 30
0.0
 10
58.0002788014
 20
73.2048856239
 30
0.0
 10
57.9790141151
 20
73.2584082304
 30
0.0
  0
SPLINE
  5
490
100
AcDbEntity
  8
DEFAULT_2
100
AcDbSpline
 62
8
  6
HIDDEN
 70
0
 71
3
 72
19
 73
15
 74
0
 42
0.0000001
 43
0.0000001
 44
0.0000000001
 40
0.0
 40
0.0
 40
0.0
 40
0.0
 40
0.0385212594
 40
0.0857231738
 40
0.1410113186
 40
0.2033752644
 40
0.3442375739
 40
0.4974830699
 40
0.6510202065
 40
0.7929461495
 40
0.8560167025
 40
0.9121080352
 40
0.960351351
 40
1.0
 40
1.0
 40
1.0
 40
1.0
 10
56.3855897488
 20
68.9878557481
 30
0.0
 10
56.3642012629
 20
69.0397855802
 30
0.0
 10
56.3232987721
 20
69.1580713594
 30
0.0
 10
56.2677742762
 20
69.3560640191
 30
0.0
 10
56.2121152985
 20
69.5899328682
 30
0.0
 10
56.134472867
 20
69.9587728246
 30
0.0
 10
56.0407890321
 20
70.4700415633
 30
0.0
 10
55.9318547133
 20
71.1135232933
 30
0.0
 10
55.8227751831
 20
71.7585532975
 30
0.0
 10
55.7292418859
 20
72.2728985213
 30
0.0
 10
55.6517036959
 20
72.6455937095
 30
0.0
 10
55.5959002556
 20
72.8832453308
 30
0.0
 10
55.540395551
 20
73.0857339365
 30
0.0
 10
55.4996219321
 20
73.2073869026
 30
0.0
 10
55.4783003876
 20
73.2611167146
 30
0.0
  0
SPLINE
  5
491
100
AcDbEntity
  8
DEFAULT_2
100
AcDbSpline
 62
8
  6
HIDDEN
 70
0
 71
3
 72
16
 73
12
 74
0
 42
0.0000001
 43
0.0000001
 44
0.0000000001
 40
0.0
 40
0.0
 40
0.0
 40
0.0
 40
0.0969722079
 40
0.1457450823
 40
0.196599906
 40
0.3083451244
 40
0.435735548
 40
0.5755187242
 40
0.7212443685
 40
0.8651519698
 40
1.0
 40
1.0
 40
1.0
 40
1.0
 10
69.4023883663
 20
70.7052834544
 30
0.0
 10
69.3606762064
 20
70.6960360911
 30
0.0
 10
69.2946125409
 20
70.6930888433
 30
0.0
 10
69.2102021354
 20
70.7142020951
 30
0.0
 10
69.1248998274
 20
70.7526756609
 30
0.0
 10
69.0220813099
 20
70.8307987647
 30
0.0
 10
68.9087484935
 20
70.9538551027
 30
0.0
 10
68.798981645
 20
71.0991358258
 30
0.0
 10
68.6924377625
 20
71.2554961204
 30
0.0
 10
68.5885907588
 20
71.4110192539
 30
0.0
 10
68.5179125389
 20
71.5115326482
 30
0.0
 10
68.4820187591
 20
71.5588770511
 30
0.0
  0
SPLINE
  5
492
100
AcDbEntity
  8
DEFAULT_2
100
AcDbSpline
 62
8
  6
HIDDEN
 70
0
 71
3
 72
15
 73
11
 74
0
 42
0.0000001
 43
0.0000001
 44
0.0000000001
 40
0.0
 40
0.0
 40
0.0
 40
0.0
 40
0.0951503558
 40
0.211871243
 40
0.3445191401
 40
0.4863994838
 40
0.6303749602
 40
0.7687400795
 40
0.8941086034
 40
1.0
 40
1.0
 40
1.0
 40
1.0
 10
68.7664466784
 20
69.9761923562
 30
0.0
 10
68.7301215151
 20
70.0506561719
 30
0.0
 10
68.6625036621
 20
70.2227763513
 30
0.0
 10
68.5713496003
 20
70.5085857655
 30
0.0
 10
68.4799212113
 20
70.8368396322
 30
0.0
 10
68.38829926
 20
71.1895376589
 30
0.0
 10
68.2969989273
 20
71.5474606894
 30
0.0
 10
68.2060702595
 20
71.8906600373
 30
0.0
 10
68.1156680083
 20
72.1995606968
 30
0.0
 10
68.049803339
 20
72.3901106724
 30
0.0
 10
68.0148947741
 20
72.4754512353
 30
0.0
  0
SPLINE
  5
493
100
AcDbEntity
  8
DEFAULT_2
100
AcDbSpline
 62
8
  6
HIDDEN
 70
0
 71
3
 72
17
 73
13
 74
0
 42
0.0000001
 43
0.0000001
 44
0.0000000001
 40
0.0
 40
0.0
 40
0.0
 40
0.0
 40
0.0720008331
 40
0.1172281129
 40
0.169442928
 40
0.293614307
 40
0.4388594946
 40
0.5948182493
 40
0.7486526876
 40
0.8871780614
 40
0.9472048146
 40
1.0
 40
1.0
 40
1.0
 40
1.0
 10
67.4260640109
 20
71.9976071776
 30
0.0
 10
67.4661272067
 20
71.9887253809
 30
0.0
 10
67.5255974379
 20
71.9514706672
 30
0.0
 10
67.5932884635
 20
71.8830493037
 30
0.0
 10
67.671332263
 20
71.7832280955
 30
0.0
 10
67.7661221817
 20
71.6259236315
 30
0.0
 10
67.8767627159
 20
71.4101716016
 30
0.0
 10
67.9894149515
 20
71.1765498055
 30
0.0
 10
68.1040946252
 20
70.948260012
 30
0.0
 10
68.2052067351
 20
70.774203578
 30
0.0
 10
68.2905632767
 20
70.6589754342
 30
0.0
 10
68.3345391339
 20
70.6117015905
 30
0.0
 10
68.3569413144
 20
70.5916131627
 30
0.0
  0
SPLINE
  5
494
100
AcDbEntity
  8
DEFAULT_2
100
AcDbSpline
 62
8
  6
HIDDEN
 70
0
 71
3
 72
19
 73
15
 74
0
 42
0.0000001
 43
0.0000001
 44
0.0000000001
 40
0.0
 40
0.0
 40
0.0
 40
0.0
 40
0.0385904906
 40
0.0859677692
 40
0.1412956194
 40
0.2036472726
 40
0.3444860846
 40
0.4975427334
 40
0.6510308573
 40
0.7927572185
 40
0.8558239377
 40
0.9120914119
 40
0.9604132267
 40
1.0
 40
1.0
 40
1.0
 40
1.0
 10
61.3848909715
 20
68.9889549098
 30
0.0
 10
61.3634538362
 20
69.0409311769
 30
0.0
 10
61.322661866
 20
69.1595492007
 30
0.0
 10
61.2673516161
 20
69.3578744886
 30
0.0
 10
61.2116900507
 20
69.5918722012
 30
0.0
 10
61.1341431581
 20
69.9604684866
 30
0.0
 10
61.0406900804
 20
70.4710752371
 30
0.0
 10
60.9317458768
 20
71.1137043044
 30
0.0
 10
60.823006945
 20
71.7576805702
 30
0.0
 10
60.7294835082
 20
72.2712821998
 30
0.0
 10
60.6519901137
 20
72.6436713835
 30
0.0
 10
60.5964174105
 20
72.8815737558
 30
0.0
 10
60.5410688343
 20
73.0842489696
 30
0.0
 10
60.500239
 20
73.205814998
 30
0.0
 10
60.4789546028
 20
73.259418939
 30
0.0
  0
SPLINE
  5
495
100
AcDbEntity
  8
DEFAULT_2
100
AcDbSpline
 62
8
  6
HIDDEN
 70
0
 71
3
 72
13
 73
9
 74
0
 42
0.0000001
 43
0.0000001
 44
0.0000000001
 40
0.0
 40
0.0
 40
0.0
 40
0.0
 40
0.0851852054
 40
0.1752482218
 40
0.2749554466
 40
0.3877990962
 40
0.6604119481
 40
1.0
 40
1.0
 40
1.0
 40
1.0
 10
57.4378013043
 20
72.5449053775
 30
0.0
 10
57.427884447
 20
72.5452546286
 30
0.0
 10
57.4072936843
 20
72.5432035454
 30
0.0
 10
57.3769932443
 20
72.5319974351
 30
0.0
 10
57.3470450367
 20
72.5130114861
 30
0.0
 10
57.3048265409
 20
72.4751505821
 30
0.0
 10
57.2536256972
 20
72.4072082919
 30
0.0
 10
57.2187198634
 20
72.3449319364
 30
0.0
 10
57.2007413524
 20
72.3096957647
 30
0.0
  0
SPLINE
  5
496
100
AcDbEntity
  8
DEFAULT_2
100
AcDbSpline
 62
8
  6
HIDDEN
 70
0
 71
3
 72
11
 73
7
 74
0
 42
0.0000001
 43
0.0000001
 44
0.0000000001
 40
0.0
 40
0.0
 40
0.0
 40
0.0
 40
0.2854737591
 40
0.5375965028
 40
0.7697883818
 40
1.0
 40
1.0
 40
1.0
 40
1.0
 10
69.9240538495
 20
71.5795099682
 30
0.0
 10
69.9007444718
 20
71.5990924154
 30
0.0
 10
69.8542339352
 20
71.6331586281
 30
0.0
 10
69.7787171152
 20
71.6673216835
 30
0.0
 10
69.7024081913
 20
71.6791470379
 30
0.0
 10
69.652820114
 20
71.6721374914
 30
0.0
 10
69.6291647743
 20
71.665569838
 30
0.0
  0
SPLINE
  5
497
100
AcDbEntity
  8
DEFAULT_2
100
AcDbSpline
 62
8
  6
HIDDEN
 70
0
 71
3
 72
11
 73
7
 74
0
 42
0.0000001
 43
0.0000001
 44
0.0000000001
 40
0.0
 40
0.0
 40
0.0
 40
0.0
 40
0.2500126786
 40
0.5000007917
 40
0.7499880028
 40
1.0
 40
1.0
 40
1.0
 40
1.0
 10
71.0848570566
 20
44.977674497
 30
0.0
 10
71.0307063244
 20
45.1652581361
 30
0.0
 10
70.9403146553
 20
45.5462122123
 30
0.0
 10
70.8891796157
 20
46.132376195
 30
0.0
 10
70.940315854
 20
46.7185394123
 30
0.0
 10
71.030706472
 20
47.0994924459
 30
0.0
 10
71.0848570566
 20
47.2870755737
 30
0.0
  0
SPLINE
  5
498
100
AcDbEntity
  8
DEFAULT_2
100
AcDbSpline
 62
8
  6
HIDDEN
 70
0
 71
3
 72
11
 73
7
 74
0
 42
0.0000001
 43
0.0000001
 44
0.0000000001
 40
0.0
 40
0.0
 40
0.0
 40
0.0
 40
0.2574278162
 40
0.5000007908
 40
0.7425729806
 40
1.0
 40
1.0
 40
1.0
 40
1.0
 10
71.0848570566
 20
47.2870755737
 30
0.0
 10
71.0325394682
 20
47.3776922951
 30
0.0
 10
70.943121568
 20
47.5619722399
 30
0.0
 10
70.8883234423
 20
47.8644265073
 30
0.0
 10
70.9431227174
 20
48.1668800145
 30
0.0
 10
71.0325396301
 20
48.3511596712
 30
0.0
 10
71.0848570566
 20
48.4417761121
 30
0.0
  0
SPLINE
  5
499
100
AcDbEntity
  8
DEFAULT_2
100
AcDbSpline
 62
8
  6
HIDDEN
 70
0
 71
3
 72
15
 73
11
 74
0
 42
0.0000001
 43
0.0000001
 44
0.0000000001
 40
0.0
 40
0.0
 40
0.0
 40
0.0
 40
0.1417099404
 40
0.2702338757
 40
0.3880850351
 40
0.5
 40
0.6119149649
 40
0.7297661243
 40
0.8582900596
 40
1.0
 40
1.0
 40
1.0
 40
1.0
 10
73.3288739925
 20
43.8229739586
 30
0.0
 10
73.2793197294
 20
43.8640621829
 30
0.0
 10
73.1902112252
 20
43.9494182946
 30
0.0
 10
73.0863342953
 20
44.0933012403
 30
0.0
 10
73.0222957599
 20
44.2446995597
 30
0.0
 10
73.0005315262
 20
44.4003242278
 30
0.0
 10
73.0222957599
 20
44.5559488958
 30
0.0
 10
73.0863342953
 20
44.7073472152
 30
0.0
 10
73.1902112252
 20
44.851230161
 30
0.0
 10
73.2793197294
 20
44.9365862726
 30
0.0
 10
73.3288739925
 20
44.977674497
 30
0.0
  0
SPLINE
  5
49A
100
AcDbEntity
  8
DEFAULT_2
100
AcDbSpline
 62
8
  6
HIDDEN
 70
0
 71
3
 72
15
 73
11
 74
0
 42
0.0000001
 43
0.0000001
 44
0.0000000001
 40
0.0
 40
0.0
 40
0.0
 40
0.0
 40
0.1417099404
 40
0.2702338757
 40
0.3880850351
 40
0.5
 40
0.6119149649
 40
0.7297661243
 40
0.8582900596
 40
1.0
 40
1.0
 40
1.0
 40
1.0
 10
73.3288739925
 20
47.2870755737
 30
0.0
 10
73.2793197294
 20
47.3281637981
 30
0.0
 10
73.1902112252
 20
47.4135199097
 30
0.0
 10
73.0863342953
 20
47.5574028555
 30
0.0
 10
73.0222957599
 20
47.7088011749
 30
0.0
 10
73.0005315262
 20
47.8644258429
 30
0.0
 10
73.0222957599
 20
48.020050511
 30
0.0
 10
73.0863342953
 20
48.1714488304
 30
0.0
 10
73.1902112252
 20
48.3153317761
 30
0.0
 10
73.2793197294
 20
48.4006878878
 30
0.0
 10
73.3288739925
 20
48.4417761121
 30
0.0
  0
SPLINE
  5
49B
100
AcDbEntity
  8
DEFAULT_2
100
AcDbSpline
 62
8
  6
HIDDEN
 70
0
 71
3
 72
11
 73
7
 74
0
 42
0.0000001
 43
0.0000001
 44
0.0000000001
 40
0.0
 40
0.0
 40
0.0
 40
0.0
 40
0.2574278162
 40
0.5000007908
 40
0.7425729806
 40
1.0
 40
1.0
 40
1.0
 40
1.0
 10
71.0848570566
 20
43.8229739586
 30
0.0
 10
71.0325394682
 20
43.91359068
 30
0.0
 10
70.943121568
 20
44.0978706247
 30
0.0
 10
70.8883234423
 20
44.4003248921
 30
0.0
 10
70.9431227174
 20
44.7027783993
 30
0.0
 10
71.0325396301
 20
44.8870580561
 30
0.0
 10
71.0848570566
 20
44.977674497
 30
0.0
  0
ELLIPSE
  5
49C
100
AcDbEntity
  8
DEFAULT_2
100
AcDbEllipse
 62
8
  6
HIDDEN
 10
70.6122770196
 20
87.1245670196
 30
0.0
 11
0.0406865246
 21
0.1576411457
 31
0.0
 40
0.3572681643
 41
0.012300511
 42
1.2389227987
  0
ELLIPSE
  5
49D
100
AcDbEntity
  8
DEFAULT_2
100
AcDbEllipse
 62
8
  6
HIDDEN
 10
70.6122770196
 20
71.1245670196
 30
0.0
 11
0.0406865246
 21
0.1576411457
 31
0.0
 40
0.3572681643
 41
0.012300511
 42
1.2389227987
  0
ENDSEC
  0
SECTION
  2
OBJECTS
  0
DICTIONARY
  5
49E
100
AcDbDictionary
  3
ACAD_GROUP
350
49F
  3
ACAD_MLINESTYLE
350
4A0
  0
DICTIONARY
  5
49F
102
{ACAD_REACTORS
330
49E
102
}
100
AcDbDictionary
  0
DICTIONARY
  5
4A0
102
{ACAD_REACTORS
330
49E
102
}
100
AcDbDictionary
  3
STANDARD
350
4A1
  0
MLINESTYLE
  5
4A1
102
{ACAD_REACTORS
330
4A0
102
}
100
AcDbMlineStyle
  2
STANDARD
 70
0
  3

 62
256
 51
90.0
 52
90.0
 71
2
 49
0.5
 62
256
  6
BYLAYER
 49
-0.5
 62
256
  6
BYLAYER
  0
ENDSEC
  0
EOF
