  0
SECTION
  2
HEADER
  9
$ACADVER
  1
AC1018
  9
$ACADMAINTVER
 70
     0
  9
$DWGCODEPAGE
  3
ANSI_1252
  9
$INSBASE
 10
0.0
 20
0.0
 30
0.0
  9
$EXTMIN
 10
60.3869208113978
 20
12.1746343749619
 30
0.0
  9
$EXTMAX
 10
118.141444189688
 20
246.3120381667
 30
0.0
  9
$LIMMIN
 10
0.0
 20
0.0
  9
$LIMMAX
 10
12.0
 20
9.0
  9
$ORTHOMODE
 70
     0
  9
$REGENMODE
 70
     1
  9
$FILLMODE
 70
     1
  9
$QTEXTMODE
 70
     0
  9
$MIRRTEXT
 70
     1
  9
$LTSCALE
 40
1.0
  9
$ATTMODE
 70
     1
  9
$TEXTSIZE
 40
0.2
  9
$TRACEWID
 40
0.05
  9
$TEXTSTYLE
  7
Standard
  9
$CLAYER
  8
0
  9
$CELTYPE
  6
ByLayer
  9
$CECOLOR
 62
   256
  9
$CELTSCALE
 40
1.0
  9
$DISPSILH
 70
     0
  9
$DIMSCALE
 40
1.0
  9
$DIMASZ
 40
0.18
  9
$DIMEXO
 40
0.0625
  9
$DIMDLI
 40
0.38
  9
$DIMRND
 40
0.0
  9
$DIMDLE
 40
0.0
  9
$DIMEXE
 40
0.18
  9
$DIMTP
 40
0.0
  9
$DIMTM
 40
0.0
  9
$DIMTXT
 40
0.18
  9
$DIMCEN
 40
0.09
  9
$DIMTSZ
 40
0.0
  9
$DIMTOL
 70
     0
  9
$DIMLIM
 70
     0
  9
$DIMTIH
 70
     1
  9
$DIMTOH
 70
     1
  9
$DIMSE1
 70
     0
  9
$DIMSE2
 70
     0
  9
$DIMTAD
 70
     0
  9
$DIMZIN
 70
     0
  9
$DIMBLK
  1

  9
$DIMASO
 70
     1
  9
$DIMSHO
 70
     1
  9
$DIMPOST
  1

  9
$DIMAPOST
  1

  9
$DIMALT
 70
     0
  9
$DIMALTD
 70
     2
  9
$DIMALTF
 40
25.4
  9
$DIMLFAC
 40
1.0
  9
$DIMTOFL
 70
     0
  9
$DIMTVP
 40
0.0
  9
$DIMTIX
 70
     0
  9
$DIMSOXD
 70
     0
  9
$DIMSAH
 70
     0
  9
$DIMBLK1
  1

  9
$DIMBLK2
  1

  9
$DIMSTYLE
  2
Standard
  9
$DIMCLRD
 70
     0
  9
$DIMCLRE
 70
     0
  9
$DIMCLRT
 70
     0
  9
$DIMTFAC
 40
1.0
  9
$DIMGAP
 40
0.09
  9
$DIMJUST
 70
     0
  9
$DIMSD1
 70
     0
  9
$DIMSD2
 70
     0
  9
$DIMTOLJ
 70
     1
  9
$DIMTZIN
 70
     0
  9
$DIMALTZ
 70
     0
  9
$DIMALTTZ
 70
     0
  9
$DIMUPT
 70
     0
  9
$DIMDEC
 70
     4
  9
$DIMTDEC
 70
     4
  9
$DIMALTU
 70
     2
  9
$DIMALTTD
 70
     2
  9
$DIMTXSTY
  7
Standard
  9
$DIMAUNIT
 70
     0
  9
$DIMADEC
 70
     0
  9
$DIMALTRND
 40
0.0
  9
$DIMAZIN
 70
     0
  9
$DIMDSEP
 70
    46
  9
$DIMATFIT
 70
     3
  9
$DIMFRAC
 70
     0
  9
$DIMLDRBLK
  1

  9
$DIMLUNIT
 70
     2
  9
$DIMLWD
 70
    -2
  9
$DIMLWE
 70
    -2
  9
$DIMTMOVE
 70
     0
  9
$LUNITS
 70
     2
  9
$LUPREC
 70
     4
  9
$SKETCHINC
 40
0.1
  9
$FILLETRAD
 40
0.5
  9
$AUNITS
 70
     0
  9
$AUPREC
 70
     0
  9
$MENU
  1
.
  9
$ELEVATION
 40
0.0
  9
$PELEVATION
 40
0.0
  9
$THICKNESS
 40
0.0
  9
$LIMCHECK
 70
     0
  9
$CHAMFERA
 40
0.5
  9
$CHAMFERB
 40
0.5
  9
$CHAMFERC
 40
1.0
  9
$CHAMFERD
 40
0.0
  9
$SKPOLY
 70
     0
  9
$TDCREATE
 40
2456603.437282593
  9
$TDUCREATE
 40
2456603.395615926
  9
$TDUPDATE
 40
2456603.437282604
  9
$TDUUPDATE
 40
2456603.395615938
  9
$TDINDWG
 40
0.0000000116
  9
$TDUSRTIMER
 40
0.0000000116
  9
$USRTIMER
 70
     1
  9
$ANGBASE
 50
0.0
  9
$ANGDIR
 70
     0
  9
$PDMODE
 70
     0
  9
$PDSIZE
 40
0.0
  9
$PLINEWID
 40
0.0
  9
$SPLFRAME
 70
     0
  9
$SPLINETYPE
 70
     6
  9
$SPLINESEGS
 70
     8
  9
$HANDSEED
  5
165
  9
$SURFTAB1
 70
     6
  9
$SURFTAB2
 70
     6
  9
$SURFTYPE
 70
     6
  9
$SURFU
 70
     6
  9
$SURFV
 70
     6
  9
$UCSBASE
  2

  9
$UCSNAME
  2

  9
$UCSORG
 10
0.0
 20
0.0
 30
0.0
  9
$UCSXDIR
 10
1.0
 20
0.0
 30
0.0
  9
$UCSYDIR
 10
0.0
 20
1.0
 30
0.0
  9
$UCSORTHOREF
  2

  9
$UCSORTHOVIEW
 70
     0
  9
$UCSORGTOP
 10
0.0
 20
0.0
 30
0.0
  9
$UCSORGBOTTOM
 10
0.0
 20
0.0
 30
0.0
  9
$UCSORGLEFT
 10
0.0
 20
0.0
 30
0.0
  9
$UCSORGRIGHT
 10
0.0
 20
0.0
 30
0.0
  9
$UCSORGFRONT
 10
0.0
 20
0.0
 30
0.0
  9
$UCSORGBACK
 10
0.0
 20
0.0
 30
0.0
  9
$PUCSBASE
  2

  9
$PUCSNAME
  2

  9
$PUCSORG
 10
0.0
 20
0.0
 30
0.0
  9
$PUCSXDIR
 10
1.0
 20
0.0
 30
0.0
  9
$PUCSYDIR
 10
0.0
 20
1.0
 30
0.0
  9
$PUCSORTHOREF
  2

  9
$PUCSORTHOVIEW
 70
     0
  9
$PUCSORGTOP
 10
0.0
 20
0.0
 30
0.0
  9
$PUCSORGBOTTOM
 10
0.0
 20
0.0
 30
0.0
  9
$PUCSORGLEFT
 10
0.0
 20
0.0
 30
0.0
  9
$PUCSORGRIGHT
 10
0.0
 20
0.0
 30
0.0
  9
$PUCSORGFRONT
 10
0.0
 20
0.0
 30
0.0
  9
$PUCSORGBACK
 10
0.0
 20
0.0
 30
0.0
  9
$USERI1
 70
     0
  9
$USERI2
 70
     0
  9
$USERI3
 70
     0
  9
$USERI4
 70
     0
  9
$USERI5
 70
     0
  9
$USERR1
 40
14.5
  9
$USERR2
 40
0.0
  9
$USERR3
 40
0.0
  9
$USERR4
 40
0.0
  9
$USERR5
 40
0.0
  9
$WORLDVIEW
 70
     1
  9
$SHADEDGE
 70
     3
  9
$SHADEDIF
 70
    70
  9
$TILEMODE
 70
     1
  9
$MAXACTVP
 70
    64
  9
$PINSBASE
 10
0.0
 20
0.0
 30
0.0
  9
$PLIMCHECK
 70
     0
  9
$PEXTMIN
 10
1.00000000000000E+20
 20
1.00000000000000E+20
 30
1.00000000000000E+20
  9
$PEXTMAX
 10
-1.00000000000000E+20
 20
-1.00000000000000E+20
 30
-1.00000000000000E+20
  9
$PLIMMIN
 10
0.0
 20
0.0
  9
$PLIMMAX
 10
12.0
 20
9.0
  9
$UNITMODE
 70
     0
  9
$VISRETAIN
 70
     1
  9
$PLINEGEN
 70
     0
  9
$PSLTSCALE
 70
     1
  9
$TREEDEPTH
 70
  3020
  9
$CMLSTYLE
  2
Standard
  9
$CMLJUST
 70
     0
  9
$CMLSCALE
 40
1.0
  9
$PROXYGRAPHICS
 70
     1
  9
$MEASUREMENT
 70
     1
  9
$CELWEIGHT
370
    -1
  9
$ENDCAPS
280
     0
  9
$JOINSTYLE
280
     0
  9
$LWDISPLAY
290
     0
  9
$INSUNITS
 70
     1
  9
$HYPERLINKBASE
  1

  9
$STYLESHEET
  1

  9
$XEDIT
290
     1
  9
$CEPSNTYPE
380
     0
  9
$PSTYLEMODE
290
     1
  9
$FINGERPRINTGUID
  2
{1A6FA9B5-FCBF-44C8-9D1F-0A12BD8001D0}
  9
$VERSIONGUID
  2
{FAEB1C32-E019-11D5-929B-00C0DF256EC4}
  9
$EXTNAMES
290
     1
  9
$PSVPSCALE
 40
0.0
  9
$OLESTARTUP
290
     0
  9
$SORTENTS
280
   127
  9
$INDEXCTL
280
     0
  9
$HIDETEXT
280
     1
  9
$XCLIPFRAME
290
     0
  9
$HALOGAP
280
     0
  9
$OBSCOLOR
 70
   257
  9
$OBSLTYPE
280
     0
  9
$INTERSECTIONDISPLAY
280
     0
  9
$INTERSECTIONCOLOR
 70
   257
  9
$DIMASSOC
280
     2
  9
$PROJECTNAME
  1

  0
ENDSEC
  0
SECTION
  2
CLASSES
  0
CLASS
  1
ACDBDICTIONARYWDFLT
  2
AcDbDictionaryWithDefault
  3
ObjectDBX Classes
 90
        0
 91
        3
280
     0
281
     0
  0
CLASS
  1

  2
exOdDbCircle
  3

 90
        0
 91
        3
280
     0
281
     1
  0
ENDSEC
  0
SECTION
  2
TABLES
  0
TABLE
  2
VPORT
  5
8
330
0
100
AcDbSymbolTable
 70
     1
  0
VPORT
  5
29
330
8
100
AcDbSymbolTableRecord
100
AcDbViewportTableRecord
  2
*Active
 70
     0
 10
0.0
 20
0.0
 11
1.0
 21
1.0
 12
89.2641825005429
 22
129.243336270831
 13
0.0
 23
0.0
 14
0.5
 24
0.5
 15
0.5
 25
0.5
 16
0.0
 26
0.0
 36
1.0
 17
0.0
 27
0.0
 37
0.0
 40
257.5511441709119
 41
1.60267857142857
 42
50.0
 43
0.0
 44
0.0
 50
0.0
 51
0.0
 71
     0
 72
   100
 73
     1
 74
     3
 75
     0
 76
     0
 77
     0
 78
     0
281
     0
 65
     1
110
0.0
120
0.0
130
0.0
111
1.0
121
0.0
131
0.0
112
0.0
122
1.0
132
0.0
 79
     0
146
0.0
  0
ENDTAB
  0
TABLE
  2
LTYPE
  5
5
330
0
100
AcDbSymbolTable
 70
     9
  0
LTYPE
  5
14
330
5
100
AcDbSymbolTableRecord
100
AcDbLinetypeTableRecord
  2
ByBlock
 70
     0
  3

 72
    65
 73
     0
 40
0.0
  0
LTYPE
  5
15
330
5
100
AcDbSymbolTableRecord
100
AcDbLinetypeTableRecord
  2
ByLayer
 70
     0
  3

 72
    65
 73
     0
 40
0.0
  0
LTYPE
  5
16
330
5
100
AcDbSymbolTableRecord
100
AcDbLinetypeTableRecord
  2
Continuous
 70
     0
  3
Solid line
 72
    65
 73
     0
 40
0.0
  0
LTYPE
  5
2A
330
5
100
AcDbSymbolTableRecord
100
AcDbLinetypeTableRecord
  2
DASHED
 70
     0
  3
Dashed
 72
    65
 73
     2
 40
15.0
 49
7.0
 74
     0
 49
-8.0
 74
     0
  0
LTYPE
  5
2B
330
5
100
AcDbSymbolTableRecord
100
AcDbLinetypeTableRecord
  2
DOTTED
 70
     0
  3
Dotted
 72
    65
 73
     2
 40
1.0
 49
0.0
 74
     0
 49
-1.0
 74
     0
  0
LTYPE
  5
2C
330
5
100
AcDbSymbolTableRecord
100
AcDbLinetypeTableRecord
  2
DOT_CENTER
 70
     0
  3
Dot_Center
 72
    65
 73
     4
 40
14.0
 49
12.0
 74
     0
 49
-1.0
 74
     0
 49
0.0
 74
     0
 49
-1.0
 74
     0
  0
LTYPE
  5
2D
330
5
100
AcDbSymbolTableRecord
100
AcDbLinetypeTableRecord
  2
LONG_DASHED
 70
     0
  3
Long_Dashed
 72
    65
 73
     2
 40
15.0
 49
10.0
 74
     0
 49
-5.0
 74
     0
  0
LTYPE
  5
2E
330
5
100
AcDbSymbolTableRecord
100
AcDbLinetypeTableRecord
  2
DASH_CENTER
 70
     0
  3
Dash_Center
 72
    65
 73
     4
 40
14.0
 49
11.0
 74
     0
 49
-1.0
 74
     0
 49
1.0
 74
     0
 49
-1.0
 74
     0
  0
LTYPE
  5
2F
330
5
100
AcDbSymbolTableRecord
100
AcDbLinetypeTableRecord
  2
PHANTOM
 70
     0
  3
Phantom
 72
    65
 73
     6
 40
13.0
 49
10.0
 74
     0
 49
-1.0
 74
     0
 49
0.0
 74
     0
 49
-1.0
 74
     0
 49
0.0
 74
     0
 49
-1.0
 74
     0
  0
LTYPE
  5
30
330
5
100
AcDbSymbolTableRecord
100
AcDbLinetypeTableRecord
  2
CENTER_DASH_DASH
 70
     0
  3
Center_Dash_Dash
 72
    65
 73
     6
 40
14.0
 49
9.0
 74
     0
 49
-1.0
 74
     0
 49
1.0
 74
     0
 49
-1.0
 74
     0
 49
1.0
 74
     0
 49
-1.0
 74
     0
  0
LTYPE
  5
31
330
5
100
AcDbSymbolTableRecord
100
AcDbLinetypeTableRecord
  2
CENTER
 70
     0
  3
CENTER
 72
    65
 73
     4
 40
14.0
 49
8.0
 74
     0
 49
-2.0
 74
     0
 49
2.0
 74
     0
 49
-2.0
 74
     0
  0
ENDTAB
  0
TABLE
  2
LAYER
  5
2
330
0
100
AcDbSymbolTable
 70
     3
  0
LAYER
  5
10
330
2
100
AcDbSymbolTableRecord
100
AcDbLayerTableRecord
  2
0
 70
     0
 62
     7
  6
Continuous
370
    -3
390
F
  0
LAYER
  5
32
330
2
100
AcDbSymbolTableRecord
100
AcDbLayerTableRecord
  2
1
 70
     0
 62
     7
  6
Continuous
370
    -3
390
F
  0
LAYER
  5
33
330
2
100
AcDbSymbolTableRecord
100
AcDbLayerTableRecord
  2
A_ACHSEN
 70
     0
 62
     7
  6
Continuous
370
    -3
390
F
  0
ENDTAB
  0
TABLE
  2
STYLE
  5
3
330
0
100
AcDbSymbolTable
 70
     2
  0
STYLE
  5
11
330
3
100
AcDbSymbolTableRecord
100
AcDbTextStyleTableRecord
  2
Standard
 70
     0
 40
0.0
 41
1.0
 50
0.0
 71
     0
 42
0.2
  3
txt
  4

  0
STYLE
  5
13E
330
3
100
AcDbSymbolTableRecord
100
AcDbTextStyleTableRecord
  2
CONVERTER_11
 70
     0
 40
0.0
 41
0.9
 50
0.0
 71
     0
 42
0.2
  3
txt.shx
  4

  0
ENDTAB
  0
TABLE
  2
VIEW
  5
6
330
0
100
AcDbSymbolTable
 70
     0
  0
ENDTAB
  0
TABLE
  2
UCS
  5
7
330
0
100
AcDbSymbolTable
 70
     0
  0
ENDTAB
  0
TABLE
  2
APPID
  5
9
330
0
100
AcDbSymbolTable
 70
     1
  0
APPID
  5
12
330
9
100
AcDbSymbolTableRecord
100
AcDbRegAppTableRecord
  2
ACAD
 70
     0
  0
ENDTAB
  0
TABLE
  2
DIMSTYLE
  5
A
330
0
100
AcDbSymbolTable
 70
     5
100
AcDbDimStyleTable
  0
DIMSTYLE
105
27
330
A
100
AcDbSymbolTableRecord
100
AcDbDimStyleTableRecord
  2
Standard
 70
     0
340
11
  0
DIMSTYLE
105
142
102
{ACAD_REACTORS
330
143
102
}
330
A
100
AcDbSymbolTableRecord
100
AcDbDimStyleTableRecord
  2
ME10_DIM_10
 70
     0
 41
3.5
 42
0.0
 44
2.0
 73
     0
 74
     0
 77
     1
 78
     8
140
3.5
147
2.0
172
     1
173
     1
176
     2
177
     2
178
     2
271
     3
340
13E
  0
DIMSTYLE
105
14D
102
{ACAD_REACTORS
330
14E
102
}
330
A
100
AcDbSymbolTableRecord
100
AcDbDimStyleTableRecord
  2
ME10_DIM_11
 70
     0
 41
3.5
 42
0.0
 44
2.0
 73
     0
 74
     0
 77
     1
 78
     8
140
3.5
147
2.0
172
     1
173
     1
176
     2
177
     2
178
     2
271
     3
340
13E
  0
DIMSTYLE
105
158
102
{ACAD_REACTORS
330
159
102
}
330
A
100
AcDbSymbolTableRecord
100
AcDbDimStyleTableRecord
  2
ME10_DIM_12
 70
     0
 41
3.5
 42
0.0
 44
2.0
 73
     0
 74
     0
 77
     1
 78
     8
140
3.5
147
2.0
172
     1
173
     1
176
     2
177
     2
178
     2
271
     3
340
13E
  0
DIMSTYLE
105
163
102
{ACAD_REACTORS
330
164
102
}
330
A
100
AcDbSymbolTableRecord
100
AcDbDimStyleTableRecord
  2
ME10_DIM_13
 70
     0
 41
3.5
 42
0.0
 44
2.0
 73
     0
 74
     0
 77
     1
 78
     8
140
3.5
147
2.0
172
     1
173
     1
176
     2
177
     2
178
     2
271
     3
340
13E
  0
ENDTAB
  0
TABLE
  2
BLOCK_RECORD
  5
1
330
0
100
AcDbSymbolTable
 70
     5
  0
BLOCK_RECORD
  5
1F
330
1
100
AcDbSymbolTableRecord
100
AcDbBlockTableRecord
  2
*Model_Space
340
22
  0
BLOCK_RECORD
  5
1B
330
1
100
AcDbSymbolTableRecord
100
AcDbBlockTableRecord
  2
*Paper_Space
340
1E
  0
BLOCK_RECORD
  5
23
330
1
100
AcDbSymbolTableRecord
100
AcDbBlockTableRecord
  2
*Paper_Space0
340
26
  0
BLOCK_RECORD
  5
138
330
1
100
AcDbSymbolTableRecord
100
AcDbBlockTableRecord
  2
*D1
340
0
  0
BLOCK_RECORD
  5
144
330
1
100
AcDbSymbolTableRecord
100
AcDbBlockTableRecord
  2
*D2
340
0
  0
BLOCK_RECORD
  5
14F
330
1
100
AcDbSymbolTableRecord
100
AcDbBlockTableRecord
  2
*D3
340
0
  0
BLOCK_RECORD
  5
15A
330
1
100
AcDbSymbolTableRecord
100
AcDbBlockTableRecord
  2
*D4
340
0
  0
ENDTAB
  0
ENDSEC
  0
SECTION
  2
BLOCKS
  0
BLOCK
  5
20
330
1F
100
AcDbEntity
  8
0
100
AcDbBlockBegin
  2
*Model_Space
 70
     0
 71
     0
 10
0.0
 20
0.0
 30
0.0
  3
*Model_Space
  1

  0
ENDBLK
  5
21
330
1F
100
AcDbEntity
  8
0
100
AcDbBlockEnd
  0
BLOCK
  5
1C
330
1B
100
AcDbEntity
 67
     1
  8
0
100
AcDbBlockBegin
  2
*Paper_Space
 70
     0
 71
     0
 10
0.0
 20
0.0
 30
0.0
  3
*Paper_Space
  1

  0
ENDBLK
  5
1D
330
1B
100
AcDbEntity
 67
     1
  8
0
100
AcDbBlockEnd
  0
BLOCK
  5
24
330
23
100
AcDbEntity
  8
0
100
AcDbBlockBegin
  2
*Paper_Space0
 70
     0
 71
     0
 10
0.0
 20
0.0
 30
0.0
  3
*Paper_Space0
  1

  0
ENDBLK
  5
25
330
23
100
AcDbEntity
  8
0
100
AcDbBlockEnd
  0
BLOCK
  5
140
330
138
100
AcDbEntity
  8
0
100
AcDbBlockBegin
  2
*D1
 70
     1
 71
     0
 10
0.0
 20
0.0
 30
0.0
  3
*D1
  1

  0
LINE
  5
139
330
138
100
AcDbEntity
  8
1
  6
Continuous
 62
     2
100
AcDbLine
 10
65.8869208113978
 20
188.3120381667
 30
0.0
 11
65.8869208113978
 21
94.3120381667
 31
0.0
  0
LINE
  5
13A
330
138
100
AcDbEntity
  8
1
  6
Continuous
 62
     2
100
AcDbLine
 10
75.8814876765
 20
188.3120381667
 30
0.0
 11
63.8869208113978
 21
188.3120381667
 31
0.0
  0
LINE
  5
13B
330
138
100
AcDbEntity
  8
1
  6
Continuous
 62
     2
100
AcDbLine
 10
75.8814876765
 20
94.3120381667
 30
0.0
 11
63.8869208113978
 21
94.3120381667
 31
0.0
  0
SOLID
  5
13C
330
138
100
AcDbEntity
  8
1
 62
     2
100
AcDbTrace
 10
66.34770455295369
 20
184.8120381667
 30
0.0
 11
65.42613706984191
 21
184.8120381667
 31
0.0
 12
65.8869208113978
 22
188.3120381667
 32
0.0
 13
65.8869208113978
 23
188.3120381667
 33
0.0
  0
SOLID
  5
13D
330
138
100
AcDbEntity
  8
1
 62
     2
100
AcDbTrace
 10
65.42613706984191
 20
97.8120381667
 30
0.0
 11
66.34770455295369
 21
97.8120381667
 31
0.0
 12
65.8869208113978
 22
94.3120381667
 32
0.0
 13
65.8869208113978
 23
94.3120381667
 33
0.0
  0
MTEXT
  5
13F
330
138
100
AcDbEntity
  8
1
 62
     2
100
AcDbMText
 10
63.8869208113978
 20
137.116758455407
 30
0.0
 40
3.5
 41
0.0
 71
     7
 72
     1
  1
94
  7
CONVERTER_11
 11
0.0
 21
1.0
 31
0.0
 73
     1
 44
0.60024009603842
  0
ENDBLK
  5
141
330
138
100
AcDbEntity
  8
0
100
AcDbBlockEnd
  0
BLOCK
  5
14B
330
144
100
AcDbEntity
  8
0
100
AcDbBlockBegin
  2
*D2
 70
     1
 71
     0
 10
0.0
 20
0.0
 30
0.0
  3
*D2
  1

  0
LINE
  5
145
330
144
100
AcDbEntity
  8
1
  6
Continuous
 62
     2
100
AcDbLine
 10
116.141444189688
 20
246.3120381667
 30
0.0
 11
116.141444189688
 21
36.31203816670001
 31
0.0
  0
LINE
  5
146
330
144
100
AcDbEntity
  8
1
  6
Continuous
 62
     2
100
AcDbLine
 10
92.8814876765
 20
246.3120381667
 30
0.0
 11
118.141444189688
 21
246.3120381667
 31
0.0
  0
LINE
  5
147
330
144
100
AcDbEntity
  8
1
  6
Continuous
 62
     2
100
AcDbLine
 10
92.8814876765
 20
36.31203816670001
 30
0.0
 11
118.141444189688
 21
36.31203816670001
 31
0.0
  0
SOLID
  5
148
330
144
100
AcDbEntity
  8
1
 62
     2
100
AcDbTrace
 10
116.6022279312439
 20
242.8120381667
 30
0.0
 11
115.6806604481321
 21
242.8120381667
 31
0.0
 12
116.141444189688
 22
246.3120381667
 32
0.0
 13
116.141444189688
 23
246.3120381667
 33
0.0
  0
SOLID
  5
149
330
144
100
AcDbEntity
  8
1
 62
     2
100
AcDbTrace
 10
115.6806604481321
 20
39.81203816670001
 30
0.0
 11
116.6022279312439
 21
39.81203816670001
 31
0.0
 12
116.141444189688
 22
36.31203816670001
 32
0.0
 13
116.141444189688
 23
36.31203816670001
 33
0.0
  0
MTEXT
  5
14A
330
144
100
AcDbEntity
  8
1
 62
     2
100
AcDbMText
 10
114.141444189688
 20
137.557430574331
 30
0.0
 40
3.5
 41
0.0
 71
     7
 72
     1
  1
210
  7
CONVERTER_11
 11
0.0
 21
1.0
 31
0.0
 73
     1
 44
0.60024009603842
  0
ENDBLK
  5
14C
330
144
100
AcDbEntity
  8
0
100
AcDbBlockEnd
  0
BLOCK
  5
156
330
14F
100
AcDbEntity
  8
0
100
AcDbBlockBegin
  2
*D3
 70
     1
 71
     0
 10
0.0
 20
0.0
 30
0.0
  3
*D3
  1

  0
LINE
  5
150
330
14F
100
AcDbEntity
  8
1
  6
Continuous
 62
     2
100
AcDbLine
 10
104.8814876765
 20
24.3844548991686
 30
0.0
 11
80.8814876765
 21
24.3844548991686
 31
0.0
  0
LINE
  5
151
330
14F
100
AcDbEntity
  8
1
  6
Continuous
 62
     2
100
AcDbLine
 10
104.8814876765
 20
48.3120381667
 30
0.0
 11
104.8814876765
 21
22.3844548991686
 31
0.0
  0
LINE
  5
152
330
14F
100
AcDbEntity
  8
1
  6
Continuous
 62
     2
100
AcDbLine
 10
80.8814876765
 20
48.3120381667
 30
0.0
 11
80.8814876765
 21
22.3844548991686
 31
0.0
  0
SOLID
  5
153
330
14F
100
AcDbEntity
  8
1
 62
     2
100
AcDbTrace
 10
101.3814876765
 20
23.92367115761271
 30
0.0
 11
101.3814876765
 21
24.84523864072449
 31
0.0
 12
104.8814876765
 22
24.3844548991686
 32
0.0
 13
104.8814876765
 23
24.3844548991686
 33
0.0
  0
SOLID
  5
154
330
14F
100
AcDbEntity
  8
1
 62
     2
100
AcDbTrace
 10
84.3814876765
 20
24.84523864072449
 30
0.0
 11
84.3814876765
 21
23.92367115761271
 31
0.0
 12
80.8814876765
 22
24.3844548991686
 32
0.0
 13
80.8814876765
 23
24.3844548991686
 33
0.0
  0
MTEXT
  5
155
330
14F
100
AcDbEntity
  8
1
 62
     2
100
AcDbMText
 10
90.2564876765
 20
26.3844548991686
 30
0.0
 40
3.5
 41
0.0
 71
     7
 72
     1
  1
24
  7
CONVERTER_11
 11
0.9999999999970621
 21
2.424068405545307E-6
 31
0.0
 73
     1
 44
0.60024009603842
  0
ENDBLK
  5
157
330
14F
100
AcDbEntity
  8
0
100
AcDbBlockEnd
  0
BLOCK
  5
161
330
15A
100
AcDbEntity
  8
0
100
AcDbBlockBegin
  2
*D4
 70
     1
 71
     0
 10
0.0
 20
0.0
 30
0.0
  3
*D4
  1

  0
LINE
  5
15B
330
15A
100
AcDbEntity
  8
1
  6
Continuous
 62
     2
100
AcDbLine
 10
104.8814876765
 20
14.1746343749619
 30
0.0
 11
75.8814876765
 21
14.1746343749619
 31
0.0
  0
LINE
  5
15C
330
15A
100
AcDbEntity
  8
1
  6
Continuous
 62
     2
100
AcDbLine
 10
104.8814876765
 20
48.31203816670001
 30
0.0
 11
104.8814876765
 21
12.1746343749619
 31
0.0
  0
LINE
  5
15D
330
15A
100
AcDbEntity
  8
1
  6
Continuous
 62
     2
100
AcDbLine
 10
75.8814876765
 20
94.3120381667
 30
0.0
 11
75.8814876765
 21
12.1746343749619
 31
0.0
  0
SOLID
  5
15E
330
15A
100
AcDbEntity
  8
1
 62
     2
100
AcDbTrace
 10
101.3814876765
 20
13.71385063340602
 30
0.0
 11
101.3814876765
 21
14.63541811651779
 31
0.0
 12
104.8814876765
 22
14.1746343749619
 32
0.0
 13
104.8814876765
 23
14.1746343749619
 33
0.0
  0
SOLID
  5
15F
330
15A
100
AcDbEntity
  8
1
 62
     2
100
AcDbTrace
 10
79.3814876765
 20
14.63541811651779
 30
0.0
 11
79.3814876765
 21
13.71385063340601
 31
0.0
 12
75.8814876765
 22
14.1746343749619
 32
0.0
 13
75.8814876765
 23
14.1746343749619
 33
0.0
  0
MTEXT
  5
160
330
15A
100
AcDbEntity
  8
1
 62
     2
100
AcDbMText
 10
88.8138938151399
 20
16.1746343749619
 30
0.0
 40
3.5
 41
0.0
 71
     7
 72
     1
  1
29
  7
CONVERTER_11
 11
0.9999999999970621
 21
2.424068405545307E-6
 31
0.0
 73
     1
 44
0.60024009603842
  0
ENDBLK
  5
162
330
15A
100
AcDbEntity
  8
0
100
AcDbBlockEnd
  0
ENDSEC
  0
SECTION
  2
ENTITIES
  0
POINT
  5
34
330
1F
100
AcDbEntity
  8
1
 62
     3
 60
     1
100
AcDbPoint
 10
92.8814876765
 20
138.3120381667
 30
0.0
  0
POINT
  5
35
330
1F
100
AcDbEntity
  8
1
 62
     3
 60
     1
100
AcDbPoint
 10
93.8814876765
 20
138.3120381667
 30
0.0
  0
POINT
  5
36
330
1F
100
AcDbEntity
  8
1
 62
     3
 60
     1
100
AcDbPoint
 10
86.8814876765
 20
144.3120381667
 30
0.0
  0
POINT
  5
37
330
1F
100
AcDbEntity
  8
1
 62
     3
 60
     1
100
AcDbPoint
 10
85.8814876765
 20
144.3120381667
 30
0.0
  0
LINE
  5
38
330
1F
100
AcDbEntity
  8
0
  6
Continuous
 62
     7
100
AcDbLine
 10
94.7137808473
 20
42.8196325844
 30
0.0
 11
95.0777891765
 21
42.905546041
 31
0.0
  0
LINE
  5
39
330
1F
100
AcDbEntity
  8
0
  6
Continuous
 62
     7
100
AcDbLine
 10
101.0491945057
 20
47.8044437489
 30
0.0
 11
100.6851861764
 21
47.7185302924
 31
0.0
  0
LINE
  5
3A
330
1F
100
AcDbEntity
  8
A_ACHSEN
  6
CENTER
 62
     2
100
AcDbLine
 10
97.8814876765
 20
45.3120381667
 30
0.0
 11
89.6314876765
 21
45.3120381667
 31
0.0
  0
LINE
  5
3B
330
1F
100
AcDbEntity
  8
A_ACHSEN
  6
CENTER
 62
     2
100
AcDbLine
 10
97.8814876765
 20
45.3120381667
 30
0.0
 11
106.1314876765
 21
45.3120381667
 31
0.0
  0
LINE
  5
3C
330
1F
100
AcDbEntity
  8
A_ACHSEN
  6
CENTER
 62
     2
100
AcDbLine
 10
87.8814876765
 20
50.3120381667
 30
0.0
 11
79.6314876765
 21
50.3120381667
 31
0.0
  0
LINE
  5
3D
330
1F
100
AcDbEntity
  8
A_ACHSEN
  6
CENTER
 62
     2
100
AcDbLine
 10
87.8814876765
 20
50.3120381667
 30
0.0
 11
96.1314876765
 21
50.3120381667
 31
0.0
  0
LINE
  5
3E
330
1F
100
AcDbEntity
  8
0
  6
Continuous
 62
     7
100
AcDbLine
 10
100.6851861764
 20
42.905546041
 30
0.0
 11
101.0491945057
 21
42.8196325844
 31
0.0
  0
LINE
  5
3F
330
1F
100
AcDbEntity
  8
0
  6
Continuous
 62
     7
100
AcDbLine
 10
84.7137808473
 20
47.8196325844
 30
0.0
 11
85.0777891765
 21
47.905546041
 31
0.0
  0
LINE
  5
40
330
1F
100
AcDbEntity
  8
0
  6
Continuous
 62
     7
100
AcDbLine
 10
91.0491945057
 20
52.8044437489
 30
0.0
 11
90.6851861764
 21
52.7185302924
 31
0.0
  0
LINE
  5
41
330
1F
100
AcDbEntity
  8
0
  6
Continuous
 62
     7
100
AcDbLine
 10
90.6851861764
 20
47.905546041
 30
0.0
 11
91.0491945057
 21
47.8196325844
 31
0.0
  0
LINE
  5
42
330
1F
100
AcDbEntity
  8
0
  6
Continuous
 62
     7
100
AcDbLine
 10
95.0777891765
 20
47.7185302924
 30
0.0
 11
94.7137808473
 21
47.8044437489
 31
0.0
  0
LINE
  5
43
330
1F
100
AcDbEntity
  8
0
  6
Continuous
 62
     7
100
AcDbLine
 10
85.0777891765
 20
52.7185302924
 30
0.0
 11
84.7137808473
 21
52.8044437489
 31
0.0
  0
LINE
  5
44
330
1F
100
AcDbEntity
  8
0
  6
Continuous
 62
     7
100
AcDbLine
 10
89.7851666184
 20
59.8874498384
 30
0.0
 11
91.1694236316
 21
60.1281579665
 31
0.0
  0
LINE
  5
45
330
1F
100
AcDbEntity
  8
A_ACHSEN
  6
CENTER
 62
     2
100
AcDbLine
 10
92.8814876765
 20
63.5620381667
 30
0.0
 11
83.7314876765
 21
63.5620381667
 31
0.0
  0
LINE
  5
46
330
1F
100
AcDbEntity
  8
A_ACHSEN
  6
CENTER
 62
     2
100
AcDbLine
 10
92.8814876765
 20
63.5620381667
 30
0.0
 11
102.0314876765
 21
63.5620381667
 31
0.0
  0
LINE
  5
47
330
1F
100
AcDbEntity
  8
0
  6
Continuous
 62
     7
100
AcDbLine
 10
94.5935517213
 20
60.1281579665
 30
0.0
 11
95.9778087345
 21
59.8874498384
 31
0.0
  0
LINE
  5
48
330
1F
100
AcDbEntity
  8
0
  6
Continuous
 62
     7
100
AcDbLine
 10
95.9778087345
 20
67.236626495
 30
0.0
 11
94.5935517213
 21
66.9959183669
 31
0.0
  0
LINE
  5
49
330
1F
100
AcDbEntity
  8
0
  6
Continuous
 62
     7
100
AcDbLine
 10
91.1694236316
 20
66.9959183669
 30
0.0
 11
89.7851666184
 21
67.236626495
 31
0.0
  0
LINE
  5
4A
330
1F
100
AcDbEntity
  8
0
  6
Continuous
 62
     7
100
AcDbLine
 10
84.3955551116
 20
231.087210104
 30
0.0
 11
84.1391477111
 21
230.814926372
 31
0.0
  0
LINE
  5
4B
330
1F
100
AcDbEntity
  8
0
  6
Continuous
 62
     7
100
AcDbLine
 10
89.2427556052
 20
220.2795460461
 30
0.0
 11
88.0937317346
 21
219.4709348748
 31
0.0
  0
LINE
  5
4C
330
1F
100
AcDbEntity
  8
A_ACHSEN
  6
CENTER
 62
     2
100
AcDbLine
 10
92.8814876765
 20
77.3120381667
 30
0.0
 11
85.8314876765
 21
77.3120381667
 31
0.0
  0
LINE
  5
4D
330
1F
100
AcDbEntity
  8
A_ACHSEN
  6
CENTER
 62
     2
100
AcDbLine
 10
92.8814876765
 20
77.3120381667
 30
0.0
 11
99.9314876765
 21
77.3120381667
 31
0.0
  0
LINE
  5
4E
330
1F
100
AcDbEntity
  8
0
  6
Continuous
 62
     7
100
AcDbLine
 10
88.0937317346
 20
63.1531414585
 30
0.0
 11
89.2427556052
 21
62.3445302873
 31
0.0
  0
LINE
  5
4F
330
1F
100
AcDbEntity
  8
0
  6
Continuous
 62
     7
100
AcDbLine
 10
84.1391477111
 20
51.8091499614
 30
0.0
 11
84.3955551116
 21
51.5368662293
 31
0.0
  0
LINE
  5
50
330
1F
100
AcDbEntity
  8
0
  6
Continuous
 62
     7
100
AcDbLine
 10
91.3674202413
 20
233.5368662293
 30
0.0
 11
91.6238276418
 21
233.8091499614
 31
0.0
  0
LINE
  5
51
330
1F
100
AcDbEntity
  8
0
  6
Continuous
 62
     7
100
AcDbLine
 10
94.3955551116
 20
236.087210104
 30
0.0
 11
94.1391477111
 21
235.814926372
 31
0.0
  0
LINE
  5
52
330
1F
100
AcDbEntity
  8
0
  6
Continuous
 62
     7
100
AcDbLine
 10
101.3674202413
 20
238.5368662293
 30
0.0
 11
101.6238276418
 21
238.8091499614
 31
0.0
  0
LINE
  5
53
330
1F
100
AcDbEntity
  8
0
  6
Continuous
 62
     7
100
AcDbLine
 10
96.5202197478
 20
217.8445302873
 30
0.0
 11
97.6692436183
 21
218.6531414585
 31
0.0
  0
LINE
  5
54
330
1F
100
AcDbEntity
  8
0
  6
Continuous
 62
     7
100
AcDbLine
 10
97.6692436183
 20
63.9709348748
 30
0.0
 11
96.5202197478
 21
64.7795460461
 31
0.0
  0
LINE
  5
55
330
1F
100
AcDbEntity
  8
0
  6
Continuous
 62
     7
100
AcDbLine
 10
91.6238276418
 20
48.814926372
 30
0.0
 11
91.3674202413
 21
49.087210104
 31
0.0
  0
LINE
  5
56
330
1F
100
AcDbEntity
  8
0
  6
Continuous
 62
     7
100
AcDbLine
 10
94.1391477111
 20
46.8091499614
 30
0.0
 11
94.3955551116
 21
46.5368662293
 31
0.0
  0
LINE
  5
57
330
1F
100
AcDbEntity
  8
0
  6
Continuous
 62
     7
100
AcDbLine
 10
101.6238276418
 20
43.814926372
 30
0.0
 11
101.3674202413
 21
44.087210104
 31
0.0
  0
LINE
  5
58
330
1F
100
AcDbEntity
  8
A_ACHSEN
  6
CENTER
 62
     2
100
AcDbLine
 10
92.8814876765
 20
89.3120381667
 30
0.0
 11
83.8814876765
 21
89.3120381667
 31
0.0
  0
LINE
  5
59
330
1F
100
AcDbEntity
  8
A_ACHSEN
  6
CENTER
 62
     2
100
AcDbLine
 10
92.8814876765
 20
89.3120381667
 30
0.0
 11
101.8814876765
 21
89.3120381667
 31
0.0
  0
LINE
  5
5A
330
1F
100
AcDbEntity
  8
0
  6
Continuous
 62
     7
100
AcDbLine
 10
92.4725909683
 20
223.8497941085
 30
0.0
 11
91.663979797
 21
222.700770238
 31
0.0
  0
LINE
  5
5B
330
1F
100
AcDbEntity
  8
0
  6
Continuous
 62
     7
100
AcDbLine
 10
75.8814876765
 20
94.3120381667
 30
0.0
 11
80.8814876765
 21
94.3120381667
 31
0.0
  0
LINE
  5
5C
330
1F
100
AcDbEntity
  8
0
  6
Continuous
 62
     7
100
AcDbLine
 10
91.663979797
 20
59.9233060954
 30
0.0
 11
92.4725909683
 21
58.7742822248
 31
0.0
  0
LINE
  5
5D
330
1F
100
AcDbEntity
  8
0
  6
Continuous
 62
     7
100
AcDbLine
 10
93.2903843846
 20
214.2742822248
 30
0.0
 11
94.0989955559
 21
215.4233060954
 31
0.0
  0
LINE
  5
5E
330
1F
100
AcDbEntity
  8
0
  6
Continuous
 62
     7
100
AcDbLine
 10
94.0989955559
 20
67.200770238
 30
0.0
 11
93.2903843846
 21
68.3497941085
 31
0.0
  0
LINE
  5
5F
330
1F
100
AcDbEntity
  8
0
  6
Continuous
 62
     7
100
AcDbLine
 10
87.3068545403
 20
236.3015555436
 30
0.0
 11
87.1992536116
 21
235.943358355
 31
0.0
  0
LINE
  5
60
330
1F
100
AcDbEntity
  8
A_ACHSEN
  6
CENTER
 62
     2
100
AcDbLine
 10
89.8814876765
 20
113.3120381667
 30
0.0
 11
81.6314876765
 21
113.3120381667
 31
0.0
  0
LINE
  5
61
330
1F
100
AcDbEntity
  8
A_ACHSEN
  6
CENTER
 62
     2
100
AcDbLine
 10
89.8814876765
 20
113.3120381667
 30
0.0
 11
98.1314876765
 21
113.3120381667
 31
0.0
  0
LINE
  5
62
330
1F
100
AcDbEntity
  8
0
  6
Continuous
 62
     7
100
AcDbLine
 10
87.1992536116
 20
46.6807179783
 30
0.0
 11
87.3068545403
 21
46.3225207897
 31
0.0
  0
LINE
  5
63
330
1F
100
AcDbEntity
  8
0
  6
Continuous
 62
     7
100
AcDbLine
 10
88.4561208126
 20
228.3225207897
 30
0.0
 11
88.5637217413
 21
228.6807179783
 31
0.0
  0
LINE
  5
64
330
1F
100
AcDbEntity
  8
0
  6
Continuous
 62
     7
100
AcDbLine
 10
97.3068545403
 20
241.3015555436
 30
0.0
 11
97.1992536116
 21
240.943358355
 31
0.0
  0
LINE
  5
65
330
1F
100
AcDbEntity
  8
0
  6
Continuous
 62
     7
100
AcDbLine
 10
88.5637217413
 20
53.943358355
 30
0.0
 11
88.4561208126
 21
54.3015555436
 31
0.0
  0
LINE
  5
66
330
1F
100
AcDbEntity
  8
0
  6
Continuous
 62
     7
100
AcDbLine
 10
97.1992536116
 20
41.6807179783
 30
0.0
 11
97.3068545403
 21
41.3225207897
 31
0.0
  0
LINE
  5
67
330
1F
100
AcDbEntity
  8
0
  6
Continuous
 62
     7
100
AcDbLine
 10
75.8814876765
 20
94.3120381667
 30
0.0
 11
75.8814876765
 21
188.3120381667
 31
0.0
  0
LINE
  5
68
330
1F
100
AcDbEntity
  8
0
  6
Continuous
 62
     7
100
AcDbLine
 10
89.4476074762
 20
217.3499741218
 30
0.0
 11
89.2068993482
 21
215.9657171086
 31
0.0
  0
LINE
  5
69
330
1F
100
AcDbEntity
  8
0
  6
Continuous
 62
     7
100
AcDbLine
 10
98.4561208126
 20
233.3225207897
 30
0.0
 11
98.5637217413
 21
233.6807179783
 31
0.0
  0
LINE
  5
6A
330
1F
100
AcDbEntity
  8
0
  6
Continuous
 62
     7
100
AcDbLine
 10
98.5637217413
 20
48.943358355
 30
0.0
 11
98.4561208126
 21
49.3015555436
 31
0.0
  0
LINE
  5
6B
330
1F
100
AcDbEntity
  8
0
  6
Continuous
 62
     7
100
AcDbLine
 10
89.2068993482
 20
66.6583592247
 30
0.0
 11
89.4476074762
 21
65.2741022115
 31
0.0
  0
LINE
  5
6C
330
1F
100
AcDbEntity
  8
0
  6
Continuous
 62
     7
100
AcDbLine
 10
80.8814876765
 20
234.3120381667
 30
0.0
 11
80.8814876765
 21
188.3120381667
 31
0.0
  0
LINE
  5
6D
330
1F
100
AcDbEntity
  8
0
  6
Continuous
 62
     7
100
AcDbLine
 10
80.8814876765
 20
94.3120381667
 30
0.0
 11
80.8814876765
 21
48.3120381667
 31
0.0
  0
LINE
  5
6E
330
1F
100
AcDbEntity
  8
0
  6
Continuous
 62
     7
100
AcDbLine
 10
96.3153678767
 20
220.7741022115
 30
0.0
 11
96.5560760047
 21
222.1583592247
 31
0.0
  0
LINE
  5
6F
330
1F
100
AcDbEntity
  8
0
  6
Continuous
 62
     7
100
AcDbLine
 10
96.5560760047
 20
60.4657171086
 30
0.0
 11
96.3153678767
 21
61.8499741218
 31
0.0
  0
LINE
  5
70
330
1F
100
AcDbEntity
  8
A_ACHSEN
  6
Continuous
 62
     7
100
AcDbLine
 10
86.8814876765
 20
138.3120381667
 30
0.0
 11
86.8814876765
 21
144.3120381667
 31
0.0
  0
LINE
  5
71
330
1F
100
AcDbEntity
  8
A_ACHSEN
  6
CENTER
 62
     2
100
AcDbLine
 10
87.8814876765
 20
232.3120381667
 30
0.0
 11
87.8814876765
 21
224.0620381667
 31
0.0
  0
LINE
  5
72
330
1F
100
AcDbEntity
  8
A_ACHSEN
  6
CENTER
 62
     2
100
AcDbLine
 10
87.8814876765
 20
50.3120381667
 30
0.0
 11
87.8814876765
 21
42.0620381667
 31
0.0
  0
LINE
  5
73
330
1F
100
AcDbEntity
  8
A_ACHSEN
  6
CENTER
 62
     2
100
AcDbLine
 10
87.8814876765
 20
50.3120381667
 30
0.0
 11
87.8814876765
 21
58.5620381667
 31
0.0
  0
LINE
  5
74
330
1F
100
AcDbEntity
  8
A_ACHSEN
  6
CENTER
 62
     2
100
AcDbLine
 10
87.8814876765
 20
232.3120381667
 30
0.0
 11
87.8814876765
 21
240.5620381667
 31
0.0
  0
LINE
  5
75
330
1F
100
AcDbEntity
  8
A_ACHSEN
  6
CENTER
 62
     2
100
AcDbLine
 10
89.8814876765
 20
169.3120381667
 30
0.0
 11
89.8814876765
 21
161.0620381667
 31
0.0
  0
LINE
  5
76
330
1F
100
AcDbEntity
  8
A_ACHSEN
  6
CENTER
 62
     2
100
AcDbLine
 10
89.8814876765
 20
144.3120381667
 30
0.0
 11
89.8814876765
 21
141.3119381667
 31
0.0
  0
LINE
  5
77
330
1F
100
AcDbEntity
  8
A_ACHSEN
  6
CENTER
 62
     2
100
AcDbLine
 10
89.8814876765
 20
141.3120381667
 30
0.0
 11
89.8814876765
 21
138.3119381667
 31
0.0
  0
LINE
  5
78
330
1F
100
AcDbEntity
  8
A_ACHSEN
  6
CENTER
 62
     2
100
AcDbLine
 10
89.8814876765
 20
138.3120381667
 30
0.0
 11
89.8814876765
 21
134.3119381667
 31
0.0
  0
LINE
  5
79
330
1F
100
AcDbEntity
  8
A_ACHSEN
  6
CENTER
 62
     2
100
AcDbLine
 10
89.8814876765
 20
113.3120381667
 30
0.0
 11
89.8814876765
 21
105.0620381667
 31
0.0
  0
LINE
  5
7A
330
1F
100
AcDbEntity
  8
A_ACHSEN
  6
CENTER
 62
     2
100
AcDbLine
 10
89.8814876765
 20
113.3120381667
 30
0.0
 11
89.8814876765
 21
121.5620381667
 31
0.0
  0
LINE
  5
7B
330
1F
100
AcDbEntity
  8
A_ACHSEN
  6
CENTER
 62
     2
100
AcDbLine
 10
89.8814876765
 20
144.3120381667
 30
0.0
 11
89.8814876765
 21
148.3121381667
 31
0.0
  0
LINE
  5
7C
330
1F
100
AcDbEntity
  8
A_ACHSEN
  6
CENTER
 62
     2
100
AcDbLine
 10
89.8814876765
 20
169.3120381667
 30
0.0
 11
89.8814876765
 21
177.5620381667
 31
0.0
  0
LINE
  5
7D
330
1F
100
AcDbEntity
  8
A_ACHSEN
  6
CENTER
 62
     2
100
AcDbLine
 10
89.8814876765
 20
138.3120381667
 30
0.0
 11
86.8813876765
 21
138.3120381667
 31
0.0
  0
LINE
  5
7E
330
1F
100
AcDbEntity
  8
A_ACHSEN
  6
CENTER
 62
     2
100
AcDbLine
 10
89.8814876765
 20
138.3120381667
 30
0.0
 11
92.8814876765
 21
138.3120381667
 31
0.0
  0
LINE
  5
7F
330
1F
100
AcDbEntity
  8
A_ACHSEN
  6
CENTER
 62
     2
100
AcDbLine
 10
89.8814876765
 20
141.3120381667
 30
0.0
 11
73.0660755526
 21
141.3120381667
 31
0.0
  0
LINE
  5
80
330
1F
100
AcDbEntity
  8
A_ACHSEN
  6
CENTER
 62
     2
100
AcDbLine
 10
89.8814876765
 20
141.3120381667
 30
0.0
 11
106.0397148969
 21
141.3120381667
 31
0.0
  0
LINE
  5
81
330
1F
100
AcDbEntity
  8
A_ACHSEN
  6
CENTER
 62
     2
100
AcDbLine
 10
92.8814876765
 20
219.0620381667
 30
0.0
 11
92.8814876765
 21
209.9120381667
 31
0.0
  0
LINE
  5
82
330
1F
100
AcDbEntity
  8
A_ACHSEN
  6
CENTER
 62
     2
100
AcDbLine
 10
92.8814876765
 20
205.3120381667
 30
0.0
 11
92.8814876765
 21
198.2620381667
 31
0.0
  0
LINE
  5
83
330
1F
100
AcDbEntity
  8
A_ACHSEN
  6
CENTER
 62
     2
100
AcDbLine
 10
92.8814876765
 20
193.3120381667
 30
0.0
 11
92.8814876765
 21
184.3120381667
 31
0.0
  0
LINE
  5
84
330
1F
100
AcDbEntity
  8
A_ACHSEN
  6
Continuous
 62
     7
100
AcDbLine
 10
92.8814876765
 20
144.3120381667
 30
0.0
 11
92.8814876765
 21
138.3120381667
 31
0.0
  0
LINE
  5
85
330
1F
100
AcDbEntity
  8
A_ACHSEN
  6
CENTER
 62
     2
100
AcDbLine
 10
92.8814876765
 20
89.3120381667
 30
0.0
 11
92.8814876765
 21
80.3120381667
 31
0.0
  0
LINE
  5
86
330
1F
100
AcDbEntity
  8
A_ACHSEN
  6
CENTER
 62
     2
100
AcDbLine
 10
92.8814876765
 20
77.3120381667
 30
0.0
 11
92.8814876765
 21
70.2620381667
 31
0.0
  0
LINE
  5
87
330
1F
100
AcDbEntity
  8
A_ACHSEN
  6
CENTER
 62
     2
100
AcDbLine
 10
92.8814876765
 20
63.5620381667
 30
0.0
 11
92.8814876765
 21
54.4120381667
 31
0.0
  0
LINE
  5
88
330
1F
100
AcDbEntity
  8
A_ACHSEN
  6
CENTER
 62
     2
100
AcDbLine
 10
92.8814876765
 20
63.5620381667
 30
0.0
 11
92.8814876765
 21
70.2620381667
 31
0.0
  0
LINE
  5
89
330
1F
100
AcDbEntity
  8
A_ACHSEN
  6
CENTER
 62
     2
100
AcDbLine
 10
92.8814876765
 20
77.3120381667
 30
0.0
 11
92.8814876765
 21
80.3120381667
 31
0.0
  0
LINE
  5
8A
330
1F
100
AcDbEntity
  8
A_ACHSEN
  6
CENTER
 62
     2
100
AcDbLine
 10
92.8814876765
 20
89.3120381667
 30
0.0
 11
92.8814876765
 21
98.3120381667
 31
0.0
  0
LINE
  5
8B
330
1F
100
AcDbEntity
  8
A_ACHSEN
  6
CENTER
 62
     2
100
AcDbLine
 10
92.8814876765
 20
193.3120381667
 30
0.0
 11
92.8814876765
 21
198.2620381667
 31
0.0
  0
LINE
  5
8C
330
1F
100
AcDbEntity
  8
A_ACHSEN
  6
CENTER
 62
     2
100
AcDbLine
 10
92.8814876765
 20
205.3120381667
 30
0.0
 11
92.8814876765
 21
209.9120381667
 31
0.0
  0
LINE
  5
8D
330
1F
100
AcDbEntity
  8
A_ACHSEN
  6
CENTER
 62
     2
100
AcDbLine
 10
92.8814876765
 20
219.0620381667
 30
0.0
 11
92.8814876765
 21
228.2120381667
 31
0.0
  0
LINE
  5
8E
330
1F
100
AcDbEntity
  8
A_ACHSEN
  6
CENTER
 62
     2
100
AcDbLine
 10
97.8814876765
 20
237.3120381667
 30
0.0
 11
97.8814876765
 21
229.0620381667
 31
0.0
  0
LINE
  5
8F
330
1F
100
AcDbEntity
  8
A_ACHSEN
  6
CENTER
 62
     2
100
AcDbLine
 10
97.8814876765
 20
45.3120381667
 30
0.0
 11
97.8814876765
 21
37.0620381667
 31
0.0
  0
LINE
  5
90
330
1F
100
AcDbEntity
  8
A_ACHSEN
  6
CENTER
 62
     2
100
AcDbLine
 10
97.8814876765
 20
45.3120381667
 30
0.0
 11
97.8814876765
 21
53.5620381667
 31
0.0
  0
LINE
  5
91
330
1F
100
AcDbEntity
  8
A_ACHSEN
  6
CENTER
 62
     2
100
AcDbLine
 10
97.8814876765
 20
237.3120381667
 30
0.0
 11
97.8814876765
 21
245.5620381667
 31
0.0
  0
LINE
  5
92
330
1F
100
AcDbEntity
  8
A_ACHSEN
  6
CENTER
 62
     2
100
AcDbLine
 10
89.8814876765
 20
144.3120381667
 30
0.0
 11
86.8814876765
 21
144.3120381667
 31
0.0
  0
LINE
  5
93
330
1F
100
AcDbEntity
  8
A_ACHSEN
  6
CENTER
 62
     2
100
AcDbLine
 10
89.8814876765
 20
144.3120381667
 30
0.0
 11
92.8814876765
 21
144.3120381667
 31
0.0
  0
LINE
  5
94
330
1F
100
AcDbEntity
  8
0
  6
Continuous
 62
     7
100
AcDbLine
 10
104.8814876765
 20
48.3120381667
 30
0.0
 11
104.8814876765
 21
234.3120381667
 31
0.0
  0
LINE
  5
95
330
1F
100
AcDbEntity
  8
0
  6
Continuous
 62
     7
100
AcDbLine
 10
89.4476074762
 20
61.8499741218
 30
0.0
 11
89.2068993482
 21
60.4657171086
 31
0.0
  0
LINE
  5
96
330
1F
100
AcDbEntity
  8
0
  6
Continuous
 62
     7
100
AcDbLine
 10
89.2068993482
 20
222.1583592247
 30
0.0
 11
89.4476074762
 21
220.7741022115
 31
0.0
  0
LINE
  5
97
330
1F
100
AcDbEntity
  8
0
  6
Continuous
 62
     7
100
AcDbLine
 10
96.3153678767
 20
65.2741022115
 30
0.0
 11
96.5560760047
 21
66.6583592247
 31
0.0
  0
LINE
  5
98
330
1F
100
AcDbEntity
  8
0
  6
Continuous
 62
     7
100
AcDbLine
 10
87.3068545403
 20
54.3015555436
 30
0.0
 11
87.1992536116
 21
53.943358355
 31
0.0
  0
LINE
  5
99
330
1F
100
AcDbEntity
  8
0
  6
Continuous
 62
     7
100
AcDbLine
 10
87.1992536116
 20
228.6807179783
 30
0.0
 11
87.3068545403
 21
228.3225207897
 31
0.0
  0
LINE
  5
9A
330
1F
100
AcDbEntity
  8
0
  6
Continuous
 62
     7
100
AcDbLine
 10
96.5560760047
 20
215.9657171086
 30
0.0
 11
96.3153678767
 21
217.3499741218
 31
0.0
  0
LINE
  5
9B
330
1F
100
AcDbEntity
  8
0
  6
Continuous
 62
     7
100
AcDbLine
 10
88.4561208126
 20
46.3225207897
 30
0.0
 11
88.5637217413
 21
46.6807179783
 31
0.0
  0
LINE
  5
9C
330
1F
100
AcDbEntity
  8
A_ACHSEN
  6
CENTER
 62
     2
100
AcDbLine
 10
89.8814876765
 20
169.3120381667
 30
0.0
 11
81.6314876765
 21
169.3120381667
 31
0.0
  0
LINE
  5
9D
330
1F
100
AcDbEntity
  8
A_ACHSEN
  6
CENTER
 62
     2
100
AcDbLine
 10
89.8814876765
 20
169.3120381667
 30
0.0
 11
98.1314876765
 21
169.3120381667
 31
0.0
  0
LINE
  5
9E
330
1F
100
AcDbEntity
  8
0
  6
Continuous
 62
     7
100
AcDbLine
 10
88.5637217413
 20
235.943358355
 30
0.0
 11
88.4561208126
 21
236.3015555436
 31
0.0
  0
LINE
  5
9F
330
1F
100
AcDbEntity
  8
0
  6
Continuous
 62
     7
100
AcDbLine
 10
97.3068545403
 20
49.3015555436
 30
0.0
 11
97.1992536116
 21
48.943358355
 31
0.0
  0
LINE
  5
A0
330
1F
100
AcDbEntity
  8
0
  6
Continuous
 62
     7
100
AcDbLine
 10
97.1992536116
 20
233.6807179783
 30
0.0
 11
97.3068545403
 21
233.3225207897
 31
0.0
  0
LINE
  5
A1
330
1F
100
AcDbEntity
  8
0
  6
Continuous
 62
     7
100
AcDbLine
 10
98.4561208126
 20
41.3225207897
 30
0.0
 11
98.5637217413
 21
41.6807179783
 31
0.0
  0
LINE
  5
A2
330
1F
100
AcDbEntity
  8
0
  6
Continuous
 62
     7
100
AcDbLine
 10
98.5637217413
 20
240.943358355
 30
0.0
 11
98.4561208126
 21
241.3015555436
 31
0.0
  0
LINE
  5
A3
330
1F
100
AcDbEntity
  8
0
  6
Continuous
 62
     7
100
AcDbLine
 10
92.4725909683
 20
68.3497941085
 30
0.0
 11
91.663979797
 21
67.200770238
 31
0.0
  0
LINE
  5
A4
330
1F
100
AcDbEntity
  8
0
  6
Continuous
 62
     7
100
AcDbLine
 10
93.2903843846
 20
58.7742822248
 30
0.0
 11
94.0989955559
 21
59.9233060954
 31
0.0
  0
LINE
  5
A5
330
1F
100
AcDbEntity
  8
0
  6
Continuous
 62
     7
100
AcDbLine
 10
80.8814876765
 20
188.3120381667
 30
0.0
 11
75.8814876765
 21
188.3120381667
 31
0.0
  0
LINE
  5
A6
330
1F
100
AcDbEntity
  8
0
  6
Continuous
 62
     7
100
AcDbLine
 10
91.663979797
 20
215.4233060954
 30
0.0
 11
92.4725909683
 21
214.2742822248
 31
0.0
  0
LINE
  5
A7
330
1F
100
AcDbEntity
  8
0
  6
Continuous
 62
     7
100
AcDbLine
 10
94.0989955559
 20
222.700770238
 30
0.0
 11
93.2903843846
 21
223.8497941085
 31
0.0
  0
LINE
  5
A8
330
1F
100
AcDbEntity
  8
A_ACHSEN
  6
CENTER
 62
     2
100
AcDbLine
 10
92.8814876765
 20
193.3120381667
 30
0.0
 11
83.8814876765
 21
193.3120381667
 31
0.0
  0
LINE
  5
A9
330
1F
100
AcDbEntity
  8
A_ACHSEN
  6
CENTER
 62
     2
100
AcDbLine
 10
92.8814876765
 20
193.3120381667
 30
0.0
 11
101.8814876765
 21
193.3120381667
 31
0.0
  0
LINE
  5
AA
330
1F
100
AcDbEntity
  8
0
  6
Continuous
 62
     7
100
AcDbLine
 10
84.3955551116
 20
49.087210104
 30
0.0
 11
84.1391477111
 21
48.814926372
 31
0.0
  0
LINE
  5
AB
330
1F
100
AcDbEntity
  8
0
  6
Continuous
 62
     7
100
AcDbLine
 10
91.3674202413
 20
51.5368662293
 30
0.0
 11
91.6238276418
 21
51.8091499614
 31
0.0
  0
LINE
  5
AC
330
1F
100
AcDbEntity
  8
0
  6
Continuous
 62
     7
100
AcDbLine
 10
89.2427556052
 20
64.7795460461
 30
0.0
 11
88.0937317346
 21
63.9709348748
 31
0.0
  0
LINE
  5
AD
330
1F
100
AcDbEntity
  8
A_ACHSEN
  6
CENTER
 62
     2
100
AcDbLine
 10
92.8814876765
 20
205.3120381667
 30
0.0
 11
85.8314876765
 21
205.3120381667
 31
0.0
  0
LINE
  5
AE
330
1F
100
AcDbEntity
  8
A_ACHSEN
  6
CENTER
 62
     2
100
AcDbLine
 10
92.8814876765
 20
205.3120381667
 30
0.0
 11
99.9314876765
 21
205.3120381667
 31
0.0
  0
LINE
  5
AF
330
1F
100
AcDbEntity
  8
0
  6
Continuous
 62
     7
100
AcDbLine
 10
88.0937317346
 20
218.6531414585
 30
0.0
 11
89.2427556052
 21
217.8445302873
 31
0.0
  0
LINE
  5
B0
330
1F
100
AcDbEntity
  8
0
  6
Continuous
 62
     7
100
AcDbLine
 10
84.1391477111
 20
233.8091499614
 30
0.0
 11
84.3955551116
 21
233.5368662293
 31
0.0
  0
LINE
  5
B1
330
1F
100
AcDbEntity
  8
0
  6
Continuous
 62
     7
100
AcDbLine
 10
91.6238276418
 20
230.814926372
 30
0.0
 11
91.3674202413
 21
231.087210104
 31
0.0
  0
LINE
  5
B2
330
1F
100
AcDbEntity
  8
0
  6
Continuous
 62
     7
100
AcDbLine
 10
94.3955551116
 20
44.087210104
 30
0.0
 11
94.1391477111
 21
43.814926372
 31
0.0
  0
LINE
  5
B3
330
1F
100
AcDbEntity
  8
0
  6
Continuous
 62
     7
100
AcDbLine
 10
96.5202197478
 20
62.3445302873
 30
0.0
 11
97.6692436183
 21
63.1531414585
 31
0.0
  0
LINE
  5
B4
330
1F
100
AcDbEntity
  8
0
  6
Continuous
 62
     7
100
AcDbLine
 10
97.6692436183
 20
219.4709348748
 30
0.0
 11
96.5202197478
 21
220.2795460461
 31
0.0
  0
LINE
  5
B5
330
1F
100
AcDbEntity
  8
0
  6
Continuous
 62
     7
100
AcDbLine
 10
94.1391477111
 20
238.8091499614
 30
0.0
 11
94.3955551116
 21
238.5368662293
 31
0.0
  0
LINE
  5
B6
330
1F
100
AcDbEntity
  8
0
  6
Continuous
 62
     7
100
AcDbLine
 10
101.3674202413
 20
46.5368662293
 30
0.0
 11
101.6238276418
 21
46.8091499614
 31
0.0
  0
LINE
  5
B7
330
1F
100
AcDbEntity
  8
0
  6
Continuous
 62
     7
100
AcDbLine
 10
89.7851666184
 20
215.3874498384
 30
0.0
 11
91.1694236316
 21
215.6281579665
 31
0.0
  0
LINE
  5
B8
330
1F
100
AcDbEntity
  8
A_ACHSEN
  6
CENTER
 62
     2
100
AcDbLine
 10
92.8814876765
 20
219.0620381667
 30
0.0
 11
83.7314876765
 21
219.0620381667
 31
0.0
  0
LINE
  5
B9
330
1F
100
AcDbEntity
  8
A_ACHSEN
  6
CENTER
 62
     2
100
AcDbLine
 10
92.8814876765
 20
219.0620381667
 30
0.0
 11
102.0314876765
 21
219.0620381667
 31
0.0
  0
LINE
  5
BA
330
1F
100
AcDbEntity
  8
0
  6
Continuous
 62
     7
100
AcDbLine
 10
94.5935517213
 20
215.6281579665
 30
0.0
 11
95.9778087345
 21
215.3874498384
 31
0.0
  0
LINE
  5
BB
330
1F
100
AcDbEntity
  8
0
  6
Continuous
 62
     7
100
AcDbLine
 10
101.6238276418
 20
235.814926372
 30
0.0
 11
101.3674202413
 21
236.087210104
 31
0.0
  0
LINE
  5
BC
330
1F
100
AcDbEntity
  8
0
  6
Continuous
 62
     7
100
AcDbLine
 10
95.9778087345
 20
222.736626495
 30
0.0
 11
94.5935517213
 21
222.4959183669
 31
0.0
  0
LINE
  5
BD
330
1F
100
AcDbEntity
  8
0
  6
Continuous
 62
     7
100
AcDbLine
 10
91.1694236316
 20
222.4959183669
 30
0.0
 11
89.7851666184
 21
222.736626495
 31
0.0
  0
LINE
  5
BE
330
1F
100
AcDbEntity
  8
0
  6
Continuous
 62
     7
100
AcDbLine
 10
84.7137808473
 20
229.8196325844
 30
0.0
 11
85.0777891765
 21
229.905546041
 31
0.0
  0
LINE
  5
BF
330
1F
100
AcDbEntity
  8
0
  6
Continuous
 62
     7
100
AcDbLine
 10
94.7137808473
 20
234.8196325844
 30
0.0
 11
95.0777891765
 21
234.905546041
 31
0.0
  0
LINE
  5
C0
330
1F
100
AcDbEntity
  8
0
  6
Continuous
 62
     7
100
AcDbLine
 10
91.0491945057
 20
234.8044437489
 30
0.0
 11
90.6851861764
 21
234.7185302924
 31
0.0
  0
LINE
  5
C1
330
1F
100
AcDbEntity
  8
A_ACHSEN
  6
CENTER
 62
     2
100
AcDbLine
 10
87.8814876765
 20
232.3120381667
 30
0.0
 11
79.6314876765
 21
232.3120381667
 31
0.0
  0
LINE
  5
C2
330
1F
100
AcDbEntity
  8
A_ACHSEN
  6
CENTER
 62
     2
100
AcDbLine
 10
87.8814876765
 20
232.3120381667
 30
0.0
 11
96.1314876765
 21
232.3120381667
 31
0.0
  0
LINE
  5
C3
330
1F
100
AcDbEntity
  8
0
  6
Continuous
 62
     7
100
AcDbLine
 10
90.6851861764
 20
229.905546041
 30
0.0
 11
91.0491945057
 21
229.8196325844
 31
0.0
  0
LINE
  5
C4
330
1F
100
AcDbEntity
  8
0
  6
Continuous
 62
     7
100
AcDbLine
 10
85.0777891765
 20
234.7185302924
 30
0.0
 11
84.7137808473
 21
234.8044437489
 31
0.0
  0
LINE
  5
C5
330
1F
100
AcDbEntity
  8
0
  6
Continuous
 62
     7
100
AcDbLine
 10
101.0491945057
 20
239.8044437489
 30
0.0
 11
100.6851861764
 21
239.7185302924
 31
0.0
  0
LINE
  5
C6
330
1F
100
AcDbEntity
  8
A_ACHSEN
  6
CENTER
 62
     2
100
AcDbLine
 10
97.8814876765
 20
237.3120381667
 30
0.0
 11
89.6314876765
 21
237.3120381667
 31
0.0
  0
LINE
  5
C7
330
1F
100
AcDbEntity
  8
A_ACHSEN
  6
CENTER
 62
     2
100
AcDbLine
 10
97.8814876765
 20
237.3120381667
 30
0.0
 11
106.1314876765
 21
237.3120381667
 31
0.0
  0
LINE
  5
C8
330
1F
100
AcDbEntity
  8
0
  6
Continuous
 62
     7
100
AcDbLine
 10
100.6851861764
 20
234.905546041
 30
0.0
 11
101.0491945057
 21
234.8196325844
 31
0.0
  0
LINE
  5
C9
330
1F
100
AcDbEntity
  8
0
  6
Continuous
 62
     7
100
AcDbLine
 10
95.0777891765
 20
239.7185302924
 30
0.0
 11
94.7137808473
 21
239.8044437489
 31
0.0
  0
LINE
  5
CA
330
1F
100
AcDbEntity
  8
1
  6
DOT_CENTER
 62
     2
100
AcDbLine
 10
92.8814876765
 20
138.3120381667
 30
0.0
 11
93.8814876765
 21
138.3120381667
 31
0.0
  0
LINE
  5
CB
330
1F
100
AcDbEntity
  8
A_ACHSEN
  6
CENTER
 62
     2
100
AcDbLine
 10
92.8814876765
 20
138.3120381667
 30
0.0
 11
92.8815876765
 21
138.3120381667
 31
0.0
  0
LINE
  5
CC
330
1F
100
AcDbEntity
  8
1
  6
DOT_CENTER
 62
     2
100
AcDbLine
 10
86.8813876765
 20
138.3120381667
 30
0.0
 11
86.1832444832685
 21
138.3120381667
 31
0.0
  0
LINE
  5
CD
330
1F
100
AcDbEntity
  8
1
  6
DOT_CENTER
 62
     2
100
AcDbLine
 10
86.8814876765
 20
144.3120381667
 30
0.0
 11
85.8814876765
 21
144.3120381667
 31
0.0
  0
LINE
  5
CE
330
1F
100
AcDbEntity
  8
A_ACHSEN
  6
CENTER
 62
     2
100
AcDbLine
 10
86.8814876765
 20
144.3120381667
 30
0.0
 11
86.8813876765
 21
144.3120381667
 31
0.0
  0
LINE
  5
CF
330
1F
100
AcDbEntity
  8
1
  6
DOT_CENTER
 62
     2
100
AcDbLine
 10
92.8814876765
 20
144.3120381667
 30
0.0
 11
93.4803837920499
 21
144.3120381667
 31
0.0
  0
LINE
  5
D0
330
1F
100
AcDbEntity
  8
A_ACHSEN
  6
CENTER
 62
     2
100
AcDbLine
 10
92.8814876765
 20
144.3120381667
 30
0.0
 11
92.8815876765
 21
144.3120381667
 31
0.0
  0
LINE
  5
D1
330
1F
100
AcDbEntity
  8
1
  6
DASHED
 62
     2
100
AcDbLine
 10
78.8814876765
 20
188.3120381667
 30
0.0
 11
78.8814876765
 21
186.3120381667
 31
0.0
  0
LINE
  5
D2
330
1F
100
AcDbEntity
  8
1
  6
DASHED
 62
     2
100
AcDbLine
 10
75.8814876765
 20
96.31203816669989
 30
0.0
 11
78.8814876765
 21
96.3120381667
 31
0.0
  0
LINE
  5
D3
330
1F
100
AcDbEntity
  8
1
  6
DASHED
 62
     2
100
AcDbLine
 10
78.8814876765
 20
96.3120381667
 30
0.0
 11
78.8814876765
 21
94.3120381667
 31
0.0
  0
LINE
  5
D4
330
1F
100
AcDbEntity
  8
1
  6
DASHED
 62
     2
100
AcDbLine
 10
75.8814876765
 20
186.3120381667
 30
0.0
 11
78.8814876765
 21
186.3120381667
 31
0.0
  0
LINE
  5
D5
330
1F
100
AcDbEntity
  8
1
  6
DASHED
 62
     2
100
AcDbLine
 10
78.8814876765
 20
186.3120381667
 30
0.0
 11
78.8814876765
 21
96.3120381667
 31
0.0
  0
ARC
  5
D6
330
1F
100
AcDbEntity
  8
A_ACHSEN
  6
Continuous
 62
     7
100
AcDbCircle
 10
89.8814876765
 20
138.3120381667
 30
0.0
 40
3.0
100
AcDbArc
 50
180.0
 51
0.0
  0
ARC
  5
D7
330
1F
100
AcDbEntity
  8
0
  6
Continuous
 62
     7
100
AcDbCircle
 10
90.2747876765
 20
46.1667209689
 30
0.0
 40
1.786600000023434
100
AcDbArc
 50
76.72004683126715
 51
163.2799531713077
  0
ARC
  5
D8
330
1F
100
AcDbEntity
  8
0
  6
Continuous
 62
     7
100
AcDbCircle
 10
85.4881876765
 20
46.1667209689
 30
0.0
 40
1.786599999980904
100
AcDbArc
 50
16.72004682961499
 51
103.2799531718541
  0
ARC
  5
D9
330
1F
100
AcDbEntity
  8
0
  6
Continuous
 62
     7
100
AcDbCircle
 10
90.2747876764049
 20
54.45735536445491
 30
0.0
 40
1.786600000001395
100
AcDbArc
 50
-163.279953168744
 51
-76.72004682796673
  0
ARC
  5
DA
330
1F
100
AcDbEntity
  8
0
  6
Continuous
 62
     7
100
AcDbCircle
 10
92.6680876765
 20
50.3120381667
 30
0.0
 40
1.786599999978232
100
AcDbArc
 50
136.7200468315945
 51
-136.7200468292599
  0
ARC
  5
DB
330
1F
100
AcDbEntity
  8
0
  6
Continuous
 62
     7
100
AcDbCircle
 10
83.0948876765
 20
50.3120381667
 30
0.0
 40
1.786599999973993
100
AcDbArc
 50
-43.27995317293846
 51
43.27995317060386
  0
ARC
  5
DC
330
1F
100
AcDbEntity
  8
0
  6
Continuous
 62
     7
100
AcDbCircle
 10
85.4881876765
 20
54.4573553644
 30
0.0
 40
1.786599999949085
100
AcDbArc
 50
-103.2799531725908
 51
-16.72004682961499
  0
ARC
  5
DD
330
1F
100
AcDbEntity
  8
0
  6
Continuous
 62
     7
100
AcDbCircle
 10
91.1870200402
 20
48.4035881667
 30
0.0
 40
0.6000000000496177
100
AcDbArc
 50
-103.2799531676653
 51
43.27995317324993
  0
ARC
  5
DE
330
1F
100
AcDbEntity
  8
0
  6
Continuous
 62
     7
100
AcDbCircle
 10
87.88148767645
 20
46.4951381667
 30
0.0
 40
0.6000000000032997
100
AcDbArc
 50
-163.2799531646249
 51
-16.72004683537545
  0
ARC
  5
DF
330
1F
100
AcDbEntity
  8
0
  6
Continuous
 62
     7
100
AcDbCircle
 10
84.5759553128
 20
48.4035881667
 30
0.0
 40
0.600000000035287
100
AcDbArc
 50
136.7200468332969
 51
-76.72004683233475
  0
ARC
  5
E0
330
1F
100
AcDbEntity
  8
0
  6
Continuous
 62
     7
100
AcDbCircle
 10
87.88148767645
 20
54.1289381667
 30
0.0
 40
0.5999999999745159
100
AcDbArc
 50
16.72004682622971
 51
163.2799531737707
  0
ARC
  5
E1
330
1F
100
AcDbEntity
  8
0
  6
Continuous
 62
     7
100
AcDbCircle
 10
91.1870200402
 20
52.2204881667
 30
0.0
 40
0.5999999999624795
100
AcDbArc
 50
-43.27995317324944
 51
103.2799531698589
  0
ARC
  5
E2
330
1F
100
AcDbEntity
  8
0
  6
Continuous
 62
     7
100
AcDbCircle
 10
84.5759553128
 20
52.2204881667
 30
0.0
 40
0.5999999999522901
100
AcDbArc
 50
76.72004683014113
 51
-136.7200468332973
  0
ARC
  5
E3
330
1F
100
AcDbEntity
  8
0
  6
Continuous
 62
     7
100
AcDbCircle
 10
91.2550830889
 20
59.6355501535
 30
0.0
 40
0.4999999999937758
100
AcDbArc
 50
35.13548761605873
 51
99.86451238761651
  0
ARC
  5
E4
330
1F
100
AcDbEntity
  8
0
  6
Continuous
 62
     7
100
AcDbCircle
 10
89.6995071611
 20
60.3800576513
 30
0.0
 40
0.4999999999550572
100
AcDbArc
 50
170.1354876104196
 51
-80.13548761042028
  0
ARC
  5
E5
330
1F
100
AcDbEntity
  8
0
  6
Continuous
 62
     7
100
AcDbCircle
 10
88.95499966325693
 20
61.93563357920399
 30
0.0
 40
0.5000000000153073
100
AcDbArc
 50
-9.86451240047395
 51
54.86451237964192
  0
ARC
  5
E6
330
1F
100
AcDbEntity
  8
0
  6
Continuous
 62
     7
100
AcDbCircle
 10
88.3814876765
 20
63.5620381667
 30
0.0
 40
0.4999999999937758
100
AcDbArc
 50
125.1354876160587
 51
-125.1354876094642
  0
ARC
  5
E7
330
1F
100
AcDbEntity
  8
0
  6
Continuous
 62
     7
100
AcDbCircle
 10
88.9549996633
 20
65.1884427542
 30
0.0
 40
0.4999999999937758
100
AcDbArc
 50
-54.86451238394127
 51
9.86451238957958
  0
ARC
  5
E8
330
1F
100
AcDbEntity
  8
0
  6
Continuous
 62
     7
100
AcDbCircle
 10
89.69950716114259
 20
66.7440186820426
 30
0.0
 40
0.5000000000043086
100
AcDbArc
 50
80.13548761635552
 51
-170.1354876064482
  0
ARC
  5
E9
330
1F
100
AcDbEntity
  8
0
  6
Continuous
 62
     7
100
AcDbCircle
 10
91.2550830889
 20
67.4885261799
 30
0.0
 40
0.5000000000535793
100
AcDbArc
 50
-99.86451238761637
 51
-35.13548761605873
  0
ARC
  5
EA
330
1F
100
AcDbEntity
  8
A_ACHSEN
  6
Continuous
 62
     7
100
AcDbCircle
 10
89.8814876765
 20
144.3120381667
 30
0.0
 40
3.0
100
AcDbArc
 50
0.0
 51
180.0
  0
ARC
  5
EB
330
1F
100
AcDbEntity
  8
0
  6
Continuous
 62
     7
100
AcDbCircle
 10
90.2747876765
 20
228.1667209689
 30
0.0
 40
1.786600000023448
100
AcDbArc
 50
76.72004683126725
 51
163.2799531713072
  0
ARC
  5
EC
330
1F
100
AcDbEntity
  8
0
  6
Continuous
 62
     7
100
AcDbCircle
 10
85.4881876765
 20
228.1667209689
 30
0.0
 40
1.786599999980908
100
AcDbArc
 50
16.72004682961543
 51
103.279953171854
  0
ARC
  5
ED
330
1F
100
AcDbEntity
  8
0
  6
Continuous
 62
     7
100
AcDbCircle
 10
90.2747876765
 20
236.4573553644
 30
0.0
 40
1.786600000076682
100
AcDbArc
 50
-163.2799531713072
 51
-76.72004683053048
  0
ARC
  5
EE
330
1F
100
AcDbEntity
  8
0
  6
Continuous
 62
     7
100
AcDbCircle
 10
92.6680876765
 20
232.3120381667
 30
0.0
 40
1.786599999978218
100
AcDbArc
 50
136.7200468315949
 51
-136.7200468292599
  0
ARC
  5
EF
330
1F
100
AcDbEntity
  8
0
  6
Continuous
 62
     7
100
AcDbCircle
 10
83.0948876765
 20
232.3120381667
 30
0.0
 40
1.786599999973993
100
AcDbArc
 50
-43.27995317293846
 51
43.27995317060336
  0
ARC
  5
F0
330
1F
100
AcDbEntity
  8
0
  6
Continuous
 62
     7
100
AcDbCircle
 10
85.4881876765
 20
236.4573553644
 30
0.0
 40
1.786599999949078
100
AcDbArc
 50
-103.2799531725908
 51
-16.72004682961543
  0
ARC
  5
F1
330
1F
100
AcDbEntity
  8
0
  6
Continuous
 62
     7
100
AcDbCircle
 10
91.1870200402
 20
230.4035881667
 30
0.0
 40
0.6000000000495971
100
AcDbArc
 50
-103.2799531676657
 51
43.27995317325042
  0
ARC
  5
F2
330
1F
100
AcDbEntity
  8
0
  6
Continuous
 62
     7
100
AcDbCircle
 10
87.8814876765
 20
228.4951381667
 30
0.0
 40
0.6000000000511777
100
AcDbArc
 50
-163.2799531659991
 51
-16.72004683674827
  0
ARC
  5
F3
330
1F
100
AcDbEntity
  8
0
  6
Continuous
 62
     7
100
AcDbCircle
 10
84.5759553128
 20
230.4035881667
 30
0.0
 40
0.6000000000352919
100
AcDbArc
 50
136.7200468332964
 51
-76.72004683233426
  0
ARC
  5
F4
330
1F
100
AcDbEntity
  8
0
  6
Continuous
 62
     7
100
AcDbCircle
 10
87.8814876765
 20
236.1289381667
 30
0.0
 40
0.5999999999266297
100
AcDbArc
 50
16.72004682760124
 51
163.2799531751461
  0
ARC
  5
F5
330
1F
100
AcDbEntity
  8
0
  6
Continuous
 62
     7
100
AcDbCircle
 10
91.1870200402
 20
234.2204881667
 30
0.0
 40
0.5999999999624698
100
AcDbArc
 50
-43.27995317324845
 51
103.2799531698584
  0
ARC
  5
F6
330
1F
100
AcDbEntity
  8
0
  6
Continuous
 62
     7
100
AcDbCircle
 10
84.5759553128
 20
234.2204881667
 30
0.0
 40
0.5999999999523109
100
AcDbArc
 50
76.72004683014161
 51
-136.7200468332983
  0
ARC
  5
F7
330
1F
100
AcDbEntity
  8
0
  6
Continuous
 62
     7
100
AcDbCircle
 10
91.2550830889
 20
215.1355501535
 30
0.0
 40
0.4999999999937758
100
AcDbArc
 50
35.13548761605873
 51
99.86451238761637
  0
ARC
  5
F8
330
1F
100
AcDbEntity
  8
0
  6
Continuous
 62
     7
100
AcDbCircle
 10
89.6995071611
 20
215.8800576513
 30
0.0
 40
0.4999999999550535
100
AcDbArc
 50
170.135487610422
 51
-80.1354876104207
  0
ARC
  5
F9
330
1F
100
AcDbEntity
  8
0
  6
Continuous
 62
     7
100
AcDbCircle
 10
88.9549996633
 20
217.4356335791
 30
0.0
 40
0.4999999999550584
100
AcDbArc
 50
-9.86451238958118
 51
54.86451239053533
  0
ARC
  5
FA
330
1F
100
AcDbEntity
  8
0
  6
Continuous
 62
     7
100
AcDbCircle
 10
88.3814876765
 20
219.0620381667
 30
0.0
 40
0.4999999999937758
100
AcDbArc
 50
125.1354876160587
 51
-125.1354876094628
  0
ARC
  5
FB
330
1F
100
AcDbEntity
  8
0
  6
Continuous
 62
     7
100
AcDbCircle
 10
88.9549996633
 20
220.6884427542
 30
0.0
 40
0.4999999999937758
100
AcDbArc
 50
-54.86451238394127
 51
9.86451238958118
  0
ARC
  5
FC
330
1F
100
AcDbEntity
  8
0
  6
Continuous
 62
     7
100
AcDbCircle
 10
89.6995071611
 20
222.244018682
 30
0.0
 40
0.5000000000535793
100
AcDbArc
 50
80.13548761238364
 51
-170.135487610422
  0
ARC
  5
FD
330
1F
100
AcDbEntity
  8
0
  6
Continuous
 62
     7
100
AcDbCircle
 10
91.2550830889
 20
222.9885261799
 30
0.0
 40
0.5000000000535513
100
AcDbArc
 50
-99.86451238761694
 51
-35.13548761605873
  0
ARC
  5
FE
330
1F
100
AcDbEntity
  8
0
  6
Continuous
 62
     7
100
AcDbCircle
 10
92.8814876765
 20
48.3120381667
 30
0.0
 40
12.0
100
AcDbArc
 50
-90.0
 51
0.0
  0
ARC
  5
FF
330
1F
100
AcDbEntity
  8
0
  6
Continuous
 62
     7
100
AcDbCircle
 10
100.2747876765
 20
41.1667209689
 30
0.0
 40
1.786600000023434
100
AcDbArc
 50
76.72004683126715
 51
163.2799531713077
  0
ARC
  5
100
330
1F
100
AcDbEntity
  8
0
  6
Continuous
 62
     7
100
AcDbCircle
 10
95.4881876765
 20
41.1667209689
 30
0.0
 40
1.786599999980904
100
AcDbArc
 50
16.72004682961499
 51
103.2799531718541
  0
ARC
  5
101
330
1F
100
AcDbEntity
  8
0
  6
Continuous
 62
     7
100
AcDbCircle
 10
100.2747876764049
 20
49.45735536445491
 30
0.0
 40
1.786600000001395
100
AcDbArc
 50
-163.279953168744
 51
-76.72004682796673
  0
ARC
  5
102
330
1F
100
AcDbEntity
  8
0
  6
Continuous
 62
     7
100
AcDbCircle
 10
102.6680876765
 20
45.3120381667
 30
0.0
 40
1.786599999978232
100
AcDbArc
 50
136.7200468315945
 51
-136.7200468292599
  0
ARC
  5
103
330
1F
100
AcDbEntity
  8
0
  6
Continuous
 62
     7
100
AcDbCircle
 10
93.0948876765
 20
45.3120381667
 30
0.0
 40
1.786599999973993
100
AcDbArc
 50
-43.27995317293846
 51
43.27995317060386
  0
ARC
  5
104
330
1F
100
AcDbEntity
  8
0
  6
Continuous
 62
     7
100
AcDbCircle
 10
95.4881876765
 20
49.4573553644
 30
0.0
 40
1.786599999949085
100
AcDbArc
 50
-103.2799531725908
 51
-16.72004682961499
  0
ARC
  5
105
330
1F
100
AcDbEntity
  8
0
  6
Continuous
 62
     7
100
AcDbCircle
 10
101.1870200402
 20
43.4035881667
 30
0.0
 40
0.6000000000496177
100
AcDbArc
 50
-103.2799531676653
 51
43.27995317324993
  0
ARC
  5
106
330
1F
100
AcDbEntity
  8
0
  6
Continuous
 62
     7
100
AcDbCircle
 10
97.8814876765
 20
41.4951381667
 30
0.0
 40
0.6000000000511798
100
AcDbArc
 50
-163.2799531659984
 51
-16.72004683674892
  0
ARC
  5
107
330
1F
100
AcDbEntity
  8
0
  6
Continuous
 62
     7
100
AcDbCircle
 10
94.5759553128
 20
43.4035881667
 30
0.0
 40
0.600000000035287
100
AcDbArc
 50
136.7200468332969
 51
-76.72004683233475
  0
ARC
  5
108
330
1F
100
AcDbEntity
  8
0
  6
Continuous
 62
     7
100
AcDbCircle
 10
97.8814876765
 20
49.1289381667
 30
0.0
 40
0.5999999999266358
100
AcDbArc
 50
16.72004682760319
 51
163.2799531751442
  0
ARC
  5
109
330
1F
100
AcDbEntity
  8
0
  6
Continuous
 62
     7
100
AcDbCircle
 10
101.1870200402
 20
47.2204881667
 30
0.0
 40
0.5999999999624795
100
AcDbArc
 50
-43.27995317324944
 51
103.2799531698589
  0
ARC
  5
10A
330
1F
100
AcDbEntity
  8
0
  6
Continuous
 62
     7
100
AcDbCircle
 10
94.5759553128
 20
47.2204881667
 30
0.0
 40
0.5999999999522901
100
AcDbArc
 50
76.72004683014113
 51
-136.7200468332973
  0
ARC
  5
10B
330
1F
100
AcDbEntity
  8
0
  6
Continuous
 62
     7
100
AcDbCircle
 10
96.8079756896
 20
61.9356335791
 30
0.0
 40
0.5000000000180044
100
AcDbArc
 50
125.1354876000923
 51
-170.1354876104204
  0
ARC
  5
10C
330
1F
100
AcDbEntity
  8
0
  6
Continuous
 62
     7
100
AcDbCircle
 10
96.0634681918
 20
60.3800576513
 30
0.0
 40
0.4999999999550489
100
AcDbArc
 50
-99.86451238957972
 51
9.86451238958038
  0
ARC
  5
10D
330
1F
100
AcDbEntity
  8
0
  6
Continuous
 62
     7
100
AcDbCircle
 10
94.507892264
 20
59.6355501535
 30
0.0
 40
0.5000000000535723
100
AcDbArc
 50
80.1354876123835
 51
144.8645123839413
  0
ARC
  5
10E
330
1F
100
AcDbEntity
  8
0
  6
Continuous
 62
     7
100
AcDbCircle
 10
92.8814876765
 20
59.0620381667
 30
0.0
 40
0.5000000000755566
100
AcDbArc
 50
-144.8645123905363
 51
-35.13548761605873
  0
ARC
  5
10F
330
1F
100
AcDbEntity
  8
0
  6
Continuous
 62
     7
100
AcDbCircle
 10
94.507892264
 20
67.4885261799
 30
0.0
 40
0.4999999999937758
100
AcDbArc
 50
-144.8645123839413
 51
-80.13548761238364
  0
ARC
  5
110
330
1F
100
AcDbEntity
  8
0
  6
Continuous
 62
     7
100
AcDbCircle
 10
96.06346819175741
 20
66.7440186820426
 30
0.0
 40
0.5000000000043127
100
AcDbArc
 50
-9.86451239355176
 51
99.86451238364447
  0
ARC
  5
111
330
1F
100
AcDbEntity
  8
0
  6
Continuous
 62
     7
100
AcDbCircle
 10
96.8079756896
 20
65.1884427542
 30
0.0
 40
0.499999999955056
100
AcDbArc
 50
170.1354876104204
 51
-125.1354876066873
  0
ARC
  5
112
330
1F
100
AcDbEntity
  8
0
  6
Continuous
 62
     7
100
AcDbCircle
 10
97.3814876765
 20
63.5620381667
 30
0.0
 40
0.5000000000179985
100
AcDbArc
 50
-54.86451239990719
 51
54.86451239331266
  0
ARC
  5
113
330
1F
100
AcDbEntity
  8
0
  6
Continuous
 62
     7
100
AcDbCircle
 10
92.8814876765
 20
68.0620381667
 30
0.0
 40
0.4999999999362236
100
AcDbArc
 50
35.13548760668734
 51
144.8645123999077
  0
ARC
  5
114
330
1F
100
AcDbEntity
  8
0
  6
Continuous
 62
     7
100
AcDbCircle
 10
92.8814876765
 20
234.3120381667
 30
0.0
 40
12.0
100
AcDbArc
 50
90.0
 51
180.0
  0
ARC
  5
115
330
1F
100
AcDbEntity
  8
0
  6
Continuous
 62
     7
100
AcDbCircle
 10
100.2747876765
 20
233.1667209689
 30
0.0
 40
1.786600000023448
100
AcDbArc
 50
76.72004683126725
 51
163.2799531713072
  0
ARC
  5
116
330
1F
100
AcDbEntity
  8
0
  6
Continuous
 62
     7
100
AcDbCircle
 10
95.4881876765
 20
233.1667209689
 30
0.0
 40
1.786599999980908
100
AcDbArc
 50
16.72004682961543
 51
103.279953171854
  0
ARC
  5
117
330
1F
100
AcDbEntity
  8
0
  6
Continuous
 62
     7
100
AcDbCircle
 10
100.2747876765
 20
241.4573553644
 30
0.0
 40
1.786600000076682
100
AcDbArc
 50
-163.2799531713072
 51
-76.72004683053048
  0
ARC
  5
118
330
1F
100
AcDbEntity
  8
0
  6
Continuous
 62
     7
100
AcDbCircle
 10
102.6680876765
 20
237.3120381667
 30
0.0
 40
1.786599999978218
100
AcDbArc
 50
136.7200468315949
 51
-136.7200468292599
  0
ARC
  5
119
330
1F
100
AcDbEntity
  8
0
  6
Continuous
 62
     7
100
AcDbCircle
 10
93.0948876765
 20
237.3120381667
 30
0.0
 40
1.786599999973993
100
AcDbArc
 50
-43.27995317293846
 51
43.27995317060336
  0
ARC
  5
11A
330
1F
100
AcDbEntity
  8
0
  6
Continuous
 62
     7
100
AcDbCircle
 10
95.4881876765
 20
241.4573553644
 30
0.0
 40
1.786599999949078
100
AcDbArc
 50
-103.2799531725908
 51
-16.72004682961543
  0
ARC
  5
11B
330
1F
100
AcDbEntity
  8
0
  6
Continuous
 62
     7
100
AcDbCircle
 10
101.1870200402
 20
235.4035881667
 30
0.0
 40
0.6000000000495971
100
AcDbArc
 50
-103.2799531676657
 51
43.27995317325042
  0
ARC
  5
11C
330
1F
100
AcDbEntity
  8
0
  6
Continuous
 62
     7
100
AcDbCircle
 10
97.8814876765
 20
233.4951381667
 30
0.0
 40
0.6000000000511777
100
AcDbArc
 50
-163.2799531659991
 51
-16.72004683674827
  0
ARC
  5
11D
330
1F
100
AcDbEntity
  8
0
  6
Continuous
 62
     7
100
AcDbCircle
 10
94.5759553128
 20
235.4035881667
 30
0.0
 40
0.6000000000352919
100
AcDbArc
 50
136.7200468332964
 51
-76.72004683233426
  0
ARC
  5
11E
330
1F
100
AcDbEntity
  8
0
  6
Continuous
 62
     7
100
AcDbCircle
 10
101.1870200402
 20
239.2204881667
 30
0.0
 40
0.5999999999624698
100
AcDbArc
 50
-43.27995317324845
 51
103.2799531698584
  0
ARC
  5
11F
330
1F
100
AcDbEntity
  8
0
  6
Continuous
 62
     7
100
AcDbCircle
 10
94.5759553128
 20
239.2204881667
 30
0.0
 40
0.5999999999523109
100
AcDbArc
 50
76.72004683014161
 51
-136.7200468332983
  0
ARC
  5
120
330
1F
100
AcDbEntity
  8
0
  6
Continuous
 62
     7
100
AcDbCircle
 10
97.8814876765
 20
241.1289381667
 30
0.0
 40
0.5999999999266297
100
AcDbArc
 50
16.72004682760124
 51
163.2799531751461
  0
ARC
  5
121
330
1F
100
AcDbEntity
  8
0
  6
Continuous
 62
     7
100
AcDbCircle
 10
96.8079756896
 20
217.4356335791
 30
0.0
 40
0.5000000000179927
100
AcDbArc
 50
125.1354876000933
 51
-170.1354876104188
  0
ARC
  5
122
330
1F
100
AcDbEntity
  8
0
  6
Continuous
 62
     7
100
AcDbCircle
 10
96.0634681918
 20
215.8800576513
 30
0.0
 40
0.4999999999550699
100
AcDbArc
 50
-99.8645123895793
 51
9.86451238957797
  0
ARC
  5
123
330
1F
100
AcDbEntity
  8
0
  6
Continuous
 62
     7
100
AcDbCircle
 10
94.507892264
 20
215.1355501535
 30
0.0
 40
0.5000000000535793
100
AcDbArc
 50
80.13548761238364
 51
144.8645123839413
  0
ARC
  5
124
330
1F
100
AcDbEntity
  8
0
  6
Continuous
 62
     7
100
AcDbCircle
 10
92.8814876765
 20
214.5620381667
 30
0.0
 40
0.5000000000755566
100
AcDbArc
 50
-144.8645123905363
 51
-35.13548761605873
  0
ARC
  5
125
330
1F
100
AcDbEntity
  8
0
  6
Continuous
 62
     7
100
AcDbCircle
 10
92.8814876765
 20
223.5620381667
 30
0.0
 40
0.4999999999362154
100
AcDbArc
 50
35.13548760668601
 51
144.864512399909
  0
ARC
  5
126
330
1F
100
AcDbEntity
  8
0
  6
Continuous
 62
     7
100
AcDbCircle
 10
94.507892264
 20
222.9885261799
 30
0.0
 40
0.4999999999937758
100
AcDbArc
 50
-144.8645123839413
 51
-80.13548761238307
  0
ARC
  5
127
330
1F
100
AcDbEntity
  8
0
  6
Continuous
 62
     7
100
AcDbCircle
 10
96.0634681918
 20
222.244018682
 30
0.0
 40
0.4999999999550535
100
AcDbArc
 50
-9.86451238957797
 51
99.86451238761637
  0
ARC
  5
128
330
1F
100
AcDbEntity
  8
0
  6
Continuous
 62
     7
100
AcDbCircle
 10
96.8079756896
 20
220.6884427542
 30
0.0
 40
0.4999999999550584
100
AcDbArc
 50
170.1354876104188
 51
-125.1354876066873
  0
ARC
  5
129
330
1F
100
AcDbEntity
  8
0
  6
Continuous
 62
     7
100
AcDbCircle
 10
97.3814876765
 20
219.0620381667
 30
0.0
 40
0.5000000000180159
100
AcDbArc
 50
-54.8645123999086
 51
54.86451239331266
  0
ARC
  5
12A
330
1F
100
AcDbEntity
  8
0
  6
Continuous
 62
     7
100
AcDbCircle
 10
92.8814876765
 20
48.3120381667
 30
0.0
 40
12.0
100
AcDbArc
 50
180.0
 51
-90.0
  0
ARC
  5
12B
330
1F
100
AcDbEntity
  8
0
  6
Continuous
 62
     7
100
AcDbCircle
 10
92.8814876765
 20
234.3120381667
 30
0.0
 40
12.0
100
AcDbArc
 50
0.0
 51
90.0
  0
CIRCLE
  5
12C
330
1F
100
AcDbEntity
  8
A_ACHSEN
  6
Continuous
 62
     7
100
AcDbCircle
 10
87.8814876765
 20
50.3120381667
 30
0.0
 40
5.25
  0
CIRCLE
  5
12D
330
1F
100
AcDbEntity
  8
A_ACHSEN
  6
Continuous
 62
     7
100
AcDbCircle
 10
89.8814876765
 20
113.3120381667
 30
0.0
 40
5.25
  0
CIRCLE
  5
12E
330
1F
100
AcDbEntity
  8
A_ACHSEN
  6
Continuous
 62
     7
100
AcDbCircle
 10
87.8814876765
 20
232.3120381667
 30
0.0
 40
5.25
  0
CIRCLE
  5
12F
330
1F
100
AcDbEntity
  8
A_ACHSEN
  6
Continuous
 62
     7
100
AcDbCircle
 10
89.8814876765
 20
169.3120381667
 30
0.0
 40
5.25
  0
CIRCLE
  5
130
330
1F
100
AcDbEntity
  8
A_ACHSEN
  6
Continuous
 62
     7
100
AcDbCircle
 10
92.8814876765
 20
63.5620381667
 30
0.0
 40
6.150000000000006
  0
CIRCLE
  5
131
330
1F
100
AcDbEntity
  8
A_ACHSEN
  6
Continuous
 62
     7
100
AcDbCircle
 10
92.8814876765
 20
89.3120381667
 30
0.0
 40
6.0
  0
CIRCLE
  5
132
330
1F
100
AcDbEntity
  8
A_ACHSEN
  6
Continuous
 62
     7
100
AcDbCircle
 10
97.8814876765
 20
45.3120381667
 30
0.0
 40
5.25
  0
CIRCLE
  5
133
330
1F
100
AcDbEntity
  8
A_ACHSEN
  6
Continuous
 62
     7
100
AcDbCircle
 10
92.8814876765
 20
77.3120381667
 30
0.0
 40
4.049999999999997
  0
CIRCLE
  5
134
330
1F
100
AcDbEntity
  8
A_ACHSEN
  6
Continuous
 62
     7
100
AcDbCircle
 10
92.8814876765
 20
219.0620381667
 30
0.0
 40
6.150000000000006
  0
CIRCLE
  5
135
330
1F
100
AcDbEntity
  8
A_ACHSEN
  6
Continuous
 62
     7
100
AcDbCircle
 10
92.8814876765
 20
193.3120381667
 30
0.0
 40
6.0
  0
CIRCLE
  5
136
330
1F
100
AcDbEntity
  8
A_ACHSEN
  6
Continuous
 62
     7
100
AcDbCircle
 10
97.8814876765
 20
237.3120381667
 30
0.0
 40
5.25
  0
CIRCLE
  5
137
330
1F
100
AcDbEntity
  8
A_ACHSEN
  6
Continuous
 62
     7
100
AcDbCircle
 10
92.8814876765
 20
205.3120381667
 30
0.0
 40
4.049999999999997
  0
DIMENSION
  5
143
330
1F
100
AcDbEntity
  8
1
100
AcDbDimension
  2
*D1
 10
65.8869208113978
 20
188.3120381667
 30
0.0
 11
62.1369208113978
 21
139.741758455407
 31
0.0
 70
    32
  1
<>
 71
     5
 42
-1.0
 53
90.0
  3
ME10_DIM_10
100
AcDbAlignedDimension
 13
75.8814876765
 23
94.3120381667
 33
0.0
 14
75.8814876765
 24
188.3120381667
 34
0.0
 50
90.0
100
AcDbRotatedDimension
  0
DIMENSION
  5
14E
330
1F
100
AcDbEntity
  8
1
100
AcDbDimension
  2
*D2
 10
116.141444189688
 20
246.3120381667
 30
0.0
 11
112.391444189688
 21
141.232430574331
 31
0.0
 70
    32
  1
<>
 71
     5
 42
-1.0
 53
90.0
  3
ME10_DIM_11
100
AcDbAlignedDimension
 13
92.8814876765
 23
36.3120381667
 33
0.0
 14
92.8814876765
 24
246.3120381667
 34
0.0
 50
90.0
100
AcDbRotatedDimension
  0
DIMENSION
  5
159
330
1F
100
AcDbEntity
  8
1
100
AcDbDimension
  2
*D3
 10
104.8814876765
 20
24.3844548991686
 30
0.0
 11
92.8814876765
 21
28.1344548991686
 31
0.0
 70
    32
  1
<>
 71
     5
 42
-1.0
 53
0.00013888888889
  3
ME10_DIM_12
100
AcDbAlignedDimension
 13
80.8814876765
 23
48.3120381667
 33
0.0
 14
104.8814876765
 24
48.3120381667
 34
0.0
100
AcDbRotatedDimension
  0
DIMENSION
  5
164
330
1F
100
AcDbEntity
  8
1
100
AcDbDimension
  2
*D4
 10
104.8814876765
 20
14.1746343749619
 30
0.0
 11
91.4388938151399
 21
17.9246343749619
 31
0.0
 70
    32
  1
<>
 71
     5
 42
-1.0
 53
0.00013888888889
  3
ME10_DIM_13
100
AcDbAlignedDimension
 13
75.8814876765
 23
94.3120381667
 33
0.0
 14
104.8814876765
 24
48.3120381667
 34
0.0
100
AcDbRotatedDimension
  0
ENDSEC
  0
SECTION
  2
OBJECTS
  0
DICTIONARY
  5
C
330
0
100
AcDbDictionary
281
     1
  3
ACAD_GROUP
350
D
  3
ACAD_LAYOUT
350
1A
  3
ACAD_MLINESTYLE
350
17
  3
ACAD_PLOTSETTINGS
350
19
  3
ACAD_PLOTSTYLENAME
350
E
  0
DICTIONARY
  5
D
102
{ACAD_REACTORS
330
C
102
}
330
C
100
AcDbDictionary
281
     1
  0
DICTIONARY
  5
1A
102
{ACAD_REACTORS
330
C
102
}
330
C
100
AcDbDictionary
281
     1
  3
Layout1
350
1E
  3
Layout2
350
26
  3
Model
350
22
  0
DICTIONARY
  5
17
102
{ACAD_REACTORS
330
C
102
}
330
C
100
AcDbDictionary
281
     1
  3
Standard
350
18
  0
DICTIONARY
  5
19
102
{ACAD_REACTORS
330
C
102
}
330
C
100
AcDbDictionary
281
     1
  0
ACDBDICTIONARYWDFLT
  5
E
102
{ACAD_REACTORS
330
C
102
}
330
C
100
AcDbDictionary
281
     1
  3
Normal
350
F
100
AcDbDictionaryWithDefault
340
F
  0
LAYOUT
  5
1E
102
{ACAD_REACTORS
330
1A
102
}
330
1A
100
AcDbPlotSettings
  1

  2

  4

  6

 40
0.0
 41
0.0
 42
0.0
 43
0.0
 44
0.0
 45
0.0
 46
0.0
 47
0.0
 48
0.0
 49
0.0
140
0.0
141
0.0
142
1.0
143
1.0
 70
   688
 72
     0
 73
     0
 74
     5
  7

 75
    16
 76
     0
 77
     2
 78
   300
147
1.0
148
0.0
149
0.0
100
AcDbLayout
  1
Layout1
 70
     1
 71
     1
 10
0.0
 20
0.0
 11
0.0
 21
0.0
 12
0.0
 22
0.0
 32
0.0
 14
0.0
 24
0.0
 34
0.0
 15
0.0
 25
0.0
 35
0.0
146
0.0
 13
0.0
 23
0.0
 33
0.0
 16
1.0
 26
0.0
 36
0.0
 17
0.0
 27
1.0
 37
0.0
 76
     0
330
1B
  0
LAYOUT
  5
26
102
{ACAD_REACTORS
330
1A
102
}
330
1A
100
AcDbPlotSettings
  1

  2

  4

  6

 40
0.0
 41
0.0
 42
0.0
 43
0.0
 44
0.0
 45
0.0
 46
0.0
 47
0.0
 48
0.0
 49
0.0
140
0.0
141
0.0
142
1.0
143
1.0
 70
   688
 72
     0
 73
     0
 74
     5
  7

 75
    16
 76
     0
 77
     2
 78
   300
147
1.0
148
0.0
149
0.0
100
AcDbLayout
  1
Layout2
 70
     1
 71
     2
 10
0.0
 20
0.0
 11
0.0
 21
0.0
 12
0.0
 22
0.0
 32
0.0
 14
0.0
 24
0.0
 34
0.0
 15
0.0
 25
0.0
 35
0.0
146
0.0
 13
0.0
 23
0.0
 33
0.0
 16
1.0
 26
0.0
 36
0.0
 17
0.0
 27
1.0
 37
0.0
 76
     0
330
23
  0
LAYOUT
  5
22
102
{ACAD_REACTORS
330
1A
102
}
330
1A
100
AcDbPlotSettings
  1

  2

  4

  6

 40
0.0
 41
0.0
 42
0.0
 43
0.0
 44
0.0
 45
0.0
 46
0.0
 47
0.0
 48
0.0
 49
0.0
140
0.0
141
0.0
142
1.0
143
1.0
 70
  1712
 72
     0
 73
     0
 74
     0
  7

 75
     0
 76
     0
 77
     2
 78
   300
147
1.0
148
0.0
149
0.0
100
AcDbLayout
  1
Model
 70
     1
 71
     0
 10
0.0
 20
0.0
 11
0.0
 21
0.0
 12
0.0
 22
0.0
 32
0.0
 14
60.3869208113978
 24
12.1746343749619
 34
0.0
 15
118.141444189688
 25
246.3120381667
 35
0.0
146
0.0
 13
0.0
 23
0.0
 33
0.0
 16
1.0
 26
0.0
 36
0.0
 17
0.0
 27
1.0
 37
0.0
 76
     0
330
1F
  0
MLINESTYLE
  5
18
102
{ACAD_REACTORS
330
17
102
}
330
17
100
AcDbMlineStyle
  2
Standard
 70
     0
  3

 62
   256
 51
90.0
 52
90.0
 71
     2
 49
0.5
 62
   256
  6
BYLAYER
 49
-0.5
 62
   256
  6
BYLAYER
  0
ACDBPLACEHOLDER
  5
F
102
{ACAD_REACTORS
330
E
102
}
330
E
  0
ENDSEC
  0
EOF
