  0
SECTION
  2
HEADER
  9
$ACADVER
  1
AC1018
  9
$ACADMAINTVER
 70
     0
  9
$DWGCODEPAGE
  3
ANSI_1252
  9
$INSBASE
 10
0.0
 20
0.0
 30
0.0
  9
$EXTMIN
 10
-31.7606793112159
 20
128.056561149111
 30
0.0
  9
$EXTMAX
 10
59.54702443793713
 20
219.544379121875
 30
0.0
  9
$LIMMIN
 10
0.0
 20
0.0
  9
$LIMMAX
 10
12.0
 20
9.0
  9
$ORTHOMODE
 70
     0
  9
$REGENMODE
 70
     1
  9
$FILLMODE
 70
     1
  9
$QTEXTMODE
 70
     0
  9
$MIRRTEXT
 70
     1
  9
$LTSCALE
 40
1.0
  9
$ATTMODE
 70
     1
  9
$TEXTSIZE
 40
0.2
  9
$TRACEWID
 40
0.05
  9
$TEXTSTYLE
  7
Standard
  9
$CLAYER
  8
0
  9
$CELTYPE
  6
ByLayer
  9
$CECOLOR
 62
   256
  9
$CELTSCALE
 40
1.0
  9
$DISPSILH
 70
     0
  9
$DIMSCALE
 40
1.0
  9
$DIMASZ
 40
0.18
  9
$DIMEXO
 40
0.0625
  9
$DIMDLI
 40
0.38
  9
$DIMRND
 40
0.0
  9
$DIMDLE
 40
0.0
  9
$DIMEXE
 40
0.18
  9
$DIMTP
 40
0.0
  9
$DIMTM
 40
0.0
  9
$DIMTXT
 40
0.18
  9
$DIMCEN
 40
0.09
  9
$DIMTSZ
 40
0.0
  9
$DIMTOL
 70
     0
  9
$DIMLIM
 70
     0
  9
$DIMTIH
 70
     1
  9
$DIMTOH
 70
     1
  9
$DIMSE1
 70
     0
  9
$DIMSE2
 70
     0
  9
$DIMTAD
 70
     0
  9
$DIMZIN
 70
     0
  9
$DIMBLK
  1

  9
$DIMASO
 70
     1
  9
$DIMSHO
 70
     1
  9
$DIMPOST
  1

  9
$DIMAPOST
  1

  9
$DIMALT
 70
     0
  9
$DIMALTD
 70
     2
  9
$DIMALTF
 40
25.4
  9
$DIMLFAC
 40
1.0
  9
$DIMTOFL
 70
     0
  9
$DIMTVP
 40
0.0
  9
$DIMTIX
 70
     0
  9
$DIMSOXD
 70
     0
  9
$DIMSAH
 70
     0
  9
$DIMBLK1
  1

  9
$DIMBLK2
  1

  9
$DIMSTYLE
  2
Standard
  9
$DIMCLRD
 70
     0
  9
$DIMCLRE
 70
     0
  9
$DIMCLRT
 70
     0
  9
$DIMTFAC
 40
1.0
  9
$DIMGAP
 40
0.09
  9
$DIMJUST
 70
     0
  9
$DIMSD1
 70
     0
  9
$DIMSD2
 70
     0
  9
$DIMTOLJ
 70
     1
  9
$DIMTZIN
 70
     0
  9
$DIMALTZ
 70
     0
  9
$DIMALTTZ
 70
     0
  9
$DIMUPT
 70
     0
  9
$DIMDEC
 70
     4
  9
$DIMTDEC
 70
     4
  9
$DIMALTU
 70
     2
  9
$DIMALTTD
 70
     2
  9
$DIMTXSTY
  7
Standard
  9
$DIMAUNIT
 70
     0
  9
$DIMADEC
 70
     0
  9
$DIMALTRND
 40
0.0
  9
$DIMAZIN
 70
     0
  9
$DIMDSEP
 70
    46
  9
$DIMATFIT
 70
     3
  9
$DIMFRAC
 70
     0
  9
$DIMLDRBLK
  1

  9
$DIMLUNIT
 70
     2
  9
$DIMLWD
 70
    -2
  9
$DIMLWE
 70
    -2
  9
$DIMTMOVE
 70
     0
  9
$LUNITS
 70
     2
  9
$LUPREC
 70
     4
  9
$SKETCHINC
 40
0.1
  9
$FILLETRAD
 40
0.5
  9
$AUNITS
 70
     0
  9
$AUPREC
 70
     0
  9
$MENU
  1
.
  9
$ELEVATION
 40
0.0
  9
$PELEVATION
 40
0.0
  9
$THICKNESS
 40
0.0
  9
$LIMCHECK
 70
     0
  9
$CHAMFERA
 40
0.5
  9
$CHAMFERB
 40
0.5
  9
$CHAMFERC
 40
1.0
  9
$CHAMFERD
 40
0.0
  9
$SKPOLY
 70
     0
  9
$TDCREATE
 40
2454403.423749097
  9
$TDUCREATE
 40
2454403.382082431
  9
$TDUPDATE
 40
2454403.423749109
  9
$TDUUPDATE
 40
2454403.382082442
  9
$TDINDWG
 40
0.0000000116
  9
$TDUSRTIMER
 40
0.0000000116
  9
$USRTIMER
 70
     1
  9
$ANGBASE
 50
0.0
  9
$ANGDIR
 70
     0
  9
$PDMODE
 70
     0
  9
$PDSIZE
 40
0.0
  9
$PLINEWID
 40
0.0
  9
$SPLFRAME
 70
     0
  9
$SPLINETYPE
 70
     6
  9
$SPLINESEGS
 70
     8
  9
$HANDSEED
  5
EC
  9
$SURFTAB1
 70
     6
  9
$SURFTAB2
 70
     6
  9
$SURFTYPE
 70
     6
  9
$SURFU
 70
     6
  9
$SURFV
 70
     6
  9
$UCSBASE
  2

  9
$UCSNAME
  2

  9
$UCSORG
 10
0.0
 20
0.0
 30
0.0
  9
$UCSXDIR
 10
1.0
 20
0.0
 30
0.0
  9
$UCSYDIR
 10
0.0
 20
1.0
 30
0.0
  9
$UCSORTHOREF
  2

  9
$UCSORTHOVIEW
 70
     0
  9
$UCSORGTOP
 10
0.0
 20
0.0
 30
0.0
  9
$UCSORGBOTTOM
 10
0.0
 20
0.0
 30
0.0
  9
$UCSORGLEFT
 10
0.0
 20
0.0
 30
0.0
  9
$UCSORGRIGHT
 10
0.0
 20
0.0
 30
0.0
  9
$UCSORGFRONT
 10
0.0
 20
0.0
 30
0.0
  9
$UCSORGBACK
 10
0.0
 20
0.0
 30
0.0
  9
$PUCSBASE
  2

  9
$PUCSNAME
  2

  9
$PUCSORG
 10
0.0
 20
0.0
 30
0.0
  9
$PUCSXDIR
 10
1.0
 20
0.0
 30
0.0
  9
$PUCSYDIR
 10
0.0
 20
1.0
 30
0.0
  9
$PUCSORTHOREF
  2

  9
$PUCSORTHOVIEW
 70
     0
  9
$PUCSORGTOP
 10
0.0
 20
0.0
 30
0.0
  9
$PUCSORGBOTTOM
 10
0.0
 20
0.0
 30
0.0
  9
$PUCSORGLEFT
 10
0.0
 20
0.0
 30
0.0
  9
$PUCSORGRIGHT
 10
0.0
 20
0.0
 30
0.0
  9
$PUCSORGFRONT
 10
0.0
 20
0.0
 30
0.0
  9
$PUCSORGBACK
 10
0.0
 20
0.0
 30
0.0
  9
$USERI1
 70
     0
  9
$USERI2
 70
     0
  9
$USERI3
 70
     0
  9
$USERI4
 70
     0
  9
$USERI5
 70
     0
  9
$USERR1
 40
14.5
  9
$USERR2
 40
0.0
  9
$USERR3
 40
0.0
  9
$USERR4
 40
0.0
  9
$USERR5
 40
0.0
  9
$WORLDVIEW
 70
     1
  9
$SHADEDGE
 70
     3
  9
$SHADEDIF
 70
    70
  9
$TILEMODE
 70
     1
  9
$MAXACTVP
 70
    64
  9
$PINSBASE
 10
0.0
 20
0.0
 30
0.0
  9
$PLIMCHECK
 70
     0
  9
$PEXTMIN
 10
1.00000000000000E+20
 20
1.00000000000000E+20
 30
1.00000000000000E+20
  9
$PEXTMAX
 10
-1.00000000000000E+20
 20
-1.00000000000000E+20
 30
-1.00000000000000E+20
  9
$PLIMMIN
 10
0.0
 20
0.0
  9
$PLIMMAX
 10
12.0
 20
9.0
  9
$UNITMODE
 70
     0
  9
$VISRETAIN
 70
     1
  9
$PLINEGEN
 70
     0
  9
$PSLTSCALE
 70
     1
  9
$TREEDEPTH
 70
  3020
  9
$CMLSTYLE
  2
Standard
  9
$CMLJUST
 70
     0
  9
$CMLSCALE
 40
1.0
  9
$PROXYGRAPHICS
 70
     1
  9
$MEASUREMENT
 70
     1
  9
$CELWEIGHT
370
    -1
  9
$ENDCAPS
280
     0
  9
$JOINSTYLE
280
     0
  9
$LWDISPLAY
290
     0
  9
$INSUNITS
 70
     1
  9
$HYPERLINKBASE
  1

  9
$STYLESHEET
  1

  9
$XEDIT
290
     1
  9
$CEPSNTYPE
380
     0
  9
$PSTYLEMODE
290
     1
  9
$FINGERPRINTGUID
  2
{14305E27-DDE3-4ECA-9F9A-AD8D3E330462}
  9
$VERSIONGUID
  2
{FAEB1C32-E019-11D5-929B-00C0DF256EC4}
  9
$EXTNAMES
290
     1
  9
$PSVPSCALE
 40
0.0
  9
$OLESTARTUP
290
     0
  9
$SORTENTS
280
   127
  9
$INDEXCTL
280
     0
  9
$HIDETEXT
280
     1
  9
$XCLIPFRAME
290
     0
  9
$HALOGAP
280
     0
  9
$OBSCOLOR
 70
   257
  9
$OBSLTYPE
280
     0
  9
$INTERSECTIONDISPLAY
280
     0
  9
$INTERSECTIONCOLOR
 70
   257
  9
$DIMASSOC
280
     2
  9
$PROJECTNAME
  1

  0
ENDSEC
  0
SECTION
  2
CLASSES
  0
CLASS
  1
ACDBDICTIONARYWDFLT
  2
AcDbDictionaryWithDefault
  3
ObjectDBX Classes
 90
        0
 91
        3
280
     0
281
     0
  0
ENDSEC
  0
SECTION
  2
TABLES
  0
TABLE
  2
VPORT
  5
8
330
0
100
AcDbSymbolTable
 70
     1
  0
VPORT
  5
29
330
8
100
AcDbSymbolTableRecord
100
AcDbViewportTableRecord
  2
*Active
 70
     0
 10
0.0
 20
0.0
 11
1.0
 21
1.0
 12
13.89317256336062
 22
173.800470135493
 13
0.0
 23
0.0
 14
0.5
 24
0.5
 15
0.5
 25
0.5
 16
0.0
 26
0.0
 36
1.0
 17
0.0
 27
0.0
 37
0.0
 40
100.6365997700404
 41
1.60267857142857
 42
50.0
 43
0.0
 44
0.0
 50
0.0
 51
0.0
 71
     0
 72
   100
 73
     1
 74
     3
 75
     0
 76
     0
 77
     0
 78
     0
281
     0
 65
     1
110
0.0
120
0.0
130
0.0
111
1.0
121
0.0
131
0.0
112
0.0
122
1.0
132
0.0
 79
     0
146
0.0
  0
ENDTAB
  0
TABLE
  2
LTYPE
  5
5
330
0
100
AcDbSymbolTable
 70
     8
  0
LTYPE
  5
14
330
5
100
AcDbSymbolTableRecord
100
AcDbLinetypeTableRecord
  2
ByBlock
 70
     0
  3

 72
    65
 73
     0
 40
0.0
  0
LTYPE
  5
15
330
5
100
AcDbSymbolTableRecord
100
AcDbLinetypeTableRecord
  2
ByLayer
 70
     0
  3

 72
    65
 73
     0
 40
0.0
  0
LTYPE
  5
16
330
5
100
AcDbSymbolTableRecord
100
AcDbLinetypeTableRecord
  2
Continuous
 70
     0
  3
Solid line
 72
    65
 73
     0
 40
0.0
  0
LTYPE
  5
2A
330
5
100
AcDbSymbolTableRecord
100
AcDbLinetypeTableRecord
  2
DASHED
 70
     0
  3
Dashed
 72
    65
 73
     2
 40
15.0
 49
7.0
 74
     0
 49
-8.0
 74
     0
  0
LTYPE
  5
2B
330
5
100
AcDbSymbolTableRecord
100
AcDbLinetypeTableRecord
  2
DOTTED
 70
     0
  3
Dotted
 72
    65
 73
     2
 40
1.0
 49
0.0
 74
     0
 49
-1.0
 74
     0
  0
LTYPE
  5
2C
330
5
100
AcDbSymbolTableRecord
100
AcDbLinetypeTableRecord
  2
DOT_CENTER
 70
     0
  3
Dot_Center
 72
    65
 73
     4
 40
14.0
 49
12.0
 74
     0
 49
-1.0
 74
     0
 49
0.0
 74
     0
 49
-1.0
 74
     0
  0
LTYPE
  5
2D
330
5
100
AcDbSymbolTableRecord
100
AcDbLinetypeTableRecord
  2
LONG_DASHED
 70
     0
  3
Long_Dashed
 72
    65
 73
     2
 40
15.0
 49
10.0
 74
     0
 49
-5.0
 74
     0
  0
LTYPE
  5
2E
330
5
100
AcDbSymbolTableRecord
100
AcDbLinetypeTableRecord
  2
DASH_CENTER
 70
     0
  3
Dash_Center
 72
    65
 73
     4
 40
14.0
 49
11.0
 74
     0
 49
-1.0
 74
     0
 49
1.0
 74
     0
 49
-1.0
 74
     0
  0
LTYPE
  5
2F
330
5
100
AcDbSymbolTableRecord
100
AcDbLinetypeTableRecord
  2
PHANTOM
 70
     0
  3
Phantom
 72
    65
 73
     6
 40
13.0
 49
10.0
 74
     0
 49
-1.0
 74
     0
 49
0.0
 74
     0
 49
-1.0
 74
     0
 49
0.0
 74
     0
 49
-1.0
 74
     0
  0
LTYPE
  5
30
330
5
100
AcDbSymbolTableRecord
100
AcDbLinetypeTableRecord
  2
CENTER_DASH_DASH
 70
     0
  3
Center_Dash_Dash
 72
    65
 73
     6
 40
14.0
 49
9.0
 74
     0
 49
-1.0
 74
     0
 49
1.0
 74
     0
 49
-1.0
 74
     0
 49
1.0
 74
     0
 49
-1.0
 74
     0
  0
ENDTAB
  0
TABLE
  2
LAYER
  5
2
330
0
100
AcDbSymbolTable
 70
     2
  0
LAYER
  5
10
330
2
100
AcDbSymbolTableRecord
100
AcDbLayerTableRecord
  2
0
 70
     0
 62
     7
  6
Continuous
370
    -3
390
F
  0
LAYER
  5
31
330
2
100
AcDbSymbolTableRecord
100
AcDbLayerTableRecord
  2
1
 70
     0
 62
     7
  6
Continuous
370
    -3
390
F
  0
ENDTAB
  0
TABLE
  2
STYLE
  5
3
330
0
100
AcDbSymbolTable
 70
     2
  0
STYLE
  5
11
330
3
100
AcDbSymbolTableRecord
100
AcDbTextStyleTableRecord
  2
Standard
 70
     0
 40
0.0
 41
1.0
 50
0.0
 71
     0
 42
0.2
  3
txt
  4

  0
STYLE
  5
C5
330
3
100
AcDbSymbolTableRecord
100
AcDbTextStyleTableRecord
  2
CONVERTER_11
 70
     0
 40
0.0
 41
0.9
 50
0.0
 71
     0
 42
0.2
  3
txt.shx
  4

  0
ENDTAB
  0
TABLE
  2
VIEW
  5
6
330
0
100
AcDbSymbolTable
 70
     0
  0
ENDTAB
  0
TABLE
  2
UCS
  5
7
330
0
100
AcDbSymbolTable
 70
     0
  0
ENDTAB
  0
TABLE
  2
APPID
  5
9
330
0
100
AcDbSymbolTable
 70
     1
  0
APPID
  5
12
330
9
100
AcDbSymbolTableRecord
100
AcDbRegAppTableRecord
  2
ACAD
 70
     0
  0
ENDTAB
  0
TABLE
  2
DIMSTYLE
  5
A
330
0
100
AcDbSymbolTable
 70
     5
100
AcDbDimStyleTable
  0
DIMSTYLE
105
27
330
A
100
AcDbSymbolTableRecord
100
AcDbDimStyleTableRecord
  2
Standard
 70
     0
340
11
  0
DIMSTYLE
105
C9
102
{ACAD_REACTORS
330
CA
102
}
330
A
100
AcDbSymbolTableRecord
100
AcDbDimStyleTableRecord
  2
ME10_DIM_10
 70
     0
 41
3.5
 42
0.0
 44
2.0
 73
     0
 74
     0
 77
     1
 78
     8
140
3.5
147
2.0
172
     1
173
     1
176
     2
177
     2
178
     2
271
     3
340
C5
  0
DIMSTYLE
105
D4
102
{ACAD_REACTORS
330
D5
102
}
330
A
100
AcDbSymbolTableRecord
100
AcDbDimStyleTableRecord
  2
ME10_DIM_11
 70
     0
 41
3.5
 42
0.0
 44
2.0
 73
     0
 74
     0
 77
     1
 78
     8
140
3.5
147
2.0
172
     1
173
     1
176
     2
177
     2
178
     2
271
     3
340
C5
  0
DIMSTYLE
105
DF
102
{ACAD_REACTORS
330
E0
102
}
330
A
100
AcDbSymbolTableRecord
100
AcDbDimStyleTableRecord
  2
ME10_DIM_12
 70
     0
 41
3.5
 42
0.0
 44
2.0
 73
     0
 74
     0
 77
     1
 78
     8
140
3.5
147
2.0
172
     1
173
     1
176
     2
177
     2
178
     2
271
     3
340
C5
  0
DIMSTYLE
105
EA
102
{ACAD_REACTORS
330
EB
102
}
330
A
100
AcDbSymbolTableRecord
100
AcDbDimStyleTableRecord
  2
ME10_DIM_13
 70
     0
 41
3.5
 42
0.0
 44
2.0
 73
     0
 74
     0
 77
     1
 78
     8
140
3.5
147
2.0
172
     1
173
     1
176
     2
177
     2
178
     2
271
     3
340
C5
  0
ENDTAB
  0
TABLE
  2
BLOCK_RECORD
  5
1
330
0
100
AcDbSymbolTable
 70
     5
  0
BLOCK_RECORD
  5
1F
330
1
100
AcDbSymbolTableRecord
100
AcDbBlockTableRecord
  2
*Model_Space
340
22
  0
BLOCK_RECORD
  5
1B
330
1
100
AcDbSymbolTableRecord
100
AcDbBlockTableRecord
  2
*Paper_Space
340
1E
  0
BLOCK_RECORD
  5
23
330
1
100
AcDbSymbolTableRecord
100
AcDbBlockTableRecord
  2
*Paper_Space0
340
26
  0
BLOCK_RECORD
  5
BF
330
1
100
AcDbSymbolTableRecord
100
AcDbBlockTableRecord
  2
*D1
340
0
  0
BLOCK_RECORD
  5
CB
330
1
100
AcDbSymbolTableRecord
100
AcDbBlockTableRecord
  2
*D2
340
0
  0
BLOCK_RECORD
  5
D6
330
1
100
AcDbSymbolTableRecord
100
AcDbBlockTableRecord
  2
*D3
340
0
  0
BLOCK_RECORD
  5
E1
330
1
100
AcDbSymbolTableRecord
100
AcDbBlockTableRecord
  2
*D4
340
0
  0
ENDTAB
  0
ENDSEC
  0
SECTION
  2
BLOCKS
  0
BLOCK
  5
20
330
1F
100
AcDbEntity
  8
0
100
AcDbBlockBegin
  2
*Model_Space
 70
     0
 71
     0
 10
0.0
 20
0.0
 30
0.0
  3
*Model_Space
  1

  0
ENDBLK
  5
21
330
1F
100
AcDbEntity
  8
0
100
AcDbBlockEnd
  0
BLOCK
  5
1C
330
1B
100
AcDbEntity
 67
     1
  8
0
100
AcDbBlockBegin
  2
*Paper_Space
 70
     0
 71
     0
 10
0.0
 20
0.0
 30
0.0
  3
*Paper_Space
  1

  0
ENDBLK
  5
1D
330
1B
100
AcDbEntity
 67
     1
  8
0
100
AcDbBlockEnd
  0
BLOCK
  5
24
330
23
100
AcDbEntity
  8
0
100
AcDbBlockBegin
  2
*Paper_Space0
 70
     0
 71
     0
 10
0.0
 20
0.0
 30
0.0
  3
*Paper_Space0
  1

  0
ENDBLK
  5
25
330
23
100
AcDbEntity
  8
0
100
AcDbBlockEnd
  0
BLOCK
  5
C7
330
BF
100
AcDbEntity
  8
0
100
AcDbBlockBegin
  2
*D1
 70
     1
 71
     0
 10
0.0
 20
0.0
 30
0.0
  3
*D1
  1

  0
LINE
  5
C0
330
BF
100
AcDbEntity
  8
1
  6
Continuous
 62
     2
100
AcDbLine
 10
-26.2606793112159
 20
149.544379121875
 30
0.0
 11
-26.2606793112159
 21
193.544379121875
 31
0.0
  0
LINE
  5
C1
330
BF
100
AcDbEntity
  8
1
  6
Continuous
 62
     2
100
AcDbLine
 10
-5.96316366776888
 20
149.544379121875
 30
0.0
 11
-28.2606793112159
 21
149.544379121875
 31
0.0
  0
LINE
  5
C2
330
BF
100
AcDbEntity
  8
1
  6
Continuous
 62
     2
100
AcDbLine
 10
41.03683633223112
 20
193.544379121875
 30
0.0
 11
-28.2606793112159
 21
193.544379121875
 31
0.0
  0
SOLID
  5
C3
330
BF
100
AcDbEntity
  8
1
 62
     2
100
AcDbTrace
 10
-26.72146305277179
 20
153.044379121875
 30
0.0
 11
-25.79989556966001
 21
153.044379121875
 31
0.0
 12
-26.2606793112159
 22
149.544379121875
 32
0.0
 13
-26.2606793112159
 23
149.544379121875
 33
0.0
  0
SOLID
  5
C4
330
BF
100
AcDbEntity
  8
1
 62
     2
100
AcDbTrace
 10
-25.79989556966002
 20
190.044379121875
 30
0.0
 11
-26.72146305277179
 21
190.044379121875
 31
0.0
 12
-26.2606793112159
 22
193.544379121875
 32
0.0
 13
-26.2606793112159
 23
193.544379121875
 33
0.0
  0
MTEXT
  5
C6
330
BF
100
AcDbEntity
  8
1
 62
     2
100
AcDbMText
 10
-28.2606793112159
 20
168.915176540369
 30
0.0
 40
3.5
 41
0.0
 71
     7
 72
     1
  1
44
  7
CONVERTER_11
 11
0.0
 21
1.0
 31
0.0
 73
     1
 44
0.60024009603842
  0
ENDBLK
  5
C8
330
BF
100
AcDbEntity
  8
0
100
AcDbBlockEnd
  0
BLOCK
  5
D2
330
CB
100
AcDbEntity
  8
0
100
AcDbBlockBegin
  2
*D2
 70
     1
 71
     0
 10
0.0
 20
0.0
 30
0.0
  3
*D2
  1

  0
LINE
  5
CC
330
CB
100
AcDbEntity
  8
1
  6
Continuous
 62
     2
100
AcDbLine
 10
-15.9567787707824
 20
149.544379121875
 30
0.0
 11
-15.9567787707824
 21
178.544379121875
 31
0.0
  0
LINE
  5
CD
330
CB
100
AcDbEntity
  8
1
  6
Continuous
 62
     2
100
AcDbLine
 10
-5.96316366776888
 20
149.544379121875
 30
0.0
 11
-17.9567787707824
 21
149.544379121875
 31
0.0
  0
LINE
  5
CE
330
CB
100
AcDbEntity
  8
1
  6
Continuous
 62
     2
100
AcDbLine
 10
20.03683633223113
 20
178.544379121875
 30
0.0
 11
-17.9567787707824
 21
178.544379121875
 31
0.0
  0
SOLID
  5
CF
330
CB
100
AcDbEntity
  8
1
 62
     2
100
AcDbTrace
 10
-16.41756251233829
 20
153.044379121875
 30
0.0
 11
-15.49599502922651
 21
153.044379121875
 31
0.0
 12
-15.9567787707824
 22
149.544379121875
 32
0.0
 13
-15.9567787707824
 23
149.544379121875
 33
0.0
  0
SOLID
  5
D0
330
CB
100
AcDbEntity
  8
1
 62
     2
100
AcDbTrace
 10
-15.49599502922652
 20
175.044379121875
 30
0.0
 11
-16.41756251233829
 21
175.044379121875
 31
0.0
 12
-15.9567787707824
 22
178.544379121875
 32
0.0
 13
-15.9567787707824
 23
178.544379121875
 33
0.0
  0
MTEXT
  5
D1
330
CB
100
AcDbEntity
  8
1
 62
     2
100
AcDbMText
 10
-17.9567787707824
 20
161.927473875017
 30
0.0
 40
3.5
 41
0.0
 71
     7
 72
     1
  1
29
  7
CONVERTER_11
 11
0.0
 21
1.0
 31
0.0
 73
     1
 44
0.60024009603842
  0
ENDBLK
  5
D3
330
CB
100
AcDbEntity
  8
0
100
AcDbBlockEnd
  0
BLOCK
  5
DD
330
D6
100
AcDbEntity
  8
0
100
AcDbBlockBegin
  2
*D3
 70
     1
 71
     0
 10
0.0
 20
0.0
 30
0.0
  3
*D3
  1

  0
LINE
  5
D7
330
D6
100
AcDbEntity
  8
1
  6
Continuous
 62
     2
100
AcDbLine
 10
44.03683633223112
 20
130.056561149111
 30
0.0
 11
20.03683633223113
 21
130.056561149111
 31
0.0
  0
LINE
  5
D8
330
D6
100
AcDbEntity
  8
1
  6
Continuous
 62
     2
100
AcDbLine
 10
20.03683633223112
 20
154.544379121875
 30
0.0
 11
20.03683633223112
 21
128.056561149111
 31
0.0
  0
LINE
  5
D9
330
D6
100
AcDbEntity
  8
1
  6
Continuous
 62
     2
100
AcDbLine
 10
44.03683633223112
 20
149.544379121875
 30
0.0
 11
44.03683633223112
 21
128.056561149111
 31
0.0
  0
SOLID
  5
DA
330
D6
100
AcDbEntity
  8
1
 62
     2
100
AcDbTrace
 10
40.53683633223112
 20
129.5957774075551
 30
0.0
 11
40.53683633223112
 21
130.5173448906669
 31
0.0
 12
44.03683633223112
 22
130.056561149111
 32
0.0
 13
44.03683633223112
 23
130.056561149111
 33
0.0
  0
SOLID
  5
DB
330
D6
100
AcDbEntity
  8
1
 62
     2
100
AcDbTrace
 10
23.53683633223113
 20
130.5173448906669
 30
0.0
 11
23.53683633223113
 21
129.5957774075551
 31
0.0
 12
20.03683633223113
 22
130.056561149111
 32
0.0
 13
20.03683633223113
 23
130.056561149111
 33
0.0
  0
MTEXT
  5
DC
330
D6
100
AcDbEntity
  8
1
 62
     2
100
AcDbMText
 10
30.04361434273631
 20
132.056561149111
 30
0.0
 40
3.5
 41
0.0
 71
     7
 72
     1
  1
24
  7
CONVERTER_11
 11
0.9999999999970621
 21
2.424068405545307E-6
 31
0.0
 73
     1
 44
0.60024009603842
  0
ENDBLK
  5
DE
330
D6
100
AcDbEntity
  8
0
100
AcDbBlockEnd
  0
BLOCK
  5
E8
330
E1
100
AcDbEntity
  8
0
100
AcDbBlockBegin
  2
*D4
 70
     1
 71
     0
 10
0.0
 20
0.0
 30
0.0
  3
*D4
  1

  0
LINE
  5
E2
330
E1
100
AcDbEntity
  8
1
  6
Continuous
 62
     2
100
AcDbLine
 10
44.03683633223112
 20
140.499598849597
 30
0.0
 11
34.03683633223112
 21
140.499598849597
 31
0.0
  0
LINE
  5
E3
330
E1
100
AcDbEntity
  8
1
  6
Continuous
 62
     2
100
AcDbLine
 10
34.03683633223112
 20
157.144379121875
 30
0.0
 11
34.03683633223112
 21
138.499598849597
 31
0.0
  0
LINE
  5
E4
330
E1
100
AcDbEntity
  8
1
  6
Continuous
 62
     2
100
AcDbLine
 10
44.03683633223112
 20
149.544379121875
 30
0.0
 11
44.03683633223112
 21
138.499598849597
 31
0.0
  0
SOLID
  5
E5
330
E1
100
AcDbEntity
  8
1
 62
     2
100
AcDbTrace
 10
40.53683633223112
 20
140.0388151080411
 30
0.0
 11
40.53683633223112
 21
140.9603825911529
 31
0.0
 12
44.03683633223112
 22
140.499598849597
 32
0.0
 13
44.03683633223112
 23
140.499598849597
 33
0.0
  0
SOLID
  5
E6
330
E1
100
AcDbEntity
  8
1
 62
     2
100
AcDbTrace
 10
37.53683633223112
 20
140.9603825911529
 30
0.0
 11
37.53683633223112
 21
140.0388151080411
 31
0.0
 12
34.03683633223112
 22
140.499598849597
 32
0.0
 13
34.03683633223112
 23
140.499598849597
 33
0.0
  0
MTEXT
  5
E7
330
E1
100
AcDbEntity
  8
1
 62
     2
100
AcDbMText
 10
36.1739085642456
 20
142.499598849597
 30
0.0
 40
3.5
 41
0.0
 71
     7
 72
     1
  1
10
  7
CONVERTER_11
 11
0.9999999999970621
 21
2.424068405545307E-6
 31
0.0
 73
     1
 44
0.60024009603842
  0
ENDBLK
  5
E9
330
E1
100
AcDbEntity
  8
0
100
AcDbBlockEnd
  0
ENDSEC
  0
SECTION
  2
ENTITIES
  0
LINE
  5
32
330
1F
100
AcDbEntity
  8
1
  6
Continuous
 62
     7
100
AcDbLine
 10
23.03683633223112
 20
171.544379121875
 30
0.0
 11
23.03683633223113
 21
178.544379121875
 31
0.0
  0
LINE
  5
33
330
1F
100
AcDbEntity
  8
1
  6
Continuous
 62
     7
100
AcDbLine
 10
23.03683633223112
 20
161.544379121875
 30
0.0
 11
23.03683633223112
 21
171.544379121875
 31
0.0
  0
LINE
  5
34
330
1F
100
AcDbEntity
  8
1
  6
Continuous
 62
     7
100
AcDbLine
 10
20.03683633223112
 20
164.544379121875
 30
0.0
 11
20.03683633223113
 21
178.544379121875
 31
0.0
  0
LINE
  5
35
330
1F
100
AcDbEntity
  8
1
  6
Continuous
 62
     7
100
AcDbLine
 10
44.03683633223112
 20
158.294379121875
 30
0.0
 11
44.03683633223112
 21
154.544379121875
 31
0.0
  0
LINE
  5
36
330
1F
100
AcDbEntity
  8
1
  6
Continuous
 62
     7
100
AcDbLine
 10
44.03683633223112
 20
192.544379121875
 30
0.0
 11
44.03683633223112
 21
191.544379121875
 31
0.0
  0
LINE
  5
37
330
1F
100
AcDbEntity
  8
1
  6
Continuous
 62
     7
100
AcDbLine
 10
44.03683633223112
 20
168.794379121875
 30
0.0
 11
44.03683633223112
 21
158.294379121875
 31
0.0
  0
LINE
  5
38
330
1F
100
AcDbEntity
  8
1
  6
Continuous
 62
     7
100
AcDbLine
 10
44.03683633223112
 20
194.544379121875
 30
0.0
 11
44.03683633223112
 21
193.544379121875
 31
0.0
  0
LINE
  5
39
330
1F
100
AcDbEntity
  8
1
  6
Continuous
 62
     7
100
AcDbLine
 10
42.03683633223112
 20
158.5443791218751
 30
0.0
 11
42.03683633223112
 21
168.5443791218751
 31
0.0
  0
LINE
  5
3A
330
1F
100
AcDbEntity
  8
1
  6
Continuous
 62
     2
100
AcDbLine
 10
26.03683633223109
 20
161.0443791218751
 30
0.0
 11
38.03683633223112
 21
161.0443791218751
 31
0.0
  0
LINE
  5
3B
330
1F
100
AcDbEntity
  8
1
  6
Continuous
 62
     2
100
AcDbLine
 10
26.0368363322311
 20
166.0443791218751
 30
0.0
 11
38.03683633223113
 21
166.0443791218751
 31
0.0
  0
LINE
  5
3C
330
1F
100
AcDbEntity
  8
1
  6
Continuous
 62
     7
100
AcDbLine
 10
26.03683633223109
 20
161.0443791218751
 30
0.0
 11
26.53683633223109
 21
160.5443791218751
 31
0.0
  0
LINE
  5
3D
330
1F
100
AcDbEntity
  8
1
  6
Continuous
 62
     7
100
AcDbLine
 10
26.5368363322311
 20
166.5443791218751
 30
0.0
 11
26.0368363322311
 21
166.0443791218751
 31
0.0
  0
LINE
  5
3E
330
1F
100
AcDbEntity
  8
1
  6
Continuous
 62
     7
100
AcDbLine
 10
42.03683633223112
 20
168.5443791218751
 30
0.0
 11
38.03683633223113
 21
168.5443791218751
 31
0.0
  0
LINE
  5
3F
330
1F
100
AcDbEntity
  8
1
  6
Continuous
 62
     7
100
AcDbLine
 10
38.03683633223112
 20
158.5443791218751
 30
0.0
 11
42.03683633223112
 21
158.5443791218751
 31
0.0
  0
LINE
  5
40
330
1F
100
AcDbEntity
  8
1
  6
Continuous
 62
     7
100
AcDbLine
 10
26.53683633223109
 20
160.5443791218751
 30
0.0
 11
26.5368363322311
 21
166.5443791218751
 31
0.0
  0
LINE
  5
41
330
1F
100
AcDbEntity
  8
1
  6
DASHED
 62
     2
100
AcDbLine
 10
39.53683633223112
 20
160.7443791218751
 30
0.0
 11
42.03683633223112
 21
160.7443791218751
 31
0.0
  0
LINE
  5
42
330
1F
100
AcDbEntity
  8
1
  6
DASHED
 62
     2
100
AcDbLine
 10
37.92025557850013
 20
163.5443791218751
 30
0.0
 11
39.53683633223112
 21
160.7443791218751
 31
0.0
  0
LINE
  5
43
330
1F
100
AcDbEntity
  8
1
  6
DASHED
 62
     2
100
AcDbLine
 10
39.53683633223113
 20
166.3443791218751
 30
0.0
 11
37.92025557850013
 21
163.5443791218751
 31
0.0
  0
LINE
  5
44
330
1F
100
AcDbEntity
  8
1
  6
DASHED
 62
     2
100
AcDbLine
 10
42.03683633223112
 20
166.3443791218751
 30
0.0
 11
39.53683633223113
 21
166.3443791218751
 31
0.0
  0
LINE
  5
45
330
1F
100
AcDbEntity
  8
1
  6
DASHED
 62
     2
100
AcDbLine
 10
39.53683633223113
 20
165.3443791218751
 30
0.0
 11
42.03683633223112
 21
165.3443791218751
 31
0.0
  0
LINE
  5
46
330
1F
100
AcDbEntity
  8
1
  6
DASHED
 62
     2
100
AcDbLine
 10
39.53683633223113
 20
161.7443791218751
 30
0.0
 11
42.03683633223106
 21
161.7443791218751
 31
0.0
  0
LINE
  5
47
330
1F
100
AcDbEntity
  8
1
  6
DASHED
 62
     2
100
AcDbLine
 10
39.53683633223112
 20
160.7443791218751
 30
0.0
 11
39.53683633223113
 21
166.3443791218751
 31
0.0
  0
LINE
  5
48
330
1F
100
AcDbEntity
  8
1
  6
Continuous
 62
     7
100
AcDbLine
 10
26.0368363322311
 20
166.0443791218751
 30
0.0
 11
26.03683633223109
 21
161.0443791218751
 31
0.0
  0
LINE
  5
49
330
1F
100
AcDbEntity
  8
1
  6
DOT_CENTER
 62
     2
100
AcDbLine
 10
16.88774851355595
 20
163.544379121875
 30
0.0
 11
46.94905518398697
 21
163.544379121875
 31
0.0
  0
LINE
  5
4A
330
1F
100
AcDbEntity
  8
1
  6
Continuous
 62
     7
100
AcDbLine
 10
30.03683633223106
 20
160.5443791218751
 30
0.0
 11
38.03683633223112
 21
160.5443791218751
 31
0.0
  0
LINE
  5
4B
330
1F
100
AcDbEntity
  8
1
  6
Continuous
 62
     7
100
AcDbLine
 10
30.0368363322311
 20
166.5443791218751
 30
0.0
 11
38.03683633223113
 21
166.5443791218751
 31
0.0
  0
LINE
  5
4C
330
1F
100
AcDbEntity
  8
1
  6
Continuous
 62
     7
100
AcDbLine
 10
38.03683633223112
 20
160.0443791218751
 30
0.0
 11
38.03683633223113
 21
167.0443791218751
 31
0.0
  0
LINE
  5
4D
330
1F
100
AcDbEntity
  8
1
  6
Continuous
 62
     7
100
AcDbLine
 10
23.03683633223103
 20
158.544379121875
 30
0.0
 11
26.53683633223108
 21
158.544379121875
 31
0.0
  0
LINE
  5
4E
330
1F
100
AcDbEntity
  8
1
  6
Continuous
 62
     2
100
AcDbLine
 10
23.03683633223103
 20
159.544379121875
 30
0.0
 11
26.53683633223108
 21
159.544379121875
 31
0.0
  0
LINE
  5
4F
330
1F
100
AcDbEntity
  8
1
  6
Continuous
 62
     2
100
AcDbLine
 10
23.03683633223105
 20
173.544379121875
 30
0.0
 11
26.5368363322311
 21
173.544379121875
 31
0.0
  0
LINE
  5
50
330
1F
100
AcDbEntity
  8
1
  6
Continuous
 62
     7
100
AcDbLine
 10
41.03683633223112
 20
174.544379121875
 30
0.0
 11
38.03683633223113
 21
174.544379121875
 31
0.0
  0
LINE
  5
51
330
1F
100
AcDbEntity
  8
1
  6
Continuous
 62
     7
100
AcDbLine
 10
26.5368363322311
 20
174.544379121875
 30
0.0
 11
23.03683633223112
 21
174.544379121875
 31
0.0
  0
LINE
  5
52
330
1F
100
AcDbEntity
  8
1
  6
Continuous
 62
     2
100
AcDbLine
 10
38.03683633223113
 20
173.544379121875
 30
0.0
 11
41.03683633223112
 21
173.544379121875
 31
0.0
  0
LINE
  5
53
330
1F
100
AcDbEntity
  8
1
  6
Continuous
 62
     7
100
AcDbLine
 10
26.53683633223109
 20
160.5443791218751
 30
0.0
 11
26.53683633223108
 21
155.544379121875
 31
0.0
  0
LINE
  5
54
330
1F
100
AcDbEntity
  8
1
  6
Continuous
 62
     7
100
AcDbLine
 10
26.53683633223108
 20
155.544379121875
 30
0.0
 11
30.03683633223106
 21
155.544379121875
 31
0.0
  0
LINE
  5
55
330
1F
100
AcDbEntity
  8
1
  6
Continuous
 62
     7
100
AcDbLine
 10
30.03683633223106
 20
155.544379121875
 30
0.0
 11
30.03683633223106
 21
160.5443791218751
 31
0.0
  0
LINE
  5
56
330
1F
100
AcDbEntity
  8
1
  6
Continuous
 62
     7
100
AcDbLine
 10
30.03683633223106
 20
160.5443791218751
 30
0.0
 11
26.53683633223109
 21
160.5443791218751
 31
0.0
  0
LINE
  5
57
330
1F
100
AcDbEntity
  8
1
  6
Continuous
 62
     7
100
AcDbLine
 10
26.5368363322311
 20
166.5443791218751
 30
0.0
 11
26.5368363322311
 21
177.544379121875
 31
0.0
  0
LINE
  5
58
330
1F
100
AcDbEntity
  8
1
  6
Continuous
 62
     7
100
AcDbLine
 10
26.5368363322311
 20
177.544379121875
 30
0.0
 11
30.03683633223113
 21
177.544379121875
 31
0.0
  0
LINE
  5
59
330
1F
100
AcDbEntity
  8
1
  6
Continuous
 62
     7
100
AcDbLine
 10
30.03683633223113
 20
177.544379121875
 30
0.0
 11
30.0368363322311
 21
166.5443791218751
 31
0.0
  0
LINE
  5
5A
330
1F
100
AcDbEntity
  8
1
  6
Continuous
 62
     7
100
AcDbLine
 10
30.0368363322311
 20
166.5443791218751
 30
0.0
 11
26.5368363322311
 21
166.5443791218751
 31
0.0
  0
LINE
  5
5B
330
1F
100
AcDbEntity
  8
1
  6
Continuous
 62
     7
100
AcDbLine
 10
38.03683633223112
 20
155.544379121875
 30
0.0
 11
34.03683633223112
 21
155.544379121875
 31
0.0
  0
LINE
  5
5C
330
1F
100
AcDbEntity
  8
1
  6
Continuous
 62
     7
100
AcDbLine
 10
34.03683633223112
 20
155.544379121875
 30
0.0
 11
34.03683633223112
 21
157.144379121875
 31
0.0
  0
LINE
  5
5D
330
1F
100
AcDbEntity
  8
1
  6
Continuous
 62
     7
100
AcDbLine
 10
34.03683633223112
 20
157.144379121875
 30
0.0
 11
30.03683633223112
 21
157.144379121875
 31
0.0
  0
LINE
  5
5E
330
1F
100
AcDbEntity
  8
1
  6
Continuous
 62
     7
100
AcDbLine
 10
30.03683633223112
 20
157.144379121875
 30
0.0
 11
30.03683633223106
 21
160.5443791218751
 31
0.0
  0
LINE
  5
5F
330
1F
100
AcDbEntity
  8
1
  6
Continuous
 62
     7
100
AcDbLine
 10
30.03683633223113
 20
175.944379121875
 30
0.0
 11
34.03683633223113
 21
175.944379121875
 31
0.0
  0
LINE
  5
60
330
1F
100
AcDbEntity
  8
1
  6
Continuous
 62
     7
100
AcDbLine
 10
34.03683633223113
 20
175.944379121875
 30
0.0
 11
34.03683633223113
 21
177.544379121875
 31
0.0
  0
LINE
  5
61
330
1F
100
AcDbEntity
  8
1
  6
Continuous
 62
     7
100
AcDbLine
 10
34.03683633223113
 20
177.544379121875
 30
0.0
 11
38.03683633223113
 21
177.544379121875
 31
0.0
  0
LINE
  5
62
330
1F
100
AcDbEntity
  8
1
  6
Continuous
 62
     7
100
AcDbLine
 10
38.03683633223113
 20
177.544379121875
 30
0.0
 11
38.03683633223113
 21
167.0443791218751
 31
0.0
  0
LINE
  5
63
330
1F
100
AcDbEntity
  8
1
  6
Continuous
 62
     7
100
AcDbLine
 10
38.03683633223112
 20
160.0443791218751
 30
0.0
 11
34.03683633223112
 21
160.0443791218751
 31
0.0
  0
LINE
  5
64
330
1F
100
AcDbEntity
  8
1
  6
Continuous
 62
     7
100
AcDbLine
 10
38.03683633223112
 20
160.0443791218751
 30
0.0
 11
38.03683633223112
 21
155.544379121875
 31
0.0
  0
LINE
  5
65
330
1F
100
AcDbEntity
  8
1
  6
Continuous
 62
     7
100
AcDbLine
 10
38.03683633223113
 20
167.0443791218751
 30
0.0
 11
34.03683633223113
 21
167.044379121875
 31
0.0
  0
LINE
  5
66
330
1F
100
AcDbEntity
  8
1
  6
Continuous
 62
     7
100
AcDbLine
 10
34.03683633223112
 20
157.144379121875
 30
0.0
 11
34.03683633223112
 21
160.0443791218751
 31
0.0
  0
LINE
  5
67
330
1F
100
AcDbEntity
  8
1
  6
Continuous
 62
     7
100
AcDbLine
 10
34.03683633223113
 20
175.944379121875
 30
0.0
 11
34.03683633223113
 21
167.044379121875
 31
0.0
  0
LINE
  5
68
330
1F
100
AcDbEntity
  8
1
  6
Continuous
 62
     7
100
AcDbLine
 10
30.0368363322311
 20
166.5443791218751
 30
0.0
 11
30.03683633223113
 21
175.944379121875
 31
0.0
  0
LINE
  5
69
330
1F
100
AcDbEntity
  8
1
  6
Continuous
 62
     7
100
AcDbLine
 10
34.03683633223112
 20
160.0443791218751
 30
0.0
 11
34.03683633223112
 21
160.5443791218751
 31
0.0
  0
LINE
  5
6A
330
1F
100
AcDbEntity
  8
1
  6
Continuous
 62
     7
100
AcDbLine
 10
34.03683633223113
 20
167.044379121875
 30
0.0
 11
34.03683633223113
 21
166.5443791218751
 31
0.0
  0
LINE
  5
6B
330
1F
100
AcDbEntity
  8
1
  6
Continuous
 62
     7
100
AcDbLine
 10
41.03683633223112
 20
154.544379121875
 30
0.0
 11
37.0368363322311
 21
154.544379121875
 31
0.0
  0
LINE
  5
6C
330
1F
100
AcDbEntity
  8
1
  6
Continuous
 62
     7
100
AcDbLine
 10
20.03683633223113
 20
178.544379121875
 30
0.0
 11
23.03683633223113
 21
178.544379121875
 31
0.0
  0
LINE
  5
6D
330
1F
100
AcDbEntity
  8
1
  6
Continuous
 62
     7
100
AcDbLine
 10
23.03683633223112
 20
154.544379121875
 30
0.0
 11
20.03683633223112
 21
154.544379121875
 31
0.0
  0
LINE
  5
6E
330
1F
100
AcDbEntity
  8
1
  6
Continuous
 62
     7
100
AcDbLine
 10
23.03683633223113
 20
178.544379121875
 30
0.0
 11
41.03683633223112
 21
178.544379121875
 31
0.0
  0
LINE
  5
6F
330
1F
100
AcDbEntity
  8
1
  6
Continuous
 62
     7
100
AcDbLine
 10
20.03683633223112
 20
154.544379121875
 30
0.0
 11
20.03683633223112
 21
164.544379121875
 31
0.0
  0
LINE
  5
70
330
1F
100
AcDbEntity
  8
1
  6
Continuous
 62
     7
100
AcDbLine
 10
23.03683633223112
 20
154.544379121875
 30
0.0
 11
23.03683633223112
 21
161.544379121875
 31
0.0
  0
LINE
  5
71
330
1F
100
AcDbEntity
  8
1
  6
Continuous
 62
     7
100
AcDbLine
 10
37.0368363322311
 20
149.544379121875
 30
0.0
 11
37.0368363322311
 21
154.544379121875
 31
0.0
  0
LINE
  5
72
330
1F
100
AcDbEntity
  8
1
  6
Continuous
 62
     7
100
AcDbLine
 10
27.0368363322311
 20
149.544379121875
 30
0.0
 11
27.0368363322311
 21
154.544379121875
 31
0.0
  0
LINE
  5
73
330
1F
100
AcDbEntity
  8
1
  6
Continuous
 62
     7
100
AcDbLine
 10
44.03683633223112
 20
149.544379121875
 30
0.0
 11
37.0368363322311
 21
149.544379121875
 31
0.0
  0
LINE
  5
74
330
1F
100
AcDbEntity
  8
1
  6
Continuous
 62
     7
100
AcDbLine
 10
44.03683633223112
 20
158.294379121875
 30
0.0
 11
41.03683633223112
 21
158.294379121875
 31
0.0
  0
LINE
  5
75
330
1F
100
AcDbEntity
  8
1
  6
Continuous
 62
     7
100
AcDbLine
 10
41.03683633223112
 20
158.294379121875
 30
0.0
 11
41.03683633223112
 21
158.544379121875
 31
0.0
  0
LINE
  5
76
330
1F
100
AcDbEntity
  8
1
  6
Continuous
 62
     7
100
AcDbLine
 10
44.03683633223112
 20
168.794379121875
 30
0.0
 11
41.03683633223112
 21
168.794379121875
 31
0.0
  0
LINE
  5
77
330
1F
100
AcDbEntity
  8
1
  6
Continuous
 62
     7
100
AcDbLine
 10
41.03683633223112
 20
168.794379121875
 30
0.0
 11
41.03683633223112
 21
178.544379121875
 31
0.0
  0
LINE
  5
78
330
1F
100
AcDbEntity
  8
1
  6
Continuous
 62
     7
100
AcDbLine
 10
27.0368363322311
 20
149.544379121875
 30
0.0
 11
20.03683633223113
 21
149.544379121875
 31
0.0
  0
LINE
  5
79
330
1F
100
AcDbEntity
  8
1
  6
Continuous
 62
     7
100
AcDbLine
 10
37.0368363322311
 20
149.544379121875
 30
0.0
 11
27.0368363322311
 21
149.544379121875
 31
0.0
  0
LINE
  5
7A
330
1F
100
AcDbEntity
  8
1
  6
Continuous
 62
     7
100
AcDbLine
 10
41.03683633223112
 20
168.5443791218751
 30
0.0
 11
41.03683633223112
 21
168.794379121875
 31
0.0
  0
LINE
  5
7B
330
1F
100
AcDbEntity
  8
1
  6
Continuous
 62
     7
100
AcDbLine
 10
56.03683633223112
 20
193.544379121875
 30
0.0
 11
45.03683633223112
 21
193.544379121875
 31
0.0
  0
LINE
  5
7C
330
1F
100
AcDbEntity
  8
1
  6
Continuous
 62
     7
100
AcDbLine
 10
45.03683633223112
 20
193.544379121875
 30
0.0
 11
45.03683633223112
 21
192.8123283143061
 31
0.0
  0
LINE
  5
7D
330
1F
100
AcDbEntity
  8
1
  6
Continuous
 62
     7
100
AcDbLine
 10
46.34623740898961
 20
190.544379121875
 30
0.0
 11
45.03683633223112
 21
192.8123283143061
 31
0.0
  0
LINE
  5
7E
330
1F
100
AcDbEntity
  8
1
  6
Continuous
 62
     7
100
AcDbLine
 10
54.7274352554726
 20
190.544379121875
 30
0.0
 11
46.34623740898961
 21
190.544379121875
 31
0.0
  0
LINE
  5
7F
330
1F
100
AcDbEntity
  8
1
  6
Continuous
 62
     7
100
AcDbLine
 10
56.03683633223112
 20
192.8123283143061
 30
0.0
 11
54.7274352554726
 21
190.544379121875
 31
0.0
  0
LINE
  5
80
330
1F
100
AcDbEntity
  8
1
  6
Continuous
 62
     7
100
AcDbLine
 10
56.03683633223112
 20
193.544379121875
 30
0.0
 11
56.03683633223112
 21
192.8123283143061
 31
0.0
  0
LINE
  5
81
330
1F
100
AcDbEntity
  8
1
  6
Continuous
 62
     7
100
AcDbLine
 10
45.76888713980002
 20
189.544379121875
 30
0.0
 11
44.03683633223112
 21
192.544379121875
 31
0.0
  0
LINE
  5
82
330
1F
100
AcDbEntity
  8
1
  6
Continuous
 62
     7
100
AcDbLine
 10
55.30478552466224
 20
189.544379121875
 30
0.0
 11
45.76888713980002
 21
189.544379121875
 31
0.0
  0
LINE
  5
83
330
1F
100
AcDbEntity
  8
1
  6
Continuous
 62
     7
100
AcDbLine
 10
57.03683633223112
 20
192.544379121875
 30
0.0
 11
55.30478552466224
 21
189.544379121875
 31
0.0
  0
LINE
  5
84
330
1F
100
AcDbEntity
  8
1
  6
Continuous
 62
     7
100
AcDbLine
 10
57.03683633223112
 20
194.544379121875
 30
0.0
 11
57.03683633223112
 21
192.544379121875
 31
0.0
  0
LINE
  5
85
330
1F
100
AcDbEntity
  8
1
  6
Continuous
 62
     2
100
AcDbLine
 10
18.99222577901081
 20
169.044379121875
 30
0.0
 11
19.87386068255312
 21
164.044379121875
 31
0.0
  0
LINE
  5
86
330
1F
100
AcDbEntity
  8
1
  6
Continuous
 62
     2
100
AcDbLine
 10
17.46908586118223
 20
169.044379121875
 30
0.0
 11
18.3507207647245
 21
164.044379121875
 31
0.0
  0
LINE
  5
87
330
1F
100
AcDbEntity
  8
1
  6
Continuous
 62
     2
100
AcDbLine
 10
15.94594594335353
 20
169.044379121875
 30
0.0
 11
16.8275808468958
 21
164.044379121875
 31
0.0
  0
LINE
  5
88
330
1F
100
AcDbEntity
  8
1
  6
Continuous
 62
     2
100
AcDbLine
 10
14.42280602552491
 20
169.044379121875
 30
0.0
 11
15.30444092906722
 21
164.044379121875
 31
0.0
  0
LINE
  5
89
330
1F
100
AcDbEntity
  8
1
  6
Continuous
 62
     2
100
AcDbLine
 10
12.89966610769632
 20
169.044379121875
 30
0.0
 11
13.7813010112386
 21
164.044379121875
 31
0.0
  0
LINE
  5
8A
330
1F
100
AcDbEntity
  8
1
  6
Continuous
 62
     2
100
AcDbLine
 10
11.37652618986771
 20
169.044379121875
 30
0.0
 11
12.25816109341001
 21
164.044379121875
 31
0.0
  0
LINE
  5
8B
330
1F
100
AcDbEntity
  8
1
  6
Continuous
 62
     2
100
AcDbLine
 10
9.85338627203912
 20
169.044379121875
 30
0.0
 11
10.7350211755814
 21
164.044379121875
 31
0.0
  0
LINE
  5
8C
330
1F
100
AcDbEntity
  8
1
  6
Continuous
 62
     2
100
AcDbLine
 10
8.33024635421051
 20
169.044379121875
 30
0.0
 11
9.21188125775281
 21
164.044379121875
 31
0.0
  0
LINE
  5
8D
330
1F
100
AcDbEntity
  8
1
  6
Continuous
 62
     2
100
AcDbLine
 10
6.8071064363818
 20
169.044379121875
 30
0.0
 11
7.68874133992422
 21
164.044379121875
 31
0.0
  0
LINE
  5
8E
330
1F
100
AcDbEntity
  8
1
  6
Continuous
 62
     2
100
AcDbLine
 10
5.28396651855322
 20
169.044379121875
 30
0.0
 11
6.16560142209552
 21
164.044379121875
 31
0.0
  0
LINE
  5
8F
330
1F
100
AcDbEntity
  8
1
  6
Continuous
 62
     2
100
AcDbLine
 10
3.7608266007246
 20
169.044379121875
 30
0.0
 11
4.64246150426691
 21
164.044379121875
 31
0.0
  0
LINE
  5
90
330
1F
100
AcDbEntity
  8
1
  6
Continuous
 62
     2
100
AcDbLine
 10
2.23768668289602
 20
169.044379121875
 30
0.0
 11
3.11932158643832
 21
164.044379121875
 31
0.0
  0
LINE
  5
91
330
1F
100
AcDbEntity
  8
1
  6
Continuous
 62
     7
100
AcDbLine
 10
2.32585017325021
 20
164.544379121875
 30
0.0
 11
-1.96316366776888
 21
166.544379121875
 31
0.0
  0
LINE
  5
92
330
1F
100
AcDbEntity
  8
1
  6
Continuous
 62
     7
100
AcDbLine
 10
20.03683633223112
 20
164.544379121875
 30
0.0
 11
2.32585017325021
 21
164.544379121875
 31
0.0
  0
LINE
  5
93
330
1F
100
AcDbEntity
  8
1
  6
Continuous
 62
     7
100
AcDbLine
 10
23.03683633223112
 20
161.544379121875
 30
0.0
 11
20.03683633223112
 21
164.544379121875
 31
0.0
  0
LINE
  5
94
330
1F
100
AcDbEntity
  8
1
  6
Continuous
 62
     7
100
AcDbLine
 10
20.03683633223112
 20
168.544379121875
 30
0.0
 11
23.03683633223112
 21
171.544379121875
 31
0.0
  0
LINE
  5
95
330
1F
100
AcDbEntity
  8
1
  6
Continuous
 62
     7
100
AcDbLine
 10
2.32585017325021
 20
168.544379121875
 30
0.0
 11
20.03683633223112
 21
168.544379121875
 31
0.0
  0
LINE
  5
96
330
1F
100
AcDbEntity
  8
1
  6
Continuous
 62
     7
100
AcDbLine
 10
-1.96316366776888
 20
166.544379121875
 30
0.0
 11
2.32585017325021
 21
168.544379121875
 31
0.0
  0
LINE
  5
97
330
1F
100
AcDbEntity
  8
1
  6
DOT_CENTER
 62
     2
100
AcDbLine
 10
-5.96316366776888
 20
219.544379121875
 30
0.0
 11
-8.65044614106987
 21
219.544379121875
 31
0.0
  0
LINE
  5
98
330
1F
100
AcDbEntity
  8
1
  6
DOT_CENTER
 62
     2
100
AcDbLine
 10
57.03683633223112
 20
219.544379121875
 30
0.0
 11
59.54702443793713
 21
219.544379121875
 31
0.0
  0
LINE
  5
99
330
1F
100
AcDbEntity
  8
1
  6
Continuous
 62
     7
100
AcDbLine
 10
57.03683633223112
 20
194.544379121875
 30
0.0
 11
44.03683633223112
 21
194.544379121875
 31
0.0
  0
LINE
  5
9A
330
1F
100
AcDbEntity
  8
1
  6
Continuous
 62
     7
100
AcDbLine
 10
57.03683633223112
 20
219.544379121875
 30
0.0
 11
57.03683633223112
 21
194.544379121875
 31
0.0
  0
LINE
  5
9B
330
1F
100
AcDbEntity
  8
1
  6
Continuous
 62
     7
100
AcDbLine
 10
-5.96316366776888
 20
149.544379121875
 30
0.0
 11
20.03683633223113
 21
149.544379121875
 31
0.0
  0
LINE
  5
9C
330
1F
100
AcDbEntity
  8
1
  6
Continuous
 62
     7
100
AcDbLine
 10
-5.96316366776888
 20
149.544379121875
 30
0.0
 11
-5.96316366776888
 21
219.544379121875
 31
0.0
  0
LINE
  5
9D
330
1F
100
AcDbEntity
  8
1
  6
DOT_CENTER
 62
     2
100
AcDbLine
 10
-5.96316366776888
 20
219.544379121875
 30
0.0
 11
57.03683633223112
 21
219.544379121875
 31
0.0
  0
LINE
  5
9E
330
1F
100
AcDbEntity
  8
1
  6
DOT_CENTER
 62
     2
100
AcDbLine
 10
24.53683633223112
 20
166.544379121875
 30
0.0
 11
-3.23996955127388
 21
166.544379121875
 31
0.0
  0
LINE
  5
9F
330
1F
100
AcDbEntity
  8
1
  6
Continuous
 62
     7
100
AcDbLine
 10
41.03683633223112
 20
178.544379121875
 30
0.0
 11
41.03683633223112
 21
184.544379121875
 31
0.0
  0
LINE
  5
A0
330
1F
100
AcDbEntity
  8
1
  6
Continuous
 62
     7
100
AcDbLine
 10
41.03683633223112
 20
193.544379121875
 30
0.0
 11
44.03683633223112
 21
193.544379121875
 31
0.0
  0
LINE
  5
A1
330
1F
100
AcDbEntity
  8
1
  6
Continuous
 62
     7
100
AcDbLine
 10
44.03683633223112
 20
193.544379121875
 30
0.0
 11
44.03683633223112
 21
192.544379121875
 31
0.0
  0
LINE
  5
A2
330
1F
100
AcDbEntity
  8
1
  6
Continuous
 62
     7
100
AcDbLine
 10
19.03683633223112
 20
186.544379121875
 30
0.0
 11
23.32585017325021
 21
188.544379121875
 31
0.0
  0
LINE
  5
A3
330
1F
100
AcDbEntity
  8
1
  6
DOT_CENTER
 62
     2
100
AcDbLine
 10
45.53683633223112
 20
186.544379121875
 30
0.0
 11
17.76003044872612
 21
186.544379121875
 31
0.0
  0
LINE
  5
A4
330
1F
100
AcDbEntity
  8
1
  6
Continuous
 62
     7
100
AcDbLine
 10
23.32585017325021
 20
188.544379121875
 30
0.0
 11
41.03683633223112
 21
188.544379121875
 31
0.0
  0
LINE
  5
A5
330
1F
100
AcDbEntity
  8
1
  6
Continuous
 62
     7
100
AcDbLine
 10
41.03683633223112
 20
184.544379121875
 30
0.0
 11
23.32585017325021
 21
184.544379121875
 31
0.0
  0
LINE
  5
A6
330
1F
100
AcDbEntity
  8
1
  6
Continuous
 62
     7
100
AcDbLine
 10
23.32585017325021
 20
184.544379121875
 30
0.0
 11
19.03683633223112
 21
186.544379121875
 31
0.0
  0
LINE
  5
A7
330
1F
100
AcDbEntity
  8
1
  6
Continuous
 62
     2
100
AcDbLine
 10
23.23768668289602
 20
189.044379121875
 30
0.0
 11
24.11932158643832
 21
184.044379121875
 31
0.0
  0
LINE
  5
A8
330
1F
100
AcDbEntity
  8
1
  6
Continuous
 62
     2
100
AcDbLine
 10
24.7608266007246
 20
189.044379121875
 30
0.0
 11
25.64246150426691
 21
184.044379121875
 31
0.0
  0
LINE
  5
A9
330
1F
100
AcDbEntity
  8
1
  6
Continuous
 62
     2
100
AcDbLine
 10
26.28396651855322
 20
189.044379121875
 30
0.0
 11
27.16560142209552
 21
184.044379121875
 31
0.0
  0
LINE
  5
AA
330
1F
100
AcDbEntity
  8
1
  6
Continuous
 62
     2
100
AcDbLine
 10
27.8071064363818
 20
189.044379121875
 30
0.0
 11
28.68874133992422
 21
184.044379121875
 31
0.0
  0
LINE
  5
AB
330
1F
100
AcDbEntity
  8
1
  6
Continuous
 62
     2
100
AcDbLine
 10
29.33024635421051
 20
189.044379121875
 30
0.0
 11
30.21188125775281
 21
184.044379121875
 31
0.0
  0
LINE
  5
AC
330
1F
100
AcDbEntity
  8
1
  6
Continuous
 62
     2
100
AcDbLine
 10
30.85338627203912
 20
189.044379121875
 30
0.0
 11
31.7350211755814
 21
184.044379121875
 31
0.0
  0
LINE
  5
AD
330
1F
100
AcDbEntity
  8
1
  6
Continuous
 62
     2
100
AcDbLine
 10
32.37652618986771
 20
189.044379121875
 30
0.0
 11
33.25816109341001
 21
184.044379121875
 31
0.0
  0
LINE
  5
AE
330
1F
100
AcDbEntity
  8
1
  6
Continuous
 62
     2
100
AcDbLine
 10
33.89966610769632
 20
189.044379121875
 30
0.0
 11
34.7813010112386
 21
184.044379121875
 31
0.0
  0
LINE
  5
AF
330
1F
100
AcDbEntity
  8
1
  6
Continuous
 62
     2
100
AcDbLine
 10
35.42280602552491
 20
189.044379121875
 30
0.0
 11
36.30444092906722
 21
184.044379121875
 31
0.0
  0
LINE
  5
B0
330
1F
100
AcDbEntity
  8
1
  6
Continuous
 62
     2
100
AcDbLine
 10
36.94594594335353
 20
189.044379121875
 30
0.0
 11
37.8275808468958
 21
184.044379121875
 31
0.0
  0
LINE
  5
B1
330
1F
100
AcDbEntity
  8
1
  6
Continuous
 62
     2
100
AcDbLine
 10
38.46908586118223
 20
189.044379121875
 30
0.0
 11
39.3507207647245
 21
184.044379121875
 31
0.0
  0
LINE
  5
B2
330
1F
100
AcDbEntity
  8
1
  6
Continuous
 62
     2
100
AcDbLine
 10
39.99222577901081
 20
189.044379121875
 30
0.0
 11
40.87386068255312
 21
184.044379121875
 31
0.0
  0
LINE
  5
B3
330
1F
100
AcDbEntity
  8
1
  6
Continuous
 62
     7
100
AcDbLine
 10
41.03683633223112
 20
188.544379121875
 30
0.0
 11
44.03683633223112
 21
191.544379121875
 31
0.0
  0
LINE
  5
B4
330
1F
100
AcDbEntity
  8
1
  6
Continuous
 62
     7
100
AcDbLine
 10
44.03683633223112
 20
181.544379121875
 30
0.0
 11
41.03683633223112
 21
184.544379121875
 31
0.0
  0
LINE
  5
B5
330
1F
100
AcDbEntity
  8
1
  6
DOT_CENTER
 62
     2
100
AcDbLine
 10
19.03683633223112
 20
186.544379121875
 30
0.0
 11
17.76003044872612
 21
186.544379121875
 31
0.0
  0
LINE
  5
B6
330
1F
100
AcDbEntity
  8
1
  6
Continuous
 62
     7
100
AcDbLine
 10
41.03683633223112
 20
188.544379121875
 30
0.0
 11
41.03683633223112
 21
193.544379121875
 31
0.0
  0
LINE
  5
B7
330
1F
100
AcDbEntity
  8
1
  6
Continuous
 62
     7
100
AcDbLine
 10
41.03683633223112
 20
184.544379121875
 30
0.0
 11
41.03683633223112
 21
188.544379121875
 31
0.0
  0
LINE
  5
B8
330
1F
100
AcDbEntity
  8
1
  6
Continuous
 62
     7
100
AcDbLine
 10
44.03683633223112
 20
191.544379121875
 30
0.0
 11
44.03683633223112
 21
181.544379121875
 31
0.0
  0
LINE
  5
B9
330
1F
100
AcDbEntity
  8
1
  6
Continuous
 62
     7
100
AcDbLine
 10
44.03683633223112
 20
181.544379121875
 30
0.0
 11
44.03683633223112
 21
168.794379121875
 31
0.0
  0
LINE
  5
BA
330
1F
100
AcDbEntity
  8
1
  6
Continuous
 62
     7
100
AcDbLine
 10
41.03683633223112
 20
154.544379121875
 30
0.0
 11
44.03683633223112
 21
154.544379121875
 31
0.0
  0
LINE
  5
BB
330
1F
100
AcDbEntity
  8
1
  6
Continuous
 62
     7
100
AcDbLine
 10
44.03683633223112
 20
154.544379121875
 30
0.0
 11
44.03683633223112
 21
149.544379121875
 31
0.0
  0
LINE
  5
BC
330
1F
100
AcDbEntity
  8
1
  6
Continuous
 62
     7
100
AcDbLine
 10
41.03683633223112
 20
154.544379121875
 30
0.0
 11
41.03683633223112
 21
158.294379121875
 31
0.0
  0
LINE
  5
BD
330
1F
100
AcDbEntity
  8
1
  6
Continuous
 62
     7
100
AcDbLine
 10
27.0368363322311
 20
154.544379121875
 30
0.0
 11
23.03683633223112
 21
154.544379121875
 31
0.0
  0
LINE
  5
BE
330
1F
100
AcDbEntity
  8
1
  6
Continuous
 62
     7
100
AcDbLine
 10
37.0368363322311
 20
154.544379121875
 30
0.0
 11
27.0368363322311
 21
154.544379121875
 31
0.0
  0
DIMENSION
  5
CA
330
1F
100
AcDbEntity
  8
1
100
AcDbDimension
  2
*D1
 10
-26.2606793112159
 20
149.544379121875
 30
0.0
 11
-30.0106793112159
 21
171.540176540369
 31
0.0
 70
    32
  1
<>
 71
     5
 42
-1.0
 53
90.0
  3
ME10_DIM_10
100
AcDbAlignedDimension
 13
41.03683633223112
 23
193.544379121875
 33
0.0
 14
-5.96316366776888
 24
149.544379121875
 34
0.0
 50
90.0
100
AcDbRotatedDimension
  0
DIMENSION
  5
D5
330
1F
100
AcDbEntity
  8
1
100
AcDbDimension
  2
*D2
 10
-15.9567787707824
 20
149.544379121875
 30
0.0
 11
-19.7067787707824
 21
164.552473875017
 31
0.0
 70
    32
  1
<>
 71
     5
 42
-1.0
 53
90.0
  3
ME10_DIM_11
100
AcDbAlignedDimension
 13
20.03683633223113
 23
178.544379121875
 33
0.0
 14
-5.96316366776888
 24
149.544379121875
 34
0.0
 50
90.0
100
AcDbRotatedDimension
  0
DIMENSION
  5
E0
330
1F
100
AcDbEntity
  8
1
100
AcDbDimension
  2
*D3
 10
44.03683633223112
 20
130.056561149111
 30
0.0
 11
32.66861434273631
 21
133.806561149111
 31
0.0
 70
    32
  1
<>
 71
     5
 42
-1.0
 53
0.00013888888889
  3
ME10_DIM_12
100
AcDbAlignedDimension
 13
20.03683633223112
 23
154.544379121875
 33
0.0
 14
44.03683633223112
 24
149.544379121875
 34
0.0
100
AcDbRotatedDimension
  0
DIMENSION
  5
EB
330
1F
100
AcDbEntity
  8
1
100
AcDbDimension
  2
*D4
 10
44.03683633223112
 20
140.499598849597
 30
0.0
 11
38.2739085642456
 21
144.249598849597
 31
0.0
 70
    32
  1
<>
 71
     5
 42
-1.0
 53
0.00013888888889
  3
ME10_DIM_13
100
AcDbAlignedDimension
 13
34.03683633223112
 23
157.144379121875
 33
0.0
 14
44.03683633223112
 24
149.544379121875
 34
0.0
100
AcDbRotatedDimension
  0
ENDSEC
  0
SECTION
  2
OBJECTS
  0
DICTIONARY
  5
C
330
0
100
AcDbDictionary
281
     1
  3
ACAD_GROUP
350
D
  3
ACAD_LAYOUT
350
1A
  3
ACAD_MLINESTYLE
350
17
  3
ACAD_PLOTSETTINGS
350
19
  3
ACAD_PLOTSTYLENAME
350
E
  0
DICTIONARY
  5
D
102
{ACAD_REACTORS
330
C
102
}
330
C
100
AcDbDictionary
281
     1
  0
DICTIONARY
  5
1A
102
{ACAD_REACTORS
330
C
102
}
330
C
100
AcDbDictionary
281
     1
  3
Layout1
350
1E
  3
Layout2
350
26
  3
Model
350
22
  0
DICTIONARY
  5
17
102
{ACAD_REACTORS
330
C
102
}
330
C
100
AcDbDictionary
281
     1
  3
Standard
350
18
  0
DICTIONARY
  5
19
102
{ACAD_REACTORS
330
C
102
}
330
C
100
AcDbDictionary
281
     1
  0
ACDBDICTIONARYWDFLT
  5
E
102
{ACAD_REACTORS
330
C
102
}
330
C
100
AcDbDictionary
281
     1
  3
Normal
350
F
100
AcDbDictionaryWithDefault
340
F
  0
LAYOUT
  5
1E
102
{ACAD_REACTORS
330
1A
102
}
330
1A
100
AcDbPlotSettings
  1

  2

  4

  6

 40
0.0
 41
0.0
 42
0.0
 43
0.0
 44
0.0
 45
0.0
 46
0.0
 47
0.0
 48
0.0
 49
0.0
140
0.0
141
0.0
142
1.0
143
1.0
 70
   688
 72
     0
 73
     0
 74
     5
  7

 75
    16
 76
     0
 77
     2
 78
   300
147
1.0
148
0.0
149
0.0
100
AcDbLayout
  1
Layout1
 70
     1
 71
     1
 10
0.0
 20
0.0
 11
0.0
 21
0.0
 12
0.0
 22
0.0
 32
0.0
 14
0.0
 24
0.0
 34
0.0
 15
0.0
 25
0.0
 35
0.0
146
0.0
 13
0.0
 23
0.0
 33
0.0
 16
1.0
 26
0.0
 36
0.0
 17
0.0
 27
1.0
 37
0.0
 76
     0
330
1B
  0
LAYOUT
  5
26
102
{ACAD_REACTORS
330
1A
102
}
330
1A
100
AcDbPlotSettings
  1

  2

  4

  6

 40
0.0
 41
0.0
 42
0.0
 43
0.0
 44
0.0
 45
0.0
 46
0.0
 47
0.0
 48
0.0
 49
0.0
140
0.0
141
0.0
142
1.0
143
1.0
 70
   688
 72
     0
 73
     0
 74
     5
  7

 75
    16
 76
     0
 77
     2
 78
   300
147
1.0
148
0.0
149
0.0
100
AcDbLayout
  1
Layout2
 70
     1
 71
     2
 10
0.0
 20
0.0
 11
0.0
 21
0.0
 12
0.0
 22
0.0
 32
0.0
 14
0.0
 24
0.0
 34
0.0
 15
0.0
 25
0.0
 35
0.0
146
0.0
 13
0.0
 23
0.0
 33
0.0
 16
1.0
 26
0.0
 36
0.0
 17
0.0
 27
1.0
 37
0.0
 76
     0
330
23
  0
LAYOUT
  5
22
102
{ACAD_REACTORS
330
1A
102
}
330
1A
100
AcDbPlotSettings
  1

  2

  4

  6

 40
0.0
 41
0.0
 42
0.0
 43
0.0
 44
0.0
 45
0.0
 46
0.0
 47
0.0
 48
0.0
 49
0.0
140
0.0
141
0.0
142
1.0
143
1.0
 70
  1712
 72
     0
 73
     0
 74
     0
  7

 75
     0
 76
     0
 77
     2
 78
   300
147
1.0
148
0.0
149
0.0
100
AcDbLayout
  1
Model
 70
     1
 71
     0
 10
0.0
 20
0.0
 11
0.0
 21
0.0
 12
0.0
 22
0.0
 32
0.0
 14
-31.7606793112159
 24
128.056561149111
 34
0.0
 15
59.54702443793713
 25
219.544379121875
 35
0.0
146
0.0
 13
0.0
 23
0.0
 33
0.0
 16
1.0
 26
0.0
 36
0.0
 17
0.0
 27
1.0
 37
0.0
 76
     0
330
1F
  0
MLINESTYLE
  5
18
102
{ACAD_REACTORS
330
17
102
}
330
17
100
AcDbMlineStyle
  2
Standard
 70
     0
  3

 62
   256
 51
90.0
 52
90.0
 71
     2
 49
0.5
 62
   256
  6
BYLAYER
 49
-0.5
 62
   256
  6
BYLAYER
  0
ACDBPLACEHOLDER
  5
F
102
{ACAD_REACTORS
330
E
102
}
330
E
  0
ENDSEC
  0
EOF
