999
DXF file: d:\tmp\workingDir\0000079723\vx_7749_160_4_40_care_v01_01.dxf
999
Pro/ENGINEER 2016380 by Parametric Technology Corporation
  0
SECTION
  2
HEADER
  9
$ACADVER
  1
AC1014
  9
$DWGCODEPAGE
  3
ANSI_1252
  9
$EXTMAX
 10
145.034
 20
180.086
 30
0.0
  9
$EXTMIN
 10
-0.0
 20
0.0
 30
0.0
  9
$LIMMIN
 10
-0.0
 20
0.0
  9
$LIMMAX
 10
145.034
 20
180.086
  9
$VIEWCTR
 10
72.517
 20
90.043
  9
$VIEWSIZE
 40
180.086
  9
$CLAYER
  8
0
  9
$LTSCALE
 40
11.7389392593
  9
$CELTYPE
  6
BYLAYER
  9
$DIMSCALE
 40
1.0
  9
$DIMASZ
 40
3.5
  9
$DIMEXO
 40
0.0
  9
$DIMDLI
 40
8.1105398519
  9
$DIMEXE
 40
2.0
  9
$DIMCEN
 40
1.9209173333
  9
$DIMLFAC
 40
1.0
  9
$DIMBLK
  1
_ARROW_FILLED
  9
$DIMALT
 70
0
  9
$DIMALTF
 40
25.4
  9
$DIMTXT
 40
3.5
  9
$DIMTOL
 70
1
  9
$DIMLIM
 70
0
  9
$DIMTFAC
 40
1.0
  9
$DIMTP
 40
0.01
  9
$DIMTM
 40
0.01
  9
$DIMGAP
 40
0.625
  9
$AUNITS
 70
0
  9
$PDMODE
 70
0
  9
$PDSIZE
 40
0.04
  9
$HANDSEED
  5
388
  9
$TILEMODE
 70
1
  9
$MEASUREMENT
 70
1
  0
ENDSEC
  0
SECTION
  2
CLASSES
  0
ENDSEC
  0
SECTION
  2
TABLES
  0
TABLE
  2
VPORT
  5
8
100
AcDbSymbolTable
 70
2
  0
VPORT
  5
1F4
100
AcDbSymbolTableRecord
100
AcDbViewportTableRecord
  2
*ACTIVE
 70
0
 10
0.0
 20
0.0
 11
1.0
 21
1.0
 12
72.517
 22
90.043
 13
0.0
 23
0.0
 14
1.0
 24
1.0
 15
0.0
 25
0.0
 16
0.0
 26
0.0
 36
1.0
 17
0.0
 27
0.0
 37
0.0
 40
180.086
 41
0.8053596615
 42
50.0
 43
0.0
 44
0.0
 50
0.0
 51
0.0
 71
0
 72
100
 73
1
 74
1
 75
0
 76
0
 77
0
 78
0
  0
ENDTAB
  0
TABLE
  2
LTYPE
  5
5
100
AcDbSymbolTable
 70
6
  0
LTYPE
  5
14
100
AcDbSymbolTableRecord
100
AcDbLinetypeTableRecord
  2
BYBLOCK
 70
0
  3

 72
65
 73
0
 40
0.0
  0
LTYPE
  5
15
100
AcDbSymbolTableRecord
100
AcDbLinetypeTableRecord
  2
BYLAYER
 70
0
  3

 72
65
 73
0
 40
0.0
  0
LTYPE
  5
16
100
AcDbSymbolTableRecord
100
AcDbLinetypeTableRecord
  2
CONTINUOUS
 70
64
  3
Solid line
 72
65
 73
0
 40
0.0
  0
LTYPE
  5
1F5
100
AcDbSymbolTableRecord
100
AcDbLinetypeTableRecord
  2
CENTER
 70
64
  3
____ _ ____ _ ____ _ ____ _ ____ _ ____ _ ____
 72
65
 73
4
 40
0.6
 49
0.375
 74
0
 49
-0.075
 74
0
 49
0.075
 74
0
 49
-0.075
 74
0
  0
LTYPE
  5
1F6
100
AcDbSymbolTableRecord
100
AcDbLinetypeTableRecord
  2
HIDDEN
 70
64
  3
- - - - - - - - - - - - - - - - - - - -
 72
65
 73
2
 40
0.2
 49
0.1
 74
0
 49
-0.1
 74
0
  0
LTYPE
  5
1F7
100
AcDbSymbolTableRecord
100
AcDbLinetypeTableRecord
  2
PHANTOM
 70
64
  3
_____ _ _ _____ _ _ _____ _ _ _____
 72
65
 73
6
 40
0.8
 49
0.45
 74
0
 49
-0.05
 74
0
 49
0.1
 74
0
 49
-0.05
 74
0
 49
0.1
 74
0
 49
-0.05
 74
0
  0
LTYPE
  5
1F8
100
AcDbSymbolTableRecord
100
AcDbLinetypeTableRecord
  2
DOT
 70
64
  3
. . . . . . . . . . . . . . . . . . . .
 72
65
 73
2
 40
0.2
 49
0.1
 74
0
 49
-0.1
 74
0
  0
LTYPE
  5
1F9
100
AcDbSymbolTableRecord
100
AcDbLinetypeTableRecord
  2
DASHED
 70
64
  3
- - - - - - - - - - - - - - - - - - - -
 72
65
 73
2
 40
0.2
 49
0.1
 74
0
 49
-0.1
 74
0
  0
ENDTAB
  0
TABLE
  2
LAYER
  5
2
100
AcDbSymbolTable
 70
36
  0
LAYER
  5
10
100
AcDbSymbolTableRecord
100
AcDbLayerTableRecord
  2
0
 70
0
 62
7
  6
CONTINUOUS
  0
LAYER
  5
1FA
100
AcDbSymbolTableRecord
100
AcDbLayerTableRecord
  2
DEFAULT_1
 70
0
 62
7
  6
CENTER
  0
LAYER
  5
1FB
100
AcDbSymbolTableRecord
100
AcDbLayerTableRecord
  2
DEFAULT_2
 70
0
 62
8
  6
HIDDEN
  0
LAYER
  5
1FC
100
AcDbSymbolTableRecord
100
AcDbLayerTableRecord
  2
DEFAULT_3
 70
0
 62
7
  6
PHANTOM
  0
LAYER
  5
1FD
100
AcDbSymbolTableRecord
100
AcDbLayerTableRecord
  2
A_ACHSEN
 70
0
 62
7
  6
CONTINUOUS
  0
LAYER
  5
1FE
100
AcDbSymbolTableRecord
100
AcDbLayerTableRecord
  2
A_BASISEBENEN
 70
0
 62
7
  6
CONTINUOUS
  0
LAYER
  5
1FF
100
AcDbSymbolTableRecord
100
AcDbLayerTableRecord
  2
A_BEMASSUNGEN
 70
0
 62
7
  6
CONTINUOUS
  0
LAYER
  5
200
100
AcDbSymbolTableRecord
100
AcDbLayerTableRecord
  2
A_BOHRUNGEN
 70
0
 62
7
  6
CONTINUOUS
  0
LAYER
  5
201
100
AcDbSymbolTableRecord
100
AcDbLayerTableRecord
  2
A_EBENEN
 70
0
 62
7
  6
CONTINUOUS
  0
LAYER
  5
202
100
AcDbSymbolTableRecord
100
AcDbLayerTableRecord
  2
A_FASEN
 70
0
 62
7
  6
CONTINUOUS
  0
LAYER
  5
203
100
AcDbSymbolTableRecord
100
AcDbLayerTableRecord
  2
A_FLAECHEN
 70
0
 62
7
  6
CONTINUOUS
  0
LAYER
  5
204
100
AcDbSymbolTableRecord
100
AcDbLayerTableRecord
  2
A_FL_VERBAENDE
 70
0
 62
7
  6
CONTINUOUS
  0
LAYER
  5
205
100
AcDbSymbolTableRecord
100
AcDbLayerTableRecord
  2
A_KURVEN
 70
0
 62
7
  6
CONTINUOUS
  0
LAYER
  5
206
100
AcDbSymbolTableRecord
100
AcDbLayerTableRecord
  2
A_NOTIZEN_SYMB
 70
0
 62
7
  6
CONTINUOUS
  0
LAYER
  5
207
100
AcDbSymbolTableRecord
100
AcDbLayerTableRecord
  2
A_RUNDUNGEN
 70
0
 62
7
  6
CONTINUOUS
  0
LAYER
  5
208
100
AcDbSymbolTableRecord
100
AcDbLayerTableRecord
  2
A_TABELLEN
 70
0
 62
7
  6
CONTINUOUS
  0
LAYER
  5
209
100
AcDbSymbolTableRecord
100
AcDbLayerTableRecord
  2
B-ACHSEN
 70
0
 62
7
  6
CONTINUOUS
  0
LAYER
  5
20A
100
AcDbSymbolTableRecord
100
AcDbLayerTableRecord
  2
B-EBENEN
 70
0
 62
7
  6
CONTINUOUS
  0
LAYER
  5
20B
100
AcDbSymbolTableRecord
100
AcDbLayerTableRecord
  2
B-KOORSYS
 70
0
 62
7
  6
CONTINUOUS
  0
LAYER
  5
20C
100
AcDbSymbolTableRecord
100
AcDbLayerTableRecord
  2
B-KURVEN
 70
0
 62
7
  6
CONTINUOUS
  0
LAYER
  5
20D
100
AcDbSymbolTableRecord
100
AcDbLayerTableRecord
  2
BASISEBENEN
 70
0
 62
7
  6
CONTINUOUS
  0
LAYER
  5
20E
100
AcDbSymbolTableRecord
100
AcDbLayerTableRecord
  2
BEMASSUNG
 70
0
 62
7
  6
CONTINUOUS
  0
LAYER
  5
20F
100
AcDbSymbolTableRecord
100
AcDbLayerTableRecord
  2
BOHRUNGEN
 70
0
 62
7
  6
CONTINUOUS
  0
LAYER
  5
210
100
AcDbSymbolTableRecord
100
AcDbLayerTableRecord
  2
FLAECHEN
 70
0
 62
7
  6
CONTINUOUS
  0
LAYER
  5
211
100
AcDbSymbolTableRecord
100
AcDbLayerTableRecord
  2
KOERPER
 70
0
 62
7
  6
CONTINUOUS
  0
LAYER
  5
212
100
AcDbSymbolTableRecord
100
AcDbLayerTableRecord
  2
KURVENELEMENTE
 70
0
 62
7
  6
CONTINUOUS
  0
LAYER
  5
213
100
AcDbSymbolTableRecord
100
AcDbLayerTableRecord
  2
RUNDUNGEN
 70
0
 62
7
  6
CONTINUOUS
  0
LAYER
  5
214
100
AcDbSymbolTableRecord
100
AcDbLayerTableRecord
  2
SCHNITTE
 70
0
 62
7
  6
CONTINUOUS
  0
LAYER
  5
215
100
AcDbSymbolTableRecord
100
AcDbLayerTableRecord
  2
STD_CSYS
 70
0
 62
7
  6
CONTINUOUS
  0
LAYER
  5
216
100
AcDbSymbolTableRecord
100
AcDbLayerTableRecord
  2
STD_EBENEN
 70
0
 62
7
  6
CONTINUOUS
  0
LAYER
  5
217
100
AcDbSymbolTableRecord
100
AcDbLayerTableRecord
  2
VERBUNDFLAECHEN
 70
0
 62
7
  6
CONTINUOUS
  0
LAYER
  5
218
100
AcDbSymbolTableRecord
100
AcDbLayerTableRecord
  2
XSEC_DATUMS
 70
0
 62
7
  6
CONTINUOUS
  0
ENDTAB
  0
TABLE
  2
STYLE
  5
3
100
AcDbSymbolTable
 70
1
  0
STYLE
  5
11
100
AcDbSymbolTableRecord
100
AcDbTextStyleTableRecord
  2
STANDARD
 70
0
 40
0.0
 41
1.0
 50
0.0
 71
0
 42
0.2
  3
txt
  4

  0
STYLE
  5
219
100
AcDbSymbolTableRecord
100
AcDbTextStyleTableRecord
  2
TEXTSTYLE_1
 70
0
 40
0.0
 41
0.8
 50
0.0
 71
0
 42
0.2
  3
gdt
  4

  0
STYLE
  5
21A
100
AcDbSymbolTableRecord
100
AcDbTextStyleTableRecord
  2
TEXTSTYLE_2
 70
0
 40
0.0
 41
1.0
 50
0.0
 71
0
 42
0.2
  3
txt
  4

  0
ENDTAB
  0
TABLE
  2
VIEW
  5
6
100
AcDbSymbolTable
 70
0
  0
ENDTAB
  0
TABLE
  2
UCS
  5
7
100
AcDbSymbolTable
 70
0
  0
ENDTAB
  0
TABLE
  2
APPID
  5
9
100
AcDbSymbolTable
 70
1
  0
APPID
  5
21B
100
AcDbSymbolTableRecord
100
AcDbRegAppTableRecord
  2
ACAD
 70
0
  0
ENDTAB
  0
TABLE
  2
BLOCK_RECORD
  5
1
100
AcDbSymbolTable
 70
0
  0
BLOCK_RECORD
  5
1F
100
AcDbSymbolTableRecord
100
AcDbBlockTableRecord
  2
*MODEL_SPACE
  0
BLOCK_RECORD
  5
1B
100
AcDbSymbolTableRecord
100
AcDbBlockTableRecord
  2
*PAPER_SPACE
  0
BLOCK_RECORD
  5
21C
100
AcDbSymbolTableRecord
100
AcDbBlockTableRecord
  2
_ARROW_FILLED
  0
BLOCK_RECORD
  5
21D
100
AcDbSymbolTableRecord
100
AcDbBlockTableRecord
  2
*D0
  0
BLOCK_RECORD
  5
21E
100
AcDbSymbolTableRecord
100
AcDbBlockTableRecord
  2
*D1
  0
BLOCK_RECORD
  5
21F
100
AcDbSymbolTableRecord
100
AcDbBlockTableRecord
  2
*D2
  0
BLOCK_RECORD
  5
220
100
AcDbSymbolTableRecord
100
AcDbBlockTableRecord
  2
*D3
  0
BLOCK_RECORD
  5
221
100
AcDbSymbolTableRecord
100
AcDbBlockTableRecord
  2
*D4
  0
BLOCK_RECORD
  5
222
100
AcDbSymbolTableRecord
100
AcDbBlockTableRecord
  2
*D5
  0
ENDTAB
  0
TABLE
  2
DIMSTYLE
  5
A
100
AcDbSymbolTable
 70
1
  0
DIMSTYLE
105
223
100
AcDbSymbolTableRecord
100
AcDbDimStyleTableRecord
  2
STANDARD
 70
0
  3

  4

  5
_ARROW_FILLED
  6
_ARROW_FILLED
  7
_ARROW_FILLED
 40
1.0
 41
3.5
 42
0.0
 43
0.38
 44
2.0
 45
0.0
 46
0.0
 47
0.01
 48
0.01
140
3.5
141
0.09
142
0.0
143
25.4
144
1.0
145
0.0
146
1.0
147
0.625
 71
1.0
 72
0.0
 73
0
 74
0
 75
0
 76
0
 77
1
 78
8
170
0
171
1
172
0
173
0
174
0
175
0
176
0
177
0
178
5
270
2
271
2
272
2
273
2
274
2
275
0
280
0
281
0
282
0
283
1
284
8
285
0
286
0
287
3
288
0
340
11
  0
DIMSTYLE
105
224
100
AcDbSymbolTableRecord
100
AcDbDimStyleTableRecord
  2
DIMSTYLE_1
 70
0
  3

  4

  5
_ARROW_FILLED
  6
_ARROW_FILLED
  7
_ARROW_FILLED
 40
1.0
 41
3.5
 42
0.0
 43
0.38
 44
2.0
 45
0.0
 46
0.0
 47
0.5
 48
0.5
140
3.5
141
0.09
142
0.0
143
25.4
144
1.0
145
0.0
146
1.0
147
0.875
 71
0.0
 72
0.0
 73
0
 74
0
 75
0
 76
0
 77
1
 78
8
170
0
171
1
172
0
173
0
174
0
175
0
176
0
177
0
178
5
270
2
271
4
272
-1
273
2
274
2
275
0
280
0
281
0
282
0
283
1
284
8
285
0
286
0
287
3
288
0
340
21A
  0
DIMSTYLE
105
225
100
AcDbSymbolTableRecord
100
AcDbDimStyleTableRecord
  2
DIMSTYLE_2
 70
0
  3

  4

  5
_ARROW_FILLED
  6
_ARROW_FILLED
  7
_ARROW_FILLED
 40
1.0
 41
3.5
 42
0.0
 43
0.38
 44
2.0
 45
0.0
 46
0.0
 47
0.3
 48
0.3
140
3.5
141
0.09
142
0.0
143
25.4
144
1.0
145
0.0
146
1.0
147
0.875
 71
0.0
 72
0.0
 73
0
 74
0
 75
0
 76
0
 77
1
 78
8
170
0
171
1
172
0
173
0
174
0
175
0
176
0
177
0
178
5
270
2
271
4
272
-1
273
2
274
2
275
0
280
0
281
0
282
0
283
1
284
8
285
0
286
0
287
3
288
0
340
21A
  0
DIMSTYLE
105
226
100
AcDbSymbolTableRecord
100
AcDbDimStyleTableRecord
  2
DIMSTYLE_3
 70
0
  3

  4

  5
_ARROW_FILLED
  6
_ARROW_FILLED
  7
_ARROW_FILLED
 40
1.0
 41
3.5
 42
0.0
 43
0.38
 44
2.0
 45
0.0
 46
0.0
 47
0.2
 48
0.2
140
3.5
141
0.09
142
0.0
143
25.4
144
1.0
145
0.0
146
1.0
147
0.875
 71
0.0
 72
0.0
 73
0
 74
0
 75
0
 76
0
 77
1
 78
8
170
0
171
1
172
0
173
0
174
0
175
0
176
0
177
0
178
5
270
2
271
4
272
-1
273
2
274
2
275
0
280
0
281
0
282
0
283
1
284
8
285
0
286
0
287
3
288
0
340
21A
  0
ENDTAB
  0
ENDSEC
  0
SECTION
  2
BLOCKS
  0
BLOCK
  5
20
100
AcDbEntity
  8
0
100
AcDbBlockBegin
  2
*MODEL_SPACE
 70
0
 10
0.0
 20
0.0
 30
0.0
  3
*MODEL_SPACE
  1

  0
ENDBLK
  5
21
100
AcDbEntity
  8
0
100
AcDbBlockEnd
  0
BLOCK
  5
1C
100
AcDbEntity
  8
0
100
AcDbBlockBegin
  2
*PAPER_SPACE
 70
0
 10
0.0
 20
0.0
 30
0.0
  3
*PAPER_SPACE
  1

  0
ENDBLK
  5
1D
100
AcDbEntity
  8
0
100
AcDbBlockEnd
  0
BLOCK
  5
227
100
AcDbEntity
  8
0
100
AcDbBlockBegin
  2
_ARROW_FILLED
 70
64
 10
0.0
 20
0.0
  3
_ARROW_FILLED
  1

  0
SOLID
  5
228
100
AcDbEntity
  8
0
  6
BYBLOCK
 62
0
100
AcDbTrace
 10
0.0
 20
0.0
 11
-1.0
 21
0.0940374286
 12
-1.0
 22
-0.0940374286
 13
-1.0
 23
-0.0940374286
  0
ENDBLK
  5
229
100
AcDbEntity
  8
0
  6
BYBLOCK
 62
0
100
AcDbBlockEnd
  0
BLOCK
  5
22A
100
AcDbEntity
  8
A_BEMASSUNGEN
100
AcDbBlockBegin
 62
2
  6
CONTINUOUS
  2
*D0
 70
65
 10
0.0
 20
0.0
  3
*D0
  1

  0
MTEXT
  5
22B
100
AcDbEntity
  8
A_BEMASSUNGEN
100
AcDbMText
 62
5
  6
CONTINUOUS
  7
TEXTSTYLE_2
 71
2
 72
1
 10
6.0941428205
 20
85.9428221627
 30
0.0
 11
0.0
 21
1.0
 31
0.0
  1
160
 40
3.5
 41
11.25
  0
LINE
  5
22C
100
AcDbEntity
  8
A_BEMASSUNGEN
100
AcDbLine
 62
2
  6
CONTINUOUS
 10
43.0384419485
 20
5.9428221627
 11
8.4691428205
 21
5.9428221627
  0
LINE
  5
22D
100
AcDbEntity
  8
A_BEMASSUNGEN
100
AcDbLine
 62
2
  6
CONTINUOUS
 10
43.0384419485
 20
165.9428221627
 11
8.4691428205
 21
165.9428221627
  0
LINE
  5
22E
100
AcDbEntity
  8
A_BEMASSUNGEN
100
AcDbLine
 62
2
  6
CONTINUOUS
 10
10.4691428205
 20
5.9428221627
 11
10.4691428205
 21
85.9428221627
  0
LINE
  5
22F
100
AcDbEntity
  8
A_BEMASSUNGEN
100
AcDbLine
 62
2
  6
CONTINUOUS
 10
10.4691428205
 20
165.9428221627
 11
10.4691428205
 21
85.9428221627
  0
INSERT
  5
230
100
AcDbEntity
  8
A_BEMASSUNGEN
100
AcDbBlockReference
 62
2
  6
CONTINUOUS
  2
_ARROW_FILLED
 10
10.4691428205
 20
5.9428221627
 41
3.5
 42
3.5
 43
3.5
 50
270.0
  0
INSERT
  5
231
100
AcDbEntity
  8
A_BEMASSUNGEN
100
AcDbBlockReference
 62
2
  6
CONTINUOUS
  2
_ARROW_FILLED
 10
10.4691428205
 20
165.9428221627
 41
3.5
 42
3.5
 43
3.5
 50
90.0
  0
ENDBLK
  5
232
100
AcDbEntity
  8
0
  6
BYBLOCK
 62
0
100
AcDbBlockEnd
  0
BLOCK
  5
233
100
AcDbEntity
  8
A_BEMASSUNGEN
100
AcDbBlockBegin
 62
2
  6
CONTINUOUS
  2
*D1
 70
65
 10
0.0
 20
0.0
  3
*D1
  1

  0
MTEXT
  5
234
100
AcDbEntity
  8
A_BEMASSUNGEN
100
AcDbMText
 62
5
  6
CONTINUOUS
  7
TEXTSTYLE_2
 71
2
 72
1
 10
135.3185473007
 20
85.9428221627
 30
0.0
 11
0.0
 21
1.0
 31
0.0
  1
84
 40
3.5
 41
8.25
  0
LINE
  5
235
100
AcDbEntity
  8
A_BEMASSUNGEN
100
AcDbLine
 62
2
  6
CONTINUOUS
 10
116.556391141
 20
43.9428221627
 11
141.6935473007
 21
43.9428221627
  0
LINE
  5
236
100
AcDbEntity
  8
A_BEMASSUNGEN
100
AcDbLine
 62
2
  6
CONTINUOUS
 10
116.556391141
 20
127.9428221627
 11
141.6935473007
 21
127.9428221627
  0
LINE
  5
237
100
AcDbEntity
  8
A_BEMASSUNGEN
100
AcDbLine
 62
2
  6
CONTINUOUS
 10
139.6935473007
 20
43.9428221627
 11
139.6935473007
 21
85.9428221627
  0
LINE
  5
238
100
AcDbEntity
  8
A_BEMASSUNGEN
100
AcDbLine
 62
2
  6
CONTINUOUS
 10
139.6935473007
 20
127.9428221627
 11
139.6935473007
 21
85.9428221627
  0
INSERT
  5
239
100
AcDbEntity
  8
A_BEMASSUNGEN
100
AcDbBlockReference
 62
2
  6
CONTINUOUS
  2
_ARROW_FILLED
 10
139.6935473007
 20
43.9428221627
 41
3.5
 42
3.5
 43
3.5
 50
270.0
  0
INSERT
  5
23A
100
AcDbEntity
  8
A_BEMASSUNGEN
100
AcDbBlockReference
 62
2
  6
CONTINUOUS
  2
_ARROW_FILLED
 10
139.6935473007
 20
127.9428221627
 41
3.5
 42
3.5
 43
3.5
 50
90.0
  0
ENDBLK
  5
23B
100
AcDbEntity
  8
0
  6
BYBLOCK
 62
0
100
AcDbBlockEnd
  0
BLOCK
  5
23C
100
AcDbEntity
  8
A_BEMASSUNGEN
100
AcDbBlockBegin
 62
2
  6
CONTINUOUS
  2
*D2
 70
65
 10
0.0
 20
0.0
  3
*D2
  1

  0
MTEXT
  5
23D
100
AcDbEntity
  8
A_BEMASSUNGEN
100
AcDbMText
 62
5
  6
CONTINUOUS
  7
TEXTSTYLE_2
 71
2
 72
1
 10
126.0780423931
 20
71.0080137684
 30
0.0
 11
0.0
 21
1.0
 31
0.0
  1
28
 40
3.5
 41
8.25
  0
LINE
  5
23E
100
AcDbEntity
  8
A_BEMASSUNGEN
100
AcDbLine
 62
2
  6
CONTINUOUS
 10
122.2884419485
 20
57.9428221627
 11
132.4530423931
 21
57.9428221627
  0
LINE
  5
23F
100
AcDbEntity
  8
A_BEMASSUNGEN
100
AcDbLine
 62
2
  6
CONTINUOUS
 10
124.2884419485
 20
85.9428221627
 11
132.4530423931
 21
85.9428221627
  0
LINE
  5
240
100
AcDbEntity
  8
A_BEMASSUNGEN
100
AcDbLine
 62
2
  6
CONTINUOUS
 10
130.4530423931
 20
57.9428221627
 11
130.4530423931
 21
71.9428221627
  0
LINE
  5
241
100
AcDbEntity
  8
A_BEMASSUNGEN
100
AcDbLine
 62
2
  6
CONTINUOUS
 10
130.4530423931
 20
85.9428221627
 11
130.4530423931
 21
71.9428221627
  0
INSERT
  5
242
100
AcDbEntity
  8
A_BEMASSUNGEN
100
AcDbBlockReference
 62
2
  6
CONTINUOUS
  2
_ARROW_FILLED
 10
130.4530423931
 20
57.9428221627
 41
3.5
 42
3.5
 43
3.5
 50
270.0
  0
INSERT
  5
243
100
AcDbEntity
  8
A_BEMASSUNGEN
100
AcDbBlockReference
 62
2
  6
CONTINUOUS
  2
_ARROW_FILLED
 10
130.4530423931
 20
85.9428221627
 41
3.5
 42
3.5
 43
3.5
 50
90.0
  0
ENDBLK
  5
244
100
AcDbEntity
  8
0
  6
BYBLOCK
 62
0
100
AcDbBlockEnd
  0
BLOCK
  5
245
100
AcDbEntity
  8
A_BEMASSUNGEN
100
AcDbBlockBegin
 62
2
  6
CONTINUOUS
  2
*D3
 70
65
 10
0.0
 20
0.0
  3
*D3
  1

  0
MTEXT
  5
246
100
AcDbEntity
  8
A_BEMASSUNGEN
100
AcDbMText
 62
5
  6
CONTINUOUS
  7
TEXTSTYLE_2
 71
2
 72
1
 10
126.0780423931
 20
99.9428221627
 30
0.0
 11
0.0
 21
1.0
 31
0.0
  1
28
 40
3.5
 41
8.25
  0
LINE
  5
247
100
AcDbEntity
  8
A_BEMASSUNGEN
100
AcDbLine
 62
2
  6
CONTINUOUS
 10
124.2884419485
 20
85.9428221627
 11
132.4530423931
 21
85.9428221627
  0
LINE
  5
248
100
AcDbEntity
  8
A_BEMASSUNGEN
100
AcDbLine
 62
2
  6
CONTINUOUS
 10
122.2884419485
 20
113.9428221627
 11
132.4530423931
 21
113.9428221627
  0
LINE
  5
249
100
AcDbEntity
  8
A_BEMASSUNGEN
100
AcDbLine
 62
2
  6
CONTINUOUS
 10
130.4530423931
 20
85.9428221627
 11
130.4530423931
 21
99.9428221627
  0
LINE
  5
24A
100
AcDbEntity
  8
A_BEMASSUNGEN
100
AcDbLine
 62
2
  6
CONTINUOUS
 10
130.4530423931
 20
113.9428221627
 11
130.4530423931
 21
99.9428221627
  0
INSERT
  5
24B
100
AcDbEntity
  8
A_BEMASSUNGEN
100
AcDbBlockReference
 62
2
  6
CONTINUOUS
  2
_ARROW_FILLED
 10
130.4530423931
 20
85.9428221627
 41
3.5
 42
3.5
 43
3.5
 50
270.0
  0
INSERT
  5
24C
100
AcDbEntity
  8
A_BEMASSUNGEN
100
AcDbBlockReference
 62
2
  6
CONTINUOUS
  2
_ARROW_FILLED
 10
130.4530423931
 20
113.9428221627
 41
3.5
 42
3.5
 43
3.5
 50
90.0
  0
ENDBLK
  5
24D
100
AcDbEntity
  8
0
  6
BYBLOCK
 62
0
100
AcDbBlockEnd
  0
BLOCK
  5
24E
100
AcDbEntity
  8
A_BEMASSUNGEN
100
AcDbBlockBegin
 62
2
  6
CONTINUOUS
  2
*D4
 70
65
 10
0.0
 20
0.0
  3
*D4
  1

  0
MTEXT
  5
24F
100
AcDbEntity
  8
A_BEMASSUNGEN
100
AcDbMText
 62
5
  6
CONTINUOUS
  7
TEXTSTYLE_2
 71
2
 72
1
 10
79.7608430594
 20
176.7191688771
 30
0.0
 11
1.0
 21
0.0
 31
0.0
  1
ø22.5
 40
3.5
 41
20.25
  0
LINE
  5
250
100
AcDbEntity
  8
A_BEMASSUNGEN
100
AcDbLine
 62
2
  6
CONTINUOUS
 10
90.7884419485
 20
160.8610347341
 11
90.7884419485
 21
174.3441688771
  0
LINE
  5
251
100
AcDbEntity
  8
A_BEMASSUNGEN
100
AcDbLine
 62
2
  6
CONTINUOUS
 10
68.2884419485
 20
161.7452239467
 11
68.2884419485
 21
174.3441688771
  0
LINE
  5
252
100
AcDbEntity
  8
A_BEMASSUNGEN
100
AcDbLine
 62
2
  6
CONTINUOUS
 10
90.7884419485
 20
172.3441688771
 11
79.5384419485
 21
172.3441688771
  0
LINE
  5
253
100
AcDbEntity
  8
A_BEMASSUNGEN
100
AcDbLine
 62
2
  6
CONTINUOUS
 10
68.2884419485
 20
172.3441688771
 11
79.5384419485
 21
172.3441688771
  0
INSERT
  5
254
100
AcDbEntity
  8
A_BEMASSUNGEN
100
AcDbBlockReference
 62
2
  6
CONTINUOUS
  2
_ARROW_FILLED
 10
90.7884419485
 20
172.3441688771
 41
3.5
 42
3.5
 43
3.5
  0
INSERT
  5
255
100
AcDbEntity
  8
A_BEMASSUNGEN
100
AcDbBlockReference
 62
2
  6
CONTINUOUS
  2
_ARROW_FILLED
 10
68.2884419485
 20
172.3441688771
 41
3.5
 42
3.5
 43
3.5
 50
180.0
  0
ENDBLK
  5
256
100
AcDbEntity
  8
0
  6
BYBLOCK
 62
0
100
AcDbBlockEnd
  0
BLOCK
  5
257
100
AcDbEntity
  8
A_BEMASSUNGEN
100
AcDbBlockBegin
 62
2
  6
CONTINUOUS
  2
*D5
 70
65
 10
0.0
 20
0.0
  3
*D5
  1

  0
MTEXT
  5
258
100
AcDbEntity
  8
A_BEMASSUNGEN
100
AcDbMText
 62
5
  6
CONTINUOUS
  7
TEXTSTYLE_2
 71
2
 72
1
 10
17.3675382541
 20
125.9428221627
 30
0.0
 11
0.0
 21
1.0
 31
0.0
  1
80
 40
3.5
 41
8.25
  0
LINE
  5
259
100
AcDbEntity
  8
A_BEMASSUNGEN
100
AcDbLine
 62
2
  6
CONTINUOUS
 10
43.0384419485
 20
165.9428221627
 11
19.7425382541
 21
165.9428221627
  0
LINE
  5
25A
100
AcDbEntity
  8
A_BEMASSUNGEN
100
AcDbLine
 62
2
  6
CONTINUOUS
 10
29.8884419485
 20
85.9428221627
 11
19.7425382541
 21
85.9428221627
  0
LINE
  5
25B
100
AcDbEntity
  8
A_BEMASSUNGEN
100
AcDbLine
 62
2
  6
CONTINUOUS
 10
21.7425382541
 20
165.9428221627
 11
21.7425382541
 21
125.9428221627
  0
LINE
  5
25C
100
AcDbEntity
  8
A_BEMASSUNGEN
100
AcDbLine
 62
2
  6
CONTINUOUS
 10
21.7425382541
 20
85.9428221627
 11
21.7425382541
 21
125.9428221627
  0
INSERT
  5
25D
100
AcDbEntity
  8
A_BEMASSUNGEN
100
AcDbBlockReference
 62
2
  6
CONTINUOUS
  2
_ARROW_FILLED
 10
21.7425382541
 20
165.9428221627
 41
3.5
 42
3.5
 43
3.5
 50
90.0
  0
INSERT
  5
25E
100
AcDbEntity
  8
A_BEMASSUNGEN
100
AcDbBlockReference
 62
2
  6
CONTINUOUS
  2
_ARROW_FILLED
 10
21.7425382541
 20
85.9428221627
 41
3.5
 42
3.5
 43
3.5
 50
270.0
  0
ENDBLK
  5
25F
100
AcDbEntity
  8
0
  6
BYBLOCK
 62
0
100
AcDbBlockEnd
  0
ENDSEC
  0
SECTION
  2
ENTITIES
  0
DIMENSION
  5
260
100
AcDbEntity
  8
A_BEMASSUNGEN
100
AcDbDimension
 62
2
  6
CONTINUOUS
  2
*D0
 10
10.4691428205
 20
165.9428221627
 11
10.4691428205
 21
85.4428222406
 70
160
  3
DIMSTYLE_1
100
AcDbAlignedDimension
 13
43.0384419485
 23
5.9428221627
 14
43.0384419485
 24
165.9428221627
 50
90.0
100
AcDbRotatedDimension
  0
DIMENSION
  5
261
100
AcDbEntity
  8
A_BEMASSUNGEN
100
AcDbDimension
 62
2
  6
CONTINUOUS
  2
*D1
 10
139.6935473007
 20
127.9428221627
 11
139.6935473007
 21
85.4428202198
 70
160
  3
DIMSTYLE_2
100
AcDbAlignedDimension
 13
116.556391141
 23
43.9428221627
 14
116.556391141
 24
127.9428221627
 50
90.0
100
AcDbRotatedDimension
  0
DIMENSION
  5
262
100
AcDbEntity
  8
A_BEMASSUNGEN
100
AcDbDimension
 62
2
  6
CONTINUOUS
  2
*D2
 10
130.4530423931
 20
85.9428221627
 11
130.4530423931
 21
70.5080101827
 70
160
  3
DIMSTYLE_3
100
AcDbAlignedDimension
 13
122.2884419485
 23
57.9428221627
 14
124.2884419485
 24
85.9428221627
 50
90.0
100
AcDbRotatedDimension
  0
DIMENSION
  5
263
100
AcDbEntity
  8
A_BEMASSUNGEN
100
AcDbDimension
 62
2
  6
CONTINUOUS
  2
*D3
 10
130.4530423931
 20
113.9428221627
 11
130.4530423931
 21
99.442818577
 70
160
  3
DIMSTYLE_3
100
AcDbAlignedDimension
 13
124.2884419485
 23
85.9428221627
 14
122.2884419485
 24
113.9428221627
 50
90.0
100
AcDbRotatedDimension
  0
DIMENSION
  5
264
100
AcDbEntity
  8
A_BEMASSUNGEN
100
AcDbDimension
 62
2
  6
CONTINUOUS
  2
*D4
 10
68.2884419485
 20
172.3441688771
 11
79.7608430594
 21
172.3441688771
 70
160
  1
ø<>
  3
DIMSTYLE_3
100
AcDbAlignedDimension
 13
90.7884419485
 23
160.8610347341
 14
68.2884419485
 24
161.7452239467
 50
180.0
100
AcDbRotatedDimension
  0
DIMENSION
  5
265
100
AcDbEntity
  8
A_BEMASSUNGEN
100
AcDbDimension
 62
2
  6
CONTINUOUS
  2
*D5
 10
21.7425382541
 20
85.9428221627
 11
21.7425382541
 21
125.4428208182
 70
160
  3
DIMSTYLE_2
100
AcDbAlignedDimension
 13
43.0384419485
 23
165.9428221627
 14
29.8884419485
 24
85.9428221627
 50
270.0
100
AcDbRotatedDimension
  0
MTEXT
  5
266
100
AcDbEntity
  8
A_NOTIZEN_SYMB
100
AcDbMText
 62
5
  6
CONTINUOUS
  7
TEXTSTYLE_2
 71
1
 72
1
 10
40.8251865727
 20
76.3728757276
 30
0.0
 11
1.0
 21
0.0
 31
0.0
  1
TZ
 40
2.5
 41
6.875
  0
MTEXT
  5
267
100
AcDbEntity
  8
A_NOTIZEN_SYMB
100
AcDbMText
 62
5
  6
CONTINUOUS
  7
TEXTSTYLE_2
 71
1
 72
1
 10
69.3156066415
 20
90.6809936317
 30
0.0
 11
1.0
 21
0.0
 31
0.0
  1
BBL
 40
2.5
 41
9.0178571429
  0
LINE
  5
268
100
AcDbEntity
  8
0
100
AcDbLine
 62
7
  6
CONTINUOUS
 10
38.2506860067
 20
154.3517188708
 11
39.3997098772
 21
155.1603300421
  0
LINE
  5
269
100
AcDbEntity
  8
A_RUNDUNGEN
100
AcDbLine
 62
7
  6
CONTINUOUS
 10
90.7887324958
 20
5.9428221627
 11
68.2884743764
 21
5.9428221627
  0
LINE
  5
26A
100
AcDbEntity
  8
A_ACHSEN
100
AcDbLine
 62
3
  6
CONTINUOUS
 10
43.0384419485
 20
5.9428221627
 11
67.5384419485
 21
5.9428221627
  0
LINE
  5
26B
100
AcDbEntity
  8
0
100
AcDbLine
 62
3
  6
CONTINUOUS
 10
67.5384419485
 20
5.9428221627
 11
68.2884743764
 21
5.9428221627
  0
LINE
  5
26C
100
AcDbEntity
  8
0
100
AcDbLine
 62
7
  6
CONTINUOUS
 10
46.1347630066
 20
14.2682338344
 11
44.7505059934
 21
14.5089419624
  0
LINE
  5
26D
100
AcDbEntity
  8
0
100
AcDbLine
 62
7
  6
CONTINUOUS
 10
39.3997098772
 20
16.7253142832
 11
38.2506860067
 21
17.5339254545
  0
LINE
  5
26E
100
AcDbEntity
  8
0
100
AcDbLine
 62
7
  6
CONTINUOUS
 10
41.8209340691
 20
157.581554234
 11
42.6295452404
 21
158.7305781045
  0
LINE
  5
26F
100
AcDbEntity
  8
0
100
AcDbLine
 62
7
  6
CONTINUOUS
 10
47.8261978904
 20
153.5339254545
 11
46.6771740199
 21
152.7253142832
  0
LINE
  5
270
100
AcDbEntity
  8
A_ACHSEN
100
AcDbLine
 62
7
  6
CENTER
 10
43.0384419485
 20
17.9428221627
 11
33.8884419485
 21
17.9428221627
  0
LINE
  5
271
100
AcDbEntity
  8
A_ACHSEN
100
AcDbLine
 62
7
  6
CENTER
 10
43.0384419485
 20
17.9428221627
 11
52.1884419485
 21
17.9428221627
  0
LINE
  5
272
100
AcDbEntity
  8
0
100
AcDbLine
 62
7
  6
CONTINUOUS
 10
39.9421208905
 20
21.6174104909
 11
41.3263779037
 21
21.3767023629
  0
LINE
  5
273
100
AcDbEntity
  8
0
100
AcDbLine
 62
7
  6
CONTINUOUS
 10
46.6771740199
 20
19.1603300421
 11
47.8261978904
 21
18.3517188708
  0
LINE
  5
274
100
AcDbEntity
  8
0
100
AcDbLine
 62
7
  6
CONTINUOUS
 10
42.6295452404
 20
13.1550662208
 11
41.8209340691
 21
14.3040900914
  0
LINE
  5
275
100
AcDbEntity
  8
0
100
AcDbLine
 62
7
  6
CONTINUOUS
 10
44.255949828
 20
150.3040900914
 11
43.4473386567
 21
149.1550662208
  0
LINE
  5
276
100
AcDbEntity
  8
0
100
AcDbLine
 62
7
  6
CONTINUOUS
 10
41.3263779037
 20
14.5089419624
 11
39.9421208905
 21
14.2682338344
  0
LINE
  5
277
100
AcDbEntity
  8
0
100
AcDbLine
 62
7
  6
CONTINUOUS
 10
43.4473386567
 20
22.7305781045
 11
44.255949828
 21
21.581554234
  0
LINE
  5
278
100
AcDbEntity
  8
0
100
AcDbLine
 62
7
  6
CONTINUOUS
 10
44.7505059934
 20
21.3767023629
 11
46.1347630066
 21
21.6174104909
  0
LINE
  5
279
100
AcDbEntity
  8
0
100
AcDbLine
 62
7
  6
CONTINUOUS
 10
120.2884419485
 20
44.9428221627
 11
116.556391141
 21
43.9428221627
  0
LINE
  5
27A
100
AcDbEntity
  8
A_ACHSEN
100
AcDbLine
 62
3
  6
CONTINUOUS
 10
31.0384419485
 20
17.9428221627
 11
31.0384419485
 21
153.9428221627
  0
LINE
  5
27B
100
AcDbEntity
  8
0
100
AcDbLine
 62
7
  6
CONTINUOUS
 10
39.3638536203
 20
150.8465011046
 11
39.6045617483
 21
152.2307581178
  0
LINE
  5
27C
100
AcDbEntity
  8
0
100
AcDbLine
 62
7
  6
CONTINUOUS
 10
48.2506860067
 20
120.3517188708
 11
49.3997098772
 21
121.1603300421
  0
LINE
  5
27D
100
AcDbEntity
  8
A_RUNDUNGEN
100
AcDbLine
 62
7
  6
CONTINUOUS
 10
90.7887324958
 20
43.0428221627
 11
68.2884743764
 21
43.0428221627
  0
LINE
  5
27E
100
AcDbEntity
  8
0
100
AcDbLine
 62
7
  6
CONTINUOUS
 10
49.3997098772
 20
50.7253142832
 11
48.2506860067
 21
51.5339254545
  0
LINE
  5
27F
100
AcDbEntity
  8
0
100
AcDbLine
 62
7
  6
CONTINUOUS
 10
39.6045617483
 20
19.6548862075
 11
39.3638536203
 21
21.0391432207
  0
LINE
  5
280
100
AcDbEntity
  8
A_ACHSEN
100
AcDbLine
 62
7
  6
CENTER
 10
39.0384419485
 20
85.9428221627
 11
39.0384419485
 21
76.7928221627
  0
LINE
  5
281
100
AcDbEntity
  8
A_ACHSEN
100
AcDbLine
 62
7
  6
CENTER
 10
39.0384419485
 20
85.9428221627
 11
39.0384419485
 21
95.0928221627
  0
LINE
  5
282
100
AcDbEntity
  8
0
100
AcDbLine
 62
7
  6
CONTINUOUS
 10
46.7130302768
 20
157.0391432207
 11
46.4723221488
 21
155.6548862075
  0
LINE
  5
283
100
AcDbEntity
  8
0
100
AcDbLine
 62
7
  6
CONTINUOUS
 10
35.3638536203
 20
82.8465011046
 11
35.6045617483
 21
84.2307581178
  0
LINE
  5
284
100
AcDbEntity
  8
0
100
AcDbLine
 62
7
  6
CONTINUOUS
 10
51.8209340691
 20
123.581554234
 11
52.6295452404
 21
124.7305781045
  0
LINE
  5
285
100
AcDbEntity
  8
0
100
AcDbLine
 62
7
  6
CONTINUOUS
 10
57.8261978904
 20
119.5339254545
 11
56.6771740199
 21
118.7253142832
  0
LINE
  5
286
100
AcDbEntity
  8
A_ACHSEN
100
AcDbLine
 62
7
  6
CONTINUOUS
 10
69.8147242892
 20
43.1428221627
 11
89.2621596079
 21
43.1428221627
  0
LINE
  5
287
100
AcDbEntity
  8
0
100
AcDbLine
 62
7
  6
CONTINUOUS
 10
116.556391141
 20
43.9428221627
 11
91.2884419485
 21
43.9428221627
  0
LINE
  5
288
100
AcDbEntity
  8
A_ACHSEN
100
AcDbLine
 62
7
  6
CONTINUOUS
 10
91.2884419485
 20
43.9428221627
 11
86.7884419485
 21
43.9428221627
  0
LINE
  5
289
100
AcDbEntity
  8
A_ACHSEN
100
AcDbLine
 62
3
  6
CONTINUOUS
 10
68.2887334157
 20
43.9428221627
 11
86.6884419485
 21
43.9428221627
  0
LINE
  5
28A
100
AcDbEntity
  8
A_ACHSEN
100
AcDbLine
 62
7
  6
CONTINUOUS
 10
86.7884419485
 20
44.4831993076
 11
86.6884419485
 21
44.4831993076
  0
LINE
  5
28B
100
AcDbEntity
  8
A_ACHSEN
100
AcDbLine
 62
7
  6
CONTINUOUS
 10
86.7884419485
 20
44.5428221627
 11
86.6884419485
 21
44.5428221627
  0
LINE
  5
28C
100
AcDbEntity
  8
A_ACHSEN
100
AcDbLine
 62
7
  6
CONTINUOUS
 10
86.7884419485
 20
45.3428221627
 11
86.6884419485
 21
45.3428221627
  0
LINE
  5
28D
100
AcDbEntity
  8
0
100
AcDbLine
 62
7
  6
CONTINUOUS
 10
86.7884419485
 20
46.8583666193
 11
86.6884419485
 21
46.8583666193
  0
LINE
  5
28E
100
AcDbEntity
  8
0
100
AcDbLine
 62
7
  6
CONTINUOUS
 10
56.1347630066
 20
48.2682338344
 11
54.7505059934
 21
48.5089419624
  0
LINE
  5
28F
100
AcDbEntity
  8
0
100
AcDbLine
 62
7
  6
CONTINUOUS
 10
56.6771740199
 20
53.1603300421
 11
57.8261978904
 21
52.3517188708
  0
LINE
  5
290
100
AcDbEntity
  8
0
100
AcDbLine
 62
7
  6
CONTINUOUS
 10
52.6295452404
 20
47.1550662208
 11
51.8209340691
 21
48.3040900914
  0
LINE
  5
291
100
AcDbEntity
  8
0
100
AcDbLine
 62
7
  6
CONTINUOUS
 10
46.4723221488
 20
16.2307581178
 11
46.7130302768
 21
14.8465011046
  0
LINE
  5
292
100
AcDbEntity
  8
0
100
AcDbLine
 62
7
  6
CONTINUOUS
 10
35.6045617483
 20
87.6548862075
 11
35.3638536203
 21
89.0391432207
  0
LINE
  5
293
100
AcDbEntity
  8
A_ACHSEN
100
AcDbLine
 62
7
  6
CENTER
 10
43.0384419485
 20
153.9428221627
 11
43.0384419485
 21
144.7928221627
  0
LINE
  5
294
100
AcDbEntity
  8
A_ACHSEN
100
AcDbLine
 62
7
  6
CENTER
 10
43.0384419485
 20
17.9428221627
 11
43.0384419485
 21
8.7928221627
  0
LINE
  5
295
100
AcDbEntity
  8
A_ACHSEN
100
AcDbLine
 62
7
  6
CENTER
 10
43.0384419485
 20
17.9428221627
 11
43.0384419485
 21
27.0928221627
  0
LINE
  5
296
100
AcDbEntity
  8
A_ACHSEN
100
AcDbLine
 62
7
  6
CENTER
 10
43.0384419485
 20
153.9428221627
 11
43.0384419485
 21
163.0928221627
  0
LINE
  5
297
100
AcDbEntity
  8
0
100
AcDbLine
 62
7
  6
CONTINUOUS
 10
42.7130302768
 20
89.0391432207
 11
42.4723221488
 21
87.6548862075
  0
LINE
  5
298
100
AcDbEntity
  8
0
100
AcDbLine
 62
7
  6
CONTINUOUS
 10
49.3638536203
 20
116.8465011046
 11
49.6045617483
 21
118.2307581178
  0
LINE
  5
299
100
AcDbEntity
  8
0
100
AcDbLine
 62
7
  6
CONTINUOUS
 10
54.255949828
 20
116.3040900914
 11
53.4473386567
 21
115.1550662208
  0
LINE
  5
29A
100
AcDbEntity
  8
0
100
AcDbLine
 62
7
  6
CONTINUOUS
 10
37.8209340691
 20
89.581554234
 11
38.6295452404
 21
90.7305781045
  0
LINE
  5
29B
100
AcDbEntity
  8
0
100
AcDbLine
 62
7
  6
CONTINUOUS
 10
51.3263779037
 20
48.5089419624
 11
49.9421208905
 21
48.2682338344
  0
LINE
  5
29C
100
AcDbEntity
  8
0
100
AcDbLine
 62
7
  6
CONTINUOUS
 10
86.7884419485
 20
50.8583666193
 11
86.6884419485
 21
50.8583666193
  0
LINE
  5
29D
100
AcDbEntity
  8
0
100
AcDbLine
 62
7
  6
CONTINUOUS
 10
104.7884419485
 20
50.9428221627
 11
110.8472127658
 21
50.9428221627
  0
LINE
  5
29E
100
AcDbEntity
  8
A_ACHSEN
100
AcDbLine
 62
7
  6
CENTER
 10
53.0384419485
 20
51.9428221627
 11
43.8884419485
 21
51.9428221627
  0
LINE
  5
29F
100
AcDbEntity
  8
A_ACHSEN
100
AcDbLine
 62
7
  6
CENTER
 10
53.0384419485
 20
51.9428221627
 11
62.1884419485
 21
51.9428221627
  0
LINE
  5
2A0
100
AcDbEntity
  8
0
100
AcDbLine
 62
7
  6
CONTINUOUS
 10
115.6884419485
 20
54.6928221627
 11
117.7884419485
 21
54.6928221627
  0
LINE
  5
2A1
100
AcDbEntity
  8
0
100
AcDbLine
 62
7
  6
CONTINUOUS
 10
49.9421208905
 20
55.6174104909
 11
51.3263779037
 21
55.3767023629
  0
LINE
  5
2A2
100
AcDbEntity
  8
0
100
AcDbLine
 62
7
  6
CONTINUOUS
 10
53.4473386567
 20
56.7305781045
 11
54.255949828
 21
55.581554234
  0
LINE
  5
2A3
100
AcDbEntity
  8
0
100
AcDbLine
 62
7
  6
CONTINUOUS
 10
38.6295452404
 20
81.1550662208
 11
37.8209340691
 21
82.3040900914
  0
LINE
  5
2A4
100
AcDbEntity
  8
0
100
AcDbLine
 62
7
  6
CONTINUOUS
 10
42.4723221488
 20
84.2307581178
 11
42.7130302768
 21
82.8465011046
  0
LINE
  5
2A5
100
AcDbEntity
  8
0
100
AcDbLine
 62
7
  6
CONTINUOUS
 10
49.6045617483
 20
53.6548862075
 11
49.3638536203
 21
55.0391432207
  0
LINE
  5
2A6
100
AcDbEntity
  8
0
100
AcDbLine
 62
7
  6
CONTINUOUS
 10
56.7130302768
 20
123.0391432207
 11
56.4723221488
 21
121.6548862075
  0
LINE
  5
2A7
100
AcDbEntity
  8
0
100
AcDbLine
 62
7
  6
CONTINUOUS
 10
40.255949828
 20
82.3040900914
 11
39.4473386567
 21
81.1550662208
  0
LINE
  5
2A8
100
AcDbEntity
  8
0
100
AcDbLine
 62
7
  6
CONTINUOUS
 10
34.2506860067
 20
86.3517188708
 11
35.3997098772
 21
87.1603300421
  0
LINE
  5
2A9
100
AcDbEntity
  8
0
100
AcDbLine
 62
7
  6
CONTINUOUS
 10
54.7505059934
 20
55.3767023629
 11
56.1347630066
 21
55.6174104909
  0
LINE
  5
2AA
100
AcDbEntity
  8
A_ACHSEN
100
AcDbLine
 62
7
  6
CENTER
 10
122.2884419485
 20
57.9428221627
 11
98.6556957217
 21
57.9428221627
  0
LINE
  5
2AB
100
AcDbEntity
  8
0
100
AcDbLine
 62
7
  6
CONTINUOUS
 10
117.7884419485
 20
61.1928221627
 11
115.6884419485
 21
61.1928221627
  0
LINE
  5
2AC
100
AcDbEntity
  8
0
100
AcDbLine
 62
7
  6
CONTINUOUS
 10
35.3997098772
 20
84.7253142832
 11
34.2506860067
 21
85.5339254545
  0
LINE
  5
2AD
100
AcDbEntity
  8
0
100
AcDbLine
 62
7
  6
CONTINUOUS
 10
39.4473386567
 20
90.7305781045
 11
40.255949828
 21
89.581554234
  0
LINE
  5
2AE
100
AcDbEntity
  8
0
100
AcDbLine
 62
7
  6
CONTINUOUS
 10
56.4723221488
 20
50.2307581178
 11
56.7130302768
 21
48.8465011046
  0
LINE
  5
2AF
100
AcDbEntity
  8
A_ACHSEN
100
AcDbLine
 62
7
  6
CENTER
 10
53.0384419485
 20
119.9428221627
 11
53.0384419485
 21
110.7928221627
  0
LINE
  5
2B0
100
AcDbEntity
  8
A_ACHSEN
100
AcDbLine
 62
7
  6
CENTER
 10
53.0384419485
 20
51.9428221627
 11
53.0384419485
 21
42.7928221627
  0
LINE
  5
2B1
100
AcDbEntity
  8
A_ACHSEN
100
AcDbLine
 62
7
  6
CENTER
 10
53.0384419485
 20
51.9428221627
 11
53.0384419485
 21
61.0928221627
  0
LINE
  5
2B2
100
AcDbEntity
  8
A_ACHSEN
100
AcDbLine
 62
7
  6
CENTER
 10
53.0384419485
 20
119.9428221627
 11
53.0384419485
 21
129.0928221627
  0
LINE
  5
2B3
100
AcDbEntity
  8
0
100
AcDbLine
 62
7
  6
CONTINUOUS
 10
39.3638536203
 20
14.8465011046
 11
39.6045617483
 21
16.2307581178
  0
LINE
  5
2B4
100
AcDbEntity
  8
0
100
AcDbLine
 62
7
  6
CONTINUOUS
 10
49.3638536203
 20
48.8465011046
 11
49.6045617483
 21
50.2307581178
  0
LINE
  5
2B5
100
AcDbEntity
  8
0
100
AcDbLine
 62
7
  6
CONTINUOUS
 10
43.8261978904
 20
85.5339254545
 11
42.6771740199
 21
84.7253142832
  0
LINE
  5
2B6
100
AcDbEntity
  8
0
100
AcDbLine
 62
7
  6
CONTINUOUS
 10
110.8472127658
 20
64.9428221627
 11
104.7884419485
 21
64.9428221627
  0
LINE
  5
2B7
100
AcDbEntity
  8
0
100
AcDbLine
 62
7
  6
CONTINUOUS
 10
42.6771740199
 20
87.1603300421
 11
43.8261978904
 21
86.3517188708
  0
LINE
  5
2B8
100
AcDbEntity
  8
0
100
AcDbLine
 62
7
  6
CONTINUOUS
 10
39.6045617483
 20
155.6548862075
 11
39.3638536203
 21
157.0391432207
  0
LINE
  5
2B9
100
AcDbEntity
  8
0
100
AcDbLine
 62
7
  6
CONTINUOUS
 10
49.6045617483
 20
121.6548862075
 11
49.3638536203
 21
123.0391432207
  0
LINE
  5
2BA
100
AcDbEntity
  8
0
100
AcDbLine
 62
7
  6
CONTINUOUS
 10
46.7130302768
 20
21.0391432207
 11
46.4723221488
 21
19.6548862075
  0
LINE
  5
2BB
100
AcDbEntity
  8
0
100
AcDbLine
 62
7
  6
CONTINUOUS
 10
56.7130302768
 20
55.0391432207
 11
56.4723221488
 21
53.6548862075
  0
LINE
  5
2BC
100
AcDbEntity
  8
A_ACHSEN
100
AcDbLine
 62
7
  6
CONTINUOUS
 10
86.7384419485
 20
70.9428221627
 11
86.6884419485
 21
70.9428221627
  0
LINE
  5
2BD
100
AcDbEntity
  8
0
100
AcDbLine
 62
7
  6
CONTINUOUS
 10
46.4723221488
 20
152.2307581178
 11
46.7130302768
 21
150.8465011046
  0
LINE
  5
2BE
100
AcDbEntity
  8
0
100
AcDbLine
 62
7
  6
CONTINUOUS
 10
56.4723221488
 20
118.2307581178
 11
56.7130302768
 21
116.8465011046
  0
LINE
  5
2BF
100
AcDbEntity
  8
0
100
AcDbLine
 62
7
  6
CONTINUOUS
 10
68.2884419485
 20
5.9428221627
 11
68.2884419485
 21
43.0428221627
  0
LINE
  5
2C0
100
AcDbEntity
  8
A_ACHSEN
100
AcDbLine
 62
3
  6
CONTINUOUS
 10
68.2884419485
 20
43.9428221627
 11
68.2884419485
 21
127.9428221627
  0
LINE
  5
2C1
100
AcDbEntity
  8
0
100
AcDbLine
 62
7
  6
CONTINUOUS
 10
68.2884419485
 20
128.8428221627
 11
68.2884419485
 21
165.9428221627
  0
LINE
  5
2C2
100
AcDbEntity
  8
A_ACHSEN
100
AcDbLine
 62
7
  6
CONTINUOUS
 10
69.8134419485
 20
128.7428221627
 11
69.8134419485
 21
127.9428221627
  0
LINE
  5
2C3
100
AcDbEntity
  8
A_ACHSEN
100
AcDbLine
 62
7
  6
CONTINUOUS
 10
69.8134419485
 20
43.1428221627
 11
69.8134419485
 21
43.9428221627
  0
LINE
  5
2C4
100
AcDbEntity
  8
A_ACHSEN
100
AcDbLine
 62
7
  6
CONTINUOUS
 10
104.7884419485
 20
78.9428221627
 11
110.8472127658
 21
78.9428221627
  0
LINE
  5
2C5
100
AcDbEntity
  8
0
100
AcDbLine
 62
7
  6
CONTINUOUS
 10
42.1347630066
 20
82.2682338344
 11
40.7505059934
 21
82.5089419624
  0
LINE
  5
2C6
100
AcDbEntity
  8
A_ACHSEN
100
AcDbLine
 62
7
  6
CONTINUOUS
 10
74.5384419485
 20
43.0428221627
 11
74.5384419485
 21
43.1428221627
  0
LINE
  5
2C7
100
AcDbEntity
  8
A_ACHSEN
100
AcDbLine
 62
7
  6
CONTINUOUS
 10
74.5384419485
 20
128.7428221627
 11
74.5384419485
 21
128.8428221627
  0
LINE
  5
2C8
100
AcDbEntity
  8
0
100
AcDbLine
 62
7
  6
CONTINUOUS
 10
51.8209340691
 20
55.581554234
 11
52.6295452404
 21
56.7305781045
  0
LINE
  5
2C9
100
AcDbEntity
  8
A_ACHSEN
100
AcDbLine
 62
7
  6
CONTINUOUS
 10
115.6884419485
 20
82.6928221627
 11
117.7884419485
 21
82.6928221627
  0
LINE
  5
2CA
100
AcDbEntity
  8
A_ACHSEN
100
AcDbLine
 62
7
  6
CENTER
 10
39.0384419485
 20
85.9428221627
 11
29.8884419485
 21
85.9428221627
  0
LINE
  5
2CB
100
AcDbEntity
  8
A_ACHSEN
100
AcDbLine
 62
7
  6
CENTER
 10
39.0384419485
 20
85.9428221627
 11
48.1884419485
 21
85.9428221627
  0
LINE
  5
2CC
100
AcDbEntity
  8
A_KURVEN
100
AcDbLine
 62
7
  6
PHANTOM
 10
27.0384419485
 20
85.9428221627
 11
124.2884419485
 21
85.9428221627
  0
LINE
  5
2CD
100
AcDbEntity
  8
0
100
AcDbLine
 62
7
  6
CONTINUOUS
 10
35.9421208905
 20
89.6174104909
 11
37.3263779037
 21
89.3767023629
  0
LINE
  5
2CE
100
AcDbEntity
  8
0
100
AcDbLine
 62
7
  6
CONTINUOUS
 10
52.6295452404
 20
115.1550662208
 11
51.8209340691
 21
116.3040900914
  0
LINE
  5
2CF
100
AcDbEntity
  8
A_ACHSEN
100
AcDbLine
 62
7
  6
CENTER
 10
79.5384419485
 20
167.9428221627
 11
79.5384419485
 21
3.9428221627
  0
LINE
  5
2D0
100
AcDbEntity
  8
0
100
AcDbLine
 62
7
  6
CONTINUOUS
 10
54.255949828
 20
48.3040900914
 11
53.4473386567
 21
47.1550662208
  0
LINE
  5
2D1
100
AcDbEntity
  8
0
100
AcDbLine
 62
7
  6
CONTINUOUS
 10
37.3263779037
 20
82.5089419624
 11
35.9421208905
 21
82.2682338344
  0
LINE
  5
2D2
100
AcDbEntity
  8
A_ACHSEN
100
AcDbLine
 62
7
  6
CONTINUOUS
 10
117.7884419485
 20
89.1928221627
 11
115.6884419485
 21
89.1928221627
  0
LINE
  5
2D3
100
AcDbEntity
  8
A_ACHSEN
100
AcDbLine
 62
7
  6
CONTINUOUS
 10
110.8472127658
 20
92.9428221627
 11
104.7884419485
 21
92.9428221627
  0
LINE
  5
2D4
100
AcDbEntity
  8
0
100
AcDbLine
 62
7
  6
CONTINUOUS
 10
53.4473386567
 20
124.7305781045
 11
54.255949828
 21
123.581554234
  0
LINE
  5
2D5
100
AcDbEntity
  8
A_ACHSEN
100
AcDbLine
 62
7
  6
CONTINUOUS
 10
84.5384419485
 20
43.0428221627
 11
84.5384419485
 21
43.1428221627
  0
LINE
  5
2D6
100
AcDbEntity
  8
A_ACHSEN
100
AcDbLine
 62
7
  6
CONTINUOUS
 10
84.5384419485
 20
128.7428221627
 11
84.5384419485
 21
128.8428221627
  0
LINE
  5
2D7
100
AcDbEntity
  8
A_ACHSEN
100
AcDbLine
 62
3
  6
CONTINUOUS
 10
86.6884419485
 20
43.9428221627
 11
86.6884419485
 21
127.9428221627
  0
LINE
  5
2D8
100
AcDbEntity
  8
A_ACHSEN
100
AcDbLine
 62
7
  6
CONTINUOUS
 10
86.7384419485
 20
70.9428221627
 11
86.7384419485
 21
100.6428221627
  0
LINE
  5
2D9
100
AcDbEntity
  8
A_ACHSEN
100
AcDbLine
 62
7
  6
CONTINUOUS
 10
86.7884419485
 20
43.9428221627
 11
86.7884419485
 21
127.9428221627
  0
LINE
  5
2DA
100
AcDbEntity
  8
0
100
AcDbLine
 62
7
  6
CONTINUOUS
 10
41.8209340691
 20
21.581554234
 11
42.6295452404
 21
22.7305781045
  0
LINE
  5
2DB
100
AcDbEntity
  8
0
100
AcDbLine
 62
7
  6
CONTINUOUS
 10
48.2506860067
 20
52.3517188708
 11
49.3997098772
 21
53.1603300421
  0
LINE
  5
2DC
100
AcDbEntity
  8
0
100
AcDbLine
 62
7
  6
CONTINUOUS
 10
40.7505059934
 20
89.3767023629
 11
42.1347630066
 21
89.6174104909
  0
LINE
  5
2DD
100
AcDbEntity
  8
0
100
AcDbLine
 62
7
  6
CONTINUOUS
 10
49.3997098772
 20
118.7253142832
 11
48.2506860067
 21
119.5339254545
  0
LINE
  5
2DE
100
AcDbEntity
  8
0
100
AcDbLine
 62
7
  6
CONTINUOUS
 10
42.6295452404
 20
149.1550662208
 11
41.8209340691
 21
150.3040900914
  0
LINE
  5
2DF
100
AcDbEntity
  8
A_ACHSEN
100
AcDbLine
 62
7
  6
CONTINUOUS
 10
89.2634419485
 20
128.7428221627
 11
89.2634419485
 21
127.9428221627
  0
LINE
  5
2E0
100
AcDbEntity
  8
A_ACHSEN
100
AcDbLine
 62
7
  6
CONTINUOUS
 10
89.2634419485
 20
43.1428221627
 11
89.2634419485
 21
43.9428221627
  0
LINE
  5
2E1
100
AcDbEntity
  8
0
100
AcDbLine
 62
7
  6
CONTINUOUS
 10
90.7884419485
 20
5.9428221627
 11
90.7884419485
 21
43.0428221627
  0
LINE
  5
2E2
100
AcDbEntity
  8
A_ACHSEN
100
AcDbLine
 62
8
  6
HIDDEN
 10
90.7884419485
 20
43.9428221627
 11
90.7884419485
 21
127.9428221627
  0
LINE
  5
2E3
100
AcDbEntity
  8
0
100
AcDbLine
 62
7
  6
CONTINUOUS
 10
90.7884419485
 20
128.8428221627
 11
90.7884419485
 21
165.9428221627
  0
LINE
  5
2E4
100
AcDbEntity
  8
A_ACHSEN
100
AcDbLine
 62
7
  6
CONTINUOUS
 10
86.6884419485
 20
70.8054482917
 11
86.7384419485
 21
70.9428221627
  0
LINE
  5
2E5
100
AcDbEntity
  8
0
100
AcDbLine
 62
7
  6
CONTINUOUS
 10
44.255949828
 20
14.3040900914
 11
43.4473386567
 21
13.1550662208
  0
LINE
  5
2E6
100
AcDbEntity
  8
0
100
AcDbLine
 62
7
  6
CONTINUOUS
 10
57.8261978904
 20
51.5339254545
 11
56.6771740199
 21
50.7253142832
  0
LINE
  5
2E7
100
AcDbEntity
  8
A_ACHSEN
100
AcDbLine
 62
7
  6
CONTINUOUS
 10
86.7384419485
 20
100.6428221627
 11
86.6884419485
 21
100.6428221627
  0
LINE
  5
2E8
100
AcDbEntity
  8
0
100
AcDbLine
 62
7
  6
CONTINUOUS
 10
56.6771740199
 20
121.1603300421
 11
57.8261978904
 21
120.3517188708
  0
LINE
  5
2E9
100
AcDbEntity
  8
0
100
AcDbLine
 62
7
  6
CONTINUOUS
 10
43.4473386567
 20
158.7305781045
 11
44.255949828
 21
157.581554234
  0
LINE
  5
2EA
100
AcDbEntity
  8
A_ACHSEN
100
AcDbLine
 62
7
  6
CONTINUOUS
 10
86.7384419485
 20
100.6428221627
 11
86.6884419485
 21
100.7801960336
  0
LINE
  5
2EB
100
AcDbEntity
  8
A_ACHSEN
100
AcDbLine
 62
7
  6
CONTINUOUS
 10
104.7884419485
 20
106.9428221627
 11
110.8472127658
 21
106.9428221627
  0
LINE
  5
2EC
100
AcDbEntity
  8
A_ACHSEN
100
AcDbLine
 62
7
  6
CONTINUOUS
 10
115.6884419485
 20
110.6928221627
 11
117.7884419485
 21
110.6928221627
  0
LINE
  5
2ED
100
AcDbEntity
  8
A_ACHSEN
100
AcDbLine
 62
7
  6
CONTINUOUS
 10
101.7884419485
 20
117.9428221627
 11
101.7884419485
 21
109.9428221627
  0
LINE
  5
2EE
100
AcDbEntity
  8
A_ACHSEN
100
AcDbLine
 62
7
  6
CONTINUOUS
 10
101.7884419485
 20
89.9428221627
 11
101.7884419485
 21
81.9428221627
  0
LINE
  5
2EF
100
AcDbEntity
  8
0
100
AcDbLine
 62
7
  6
CONTINUOUS
 10
101.7884419485
 20
61.9428221627
 11
101.7884419485
 21
53.9428221627
  0
LINE
  5
2F0
100
AcDbEntity
  8
A_ACHSEN
100
AcDbLine
 62
7
  6
CENTER
 10
122.2884419485
 20
113.9428221627
 11
99.9929598727
 21
113.9428221627
  0
LINE
  5
2F1
100
AcDbEntity
  8
A_ACHSEN
100
AcDbLine
 62
7
  6
CONTINUOUS
 10
117.7884419485
 20
117.1928221627
 11
115.6884419485
 21
117.1928221627
  0
LINE
  5
2F2
100
AcDbEntity
  8
0
100
AcDbLine
 62
7
  6
CONTINUOUS
 10
56.1347630066
 20
116.2682338344
 11
54.7505059934
 21
116.5089419624
  0
LINE
  5
2F3
100
AcDbEntity
  8
0
100
AcDbLine
 62
7
  6
CONTINUOUS
 10
38.2506860067
 20
18.3517188708
 11
39.3997098772
 21
19.1603300421
  0
LINE
  5
2F4
100
AcDbEntity
  8
0
100
AcDbLine
 62
7
  6
CONTINUOUS
 10
51.3263779037
 20
116.5089419624
 11
49.9421208905
 21
116.2682338344
  0
LINE
  5
2F5
100
AcDbEntity
  8
A_ACHSEN
100
AcDbLine
 62
7
  6
CENTER
 10
53.0384419485
 20
119.9428221627
 11
43.8884419485
 21
119.9428221627
  0
LINE
  5
2F6
100
AcDbEntity
  8
A_ACHSEN
100
AcDbLine
 62
7
  6
CENTER
 10
53.0384419485
 20
119.9428221627
 11
62.1884419485
 21
119.9428221627
  0
LINE
  5
2F7
100
AcDbEntity
  8
A_ACHSEN
100
AcDbLine
 62
7
  6
CONTINUOUS
 10
110.8472127658
 20
120.9428221627
 11
104.7884419485
 21
120.9428221627
  0
LINE
  5
2F8
100
AcDbEntity
  8
0
100
AcDbLine
 62
7
  6
CONTINUOUS
 10
86.6884419485
 20
121.027277706
 11
86.7884419485
 21
121.027277706
  0
LINE
  5
2F9
100
AcDbEntity
  8
0
100
AcDbLine
 62
7
  6
CONTINUOUS
 10
49.9421208905
 20
123.6174104909
 11
51.3263779037
 21
123.3767023629
  0
LINE
  5
2FA
100
AcDbEntity
  8
0
100
AcDbLine
 62
7
  6
CONTINUOUS
 10
39.3997098772
 20
152.7253142832
 11
38.2506860067
 21
153.5339254545
  0
LINE
  5
2FB
100
AcDbEntity
  8
0
100
AcDbLine
 62
7
  6
CONTINUOUS
 10
47.8261978904
 20
17.5339254545
 11
46.6771740199
 21
16.7253142832
  0
LINE
  5
2FC
100
AcDbEntity
  8
0
100
AcDbLine
 62
7
  6
CONTINUOUS
 10
54.7505059934
 20
123.3767023629
 11
56.1347630066
 21
123.6174104909
  0
LINE
  5
2FD
100
AcDbEntity
  8
0
100
AcDbLine
 62
7
  6
CONTINUOUS
 10
86.6884419485
 20
125.027277706
 11
86.7884419485
 21
125.027277706
  0
LINE
  5
2FE
100
AcDbEntity
  8
A_ACHSEN
100
AcDbLine
 62
7
  6
CONTINUOUS
 10
86.6884419485
 20
126.5428221627
 11
86.7884419485
 21
126.5428221627
  0
LINE
  5
2FF
100
AcDbEntity
  8
A_ACHSEN
100
AcDbLine
 62
7
  6
CONTINUOUS
 10
86.6884419485
 20
127.3428221627
 11
86.7884419485
 21
127.3428221627
  0
LINE
  5
300
100
AcDbEntity
  8
A_ACHSEN
100
AcDbLine
 62
7
  6
CONTINUOUS
 10
86.6884419485
 20
127.4024450177
 11
86.7884419485
 21
127.4024450177
  0
LINE
  5
301
100
AcDbEntity
  8
0
100
AcDbLine
 62
7
  6
CONTINUOUS
 10
116.556391141
 20
127.9428221627
 11
91.2884419485
 21
127.9428221627
  0
LINE
  5
302
100
AcDbEntity
  8
A_ACHSEN
100
AcDbLine
 62
7
  6
CONTINUOUS
 10
91.2884419485
 20
127.9428221627
 11
86.7884419485
 21
127.9428221627
  0
LINE
  5
303
100
AcDbEntity
  8
A_ACHSEN
100
AcDbLine
 62
3
  6
CONTINUOUS
 10
68.2887334157
 20
127.9428221627
 11
86.6884419485
 21
127.9428221627
  0
LINE
  5
304
100
AcDbEntity
  8
A_ACHSEN
100
AcDbLine
 62
7
  6
CONTINUOUS
 10
69.8147242892
 20
128.7428221627
 11
89.2621596079
 21
128.7428221627
  0
LINE
  5
305
100
AcDbEntity
  8
A_RUNDUNGEN
100
AcDbLine
 62
7
  6
CONTINUOUS
 10
90.7887324958
 20
128.8428221627
 11
68.2884743764
 21
128.8428221627
  0
LINE
  5
306
100
AcDbEntity
  8
0
100
AcDbLine
 62
7
  6
CONTINUOUS
 10
46.6771740199
 20
155.1603300421
 11
47.8261978904
 21
154.3517188708
  0
LINE
  5
307
100
AcDbEntity
  8
0
100
AcDbLine
 62
7
  6
CONTINUOUS
 10
120.2884419485
 20
44.9428221627
 11
120.2884419485
 21
52.1928221627
  0
LINE
  5
308
100
AcDbEntity
  8
A_ACHSEN
100
AcDbLine
 62
7
  6
CONTINUOUS
 10
120.2884419485
 20
63.6928221627
 11
120.2884419485
 21
80.1928221627
  0
LINE
  5
309
100
AcDbEntity
  8
A_ACHSEN
100
AcDbLine
 62
7
  6
CONTINUOUS
 10
120.2884419485
 20
91.6928221627
 11
120.2884419485
 21
108.1928221627
  0
LINE
  5
30A
100
AcDbEntity
  8
0
100
AcDbLine
 62
7
  6
CONTINUOUS
 10
120.2884419485
 20
119.6928221627
 11
120.2884419485
 21
126.9428221627
  0
LINE
  5
30B
100
AcDbEntity
  8
0
100
AcDbLine
 62
7
  6
CONTINUOUS
 10
116.556391141
 20
127.9428221627
 11
120.2884419485
 21
126.9428221627
  0
LINE
  5
30C
100
AcDbEntity
  8
0
100
AcDbLine
 62
7
  6
CONTINUOUS
 10
46.1347630066
 20
150.2682338344
 11
44.7505059934
 21
150.5089419624
  0
LINE
  5
30D
100
AcDbEntity
  8
A_ACHSEN
100
AcDbLine
 62
7
  6
CENTER
 10
43.0384419485
 20
153.9428221627
 11
33.8884419485
 21
153.9428221627
  0
LINE
  5
30E
100
AcDbEntity
  8
A_ACHSEN
100
AcDbLine
 62
7
  6
CENTER
 10
43.0384419485
 20
153.9428221627
 11
52.1884419485
 21
153.9428221627
  0
LINE
  5
30F
100
AcDbEntity
  8
0
100
AcDbLine
 62
7
  6
CONTINUOUS
 10
39.9421208905
 20
157.6174104909
 11
41.3263779037
 21
157.3767023629
  0
LINE
  5
310
100
AcDbEntity
  8
0
100
AcDbLine
 62
7
  6
CONTINUOUS
 10
41.3263779037
 20
150.5089419624
 11
39.9421208905
 21
150.2682338344
  0
LINE
  5
311
100
AcDbEntity
  8
0
100
AcDbLine
 62
7
  6
CONTINUOUS
 10
44.7505059934
 20
157.3767023629
 11
46.1347630066
 21
157.6174104909
  0
LINE
  5
312
100
AcDbEntity
  8
A_RUNDUNGEN
100
AcDbLine
 62
7
  6
CONTINUOUS
 10
90.7887324958
 20
165.9428221627
 11
68.2884743764
 21
165.9428221627
  0
LINE
  5
313
100
AcDbEntity
  8
A_ACHSEN
100
AcDbLine
 62
3
  6
CONTINUOUS
 10
43.0384419485
 20
165.9428221627
 11
67.5384419485
 21
165.9428221627
  0
LINE
  5
314
100
AcDbEntity
  8
0
100
AcDbLine
 62
3
  6
CONTINUOUS
 10
67.5384419485
 20
165.9428221627
 11
68.2884743764
 21
165.9428221627
  0
ARC
  5
315
100
AcDbEntity
  8
A_ACHSEN
100
AcDbCircle
 62
3
  6
CONTINUOUS
 10
43.0384419485
 20
17.9428221627
 40
12.0
100
AcDbArc
 50
180.0
 51
270.0
  0
CIRCLE
  5
316
100
AcDbEntity
  8
A_ACHSEN
100
AcDbCircle
 62
3
  6
CONTINUOUS
 10
43.0384419485
 20
17.9428221627
 40
6.15
  0
ARC
  5
317
100
AcDbEntity
  8
0
100
AcDbCircle
 62
7
  6
CONTINUOUS
 10
46.2204224639
 20
14.7608416473
 40
0.5
100
AcDbArc
 50
260.1354876107
 51
9.8645123893
  0
ARC
  5
318
100
AcDbEntity
  8
0
100
AcDbCircle
 62
7
  6
CONTINUOUS
 10
44.6648465361
 20
14.0163341495
 40
0.5
100
AcDbArc
 50
80.1354876107
 51
144.8645123893
  0
ARC
  5
319
100
AcDbEntity
  8
0
100
AcDbCircle
 62
7
  6
CONTINUOUS
 10
44.6648465361
 20
21.8693101758
 40
0.5
100
AcDbArc
 50
215.1354876107
 51
279.8645123893
  0
ARC
  5
31A
100
AcDbEntity
  8
0
100
AcDbCircle
 62
7
  6
CONTINUOUS
 10
46.2204224639
 20
21.124802678
 40
0.5
100
AcDbArc
 50
350.1354876107
 51
99.8645123893
  0
ARC
  5
31B
100
AcDbEntity
  8
0
100
AcDbCircle
 62
7
  6
CONTINUOUS
 10
43.0384419485
 20
13.4428221627
 40
0.5
100
AcDbArc
 50
215.1354876107
 51
324.8645123893
  0
ARC
  5
31C
100
AcDbEntity
  8
0
100
AcDbCircle
 62
7
  6
CONTINUOUS
 10
41.412037361
 20
14.0163341495
 40
0.5
100
AcDbArc
 50
35.1354876107
 51
99.8645123893
  0
ARC
  5
31D
100
AcDbEntity
  8
0
100
AcDbCircle
 62
7
  6
CONTINUOUS
 10
39.8564614332
 20
14.7608416473
 40
0.5
100
AcDbArc
 50
170.1354876107
 51
279.8645123893
  0
ARC
  5
31E
100
AcDbEntity
  8
0
100
AcDbCircle
 62
7
  6
CONTINUOUS
 10
39.1119539354
 20
16.3164175751
 40
0.5
100
AcDbArc
 50
350.1354876107
 51
54.8645123893
  0
ARC
  5
31F
100
AcDbEntity
  8
0
100
AcDbCircle
 62
7
  6
CONTINUOUS
 10
38.5384419485
 20
17.9428221627
 40
0.5
100
AcDbArc
 50
125.1354876107
 51
234.8645123893
  0
ARC
  5
320
100
AcDbEntity
  8
0
100
AcDbCircle
 62
7
  6
CONTINUOUS
 10
39.1119539354
 20
19.5692267502
 40
0.5
100
AcDbArc
 50
305.1354876107
 51
9.8645123893
  0
ARC
  5
321
100
AcDbEntity
  8
0
100
AcDbCircle
 62
7
  6
CONTINUOUS
 10
39.8564614332
 20
21.124802678
 40
0.5
100
AcDbArc
 50
80.1354876107
 51
189.8645123893
  0
ARC
  5
322
100
AcDbEntity
  8
0
100
AcDbCircle
 62
7
  6
CONTINUOUS
 10
41.412037361
 20
21.8693101758
 40
0.5
100
AcDbArc
 50
260.1354876107
 51
324.8645123893
  0
ARC
  5
323
100
AcDbEntity
  8
0
100
AcDbCircle
 62
7
  6
CONTINUOUS
 10
43.0384419485
 20
22.4428221627
 40
0.5
100
AcDbArc
 50
35.1354876107
 51
144.8645123893
  0
ARC
  5
324
100
AcDbEntity
  8
0
100
AcDbCircle
 62
7
  6
CONTINUOUS
 10
42.9649299617
 20
84.3164175751
 40
0.5
100
AcDbArc
 50
125.1354876107
 51
189.8645123893
  0
ARC
  5
325
100
AcDbEntity
  8
0
100
AcDbCircle
 62
7
  6
CONTINUOUS
 10
42.2204224639
 20
82.7608416473
 40
0.5
100
AcDbArc
 50
260.1354876107
 51
9.8645123893
  0
ARC
  5
326
100
AcDbEntity
  8
0
100
AcDbCircle
 62
7
  6
CONTINUOUS
 10
40.6648465361
 20
82.0163341495
 40
0.5
100
AcDbArc
 50
80.1354876107
 51
144.8645123893
  0
ARC
  5
327
100
AcDbEntity
  8
0
100
AcDbCircle
 62
7
  6
CONTINUOUS
 10
39.0384419485
 20
81.4428221627
 40
0.5
100
AcDbArc
 50
215.1354876107
 51
324.8645123893
  0
ARC
  5
328
100
AcDbEntity
  8
0
100
AcDbCircle
 62
7
  6
CONTINUOUS
 10
37.412037361
 20
82.0163341495
 40
0.5
100
AcDbArc
 50
35.1354876107
 51
99.8645123893
  0
ARC
  5
329
100
AcDbEntity
  8
0
100
AcDbCircle
 62
7
  6
CONTINUOUS
 10
35.8564614332
 20
82.7608416473
 40
0.5
100
AcDbArc
 50
170.1354876107
 51
279.8645123893
  0
ARC
  5
32A
100
AcDbEntity
  8
0
100
AcDbCircle
 62
7
  6
CONTINUOUS
 10
35.1119539354
 20
84.3164175751
 40
0.5
100
AcDbArc
 50
350.1354876107
 51
54.8645123893
  0
ARC
  5
32B
100
AcDbEntity
  8
0
100
AcDbCircle
 62
7
  6
CONTINUOUS
 10
46.9649299617
 20
16.3164175751
 40
0.5
100
AcDbArc
 50
125.1354876107
 51
189.8645123893
  0
ARC
  5
32C
100
AcDbEntity
  8
0
100
AcDbCircle
 62
7
  6
CONTINUOUS
 10
46.9649299617
 20
19.5692267502
 40
0.5
100
AcDbArc
 50
170.1354876107
 51
234.8645123893
  0
ARC
  5
32D
100
AcDbEntity
  8
0
100
AcDbCircle
 62
7
  6
CONTINUOUS
 10
47.5384419485
 20
17.9428221627
 40
0.5
100
AcDbArc
 50
305.1354876107
 51
54.8645123893
  0
ARC
  5
32E
100
AcDbEntity
  8
0
100
AcDbCircle
 62
7
  6
CONTINUOUS
 10
56.2204224639
 20
48.7608416473
 40
0.5
100
AcDbArc
 50
260.1354876107
 51
9.8645123893
  0
ARC
  5
32F
100
AcDbEntity
  8
0
100
AcDbCircle
 62
7
  6
CONTINUOUS
 10
54.6648465361
 20
48.0163341495
 40
0.5
100
AcDbArc
 50
80.1354876107
 51
144.8645123893
  0
ARC
  5
330
100
AcDbEntity
  8
0
100
AcDbCircle
 62
7
  6
CONTINUOUS
 10
53.0384419485
 20
47.4428221627
 40
0.5
100
AcDbArc
 50
215.1354876107
 51
324.8645123893
  0
ARC
  5
331
100
AcDbEntity
  8
0
100
AcDbCircle
 62
7
  6
CONTINUOUS
 10
51.412037361
 20
48.0163341495
 40
0.5
100
AcDbArc
 50
35.1354876107
 51
99.8645123893
  0
ARC
  5
332
100
AcDbEntity
  8
0
100
AcDbCircle
 62
7
  6
CONTINUOUS
 10
49.8564614332
 20
48.7608416473
 40
0.5
100
AcDbArc
 50
170.1354876107
 51
279.8645123893
  0
CIRCLE
  5
333
100
AcDbEntity
  8
A_ACHSEN
100
AcDbCircle
 62
3
  6
CONTINUOUS
 10
53.0384419485
 20
51.9428221627
 40
6.15
  0
ARC
  5
334
100
AcDbEntity
  8
0
100
AcDbCircle
 62
7
  6
CONTINUOUS
 10
56.9649299617
 20
50.3164175751
 40
0.5
100
AcDbArc
 50
125.1354876107
 51
189.8645123893
  0
ARC
  5
335
100
AcDbEntity
  8
0
100
AcDbCircle
 62
7
  6
CONTINUOUS
 10
54.6648465361
 20
55.8693101758
 40
0.5
100
AcDbArc
 50
215.1354876107
 51
279.8645123893
  0
ARC
  5
336
100
AcDbEntity
  8
0
100
AcDbCircle
 62
7
  6
CONTINUOUS
 10
56.2204224639
 20
55.124802678
 40
0.5
100
AcDbArc
 50
350.1354876107
 51
99.8645123893
  0
ARC
  5
337
100
AcDbEntity
  8
0
100
AcDbCircle
 62
7
  6
CONTINUOUS
 10
56.9649299617
 20
53.5692267502
 40
0.5
100
AcDbArc
 50
170.1354876107
 51
234.8645123893
  0
ARC
  5
338
100
AcDbEntity
  8
0
100
AcDbCircle
 62
7
  6
CONTINUOUS
 10
57.5384419485
 20
51.9428221627
 40
0.5
100
AcDbArc
 50
305.1354876107
 51
54.8645123893
  0
ARC
  5
339
100
AcDbEntity
  8
0
100
AcDbCircle
 62
7
  6
CONTINUOUS
 10
49.1119539354
 20
50.3164175751
 40
0.5
100
AcDbArc
 50
350.1354876107
 51
54.8645123893
  0
ARC
  5
33A
100
AcDbEntity
  8
0
100
AcDbCircle
 62
7
  6
CONTINUOUS
 10
48.5384419485
 20
51.9428221627
 40
0.5
100
AcDbArc
 50
125.1354876107
 51
234.8645123893
  0
ARC
  5
33B
100
AcDbEntity
  8
0
100
AcDbCircle
 62
7
  6
CONTINUOUS
 10
49.1119539354
 20
53.5692267502
 40
0.5
100
AcDbArc
 50
305.1354876107
 51
9.8645123893
  0
ARC
  5
33C
100
AcDbEntity
  8
0
100
AcDbCircle
 62
7
  6
CONTINUOUS
 10
49.8564614332
 20
55.124802678
 40
0.5
100
AcDbArc
 50
80.1354876107
 51
189.8645123893
  0
ARC
  5
33D
100
AcDbEntity
  8
0
100
AcDbCircle
 62
7
  6
CONTINUOUS
 10
51.412037361
 20
55.8693101758
 40
0.5
100
AcDbArc
 50
260.1354876107
 51
324.8645123893
  0
ARC
  5
33E
100
AcDbEntity
  8
0
100
AcDbCircle
 62
7
  6
CONTINUOUS
 10
53.0384419485
 20
56.4428221627
 40
0.5
100
AcDbArc
 50
35.1354876107
 51
144.8645123893
  0
CIRCLE
  5
33F
100
AcDbEntity
  8
A_ACHSEN
100
AcDbCircle
 62
3
  6
CONTINUOUS
 10
39.0384419485
 20
85.9428221627
 40
6.15
  0
ARC
  5
340
100
AcDbEntity
  8
0
100
AcDbCircle
 62
7
  6
CONTINUOUS
 10
40.6648465361
 20
89.8693101758
 40
0.5
100
AcDbArc
 50
215.1354876107
 51
279.8645123893
  0
ARC
  5
341
100
AcDbEntity
  8
0
100
AcDbCircle
 62
7
  6
CONTINUOUS
 10
42.2204224639
 20
89.124802678
 40
0.5
100
AcDbArc
 50
350.1354876107
 51
99.8645123893
  0
ARC
  5
342
100
AcDbEntity
  8
0
100
AcDbCircle
 62
7
  6
CONTINUOUS
 10
42.9649299617
 20
87.5692267502
 40
0.5
100
AcDbArc
 50
170.1354876107
 51
234.8645123893
  0
ARC
  5
343
100
AcDbEntity
  8
0
100
AcDbCircle
 62
7
  6
CONTINUOUS
 10
43.5384419485
 20
85.9428221627
 40
0.5
100
AcDbArc
 50
305.1354876107
 51
54.8645123893
  0
ARC
  5
344
100
AcDbEntity
  8
0
100
AcDbCircle
 62
7
  6
CONTINUOUS
 10
34.5384419485
 20
85.9428221627
 40
0.5
100
AcDbArc
 50
125.1354876107
 51
234.8645123893
  0
ARC
  5
345
100
AcDbEntity
  8
0
100
AcDbCircle
 62
7
  6
CONTINUOUS
 10
35.1119539354
 20
87.5692267502
 40
0.5
100
AcDbArc
 50
305.1354876107
 51
9.8645123893
  0
ARC
  5
346
100
AcDbEntity
  8
0
100
AcDbCircle
 62
7
  6
CONTINUOUS
 10
35.8564614332
 20
89.124802678
 40
0.5
100
AcDbArc
 50
80.1354876107
 51
189.8645123893
  0
ARC
  5
347
100
AcDbEntity
  8
0
100
AcDbCircle
 62
7
  6
CONTINUOUS
 10
37.412037361
 20
89.8693101758
 40
0.5
100
AcDbArc
 50
260.1354876107
 51
324.8645123893
  0
ARC
  5
348
100
AcDbEntity
  8
0
100
AcDbCircle
 62
7
  6
CONTINUOUS
 10
39.0384419485
 20
90.4428221627
 40
0.5
100
AcDbArc
 50
35.1354876107
 51
144.8645123893
  0
ARC
  5
349
100
AcDbEntity
  8
A_ACHSEN
100
AcDbCircle
 62
3
  6
CONTINUOUS
 10
43.0384419485
 20
153.9428221627
 40
12.0
100
AcDbArc
 50
90.0
 51
180.0
  0
CIRCLE
  5
34A
100
AcDbEntity
  8
A_ACHSEN
100
AcDbCircle
 62
3
  6
CONTINUOUS
 10
43.0384419485
 20
153.9428221627
 40
6.15
  0
ARC
  5
34B
100
AcDbEntity
  8
0
100
AcDbCircle
 62
7
  6
CONTINUOUS
 10
44.6648465361
 20
150.0163341495
 40
0.5
100
AcDbArc
 50
80.1354876107
 51
144.8645123893
  0
ARC
  5
34C
100
AcDbEntity
  8
0
100
AcDbCircle
 62
7
  6
CONTINUOUS
 10
44.6648465361
 20
157.8693101758
 40
0.5
100
AcDbArc
 50
215.1354876107
 51
279.8645123893
  0
ARC
  5
34D
100
AcDbEntity
  8
0
100
AcDbCircle
 62
7
  6
CONTINUOUS
 10
43.0384419485
 20
149.4428221627
 40
0.5
100
AcDbArc
 50
215.1354876107
 51
324.8645123893
  0
ARC
  5
34E
100
AcDbEntity
  8
0
100
AcDbCircle
 62
7
  6
CONTINUOUS
 10
41.412037361
 20
150.0163341495
 40
0.5
100
AcDbArc
 50
35.1354876107
 51
99.8645123893
  0
ARC
  5
34F
100
AcDbEntity
  8
0
100
AcDbCircle
 62
7
  6
CONTINUOUS
 10
39.8564614332
 20
150.7608416473
 40
0.5
100
AcDbArc
 50
170.1354876107
 51
279.8645123893
  0
ARC
  5
350
100
AcDbEntity
  8
0
100
AcDbCircle
 62
7
  6
CONTINUOUS
 10
39.1119539354
 20
152.3164175751
 40
0.5
100
AcDbArc
 50
350.1354876107
 51
54.8645123893
  0
ARC
  5
351
100
AcDbEntity
  8
0
100
AcDbCircle
 62
7
  6
CONTINUOUS
 10
38.5384419485
 20
153.9428221627
 40
0.5
100
AcDbArc
 50
125.1354876107
 51
234.8645123893
  0
ARC
  5
352
100
AcDbEntity
  8
0
100
AcDbCircle
 62
7
  6
CONTINUOUS
 10
39.1119539354
 20
155.5692267502
 40
0.5
100
AcDbArc
 50
305.1354876107
 51
9.8645123893
  0
ARC
  5
353
100
AcDbEntity
  8
0
100
AcDbCircle
 62
7
  6
CONTINUOUS
 10
39.8564614332
 20
157.124802678
 40
0.5
100
AcDbArc
 50
80.1354876107
 51
189.8645123893
  0
ARC
  5
354
100
AcDbEntity
  8
0
100
AcDbCircle
 62
7
  6
CONTINUOUS
 10
41.412037361
 20
157.8693101758
 40
0.5
100
AcDbArc
 50
260.1354876107
 51
324.8645123893
  0
ARC
  5
355
100
AcDbEntity
  8
0
100
AcDbCircle
 62
7
  6
CONTINUOUS
 10
43.0384419485
 20
158.4428221627
 40
0.5
100
AcDbArc
 50
35.1354876107
 51
144.8645123893
  0
CIRCLE
  5
356
100
AcDbEntity
  8
A_ACHSEN
100
AcDbCircle
 62
3
  6
CONTINUOUS
 10
53.0384419485
 20
119.9428221627
 40
6.15
  0
ARC
  5
357
100
AcDbEntity
  8
0
100
AcDbCircle
 62
7
  6
CONTINUOUS
 10
56.9649299617
 20
118.3164175751
 40
0.5
100
AcDbArc
 50
125.1354876107
 51
189.8645123893
  0
ARC
  5
358
100
AcDbEntity
  8
0
100
AcDbCircle
 62
7
  6
CONTINUOUS
 10
56.2204224639
 20
116.7608416473
 40
0.5
100
AcDbArc
 50
260.1354876107
 51
9.8645123893
  0
ARC
  5
359
100
AcDbEntity
  8
0
100
AcDbCircle
 62
7
  6
CONTINUOUS
 10
54.6648465361
 20
116.0163341495
 40
0.5
100
AcDbArc
 50
80.1354876107
 51
144.8645123893
  0
ARC
  5
35A
100
AcDbEntity
  8
0
100
AcDbCircle
 62
7
  6
CONTINUOUS
 10
56.9649299617
 20
121.5692267502
 40
0.5
100
AcDbArc
 50
170.1354876107
 51
234.8645123893
  0
ARC
  5
35B
100
AcDbEntity
  8
0
100
AcDbCircle
 62
7
  6
CONTINUOUS
 10
57.5384419485
 20
119.9428221627
 40
0.5
100
AcDbArc
 50
305.1354876107
 51
54.8645123893
  0
ARC
  5
35C
100
AcDbEntity
  8
0
100
AcDbCircle
 62
7
  6
CONTINUOUS
 10
53.0384419485
 20
115.4428221627
 40
0.5
100
AcDbArc
 50
215.1354876107
 51
324.8645123893
  0
ARC
  5
35D
100
AcDbEntity
  8
0
100
AcDbCircle
 62
7
  6
CONTINUOUS
 10
51.412037361
 20
116.0163341495
 40
0.5
100
AcDbArc
 50
35.1354876107
 51
99.8645123893
  0
ARC
  5
35E
100
AcDbEntity
  8
0
100
AcDbCircle
 62
7
  6
CONTINUOUS
 10
49.8564614332
 20
116.7608416473
 40
0.5
100
AcDbArc
 50
170.1354876107
 51
279.8645123893
  0
ARC
  5
35F
100
AcDbEntity
  8
0
100
AcDbCircle
 62
7
  6
CONTINUOUS
 10
49.1119539354
 20
118.3164175751
 40
0.5
100
AcDbArc
 50
350.1354876107
 51
54.8645123893
  0
ARC
  5
360
100
AcDbEntity
  8
0
100
AcDbCircle
 62
7
  6
CONTINUOUS
 10
48.5384419485
 20
119.9428221627
 40
0.5
100
AcDbArc
 50
125.1354876107
 51
234.8645123893
  0
ARC
  5
361
100
AcDbEntity
  8
0
100
AcDbCircle
 62
7
  6
CONTINUOUS
 10
49.1119539354
 20
121.5692267502
 40
0.5
100
AcDbArc
 50
305.1354876107
 51
9.8645123893
  0
ARC
  5
362
100
AcDbEntity
  8
0
100
AcDbCircle
 62
7
  6
CONTINUOUS
 10
46.9649299617
 20
152.3164175751
 40
0.5
100
AcDbArc
 50
125.1354876107
 51
189.8645123893
  0
ARC
  5
363
100
AcDbEntity
  8
0
100
AcDbCircle
 62
7
  6
CONTINUOUS
 10
46.2204224639
 20
150.7608416473
 40
0.5
100
AcDbArc
 50
260.1354876107
 51
9.8645123893
  0
ARC
  5
364
100
AcDbEntity
  8
0
100
AcDbCircle
 62
7
  6
CONTINUOUS
 10
46.2204224639
 20
157.124802678
 40
0.5
100
AcDbArc
 50
350.1354876107
 51
99.8645123893
  0
ARC
  5
365
100
AcDbEntity
  8
0
100
AcDbCircle
 62
7
  6
CONTINUOUS
 10
46.9649299617
 20
155.5692267502
 40
0.5
100
AcDbArc
 50
170.1354876107
 51
234.8645123893
  0
ARC
  5
366
100
AcDbEntity
  8
0
100
AcDbCircle
 62
7
  6
CONTINUOUS
 10
47.5384419485
 20
153.9428221627
 40
0.5
100
AcDbArc
 50
305.1354876107
 51
54.8645123893
  0
ARC
  5
367
100
AcDbEntity
  8
0
100
AcDbCircle
 62
7
  6
CONTINUOUS
 10
54.6648465361
 20
123.8693101758
 40
0.5
100
AcDbArc
 50
215.1354876107
 51
279.8645123893
  0
ARC
  5
368
100
AcDbEntity
  8
0
100
AcDbCircle
 62
7
  6
CONTINUOUS
 10
56.2204224639
 20
123.124802678
 40
0.5
100
AcDbArc
 50
350.1354876107
 51
99.8645123893
  0
ARC
  5
369
100
AcDbEntity
  8
0
100
AcDbCircle
 62
7
  6
CONTINUOUS
 10
49.8564614332
 20
123.124802678
 40
0.5
100
AcDbArc
 50
80.1354876107
 51
189.8645123893
  0
ARC
  5
36A
100
AcDbEntity
  8
0
100
AcDbCircle
 62
7
  6
CONTINUOUS
 10
51.412037361
 20
123.8693101758
 40
0.5
100
AcDbArc
 50
260.1354876107
 51
324.8645123893
  0
ARC
  5
36B
100
AcDbEntity
  8
0
100
AcDbCircle
 62
7
  6
CONTINUOUS
 10
53.0384419485
 20
124.4428221627
 40
0.5
100
AcDbArc
 50
35.1354876107
 51
144.8645123893
  0
ARC
  5
36C
100
AcDbEntity
  8
0
100
AcDbCircle
 62
7
  6
CONTINUOUS
 10
110.8472127658
 20
53.9428221627
 40
3.0
100
AcDbArc
 50
270.0
 51
345.5224878141
  0
ARC
  5
36D
100
AcDbEntity
  8
0
100
AcDbCircle
 62
7
  6
CONTINUOUS
 10
104.7884419485
 20
53.9428221627
 40
3.0
100
AcDbArc
 50
180.0
 51
270.0
  0
ARC
  5
36E
100
AcDbEntity
  8
0
100
AcDbCircle
 62
7
  6
CONTINUOUS
 10
104.7884419485
 20
61.9428221627
 40
3.0
100
AcDbArc
 50
90.0
 51
180.0
  0
ARC
  5
36F
100
AcDbEntity
  8
0
100
AcDbCircle
 62
7
  6
CONTINUOUS
 10
110.8472127658
 20
61.9428221627
 40
3.0
100
AcDbArc
 50
14.4775121859
 51
90.0
  0
ARC
  5
370
100
AcDbEntity
  8
A_ACHSEN
100
AcDbCircle
 62
7
  6
CONTINUOUS
 10
110.8472127658
 20
81.9428221627
 40
3.0
100
AcDbArc
 50
270.0
 51
345.5224878141
  0
ARC
  5
371
100
AcDbEntity
  8
A_ACHSEN
100
AcDbCircle
 62
7
  6
CONTINUOUS
 10
104.7884419485
 20
81.9428221627
 40
3.0
100
AcDbArc
 50
180.0
 51
270.0
  0
ARC
  5
372
100
AcDbEntity
  8
0
100
AcDbCircle
 62
7
  6
CONTINUOUS
 10
117.7884419485
 20
52.1928221627
 40
2.5
100
AcDbArc
 50
0.0
 51
90.0
  0
ARC
  5
373
100
AcDbEntity
  8
0
100
AcDbCircle
 62
7
  6
CONTINUOUS
 10
117.7884419485
 20
63.6928221627
 40
2.5
100
AcDbArc
 50
270.0
 51
360.0
  0
ARC
  5
374
100
AcDbEntity
  8
A_ACHSEN
100
AcDbCircle
 62
7
  6
CONTINUOUS
 10
117.7884419485
 20
80.1928221627
 40
2.5
100
AcDbArc
 50
0.0
 51
90.0
  0
ARC
  5
375
100
AcDbEntity
  8
0
100
AcDbCircle
 62
7
  6
CONTINUOUS
 10
115.6884419485
 20
52.6928221627
 40
2.0
100
AcDbArc
 50
90.0
 51
165.5224878141
  0
ARC
  5
376
100
AcDbEntity
  8
0
100
AcDbCircle
 62
7
  6
CONTINUOUS
 10
115.6884419485
 20
63.1928221627
 40
2.0
100
AcDbArc
 50
194.4775121859
 51
270.0
  0
ARC
  5
377
100
AcDbEntity
  8
A_ACHSEN
100
AcDbCircle
 62
7
  6
CONTINUOUS
 10
115.6884419485
 20
80.6928221627
 40
2.0
100
AcDbArc
 50
90.0
 51
165.5224878141
  0
ARC
  5
378
100
AcDbEntity
  8
A_ACHSEN
100
AcDbCircle
 62
7
  6
CONTINUOUS
 10
104.7884419485
 20
89.9428221627
 40
3.0
100
AcDbArc
 50
90.0
 51
180.0
  0
ARC
  5
379
100
AcDbEntity
  8
A_ACHSEN
100
AcDbCircle
 62
7
  6
CONTINUOUS
 10
110.8472127658
 20
89.9428221627
 40
3.0
100
AcDbArc
 50
14.4775121859
 51
90.0
  0
ARC
  5
37A
100
AcDbEntity
  8
A_ACHSEN
100
AcDbCircle
 62
7
  6
CONTINUOUS
 10
110.8472127658
 20
109.9428221627
 40
3.0
100
AcDbArc
 50
270.0
 51
345.5224878141
  0
ARC
  5
37B
100
AcDbEntity
  8
A_ACHSEN
100
AcDbCircle
 62
7
  6
CONTINUOUS
 10
104.7884419485
 20
109.9428221627
 40
3.0
100
AcDbArc
 50
180.0
 51
270.0
  0
ARC
  5
37C
100
AcDbEntity
  8
A_ACHSEN
100
AcDbCircle
 62
7
  6
CONTINUOUS
 10
104.7884419485
 20
117.9428221627
 40
3.0
100
AcDbArc
 50
90.0
 51
180.0
  0
ARC
  5
37D
100
AcDbEntity
  8
A_ACHSEN
100
AcDbCircle
 62
7
  6
CONTINUOUS
 10
110.8472127658
 20
117.9428221627
 40
3.0
100
AcDbArc
 50
14.4775121859
 51
90.0
  0
ARC
  5
37E
100
AcDbEntity
  8
A_ACHSEN
100
AcDbCircle
 62
7
  6
CONTINUOUS
 10
117.7884419485
 20
91.6928221627
 40
2.5
100
AcDbArc
 50
270.0
 51
360.0
  0
ARC
  5
37F
100
AcDbEntity
  8
A_ACHSEN
100
AcDbCircle
 62
7
  6
CONTINUOUS
 10
117.7884419485
 20
108.1928221627
 40
2.5
100
AcDbArc
 50
0.0
 51
90.0
  0
ARC
  5
380
100
AcDbEntity
  8
A_ACHSEN
100
AcDbCircle
 62
7
  6
CONTINUOUS
 10
117.7884419485
 20
119.6928221627
 40
2.5
100
AcDbArc
 50
270.0
 51
360.0
  0
ARC
  5
381
100
AcDbEntity
  8
A_ACHSEN
100
AcDbCircle
 62
7
  6
CONTINUOUS
 10
115.6884419485
 20
91.1928221627
 40
2.0
100
AcDbArc
 50
194.4775121859
 51
270.0
  0
ARC
  5
382
100
AcDbEntity
  8
A_ACHSEN
100
AcDbCircle
 62
7
  6
CONTINUOUS
 10
115.6884419485
 20
108.6928221627
 40
2.0
100
AcDbArc
 50
90.0
 51
165.5224878141
  0
ARC
  5
383
100
AcDbEntity
  8
A_ACHSEN
100
AcDbCircle
 62
7
  6
CONTINUOUS
 10
115.6884419485
 20
119.1928221627
 40
2.0
100
AcDbArc
 50
194.4775121859
 51
270.0
  0
ENDSEC
  0
SECTION
  2
OBJECTS
  0
DICTIONARY
  5
384
100
AcDbDictionary
  3
ACAD_GROUP
350
385
  3
ACAD_MLINESTYLE
350
386
  0
DICTIONARY
  5
385
102
{ACAD_REACTORS
330
384
102
}
100
AcDbDictionary
  0
DICTIONARY
  5
386
102
{ACAD_REACTORS
330
384
102
}
100
AcDbDictionary
  3
STANDARD
350
387
  0
MLINESTYLE
  5
387
102
{ACAD_REACTORS
330
386
102
}
100
AcDbMlineStyle
  2
STANDARD
 70
0
  3

 62
256
 51
90.0
 52
90.0
 71
2
 49
0.5
 62
256
  6
BYLAYER
 49
-0.5
 62
256
  6
BYLAYER
  0
ENDSEC
  0
EOF
