  0
SECTION
  2
HEADER
  9
$ACADVER
  1
AC1018
  9
$ACADMAINTVER
 70
     0
  9
$DWGCODEPAGE
  3
ANSI_1252
  9
$INSBASE
 10
0.0
 20
0.0
 30
0.0
  9
$EXTMIN
 10
-30.8936082709563
 20
98.557446222044
 30
0.0
  9
$EXTMAX
 10
145.899123242439
 20
236.685684784532
 30
0.0
  9
$LIMMIN
 10
0.0
 20
0.0
  9
$LIMMAX
 10
12.0
 20
9.0
  9
$ORTHOMODE
 70
     0
  9
$REGENMODE
 70
     1
  9
$FILLMODE
 70
     1
  9
$QTEXTMODE
 70
     0
  9
$MIRRTEXT
 70
     1
  9
$LTSCALE
 40
1.0
  9
$ATTMODE
 70
     1
  9
$TEXTSIZE
 40
0.2
  9
$TRACEWID
 40
0.05
  9
$TEXTSTYLE
  7
Standard
  9
$CLAYER
  8
0
  9
$CELTYPE
  6
ByLayer
  9
$CECOLOR
 62
   256
  9
$CELTSCALE
 40
1.0
  9
$DISPSILH
 70
     0
  9
$DIMSCALE
 40
1.0
  9
$DIMASZ
 40
0.18
  9
$DIMEXO
 40
0.0625
  9
$DIMDLI
 40
0.38
  9
$DIMRND
 40
0.0
  9
$DIMDLE
 40
0.0
  9
$DIMEXE
 40
0.18
  9
$DIMTP
 40
0.0
  9
$DIMTM
 40
0.0
  9
$DIMTXT
 40
0.18
  9
$DIMCEN
 40
0.09
  9
$DIMTSZ
 40
0.0
  9
$DIMTOL
 70
     0
  9
$DIMLIM
 70
     0
  9
$DIMTIH
 70
     1
  9
$DIMTOH
 70
     1
  9
$DIMSE1
 70
     0
  9
$DIMSE2
 70
     0
  9
$DIMTAD
 70
     0
  9
$DIMZIN
 70
     0
  9
$DIMBLK
  1

  9
$DIMASO
 70
     1
  9
$DIMSHO
 70
     1
  9
$DIMPOST
  1

  9
$DIMAPOST
  1

  9
$DIMALT
 70
     0
  9
$DIMALTD
 70
     2
  9
$DIMALTF
 40
25.4
  9
$DIMLFAC
 40
1.0
  9
$DIMTOFL
 70
     0
  9
$DIMTVP
 40
0.0
  9
$DIMTIX
 70
     0
  9
$DIMSOXD
 70
     0
  9
$DIMSAH
 70
     0
  9
$DIMBLK1
  1

  9
$DIMBLK2
  1

  9
$DIMSTYLE
  2
Standard
  9
$DIMCLRD
 70
     0
  9
$DIMCLRE
 70
     0
  9
$DIMCLRT
 70
     0
  9
$DIMTFAC
 40
1.0
  9
$DIMGAP
 40
0.09
  9
$DIMJUST
 70
     0
  9
$DIMSD1
 70
     0
  9
$DIMSD2
 70
     0
  9
$DIMTOLJ
 70
     1
  9
$DIMTZIN
 70
     0
  9
$DIMALTZ
 70
     0
  9
$DIMALTTZ
 70
     0
  9
$DIMUPT
 70
     0
  9
$DIMDEC
 70
     4
  9
$DIMTDEC
 70
     4
  9
$DIMALTU
 70
     2
  9
$DIMALTTD
 70
     2
  9
$DIMTXSTY
  7
Standard
  9
$DIMAUNIT
 70
     0
  9
$DIMADEC
 70
     0
  9
$DIMALTRND
 40
0.0
  9
$DIMAZIN
 70
     0
  9
$DIMDSEP
 70
    46
  9
$DIMATFIT
 70
     3
  9
$DIMFRAC
 70
     0
  9
$DIMLDRBLK
  1

  9
$DIMLUNIT
 70
     2
  9
$DIMLWD
 70
    -2
  9
$DIMLWE
 70
    -2
  9
$DIMTMOVE
 70
     0
  9
$LUNITS
 70
     2
  9
$LUPREC
 70
     4
  9
$SKETCHINC
 40
0.1
  9
$FILLETRAD
 40
0.5
  9
$AUNITS
 70
     0
  9
$AUPREC
 70
     0
  9
$MENU
  1
.
  9
$ELEVATION
 40
0.0
  9
$PELEVATION
 40
0.0
  9
$THICKNESS
 40
0.0
  9
$LIMCHECK
 70
     0
  9
$CHAMFERA
 40
0.5
  9
$CHAMFERB
 40
0.5
  9
$CHAMFERC
 40
1.0
  9
$CHAMFERD
 40
0.0
  9
$SKPOLY
 70
     0
  9
$TDCREATE
 40
2456248.500150984
  9
$TDUCREATE
 40
2456248.458484317
  9
$TDUPDATE
 40
2456248.500150995
  9
$TDUUPDATE
 40
2456248.458484329
  9
$TDINDWG
 40
0.0000000116
  9
$TDUSRTIMER
 40
0.0000000116
  9
$USRTIMER
 70
     1
  9
$ANGBASE
 50
0.0
  9
$ANGDIR
 70
     0
  9
$PDMODE
 70
     0
  9
$PDSIZE
 40
0.0
  9
$PLINEWID
 40
0.0
  9
$SPLFRAME
 70
     0
  9
$SPLINETYPE
 70
     6
  9
$SPLINESEGS
 70
     8
  9
$HANDSEED
  5
171
  9
$SURFTAB1
 70
     6
  9
$SURFTAB2
 70
     6
  9
$SURFTYPE
 70
     6
  9
$SURFU
 70
     6
  9
$SURFV
 70
     6
  9
$UCSBASE
  2

  9
$UCSNAME
  2

  9
$UCSORG
 10
0.0
 20
0.0
 30
0.0
  9
$UCSXDIR
 10
1.0
 20
0.0
 30
0.0
  9
$UCSYDIR
 10
0.0
 20
1.0
 30
0.0
  9
$UCSORTHOREF
  2

  9
$UCSORTHOVIEW
 70
     0
  9
$UCSORGTOP
 10
0.0
 20
0.0
 30
0.0
  9
$UCSORGBOTTOM
 10
0.0
 20
0.0
 30
0.0
  9
$UCSORGLEFT
 10
0.0
 20
0.0
 30
0.0
  9
$UCSORGRIGHT
 10
0.0
 20
0.0
 30
0.0
  9
$UCSORGFRONT
 10
0.0
 20
0.0
 30
0.0
  9
$UCSORGBACK
 10
0.0
 20
0.0
 30
0.0
  9
$PUCSBASE
  2

  9
$PUCSNAME
  2

  9
$PUCSORG
 10
0.0
 20
0.0
 30
0.0
  9
$PUCSXDIR
 10
1.0
 20
0.0
 30
0.0
  9
$PUCSYDIR
 10
0.0
 20
1.0
 30
0.0
  9
$PUCSORTHOREF
  2

  9
$PUCSORTHOVIEW
 70
     0
  9
$PUCSORGTOP
 10
0.0
 20
0.0
 30
0.0
  9
$PUCSORGBOTTOM
 10
0.0
 20
0.0
 30
0.0
  9
$PUCSORGLEFT
 10
0.0
 20
0.0
 30
0.0
  9
$PUCSORGRIGHT
 10
0.0
 20
0.0
 30
0.0
  9
$PUCSORGFRONT
 10
0.0
 20
0.0
 30
0.0
  9
$PUCSORGBACK
 10
0.0
 20
0.0
 30
0.0
  9
$USERI1
 70
     0
  9
$USERI2
 70
     0
  9
$USERI3
 70
     0
  9
$USERI4
 70
     0
  9
$USERI5
 70
     0
  9
$USERR1
 40
14.5
  9
$USERR2
 40
0.0
  9
$USERR3
 40
0.0
  9
$USERR4
 40
0.0
  9
$USERR5
 40
0.0
  9
$WORLDVIEW
 70
     1
  9
$SHADEDGE
 70
     3
  9
$SHADEDIF
 70
    70
  9
$TILEMODE
 70
     1
  9
$MAXACTVP
 70
    64
  9
$PINSBASE
 10
0.0
 20
0.0
 30
0.0
  9
$PLIMCHECK
 70
     0
  9
$PEXTMIN
 10
1.00000000000000E+20
 20
1.00000000000000E+20
 30
1.00000000000000E+20
  9
$PEXTMAX
 10
-1.00000000000000E+20
 20
-1.00000000000000E+20
 30
-1.00000000000000E+20
  9
$PLIMMIN
 10
0.0
 20
0.0
  9
$PLIMMAX
 10
12.0
 20
9.0
  9
$UNITMODE
 70
     0
  9
$VISRETAIN
 70
     1
  9
$PLINEGEN
 70
     0
  9
$PSLTSCALE
 70
     1
  9
$TREEDEPTH
 70
  3020
  9
$CMLSTYLE
  2
Standard
  9
$CMLJUST
 70
     0
  9
$CMLSCALE
 40
1.0
  9
$PROXYGRAPHICS
 70
     1
  9
$MEASUREMENT
 70
     1
  9
$CELWEIGHT
370
    -1
  9
$ENDCAPS
280
     0
  9
$JOINSTYLE
280
     0
  9
$LWDISPLAY
290
     0
  9
$INSUNITS
 70
     1
  9
$HYPERLINKBASE
  1

  9
$STYLESHEET
  1

  9
$XEDIT
290
     1
  9
$CEPSNTYPE
380
     0
  9
$PSTYLEMODE
290
     1
  9
$FINGERPRINTGUID
  2
{2DB06E5D-4E04-421B-BC7F-415353EA704E}
  9
$VERSIONGUID
  2
{FAEB1C32-E019-11D5-929B-00C0DF256EC4}
  9
$EXTNAMES
290
     1
  9
$PSVPSCALE
 40
0.0
  9
$OLESTARTUP
290
     0
  9
$SORTENTS
280
   127
  9
$INDEXCTL
280
     0
  9
$HIDETEXT
280
     1
  9
$XCLIPFRAME
290
     0
  9
$HALOGAP
280
     0
  9
$OBSCOLOR
 70
   257
  9
$OBSLTYPE
280
     0
  9
$INTERSECTIONDISPLAY
280
     0
  9
$INTERSECTIONCOLOR
 70
   257
  9
$DIMASSOC
280
     2
  9
$PROJECTNAME
  1

  0
ENDSEC
  0
SECTION
  2
CLASSES
  0
CLASS
  1
ACDBDICTIONARYWDFLT
  2
AcDbDictionaryWithDefault
  3
ObjectDBX Classes
 90
        0
 91
        3
280
     0
281
     0
  0
ENDSEC
  0
SECTION
  2
TABLES
  0
TABLE
  2
VPORT
  5
8
330
0
100
AcDbSymbolTable
 70
     1
  0
VPORT
  5
29
330
8
100
AcDbSymbolTableRecord
100
AcDbViewportTableRecord
  2
*Active
 70
     0
 10
0.0
 20
0.0
 11
1.0
 21
1.0
 12
57.50275748574136
 22
167.621565503288
 13
0.0
 23
0.0
 14
0.5
 24
0.5
 15
0.5
 25
0.5
 16
0.0
 26
0.0
 36
1.0
 17
0.0
 27
0.0
 37
0.0
 40
151.9410624187368
 41
1.60267857142857
 42
50.0
 43
0.0
 44
0.0
 50
0.0
 51
0.0
 71
     0
 72
   100
 73
     1
 74
     3
 75
     0
 76
     0
 77
     0
 78
     0
281
     0
 65
     1
110
0.0
120
0.0
130
0.0
111
1.0
121
0.0
131
0.0
112
0.0
122
1.0
132
0.0
 79
     0
146
0.0
  0
ENDTAB
  0
TABLE
  2
LTYPE
  5
5
330
0
100
AcDbSymbolTable
 70
     8
  0
LTYPE
  5
14
330
5
100
AcDbSymbolTableRecord
100
AcDbLinetypeTableRecord
  2
ByBlock
 70
     0
  3

 72
    65
 73
     0
 40
0.0
  0
LTYPE
  5
15
330
5
100
AcDbSymbolTableRecord
100
AcDbLinetypeTableRecord
  2
ByLayer
 70
     0
  3

 72
    65
 73
     0
 40
0.0
  0
LTYPE
  5
16
330
5
100
AcDbSymbolTableRecord
100
AcDbLinetypeTableRecord
  2
Continuous
 70
     0
  3
Solid line
 72
    65
 73
     0
 40
0.0
  0
LTYPE
  5
2A
330
5
100
AcDbSymbolTableRecord
100
AcDbLinetypeTableRecord
  2
DASHED
 70
     0
  3
Dashed
 72
    65
 73
     2
 40
15.0
 49
7.0
 74
     0
 49
-8.0
 74
     0
  0
LTYPE
  5
2B
330
5
100
AcDbSymbolTableRecord
100
AcDbLinetypeTableRecord
  2
DOTTED
 70
     0
  3
Dotted
 72
    65
 73
     2
 40
1.0
 49
0.0
 74
     0
 49
-1.0
 74
     0
  0
LTYPE
  5
2C
330
5
100
AcDbSymbolTableRecord
100
AcDbLinetypeTableRecord
  2
DOT_CENTER
 70
     0
  3
Dot_Center
 72
    65
 73
     4
 40
14.0
 49
12.0
 74
     0
 49
-1.0
 74
     0
 49
0.0
 74
     0
 49
-1.0
 74
     0
  0
LTYPE
  5
2D
330
5
100
AcDbSymbolTableRecord
100
AcDbLinetypeTableRecord
  2
LONG_DASHED
 70
     0
  3
Long_Dashed
 72
    65
 73
     2
 40
15.0
 49
10.0
 74
     0
 49
-5.0
 74
     0
  0
LTYPE
  5
2E
330
5
100
AcDbSymbolTableRecord
100
AcDbLinetypeTableRecord
  2
DASH_CENTER
 70
     0
  3
Dash_Center
 72
    65
 73
     4
 40
14.0
 49
11.0
 74
     0
 49
-1.0
 74
     0
 49
1.0
 74
     0
 49
-1.0
 74
     0
  0
LTYPE
  5
2F
330
5
100
AcDbSymbolTableRecord
100
AcDbLinetypeTableRecord
  2
PHANTOM
 70
     0
  3
Phantom
 72
    65
 73
     6
 40
13.0
 49
10.0
 74
     0
 49
-1.0
 74
     0
 49
0.0
 74
     0
 49
-1.0
 74
     0
 49
0.0
 74
     0
 49
-1.0
 74
     0
  0
LTYPE
  5
30
330
5
100
AcDbSymbolTableRecord
100
AcDbLinetypeTableRecord
  2
CENTER_DASH_DASH
 70
     0
  3
Center_Dash_Dash
 72
    65
 73
     6
 40
14.0
 49
9.0
 74
     0
 49
-1.0
 74
     0
 49
1.0
 74
     0
 49
-1.0
 74
     0
 49
1.0
 74
     0
 49
-1.0
 74
     0
  0
ENDTAB
  0
TABLE
  2
LAYER
  5
2
330
0
100
AcDbSymbolTable
 70
     2
  0
LAYER
  5
10
330
2
100
AcDbSymbolTableRecord
100
AcDbLayerTableRecord
  2
0
 70
     0
 62
     7
  6
Continuous
370
    -3
390
F
  0
LAYER
  5
31
330
2
100
AcDbSymbolTableRecord
100
AcDbLayerTableRecord
  2
1
 70
     0
 62
     7
  6
Continuous
370
    -3
390
F
  0
ENDTAB
  0
TABLE
  2
STYLE
  5
3
330
0
100
AcDbSymbolTable
 70
     2
  0
STYLE
  5
11
330
3
100
AcDbSymbolTableRecord
100
AcDbTextStyleTableRecord
  2
Standard
 70
     0
 40
0.0
 41
1.0
 50
0.0
 71
     0
 42
0.2
  3
txt
  4

  0
STYLE
  5
F7
330
3
100
AcDbSymbolTableRecord
100
AcDbTextStyleTableRecord
  2
CONVERTER_11
 70
     0
 40
0.0
 41
0.9
 50
0.0
 71
     0
 42
0.2
  3
txt.shx
  4

  0
ENDTAB
  0
TABLE
  2
VIEW
  5
6
330
0
100
AcDbSymbolTable
 70
     0
  0
ENDTAB
  0
TABLE
  2
UCS
  5
7
330
0
100
AcDbSymbolTable
 70
     0
  0
ENDTAB
  0
TABLE
  2
APPID
  5
9
330
0
100
AcDbSymbolTable
 70
     1
  0
APPID
  5
12
330
9
100
AcDbSymbolTableRecord
100
AcDbRegAppTableRecord
  2
ACAD
 70
     0
  0
ENDTAB
  0
TABLE
  2
DIMSTYLE
  5
A
330
0
100
AcDbSymbolTable
 70
    12
100
AcDbDimStyleTable
  0
DIMSTYLE
105
27
330
A
100
AcDbSymbolTableRecord
100
AcDbDimStyleTableRecord
  2
Standard
 70
     0
340
11
  0
DIMSTYLE
105
FB
102
{ACAD_REACTORS
330
FC
102
}
330
A
100
AcDbSymbolTableRecord
100
AcDbDimStyleTableRecord
  2
ME10_DIM_10
 70
     0
 41
3.5
 42
0.0
 44
2.0
 73
     0
 74
     0
 77
     1
 78
     8
140
3.5
147
2.0
172
     1
173
     1
176
     2
177
     2
178
     2
271
     3
340
F7
  0
DIMSTYLE
105
106
102
{ACAD_REACTORS
330
107
102
}
330
A
100
AcDbSymbolTableRecord
100
AcDbDimStyleTableRecord
  2
ME10_DIM_11
 70
     0
 41
3.5
 42
0.0
 44
2.0
 73
     0
 74
     0
 77
     1
 78
     8
140
3.5
147
2.0
172
     1
173
     1
176
     2
177
     2
178
     2
271
     3
340
F7
  0
DIMSTYLE
105
113
102
{ACAD_REACTORS
330
114
102
}
330
A
100
AcDbSymbolTableRecord
100
AcDbDimStyleTableRecord
  2
ME10_DIM_12
 70
     0
 41
3.5
 42
0.0
 44
2.0
 73
     0
 74
     0
 77
     1
 78
     8
140
3.5
147
2.0
172
     1
173
     1
176
     2
177
     2
178
     2
271
     3
340
F7
  0
DIMSTYLE
105
11E
102
{ACAD_REACTORS
330
11F
102
}
330
A
100
AcDbSymbolTableRecord
100
AcDbDimStyleTableRecord
  2
ME10_DIM_13
 70
     0
 41
3.5
 42
0.0
 44
2.0
 73
     0
 74
     0
 77
     1
 78
     8
140
3.5
147
2.0
172
     1
173
     1
176
     2
177
     2
178
     2
271
     3
340
F7
  0
DIMSTYLE
105
129
102
{ACAD_REACTORS
330
12A
102
}
330
A
100
AcDbSymbolTableRecord
100
AcDbDimStyleTableRecord
  2
ME10_DIM_14
 70
     0
 41
3.5
 42
0.0
 44
2.0
 73
     0
 74
     0
 77
     1
 78
     8
140
3.5
147
2.0
172
     1
173
     1
176
     2
177
     2
178
     2
271
     3
340
F7
  0
DIMSTYLE
105
136
102
{ACAD_REACTORS
330
137
102
}
330
A
100
AcDbSymbolTableRecord
100
AcDbDimStyleTableRecord
  2
ME10_DIM_15
 70
     0
 41
3.5
 42
0.0
 44
2.0
 73
     0
 74
     0
 77
     1
 78
     8
140
3.5
147
2.0
172
     1
173
     1
176
     2
177
     2
178
     2
271
     3
340
F7
  0
DIMSTYLE
105
141
102
{ACAD_REACTORS
330
142
102
}
330
A
100
AcDbSymbolTableRecord
100
AcDbDimStyleTableRecord
  2
ME10_DIM_16
 70
     0
 41
3.5
 42
0.0
 44
2.0
 73
     0
 74
     0
 77
     1
 78
     8
140
3.5
147
2.0
172
     1
173
     1
176
     2
177
     2
178
     2
271
     3
340
F7
  0
DIMSTYLE
105
14E
102
{ACAD_REACTORS
330
14F
102
}
330
A
100
AcDbSymbolTableRecord
100
AcDbDimStyleTableRecord
  2
ME10_DIM_17
 70
     0
 41
3.5
 42
0.0
 44
2.0
 73
     0
 74
     0
 77
     1
 78
     8
140
3.5
147
2.0
172
     1
173
     1
176
     2
177
     2
178
     2
271
     3
340
F7
  0
DIMSTYLE
105
159
102
{ACAD_REACTORS
330
15A
102
}
330
A
100
AcDbSymbolTableRecord
100
AcDbDimStyleTableRecord
  2
ME10_DIM_18
 70
     0
 41
3.5
 42
0.0
 44
2.0
 73
     0
 74
     0
 77
     1
 78
     8
140
3.5
147
2.0
172
     1
173
     1
176
     2
177
     2
178
     2
271
     3
340
F7
  0
DIMSTYLE
105
164
102
{ACAD_REACTORS
330
165
102
}
330
A
100
AcDbSymbolTableRecord
100
AcDbDimStyleTableRecord
  2
ME10_DIM_19
 70
     0
 41
3.5
 42
0.0
 44
2.0
 73
     0
 74
     0
 77
     1
 78
     8
140
3.5
147
2.0
172
     1
173
     1
176
     2
177
     2
178
     2
271
     3
340
F7
  0
DIMSTYLE
105
16F
102
{ACAD_REACTORS
330
170
102
}
330
A
100
AcDbSymbolTableRecord
100
AcDbDimStyleTableRecord
  2
ME10_DIM_20
 70
     0
 41
3.5
 42
0.0
 44
2.0
 73
     0
 74
     0
 77
     1
 78
     8
140
3.5
147
2.0
172
     1
173
     1
176
     2
177
     2
178
     2
271
     3
340
F7
  0
ENDTAB
  0
TABLE
  2
BLOCK_RECORD
  5
1
330
0
100
AcDbSymbolTable
 70
    12
  0
BLOCK_RECORD
  5
1F
330
1
100
AcDbSymbolTableRecord
100
AcDbBlockTableRecord
  2
*Model_Space
340
22
  0
BLOCK_RECORD
  5
1B
330
1
100
AcDbSymbolTableRecord
100
AcDbBlockTableRecord
  2
*Paper_Space
340
1E
  0
BLOCK_RECORD
  5
23
330
1
100
AcDbSymbolTableRecord
100
AcDbBlockTableRecord
  2
*Paper_Space0
340
26
  0
BLOCK_RECORD
  5
F1
330
1
100
AcDbSymbolTableRecord
100
AcDbBlockTableRecord
  2
*D1
340
0
  0
BLOCK_RECORD
  5
FD
330
1
100
AcDbSymbolTableRecord
100
AcDbBlockTableRecord
  2
*D2
340
0
  0
BLOCK_RECORD
  5
108
330
1
100
AcDbSymbolTableRecord
100
AcDbBlockTableRecord
  2
*D3
340
0
  0
BLOCK_RECORD
  5
115
330
1
100
AcDbSymbolTableRecord
100
AcDbBlockTableRecord
  2
*D4
340
0
  0
BLOCK_RECORD
  5
120
330
1
100
AcDbSymbolTableRecord
100
AcDbBlockTableRecord
  2
*D5
340
0
  0
BLOCK_RECORD
  5
12B
330
1
100
AcDbSymbolTableRecord
100
AcDbBlockTableRecord
  2
*D6
340
0
  0
BLOCK_RECORD
  5
138
330
1
100
AcDbSymbolTableRecord
100
AcDbBlockTableRecord
  2
*D7
340
0
  0
BLOCK_RECORD
  5
143
330
1
100
AcDbSymbolTableRecord
100
AcDbBlockTableRecord
  2
*D8
340
0
  0
BLOCK_RECORD
  5
150
330
1
100
AcDbSymbolTableRecord
100
AcDbBlockTableRecord
  2
*D9
340
0
  0
BLOCK_RECORD
  5
15B
330
1
100
AcDbSymbolTableRecord
100
AcDbBlockTableRecord
  2
*D10
340
0
  0
BLOCK_RECORD
  5
166
330
1
100
AcDbSymbolTableRecord
100
AcDbBlockTableRecord
  2
*D11
340
0
  0
ENDTAB
  0
ENDSEC
  0
SECTION
  2
BLOCKS
  0
BLOCK
  5
20
330
1F
100
AcDbEntity
  8
0
100
AcDbBlockBegin
  2
*Model_Space
 70
     0
 71
     0
 10
0.0
 20
0.0
 30
0.0
  3
*Model_Space
  1

  0
ENDBLK
  5
21
330
1F
100
AcDbEntity
  8
0
100
AcDbBlockEnd
  0
BLOCK
  5
1C
330
1B
100
AcDbEntity
 67
     1
  8
0
100
AcDbBlockBegin
  2
*Paper_Space
 70
     0
 71
     0
 10
0.0
 20
0.0
 30
0.0
  3
*Paper_Space
  1

  0
ENDBLK
  5
1D
330
1B
100
AcDbEntity
 67
     1
  8
0
100
AcDbBlockEnd
  0
BLOCK
  5
24
330
23
100
AcDbEntity
  8
0
100
AcDbBlockBegin
  2
*Paper_Space0
 70
     0
 71
     0
 10
0.0
 20
0.0
 30
0.0
  3
*Paper_Space0
  1

  0
ENDBLK
  5
25
330
23
100
AcDbEntity
  8
0
100
AcDbBlockEnd
  0
BLOCK
  5
F9
330
F1
100
AcDbEntity
  8
0
100
AcDbBlockBegin
  2
*D1
 70
     1
 71
     0
 10
0.0
 20
0.0
 30
0.0
  3
*D1
  1

  0
LINE
  5
F2
330
F1
100
AcDbEntity
  8
1
  6
Continuous
 62
     2
100
AcDbLine
 10
143.899123242439
 20
171.544379121875
 30
0.0
 11
143.899123242439
 21
141.544379121875
 31
0.0
  0
LINE
  5
F3
330
F1
100
AcDbEntity
  8
1
  6
Continuous
 62
     2
100
AcDbLine
 10
55.53683633223113
 20
171.544379121875
 30
0.0
 11
145.899123242439
 21
171.544379121875
 31
0.0
  0
LINE
  5
F4
330
F1
100
AcDbEntity
  8
1
  6
Continuous
 62
     2
100
AcDbLine
 10
55.03683633223113
 20
141.544379121875
 30
0.0
 11
145.899123242439
 21
141.544379121875
 31
0.0
  0
SOLID
  5
F5
330
F1
100
AcDbEntity
  8
1
 62
     2
100
AcDbTrace
 10
144.3599069839949
 20
168.044379121875
 30
0.0
 11
143.4383395008831
 21
168.044379121875
 31
0.0
 12
143.899123242439
 22
171.544379121875
 32
0.0
 13
143.899123242439
 23
171.544379121875
 33
0.0
  0
SOLID
  5
F6
330
F1
100
AcDbEntity
  8
1
 62
     2
100
AcDbTrace
 10
143.4383395008831
 20
145.044379121875
 30
0.0
 11
144.3599069839949
 21
145.044379121875
 31
0.0
 12
143.899123242439
 22
141.544379121875
 32
0.0
 13
143.899123242439
 23
141.544379121875
 33
0.0
  0
MTEXT
  5
F8
330
F1
100
AcDbEntity
  8
1
 62
     2
100
AcDbMText
 10
141.899123242439
 20
154.088567351123
 30
0.0
 40
3.5
 41
0.0
 71
     7
 72
     1
  1
30
  7
CONVERTER_11
 11
0.0
 21
1.0
 31
0.0
 73
     1
 44
0.60024009603842
  0
ENDBLK
  5
FA
330
F1
100
AcDbEntity
  8
0
100
AcDbBlockEnd
  0
BLOCK
  5
104
330
FD
100
AcDbEntity
  8
0
100
AcDbBlockBegin
  2
*D2
 70
     1
 71
     0
 10
0.0
 20
0.0
 30
0.0
  3
*D2
  1

  0
LINE
  5
FE
330
FD
100
AcDbEntity
  8
1
  6
Continuous
 62
     2
100
AcDbLine
 10
44.03683633223112
 20
221.163368422317
 30
0.0
 11
33.5368363322311
 21
221.163368422317
 31
0.0
  0
LINE
  5
FF
330
FD
100
AcDbEntity
  8
1
  6
Continuous
 62
     2
100
AcDbLine
 10
44.03683633223112
 20
168.794379121875
 30
0.0
 11
44.03683633223112
 21
223.163368422317
 31
0.0
  0
LINE
  5
100
330
FD
100
AcDbEntity
  8
1
  6
Continuous
 62
     2
100
AcDbLine
 10
33.5368363322311
 20
170.044379121875
 30
0.0
 11
33.5368363322311
 21
223.163368422317
 31
0.0
  0
SOLID
  5
101
330
FD
100
AcDbEntity
  8
1
 62
     2
100
AcDbTrace
 10
40.53683633223112
 20
220.7025846807611
 30
0.0
 11
40.53683633223112
 21
221.6241521638729
 31
0.0
 12
44.03683633223112
 22
221.163368422317
 32
0.0
 13
44.03683633223112
 23
221.163368422317
 33
0.0
  0
SOLID
  5
102
330
FD
100
AcDbEntity
  8
1
 62
     2
100
AcDbTrace
 10
37.0368363322311
 20
221.6241521638729
 30
0.0
 11
37.0368363322311
 21
220.7025846807611
 31
0.0
 12
33.5368363322311
 22
221.163368422317
 32
0.0
 13
33.5368363322311
 23
221.163368422317
 33
0.0
  0
MTEXT
  5
103
330
FD
100
AcDbEntity
  8
1
 62
     2
100
AcDbMText
 10
32.7921535010455
 20
223.163368422317
 30
0.0
 40
3.5
 41
0.0
 71
     7
 72
     1
  1
10.5
  7
CONVERTER_11
 11
0.9999999999970621
 21
2.424068405545307E-6
 31
0.0
 73
     1
 44
0.60024009603842
  0
ENDBLK
  5
105
330
FD
100
AcDbEntity
  8
0
100
AcDbBlockEnd
  0
BLOCK
  5
111
330
108
100
AcDbEntity
  8
0
100
AcDbBlockBegin
  2
*D3
 70
     1
 71
     0
 10
0.0
 20
0.0
 30
0.0
  3
*D3
  1

  0
LINE
  5
109
330
108
100
AcDbEntity
  8
1
  6
Continuous
 62
     2
100
AcDbLine
 10
37.5368363322311
 20
231.185684784532
 30
0.0
 11
30.5368363322311
 21
231.185684784532
 31
0.0
  0
LINE
  5
10A
330
108
100
AcDbEntity
  8
1
  6
Continuous
 62
     2
100
AcDbLine
 10
30.5368363322311
 20
231.185684784532
 30
0.0
 11
23.5368363322311
 21
231.185684784532
 31
0.0
  0
LINE
  5
10B
330
108
100
AcDbEntity
  8
1
  6
Continuous
 62
     2
100
AcDbLine
 10
23.5368363322311
 20
231.185684784532
 30
0.0
 11
16.5368363322311
 21
231.185684784532
 31
0.0
  0
LINE
  5
10C
330
108
100
AcDbEntity
  8
1
  6
Continuous
 62
     2
100
AcDbLine
 10
30.5368363322311
 20
170.044379121875
 30
0.0
 11
30.5368363322311
 21
233.185684784532
 31
0.0
  0
LINE
  5
10D
330
108
100
AcDbEntity
  8
1
  6
Continuous
 62
     2
100
AcDbLine
 10
23.5368363322311
 20
139.044379121875
 30
0.0
 11
23.5368363322311
 21
233.185684784532
 31
0.0
  0
SOLID
  5
10E
330
108
100
AcDbEntity
  8
1
 62
     2
100
AcDbTrace
 10
34.0368363322311
 20
231.6464685260879
 30
0.0
 11
34.0368363322311
 21
230.7249010429761
 31
0.0
 12
30.5368363322311
 22
231.185684784532
 32
0.0
 13
30.5368363322311
 23
231.185684784532
 33
0.0
  0
SOLID
  5
10F
330
108
100
AcDbEntity
  8
1
 62
     2
100
AcDbTrace
 10
20.0368363322311
 20
230.7249010429761
 30
0.0
 11
20.0368363322311
 21
231.6464685260879
 31
0.0
 12
23.5368363322311
 22
231.185684784532
 32
0.0
 13
23.5368363322311
 23
231.185684784532
 33
0.0
  0
MTEXT
  5
110
330
108
100
AcDbEntity
  8
1
 62
     2
100
AcDbMText
 10
25.4360968039772
 20
233.185684784532
 30
0.0
 40
3.5
 41
0.0
 71
     7
 72
     1
  1
7
  7
CONVERTER_11
 11
0.9999999999970621
 21
2.424068405545307E-6
 31
0.0
 73
     1
 44
0.60024009603842
  0
ENDBLK
  5
112
330
108
100
AcDbEntity
  8
0
100
AcDbBlockEnd
  0
BLOCK
  5
11C
330
115
100
AcDbEntity
  8
0
100
AcDbBlockBegin
  2
*D4
 70
     1
 71
     0
 10
0.0
 20
0.0
 30
0.0
  3
*D4
  1

  0
LINE
  5
116
330
115
100
AcDbEntity
  8
1
  6
Continuous
 62
     2
100
AcDbLine
 10
-16.5194474714078
 20
149.544379121875
 30
0.0
 11
-16.5194474714078
 21
139.044379121875
 31
0.0
  0
LINE
  5
117
330
115
100
AcDbEntity
  8
1
  6
Continuous
 62
     2
100
AcDbLine
 10
20.03683633223113
 20
149.544379121875
 30
0.0
 11
-18.5194474714078
 21
149.544379121875
 31
0.0
  0
LINE
  5
118
330
115
100
AcDbEntity
  8
1
  6
Continuous
 62
     2
100
AcDbLine
 10
13.37668997965212
 20
139.044379121875
 30
0.0
 11
-18.5194474714078
 21
139.044379121875
 31
0.0
  0
SOLID
  5
119
330
115
100
AcDbEntity
  8
1
 62
     2
100
AcDbTrace
 10
-16.05866372985192
 20
146.044379121875
 30
0.0
 11
-16.98023121296369
 21
146.044379121875
 31
0.0
 12
-16.5194474714078
 22
149.544379121875
 32
0.0
 13
-16.5194474714078
 23
149.544379121875
 33
0.0
  0
SOLID
  5
11A
330
115
100
AcDbEntity
  8
1
 62
     2
100
AcDbTrace
 10
-16.98023121296369
 20
142.544379121875
 30
0.0
 11
-16.05866372985192
 21
142.544379121875
 31
0.0
 12
-16.5194474714078
 22
139.044379121875
 32
0.0
 13
-16.5194474714078
 23
139.044379121875
 33
0.0
  0
MTEXT
  5
11B
330
115
100
AcDbEntity
  8
1
 62
     2
100
AcDbMText
 10
-18.5194474714078
 20
139.446884908196
 30
0.0
 40
3.5
 41
0.0
 71
     7
 72
     1
  1
10.5
  7
CONVERTER_11
 11
0.0
 21
1.0
 31
0.0
 73
     1
 44
0.60024009603842
  0
ENDBLK
  5
11D
330
115
100
AcDbEntity
  8
0
100
AcDbBlockEnd
  0
BLOCK
  5
127
330
120
100
AcDbEntity
  8
0
100
AcDbBlockBegin
  2
*D5
 70
     1
 71
     0
 10
0.0
 20
0.0
 30
0.0
  3
*D5
  1

  0
LINE
  5
121
330
120
100
AcDbEntity
  8
1
  6
Continuous
 62
     2
100
AcDbLine
 10
-25.3936082709563
 20
139.044379121875
 30
0.0
 11
-25.3936082709563
 21
176.544379121875
 31
0.0
  0
LINE
  5
122
330
120
100
AcDbEntity
  8
1
  6
Continuous
 62
     2
100
AcDbLine
 10
23.5368363322311
 20
139.044379121875
 30
0.0
 11
-27.3936082709563
 21
139.044379121875
 31
0.0
  0
LINE
  5
123
330
120
100
AcDbEntity
  8
1
  6
Continuous
 62
     2
100
AcDbLine
 10
33.5368363322311
 20
176.544379121875
 30
0.0
 11
-27.3936082709563
 21
176.544379121875
 31
0.0
  0
SOLID
  5
124
330
120
100
AcDbEntity
  8
1
 62
     2
100
AcDbTrace
 10
-25.85439201251219
 20
142.544379121875
 30
0.0
 11
-24.93282452940041
 21
142.544379121875
 31
0.0
 12
-25.3936082709563
 22
139.044379121875
 32
0.0
 13
-25.3936082709563
 23
139.044379121875
 33
0.0
  0
SOLID
  5
125
330
120
100
AcDbEntity
  8
1
 62
     2
100
AcDbTrace
 10
-24.93282452940042
 20
173.044379121875
 30
0.0
 11
-25.85439201251219
 21
173.044379121875
 31
0.0
 12
-25.3936082709563
 22
176.544379121875
 32
0.0
 13
-25.3936082709563
 23
176.544379121875
 33
0.0
  0
MTEXT
  5
126
330
120
100
AcDbEntity
  8
1
 62
     2
100
AcDbMText
 10
-27.3936082709563
 20
156.507481285202
 30
0.0
 40
3.5
 41
0.0
 71
     7
 72
     1
  1
37.5
  7
CONVERTER_11
 11
0.0
 21
1.0
 31
0.0
 73
     1
 44
0.60024009603842
  0
ENDBLK
  5
128
330
120
100
AcDbEntity
  8
0
100
AcDbBlockEnd
  0
BLOCK
  5
134
330
12B
100
AcDbEntity
  8
0
100
AcDbBlockBegin
  2
*D6
 70
     1
 71
     0
 10
0.0
 20
0.0
 30
0.0
  3
*D6
  1

  0
LINE
  5
12C
330
12B
100
AcDbEntity
  8
1
  6
Continuous
 62
     2
100
AcDbLine
 10
37.03683633223112
 20
120.702359197051
 30
0.0
 11
44.03683633223112
 21
120.702359197051
 31
0.0
  0
LINE
  5
12D
330
12B
100
AcDbEntity
  8
1
  6
Continuous
 62
     2
100
AcDbLine
 10
44.03683633223112
 20
120.702359197051
 30
0.0
 11
47.53683633223113
 21
120.702359197051
 31
0.0
  0
LINE
  5
12E
330
12B
100
AcDbEntity
  8
1
  6
Continuous
 62
     2
100
AcDbLine
 10
47.53683633223113
 20
120.702359197051
 30
0.0
 11
54.9189762139921
 21
120.702359197051
 31
0.0
  0
LINE
  5
12F
330
12B
100
AcDbEntity
  8
1
  6
Continuous
 62
     2
100
AcDbLine
 10
44.03683633223112
 20
149.544379121875
 30
0.0
 11
44.03683633223112
 21
118.702359197051
 31
0.0
  0
LINE
  5
130
330
12B
100
AcDbEntity
  8
1
  6
Continuous
 62
     2
100
AcDbLine
 10
47.53683633223113
 20
149.044379121875
 30
0.0
 11
47.53683633223113
 21
118.702359197051
 31
0.0
  0
SOLID
  5
131
330
12B
100
AcDbEntity
  8
1
 62
     2
100
AcDbTrace
 10
40.53683633223112
 20
120.2415754554951
 30
0.0
 11
40.53683633223112
 21
121.1631429386069
 31
0.0
 12
44.03683633223112
 22
120.702359197051
 32
0.0
 13
44.03683633223112
 23
120.702359197051
 33
0.0
  0
SOLID
  5
132
330
12B
100
AcDbEntity
  8
1
 62
     2
100
AcDbTrace
 10
51.03683633223113
 20
121.1631429386069
 30
0.0
 11
51.03683633223113
 21
120.2415754554951
 31
0.0
 12
47.53683633223113
 22
120.702359197051
 32
0.0
 13
47.53683633223113
 23
120.702359197051
 33
0.0
  0
MTEXT
  5
133
330
12B
100
AcDbEntity
  8
1
 62
     2
100
AcDbMText
 10
48.5314762139921
 20
122.702359197051
 30
0.0
 40
3.5
 41
0.0
 71
     7
 72
     1
  1
3.5
  7
CONVERTER_11
 11
0.9999999999970621
 21
2.424068405545307E-6
 31
0.0
 73
     1
 44
0.60024009603842
  0
ENDBLK
  5
135
330
12B
100
AcDbEntity
  8
0
100
AcDbBlockEnd
  0
BLOCK
  5
13F
330
138
100
AcDbEntity
  8
0
100
AcDbBlockBegin
  2
*D7
 70
     1
 71
     0
 10
0.0
 20
0.0
 30
0.0
  3
*D7
  1

  0
LINE
  5
139
330
138
100
AcDbEntity
  8
1
  6
Continuous
 62
     2
100
AcDbLine
 10
34.53683633223113
 20
110.509992513268
 30
0.0
 11
47.53683633223113
 21
110.509992513268
 31
0.0
  0
LINE
  5
13A
330
138
100
AcDbEntity
  8
1
  6
Continuous
 62
     2
100
AcDbLine
 10
34.53683633223113
 20
130.544379121875
 30
0.0
 11
34.53683633223113
 21
108.509992513268
 31
0.0
  0
LINE
  5
13B
330
138
100
AcDbEntity
  8
1
  6
Continuous
 62
     2
100
AcDbLine
 10
47.53683633223113
 20
160.044379121875
 30
0.0
 11
47.53683633223113
 21
108.509992513268
 31
0.0
  0
SOLID
  5
13C
330
138
100
AcDbEntity
  8
1
 62
     2
100
AcDbTrace
 10
38.03683633223113
 20
110.9707762548239
 30
0.0
 11
38.03683633223113
 21
110.0492087717121
 31
0.0
 12
34.53683633223113
 22
110.509992513268
 32
0.0
 13
34.53683633223113
 23
110.509992513268
 33
0.0
  0
SOLID
  5
13D
330
138
100
AcDbEntity
  8
1
 62
     2
100
AcDbTrace
 10
44.03683633223113
 20
110.0492087717121
 30
0.0
 11
44.03683633223113
 21
110.9707762548239
 31
0.0
 12
47.53683633223113
 22
110.509992513268
 32
0.0
 13
47.53683633223113
 23
110.509992513268
 33
0.0
  0
MTEXT
  5
13E
330
138
100
AcDbEntity
  8
1
 62
     2
100
AcDbMText
 10
39.5527697264887
 20
112.509992513268
 30
0.0
 40
3.5
 41
0.0
 71
     7
 72
     1
  1
13
  7
CONVERTER_11
 11
0.9999999999970621
 21
2.424068405545307E-6
 31
0.0
 73
     1
 44
0.60024009603842
  0
ENDBLK
  5
140
330
138
100
AcDbEntity
  8
0
100
AcDbBlockEnd
  0
BLOCK
  5
14C
330
143
100
AcDbEntity
  8
0
100
AcDbBlockBegin
  2
*D8
 70
     1
 71
     0
 10
0.0
 20
0.0
 30
0.0
  3
*D8
  1

  0
LINE
  5
144
330
143
100
AcDbEntity
  8
1
  6
Continuous
 62
     2
100
AcDbLine
 10
48.53683633223114
 20
110.509992513268
 30
0.0
 11
55.53683633223113
 21
110.509992513268
 31
0.0
  0
LINE
  5
145
330
143
100
AcDbEntity
  8
1
  6
Continuous
 62
     2
100
AcDbLine
 10
55.53683633223113
 20
110.509992513268
 30
0.0
 11
58.53683633223113
 21
110.509992513268
 31
0.0
  0
LINE
  5
146
330
143
100
AcDbEntity
  8
1
  6
Continuous
 62
     2
100
AcDbLine
 10
58.53683633223113
 20
110.509992513268
 30
0.0
 11
65.53683633223113
 21
110.509992513268
 31
0.0
  0
LINE
  5
147
330
143
100
AcDbEntity
  8
1
  6
Continuous
 62
     2
100
AcDbLine
 10
55.53683633223113
 20
150.044379121875
 30
0.0
 11
55.53683633223113
 21
108.509992513268
 31
0.0
  0
LINE
  5
148
330
143
100
AcDbEntity
  8
1
  6
Continuous
 62
     2
100
AcDbLine
 10
58.53683633223113
 20
145.044379121875
 30
0.0
 11
58.53683633223113
 21
108.509992513268
 31
0.0
  0
SOLID
  5
149
330
143
100
AcDbEntity
  8
1
 62
     2
100
AcDbTrace
 10
52.03683633223113
 20
110.0492087717121
 30
0.0
 11
52.03683633223113
 21
110.9707762548239
 31
0.0
 12
55.53683633223113
 22
110.509992513268
 32
0.0
 13
55.53683633223113
 23
110.509992513268
 33
0.0
  0
SOLID
  5
14A
330
143
100
AcDbEntity
  8
1
 62
     2
100
AcDbTrace
 10
62.03683633223113
 20
110.9707762548239
 30
0.0
 11
62.03683633223113
 21
110.0492087717121
 31
0.0
 12
58.53683633223113
 22
110.509992513268
 32
0.0
 13
58.53683633223113
 23
110.509992513268
 33
0.0
  0
MTEXT
  5
14B
330
143
100
AcDbEntity
  8
1
 62
     2
100
AcDbMText
 10
62.0666948605733
 20
112.509992513268
 30
0.0
 40
3.5
 41
0.0
 71
     7
 72
     1
  1
3
  7
CONVERTER_11
 11
0.9999999999970621
 21
2.424068405545307E-6
 31
0.0
 73
     1
 44
0.60024009603842
  0
ENDBLK
  5
14D
330
143
100
AcDbEntity
  8
0
100
AcDbBlockEnd
  0
BLOCK
  5
157
330
150
100
AcDbEntity
  8
0
100
AcDbBlockBegin
  2
*D9
 70
     1
 71
     0
 10
0.0
 20
0.0
 30
0.0
  3
*D9
  1

  0
LINE
  5
151
330
150
100
AcDbEntity
  8
1
  6
Continuous
 62
     2
100
AcDbLine
 10
23.5368363322311
 20
100.557446222044
 30
0.0
 11
47.53683633223113
 21
100.557446222044
 31
0.0
  0
LINE
  5
152
330
150
100
AcDbEntity
  8
1
  6
Continuous
 62
     2
100
AcDbLine
 10
23.5368363322311
 20
129.1553218583227
 30
0.0
 11
23.5368363322311
 21
98.557446222044
 31
0.0
  0
LINE
  5
153
330
150
100
AcDbEntity
  8
1
  6
Continuous
 62
     2
100
AcDbLine
 10
47.53683633223113
 20
160.044379121875
 30
0.0
 11
47.53683633223113
 21
98.557446222044
 31
0.0
  0
SOLID
  5
154
330
150
100
AcDbEntity
  8
1
 62
     2
100
AcDbTrace
 10
27.0368363322311
 20
101.0182299635999
 30
0.0
 11
27.0368363322311
 21
100.0966624804881
 31
0.0
 12
23.5368363322311
 22
100.557446222044
 32
0.0
 13
23.5368363322311
 23
100.557446222044
 33
0.0
  0
SOLID
  5
155
330
150
100
AcDbEntity
  8
1
 62
     2
100
AcDbTrace
 10
44.03683633223113
 20
100.0966624804881
 30
0.0
 11
44.03683633223113
 21
101.0182299635999
 31
0.0
 12
47.53683633223113
 22
100.557446222044
 32
0.0
 13
47.53683633223113
 23
100.557446222044
 33
0.0
  0
MTEXT
  5
156
330
150
100
AcDbEntity
  8
1
 62
     2
100
AcDbMText
 10
34.1114516790168
 20
102.557446222044
 30
0.0
 40
3.5
 41
0.0
 71
     7
 72
     1
  1
24
  7
CONVERTER_11
 11
0.9999999999970621
 21
2.424068405545307E-6
 31
0.0
 73
     1
 44
0.60024009603842
  0
ENDBLK
  5
158
330
150
100
AcDbEntity
  8
0
100
AcDbBlockEnd
  0
BLOCK
  5
162
330
15B
100
AcDbEntity
  8
0
100
AcDbBlockBegin
  2
*D10
 70
     1
 71
     0
 10
0.0
 20
0.0
 30
0.0
  3
*D10
  1

  0
LINE
  5
15C
330
15B
100
AcDbEntity
  8
1
  6
Continuous
 62
     2
100
AcDbLine
 10
47.53683633223113
 20
100.557446222044
 30
0.0
 11
58.53683633223113
 21
100.557446222044
 31
0.0
  0
LINE
  5
15D
330
15B
100
AcDbEntity
  8
1
  6
Continuous
 62
     2
100
AcDbLine
 10
47.53683633223113
 20
149.044379121875
 30
0.0
 11
47.53683633223113
 21
98.557446222044
 31
0.0
  0
LINE
  5
15E
330
15B
100
AcDbEntity
  8
1
  6
Continuous
 62
     2
100
AcDbLine
 10
58.53683633223113
 20
171.544379121875
 30
0.0
 11
58.53683633223113
 21
98.557446222044
 31
0.0
  0
SOLID
  5
15F
330
15B
100
AcDbEntity
  8
1
 62
     2
100
AcDbTrace
 10
51.03683633223113
 20
101.0182299635999
 30
0.0
 11
51.03683633223113
 21
100.0966624804881
 31
0.0
 12
47.53683633223113
 22
100.557446222044
 32
0.0
 13
47.53683633223113
 23
100.557446222044
 33
0.0
  0
SOLID
  5
160
330
15B
100
AcDbEntity
  8
1
 62
     2
100
AcDbTrace
 10
55.03683633223113
 20
100.0966624804881
 30
0.0
 11
55.03683633223113
 21
101.0182299635999
 31
0.0
 12
58.53683633223113
 22
100.557446222044
 32
0.0
 13
58.53683633223113
 23
100.557446222044
 33
0.0
  0
MTEXT
  5
161
330
15B
100
AcDbEntity
  8
1
 62
     2
100
AcDbMText
 10
50.6298669991113
 20
102.557446222044
 30
0.0
 40
3.5
 41
0.0
 71
     7
 72
     1
  1
11
  7
CONVERTER_11
 11
0.9999999999970621
 21
2.424068405545307E-6
 31
0.0
 73
     1
 44
0.60024009603842
  0
ENDBLK
  5
163
330
15B
100
AcDbEntity
  8
0
100
AcDbBlockEnd
  0
BLOCK
  5
16D
330
166
100
AcDbEntity
  8
0
100
AcDbBlockBegin
  2
*D11
 70
     1
 71
     0
 10
0.0
 20
0.0
 30
0.0
  3
*D11
  1

  0
LINE
  5
167
330
166
100
AcDbEntity
  8
1
  6
Continuous
 62
     2
100
AcDbLine
 10
133.577697208362
 20
171.544379121875
 30
0.0
 11
133.577697208362
 21
149.044379121875
 31
0.0
  0
LINE
  5
168
330
166
100
AcDbEntity
  8
1
  6
Continuous
 62
     2
100
AcDbLine
 10
49.53683633223113
 20
171.544379121875
 30
0.0
 11
135.577697208362
 21
171.544379121875
 31
0.0
  0
LINE
  5
169
330
166
100
AcDbEntity
  8
1
  6
Continuous
 62
     2
100
AcDbLine
 10
47.53683633223113
 20
149.044379121875
 30
0.0
 11
135.577697208362
 21
149.044379121875
 31
0.0
  0
SOLID
  5
16A
330
166
100
AcDbEntity
  8
1
 62
     2
100
AcDbTrace
 10
134.0384809499179
 20
168.044379121875
 30
0.0
 11
133.1169134668061
 21
168.044379121875
 31
0.0
 12
133.577697208362
 22
171.544379121875
 32
0.0
 13
133.577697208362
 23
171.544379121875
 33
0.0
  0
SOLID
  5
16B
330
166
100
AcDbEntity
  8
1
 62
     2
100
AcDbTrace
 10
133.1169134668061
 20
152.544379121875
 30
0.0
 11
134.0384809499179
 21
152.544379121875
 31
0.0
 12
133.577697208362
 22
149.044379121875
 32
0.0
 13
133.577697208362
 23
149.044379121875
 33
0.0
  0
MTEXT
  5
16C
330
166
100
AcDbEntity
  8
1
 62
     2
100
AcDbMText
 10
131.577697208362
 20
155.940875280489
 30
0.0
 40
3.5
 41
0.0
 71
     7
 72
     1
  1
22.5
  7
CONVERTER_11
 11
0.0
 21
1.0
 31
0.0
 73
     1
 44
0.60024009603842
  0
ENDBLK
  5
16E
330
166
100
AcDbEntity
  8
0
100
AcDbBlockEnd
  0
ENDSEC
  0
SECTION
  2
ENTITIES
  0
POINT
  5
32
330
1F
100
AcDbEntity
  8
1
 62
     7
100
AcDbPoint
 10
23.5368363322311
 20
149.1553218583227
 30
0.0
  0
POINT
  5
33
330
1F
100
AcDbEntity
  8
1
 62
     7
100
AcDbPoint
 10
23.5368363322311
 20
149.1553218583227
 30
0.0
  0
LINE
  5
34
330
1F
100
AcDbEntity
  8
1
  6
Continuous
 62
     7
100
AcDbLine
 10
44.03683633223113
 20
177.544379121875
 30
0.0
 11
44.03683633223112
 21
168.794379121875
 31
0.0
  0
LINE
  5
35
330
1F
100
AcDbEntity
  8
1
  6
Continuous
 62
     7
100
AcDbLine
 10
44.03683633223112
 20
178.544379121875
 30
0.0
 11
44.03683633223113
 21
177.544379121875
 31
0.0
  0
LINE
  5
36
330
1F
100
AcDbEntity
  8
1
  6
Continuous
 62
     7
100
AcDbLine
 10
44.03683633223112
 20
179.544379121875
 30
0.0
 11
44.03683633223112
 21
178.544379121875
 31
0.0
  0
LINE
  5
37
330
1F
100
AcDbEntity
  8
1
  6
Continuous
 62
     7
100
AcDbLine
 10
30.5368363322311
 20
149.544379121875
 30
0.0
 11
27.0368363322311
 21
149.544379121875
 31
0.0
  0
LINE
  5
38
330
1F
100
AcDbEntity
  8
1
  6
Continuous
 62
     7
100
AcDbLine
 10
33.5368363322311
 20
152.544379121875
 30
0.0
 11
37.0368363322311
 21
152.544379121875
 31
0.0
  0
LINE
  5
39
330
1F
100
AcDbEntity
  8
1
  6
Continuous
 62
     2
100
AcDbLine
 10
55.2165785197312
 20
174.544379121875
 30
0.0
 11
45.76888713980002
 21
174.544379121875
 31
0.0
  0
LINE
  5
3A
330
1F
100
AcDbEntity
  8
1
  6
Continuous
 62
     7
100
AcDbLine
 10
55.2165785197312
 20
174.544379121875
 30
0.0
 11
55.30478552466224
 21
174.544379121875
 31
0.0
  0
LINE
  5
3B
330
1F
100
AcDbEntity
  8
1
  6
Continuous
 62
     7
100
AcDbLine
 10
20.03683633223112
 20
154.544379121875
 30
0.0
 11
20.0368363322311
 21
152.544379121875
 31
0.0
  0
LINE
  5
3C
330
1F
100
AcDbEntity
  8
1
  6
Continuous
 62
     7
100
AcDbLine
 10
20.03683633223112
 20
154.544379121875
 30
0.0
 11
20.03683633223112
 21
164.544379121875
 31
0.0
  0
LINE
  5
3D
330
1F
100
AcDbEntity
  8
1
  6
Continuous
 62
     7
100
AcDbLine
 10
44.03683633223112
 20
158.294379121875
 30
0.0
 11
44.03683633223112
 21
149.544379121875
 31
0.0
  0
LINE
  5
3E
330
1F
100
AcDbEntity
  8
1
  6
Continuous
 62
     7
100
AcDbLine
 10
44.03683633223112
 20
168.794379121875
 30
0.0
 11
44.03683633223112
 21
158.294379121875
 31
0.0
  0
LINE
  5
3F
330
1F
100
AcDbEntity
  8
1
  6
Continuous
 62
     7
100
AcDbLine
 10
30.53683633223104
 20
155.544379121875
 30
0.0
 11
30.53683633223104
 21
160.5443791218751
 31
0.0
  0
LINE
  5
40
330
1F
100
AcDbEntity
  8
1
  6
Continuous
 62
     7
100
AcDbLine
 10
33.53683633223109
 20
155.544379121875
 30
0.0
 11
33.53683633223109
 21
157.144379121875
 31
0.0
  0
LINE
  5
41
330
1F
100
AcDbEntity
  8
1
  6
Continuous
 62
     7
100
AcDbLine
 10
30.5368363322311
 20
157.144379121875
 30
0.0
 11
30.53683633223104
 21
160.5443791218751
 31
0.0
  0
LINE
  5
42
330
1F
100
AcDbEntity
  8
1
  6
Continuous
 62
     7
100
AcDbLine
 10
33.53683633223109
 20
157.144379121875
 30
0.0
 11
33.53683633223109
 21
160.0443791218751
 31
0.0
  0
LINE
  5
43
330
1F
100
AcDbEntity
  8
1
  6
Continuous
 62
     7
100
AcDbLine
 10
33.5368363322311
 20
175.944379121875
 30
0.0
 11
33.5368363322311
 21
161.044379121875
 31
0.0
  0
LINE
  5
44
330
1F
100
AcDbEntity
  8
1
  6
Continuous
 62
     7
100
AcDbLine
 10
33.53683633223109
 20
160.0443791218751
 30
0.0
 11
33.53683633223109
 21
160.5443791218751
 31
0.0
  0
LINE
  5
45
330
1F
100
AcDbEntity
  8
1
  6
Continuous
 62
     7
100
AcDbLine
 10
33.5368363322311
 20
161.044379121875
 30
0.0
 11
33.53683633223109
 21
160.5443791218751
 31
0.0
  0
LINE
  5
46
330
1F
100
AcDbEntity
  8
1
  6
Continuous
 62
     7
100
AcDbLine
 10
20.03683633223113
 20
178.544379121875
 30
0.0
 11
23.03683633223113
 21
178.544379121875
 31
0.0
  0
LINE
  5
47
330
1F
100
AcDbEntity
  8
1
  6
Continuous
 62
     7
100
AcDbLine
 10
23.03683633223113
 20
178.544379121875
 30
0.0
 11
41.03683633223112
 21
178.544379121875
 31
0.0
  0
LINE
  5
48
330
1F
100
AcDbEntity
  8
1
  6
Continuous
 62
     7
100
AcDbLine
 10
41.03683633223112
 20
152.544379121875
 30
0.0
 11
41.03683633223112
 21
168.794379121875
 31
0.0
  0
LINE
  5
49
330
1F
100
AcDbEntity
  8
1
  6
Continuous
 62
     7
100
AcDbLine
 10
37.0368363322311
 20
149.544379121875
 30
0.0
 11
37.0368363322311
 21
152.544379121875
 31
0.0
  0
LINE
  5
4A
330
1F
100
AcDbEntity
  8
1
  6
Continuous
 62
     7
100
AcDbLine
 10
27.0368363322311
 20
149.544379121875
 30
0.0
 11
27.0368363322311
 21
152.544379121875
 31
0.0
  0
LINE
  5
4B
330
1F
100
AcDbEntity
  8
1
  6
Continuous
 62
     7
100
AcDbLine
 10
44.03683633223112
 20
149.544379121875
 30
0.0
 11
37.0368363322311
 21
149.544379121875
 31
0.0
  0
LINE
  5
4C
330
1F
100
AcDbEntity
  8
1
  6
Continuous
 62
     7
100
AcDbLine
 10
41.03683633223112
 20
178.544379121875
 30
0.0
 11
44.03683633223112
 21
178.544379121875
 31
0.0
  0
LINE
  5
4D
330
1F
100
AcDbEntity
  8
1
  6
Continuous
 62
     7
100
AcDbLine
 10
20.0368363322311
 20
152.544379121875
 30
0.0
 11
27.0368363322311
 21
152.544379121875
 31
0.0
  0
LINE
  5
4E
330
1F
100
AcDbEntity
  8
1
  6
Continuous
 62
     7
100
AcDbLine
 10
20.03683633223113
 20
149.544379121875
 30
0.0
 11
20.0368363322311
 21
152.544379121875
 31
0.0
  0
LINE
  5
4F
330
1F
100
AcDbEntity
  8
1
  6
Continuous
 62
     7
100
AcDbLine
 10
41.03683633223112
 20
158.294379121875
 30
0.0
 11
41.03683633223112
 21
158.544379121875
 31
0.0
  0
LINE
  5
50
330
1F
100
AcDbEntity
  8
1
  6
Continuous
 62
     7
100
AcDbLine
 10
41.03683633223112
 20
168.794379121875
 30
0.0
 11
41.03683633223112
 21
178.544379121875
 31
0.0
  0
LINE
  5
51
330
1F
100
AcDbEntity
  8
1
  6
Continuous
 62
     7
100
AcDbLine
 10
27.0368363322311
 20
149.544379121875
 30
0.0
 11
20.03683633223113
 21
149.544379121875
 31
0.0
  0
LINE
  5
52
330
1F
100
AcDbEntity
  8
1
  6
Continuous
 62
     7
100
AcDbLine
 10
37.0368363322311
 20
149.544379121875
 30
0.0
 11
33.5368363322311
 21
149.544379121875
 31
0.0
  0
LINE
  5
53
330
1F
100
AcDbEntity
  8
1
  6
Continuous
 62
     7
100
AcDbLine
 10
27.0368363322311
 20
152.544379121875
 30
0.0
 11
30.5368363322311
 21
152.544379121875
 31
0.0
  0
LINE
  5
54
330
1F
100
AcDbEntity
  8
1
  6
Continuous
 62
     7
100
AcDbLine
 10
37.0368363322311
 20
152.544379121875
 30
0.0
 11
41.03683633223112
 21
152.544379121875
 31
0.0
  0
LINE
  5
55
330
1F
100
AcDbEntity
  8
1
  6
Continuous
 62
     7
100
AcDbLine
 10
41.03683633223112
 20
168.5443791218751
 30
0.0
 11
41.03683633223112
 21
168.794379121875
 31
0.0
  0
LINE
  5
56
330
1F
100
AcDbEntity
  8
1
  6
Continuous
 62
     2
100
AcDbLine
 10
56.0368363322311
 20
178.544379121875
 30
0.0
 11
45.03683633223113
 21
178.544379121875
 31
0.0
  0
LINE
  5
57
330
1F
100
AcDbEntity
  8
1
  6
Continuous
 62
     2
100
AcDbLine
 10
45.03683633223113
 20
178.544379121875
 30
0.0
 11
45.03683633223113
 21
177.8123283143062
 31
0.0
  0
LINE
  5
58
330
1F
100
AcDbEntity
  8
1
  6
Continuous
 62
     2
100
AcDbLine
 10
46.3462374089896
 20
175.544379121875
 30
0.0
 11
45.03683633223113
 21
177.8123283143062
 31
0.0
  0
LINE
  5
59
330
1F
100
AcDbEntity
  8
1
  6
Continuous
 62
     2
100
AcDbLine
 10
54.72743525547259
 20
175.544379121875
 30
0.0
 11
46.3462374089896
 21
175.544379121875
 31
0.0
  0
LINE
  5
5A
330
1F
100
AcDbEntity
  8
1
  6
Continuous
 62
     2
100
AcDbLine
 10
56.03683633223112
 20
177.8123283143061
 30
0.0
 11
54.72743525547259
 21
175.544379121875
 31
0.0
  0
LINE
  5
5B
330
1F
100
AcDbEntity
  8
1
  6
Continuous
 62
     2
100
AcDbLine
 10
56.0368363322311
 20
178.544379121875
 30
0.0
 11
56.03683633223112
 21
177.8123283143061
 31
0.0
  0
LINE
  5
5C
330
1F
100
AcDbEntity
  8
1
  6
Continuous
 62
     2
100
AcDbLine
 10
45.76888713980002
 20
174.544379121875
 30
0.0
 11
44.03683633223113
 21
177.544379121875
 31
0.0
  0
LINE
  5
5D
330
1F
100
AcDbEntity
  8
1
  6
Continuous
 62
     2
100
AcDbLine
 10
55.30478552466224
 20
174.544379121875
 30
0.0
 11
55.2165785197312
 21
174.544379121875
 31
0.0
  0
LINE
  5
5E
330
1F
100
AcDbEntity
  8
1
  6
Continuous
 62
     2
100
AcDbLine
 10
57.03683633223112
 20
177.544379121875
 30
0.0
 11
55.30478552466224
 21
174.544379121875
 31
0.0
  0
LINE
  5
5F
330
1F
100
AcDbEntity
  8
1
  6
Continuous
 62
     2
100
AcDbLine
 10
57.03683633223112
 20
179.544379121875
 30
0.0
 11
57.03683633223112
 21
177.544379121875
 31
0.0
  0
LINE
  5
60
330
1F
100
AcDbEntity
  8
1
  6
DOT_CENTER
 62
     2
100
AcDbLine
 10
-5.96316366776888
 20
210.844379121875
 30
0.0
 11
-8.65044614106987
 21
210.844379121875
 31
0.0
  0
LINE
  5
61
330
1F
100
AcDbEntity
  8
1
  6
DOT_CENTER
 62
     2
100
AcDbLine
 10
57.03683633223112
 20
210.844379121875
 30
0.0
 11
59.54702443793713
 21
210.844379121875
 31
0.0
  0
LINE
  5
62
330
1F
100
AcDbEntity
  8
1
  6
Continuous
 62
     7
100
AcDbLine
 10
57.03683633223112
 20
179.544379121875
 30
0.0
 11
44.03683633223112
 21
179.544379121875
 31
0.0
  0
LINE
  5
63
330
1F
100
AcDbEntity
  8
1
  6
Continuous
 62
     7
100
AcDbLine
 10
57.03683633223112
 20
210.844379121875
 30
0.0
 11
57.03683633223112
 21
179.544379121875
 31
0.0
  0
LINE
  5
64
330
1F
100
AcDbEntity
  8
1
  6
Continuous
 62
     7
100
AcDbLine
 10
-5.96316366776888
 20
149.544379121875
 30
0.0
 11
20.03683633223113
 21
149.544379121875
 31
0.0
  0
LINE
  5
65
330
1F
100
AcDbEntity
  8
1
  6
Continuous
 62
     7
100
AcDbLine
 10
-5.96316366776888
 20
149.544379121875
 30
0.0
 11
-5.96316366776888
 21
210.844379121875
 31
0.0
  0
LINE
  5
66
330
1F
100
AcDbEntity
  8
1
  6
DOT_CENTER
 62
     2
100
AcDbLine
 10
-5.96316366776888
 20
210.844379121875
 30
0.0
 11
57.03683633223112
 21
210.844379121875
 31
0.0
  0
LINE
  5
67
330
1F
100
AcDbEntity
  8
1
  6
Continuous
 62
     7
100
AcDbLine
 10
20.03683633223112
 20
168.544379121875
 30
0.0
 11
20.03683633223113
 21
178.544379121875
 31
0.0
  0
LINE
  5
68
330
1F
100
AcDbEntity
  8
1
  6
Continuous
 62
     7
100
AcDbLine
 10
20.03683633223112
 20
164.544379121875
 30
0.0
 11
20.03683633223112
 21
168.544379121875
 31
0.0
  0
LINE
  5
69
330
1F
100
AcDbEntity
  8
1
  6
Continuous
 62
     7
100
AcDbLine
 10
33.5368363322311
 20
151.091782480116
 30
0.0
 11
33.5368363322311
 21
158.044379121875
 31
0.0
  0
LINE
  5
6A
330
1F
100
AcDbEntity
  8
1
  6
Continuous
 62
     7
100
AcDbLine
 10
30.5368363322311
 20
150.913679253677
 30
0.0
 11
30.5368363322311
 21
148.158357199059
 31
0.0
  0
LINE
  5
6B
330
1F
100
AcDbEntity
  8
1
  6
Continuous
 62
     7
100
AcDbLine
 10
33.53683633223109
 20
160.5443791218751
 30
0.0
 11
33.5368363322311
 21
170.044379121875
 31
0.0
  0
LINE
  5
6C
330
1F
100
AcDbEntity
  8
1
  6
Continuous
 62
     7
100
AcDbLine
 10
30.53683633223104
 20
160.5443791218751
 30
0.0
 11
30.5368363322311
 21
158.0443791218751
 31
0.0
  0
LINE
  5
6D
330
1F
100
AcDbEntity
  8
1
  6
DOT_CENTER
 62
     2
100
AcDbLine
 10
23.5368363322311
 20
149.1553218583227
 30
0.0
 11
23.5368363322311
 21
139.044379121875
 31
0.0
  0
LINE
  5
6E
330
1F
100
AcDbEntity
  8
1
  6
DOT_CENTER
 62
     2
100
AcDbLine
 10
13.37668997965212
 20
139.044379121875
 30
0.0
 11
23.5368363322311
 21
139.044379121875
 31
0.0
  0
LINE
  5
6F
330
1F
100
AcDbEntity
  8
1
  6
Continuous
 62
     7
100
AcDbLine
 10
33.49406011518331
 20
147.6128265266037
 30
0.0
 11
33.00987619155371
 21
144.544379121875
 31
0.0
  0
LINE
  5
70
330
1F
100
AcDbEntity
  8
1
  6
Continuous
 62
     7
100
AcDbLine
 10
30.53072544408141
 20
148.0804242458511
 30
0.0
 11
30.08730079219062
 21
145.2702829836479
 31
0.0
  0
LINE
  5
71
330
1F
100
AcDbEntity
  8
1
  6
Continuous
 62
     7
100
AcDbLine
 10
33.5368363322311
 20
148.158357199059
 30
0.0
 11
33.5368363322311
 21
151.091782480116
 31
0.0
  0
LINE
  5
72
330
1F
100
AcDbEntity
  8
1
  6
Continuous
 62
     7
100
AcDbLine
 10
33.5368363322311
 20
170.044379121875
 30
0.0
 11
33.5368363322311
 21
176.544379121875
 31
0.0
  0
LINE
  5
73
330
1F
100
AcDbEntity
  8
1
  6
Continuous
 62
     7
100
AcDbLine
 10
30.5368363322311
 20
170.044379121875
 30
0.0
 11
30.53683633223104
 21
160.5443791218751
 31
0.0
  0
LINE
  5
74
330
1F
100
AcDbEntity
  8
1
  6
Continuous
 62
     7
100
AcDbLine
 10
33.5368363322311
 20
158.044379121875
 30
0.0
 11
33.53683633223109
 21
160.5443791218751
 31
0.0
  0
LINE
  5
75
330
1F
100
AcDbEntity
  8
1
  6
Continuous
 62
     7
100
AcDbLine
 10
30.5368363322311
 20
158.0443791218751
 30
0.0
 11
30.5368363322311
 21
150.913679253677
 31
0.0
  0
LINE
  5
76
330
1F
100
AcDbEntity
  8
1
  6
Continuous
 62
     7
100
AcDbLine
 10
58.53683633223113
 20
141.544379121875
 30
0.0
 11
58.53683633223113
 21
145.044379121875
 31
0.0
  0
LINE
  5
77
330
1F
100
AcDbEntity
  8
1
  6
Continuous
 62
     7
100
AcDbLine
 10
55.53683633223113
 20
150.044379121875
 30
0.0
 11
55.53683633223113
 21
171.544379121875
 31
0.0
  0
LINE
  5
78
330
1F
100
AcDbEntity
  8
1
  6
Continuous
 62
     7
100
AcDbLine
 10
31.65503576938037
 20
141.544379121875
 30
0.0
 11
31.66087473686717
 21
141.544379121875
 31
0.0
  0
LINE
  5
79
330
1F
100
AcDbEntity
  8
1
  6
Continuous
 62
     7
100
AcDbLine
 10
55.53683633223113
 20
145.544379121875
 30
0.0
 11
55.53683633223113
 21
150.044379121875
 31
0.0
  0
LINE
  5
7A
330
1F
100
AcDbEntity
  8
1
  6
Continuous
 62
     7
100
AcDbLine
 10
34.53683633223113
 20
141.544379121875
 30
0.0
 11
35.53683633223113
 21
141.544379121875
 31
0.0
  0
LINE
  5
7B
330
1F
100
AcDbEntity
  8
1
  6
Continuous
 62
     7
100
AcDbLine
 10
58.53683633223113
 20
171.544379121875
 30
0.0
 11
55.53683633223113
 21
171.544379121875
 31
0.0
  0
LINE
  5
7C
330
1F
100
AcDbEntity
  8
1
  6
Continuous
 62
     7
100
AcDbLine
 10
55.53683633223113
 20
171.544379121875
 30
0.0
 11
49.53683633223113
 21
171.544379121875
 31
0.0
  0
LINE
  5
7D
330
1F
100
AcDbEntity
  8
1
  6
Continuous
 62
     7
100
AcDbLine
 10
49.53683633223113
 20
150.044379121875
 30
0.0
 11
49.53683633223113
 21
161.544379121875
 31
0.0
  0
LINE
  5
7E
330
1F
100
AcDbEntity
  8
1
  6
Continuous
 62
     7
100
AcDbLine
 10
47.53683633223113
 20
171.544379121875
 30
0.0
 11
47.53683633223113
 21
167.044379121875
 31
0.0
  0
LINE
  5
7F
330
1F
100
AcDbEntity
  8
1
  6
Continuous
 62
     7
100
AcDbLine
 10
47.53683633223113
 20
149.044379121875
 30
0.0
 11
49.53683633223113
 21
149.044379121875
 31
0.0
  0
LINE
  5
80
330
1F
100
AcDbEntity
  8
1
  6
Continuous
 62
     7
100
AcDbLine
 10
49.53683633223113
 20
149.044379121875
 30
0.0
 11
49.53683633223113
 21
150.044379121875
 31
0.0
  0
LINE
  5
81
330
1F
100
AcDbEntity
  8
1
  6
Continuous
 62
     7
100
AcDbLine
 10
49.53683633223113
 20
150.044379121875
 30
0.0
 11
55.53683633223113
 21
150.044379121875
 31
0.0
  0
LINE
  5
82
330
1F
100
AcDbEntity
  8
1
  6
Continuous
 62
     7
100
AcDbLine
 10
49.53683633223113
 20
171.544379121875
 30
0.0
 11
47.53683633223113
 21
171.544379121875
 31
0.0
  0
LINE
  5
83
330
1F
100
AcDbEntity
  8
1
  6
Continuous
 62
     7
100
AcDbLine
 10
47.53683633223113
 20
171.544379121875
 30
0.0
 11
47.53683633223113
 21
174.544379121875
 31
0.0
  0
LINE
  5
84
330
1F
100
AcDbEntity
  8
1
  6
Continuous
 62
     7
100
AcDbLine
 10
47.53683633223113
 20
174.544379121875
 30
0.0
 11
123.6454096153303
 21
174.544379121875
 31
0.0
  0
LINE
  5
85
330
1F
100
AcDbEntity
  8
1
  6
Continuous
 62
     7
100
AcDbLine
 10
34.53683633223113
 20
141.544379121875
 30
0.0
 11
34.53683633223113
 21
130.544379121875
 31
0.0
  0
LINE
  5
86
330
1F
100
AcDbEntity
  8
1
  6
Continuous
 62
     7
100
AcDbLine
 10
39.94380554424322
 20
144.544379121875
 30
0.0
 11
55.03683633223113
 21
144.544379121875
 31
0.0
  0
LINE
  5
87
330
1F
100
AcDbEntity
  8
1
  6
Continuous
 62
     7
100
AcDbLine
 10
55.53683633223113
 20
145.544379121875
 30
0.0
 11
55.53683633223113
 21
145.044379121875
 31
0.0
  0
LINE
  5
88
330
1F
100
AcDbEntity
  8
1
  6
Continuous
 62
     7
100
AcDbLine
 10
47.53683633223113
 20
151.794379121875
 30
0.0
 11
47.53683633223113
 21
149.294379121875
 31
0.0
  0
LINE
  5
89
330
1F
100
AcDbEntity
  8
1
  6
Continuous
 62
     2
100
AcDbLine
 10
47.53683633223113
 20
151.794379121875
 30
0.0
 11
46.93683633223122
 21
151.794379121875
 31
0.0
  0
LINE
  5
8A
330
1F
100
AcDbEntity
  8
1
  6
Continuous
 62
     2
100
AcDbLine
 10
55.53683633223113
 20
145.544379121875
 30
0.0
 11
54.39805226439881
 21
150.044379121875
 31
0.0
  0
LINE
  5
8B
330
1F
100
AcDbEntity
  8
1
  6
Continuous
 62
     2
100
AcDbLine
 10
39.94380554424322
 20
148.544379121875
 30
0.0
 11
45.17670195231113
 21
148.544379121875
 31
0.0
  0
LINE
  5
8C
330
1F
100
AcDbEntity
  8
1
  6
Continuous
 62
     2
100
AcDbLine
 10
45.57670195231123
 20
148.944379121875
 30
0.0
 11
45.57670195231123
 21
149.144379121875
 31
0.0
  0
LINE
  5
8D
330
1F
100
AcDbEntity
  8
1
  6
Continuous
 62
     2
100
AcDbLine
 10
45.17670195231113
 20
149.544379121875
 30
0.0
 11
44.83683633223131
 21
149.544379121875
 31
0.0
  0
LINE
  5
8E
330
1F
100
AcDbEntity
  8
1
  6
Continuous
 62
     2
100
AcDbLine
 10
50.23418517394111
 20
146.0426414057395
 30
0.0
 11
49.53683633223113
 21
149.044379121875
 31
0.0
  0
LINE
  5
8F
330
1F
100
AcDbEntity
  8
1
  6
Continuous
 62
     2
100
AcDbLine
 10
51.31629207526663
 20
145.840851503834
 30
0.0
 11
50.25694754275855
 21
150.044379121875
 31
0.0
  0
LINE
  5
90
330
1F
100
AcDbEntity
  8
1
  6
Continuous
 62
     7
100
AcDbLine
 10
52.32749990357877
 20
150.044379121875
 30
0.0
 11
51.29222372316869
 21
150.044379121875
 31
0.0
  0
LINE
  5
91
330
1F
100
AcDbEntity
  8
1
  6
Continuous
 62
     2
100
AcDbLine
 10
52.29608797238006
 20
146.047906739916
 30
0.0
 11
51.29222372316869
 21
150.044379121875
 31
0.0
  0
LINE
  5
92
330
1F
100
AcDbEntity
  8
1
  6
Continuous
 62
     2
100
AcDbLine
 10
53.38684443608673
 20
145.840851503834
 30
0.0
 11
52.32749990357877
 21
150.044379121875
 31
0.0
  0
LINE
  5
93
330
1F
100
AcDbEntity
  8
1
  6
Continuous
 62
     7
100
AcDbLine
 10
54.39805226439881
 20
150.044379121875
 30
0.0
 11
53.36277608398882
 21
150.044379121875
 31
0.0
  0
LINE
  5
94
330
1F
100
AcDbEntity
  8
1
  6
Continuous
 62
     2
100
AcDbLine
 10
54.36664033320022
 20
146.047906739916
 30
0.0
 11
53.36277608398882
 21
150.044379121875
 31
0.0
  0
LINE
  5
95
330
1F
100
AcDbEntity
  8
1
  6
Continuous
 62
     2
100
AcDbLine
 10
53.98027000268462
 20
145.544379121875
 30
0.0
 11
53.77321476660256
 21
145.544379121875
 31
0.0
  0
LINE
  5
96
330
1F
100
AcDbEntity
  8
1
  6
Continuous
 62
     2
100
AcDbLine
 10
51.90971764186452
 20
145.544379121875
 30
0.0
 11
51.70266240578224
 21
145.544379121875
 31
0.0
  0
LINE
  5
97
330
1F
100
AcDbEntity
  8
1
  6
Continuous
 62
     2
100
AcDbLine
 10
49.84644231640561
 20
145.544379121875
 30
0.0
 11
47.93683633223122
 21
145.544379121875
 31
0.0
  0
LINE
  5
98
330
1F
100
AcDbEntity
  8
1
  6
Continuous
 62
     2
100
AcDbLine
 10
47.53683633223113
 20
145.944379121875
 30
0.0
 11
47.53683633223113
 21
149.294379121875
 31
0.0
  0
LINE
  5
99
330
1F
100
AcDbEntity
  8
1
  6
Continuous
 62
     2
100
AcDbLine
 10
46.53683633223113
 20
151.394379121875
 30
0.0
 11
46.53683633223113
 21
145.944379121875
 31
0.0
  0
LINE
  5
9A
330
1F
100
AcDbEntity
  8
1
  6
Continuous
 62
     2
100
AcDbLine
 10
46.13683633223127
 20
145.544379121875
 30
0.0
 11
39.94380554424322
 21
145.544379121875
 31
0.0
  0
LINE
  5
9B
330
1F
100
AcDbEntity
  8
1
  6
Continuous
 62
     2
100
AcDbLine
 10
44.83683633223131
 20
149.544379121875
 30
0.0
 11
39.94380554424322
 21
149.544379121875
 31
0.0
  0
LINE
  5
9C
330
1F
100
AcDbEntity
  8
1
  6
Continuous
 62
     7
100
AcDbLine
 10
50.25694754275855
 20
150.044379121875
 30
0.0
 11
49.53683633223113
 21
150.044379121875
 31
0.0
  0
LINE
  5
9D
330
1F
100
AcDbEntity
  8
1
  6
Continuous
 62
     7
100
AcDbLine
 10
49.53683633223113
 20
150.044379121875
 30
0.0
 11
49.53683633223113
 21
149.044379121875
 31
0.0
  0
LINE
  5
9E
330
1F
100
AcDbEntity
  8
1
  6
Continuous
 62
     7
100
AcDbLine
 10
49.53683633223113
 20
149.044379121875
 30
0.0
 11
49.53683633223113
 21
150.044379121875
 31
0.0
  0
LINE
  5
9F
330
1F
100
AcDbEntity
  8
1
  6
Continuous
 62
     7
100
AcDbLine
 10
47.53683633223113
 20
150.044379121875
 30
0.0
 11
47.53683633223113
 21
149.044379121875
 31
0.0
  0
LINE
  5
A0
330
1F
100
AcDbEntity
  8
1
  6
Continuous
 62
     7
100
AcDbLine
 10
34.53683633223113
 20
130.544379121875
 30
0.0
 11
123.6454096153302
 21
130.544379121875
 31
0.0
  0
LINE
  5
A1
330
1F
100
AcDbEntity
  8
1
  6
PHANTOM
 62
     2
100
AcDbLine
 10
123.6454096153302
 20
130.544379121875
 30
0.0
 11
123.6454096153303
 21
128.018211195101
 31
0.0
  0
LINE
  5
A2
330
1F
100
AcDbEntity
  8
1
  6
PHANTOM
 62
     2
100
AcDbLine
 10
123.6454096153303
 20
174.544379121875
 30
0.0
 11
123.6454096153302
 21
130.544379121875
 31
0.0
  0
LINE
  5
A3
330
1F
100
AcDbEntity
  8
1
  6
PHANTOM
 62
     2
100
AcDbLine
 10
123.6454096153303
 20
177.8044569394069
 30
0.0
 11
123.6454096153303
 21
174.544379121875
 31
0.0
  0
LINE
  5
A4
330
1F
100
AcDbEntity
  8
1
  6
Continuous
 62
     7
100
AcDbLine
 10
31.43114869605954
 20
144.597305773978
 30
0.0
 11
27.34291657868466
 21
146.6446260361243
 31
0.0
  0
LINE
  5
A5
330
1F
100
AcDbEntity
  8
1
  6
Continuous
 62
     7
100
AcDbLine
 10
31.65503576938034
 20
144.544379121875
 30
0.0
 11
35.53683633223113
 21
144.544379121875
 31
0.0
  0
LINE
  5
A6
330
1F
100
AcDbEntity
  8
1
  6
Continuous
 62
     7
100
AcDbLine
 10
30.08782625613478
 20
141.9148656865959
 30
0.0
 11
25.99959413875988
 21
143.9621859487422
 31
0.0
  0
LINE
  5
A7
330
1F
100
AcDbEntity
  8
1
  6
Continuous
 62
     7
100
AcDbLine
 10
31.66087473686717
 20
141.544379121875
 30
0.0
 11
33.5368363322311
 21
141.544379121875
 31
0.0
  0
LINE
  5
A8
330
1F
100
AcDbEntity
  8
1
  6
Continuous
 62
     7
100
AcDbLine
 10
31.66087473686717
 20
141.544379121875
 30
0.0
 11
28.7935670646426
 21
140.6620261806985
 31
0.0
  0
LINE
  5
A9
330
1F
100
AcDbEntity
  8
1
  6
DOT_CENTER
 62
     2
100
AcDbLine
 10
23.5368363322311
 20
139.044379121875
 30
0.0
 11
23.5368363322311
 21
129.1553218583227
 31
0.0
  0
LINE
  5
AA
330
1F
100
AcDbEntity
  8
1
  6
DOT_CENTER
 62
     2
100
AcDbLine
 10
23.5368363322311
 20
139.044379121875
 30
0.0
 11
33.37668997965212
 21
139.044379121875
 31
0.0
  0
LINE
  5
AB
330
1F
100
AcDbEntity
  8
1
  6
Continuous
 62
     7
100
AcDbLine
 10
32.5364928874598
 20
141.544379121875
 30
0.0
 11
32.0368363322311
 21
138.3778760941536
 31
0.0
  0
LINE
  5
AC
330
1F
100
AcDbEntity
  8
1
  6
Continuous
 62
     7
100
AcDbLine
 10
35.53683633223113
 20
141.544379121875
 30
0.0
 11
55.03683633223113
 21
141.544379121875
 31
0.0
  0
LINE
  5
AD
330
1F
100
AcDbEntity
  8
1
  6
Continuous
 62
     7
100
AcDbLine
 10
35.53683633223113
 20
144.544379121875
 30
0.0
 11
39.94380554424322
 21
144.544379121875
 31
0.0
  0
LINE
  5
AE
330
1F
100
AcDbEntity
  8
1
  6
Continuous
 62
     7
100
AcDbLine
 10
33.5368363322311
 20
141.544379121875
 30
0.0
 11
33.5368363322311
 21
143.794379121875
 31
0.0
  0
LINE
  5
AF
330
1F
100
AcDbEntity
  8
1
  6
Continuous
 62
     7
100
AcDbLine
 10
33.5368363322311
 20
141.544379121875
 30
0.0
 11
34.53683633223113
 21
141.544379121875
 31
0.0
  0
LINE
  5
B0
330
1F
100
AcDbEntity
  8
1
  6
Continuous
 62
     7
100
AcDbLine
 10
33.5368363322311
 20
143.794379121875
 30
0.0
 11
55.71683633223113
 21
143.794379121875
 31
0.0
  0
LINE
  5
B1
330
1F
100
AcDbEntity
  8
1
  6
Continuous
 62
     7
100
AcDbLine
 10
58.53683633223113
 20
145.044379121875
 30
0.0
 11
58.53683633223113
 21
171.544379121875
 31
0.0
  0
LINE
  5
B2
330
1F
100
AcDbEntity
  8
1
  6
Continuous
 62
     7
100
AcDbLine
 10
55.03683633223113
 20
141.544379121875
 30
0.0
 11
58.53683633223113
 21
141.544379121875
 31
0.0
  0
LINE
  5
B3
330
1F
100
AcDbEntity
  8
1
  6
Continuous
 62
     7
100
AcDbLine
 10
56.28683633223113
 20
144.364379121875
 30
0.0
 11
56.28683633223113
 21
145.044379121875
 31
0.0
  0
LINE
  5
B4
330
1F
100
AcDbEntity
  8
1
  6
Continuous
 62
     7
100
AcDbLine
 10
58.53683633223113
 20
145.044379121875
 30
0.0
 11
56.28683633223113
 21
145.044379121875
 31
0.0
  0
LINE
  5
B5
330
1F
100
AcDbEntity
  8
1
  6
Continuous
 62
     7
100
AcDbLine
 10
56.28683633223113
 20
145.044379121875
 30
0.0
 11
55.53683633223113
 21
145.044379121875
 31
0.0
  0
LINE
  5
B6
330
1F
100
AcDbEntity
  8
1
  6
DOT_CENTER
 62
     2
100
AcDbLine
 10
90.53683633223113
 20
152.5443791218751
 30
0.0
 11
54.03683633223113
 21
152.544379121875
 31
0.0
  0
LINE
  5
B7
330
1F
100
AcDbEntity
  8
1
  6
DOT_CENTER
 62
     2
100
AcDbLine
 10
66.18332032978492
 20
163.544379121875
 30
0.0
 11
46.03683633223113
 21
163.544379121875
 31
0.0
  0
LINE
  5
B8
330
1F
100
AcDbEntity
  8
1
  6
DASHED
 62
     2
100
AcDbLine
 10
49.53683633223113
 20
161.544379121875
 30
0.0
 11
49.03683633223113
 21
161.544379121875
 31
0.0
  0
LINE
  5
B9
330
1F
100
AcDbEntity
  8
1
  6
Continuous
 62
     7
100
AcDbLine
 10
49.53683633223113
 20
161.544379121875
 30
0.0
 11
49.53683633223113
 21
165.544379121875
 31
0.0
  0
LINE
  5
BA
330
1F
100
AcDbEntity
  8
1
  6
DASHED
 62
     2
100
AcDbLine
 10
49.03683633223113
 20
161.544379121875
 30
0.0
 11
47.53683633223113
 21
160.044379121875
 31
0.0
  0
LINE
  5
BB
330
1F
100
AcDbEntity
  8
1
  6
Continuous
 62
     7
100
AcDbLine
 10
47.53683633223113
 20
160.044379121875
 30
0.0
 11
47.53683633223113
 21
149.044379121875
 31
0.0
  0
LINE
  5
BC
330
1F
100
AcDbEntity
  8
1
  6
DASHED
 62
     2
100
AcDbLine
 10
49.53683633223113
 20
165.544379121875
 30
0.0
 11
49.03683633223113
 21
165.544379121875
 31
0.0
  0
LINE
  5
BD
330
1F
100
AcDbEntity
  8
1
  6
Continuous
 62
     7
100
AcDbLine
 10
49.53683633223113
 20
165.544379121875
 30
0.0
 11
49.53683633223113
 21
171.544379121875
 31
0.0
  0
LINE
  5
BE
330
1F
100
AcDbEntity
  8
1
  6
DASHED
 62
     2
100
AcDbLine
 10
49.03683633223113
 20
165.544379121875
 30
0.0
 11
47.53683633223113
 21
167.044379121875
 31
0.0
  0
LINE
  5
BF
330
1F
100
AcDbEntity
  8
1
  6
Continuous
 62
     7
100
AcDbLine
 10
47.53683633223113
 20
167.044379121875
 30
0.0
 11
47.53683633223113
 21
160.044379121875
 31
0.0
  0
LINE
  5
C0
330
1F
100
AcDbEntity
  8
1
  6
DASHED
 62
     2
100
AcDbLine
 10
49.03683633223113
 20
161.544379121875
 30
0.0
 11
49.03683633223113
 21
165.544379121875
 31
0.0
  0
LINE
  5
C1
330
1F
100
AcDbEntity
  8
1
  6
DASHED
 62
     2
100
AcDbLine
 10
108.5368363322311
 20
159.8841250840119
 30
0.0
 11
103.5368363322311
 21
158.5443791218563
 31
0.0
  0
LINE
  5
C2
330
1F
100
AcDbEntity
  8
1
  6
DASHED
 62
     2
100
AcDbLine
 10
108.5368363322311
 20
169.2046331597007
 30
0.0
 11
108.5368363322311
 21
159.8841250840119
 31
0.0
  0
LINE
  5
C3
330
1F
100
AcDbEntity
  8
1
  6
DASHED
 62
     2
100
AcDbLine
 10
103.5368363322311
 20
170.5443791218563
 30
0.0
 11
108.5368363322311
 21
169.2046331597007
 31
0.0
  0
LINE
  5
C4
330
1F
100
AcDbEntity
  8
1
  6
DASHED
 62
     2
100
AcDbLine
 10
103.5368363322311
 20
170.5443791218563
 30
0.0
 11
103.5368363322311
 21
158.5443791218563
 31
0.0
  0
LINE
  5
C5
330
1F
100
AcDbEntity
  8
1
  6
DASHED
 62
     2
100
AcDbLine
 10
58.53683633223105
 20
170.5443791218735
 30
0.0
 11
103.5368363322311
 21
170.5443791218563
 31
0.0
  0
LINE
  5
C6
330
1F
100
AcDbEntity
  8
1
  6
DASHED
 62
     2
100
AcDbLine
 10
103.5368363322311
 20
158.5443791218563
 30
0.0
 11
58.53683633223105
 21
158.5443791218735
 31
0.0
  0
LINE
  5
C7
330
1F
100
AcDbEntity
  8
1
  6
DASHED
 62
     2
100
AcDbLine
 10
55.83683633223112
 20
159.294379121875
 30
0.0
 11
55.83683633223112
 21
169.794379121875
 31
0.0
  0
LINE
  5
C8
330
1F
100
AcDbEntity
  8
1
  6
DASHED
 62
     2
100
AcDbLine
 10
55.83683633223112
 20
169.794379121875
 30
0.0
 11
55.53683633223113
 21
169.794379121875
 31
0.0
  0
LINE
  5
C9
330
1F
100
AcDbEntity
  8
1
  6
DASHED
 62
     2
100
AcDbLine
 10
55.83683633223112
 20
159.294379121875
 30
0.0
 11
55.53683633223113
 21
159.294379121875
 31
0.0
  0
LINE
  5
CA
330
1F
100
AcDbEntity
  8
1
  6
DASHED
 62
     2
100
AcDbLine
 10
58.08683633223112
 20
161.544379121875
 30
0.0
 11
58.08683633223112
 21
167.544379121875
 31
0.0
  0
LINE
  5
CB
330
1F
100
AcDbEntity
  8
1
  6
DASHED
 62
     2
100
AcDbLine
 10
58.08683633223112
 20
167.544379121875
 30
0.0
 11
55.83683633223112
 21
169.794379121875
 31
0.0
  0
LINE
  5
CC
330
1F
100
AcDbEntity
  8
1
  6
DASHED
 62
     2
100
AcDbLine
 10
58.53683633223113
 20
167.544379121875
 30
0.0
 11
58.08683633223112
 21
167.544379121875
 31
0.0
  0
LINE
  5
CD
330
1F
100
AcDbEntity
  8
1
  6
DASHED
 62
     2
100
AcDbLine
 10
58.08683633223112
 20
161.544379121875
 30
0.0
 11
55.83683633223112
 21
159.294379121875
 31
0.0
  0
LINE
  5
CE
330
1F
100
AcDbEntity
  8
1
  6
DASHED
 62
     2
100
AcDbLine
 10
58.08683633223112
 20
161.544379121875
 30
0.0
 11
58.53683633223113
 21
161.544379121875
 31
0.0
  0
LINE
  5
CF
330
1F
100
AcDbEntity
  8
1
  6
DOT_CENTER
 62
     2
100
AcDbLine
 10
111.0368363322312
 20
164.544379121875
 30
0.0
 11
60.03683633223113
 21
164.544379121875
 31
0.0
  0
LINE
  5
D0
330
1F
100
AcDbEntity
  8
1
  6
DOT_CENTER
 62
     2
100
AcDbLine
 10
111.0368363322312
 20
164.544379121875
 30
0.0
 11
55.03683633223113
 21
164.544379121875
 31
0.0
  0
LINE
  5
D1
330
1F
100
AcDbEntity
  8
1
  6
DASHED
 62
     2
100
AcDbLine
 10
55.83683633223112
 20
147.294379121875
 30
0.0
 11
55.53683633223113
 21
147.294379121875
 31
0.0
  0
LINE
  5
D2
330
1F
100
AcDbEntity
  8
1
  6
DASHED
 62
     2
100
AcDbLine
 10
58.08683633223112
 20
149.544379121875
 30
0.0
 11
55.83683633223112
 21
147.294379121875
 31
0.0
  0
LINE
  5
D3
330
1F
100
AcDbEntity
  8
1
  6
DASHED
 62
     2
100
AcDbLine
 10
58.08683633223112
 20
149.544379121875
 30
0.0
 11
58.53683633223113
 21
149.544379121875
 31
0.0
  0
LINE
  5
D4
330
1F
100
AcDbEntity
  8
1
  6
DASHED
 62
     2
100
AcDbLine
 10
58.08683633223112
 20
149.544379121875
 30
0.0
 11
58.08683633223112
 21
155.544379121875
 31
0.0
  0
LINE
  5
D5
330
1F
100
AcDbEntity
  8
1
  6
DASHED
 62
     2
100
AcDbLine
 10
55.83683633223112
 20
147.294379121875
 30
0.0
 11
55.83683633223112
 21
157.794379121875
 31
0.0
  0
LINE
  5
D6
330
1F
100
AcDbEntity
  8
1
  6
DASHED
 62
     2
100
AcDbLine
 10
55.83683633223112
 20
157.794379121875
 30
0.0
 11
55.53683633223113
 21
157.794379121875
 31
0.0
  0
LINE
  5
D7
330
1F
100
AcDbEntity
  8
1
  6
DASHED
 62
     2
100
AcDbLine
 10
58.08683633223112
 20
155.544379121875
 30
0.0
 11
55.83683633223112
 21
157.794379121875
 31
0.0
  0
LINE
  5
D8
330
1F
100
AcDbEntity
  8
1
  6
DASHED
 62
     2
100
AcDbLine
 10
58.53683633223113
 20
155.544379121875
 30
0.0
 11
58.08683633223112
 21
155.544379121875
 31
0.0
  0
LINE
  5
D9
330
1F
100
AcDbEntity
  8
1
  6
Continuous
 62
     7
100
AcDbLine
 10
30.5368363322311
 20
176.544379121875
 30
0.0
 11
30.5368363322311
 21
170.044379121875
 31
0.0
  0
LINE
  5
DA
330
1F
100
AcDbEntity
  8
1
  6
Continuous
 62
     7
100
AcDbLine
 10
33.5368363322311
 20
176.544379121875
 30
0.0
 11
30.5368363322311
 21
176.544379121875
 31
0.0
  0
ARC
  5
DB
330
1F
100
AcDbEntity
  8
1
  6
Continuous
 62
     7
100
AcDbCircle
 10
23.5368363322311
 20
139.044379121875
 30
0.0
 40
8.499999999999986
100
AcDbArc
 50
63.39903505519601
 51
17.10463517664358
  0
ARC
  5
DC
330
1F
100
AcDbEntity
  8
1
  6
Continuous
 62
     2
100
AcDbCircle
 10
39.94380554424322
 20
147.044379121875
 30
0.0
 40
1.5
100
AcDbArc
 50
90.0
 51
-90.0
  0
ARC
  5
DD
330
1F
100
AcDbEntity
  8
1
  6
Continuous
 62
     2
100
AcDbCircle
 10
39.94380554424322
 20
147.044379121875
 30
0.0
 40
2.5
100
AcDbArc
 50
90.0
 51
-90.0
  0
ARC
  5
DE
330
1F
100
AcDbEntity
  8
1
  6
Continuous
 62
     7
100
AcDbCircle
 10
23.5368363322311
 20
139.044379121875
 30
0.0
 40
5.499999999999987
100
AcDbArc
 50
63.39903505519596
 51
17.10463517664332
  0
ARC
  5
DF
330
1F
100
AcDbEntity
  8
1
  6
Continuous
 62
     7
100
AcDbCircle
 10
23.5368363322311
 20
139.044379121875
 30
0.0
 40
5.49999999999998
100
AcDbArc
 50
17.10463517664332
 51
63.39903505519596
  0
ARC
  5
E0
330
1F
100
AcDbEntity
  8
1
  6
Continuous
 62
     7
100
AcDbCircle
 10
55.03683633223113
 20
145.044379121875
 30
0.0
 40
3.5
100
AcDbArc
 50
-90.0
 51
0.0
  0
ARC
  5
E1
330
1F
100
AcDbEntity
  8
1
  6
Continuous
 62
     7
100
AcDbCircle
 10
30.0368363322311
 20
148.158357199059
 30
0.0
 40
3.499999999999988
100
AcDbArc
 50
-8.96701942794181
 51
0.0
  0
ARC
  5
E2
330
1F
100
AcDbEntity
  8
1
  6
Continuous
 62
     7
100
AcDbCircle
 10
30.0368363322311
 20
148.158357199059
 30
0.0
 40
0.4999999999999895
100
AcDbArc
 50
-8.96701942794103
 51
0.0
  0
ARC
  5
E3
330
1F
100
AcDbEntity
  8
1
  6
Continuous
 62
     2
100
AcDbCircle
 10
46.93683633223122
 20
151.394379121875
 30
0.0
 40
0.4000000000000057
100
AcDbArc
 50
90.0
 51
180.0
  0
ARC
  5
E4
330
1F
100
AcDbEntity
  8
1
  6
Continuous
 62
     2
100
AcDbCircle
 10
45.17670195231113
 20
148.944379121875
 30
0.0
 40
0.3999999999999773
100
AcDbArc
 50
-90.0
 51
0.0
  0
ARC
  5
E5
330
1F
100
AcDbEntity
  8
1
  6
Continuous
 62
     2
100
AcDbCircle
 10
45.17670195231113
 20
149.144379121875
 30
0.0
 40
0.4000000000001052
100
AcDbArc
 50
0.0
 51
90.0
  0
ARC
  5
E6
330
1F
100
AcDbEntity
  8
1
  6
Continuous
 62
     2
100
AcDbCircle
 10
46.13683633223127
 20
145.944379121875
 30
0.0
 40
0.3999999999999773
100
AcDbArc
 50
-90.0
 51
0.0
  0
ARC
  5
E7
330
1F
100
AcDbEntity
  8
1
  6
Continuous
 62
     2
100
AcDbCircle
 10
47.93683633223122
 20
145.944379121875
 30
0.0
 40
0.4000000000000909
100
AcDbArc
 50
180.0
 51
-90.0
  0
ARC
  5
E8
330
1F
100
AcDbEntity
  8
1
  6
Continuous
 62
     2
100
AcDbCircle
 10
49.84644231640561
 20
145.944379121875
 30
0.0
 40
0.3999999999999773
100
AcDbArc
 50
-90.0
 51
14.22058743217558
  0
ARC
  5
E9
330
1F
100
AcDbEntity
  8
1
  6
Continuous
 62
     2
100
AcDbCircle
 10
51.70266240578224
 20
145.944379121875
 30
0.0
 40
0.3999999999999817
100
AcDbArc
 50
-165.0000000000006
 51
-90.0
  0
ARC
  5
EA
330
1F
100
AcDbEntity
  8
1
  6
Continuous
 62
     2
100
AcDbCircle
 10
51.90971764186452
 20
145.944379121875
 30
0.0
 40
0.3999999999999773
100
AcDbArc
 50
-90.0
 51
15.00000000000202
  0
ARC
  5
EB
330
1F
100
AcDbEntity
  8
1
  6
Continuous
 62
     2
100
AcDbCircle
 10
53.77321476660256
 20
145.944379121875
 30
0.0
 40
0.4000000000001876
100
AcDbArc
 50
-165.0000000000085
 51
-90.0
  0
ARC
  5
EC
330
1F
100
AcDbEntity
  8
1
  6
Continuous
 62
     2
100
AcDbCircle
 10
53.98027000268462
 20
145.944379121875
 30
0.0
 40
0.3999999999999773
100
AcDbArc
 50
-90.0
 51
14.99999999999965
  0
ARC
  5
ED
330
1F
100
AcDbEntity
  8
1
  6
Continuous
 62
     7
100
AcDbCircle
 10
55.03683633223113
 20
145.044379121875
 30
0.0
 40
0.5
100
AcDbArc
 50
-90.0
 51
0.0
  0
ARC
  5
EE
330
1F
100
AcDbEntity
  8
1
  6
Continuous
 62
     7
100
AcDbCircle
 10
31.65503576938034
 20
145.044379121875
 30
0.0
 40
0.499999999999988
100
AcDbArc
 50
-116.6009649448049
 51
-90.0
  0
ARC
  5
EF
330
1F
100
AcDbEntity
  8
1
  6
Continuous
 62
     7
100
AcDbCircle
 10
31.65503576938034
 20
145.044379121875
 30
0.0
 40
3.499999999999976
100
AcDbArc
 50
-116.6009649448037
 51
-89.99999999999955
  0
ARC
  5
F0
330
1F
100
AcDbEntity
  8
1
  6
Continuous
 62
     7
100
AcDbCircle
 10
55.71683633223113
 20
144.364379121875
 30
0.0
 40
0.5699999999999932
100
AcDbArc
 50
-90.0
 51
0.0
  0
DIMENSION
  5
FC
330
1F
100
AcDbEntity
  8
1
100
AcDbDimension
  2
*D1
 10
143.899123242439
 20
171.544379121875
 30
0.0
 11
140.149123242439
 21
156.713567351123
 31
0.0
 70
    32
  1
<>
 71
     5
 42
-1.0
 53
90.0
  3
ME10_DIM_10
100
AcDbAlignedDimension
 13
55.03683633223113
 23
141.544379121875
 33
0.0
 14
55.53683633223113
 24
171.544379121875
 34
0.0
 50
90.0
100
AcDbRotatedDimension
  0
DIMENSION
  5
107
330
1F
100
AcDbEntity
  8
1
100
AcDbDimension
  2
*D2
 10
44.03683633223112
 20
221.163368422317
 30
0.0
 11
37.0359035010455
 21
224.913368422317
 31
0.0
 70
    32
  1
<>
 71
     5
 42
-1.0
 53
0.00013888888889
  3
ME10_DIM_11
100
AcDbAlignedDimension
 13
33.5368363322311
 23
170.044379121875
 33
0.0
 14
44.03683633223112
 24
168.794379121875
 34
0.0
100
AcDbRotatedDimension
  0
DIMENSION
  5
114
330
1F
100
AcDbEntity
  8
1
100
AcDbDimension
  2
*D3
 10
30.5368363322311
 20
231.185684784532
 30
0.0
 11
26.4860968039772
 21
234.935684784532
 31
0.0
 70
    32
  1
<>
 71
     5
 42
-1.0
 53
0.00013888888889
  3
ME10_DIM_12
100
AcDbAlignedDimension
 13
23.5368363322311
 23
139.044379121875
 33
0.0
 14
30.5368363322311
 24
170.044379121875
 34
0.0
100
AcDbRotatedDimension
  0
DIMENSION
  5
11F
330
1F
100
AcDbEntity
  8
1
100
AcDbDimension
  2
*D4
 10
-16.5194474714078
 20
149.544379121875
 30
0.0
 11
-20.2694474714078
 21
143.690634908196
 31
0.0
 70
    32
  1
<>
 71
     5
 42
-1.0
 53
90.0
  3
ME10_DIM_13
100
AcDbAlignedDimension
 13
13.37668997965212
 23
139.044379121875
 33
0.0
 14
20.03683633223113
 24
149.544379121875
 34
0.0
 50
90.0
100
AcDbRotatedDimension
  0
DIMENSION
  5
12A
330
1F
100
AcDbEntity
  8
1
100
AcDbDimension
  2
*D5
 10
-25.3936082709563
 20
139.044379121875
 30
0.0
 11
-29.1436082709563
 21
161.276231285202
 31
0.0
 70
    32
  1
<>
 71
     5
 42
-1.0
 53
90.0
  3
ME10_DIM_14
100
AcDbAlignedDimension
 13
33.5368363322311
 23
176.544379121875
 33
0.0
 14
23.5368363322311
 24
139.044379121875
 34
0.0
 50
90.0
100
AcDbRotatedDimension
  0
DIMENSION
  5
137
330
1F
100
AcDbEntity
  8
1
100
AcDbDimension
  2
*D6
 10
44.03683633223112
 20
120.702359197051
 30
0.0
 11
51.7252262139921
 21
124.452359197051
 31
0.0
 70
    32
  1
<>
 71
     5
 42
-1.0
 53
0.00013888888889
  3
ME10_DIM_15
100
AcDbAlignedDimension
 13
47.53683633223113
 23
149.044379121875
 33
0.0
 14
44.03683633223112
 24
149.544379121875
 34
0.0
100
AcDbRotatedDimension
  0
DIMENSION
  5
142
330
1F
100
AcDbEntity
  8
1
100
AcDbDimension
  2
*D7
 10
34.53683633223113
 20
110.509992513268
 30
0.0
 11
41.6527697264887
 21
114.259992513268
 31
0.0
 70
    32
  1
<>
 71
     5
 42
-1.0
 53
0.00013888888889
  3
ME10_DIM_16
100
AcDbAlignedDimension
 13
47.53683633223113
 23
160.044379121875
 33
0.0
 14
34.53683633223113
 24
130.544379121875
 34
0.0
100
AcDbRotatedDimension
  0
DIMENSION
  5
14F
330
1F
100
AcDbEntity
  8
1
100
AcDbDimension
  2
*D8
 10
55.53683633223113
 20
110.509992513268
 30
0.0
 11
63.1166948605733
 21
114.259992513268
 31
0.0
 70
    32
  1
<>
 71
     5
 42
-1.0
 53
0.00013888888889
  3
ME10_DIM_17
100
AcDbAlignedDimension
 13
58.53683633223113
 23
145.044379121875
 33
0.0
 14
55.53683633223113
 24
150.044379121875
 34
0.0
100
AcDbRotatedDimension
  0
DIMENSION
  5
15A
330
1F
100
AcDbEntity
  8
1
100
AcDbDimension
  2
*D9
 10
23.5368363322311
 20
100.557446222044
 30
0.0
 11
36.7364516790168
 21
104.307446222044
 31
0.0
 70
    32
  1
<>
 71
     5
 42
-1.0
 53
0.00013888888889
  3
ME10_DIM_18
100
AcDbAlignedDimension
 13
47.53683633223113
 23
160.044379121875
 33
0.0
 14
23.5368363322311
 24
129.1553218583227
 34
0.0
100
AcDbRotatedDimension
  0
DIMENSION
  5
165
330
1F
100
AcDbEntity
  8
1
100
AcDbDimension
  2
*D10
 10
47.53683633223113
 20
100.557446222044
 30
0.0
 11
52.2048669991113
 21
104.307446222044
 31
0.0
 70
    32
  1
<>
 71
     5
 42
-1.0
 53
0.00013888888889
  3
ME10_DIM_19
100
AcDbAlignedDimension
 13
58.53683633223113
 23
171.544379121875
 33
0.0
 14
47.53683633223113
 24
149.044379121875
 34
0.0
100
AcDbRotatedDimension
  0
DIMENSION
  5
170
330
1F
100
AcDbEntity
  8
1
100
AcDbDimension
  2
*D11
 10
133.577697208362
 20
171.544379121875
 30
0.0
 11
129.827697208362
 21
160.709625280489
 31
0.0
 70
    32
  1
<>
 71
     5
 42
-1.0
 53
90.0
  3
ME10_DIM_20
100
AcDbAlignedDimension
 13
47.53683633223113
 23
149.044379121875
 33
0.0
 14
49.53683633223113
 24
171.544379121875
 34
0.0
 50
90.0
100
AcDbRotatedDimension
  0
ENDSEC
  0
SECTION
  2
OBJECTS
  0
DICTIONARY
  5
C
330
0
100
AcDbDictionary
281
     1
  3
ACAD_GROUP
350
D
  3
ACAD_LAYOUT
350
1A
  3
ACAD_MLINESTYLE
350
17
  3
ACAD_PLOTSETTINGS
350
19
  3
ACAD_PLOTSTYLENAME
350
E
  0
DICTIONARY
  5
D
102
{ACAD_REACTORS
330
C
102
}
330
C
100
AcDbDictionary
281
     1
  0
DICTIONARY
  5
1A
102
{ACAD_REACTORS
330
C
102
}
330
C
100
AcDbDictionary
281
     1
  3
Layout1
350
1E
  3
Layout2
350
26
  3
Model
350
22
  0
DICTIONARY
  5
17
102
{ACAD_REACTORS
330
C
102
}
330
C
100
AcDbDictionary
281
     1
  3
Standard
350
18
  0
DICTIONARY
  5
19
102
{ACAD_REACTORS
330
C
102
}
330
C
100
AcDbDictionary
281
     1
  0
ACDBDICTIONARYWDFLT
  5
E
102
{ACAD_REACTORS
330
C
102
}
330
C
100
AcDbDictionary
281
     1
  3
Normal
350
F
100
AcDbDictionaryWithDefault
340
F
  0
LAYOUT
  5
1E
102
{ACAD_REACTORS
330
1A
102
}
330
1A
100
AcDbPlotSettings
  1

  2

  4

  6

 40
0.0
 41
0.0
 42
0.0
 43
0.0
 44
0.0
 45
0.0
 46
0.0
 47
0.0
 48
0.0
 49
0.0
140
0.0
141
0.0
142
1.0
143
1.0
 70
   688
 72
     0
 73
     0
 74
     5
  7

 75
    16
 76
     0
 77
     2
 78
   300
147
1.0
148
0.0
149
0.0
100
AcDbLayout
  1
Layout1
 70
     1
 71
     1
 10
0.0
 20
0.0
 11
0.0
 21
0.0
 12
0.0
 22
0.0
 32
0.0
 14
0.0
 24
0.0
 34
0.0
 15
0.0
 25
0.0
 35
0.0
146
0.0
 13
0.0
 23
0.0
 33
0.0
 16
1.0
 26
0.0
 36
0.0
 17
0.0
 27
1.0
 37
0.0
 76
     0
330
1B
  0
LAYOUT
  5
26
102
{ACAD_REACTORS
330
1A
102
}
330
1A
100
AcDbPlotSettings
  1

  2

  4

  6

 40
0.0
 41
0.0
 42
0.0
 43
0.0
 44
0.0
 45
0.0
 46
0.0
 47
0.0
 48
0.0
 49
0.0
140
0.0
141
0.0
142
1.0
143
1.0
 70
   688
 72
     0
 73
     0
 74
     5
  7

 75
    16
 76
     0
 77
     2
 78
   300
147
1.0
148
0.0
149
0.0
100
AcDbLayout
  1
Layout2
 70
     1
 71
     2
 10
0.0
 20
0.0
 11
0.0
 21
0.0
 12
0.0
 22
0.0
 32
0.0
 14
0.0
 24
0.0
 34
0.0
 15
0.0
 25
0.0
 35
0.0
146
0.0
 13
0.0
 23
0.0
 33
0.0
 16
1.0
 26
0.0
 36
0.0
 17
0.0
 27
1.0
 37
0.0
 76
     0
330
23
  0
LAYOUT
  5
22
102
{ACAD_REACTORS
330
1A
102
}
330
1A
100
AcDbPlotSettings
  1

  2

  4

  6

 40
0.0
 41
0.0
 42
0.0
 43
0.0
 44
0.0
 45
0.0
 46
0.0
 47
0.0
 48
0.0
 49
0.0
140
0.0
141
0.0
142
1.0
143
1.0
 70
  1712
 72
     0
 73
     0
 74
     0
  7

 75
     0
 76
     0
 77
     2
 78
   300
147
1.0
148
0.0
149
0.0
100
AcDbLayout
  1
Model
 70
     1
 71
     0
 10
0.0
 20
0.0
 11
0.0
 21
0.0
 12
0.0
 22
0.0
 32
0.0
 14
-30.8936082709563
 24
98.557446222044
 34
0.0
 15
145.899123242439
 25
236.685684784532
 35
0.0
146
0.0
 13
0.0
 23
0.0
 33
0.0
 16
1.0
 26
0.0
 36
0.0
 17
0.0
 27
1.0
 37
0.0
 76
     0
330
1F
  0
MLINESTYLE
  5
18
102
{ACAD_REACTORS
330
17
102
}
330
17
100
AcDbMlineStyle
  2
Standard
 70
     0
  3

 62
   256
 51
90.0
 52
90.0
 71
     2
 49
0.5
 62
   256
  6
BYLAYER
 49
-0.5
 62
   256
  6
BYLAYER
  0
ACDBPLACEHOLDER
  5
F
102
{ACAD_REACTORS
330
E
102
}
330
E
  0
ENDSEC
  0
EOF
