  0
SECTION
  2
HEADER
  9
$ACADVER
  1
AC1018
  9
$ACADMAINTVER
 70
     0
  9
$DWGCODEPAGE
  3
ANSI_1252
  9
$INSBASE
 10
0.0
 20
0.0
 30
0.0
  9
$EXTMIN
 10
528.4655835996122
 20
-28.92817306538758
 30
0.0
  9
$EXTMAX
 10
646.708589645021
 20
136.3337492577078
 30
0.0
  9
$LIMMIN
 10
0.0
 20
0.0
  9
$LIMMAX
 10
12.0
 20
9.0
  9
$ORTHOMODE
 70
     0
  9
$REGENMODE
 70
     1
  9
$FILLMODE
 70
     1
  9
$QTEXTMODE
 70
     0
  9
$MIRRTEXT
 70
     1
  9
$LTSCALE
 40
1.0
  9
$ATTMODE
 70
     1
  9
$TEXTSIZE
 40
0.2
  9
$TRACEWID
 40
0.05
  9
$TEXTSTYLE
  7
Standard
  9
$CLAYER
  8
0
  9
$CELTYPE
  6
ByLayer
  9
$CECOLOR
 62
   256
  9
$CELTSCALE
 40
1.0
  9
$DISPSILH
 70
     0
  9
$DIMSCALE
 40
1.0
  9
$DIMASZ
 40
0.18
  9
$DIMEXO
 40
0.0625
  9
$DIMDLI
 40
0.38
  9
$DIMRND
 40
0.0
  9
$DIMDLE
 40
0.0
  9
$DIMEXE
 40
0.18
  9
$DIMTP
 40
0.0
  9
$DIMTM
 40
0.0
  9
$DIMTXT
 40
0.18
  9
$DIMCEN
 40
0.09
  9
$DIMTSZ
 40
0.0
  9
$DIMTOL
 70
     0
  9
$DIMLIM
 70
     0
  9
$DIMTIH
 70
     1
  9
$DIMTOH
 70
     1
  9
$DIMSE1
 70
     0
  9
$DIMSE2
 70
     0
  9
$DIMTAD
 70
     0
  9
$DIMZIN
 70
     0
  9
$DIMBLK
  1

  9
$DIMASO
 70
     1
  9
$DIMSHO
 70
     1
  9
$DIMPOST
  1

  9
$DIMAPOST
  1

  9
$DIMALT
 70
     0
  9
$DIMALTD
 70
     2
  9
$DIMALTF
 40
25.4
  9
$DIMLFAC
 40
1.0
  9
$DIMTOFL
 70
     0
  9
$DIMTVP
 40
0.0
  9
$DIMTIX
 70
     0
  9
$DIMSOXD
 70
     0
  9
$DIMSAH
 70
     0
  9
$DIMBLK1
  1

  9
$DIMBLK2
  1

  9
$DIMSTYLE
  2
Standard
  9
$DIMCLRD
 70
     0
  9
$DIMCLRE
 70
     0
  9
$DIMCLRT
 70
     0
  9
$DIMTFAC
 40
1.0
  9
$DIMGAP
 40
0.09
  9
$DIMJUST
 70
     0
  9
$DIMSD1
 70
     0
  9
$DIMSD2
 70
     0
  9
$DIMTOLJ
 70
     1
  9
$DIMTZIN
 70
     0
  9
$DIMALTZ
 70
     0
  9
$DIMALTTZ
 70
     0
  9
$DIMUPT
 70
     0
  9
$DIMDEC
 70
     4
  9
$DIMTDEC
 70
     4
  9
$DIMALTU
 70
     2
  9
$DIMALTTD
 70
     2
  9
$DIMTXSTY
  7
Standard
  9
$DIMAUNIT
 70
     0
  9
$DIMADEC
 70
     0
  9
$DIMALTRND
 40
0.0
  9
$DIMAZIN
 70
     0
  9
$DIMDSEP
 70
    46
  9
$DIMATFIT
 70
     3
  9
$DIMFRAC
 70
     0
  9
$DIMLDRBLK
  1

  9
$DIMLUNIT
 70
     2
  9
$DIMLWD
 70
    -2
  9
$DIMLWE
 70
    -2
  9
$DIMTMOVE
 70
     0
  9
$LUNITS
 70
     2
  9
$LUPREC
 70
     4
  9
$SKETCHINC
 40
0.1
  9
$FILLETRAD
 40
0.5
  9
$AUNITS
 70
     0
  9
$AUPREC
 70
     0
  9
$MENU
  1
.
  9
$ELEVATION
 40
0.0
  9
$PELEVATION
 40
0.0
  9
$THICKNESS
 40
0.0
  9
$LIMCHECK
 70
     0
  9
$CHAMFERA
 40
0.5
  9
$CHAMFERB
 40
0.5
  9
$CHAMFERC
 40
1.0
  9
$CHAMFERD
 40
0.0
  9
$SKPOLY
 70
     0
  9
$TDCREATE
 40
2456248.501336215
  9
$TDUCREATE
 40
2456248.459669549
  9
$TDUPDATE
 40
2456248.501336227
  9
$TDUUPDATE
 40
2456248.45966956
  9
$TDINDWG
 40
0.0000000116
  9
$TDUSRTIMER
 40
0.0000000116
  9
$USRTIMER
 70
     1
  9
$ANGBASE
 50
0.0
  9
$ANGDIR
 70
     0
  9
$PDMODE
 70
     0
  9
$PDSIZE
 40
0.0
  9
$PLINEWID
 40
0.0
  9
$SPLFRAME
 70
     0
  9
$SPLINETYPE
 70
     6
  9
$SPLINESEGS
 70
     8
  9
$HANDSEED
  5
E9
  9
$SURFTAB1
 70
     6
  9
$SURFTAB2
 70
     6
  9
$SURFTYPE
 70
     6
  9
$SURFU
 70
     6
  9
$SURFV
 70
     6
  9
$UCSBASE
  2

  9
$UCSNAME
  2

  9
$UCSORG
 10
0.0
 20
0.0
 30
0.0
  9
$UCSXDIR
 10
1.0
 20
0.0
 30
0.0
  9
$UCSYDIR
 10
0.0
 20
1.0
 30
0.0
  9
$UCSORTHOREF
  2

  9
$UCSORTHOVIEW
 70
     0
  9
$UCSORGTOP
 10
0.0
 20
0.0
 30
0.0
  9
$UCSORGBOTTOM
 10
0.0
 20
0.0
 30
0.0
  9
$UCSORGLEFT
 10
0.0
 20
0.0
 30
0.0
  9
$UCSORGRIGHT
 10
0.0
 20
0.0
 30
0.0
  9
$UCSORGFRONT
 10
0.0
 20
0.0
 30
0.0
  9
$UCSORGBACK
 10
0.0
 20
0.0
 30
0.0
  9
$PUCSBASE
  2

  9
$PUCSNAME
  2

  9
$PUCSORG
 10
0.0
 20
0.0
 30
0.0
  9
$PUCSXDIR
 10
1.0
 20
0.0
 30
0.0
  9
$PUCSYDIR
 10
0.0
 20
1.0
 30
0.0
  9
$PUCSORTHOREF
  2

  9
$PUCSORTHOVIEW
 70
     0
  9
$PUCSORGTOP
 10
0.0
 20
0.0
 30
0.0
  9
$PUCSORGBOTTOM
 10
0.0
 20
0.0
 30
0.0
  9
$PUCSORGLEFT
 10
0.0
 20
0.0
 30
0.0
  9
$PUCSORGRIGHT
 10
0.0
 20
0.0
 30
0.0
  9
$PUCSORGFRONT
 10
0.0
 20
0.0
 30
0.0
  9
$PUCSORGBACK
 10
0.0
 20
0.0
 30
0.0
  9
$USERI1
 70
     0
  9
$USERI2
 70
     0
  9
$USERI3
 70
     0
  9
$USERI4
 70
     0
  9
$USERI5
 70
     0
  9
$USERR1
 40
14.5
  9
$USERR2
 40
0.0
  9
$USERR3
 40
0.0
  9
$USERR4
 40
0.0
  9
$USERR5
 40
0.0
  9
$WORLDVIEW
 70
     1
  9
$SHADEDGE
 70
     3
  9
$SHADEDIF
 70
    70
  9
$TILEMODE
 70
     1
  9
$MAXACTVP
 70
    64
  9
$PINSBASE
 10
0.0
 20
0.0
 30
0.0
  9
$PLIMCHECK
 70
     0
  9
$PEXTMIN
 10
1.00000000000000E+20
 20
1.00000000000000E+20
 30
1.00000000000000E+20
  9
$PEXTMAX
 10
-1.00000000000000E+20
 20
-1.00000000000000E+20
 30
-1.00000000000000E+20
  9
$PLIMMIN
 10
0.0
 20
0.0
  9
$PLIMMAX
 10
12.0
 20
9.0
  9
$UNITMODE
 70
     0
  9
$VISRETAIN
 70
     1
  9
$PLINEGEN
 70
     0
  9
$PSLTSCALE
 70
     1
  9
$TREEDEPTH
 70
  3020
  9
$CMLSTYLE
  2
Standard
  9
$CMLJUST
 70
     0
  9
$CMLSCALE
 40
1.0
  9
$PROXYGRAPHICS
 70
     1
  9
$MEASUREMENT
 70
     1
  9
$CELWEIGHT
370
    -1
  9
$ENDCAPS
280
     0
  9
$JOINSTYLE
280
     0
  9
$LWDISPLAY
290
     0
  9
$INSUNITS
 70
     1
  9
$HYPERLINKBASE
  1

  9
$STYLESHEET
  1

  9
$XEDIT
290
     1
  9
$CEPSNTYPE
380
     0
  9
$PSTYLEMODE
290
     1
  9
$FINGERPRINTGUID
  2
{0F6B46DA-A6E0-46DF-87D4-E201CEB29BCA}
  9
$VERSIONGUID
  2
{FAEB1C32-E019-11D5-929B-00C0DF256EC4}
  9
$EXTNAMES
290
     1
  9
$PSVPSCALE
 40
0.0
  9
$OLESTARTUP
290
     0
  9
$SORTENTS
280
   127
  9
$INDEXCTL
280
     0
  9
$HIDETEXT
280
     1
  9
$XCLIPFRAME
290
     0
  9
$HALOGAP
280
     0
  9
$OBSCOLOR
 70
   257
  9
$OBSLTYPE
280
     0
  9
$INTERSECTIONDISPLAY
280
     0
  9
$INTERSECTIONCOLOR
 70
   257
  9
$DIMASSOC
280
     2
  9
$PROJECTNAME
  1

  0
ENDSEC
  0
SECTION
  2
CLASSES
  0
CLASS
  1
ACDBDICTIONARYWDFLT
  2
AcDbDictionaryWithDefault
  3
ObjectDBX Classes
 90
        0
 91
        3
280
     0
281
     0
  0
CLASS
  1

  2
exOdDbCircle
  3

 90
        0
 91
        3
280
     0
281
     1
  0
ENDSEC
  0
SECTION
  2
TABLES
  0
TABLE
  2
VPORT
  5
8
330
0
100
AcDbSymbolTable
 70
     1
  0
VPORT
  5
29
330
8
100
AcDbSymbolTableRecord
100
AcDbViewportTableRecord
  2
*Active
 70
     0
 10
0.0
 20
0.0
 11
1.0
 21
1.0
 12
587.5870866223165
 22
53.70278809616011
 13
0.0
 23
0.0
 14
0.5
 24
0.5
 15
0.5
 25
0.5
 16
0.0
 26
0.0
 36
1.0
 17
0.0
 27
0.0
 37
0.0
 40
181.7881145554049
 41
1.60267857142857
 42
50.0
 43
0.0
 44
0.0
 50
0.0
 51
0.0
 71
     0
 72
   100
 73
     1
 74
     3
 75
     0
 76
     0
 77
     0
 78
     0
281
     0
 65
     1
110
0.0
120
0.0
130
0.0
111
1.0
121
0.0
131
0.0
112
0.0
122
1.0
132
0.0
 79
     0
146
0.0
  0
ENDTAB
  0
TABLE
  2
LTYPE
  5
5
330
0
100
AcDbSymbolTable
 70
     8
  0
LTYPE
  5
14
330
5
100
AcDbSymbolTableRecord
100
AcDbLinetypeTableRecord
  2
ByBlock
 70
     0
  3

 72
    65
 73
     0
 40
0.0
  0
LTYPE
  5
15
330
5
100
AcDbSymbolTableRecord
100
AcDbLinetypeTableRecord
  2
ByLayer
 70
     0
  3

 72
    65
 73
     0
 40
0.0
  0
LTYPE
  5
16
330
5
100
AcDbSymbolTableRecord
100
AcDbLinetypeTableRecord
  2
Continuous
 70
     0
  3
Solid line
 72
    65
 73
     0
 40
0.0
  0
LTYPE
  5
2A
330
5
100
AcDbSymbolTableRecord
100
AcDbLinetypeTableRecord
  2
DASHED
 70
     0
  3
Dashed
 72
    65
 73
     2
 40
15.0
 49
7.0
 74
     0
 49
-8.0
 74
     0
  0
LTYPE
  5
2B
330
5
100
AcDbSymbolTableRecord
100
AcDbLinetypeTableRecord
  2
DOTTED
 70
     0
  3
Dotted
 72
    65
 73
     2
 40
1.0
 49
0.0
 74
     0
 49
-1.0
 74
     0
  0
LTYPE
  5
2C
330
5
100
AcDbSymbolTableRecord
100
AcDbLinetypeTableRecord
  2
DOT_CENTER
 70
     0
  3
Dot_Center
 72
    65
 73
     4
 40
14.0
 49
12.0
 74
     0
 49
-1.0
 74
     0
 49
0.0
 74
     0
 49
-1.0
 74
     0
  0
LTYPE
  5
2D
330
5
100
AcDbSymbolTableRecord
100
AcDbLinetypeTableRecord
  2
LONG_DASHED
 70
     0
  3
Long_Dashed
 72
    65
 73
     2
 40
15.0
 49
10.0
 74
     0
 49
-5.0
 74
     0
  0
LTYPE
  5
2E
330
5
100
AcDbSymbolTableRecord
100
AcDbLinetypeTableRecord
  2
DASH_CENTER
 70
     0
  3
Dash_Center
 72
    65
 73
     4
 40
14.0
 49
11.0
 74
     0
 49
-1.0
 74
     0
 49
1.0
 74
     0
 49
-1.0
 74
     0
  0
LTYPE
  5
2F
330
5
100
AcDbSymbolTableRecord
100
AcDbLinetypeTableRecord
  2
PHANTOM
 70
     0
  3
Phantom
 72
    65
 73
     6
 40
13.0
 49
10.0
 74
     0
 49
-1.0
 74
     0
 49
0.0
 74
     0
 49
-1.0
 74
     0
 49
0.0
 74
     0
 49
-1.0
 74
     0
  0
LTYPE
  5
30
330
5
100
AcDbSymbolTableRecord
100
AcDbLinetypeTableRecord
  2
CENTER_DASH_DASH
 70
     0
  3
Center_Dash_Dash
 72
    65
 73
     6
 40
14.0
 49
9.0
 74
     0
 49
-1.0
 74
     0
 49
1.0
 74
     0
 49
-1.0
 74
     0
 49
1.0
 74
     0
 49
-1.0
 74
     0
  0
ENDTAB
  0
TABLE
  2
LAYER
  5
2
330
0
100
AcDbSymbolTable
 70
     2
  0
LAYER
  5
10
330
2
100
AcDbSymbolTableRecord
100
AcDbLayerTableRecord
  2
0
 70
     0
 62
     7
  6
Continuous
370
    -3
390
F
  0
LAYER
  5
31
330
2
100
AcDbSymbolTableRecord
100
AcDbLayerTableRecord
  2
1
 70
     0
 62
     7
  6
Continuous
370
    -3
390
F
  0
ENDTAB
  0
TABLE
  2
STYLE
  5
3
330
0
100
AcDbSymbolTable
 70
     2
  0
STYLE
  5
11
330
3
100
AcDbSymbolTableRecord
100
AcDbTextStyleTableRecord
  2
Standard
 70
     0
 40
0.0
 41
1.0
 50
0.0
 71
     0
 42
0.2
  3
txt
  4

  0
STYLE
  5
AF
330
3
100
AcDbSymbolTableRecord
100
AcDbTextStyleTableRecord
  2
CONVERTER_11
 70
     0
 40
0.0
 41
0.9
 50
0.0
 71
     0
 42
0.2
  3
txt.shx
  4

  0
ENDTAB
  0
TABLE
  2
VIEW
  5
6
330
0
100
AcDbSymbolTable
 70
     0
  0
ENDTAB
  0
TABLE
  2
UCS
  5
7
330
0
100
AcDbSymbolTable
 70
     0
  0
ENDTAB
  0
TABLE
  2
APPID
  5
9
330
0
100
AcDbSymbolTable
 70
     1
  0
APPID
  5
12
330
9
100
AcDbSymbolTableRecord
100
AcDbRegAppTableRecord
  2
ACAD
 70
     0
  0
ENDTAB
  0
TABLE
  2
DIMSTYLE
  5
A
330
0
100
AcDbSymbolTable
 70
     6
100
AcDbDimStyleTable
  0
DIMSTYLE
105
27
330
A
100
AcDbSymbolTableRecord
100
AcDbDimStyleTableRecord
  2
Standard
 70
     0
340
11
  0
DIMSTYLE
105
BB
102
{ACAD_REACTORS
330
BC
102
}
330
A
100
AcDbSymbolTableRecord
100
AcDbDimStyleTableRecord
  2
ME10_DIM_10
 70
     0
 41
3.5
 42
0.0
 44
2.0
 73
     0
 74
     0
 77
     1
 78
     8
140
3.5
147
2.0
172
     1
173
     1
176
     2
177
     2
178
     2
271
     3
340
AF
  0
DIMSTYLE
105
C6
102
{ACAD_REACTORS
330
C7
102
}
330
A
100
AcDbSymbolTableRecord
100
AcDbDimStyleTableRecord
  2
ME10_DIM_11
 70
     0
 41
3.5
 42
0.0
 44
2.0
 73
     0
 74
     0
 77
     1
 78
     8
140
3.5
147
2.0
172
     1
173
     1
176
     2
177
     2
178
     2
271
     3
340
AF
  0
DIMSTYLE
105
D1
102
{ACAD_REACTORS
330
D2
102
}
330
A
100
AcDbSymbolTableRecord
100
AcDbDimStyleTableRecord
  2
ME10_DIM_12
 70
     0
 41
3.5
 42
0.0
 44
2.0
 73
     0
 74
     0
 77
     1
 78
     8
140
3.5
147
2.0
172
     1
173
     1
176
     2
177
     2
178
     2
271
     3
340
AF
  0
DIMSTYLE
105
DC
102
{ACAD_REACTORS
330
DD
102
}
330
A
100
AcDbSymbolTableRecord
100
AcDbDimStyleTableRecord
  2
ME10_DIM_13
 70
     0
 41
3.5
 42
0.0
 44
2.0
 73
     0
 74
     0
 77
     1
 78
     8
140
3.5
147
2.0
172
     1
173
     1
176
     2
177
     2
178
     2
271
     3
340
AF
  0
DIMSTYLE
105
E7
102
{ACAD_REACTORS
330
E8
102
}
330
A
100
AcDbSymbolTableRecord
100
AcDbDimStyleTableRecord
  2
ME10_DIM_14
 70
     0
 41
3.5
 42
0.0
 44
2.0
 73
     0
 74
     0
 77
     1
 78
     8
140
3.5
147
2.0
172
     1
173
     1
176
     2
177
     2
178
     2
271
     3
340
AF
  0
ENDTAB
  0
TABLE
  2
BLOCK_RECORD
  5
1
330
0
100
AcDbSymbolTable
 70
     6
  0
BLOCK_RECORD
  5
1F
330
1
100
AcDbSymbolTableRecord
100
AcDbBlockTableRecord
  2
*Model_Space
340
22
  0
BLOCK_RECORD
  5
1B
330
1
100
AcDbSymbolTableRecord
100
AcDbBlockTableRecord
  2
*Paper_Space
340
1E
  0
BLOCK_RECORD
  5
23
330
1
100
AcDbSymbolTableRecord
100
AcDbBlockTableRecord
  2
*Paper_Space0
340
26
  0
BLOCK_RECORD
  5
B2
330
1
100
AcDbSymbolTableRecord
100
AcDbBlockTableRecord
  2
*D1
340
0
  0
BLOCK_RECORD
  5
BD
330
1
100
AcDbSymbolTableRecord
100
AcDbBlockTableRecord
  2
*D2
340
0
  0
BLOCK_RECORD
  5
C8
330
1
100
AcDbSymbolTableRecord
100
AcDbBlockTableRecord
  2
*D3
340
0
  0
BLOCK_RECORD
  5
D3
330
1
100
AcDbSymbolTableRecord
100
AcDbBlockTableRecord
  2
*D4
340
0
  0
BLOCK_RECORD
  5
DE
330
1
100
AcDbSymbolTableRecord
100
AcDbBlockTableRecord
  2
*D5
340
0
  0
ENDTAB
  0
ENDSEC
  0
SECTION
  2
BLOCKS
  0
BLOCK
  5
20
330
1F
100
AcDbEntity
  8
0
100
AcDbBlockBegin
  2
*Model_Space
 70
     0
 71
     0
 10
0.0
 20
0.0
 30
0.0
  3
*Model_Space
  1

  0
ENDBLK
  5
21
330
1F
100
AcDbEntity
  8
0
100
AcDbBlockEnd
  0
BLOCK
  5
1C
330
1B
100
AcDbEntity
 67
     1
  8
0
100
AcDbBlockBegin
  2
*Paper_Space
 70
     0
 71
     0
 10
0.0
 20
0.0
 30
0.0
  3
*Paper_Space
  1

  0
ENDBLK
  5
1D
330
1B
100
AcDbEntity
 67
     1
  8
0
100
AcDbBlockEnd
  0
BLOCK
  5
24
330
23
100
AcDbEntity
  8
0
100
AcDbBlockBegin
  2
*Paper_Space0
 70
     0
 71
     0
 10
0.0
 20
0.0
 30
0.0
  3
*Paper_Space0
  1

  0
ENDBLK
  5
25
330
23
100
AcDbEntity
  8
0
100
AcDbBlockEnd
  0
BLOCK
  5
B9
330
B2
100
AcDbEntity
  8
0
100
AcDbBlockBegin
  2
*D1
 70
     1
 71
     0
 10
0.0
 20
0.0
 30
0.0
  3
*D1
  1

  0
LINE
  5
B3
330
B2
100
AcDbEntity
  8
1
  6
Continuous
 62
     2
100
AcDbLine
 10
544.4237141540178
 20
134.1582119920474
 30
0.0
 11
544.4237141540178
 21
54.15821199204741
 31
0.0
  0
LINE
  5
B4
330
B2
100
AcDbEntity
  8
1
  6
Continuous
 62
     2
100
AcDbLine
 10
572.5421698126961
 20
134.1582119920474
 30
0.0
 11
542.4237141540178
 21
134.1582119920474
 31
0.0
  0
LINE
  5
B5
330
B2
100
AcDbEntity
  8
1
  6
Continuous
 62
     2
100
AcDbLine
 10
542.4684879794011
 20
54.15821199204741
 30
0.0
 11
546.4237141540178
 21
54.15821199204741
 31
0.0
  0
SOLID
  5
B6
330
B2
100
AcDbEntity
  8
1
 62
     2
100
AcDbTrace
 10
544.8844978955738
 20
130.6582119920474
 30
0.0
 11
543.9629304124619
 21
130.6582119920474
 31
0.0
 12
544.4237141540178
 22
134.1582119920474
 32
0.0
 13
544.4237141540178
 23
134.1582119920474
 33
0.0
  0
SOLID
  5
B7
330
B2
100
AcDbEntity
  8
1
 62
     2
100
AcDbTrace
 10
543.9629304124619
 20
57.65821199204741
 30
0.0
 11
544.8844978955738
 21
57.65821199204741
 31
0.0
 12
544.4237141540178
 22
54.15821199204741
 32
0.0
 13
544.4237141540178
 23
54.15821199204741
 33
0.0
  0
MTEXT
  5
B8
330
B2
100
AcDbEntity
  8
1
 62
     2
100
AcDbMText
 10
542.4237141540178
 20
88.4246802735301
 30
0.0
 40
3.5
 41
0.0
 71
     7
 72
     1
  1
80
  7
CONVERTER_11
 11
0.0
 21
1.0
 31
0.0
 73
     1
 44
0.60024009603842
  0
ENDBLK
  5
BA
330
B2
100
AcDbEntity
  8
0
100
AcDbBlockEnd
  0
BLOCK
  5
C4
330
BD
100
AcDbEntity
  8
0
100
AcDbBlockBegin
  2
*D2
 70
     1
 71
     0
 10
0.0
 20
0.0
 30
0.0
  3
*D2
  1

  0
LINE
  5
BE
330
BD
100
AcDbEntity
  8
1
  6
Continuous
 62
     2
100
AcDbLine
 10
533.9655835996122
 20
134.1582119920474
 30
0.0
 11
533.9655835996122
 21
-25.84178800795257
 31
0.0
  0
LINE
  5
BF
330
BD
100
AcDbEntity
  8
1
  6
Continuous
 62
     2
100
AcDbLine
 10
566.2421698126961
 20
134.1582119920474
 30
0.0
 11
531.9655835996122
 21
134.1582119920474
 31
0.0
  0
LINE
  5
C0
330
BD
100
AcDbEntity
  8
1
  6
Continuous
 62
     2
100
AcDbLine
 10
572.5421698126961
 20
-25.84178800795255
 30
0.0
 11
531.9655835996122
 21
-25.84178800795255
 31
0.0
  0
SOLID
  5
C1
330
BD
100
AcDbEntity
  8
1
 62
     2
100
AcDbTrace
 10
534.4263673411681
 20
130.6582119920474
 30
0.0
 11
533.5047998580562
 21
130.6582119920474
 31
0.0
 12
533.9655835996122
 22
134.1582119920474
 32
0.0
 13
533.9655835996122
 23
134.1582119920474
 33
0.0
  0
SOLID
  5
C2
330
BD
100
AcDbEntity
  8
1
 62
     2
100
AcDbTrace
 10
533.5047998580562
 20
-22.34178800795257
 30
0.0
 11
534.4263673411681
 21
-22.34178800795257
 31
0.0
 12
533.9655835996122
 22
-25.84178800795257
 32
0.0
 13
533.9655835996122
 23
-25.84178800795257
 33
0.0
  0
MTEXT
  5
C3
330
BD
100
AcDbEntity
  8
1
 62
     2
100
AcDbMText
 10
531.9655835996122
 20
50.65419720481714
 30
0.0
 40
3.5
 41
0.0
 71
     7
 72
     1
  1
160
  7
CONVERTER_11
 11
0.0
 21
1.0
 31
0.0
 73
     1
 44
0.60024009603842
  0
ENDBLK
  5
C5
330
BD
100
AcDbEntity
  8
0
100
AcDbBlockEnd
  0
BLOCK
  5
CF
330
C8
100
AcDbEntity
  8
0
100
AcDbBlockBegin
  2
*D3
 70
     1
 71
     0
 10
0.0
 20
0.0
 30
0.0
  3
*D3
  1

  0
LINE
  5
C9
330
C8
100
AcDbEntity
  8
1
  6
Continuous
 62
     2
100
AcDbLine
 10
634.369918031955
 20
82.1582119920474
 30
0.0
 11
634.369918031955
 21
54.15821199204741
 31
0.0
  0
LINE
  5
CA
330
C8
100
AcDbEntity
  8
1
  6
Continuous
 62
     2
100
AcDbLine
 10
625.8497291269182
 20
82.1582119920474
 30
0.0
 11
636.369918031955
 21
82.1582119920474
 31
0.0
  0
LINE
  5
CB
330
C8
100
AcDbEntity
  8
1
  6
Continuous
 62
     2
100
AcDbLine
 10
627.5416463042822
 20
54.15821199204741
 30
0.0
 11
636.369918031955
 21
54.15821199204741
 31
0.0
  0
SOLID
  5
CC
330
C8
100
AcDbEntity
  8
1
 62
     2
100
AcDbTrace
 10
634.8307017735109
 20
78.6582119920474
 30
0.0
 11
633.909134290399
 21
78.6582119920474
 31
0.0
 12
634.369918031955
 22
82.1582119920474
 32
0.0
 13
634.369918031955
 23
82.1582119920474
 33
0.0
  0
SOLID
  5
CD
330
C8
100
AcDbEntity
  8
1
 62
     2
100
AcDbTrace
 10
633.909134290399
 20
57.65821199204741
 30
0.0
 11
634.8307017735109
 21
57.65821199204741
 31
0.0
 12
634.369918031955
 22
54.15821199204741
 32
0.0
 13
634.369918031955
 23
54.15821199204741
 33
0.0
  0
MTEXT
  5
CE
330
C8
100
AcDbEntity
  8
1
 62
     2
100
AcDbMText
 10
632.369918031955
 20
63.8489360570226
 30
0.0
 40
3.5
 41
0.0
 71
     7
 72
     1
  1
28
  7
CONVERTER_11
 11
0.0
 21
1.0
 31
0.0
 73
     1
 44
0.60024009603842
  0
ENDBLK
  5
D0
330
C8
100
AcDbEntity
  8
0
100
AcDbBlockEnd
  0
BLOCK
  5
DA
330
D3
100
AcDbEntity
  8
0
100
AcDbBlockBegin
  2
*D4
 70
     1
 71
     0
 10
0.0
 20
0.0
 30
0.0
  3
*D4
  1

  0
LINE
  5
D4
330
D3
100
AcDbEntity
  8
1
  6
Continuous
 62
     2
100
AcDbLine
 10
634.369918031955
 20
54.15821199204741
 30
0.0
 11
634.369918031955
 21
26.15821199204741
 31
0.0
  0
LINE
  5
D5
330
D3
100
AcDbEntity
  8
1
  6
Continuous
 62
     2
100
AcDbLine
 10
627.5416463042822
 20
54.15821199204741
 30
0.0
 11
636.369918031955
 21
54.15821199204741
 31
0.0
  0
LINE
  5
D6
330
D3
100
AcDbEntity
  8
1
  6
Continuous
 62
     2
100
AcDbLine
 10
625.8497291269182
 20
26.15821199204741
 30
0.0
 11
636.369918031955
 21
26.15821199204741
 31
0.0
  0
SOLID
  5
D7
330
D3
100
AcDbEntity
  8
1
 62
     2
100
AcDbTrace
 10
634.8307017735109
 20
50.65821199204741
 30
0.0
 11
633.909134290399
 21
50.65821199204741
 31
0.0
 12
634.369918031955
 22
54.15821199204741
 32
0.0
 13
634.369918031955
 23
54.15821199204741
 33
0.0
  0
SOLID
  5
D8
330
D3
100
AcDbEntity
  8
1
 62
     2
100
AcDbTrace
 10
633.909134290399
 20
29.65821199204741
 30
0.0
 11
634.8307017735109
 21
29.65821199204741
 31
0.0
 12
634.369918031955
 22
26.15821199204741
 32
0.0
 13
634.369918031955
 23
26.15821199204741
 33
0.0
  0
MTEXT
  5
D9
330
D3
100
AcDbEntity
  8
1
 62
     2
100
AcDbMText
 10
632.369918031955
 20
37.6330187524605
 30
0.0
 40
3.5
 41
0.0
 71
     7
 72
     1
  1
28
  7
CONVERTER_11
 11
0.0
 21
1.0
 31
0.0
 73
     1
 44
0.60024009603842
  0
ENDBLK
  5
DB
330
D3
100
AcDbEntity
  8
0
100
AcDbBlockEnd
  0
BLOCK
  5
E5
330
DE
100
AcDbEntity
  8
0
100
AcDbBlockBegin
  2
*D5
 70
     1
 71
     0
 10
0.0
 20
0.0
 30
0.0
  3
*D5
  1

  0
LINE
  5
DF
330
DE
100
AcDbEntity
  8
1
  6
Continuous
 62
     2
100
AcDbLine
 10
644.708589645021
 20
96.15821199204743
 30
0.0
 11
644.708589645021
 21
12.15821199204732
 31
0.0
  0
LINE
  5
E0
330
DE
100
AcDbEntity
  8
1
  6
Continuous
 62
     2
100
AcDbLine
 10
620.7601190051273
 20
96.15821199204743
 30
0.0
 11
646.708589645021
 21
96.15821199204743
 31
0.0
  0
LINE
  5
E1
330
DE
100
AcDbEntity
  8
1
  6
Continuous
 62
     2
100
AcDbLine
 10
620.7601190051273
 20
12.15821199204732
 30
0.0
 11
646.708589645021
 21
12.15821199204732
 31
0.0
  0
SOLID
  5
E2
330
DE
100
AcDbEntity
  8
1
 62
     2
100
AcDbTrace
 10
645.1693733865769
 20
92.65821199204743
 30
0.0
 11
644.2478059034651
 21
92.65821199204743
 31
0.0
 12
644.708589645021
 22
96.15821199204743
 32
0.0
 13
644.708589645021
 23
96.15821199204743
 33
0.0
  0
SOLID
  5
E3
330
DE
100
AcDbEntity
  8
1
 62
     2
100
AcDbTrace
 10
644.2478059034651
 20
15.65821199204732
 30
0.0
 11
645.1693733865769
 21
15.65821199204732
 31
0.0
 12
644.708589645021
 22
12.15821199204732
 32
0.0
 13
644.708589645021
 23
12.15821199204732
 33
0.0
  0
MTEXT
  5
E4
330
DE
100
AcDbEntity
  8
1
 62
     2
100
AcDbMText
 10
642.708589645021
 20
51.2948348125844
 30
0.0
 40
3.5
 41
0.0
 71
     7
 72
     1
  1
84
  7
CONVERTER_11
 11
0.0
 21
1.0
 31
0.0
 73
     1
 44
0.60024009603842
  0
ENDBLK
  5
E6
330
DE
100
AcDbEntity
  8
0
100
AcDbBlockEnd
  0
ENDSEC
  0
SECTION
  2
ENTITIES
  0
LINE
  5
32
330
1F
100
AcDbEntity
  8
1
  6
Continuous
 62
     7
100
AcDbLine
 10
578.492169812696
 20
96.15821199204741
 30
0.0
 11
578.4921698126964
 21
12.1582119920474
 31
0.0
  0
LINE
  5
33
330
1F
100
AcDbEntity
  8
1
  6
DOT_CENTER
 62
     2
100
AcDbLine
 10
586.9921698126961
 20
11.25821199204743
 30
0.0
 11
586.9921698126961
 21
97.0582119920474
 31
0.0
  0
LINE
  5
34
330
1F
100
AcDbEntity
  8
1
  6
Continuous
 62
     7
100
AcDbLine
 10
594.7421698126961
 20
96.15821199204741
 30
0.0
 11
579.2421698126961
 21
96.15821199204741
 31
0.0
  0
LINE
  5
35
330
1F
100
AcDbEntity
  8
1
  6
Continuous
 62
     7
100
AcDbLine
 10
595.4921698126961
 20
96.15821199204741
 30
0.0
 11
594.7421698126961
 21
96.15821199204741
 31
0.0
  0
LINE
  5
36
330
1F
100
AcDbEntity
  8
1
  6
Continuous
 62
     7
100
AcDbLine
 10
578.4921698126964
 20
12.1582119920474
 30
0.0
 11
579.2421698126961
 21
12.15821199204739
 31
0.0
  0
LINE
  5
37
330
1F
100
AcDbEntity
  8
1
  6
Continuous
 62
     7
100
AcDbLine
 10
579.2421698126961
 20
12.15821199204739
 30
0.0
 11
594.7421698126961
 21
12.15821199204739
 31
0.0
  0
LINE
  5
38
330
1F
100
AcDbEntity
  8
1
  6
Continuous
 62
     7
100
AcDbLine
 10
594.7421698126961
 20
12.15821199204739
 30
0.0
 11
595.4921698126961
 21
12.15821199204741
 31
0.0
  0
LINE
  5
39
330
1F
100
AcDbEntity
  8
1
  6
Continuous
 62
     7
100
AcDbLine
 10
579.2421698126961
 20
96.15821199204741
 30
0.0
 11
578.492169812696
 21
96.15821199204741
 31
0.0
  0
LINE
  5
3A
330
1F
100
AcDbEntity
  8
1
  6
Continuous
 62
     7
100
AcDbLine
 10
620.7601190051273
 20
12.15821199204732
 30
0.0
 11
595.4921698126961
 21
12.15821199204741
 31
0.0
  0
LINE
  5
3B
330
1F
100
AcDbEntity
  8
1
  6
Continuous
 62
     7
100
AcDbLine
 10
595.4921698126961
 20
96.15821199204741
 30
0.0
 11
620.7601190051273
 21
96.15821199204741
 31
0.0
  0
LINE
  5
3C
330
1F
100
AcDbEntity
  8
1
  6
Continuous
 62
     7
100
AcDbLine
 10
624.4921698126961
 20
95.1582119920474
 30
0.0
 11
624.4921698126961
 21
87.9082119920474
 31
0.0
  0
LINE
  5
3D
330
1F
100
AcDbEntity
  8
1
  6
Continuous
 62
     7
100
AcDbLine
 10
620.7601190051273
 20
96.15821199204741
 30
0.0
 11
624.4921698126961
 21
95.1582119920474
 31
0.0
  0
LINE
  5
3E
330
1F
100
AcDbEntity
  8
1
  6
Continuous
 62
     7
100
AcDbLine
 10
620.7601190051273
 20
12.15821199204732
 30
0.0
 11
624.4921698126961
 21
13.15821199204741
 31
0.0
  0
LINE
  5
3F
330
1F
100
AcDbEntity
  8
1
  6
Continuous
 62
     7
100
AcDbLine
 10
624.4921698126961
 20
48.40821199204741
 30
0.0
 11
624.4921698126961
 21
31.90821199204741
 31
0.0
  0
LINE
  5
40
330
1F
100
AcDbEntity
  8
1
  6
Continuous
 62
     7
100
AcDbLine
 10
619.8333989954555
 20
57.40821199204741
 30
0.0
 11
621.9921698126961
 21
57.40821199204741
 31
0.0
  0
LINE
  5
41
330
1F
100
AcDbEntity
  8
1
  6
Continuous
 62
     7
100
AcDbLine
 10
619.8333989954555
 20
85.4082119920474
 30
0.0
 11
621.9921698126961
 21
85.4082119920474
 31
0.0
  0
LINE
  5
42
330
1F
100
AcDbEntity
  8
1
  6
Continuous
 62
     7
100
AcDbLine
 10
605.9921698126961
 20
86.1582119920474
 30
0.0
 11
605.9921698126961
 21
78.1582119920474
 31
0.0
  0
LINE
  5
43
330
1F
100
AcDbEntity
  8
1
  6
Continuous
 62
     7
100
AcDbLine
 10
608.9921698126961
 20
89.1582119920474
 30
0.0
 11
614.9921698126961
 21
89.1582119920474
 31
0.0
  0
LINE
  5
44
330
1F
100
AcDbEntity
  8
1
  6
DOT_CENTER
 62
     2
100
AcDbLine
 10
604.4970531190862
 20
82.1582119920474
 30
0.0
 11
625.8497291269182
 21
82.1582119920474
 31
0.0
  0
LINE
  5
45
330
1F
100
AcDbEntity
  8
1
  6
Continuous
 62
     7
100
AcDbLine
 10
614.9921698126961
 20
75.1582119920474
 30
0.0
 11
608.9921698126961
 21
75.1582119920474
 31
0.0
  0
LINE
  5
46
330
1F
100
AcDbEntity
  8
1
  6
Continuous
 62
     7
100
AcDbLine
 10
621.9921698126961
 20
78.9082119920474
 30
0.0
 11
619.8333989954555
 21
78.9082119920474
 31
0.0
  0
LINE
  5
47
330
1F
100
AcDbEntity
  8
1
  6
Continuous
 62
     7
100
AcDbLine
 10
605.9921698126961
 20
58.15821199204741
 30
0.0
 11
605.9921698126961
 21
50.15821199204741
 31
0.0
  0
LINE
  5
48
330
1F
100
AcDbEntity
  8
1
  6
Continuous
 62
     7
100
AcDbLine
 10
608.9921698126961
 20
61.15821199204741
 30
0.0
 11
614.9921698126961
 21
61.15821199204741
 31
0.0
  0
LINE
  5
49
330
1F
100
AcDbEntity
  8
1
  6
Continuous
 62
     7
100
AcDbLine
 10
624.4921698126961
 20
76.4082119920474
 30
0.0
 11
624.4921698126961
 21
59.90821199204741
 31
0.0
  0
LINE
  5
4A
330
1F
100
AcDbEntity
  8
1
  6
Continuous
 62
     7
100
AcDbLine
 10
614.9921698126961
 20
19.15821199204741
 30
0.0
 11
608.9921698126961
 21
19.15821199204741
 31
0.0
  0
LINE
  5
4B
330
1F
100
AcDbEntity
  8
1
  6
Continuous
 62
     7
100
AcDbLine
 10
621.9921698126961
 20
22.90821199204741
 30
0.0
 11
619.8333989954555
 21
22.90821199204742
 31
0.0
  0
LINE
  5
4C
330
1F
100
AcDbEntity
  8
1
  6
Continuous
 62
     7
100
AcDbLine
 10
624.4921698126961
 20
20.40821199204741
 30
0.0
 11
624.4921698126961
 21
13.15821199204741
 31
0.0
  0
LINE
  5
4D
330
1F
100
AcDbEntity
  8
1
  6
DOT_CENTER
 62
     2
100
AcDbLine
 10
625.8497291269182
 20
26.15821199204741
 30
0.0
 11
604.4970531190862
 21
26.15821199204741
 31
0.0
  0
LINE
  5
4E
330
1F
100
AcDbEntity
  8
1
  6
Continuous
 62
     7
100
AcDbLine
 10
605.9921698126961
 20
30.15821199204741
 30
0.0
 11
605.9921698126961
 21
22.15821199204741
 31
0.0
  0
LINE
  5
4F
330
1F
100
AcDbEntity
  8
1
  6
Continuous
 62
     7
100
AcDbLine
 10
608.9921698126961
 20
33.15821199204741
 30
0.0
 11
614.9921698126961
 21
33.15821199204741
 31
0.0
  0
LINE
  5
50
330
1F
100
AcDbEntity
  8
1
  6
Continuous
 62
     7
100
AcDbLine
 10
619.8333989954555
 20
29.40821199204742
 30
0.0
 11
621.9921698126961
 21
29.40821199204741
 31
0.0
  0
LINE
  5
51
330
1F
100
AcDbEntity
  8
1
  6
Continuous
 62
     7
100
AcDbLine
 10
614.9921698126961
 20
47.15821199204741
 30
0.0
 11
608.9921698126961
 21
47.15821199204741
 31
0.0
  0
LINE
  5
52
330
1F
100
AcDbEntity
  8
1
  6
Continuous
 62
     7
100
AcDbLine
 10
621.9921698126961
 20
50.90821199204741
 30
0.0
 11
619.8333989954555
 21
50.90821199204742
 31
0.0
  0
LINE
  5
53
330
1F
100
AcDbEntity
  8
1
  6
Continuous
 62
     7
100
AcDbLine
 10
579.2421698126961
 20
12.15821199204739
 30
0.0
 11
579.2421698126961
 21
11.25821199204743
 31
0.0
  0
LINE
  5
54
330
1F
100
AcDbEntity
  8
1
  6
Continuous
 62
     7
100
AcDbLine
 10
594.7421698126961
 20
11.25821199204743
 30
0.0
 11
594.7421698126961
 21
12.15821199204739
 31
0.0
  0
LINE
  5
55
330
1F
100
AcDbEntity
  8
1
  6
Continuous
 62
     7
100
AcDbLine
 10
579.2421698126961
 20
97.05821199204742
 30
0.0
 11
579.2421698126961
 21
96.15821199204741
 31
0.0
  0
LINE
  5
56
330
1F
100
AcDbEntity
  8
1
  6
Continuous
 62
     7
100
AcDbLine
 10
594.7421698126961
 20
96.15821199204741
 30
0.0
 11
594.7421698126961
 21
97.05821199204742
 31
0.0
  0
LINE
  5
57
330
1F
100
AcDbEntity
  8
1
  6
Continuous
 62
     7
100
AcDbLine
 10
595.4921698126961
 20
-25.84178800795258
 30
0.0
 11
578.492169812696
 21
-25.84178800795258
 31
0.0
  0
LINE
  5
58
330
1F
100
AcDbEntity
  8
1
  6
DOT_CENTER
 62
     2
100
AcDbLine
 10
586.9921698126961
 20
97.0582119920474
 30
0.0
 11
586.9921698126961
 21
136.3337492577078
 31
0.0
  0
LINE
  5
59
330
1F
100
AcDbEntity
  8
1
  6
Continuous
 62
     7
100
AcDbLine
 10
578.492169812696
 20
11.25821199204743
 30
0.0
 11
579.2421698126961
 21
11.25821199204743
 31
0.0
  0
LINE
  5
5A
330
1F
100
AcDbEntity
  8
1
  6
Continuous
 62
     7
100
AcDbLine
 10
595.4921698126961
 20
134.1582119920478
 30
0.0
 11
595.4921698126961
 21
97.05821199204742
 31
0.0
  0
LINE
  5
5B
330
1F
100
AcDbEntity
  8
1
  6
Continuous
 62
     7
100
AcDbLine
 10
595.4921698126961
 20
97.05821199204742
 30
0.0
 11
594.7421698126961
 21
97.05821199204742
 31
0.0
  0
LINE
  5
5C
330
1F
100
AcDbEntity
  8
1
  6
Continuous
 62
     7
100
AcDbLine
 10
578.492169812696
 20
97.05821199204742
 30
0.0
 11
578.492169812696
 21
132.5792244188705
 31
0.0
  0
LINE
  5
5D
330
1F
100
AcDbEntity
  8
1
  6
Continuous
 62
     7
100
AcDbLine
 10
578.492169812696
 20
134.1582119920478
 30
0.0
 11
595.4921698126961
 21
134.1582119920478
 31
0.0
  0
LINE
  5
5E
330
1F
100
AcDbEntity
  8
1
  6
Continuous
 62
     7
100
AcDbLine
 10
595.4921698126961
 20
11.25821199204743
 30
0.0
 11
595.4921698126961
 21
-25.84178800795258
 31
0.0
  0
LINE
  5
5F
330
1F
100
AcDbEntity
  8
1
  6
Continuous
 62
     7
100
AcDbLine
 10
578.492169812696
 20
-25.84178800795258
 30
0.0
 11
578.492169812696
 21
-24.26280043477576
 31
0.0
  0
LINE
  5
60
330
1F
100
AcDbEntity
  8
1
  6
DOT_CENTER
 62
     2
100
AcDbLine
 10
586.9921698126961
 20
11.25821199204743
 30
0.0
 11
586.992152521123
 21
-28.92817306538758
 31
0.0
  0
LINE
  5
61
330
1F
100
AcDbEntity
  8
1
  6
Continuous
 62
     7
100
AcDbLine
 10
594.7421698126961
 20
11.25821199204743
 30
0.0
 11
595.4921698126961
 21
11.25821199204743
 31
0.0
  0
LINE
  5
62
330
1F
100
AcDbEntity
  8
1
  6
Continuous
 62
     7
100
AcDbLine
 10
579.2421698126961
 20
11.25821199204743
 30
0.0
 11
594.7421698126961
 21
11.25821199204743
 31
0.0
  0
LINE
  5
63
330
1F
100
AcDbEntity
  8
1
  6
Continuous
 62
     7
100
AcDbLine
 10
594.7421698126961
 20
97.05821199204742
 30
0.0
 11
579.2421698126961
 21
97.05821199204742
 31
0.0
  0
LINE
  5
64
330
1F
100
AcDbEntity
  8
1
  6
Continuous
 62
     7
100
AcDbLine
 10
579.2421698126961
 20
97.05821199204742
 30
0.0
 11
578.492169812696
 21
97.05821199204742
 31
0.0
  0
LINE
  5
65
330
1F
100
AcDbEntity
  8
1
  6
Continuous
 62
     7
100
AcDbLine
 10
576.7421698126961
 20
133.3992083891645
 30
0.0
 11
576.7421698126961
 21
-25.08278440506979
 31
0.0
  0
LINE
  5
66
330
1F
100
AcDbEntity
  8
1
  6
DOT_CENTER
 62
     2
100
AcDbLine
 10
562.2421698126961
 20
82.90821199204753
 30
0.0
 11
562.2421698126961
 21
93.40821199204741
 31
0.0
  0
LINE
  5
67
330
1F
100
AcDbEntity
  8
1
  6
DOT_CENTER
 62
     2
100
AcDbLine
 10
556.9921698126961
 20
88.15821199204753
 30
0.0
 11
567.4921698126961
 21
88.15821199204753
 31
0.0
  0
LINE
  5
68
330
1F
100
AcDbEntity
  8
1
  6
DOT_CENTER
 62
     2
100
AcDbLine
 10
562.2421698126961
 20
14.90821199204743
 30
0.0
 11
562.2421698126961
 21
25.40821199204741
 31
0.0
  0
LINE
  5
69
330
1F
100
AcDbEntity
  8
1
  6
DOT_CENTER
 62
     2
100
AcDbLine
 10
556.9921698126961
 20
20.15821199204743
 30
0.0
 11
565.3671698126961
 21
20.15821199204743
 31
0.0
  0
LINE
  5
6A
330
1F
100
AcDbEntity
  8
1
  6
Continuous
 62
     7
100
AcDbLine
 10
554.2421698126961
 20
122.1582119920474
 30
0.0
 11
554.2421698126961
 21
-13.84178800795256
 31
0.0
  0
LINE
  5
6B
330
1F
100
AcDbEntity
  8
1
  6
Continuous
 62
     7
100
AcDbLine
 10
566.2421698126961
 20
134.1582119920474
 30
0.0
 11
572.5421698126961
 21
134.1582119920474
 31
0.0
  0
LINE
  5
6C
330
1F
100
AcDbEntity
  8
1
  6
Continuous
 62
     7
100
AcDbLine
 10
566.2421698126961
 20
-25.84178800795256
 30
0.0
 11
572.5421698126961
 21
-25.84178800795256
 31
0.0
  0
LINE
  5
6D
330
1F
100
AcDbEntity
  8
1
  6
DOT_CENTER
 62
     2
100
AcDbLine
 10
553.3671698126961
 20
122.1582119920474
 30
0.0
 11
569.1171698126961
 21
122.1582119920474
 31
0.0
  0
LINE
  5
6E
330
1F
100
AcDbEntity
  8
1
  6
DOT_CENTER
 62
     2
100
AcDbLine
 10
561.2421698126961
 20
114.2832119920474
 30
0.0
 11
561.2421698126961
 21
130.0332119920474
 31
0.0
  0
LINE
  5
6F
330
1F
100
AcDbEntity
  8
1
  6
DOT_CENTER
 62
     2
100
AcDbLine
 10
567.4921698126961
 20
88.15821199204753
 30
0.0
 11
581.1171698126961
 21
88.15821199204741
 31
0.0
  0
LINE
  5
70
330
1F
100
AcDbEntity
  8
1
  6
DOT_CENTER
 62
     2
100
AcDbLine
 10
573.2421698126961
 20
80.28321199204741
 30
0.0
 11
573.2421698126961
 21
96.03321199204741
 31
0.0
  0
LINE
  5
71
330
1F
100
AcDbEntity
  8
1
  6
DOT_CENTER
 62
     2
100
AcDbLine
 10
565.3671698126961
 20
20.15821199204743
 30
0.0
 11
581.1171698126961
 21
20.15821199204743
 31
0.0
  0
LINE
  5
72
330
1F
100
AcDbEntity
  8
1
  6
DOT_CENTER
 62
     2
100
AcDbLine
 10
573.2421698126961
 20
12.28321199204743
 30
0.0
 11
573.2421698126961
 21
28.03321199204741
 31
0.0
  0
LINE
  5
73
330
1F
100
AcDbEntity
  8
1
  6
DOT_CENTER
 62
     2
100
AcDbLine
 10
553.3671698126961
 20
-13.84178800795259
 30
0.0
 11
569.1171698126961
 21
-13.84178800795259
 31
0.0
  0
LINE
  5
74
330
1F
100
AcDbEntity
  8
1
  6
DOT_CENTER
 62
     2
100
AcDbLine
 10
561.2421698126961
 20
-21.71678800795259
 30
0.0
 11
561.2421698126961
 21
-5.96678800795259
 31
0.0
  0
LINE
  5
75
330
1F
100
AcDbEntity
  8
1
  6
DOT_CENTER
 62
     2
100
AcDbLine
 10
561.2421698126961
 20
46.28321199204741
 30
0.0
 11
561.2421698126961
 21
62.03321199204741
 31
0.0
  0
LINE
  5
76
330
1F
100
AcDbEntity
  8
1
  6
CENTER_DASH_DASH
 62
     7
100
AcDbLine
 10
627.5416463042822
 20
54.15821199204741
 30
0.0
 11
542.4684879794011
 21
54.15821199204741
 31
0.0
  0
LINE
  5
77
330
1F
100
AcDbEntity
  8
1
  6
Continuous
 62
     7
100
AcDbLine
 10
578.492169812696
 20
132.5792244188705
 30
0.0
 11
578.492169812696
 21
134.1582119920478
 31
0.0
  0
LINE
  5
78
330
1F
100
AcDbEntity
  8
1
  6
Continuous
 62
     7
100
AcDbLine
 10
578.492169812696
 20
-24.26280043477576
 30
0.0
 11
578.492169812696
 21
11.25821199204743
 31
0.0
  0
ARC
  5
79
330
1F
100
AcDbEntity
  8
1
  6
Continuous
 62
     7
100
AcDbCircle
 10
619.8333989954555
 20
48.90821199204742
 30
0.0
 40
2.0
100
AcDbArc
 50
90.0
 51
165.5224878140706
  0
ARC
  5
7A
330
1F
100
AcDbEntity
  8
1
  6
Continuous
 62
     7
100
AcDbCircle
 10
619.8333989954555
 20
59.40821199204741
 30
0.0
 40
2.000000000000063
100
AcDbArc
 50
-165.5224878140706
 51
-90.0
  0
ARC
  5
7B
330
1F
100
AcDbEntity
  8
1
  6
Continuous
 62
     7
100
AcDbCircle
 10
619.8333989954555
 20
31.40821199204742
 30
0.0
 40
2.000000000000063
100
AcDbArc
 50
-165.5224878140706
 51
-90.0
  0
ARC
  5
7C
330
1F
100
AcDbEntity
  8
1
  6
Continuous
 62
     7
100
AcDbCircle
 10
619.8333989954555
 20
20.90821199204742
 30
0.0
 40
2.0
100
AcDbArc
 50
90.0
 51
165.5224878140706
  0
ARC
  5
7D
330
1F
100
AcDbEntity
  8
1
  6
Continuous
 62
     7
100
AcDbCircle
 10
619.8333989954555
 20
87.4082119920474
 30
0.0
 40
2.0
100
AcDbArc
 50
-157.0160970067278
 51
-90.0
  0
ARC
  5
7E
330
1F
100
AcDbEntity
  8
1
  6
Continuous
 62
     7
100
AcDbCircle
 10
619.8333989954555
 20
76.9082119920474
 30
0.0
 40
2.0
100
AcDbArc
 50
90.0
 51
165.5224878140706
  0
ARC
  5
7F
330
1F
100
AcDbEntity
  8
1
  6
Continuous
 62
     7
100
AcDbCircle
 10
619.8333989954555
 20
87.4082119920474
 30
0.0
 40
2.000000000000063
100
AcDbArc
 50
-165.5224878140706
 51
-157.0160970067278
  0
ARC
  5
80
330
1F
100
AcDbEntity
  8
1
  6
Continuous
 62
     7
100
AcDbCircle
 10
572.5421698126961
 20
122.1582119920474
 30
0.0
 40
12.0
100
AcDbArc
 50
69.51268488527711
 51
90.0
  0
ARC
  5
81
330
1F
100
AcDbEntity
  8
1
  6
Continuous
 62
     7
100
AcDbCircle
 10
572.5421698126961
 20
-13.84178800795256
 30
0.0
 40
12.00000000000012
100
AcDbArc
 50
-69.51268488527732
 51
-60.27528369718578
  0
ARC
  5
82
330
1F
100
AcDbEntity
  8
1
  6
DASHED
 62
     2
100
AcDbCircle
 10
573.2421698126961
 20
88.15821199204741
 30
0.0
 40
5.249999999999988
100
AcDbArc
 50
48.18968510422128
 51
-48.1896851042219
  0
ARC
  5
83
330
1F
100
AcDbEntity
  8
1
  6
Continuous
 62
     7
100
AcDbCircle
 10
573.2421698126961
 20
88.15821199204741
 30
0.0
 40
5.250000000000004
100
AcDbArc
 50
-25.20876529675847
 51
0.0
  0
ARC
  5
84
330
1F
100
AcDbEntity
  8
1
  6
Continuous
 62
     7
100
AcDbCircle
 10
573.2421698126961
 20
88.15821199204741
 30
0.0
 40
5.250000000000052
100
AcDbArc
 50
-48.1896851042219
 51
-25.20876529675847
  0
ARC
  5
85
330
1F
100
AcDbEntity
  8
1
  6
Continuous
 62
     7
100
AcDbCircle
 10
573.2421698126961
 20
88.15821199204741
 30
0.0
 40
5.250000000000004
100
AcDbArc
 50
25.20876529675847
 51
48.18968510422128
  0
ARC
  5
86
330
1F
100
AcDbEntity
  8
1
  6
Continuous
 62
     7
100
AcDbCircle
 10
573.2421698126961
 20
88.15821199204741
 30
0.0
 40
5.25
100
AcDbArc
 50
0.0
 51
25.20876529675847
  0
ARC
  5
87
330
1F
100
AcDbEntity
  8
1
  6
Continuous
 62
     7
100
AcDbCircle
 10
573.2421698126961
 20
20.15821199204743
 30
0.0
 40
5.250000000000004
100
AcDbArc
 50
25.20876529675847
 51
48.18968510422118
  0
ARC
  5
88
330
1F
100
AcDbEntity
  8
1
  6
Continuous
 62
     7
100
AcDbCircle
 10
573.2421698126961
 20
20.15821199204743
 30
0.0
 40
5.250000000000004
100
AcDbArc
 50
-25.20876529675847
 51
0.0
  0
ARC
  5
89
330
1F
100
AcDbEntity
  8
1
  6
Continuous
 62
     7
100
AcDbCircle
 10
573.2421698126961
 20
20.15821199204743
 30
0.0
 40
5.25
100
AcDbArc
 50
0.0
 51
25.20876529675847
  0
ARC
  5
8A
330
1F
100
AcDbEntity
  8
1
  6
DASHED
 62
     2
100
AcDbCircle
 10
573.2421698126961
 20
20.15821199204743
 30
0.0
 40
5.249999999999977
100
AcDbArc
 50
48.18968510422118
 51
-48.18968510422118
  0
ARC
  5
8B
330
1F
100
AcDbEntity
  8
1
  6
Continuous
 62
     7
100
AcDbCircle
 10
573.2421698126961
 20
20.15821199204743
 30
0.0
 40
5.249999999999977
100
AcDbArc
 50
-48.18968510422118
 51
-25.20876529675847
  0
ARC
  5
8C
330
1F
100
AcDbEntity
  8
1
  6
Continuous
 62
     7
100
AcDbCircle
 10
572.5421698126961
 20
-13.84178800795256
 30
0.0
 40
12.0
100
AcDbArc
 50
-90.0
 51
-69.51268488527732
  0
ARC
  5
8D
330
1F
100
AcDbEntity
  8
1
  6
Continuous
 62
     7
100
AcDbCircle
 10
572.5421698126961
 20
122.1582119920474
 30
0.0
 40
12.00000000000002
100
AcDbArc
 50
60.27528369718555
 51
69.51268488527711
  0
CIRCLE
  5
8E
330
1F
100
AcDbEntity
  8
1
  6
DASHED
 62
     2
100
AcDbCircle
 10
561.2421698126961
 20
-13.84178800795259
 30
0.0
 40
3.0
  0
CIRCLE
  5
8F
330
1F
100
AcDbEntity
  8
1
  6
DASHED
 62
     2
100
AcDbCircle
 10
573.2421698126961
 20
20.15821199204743
 30
0.0
 40
3.0
  0
CIRCLE
  5
90
330
1F
100
AcDbEntity
  8
1
  6
DASHED
 62
     2
100
AcDbCircle
 10
561.2421698126961
 20
122.1582119920474
 30
0.0
 40
3.0
  0
CIRCLE
  5
91
330
1F
100
AcDbEntity
  8
1
  6
DASHED
 62
     2
100
AcDbCircle
 10
561.2421698126961
 20
54.15821199204741
 30
0.0
 40
3.0
  0
CIRCLE
  5
92
330
1F
100
AcDbEntity
  8
1
  6
Continuous
 62
     7
100
AcDbCircle
 10
562.2421698126961
 20
88.15821199204741
 30
0.0
 40
3.5
  0
CIRCLE
  5
93
330
1F
100
AcDbEntity
  8
1
  6
Continuous
 62
     7
100
AcDbCircle
 10
562.2421698126961
 20
20.15821199204743
 30
0.0
 40
3.5
  0
CIRCLE
  5
94
330
1F
100
AcDbEntity
  8
1
  6
DASHED
 62
     2
100
AcDbCircle
 10
573.2421698126961
 20
88.15821199204741
 30
0.0
 40
3.0
  0
CIRCLE
  5
95
330
1F
100
AcDbEntity
  8
1
  6
DASHED
 62
     2
100
AcDbCircle
 10
561.2421698126961
 20
122.1582119920474
 30
0.0
 40
5.25
  0
CIRCLE
  5
96
330
1F
100
AcDbEntity
  8
1
  6
DASHED
 62
     2
100
AcDbCircle
 10
561.2421698126961
 20
-13.84178800795259
 30
0.0
 40
5.25
  0
CIRCLE
  5
97
330
1F
100
AcDbEntity
  8
1
  6
DASHED
 62
     2
100
AcDbCircle
 10
561.2421698126961
 20
54.15821199204741
 30
0.0
 40
5.25
  0
CIRCLE
  5
98
330
1F
100
AcDbEntity
  8
1
  6
Continuous
 62
     7
100
AcDbCircle
 10
562.2421698126961
 20
88.15821199204741
 30
0.0
 40
2.0
  0
CIRCLE
  5
99
330
1F
100
AcDbEntity
  8
1
  6
Continuous
 62
     7
100
AcDbCircle
 10
562.2421698126961
 20
20.15821199204743
 30
0.0
 40
2.0
  0
CIRCLE
  5
9A
330
1F
100
AcDbEntity
  8
1
  6
DASHED
 62
     2
100
AcDbCircle
 10
561.2421698126961
 20
54.15821199204741
 30
0.0
 40
6.0
  0
ARC
  5
9B
330
1F
100
AcDbEntity
  8
1
  6
Continuous
 62
     7
100
AcDbCircle
 10
621.9921698126961
 20
20.40821199204741
 30
0.0
 40
2.5
100
AcDbArc
 50
0.0
 51
90.0
  0
ARC
  5
9C
330
1F
100
AcDbEntity
  8
1
  6
Continuous
 62
     7
100
AcDbCircle
 10
621.9921698126961
 20
31.90821199204741
 30
0.0
 40
2.5
100
AcDbArc
 50
-90.0
 51
0.0
  0
ARC
  5
9D
330
1F
100
AcDbEntity
  8
1
  6
Continuous
 62
     7
100
AcDbCircle
 10
621.9921698126961
 20
48.40821199204741
 30
0.0
 40
2.5
100
AcDbArc
 50
0.0
 51
90.0
  0
ARC
  5
9E
330
1F
100
AcDbEntity
  8
1
  6
Continuous
 62
     7
100
AcDbCircle
 10
621.9921698126961
 20
59.90821199204741
 30
0.0
 40
2.5
100
AcDbArc
 50
-90.0
 51
0.0
  0
ARC
  5
9F
330
1F
100
AcDbEntity
  8
1
  6
Continuous
 62
     7
100
AcDbCircle
 10
621.9921698126961
 20
76.4082119920474
 30
0.0
 40
2.5
100
AcDbArc
 50
0.0
 51
90.0
  0
ARC
  5
A0
330
1F
100
AcDbEntity
  8
1
  6
Continuous
 62
     7
100
AcDbCircle
 10
621.9921698126961
 20
87.9082119920474
 30
0.0
 40
2.5
100
AcDbArc
 50
-90.0
 51
0.0
  0
ARC
  5
A1
330
1F
100
AcDbEntity
  8
1
  6
Continuous
 62
     7
100
AcDbCircle
 10
608.9921698126961
 20
86.1582119920474
 30
0.0
 40
3.0
100
AcDbArc
 50
90.0
 51
180.0
  0
ARC
  5
A2
330
1F
100
AcDbEntity
  8
1
  6
Continuous
 62
     7
100
AcDbCircle
 10
614.9921698126961
 20
86.1582119920474
 30
0.0
 40
2.999999999999985
100
AcDbArc
 50
14.47751218593
 51
90.0
  0
ARC
  5
A3
330
1F
100
AcDbEntity
  8
1
  6
Continuous
 62
     7
100
AcDbCircle
 10
608.9921698126961
 20
78.1582119920474
 30
0.0
 40
3.0
100
AcDbArc
 50
180.0
 51
-90.0
  0
ARC
  5
A4
330
1F
100
AcDbEntity
  8
1
  6
Continuous
 62
     7
100
AcDbCircle
 10
614.9921698126961
 20
78.1582119920474
 30
0.0
 40
3.0
100
AcDbArc
 50
-90.0
 51
-14.47751218593
  0
ARC
  5
A5
330
1F
100
AcDbEntity
  8
1
  6
Continuous
 62
     7
100
AcDbCircle
 10
608.9921698126961
 20
58.15821199204741
 30
0.0
 40
3.0
100
AcDbArc
 50
90.0
 51
180.0
  0
ARC
  5
A6
330
1F
100
AcDbEntity
  8
1
  6
Continuous
 62
     7
100
AcDbCircle
 10
614.9921698126961
 20
58.15821199204741
 30
0.0
 40
2.999999999999985
100
AcDbArc
 50
14.47751218593
 51
90.0
  0
ARC
  5
A7
330
1F
100
AcDbEntity
  8
1
  6
Continuous
 62
     7
100
AcDbCircle
 10
608.9921698126961
 20
22.15821199204741
 30
0.0
 40
3.0
100
AcDbArc
 50
180.0
 51
-90.0
  0
ARC
  5
A8
330
1F
100
AcDbEntity
  8
1
  6
Continuous
 62
     7
100
AcDbCircle
 10
614.9921698126961
 20
22.15821199204741
 30
0.0
 40
3.0
100
AcDbArc
 50
-90.0
 51
-14.4775121859298
  0
ARC
  5
A9
330
1F
100
AcDbEntity
  8
1
  6
Continuous
 62
     7
100
AcDbCircle
 10
608.9921698126961
 20
30.15821199204741
 30
0.0
 40
3.000000000000004
100
AcDbArc
 50
90.0
 51
180.0
  0
ARC
  5
AA
330
1F
100
AcDbEntity
  8
1
  6
Continuous
 62
     7
100
AcDbCircle
 10
614.9921698126961
 20
30.15821199204741
 30
0.0
 40
2.999999999999988
100
AcDbArc
 50
14.4775121859302
 51
90.0
  0
ARC
  5
AB
330
1F
100
AcDbEntity
  8
1
  6
Continuous
 62
     7
100
AcDbCircle
 10
608.9921698126961
 20
50.15821199204741
 30
0.0
 40
3.0
100
AcDbArc
 50
180.0
 51
-90.0
  0
ARC
  5
AC
330
1F
100
AcDbEntity
  8
1
  6
Continuous
 62
     7
100
AcDbCircle
 10
614.9921698126961
 20
50.15821199204741
 30
0.0
 40
3.0
100
AcDbArc
 50
-90.0
 51
-14.47751218592987
  0
ARC
  5
AD
330
1F
100
AcDbEntity
  8
1
  6
Continuous
 62
     7
100
AcDbCircle
 10
566.2421698126961
 20
-13.84178800795256
 30
0.0
 40
12.0
100
AcDbArc
 50
180.0
 51
-90.0
  0
ARC
  5
AE
330
1F
100
AcDbEntity
  8
1
  6
Continuous
 62
     7
100
AcDbCircle
 10
566.2421698126961
 20
122.1582119920474
 30
0.0
 40
12.0
100
AcDbArc
 50
90.0
 51
180.0
  0
MTEXT
  5
B0
330
1F
100
AcDbEntity
  8
1
 62
     2
100
AcDbMText
 10
568.718453480574
 20
64.23422629878031
 30
0.0
 40
2.5
 41
0.0
 71
     5
 72
     1
  1
TZ
  7
CONVERTER_11
 73
     1
 44
1.32052821128451
  0
MTEXT
  5
B1
330
1F
100
AcDbEntity
  8
1
 62
     2
100
AcDbMText
 10
597.527336448476
 20
57.66226606014777
 30
0.0
 40
2.5
 41
0.0
 71
     5
 72
     1
  1
BBL
  7
CONVERTER_11
 73
     1
 44
1.32052821128451
  0
DIMENSION
  5
BC
330
1F
100
AcDbEntity
  8
1
100
AcDbDimension
  2
*D1
 10
544.4237141540178
 20
134.1582119920474
 30
0.0
 11
540.6737141540178
 21
91.0496802735301
 31
0.0
 70
    32
  1
<>
 71
     5
 42
-1.0
 53
90.0
  3
ME10_DIM_10
100
AcDbAlignedDimension
 13
542.4684879794011
 23
54.15821199204741
 33
0.0
 14
572.5421698126961
 24
134.1582119920474
 34
0.0
 50
90.0
100
AcDbRotatedDimension
  0
DIMENSION
  5
C7
330
1F
100
AcDbEntity
  8
1
100
AcDbDimension
  2
*D2
 10
533.9655835996122
 20
134.1582119920474
 30
0.0
 11
530.2155835996122
 21
54.32919720481714
 31
0.0
 70
    32
  1
<>
 71
     5
 42
-1.0
 53
90.0
  3
ME10_DIM_11
100
AcDbAlignedDimension
 13
572.5421698126961
 23
-25.84178800795256
 33
0.0
 14
566.2421698126961
 24
134.1582119920474
 34
0.0
 50
90.0
100
AcDbRotatedDimension
  0
DIMENSION
  5
D2
330
1F
100
AcDbEntity
  8
1
100
AcDbDimension
  2
*D3
 10
634.369918031955
 20
82.1582119920474
 30
0.0
 11
630.619918031955
 21
66.4739360570226
 31
0.0
 70
    32
  1
<>
 71
     5
 42
-1.0
 53
90.0
  3
ME10_DIM_12
100
AcDbAlignedDimension
 13
627.5416463042822
 23
54.15821199204741
 33
0.0
 14
625.8497291269182
 24
82.1582119920474
 34
0.0
 50
90.0
100
AcDbRotatedDimension
  0
DIMENSION
  5
DD
330
1F
100
AcDbEntity
  8
1
100
AcDbDimension
  2
*D4
 10
634.369918031955
 20
54.15821199204741
 30
0.0
 11
630.619918031955
 21
40.2580187524605
 31
0.0
 70
    32
  1
<>
 71
     5
 42
-1.0
 53
90.0
  3
ME10_DIM_13
100
AcDbAlignedDimension
 13
625.8497291269182
 23
26.15821199204741
 33
0.0
 14
627.5416463042822
 24
54.15821199204741
 34
0.0
 50
90.0
100
AcDbRotatedDimension
  0
DIMENSION
  5
E8
330
1F
100
AcDbEntity
  8
1
100
AcDbDimension
  2
*D5
 10
644.708589645021
 20
96.15821199204743
 30
0.0
 11
640.958589645021
 21
53.9198348125844
 31
0.0
 70
    32
  1
<>
 71
     5
 42
-1.0
 53
90.0
  3
ME10_DIM_14
100
AcDbAlignedDimension
 13
620.7601190051273
 23
12.15821199204732
 33
0.0
 14
620.7601190051273
 24
96.15821199204741
 34
0.0
 50
90.0
100
AcDbRotatedDimension
  0
ENDSEC
  0
SECTION
  2
OBJECTS
  0
DICTIONARY
  5
C
330
0
100
AcDbDictionary
281
     1
  3
ACAD_GROUP
350
D
  3
ACAD_LAYOUT
350
1A
  3
ACAD_MLINESTYLE
350
17
  3
ACAD_PLOTSETTINGS
350
19
  3
ACAD_PLOTSTYLENAME
350
E
  0
DICTIONARY
  5
D
102
{ACAD_REACTORS
330
C
102
}
330
C
100
AcDbDictionary
281
     1
  0
DICTIONARY
  5
1A
102
{ACAD_REACTORS
330
C
102
}
330
C
100
AcDbDictionary
281
     1
  3
Layout1
350
1E
  3
Layout2
350
26
  3
Model
350
22
  0
DICTIONARY
  5
17
102
{ACAD_REACTORS
330
C
102
}
330
C
100
AcDbDictionary
281
     1
  3
Standard
350
18
  0
DICTIONARY
  5
19
102
{ACAD_REACTORS
330
C
102
}
330
C
100
AcDbDictionary
281
     1
  0
ACDBDICTIONARYWDFLT
  5
E
102
{ACAD_REACTORS
330
C
102
}
330
C
100
AcDbDictionary
281
     1
  3
Normal
350
F
100
AcDbDictionaryWithDefault
340
F
  0
LAYOUT
  5
1E
102
{ACAD_REACTORS
330
1A
102
}
330
1A
100
AcDbPlotSettings
  1

  2

  4

  6

 40
0.0
 41
0.0
 42
0.0
 43
0.0
 44
0.0
 45
0.0
 46
0.0
 47
0.0
 48
0.0
 49
0.0
140
0.0
141
0.0
142
1.0
143
1.0
 70
   688
 72
     0
 73
     0
 74
     5
  7

 75
    16
 76
     0
 77
     2
 78
   300
147
1.0
148
0.0
149
0.0
100
AcDbLayout
  1
Layout1
 70
     1
 71
     1
 10
0.0
 20
0.0
 11
0.0
 21
0.0
 12
0.0
 22
0.0
 32
0.0
 14
0.0
 24
0.0
 34
0.0
 15
0.0
 25
0.0
 35
0.0
146
0.0
 13
0.0
 23
0.0
 33
0.0
 16
1.0
 26
0.0
 36
0.0
 17
0.0
 27
1.0
 37
0.0
 76
     0
330
1B
  0
LAYOUT
  5
26
102
{ACAD_REACTORS
330
1A
102
}
330
1A
100
AcDbPlotSettings
  1

  2

  4

  6

 40
0.0
 41
0.0
 42
0.0
 43
0.0
 44
0.0
 45
0.0
 46
0.0
 47
0.0
 48
0.0
 49
0.0
140
0.0
141
0.0
142
1.0
143
1.0
 70
   688
 72
     0
 73
     0
 74
     5
  7

 75
    16
 76
     0
 77
     2
 78
   300
147
1.0
148
0.0
149
0.0
100
AcDbLayout
  1
Layout2
 70
     1
 71
     2
 10
0.0
 20
0.0
 11
0.0
 21
0.0
 12
0.0
 22
0.0
 32
0.0
 14
0.0
 24
0.0
 34
0.0
 15
0.0
 25
0.0
 35
0.0
146
0.0
 13
0.0
 23
0.0
 33
0.0
 16
1.0
 26
0.0
 36
0.0
 17
0.0
 27
1.0
 37
0.0
 76
     0
330
23
  0
LAYOUT
  5
22
102
{ACAD_REACTORS
330
1A
102
}
330
1A
100
AcDbPlotSettings
  1

  2

  4

  6

 40
0.0
 41
0.0
 42
0.0
 43
0.0
 44
0.0
 45
0.0
 46
0.0
 47
0.0
 48
0.0
 49
0.0
140
0.0
141
0.0
142
1.0
143
1.0
 70
  1712
 72
     0
 73
     0
 74
     0
  7

 75
     0
 76
     0
 77
     2
 78
   300
147
1.0
148
0.0
149
0.0
100
AcDbLayout
  1
Model
 70
     1
 71
     0
 10
0.0
 20
0.0
 11
0.0
 21
0.0
 12
0.0
 22
0.0
 32
0.0
 14
528.4655835996122
 24
-28.92817306538758
 34
0.0
 15
646.708589645021
 25
136.3337492577078
 35
0.0
146
0.0
 13
0.0
 23
0.0
 33
0.0
 16
1.0
 26
0.0
 36
0.0
 17
0.0
 27
1.0
 37
0.0
 76
     0
330
1F
  0
MLINESTYLE
  5
18
102
{ACAD_REACTORS
330
17
102
}
330
17
100
AcDbMlineStyle
  2
Standard
 70
     0
  3

 62
   256
 51
90.0
 52
90.0
 71
     2
 49
0.5
 62
   256
  6
BYLAYER
 49
-0.5
 62
   256
  6
BYLAYER
  0
ACDBPLACEHOLDER
  5
F
102
{ACAD_REACTORS
330
E
102
}
330
E
  0
ENDSEC
  0
EOF
