  0
SECTION
  2
HEADER
  9
$ACADVER
  1
AC1018
  9
$ACADMAINTVER
 70
     0
  9
$DWGCODEPAGE
  3
ANSI_1252
  9
$INSBASE
 10
0.0
 20
0.0
 30
0.0
  9
$EXTMIN
 10
-66.7178380196774
 20
-60.01095895387946
 30
0.0
  9
$EXTMAX
 10
80.063178780936
 20
65.30690376775603
 30
0.0
  9
$LIMMIN
 10
0.0
 20
0.0
  9
$LIMMAX
 10
12.0
 20
9.0
  9
$ORTHOMODE
 70
     0
  9
$REGENMODE
 70
     1
  9
$FILLMODE
 70
     1
  9
$QTEXTMODE
 70
     0
  9
$MIRRTEXT
 70
     1
  9
$LTSCALE
 40
1.0
  9
$ATTMODE
 70
     1
  9
$TEXTSIZE
 40
0.2
  9
$TRACEWID
 40
0.05
  9
$TEXTSTYLE
  7
Standard
  9
$CLAYER
  8
0
  9
$CELTYPE
  6
ByLayer
  9
$CECOLOR
 62
   256
  9
$CELTSCALE
 40
1.0
  9
$DISPSILH
 70
     0
  9
$DIMSCALE
 40
1.0
  9
$DIMASZ
 40
0.18
  9
$DIMEXO
 40
0.0625
  9
$DIMDLI
 40
0.38
  9
$DIMRND
 40
0.0
  9
$DIMDLE
 40
0.0
  9
$DIMEXE
 40
0.18
  9
$DIMTP
 40
0.0
  9
$DIMTM
 40
0.0
  9
$DIMTXT
 40
0.18
  9
$DIMCEN
 40
0.09
  9
$DIMTSZ
 40
0.0
  9
$DIMTOL
 70
     0
  9
$DIMLIM
 70
     0
  9
$DIMTIH
 70
     1
  9
$DIMTOH
 70
     1
  9
$DIMSE1
 70
     0
  9
$DIMSE2
 70
     0
  9
$DIMTAD
 70
     0
  9
$DIMZIN
 70
     0
  9
$DIMBLK
  1

  9
$DIMASO
 70
     1
  9
$DIMSHO
 70
     1
  9
$DIMPOST
  1

  9
$DIMAPOST
  1

  9
$DIMALT
 70
     0
  9
$DIMALTD
 70
     2
  9
$DIMALTF
 40
25.4
  9
$DIMLFAC
 40
1.0
  9
$DIMTOFL
 70
     0
  9
$DIMTVP
 40
0.0
  9
$DIMTIX
 70
     0
  9
$DIMSOXD
 70
     0
  9
$DIMSAH
 70
     0
  9
$DIMBLK1
  1

  9
$DIMBLK2
  1

  9
$DIMSTYLE
  2
Standard
  9
$DIMCLRD
 70
     0
  9
$DIMCLRE
 70
     0
  9
$DIMCLRT
 70
     0
  9
$DIMTFAC
 40
1.0
  9
$DIMGAP
 40
0.09
  9
$DIMJUST
 70
     0
  9
$DIMSD1
 70
     0
  9
$DIMSD2
 70
     0
  9
$DIMTOLJ
 70
     1
  9
$DIMTZIN
 70
     0
  9
$DIMALTZ
 70
     0
  9
$DIMALTTZ
 70
     0
  9
$DIMUPT
 70
     0
  9
$DIMDEC
 70
     4
  9
$DIMTDEC
 70
     4
  9
$DIMALTU
 70
     2
  9
$DIMALTTD
 70
     2
  9
$DIMTXSTY
  7
Standard
  9
$DIMAUNIT
 70
     0
  9
$DIMADEC
 70
     0
  9
$DIMALTRND
 40
0.0
  9
$DIMAZIN
 70
     0
  9
$DIMDSEP
 70
    46
  9
$DIMATFIT
 70
     3
  9
$DIMFRAC
 70
     0
  9
$DIMLDRBLK
  1

  9
$DIMLUNIT
 70
     2
  9
$DIMLWD
 70
    -2
  9
$DIMLWE
 70
    -2
  9
$DIMTMOVE
 70
     0
  9
$LUNITS
 70
     2
  9
$LUPREC
 70
     4
  9
$SKETCHINC
 40
0.1
  9
$FILLETRAD
 40
0.5
  9
$AUNITS
 70
     0
  9
$AUPREC
 70
     0
  9
$MENU
  1
.
  9
$ELEVATION
 40
0.0
  9
$PELEVATION
 40
0.0
  9
$THICKNESS
 40
0.0
  9
$LIMCHECK
 70
     0
  9
$CHAMFERA
 40
0.5
  9
$CHAMFERB
 40
0.5
  9
$CHAMFERC
 40
1.0
  9
$CHAMFERD
 40
0.0
  9
$SKPOLY
 70
     0
  9
$TDCREATE
 40
2454435.427092812
  9
$TDUCREATE
 40
2454435.385426146
  9
$TDUPDATE
 40
2454435.427092824
  9
$TDUUPDATE
 40
2454435.385426158
  9
$TDINDWG
 40
0.0000000116
  9
$TDUSRTIMER
 40
0.0000000116
  9
$USRTIMER
 70
     1
  9
$ANGBASE
 50
0.0
  9
$ANGDIR
 70
     0
  9
$PDMODE
 70
     0
  9
$PDSIZE
 40
0.0
  9
$PLINEWID
 40
0.0
  9
$SPLFRAME
 70
     0
  9
$SPLINETYPE
 70
     6
  9
$SPLINESEGS
 70
     8
  9
$HANDSEED
  5
132
  9
$SURFTAB1
 70
     6
  9
$SURFTAB2
 70
     6
  9
$SURFTYPE
 70
     6
  9
$SURFU
 70
     6
  9
$SURFV
 70
     6
  9
$UCSBASE
  2

  9
$UCSNAME
  2

  9
$UCSORG
 10
0.0
 20
0.0
 30
0.0
  9
$UCSXDIR
 10
1.0
 20
0.0
 30
0.0
  9
$UCSYDIR
 10
0.0
 20
1.0
 30
0.0
  9
$UCSORTHOREF
  2

  9
$UCSORTHOVIEW
 70
     0
  9
$UCSORGTOP
 10
0.0
 20
0.0
 30
0.0
  9
$UCSORGBOTTOM
 10
0.0
 20
0.0
 30
0.0
  9
$UCSORGLEFT
 10
0.0
 20
0.0
 30
0.0
  9
$UCSORGRIGHT
 10
0.0
 20
0.0
 30
0.0
  9
$UCSORGFRONT
 10
0.0
 20
0.0
 30
0.0
  9
$UCSORGBACK
 10
0.0
 20
0.0
 30
0.0
  9
$PUCSBASE
  2

  9
$PUCSNAME
  2

  9
$PUCSORG
 10
0.0
 20
0.0
 30
0.0
  9
$PUCSXDIR
 10
1.0
 20
0.0
 30
0.0
  9
$PUCSYDIR
 10
0.0
 20
1.0
 30
0.0
  9
$PUCSORTHOREF
  2

  9
$PUCSORTHOVIEW
 70
     0
  9
$PUCSORGTOP
 10
0.0
 20
0.0
 30
0.0
  9
$PUCSORGBOTTOM
 10
0.0
 20
0.0
 30
0.0
  9
$PUCSORGLEFT
 10
0.0
 20
0.0
 30
0.0
  9
$PUCSORGRIGHT
 10
0.0
 20
0.0
 30
0.0
  9
$PUCSORGFRONT
 10
0.0
 20
0.0
 30
0.0
  9
$PUCSORGBACK
 10
0.0
 20
0.0
 30
0.0
  9
$USERI1
 70
     0
  9
$USERI2
 70
     0
  9
$USERI3
 70
     0
  9
$USERI4
 70
     0
  9
$USERI5
 70
     0
  9
$USERR1
 40
14.5
  9
$USERR2
 40
0.0
  9
$USERR3
 40
0.0
  9
$USERR4
 40
0.0
  9
$USERR5
 40
0.0
  9
$WORLDVIEW
 70
     1
  9
$SHADEDGE
 70
     3
  9
$SHADEDIF
 70
    70
  9
$TILEMODE
 70
     1
  9
$MAXACTVP
 70
    64
  9
$PINSBASE
 10
0.0
 20
0.0
 30
0.0
  9
$PLIMCHECK
 70
     0
  9
$PEXTMIN
 10
1.00000000000000E+20
 20
1.00000000000000E+20
 30
1.00000000000000E+20
  9
$PEXTMAX
 10
-1.00000000000000E+20
 20
-1.00000000000000E+20
 30
-1.00000000000000E+20
  9
$PLIMMIN
 10
0.0
 20
0.0
  9
$PLIMMAX
 10
12.0
 20
9.0
  9
$UNITMODE
 70
     0
  9
$VISRETAIN
 70
     1
  9
$PLINEGEN
 70
     0
  9
$PSLTSCALE
 70
     1
  9
$TREEDEPTH
 70
  3020
  9
$CMLSTYLE
  2
Standard
  9
$CMLJUST
 70
     0
  9
$CMLSCALE
 40
1.0
  9
$PROXYGRAPHICS
 70
     1
  9
$MEASUREMENT
 70
     1
  9
$CELWEIGHT
370
    -1
  9
$ENDCAPS
280
     0
  9
$JOINSTYLE
280
     0
  9
$LWDISPLAY
290
     0
  9
$INSUNITS
 70
     1
  9
$HYPERLINKBASE
  1

  9
$STYLESHEET
  1

  9
$XEDIT
290
     1
  9
$CEPSNTYPE
380
     0
  9
$PSTYLEMODE
290
     1
  9
$FINGERPRINTGUID
  2
{53D6A5EE-A679-4EEB-A316-C7BF5F92D674}
  9
$VERSIONGUID
  2
{FAEB1C32-E019-11D5-929B-00C0DF256EC4}
  9
$EXTNAMES
290
     1
  9
$PSVPSCALE
 40
0.0
  9
$OLESTARTUP
290
     0
  9
$SORTENTS
280
   127
  9
$INDEXCTL
280
     0
  9
$HIDETEXT
280
     1
  9
$XCLIPFRAME
290
     0
  9
$HALOGAP
280
     0
  9
$OBSCOLOR
 70
   257
  9
$OBSLTYPE
280
     0
  9
$INTERSECTIONDISPLAY
280
     0
  9
$INTERSECTIONCOLOR
 70
   257
  9
$DIMASSOC
280
     2
  9
$PROJECTNAME
  1

  0
ENDSEC
  0
SECTION
  2
CLASSES
  0
CLASS
  1
ACDBDICTIONARYWDFLT
  2
AcDbDictionaryWithDefault
  3
ObjectDBX Classes
 90
        0
 91
        3
280
     0
281
     0
  0
ENDSEC
  0
SECTION
  2
TABLES
  0
TABLE
  2
VPORT
  5
8
330
0
100
AcDbSymbolTable
 70
     1
  0
VPORT
  5
29
330
8
100
AcDbSymbolTableRecord
100
AcDbViewportTableRecord
  2
*Active
 70
     0
 10
0.0
 20
0.0
 11
1.0
 21
1.0
 12
6.6726703806293
 22
2.64797240693828
 13
0.0
 23
0.0
 14
0.5
 24
0.5
 15
0.5
 25
0.5
 16
0.0
 26
0.0
 36
1.0
 17
0.0
 27
0.0
 37
0.0
 40
137.8496489937991
 41
1.60267857142857
 42
50.0
 43
0.0
 44
0.0
 50
0.0
 51
0.0
 71
     0
 72
   100
 73
     1
 74
     3
 75
     0
 76
     0
 77
     0
 78
     0
281
     0
 65
     1
110
0.0
120
0.0
130
0.0
111
1.0
121
0.0
131
0.0
112
0.0
122
1.0
132
0.0
 79
     0
146
0.0
  0
ENDTAB
  0
TABLE
  2
LTYPE
  5
5
330
0
100
AcDbSymbolTable
 70
     8
  0
LTYPE
  5
14
330
5
100
AcDbSymbolTableRecord
100
AcDbLinetypeTableRecord
  2
ByBlock
 70
     0
  3

 72
    65
 73
     0
 40
0.0
  0
LTYPE
  5
15
330
5
100
AcDbSymbolTableRecord
100
AcDbLinetypeTableRecord
  2
ByLayer
 70
     0
  3

 72
    65
 73
     0
 40
0.0
  0
LTYPE
  5
16
330
5
100
AcDbSymbolTableRecord
100
AcDbLinetypeTableRecord
  2
Continuous
 70
     0
  3
Solid line
 72
    65
 73
     0
 40
0.0
  0
LTYPE
  5
2A
330
5
100
AcDbSymbolTableRecord
100
AcDbLinetypeTableRecord
  2
DASHED
 70
     0
  3
Dashed
 72
    65
 73
     2
 40
15.0
 49
7.0
 74
     0
 49
-8.0
 74
     0
  0
LTYPE
  5
2B
330
5
100
AcDbSymbolTableRecord
100
AcDbLinetypeTableRecord
  2
DOTTED
 70
     0
  3
Dotted
 72
    65
 73
     2
 40
1.0
 49
0.0
 74
     0
 49
-1.0
 74
     0
  0
LTYPE
  5
2C
330
5
100
AcDbSymbolTableRecord
100
AcDbLinetypeTableRecord
  2
DOT_CENTER
 70
     0
  3
Dot_Center
 72
    65
 73
     4
 40
14.0
 49
12.0
 74
     0
 49
-1.0
 74
     0
 49
0.0
 74
     0
 49
-1.0
 74
     0
  0
LTYPE
  5
2D
330
5
100
AcDbSymbolTableRecord
100
AcDbLinetypeTableRecord
  2
LONG_DASHED
 70
     0
  3
Long_Dashed
 72
    65
 73
     2
 40
15.0
 49
10.0
 74
     0
 49
-5.0
 74
     0
  0
LTYPE
  5
2E
330
5
100
AcDbSymbolTableRecord
100
AcDbLinetypeTableRecord
  2
DASH_CENTER
 70
     0
  3
Dash_Center
 72
    65
 73
     4
 40
14.0
 49
11.0
 74
     0
 49
-1.0
 74
     0
 49
1.0
 74
     0
 49
-1.0
 74
     0
  0
LTYPE
  5
2F
330
5
100
AcDbSymbolTableRecord
100
AcDbLinetypeTableRecord
  2
PHANTOM
 70
     0
  3
Phantom
 72
    65
 73
     6
 40
13.0
 49
10.0
 74
     0
 49
-1.0
 74
     0
 49
0.0
 74
     0
 49
-1.0
 74
     0
 49
0.0
 74
     0
 49
-1.0
 74
     0
  0
LTYPE
  5
30
330
5
100
AcDbSymbolTableRecord
100
AcDbLinetypeTableRecord
  2
CENTER_DASH_DASH
 70
     0
  3
Center_Dash_Dash
 72
    65
 73
     6
 40
14.0
 49
9.0
 74
     0
 49
-1.0
 74
     0
 49
1.0
 74
     0
 49
-1.0
 74
     0
 49
1.0
 74
     0
 49
-1.0
 74
     0
  0
ENDTAB
  0
TABLE
  2
LAYER
  5
2
330
0
100
AcDbSymbolTable
 70
     2
  0
LAYER
  5
10
330
2
100
AcDbSymbolTableRecord
100
AcDbLayerTableRecord
  2
0
 70
     0
 62
     7
  6
Continuous
370
    -3
390
F
  0
LAYER
  5
31
330
2
100
AcDbSymbolTableRecord
100
AcDbLayerTableRecord
  2
1
 70
     0
 62
     7
  6
Continuous
370
    -3
390
F
  0
ENDTAB
  0
TABLE
  2
STYLE
  5
3
330
0
100
AcDbSymbolTable
 70
     3
  0
STYLE
  5
11
330
3
100
AcDbSymbolTableRecord
100
AcDbTextStyleTableRecord
  2
Standard
 70
     0
 40
0.0
 41
1.0
 50
0.0
 71
     0
 42
0.2
  3
txt
  4

  0
STYLE
  5
CF
330
3
100
AcDbSymbolTableRecord
100
AcDbTextStyleTableRecord
  2
CONVERTER_11
 70
     0
 40
0.0
 41
0.9
 50
0.0
 71
     0
 42
0.2
  3
txt.shx
  4

  0
STYLE
  5
E6
330
3
100
AcDbSymbolTableRecord
100
AcDbTextStyleTableRecord
  2
CONVERTER_12
 70
     0
 40
0.0
 41
1.0
 50
0.0
 71
     0
 42
0.2
  3
txt.shx
  4

  0
ENDTAB
  0
TABLE
  2
VIEW
  5
6
330
0
100
AcDbSymbolTable
 70
     0
  0
ENDTAB
  0
TABLE
  2
UCS
  5
7
330
0
100
AcDbSymbolTable
 70
     0
  0
ENDTAB
  0
TABLE
  2
APPID
  5
9
330
0
100
AcDbSymbolTable
 70
     1
  0
APPID
  5
12
330
9
100
AcDbSymbolTableRecord
100
AcDbRegAppTableRecord
  2
ACAD
 70
     0
  0
ENDTAB
  0
TABLE
  2
DIMSTYLE
  5
A
330
0
100
AcDbSymbolTable
 70
    10
100
AcDbDimStyleTable
  0
DIMSTYLE
105
27
330
A
100
AcDbSymbolTableRecord
100
AcDbDimStyleTableRecord
  2
Standard
 70
     0
340
11
  0
DIMSTYLE
105
D3
102
{ACAD_REACTORS
330
D4
102
}
330
A
100
AcDbSymbolTableRecord
100
AcDbDimStyleTableRecord
  2
ME10_DIM_10
 70
     0
 41
3.5
 42
0.0
 44
2.0
 73
     0
 74
     0
 77
     1
 78
     8
140
3.5
147
2.0
172
     1
173
     1
176
     2
177
     2
178
     2
271
     3
340
CF
  0
DIMSTYLE
105
DE
102
{ACAD_REACTORS
330
DF
102
}
330
A
100
AcDbSymbolTableRecord
100
AcDbDimStyleTableRecord
  2
ME10_DIM_11
 70
     0
 41
3.5
 42
0.0
 44
2.0
 73
     0
 74
     0
 77
     1
 78
     8
140
3.5
147
2.0
172
     1
173
     1
176
     2
177
     2
178
     2
271
     3
340
CF
  0
DIMSTYLE
105
EA
102
{ACAD_REACTORS
330
EB
102
}
330
A
100
AcDbSymbolTableRecord
100
AcDbDimStyleTableRecord
  2
ME10_DIM_12
 70
     0
 41
3.5
 42
0.0
 44
2.0
 73
     0
 74
     0
 77
     1
 78
    12
140
3.5
147
0.625
173
     1
176
     2
177
     2
178
     2
271
     2
289
     0
340
E6
  0
DIMSTYLE
105
F5
102
{ACAD_REACTORS
330
F6
102
}
330
A
100
AcDbSymbolTableRecord
100
AcDbDimStyleTableRecord
  2
ME10_DIM_13
 70
     0
 41
3.5
 42
0.0
 44
2.0
 73
     0
 74
     0
 77
     1
 78
    12
140
3.5
147
0.625
173
     1
176
     2
177
     2
178
     2
271
     2
289
     0
340
E6
  0
DIMSTYLE
105
100
102
{ACAD_REACTORS
330
101
102
}
330
A
100
AcDbSymbolTableRecord
100
AcDbDimStyleTableRecord
  2
ME10_DIM_14
 70
     0
 41
3.5
 42
0.0
 44
2.0
 73
     0
 74
     0
 77
     1
 78
    12
140
3.5
147
0.625
173
     1
176
     2
177
     2
178
     2
271
     2
289
     0
340
E6
  0
DIMSTYLE
105
10B
102
{ACAD_REACTORS
330
10C
102
}
330
A
100
AcDbSymbolTableRecord
100
AcDbDimStyleTableRecord
  2
ME10_DIM_15
 70
     0
 41
3.5
 42
0.0
 44
2.0
 73
     0
 74
     0
 77
     1
 78
    12
140
3.5
147
0.625
173
     1
176
     2
177
     2
178
     2
271
     2
289
     0
340
E6
  0
DIMSTYLE
105
118
102
{ACAD_REACTORS
330
119
102
}
330
A
100
AcDbSymbolTableRecord
100
AcDbDimStyleTableRecord
  2
ME10_DIM_16
 70
     0
 41
3.5
 42
0.0
 44
2.0
 73
     0
 74
     0
 77
     1
 78
    12
140
3.5
147
0.625
173
     1
176
     2
177
     2
178
     2
271
     2
289
     0
340
E6
  0
DIMSTYLE
105
125
102
{ACAD_REACTORS
330
126
102
}
330
A
100
AcDbSymbolTableRecord
100
AcDbDimStyleTableRecord
  2
ME10_DIM_17
 70
     0
 41
3.5
 42
0.0
 44
2.0
 73
     0
 74
     0
 77
     1
 78
    12
140
3.5
147
0.625
173
     1
176
     2
177
     2
178
     2
271
     2
289
     0
340
E6
  0
DIMSTYLE
105
130
102
{ACAD_REACTORS
330
131
102
}
330
A
100
AcDbSymbolTableRecord
100
AcDbDimStyleTableRecord
  2
ME10_DIM_18
 70
     0
 41
3.5
 42
0.0
 44
2.0
 73
     0
 74
     0
 77
     1
 78
     8
140
3.5
147
2.0
172
     1
173
     1
176
     2
177
     2
178
     2
271
     3
340
CF
  0
ENDTAB
  0
TABLE
  2
BLOCK_RECORD
  5
1
330
0
100
AcDbSymbolTable
 70
    10
  0
BLOCK_RECORD
  5
1F
330
1
100
AcDbSymbolTableRecord
100
AcDbBlockTableRecord
  2
*Model_Space
340
22
  0
BLOCK_RECORD
  5
1B
330
1
100
AcDbSymbolTableRecord
100
AcDbBlockTableRecord
  2
*Paper_Space
340
1E
  0
BLOCK_RECORD
  5
23
330
1
100
AcDbSymbolTableRecord
100
AcDbBlockTableRecord
  2
*Paper_Space0
340
26
  0
BLOCK_RECORD
  5
C7
330
1
100
AcDbSymbolTableRecord
100
AcDbBlockTableRecord
  2
*D1
340
0
  0
BLOCK_RECORD
  5
D5
330
1
100
AcDbSymbolTableRecord
100
AcDbBlockTableRecord
  2
*D2
340
0
  0
BLOCK_RECORD
  5
E0
330
1
100
AcDbSymbolTableRecord
100
AcDbBlockTableRecord
  2
*D3
340
0
  0
BLOCK_RECORD
  5
EC
330
1
100
AcDbSymbolTableRecord
100
AcDbBlockTableRecord
  2
*D4
340
0
  0
BLOCK_RECORD
  5
F7
330
1
100
AcDbSymbolTableRecord
100
AcDbBlockTableRecord
  2
*D5
340
0
  0
BLOCK_RECORD
  5
102
330
1
100
AcDbSymbolTableRecord
100
AcDbBlockTableRecord
  2
*D6
340
0
  0
BLOCK_RECORD
  5
10D
330
1
100
AcDbSymbolTableRecord
100
AcDbBlockTableRecord
  2
*D7
340
0
  0
BLOCK_RECORD
  5
11A
330
1
100
AcDbSymbolTableRecord
100
AcDbBlockTableRecord
  2
*D8
340
0
  0
BLOCK_RECORD
  5
127
330
1
100
AcDbSymbolTableRecord
100
AcDbBlockTableRecord
  2
*D9
340
0
  0
ENDTAB
  0
ENDSEC
  0
SECTION
  2
BLOCKS
  0
BLOCK
  5
20
330
1F
100
AcDbEntity
  8
0
100
AcDbBlockBegin
  2
*Model_Space
 70
     0
 71
     0
 10
0.0
 20
0.0
 30
0.0
  3
*Model_Space
  1

  0
ENDBLK
  5
21
330
1F
100
AcDbEntity
  8
0
100
AcDbBlockEnd
  0
BLOCK
  5
1C
330
1B
100
AcDbEntity
 67
     1
  8
0
100
AcDbBlockBegin
  2
*Paper_Space
 70
     0
 71
     0
 10
0.0
 20
0.0
 30
0.0
  3
*Paper_Space
  1

  0
ENDBLK
  5
1D
330
1B
100
AcDbEntity
 67
     1
  8
0
100
AcDbBlockEnd
  0
BLOCK
  5
24
330
23
100
AcDbEntity
  8
0
100
AcDbBlockBegin
  2
*Paper_Space0
 70
     0
 71
     0
 10
0.0
 20
0.0
 30
0.0
  3
*Paper_Space0
  1

  0
ENDBLK
  5
25
330
23
100
AcDbEntity
  8
0
100
AcDbBlockEnd
  0
BLOCK
  5
D1
330
C7
100
AcDbEntity
  8
0
100
AcDbBlockBegin
  2
*D1
 70
     1
 71
     0
 10
0.0
 20
0.0
 30
0.0
  3
*D1
  1

  0
LINE
  5
C8
330
C7
100
AcDbEntity
  8
1
  6
Continuous
 62
     2
100
AcDbLine
 10
9.81124869119799
 20
-37.4219260982798
 30
0.0
 11
16.81124869119799
 21
-37.4219260982798
 31
0.0
  0
LINE
  5
C9
330
C7
100
AcDbEntity
  8
1
  6
Continuous
 62
     2
100
AcDbLine
 10
6.31124869119799
 20
-37.4219260982798
 30
0.0
 11
9.81124869119799
 21
-37.4219260982798
 31
0.0
  0
LINE
  5
CA
330
C7
100
AcDbEntity
  8
1
  6
Continuous
 62
     2
100
AcDbLine
 10
-1.5399903388267
 20
-37.4219260982798
 30
0.0
 11
6.31124869119799
 21
-37.4219260982798
 31
0.0
  0
LINE
  5
CB
330
C7
100
AcDbEntity
  8
1
  6
Continuous
 62
     2
100
AcDbLine
 10
6.31124869119799
 20
13.4474131096033
 30
0.0
 11
6.31124869119799
 21
-39.4219260982798
 31
0.0
  0
LINE
  5
CC
330
C7
100
AcDbEntity
  8
1
  6
Continuous
 62
     2
100
AcDbLine
 10
9.81124869119799
 20
4.12715529710352
 30
0.0
 11
9.81124869119799
 21
-39.4219260982798
 31
0.0
  0
SOLID
  5
CD
330
C7
100
AcDbEntity
  8
1
 62
     2
100
AcDbTrace
 10
2.81124869119799
 20
-37.88270983983568
 30
0.0
 11
2.81124869119799
 21
-36.96114235672391
 31
0.0
 12
6.31124869119799
 22
-37.4219260982798
 32
0.0
 13
6.31124869119799
 23
-37.4219260982798
 33
0.0
  0
SOLID
  5
CE
330
C7
100
AcDbEntity
  8
1
 62
     2
100
AcDbTrace
 10
13.31124869119799
 20
-36.96114235672391
 30
0.0
 11
13.31124869119799
 21
-37.88270983983568
 31
0.0
 12
9.81124869119799
 22
-37.4219260982798
 32
0.0
 13
9.81124869119799
 23
-37.4219260982798
 33
0.0
  0
MTEXT
  5
D0
330
C7
100
AcDbEntity
  8
1
 62
     2
100
AcDbMText
 10
-1.5399903388267
 20
-35.4219260982798
 30
0.0
 40
3.5
 41
0.0
 71
     7
 72
     1
  1
3.5
  7
CONVERTER_11
 11
0.9999999999970621
 21
2.424068405545307E-6
 31
0.0
 73
     1
 44
0.60024009603842
  0
ENDBLK
  5
D2
330
C7
100
AcDbEntity
  8
0
100
AcDbBlockEnd
  0
BLOCK
  5
DC
330
D5
100
AcDbEntity
  8
0
100
AcDbBlockBegin
  2
*D2
 70
     1
 71
     0
 10
0.0
 20
0.0
 30
0.0
  3
*D2
  1

  0
LINE
  5
D6
330
D5
100
AcDbEntity
  8
1
  6
Continuous
 62
     2
100
AcDbLine
 10
6.31124869119799
 20
52.6833145232672
 30
0.0
 11
-3.68875130880201
 21
52.6833145232672
 31
0.0
  0
LINE
  5
D7
330
D5
100
AcDbEntity
  8
1
  6
Continuous
 62
     2
100
AcDbLine
 10
6.31124869119799
 20
13.4474131096033
 30
0.0
 11
6.31124869119799
 21
54.6833145232672
 31
0.0
  0
LINE
  5
D8
330
D5
100
AcDbEntity
  8
1
  6
Continuous
 62
     2
100
AcDbLine
 10
-3.68875130880201
 20
13.1271552971121
 30
0.0
 11
-3.68875130880201
 21
54.6833145232672
 31
0.0
  0
SOLID
  5
D9
330
D5
100
AcDbEntity
  8
1
 62
     2
100
AcDbTrace
 10
2.81124869119799
 20
52.22253078171131
 30
0.0
 11
2.81124869119799
 21
53.14409826482309
 31
0.0
 12
6.31124869119799
 22
52.6833145232672
 32
0.0
 13
6.31124869119799
 23
52.6833145232672
 33
0.0
  0
SOLID
  5
DA
330
D5
100
AcDbEntity
  8
1
 62
     2
100
AcDbTrace
 10
-0.18875130880201
 20
53.14409826482309
 30
0.0
 11
-0.18875130880201
 21
52.22253078171131
 31
0.0
 12
-3.68875130880201
 22
52.6833145232672
 32
0.0
 13
-3.68875130880201
 23
52.6833145232672
 33
0.0
  0
MTEXT
  5
DB
330
D5
100
AcDbEntity
  8
1
 62
     2
100
AcDbMText
 10
-1.40346954822239
 20
54.6833145232672
 30
0.0
 40
3.5
 41
0.0
 71
     7
 72
     1
  1
10
  7
CONVERTER_11
 11
0.9999999999970621
 21
2.424068405545307E-6
 31
0.0
 73
     1
 44
0.60024009603842
  0
ENDBLK
  5
DD
330
D5
100
AcDbEntity
  8
0
100
AcDbBlockEnd
  0
BLOCK
  5
E8
330
E0
100
AcDbEntity
  8
0
100
AcDbBlockBegin
  2
*D3
 70
     1
 71
     0
 10
0.0
 20
0.0
 30
0.0
  3
*D3
  1

  0
LINE
  5
E1
330
E0
100
AcDbEntity
  8
1
  6
Continuous
 62
     2
100
AcDbLine
 10
78.063178780936
 20
4.1271552971035
 30
0.0
 11
78.063178780936
 21
-19.8728447028965
 31
0.0
  0
LINE
  5
E2
330
E0
100
AcDbEntity
  8
1
  6
Continuous
 62
     2
100
AcDbLine
 10
13.311248691198
 20
4.1271552971035
 30
0.0
 11
80.063178780936
 21
4.1271552971035
 31
0.0
  0
LINE
  5
E3
330
E0
100
AcDbEntity
  8
1
  6
Continuous
 62
     2
100
AcDbLine
 10
13.311248691198
 20
-19.8728447028965
 30
0.0
 11
80.063178780936
 21
-19.8728447028965
 31
0.0
  0
SOLID
  5
E4
330
E0
100
AcDbEntity
  8
1
 62
     2
100
AcDbTrace
 10
77.60239503938011
 20
-16.3728447028965
 30
0.0
 11
78.52396252249189
 21
-16.3728447028965
 31
0.0
 12
78.063178780936
 22
-19.8728447028965
 32
0.0
 13
78.063178780936
 23
-19.8728447028965
 33
0.0
  0
SOLID
  5
E5
330
E0
100
AcDbEntity
  8
1
 62
     2
100
AcDbTrace
 10
78.52396252249189
 20
0.6271552971035
 30
0.0
 11
77.60239503938011
 21
0.6271552971035
 31
0.0
 12
78.063178780936
 22
4.1271552971035
 32
0.0
 13
78.063178780936
 23
4.1271552971035
 33
0.0
  0
MTEXT
  5
E7
330
E0
100
AcDbEntity
  8
1
 62
     2
100
AcDbMText
 10
76.063178780936
 20
-10.5419711105919
 30
0.0
 40
3.5
 41
0.0
 71
     7
 72
     1
  1
24
  7
CONVERTER_12
 11
0.0
 21
1.0
 31
0.0
 73
     1
 44
0.60024009603842
  0
ENDBLK
  5
E9
330
E0
100
AcDbEntity
  8
0
100
AcDbBlockEnd
  0
BLOCK
  5
F3
330
EC
100
AcDbEntity
  8
0
100
AcDbBlockBegin
  2
*D4
 70
     1
 71
     0
 10
0.0
 20
0.0
 30
0.0
  3
*D4
  1

  0
LINE
  5
ED
330
EC
100
AcDbEntity
  8
1
  6
Continuous
 62
     2
100
AcDbLine
 10
-60.1726334714032
 20
13.1271552971136
 30
0.0
 11
-60.1726334714032
 21
-27.6228447028907
 31
0.0
  0
LINE
  5
EE
330
EC
100
AcDbEntity
  8
1
  6
Continuous
 62
     2
100
AcDbLine
 10
-7.18875130880201
 20
13.1271552971136
 30
0.0
 11
-62.1726334714032
 21
13.1271552971136
 31
0.0
  0
LINE
  5
EF
330
EC
100
AcDbEntity
  8
1
  6
Continuous
 62
     2
100
AcDbLine
 10
-29.5451219837282
 20
-27.6228447028907
 30
0.0
 11
-62.1726334714032
 21
-27.6228447028907
 31
0.0
  0
SOLID
  5
F0
330
EC
100
AcDbEntity
  8
1
 62
     2
100
AcDbTrace
 10
-59.71184972984732
 20
9.6271552971136
 30
0.0
 11
-60.63341721295909
 21
9.6271552971136
 31
0.0
 12
-60.1726334714032
 22
13.1271552971136
 32
0.0
 13
-60.1726334714032
 23
13.1271552971136
 33
0.0
  0
SOLID
  5
F1
330
EC
100
AcDbEntity
  8
1
 62
     2
100
AcDbTrace
 10
-60.63341721295909
 20
-24.1228447028907
 30
0.0
 11
-59.71184972984732
 21
-24.1228447028907
 31
0.0
 12
-60.1726334714032
 22
-27.6228447028907
 32
0.0
 13
-60.1726334714032
 23
-27.6228447028907
 33
0.0
  0
MTEXT
  5
F2
330
EC
100
AcDbEntity
  8
1
 62
     2
100
AcDbMText
 10
-63.2178380196774
 20
-11.75284818739048
 30
0.0
 40
3.5
 41
0.0
 71
     7
 72
     1
  1
40.5
  7
CONVERTER_12
 11
0.0
 21
1.0
 31
0.0
 73
     1
 44
0.60024009603842
  0
ENDBLK
  5
F4
330
EC
100
AcDbEntity
  8
0
100
AcDbBlockEnd
  0
BLOCK
  5
FE
330
F7
100
AcDbEntity
  8
0
100
AcDbBlockBegin
  2
*D5
 70
     1
 71
     0
 10
0.0
 20
0.0
 30
0.0
  3
*D5
  1

  0
LINE
  5
F8
330
F7
100
AcDbEntity
  8
1
  6
Continuous
 62
     2
100
AcDbLine
 10
-51.515038209844
 20
-27.6228447028907
 30
0.0
 11
-51.515038209844
 21
-14.3728447028965
 31
0.0
  0
LINE
  5
F9
330
F7
100
AcDbEntity
  8
1
  6
Continuous
 62
     2
100
AcDbLine
 10
-29.5451219837282
 20
-27.6228447028907
 30
0.0
 11
-53.515038209844
 21
-27.6228447028907
 31
0.0
  0
LINE
  5
FA
330
F7
100
AcDbEntity
  8
1
  6
Continuous
 62
     2
100
AcDbLine
 10
-43.188751308802
 20
-14.3728447028965
 30
0.0
 11
-53.515038209844
 21
-14.3728447028965
 31
0.0
  0
SOLID
  5
FB
330
F7
100
AcDbEntity
  8
1
 62
     2
100
AcDbTrace
 10
-51.97582195139989
 20
-24.1228447028907
 30
0.0
 11
-51.05425446828811
 21
-24.1228447028907
 31
0.0
 12
-51.515038209844
 22
-27.6228447028907
 32
0.0
 13
-51.515038209844
 23
-27.6228447028907
 33
0.0
  0
SOLID
  5
FC
330
F7
100
AcDbEntity
  8
1
 62
     2
100
AcDbTrace
 10
-51.05425446828811
 20
-17.8728447028965
 30
0.0
 11
-51.97582195139989
 21
-17.8728447028965
 31
0.0
 12
-51.515038209844
 22
-14.3728447028965
 32
0.0
 13
-51.515038209844
 23
-14.3728447028965
 33
0.0
  0
MTEXT
  5
FD
330
F7
100
AcDbEntity
  8
1
 62
     2
100
AcDbMText
 10
-53.8379310658864
 20
-23.8354691182577
 30
0.0
 40
3.5
 41
0.0
 71
     7
 72
     1
  1
13
  7
CONVERTER_12
 11
0.0
 21
1.0
 31
0.0
 73
     1
 44
0.60024009603842
  0
ENDBLK
  5
FF
330
F7
100
AcDbEntity
  8
0
100
AcDbBlockEnd
  0
BLOCK
  5
109
330
102
100
AcDbEntity
  8
0
100
AcDbBlockBegin
  2
*D6
 70
     1
 71
     0
 10
0.0
 20
0.0
 30
0.0
  3
*D6
  1

  0
LINE
  5
103
330
102
100
AcDbEntity
  8
1
  6
Continuous
 62
     2
100
AcDbLine
 10
9.811248691198
 20
-58.01095895387946
 30
0.0
 11
-16.188751308802
 21
-58.01095895387946
 31
0.0
  0
LINE
  5
104
330
102
100
AcDbEntity
  8
1
  6
Continuous
 62
     2
100
AcDbLine
 10
9.811248691198
 20
-15.8728447028965
 30
0.0
 11
9.811248691198
 21
-60.01095895387946
 31
0.0
  0
LINE
  5
105
330
102
100
AcDbEntity
  8
1
  6
Continuous
 62
     2
100
AcDbLine
 10
-16.188751308802
 20
-41.4619280956773
 30
0.0
 11
-16.188751308802
 21
-60.01095895387946
 31
0.0
  0
SOLID
  5
106
330
102
100
AcDbEntity
  8
1
 62
     2
100
AcDbTrace
 10
6.311248691198
 20
-58.47174269543535
 30
0.0
 11
6.311248691198
 21
-57.55017521232357
 31
0.0
 12
9.811248691198
 22
-58.01095895387946
 32
0.0
 13
9.811248691198
 23
-58.01095895387946
 33
0.0
  0
SOLID
  5
107
330
102
100
AcDbEntity
  8
1
 62
     2
100
AcDbTrace
 10
-12.688751308802
 20
-57.55017521232357
 30
0.0
 11
-12.688751308802
 21
-58.47174269543535
 31
0.0
 12
-16.188751308802
 22
-58.01095895387946
 32
0.0
 13
-16.188751308802
 23
-58.01095895387946
 33
0.0
  0
MTEXT
  5
108
330
102
100
AcDbEntity
  8
1
 62
     2
100
AcDbMText
 10
-6.67174697592417
 20
-56.47978905785948
 30
0.0
 40
3.5
 41
0.0
 71
     7
 72
     1
  1
26
  7
CONVERTER_12
 11
0.999999999988248
 21
4.848136811095759E-6
 31
0.0
 73
     1
 44
0.60024009603842
  0
ENDBLK
  5
10A
330
102
100
AcDbEntity
  8
0
100
AcDbBlockEnd
  0
BLOCK
  5
116
330
10D
100
AcDbEntity
  8
0
100
AcDbBlockBegin
  2
*D7
 70
     1
 71
     0
 10
0.0
 20
0.0
 30
0.0
  3
*D7
  1

  0
LINE
  5
10E
330
10D
100
AcDbEntity
  8
1
  6
Continuous
 62
     2
100
AcDbLine
 10
9.81124869119799
 20
-57.99784389645163
 30
0.0
 11
2.81124869119799
 21
-57.99784389645163
 31
0.0
  0
LINE
  5
10F
330
10D
100
AcDbEntity
  8
1
  6
Continuous
 62
     2
100
AcDbLine
 10
24.00401617973469
 20
-57.99784389645163
 30
0.0
 11
13.311248691198
 21
-57.99784389645163
 31
0.0
  0
LINE
  5
110
330
10D
100
AcDbEntity
  8
1
  6
Continuous
 62
     2
100
AcDbLine
 10
13.311248691198
 20
-19.8728447028965
 30
0.0
 11
13.311248691198
 21
-33.3406845424159
 31
0.0
  0
LINE
  5
111
330
10D
100
AcDbEntity
  8
1
  6
Continuous
 62
     2
100
AcDbLine
 10
13.311248691198
 20
-41.4507772469699
 30
0.0
 11
13.311248691198
 21
-59.99784389645163
 31
0.0
  0
LINE
  5
112
330
10D
100
AcDbEntity
  8
1
  6
Continuous
 62
     2
100
AcDbLine
 10
9.81124869119799
 20
-15.8728447028965
 30
0.0
 11
9.81124869119799
 21
-59.99784389645163
 31
0.0
  0
SOLID
  5
113
330
10D
100
AcDbEntity
  8
1
 62
     2
100
AcDbTrace
 10
16.811248691198
 20
-57.53706015489575
 30
0.0
 11
16.811248691198
 21
-58.45862763800752
 31
0.0
 12
13.311248691198
 22
-57.99784389645163
 32
0.0
 13
13.311248691198
 23
-57.99784389645163
 33
0.0
  0
SOLID
  5
114
330
10D
100
AcDbEntity
  8
1
 62
     2
100
AcDbTrace
 10
6.31124869119799
 20
-58.45862763800752
 30
0.0
 11
6.31124869119799
 21
-57.53706015489575
 31
0.0
 12
9.81124869119799
 22
-57.99784389645163
 32
0.0
 13
9.81124869119799
 23
-57.99784389645163
 33
0.0
  0
MTEXT
  5
115
330
10D
100
AcDbEntity
  8
1
 62
     2
100
AcDbMText
 10
16.90679395753333
 20
-56.42870361666044
 30
0.0
 40
3.5
 41
0.0
 71
     7
 72
     1
  1
3.5
  7
CONVERTER_12
 11
0.999999999988248
 21
4.848136811095759E-6
 31
0.0
 73
     1
 44
0.60024009603842
  0
ENDBLK
  5
117
330
10D
100
AcDbEntity
  8
0
100
AcDbBlockEnd
  0
BLOCK
  5
123
330
11A
100
AcDbEntity
  8
0
100
AcDbBlockBegin
  2
*D8
 70
     1
 71
     0
 10
0.0
 20
0.0
 30
0.0
  3
*D8
  1

  0
LINE
  5
11B
330
11A
100
AcDbEntity
  8
1
  6
Continuous
 62
     2
100
AcDbLine
 10
-16.188751308802
 20
61.181900289223
 30
0.0
 11
-23.188751308802
 21
61.181900289223
 31
0.0
  0
LINE
  5
11C
330
11A
100
AcDbEntity
  8
1
  6
Continuous
 62
     2
100
AcDbLine
 10
-7.18875130880201
 20
61.181900289223
 30
0.0
 11
-16.188751308802
 21
61.181900289223
 31
0.0
  0
LINE
  5
11D
330
11A
100
AcDbEntity
  8
1
  6
Continuous
 62
     2
100
AcDbLine
 10
-0.18875130880201
 20
61.181900289223
 30
0.0
 11
-7.18875130880201
 21
61.181900289223
 31
0.0
  0
LINE
  5
11E
330
11A
100
AcDbEntity
  8
1
  6
Continuous
 62
     2
100
AcDbLine
 10
-7.18875130880201
 20
13.12715529711361
 30
0.0
 11
-7.18875130880201
 21
63.181900289223
 31
0.0
  0
LINE
  5
11F
330
11A
100
AcDbEntity
  8
1
  6
Continuous
 62
     2
100
AcDbLine
 10
-16.188751308802
 20
-15.32479913991529
 30
0.0
 11
-16.188751308802
 21
63.181900289223
 31
0.0
  0
SOLID
  5
120
330
11A
100
AcDbEntity
  8
1
 62
     2
100
AcDbTrace
 10
-3.68875130880201
 20
61.64268403077889
 30
0.0
 11
-3.68875130880201
 21
60.72111654766712
 31
0.0
 12
-7.18875130880201
 22
61.181900289223
 32
0.0
 13
-7.18875130880201
 23
61.181900289223
 33
0.0
  0
SOLID
  5
121
330
11A
100
AcDbEntity
  8
1
 62
     2
100
AcDbTrace
 10
-19.688751308802
 20
60.72111654766712
 30
0.0
 11
-19.688751308802
 21
61.64268403077889
 31
0.0
 12
-16.188751308802
 22
61.181900289223
 32
0.0
 13
-16.188751308802
 23
61.181900289223
 33
0.0
  0
MTEXT
  5
122
330
11A
100
AcDbEntity
  8
1
 62
     2
100
AcDbMText
 10
-12.79625840491804
 20
61.80689681068998
 30
0.0
 40
3.5
 41
0.0
 71
     7
 72
     1
  1
9
  7
CONVERTER_12
 11
0.999999999988248
 21
4.848136811095759E-6
 31
0.0
 73
     1
 44
0.60024009603842
  0
ENDBLK
  5
124
330
11A
100
AcDbEntity
  8
0
100
AcDbBlockEnd
  0
BLOCK
  5
12E
330
127
100
AcDbEntity
  8
0
100
AcDbBlockBegin
  2
*D9
 70
     1
 71
     0
 10
0.0
 20
0.0
 30
0.0
  3
*D9
  1

  0
LINE
  5
128
330
127
100
AcDbEntity
  8
1
  6
Continuous
 62
     2
100
AcDbLine
 10
-3.18875130880201
 20
-48.1261883042579
 30
0.0
 11
9.81124869119799
 21
-48.1261883042579
 31
0.0
  0
LINE
  5
129
330
127
100
AcDbEntity
  8
1
  6
Continuous
 62
     2
100
AcDbLine
 10
9.81124869119799
 20
-15.3728447028965
 30
0.0
 11
9.81124869119799
 21
-50.1261883042579
 31
0.0
  0
LINE
  5
12A
330
127
100
AcDbEntity
  8
1
  6
Continuous
 62
     2
100
AcDbLine
 10
-3.18875130880201
 20
-19.8728447028965
 30
0.0
 11
-3.18875130880201
 21
-50.1261883042579
 31
0.0
  0
SOLID
  5
12B
330
127
100
AcDbEntity
  8
1
 62
     2
100
AcDbTrace
 10
0.31124869119799
 20
-47.66540456270202
 30
0.0
 11
0.31124869119799
 21
-48.58697204581379
 31
0.0
 12
-3.18875130880201
 22
-48.1261883042579
 32
0.0
 13
-3.18875130880201
 23
-48.1261883042579
 33
0.0
  0
SOLID
  5
12C
330
127
100
AcDbEntity
  8
1
 62
     2
100
AcDbTrace
 10
6.31124869119799
 20
-48.58697204581379
 30
0.0
 11
6.31124869119799
 21
-47.66540456270202
 31
0.0
 12
9.81124869119799
 22
-48.1261883042579
 32
0.0
 13
9.81124869119799
 23
-48.1261883042579
 33
0.0
  0
MTEXT
  5
12D
330
127
100
AcDbEntity
  8
1
 62
     2
100
AcDbMText
 10
1.18076370637916
 20
-46.1261883042579
 30
0.0
 40
3.5
 41
0.0
 71
     7
 72
     1
  1
13
  7
CONVERTER_11
 11
0.9999999999970621
 21
2.424068405545307E-6
 31
0.0
 73
     1
 44
0.60024009603842
  0
ENDBLK
  5
12F
330
127
100
AcDbEntity
  8
0
100
AcDbBlockEnd
  0
ENDSEC
  0
SECTION
  2
ENTITIES
  0
POINT
  5
32
330
1F
100
AcDbEntity
  8
1
 62
     3
 60
     1
100
AcDbPoint
 10
-16.188751308802
 20
-19.87284470289655
 30
0.0
  0
POINT
  5
33
330
1F
100
AcDbEntity
  8
1
 62
     3
 60
     1
100
AcDbPoint
 10
-16.188751308802
 20
-27.6228447028965
 30
0.0
  0
POINT
  5
34
330
1F
100
AcDbEntity
  8
1
 62
     7
100
AcDbPoint
 10
13.311248691198
 20
4.12715529710352
 30
0.0
  0
POINT
  5
35
330
1F
100
AcDbEntity
  8
1
 62
     7
100
AcDbPoint
 10
13.311248691198
 20
-19.8728447028965
 30
0.0
  0
POINT
  5
36
330
1F
100
AcDbEntity
  8
1
 62
     7
100
AcDbPoint
 10
-29.5451219837282
 20
-27.6228447028907
 30
0.0
  0
POINT
  5
37
330
1F
100
AcDbEntity
  8
1
 62
     7
100
AcDbPoint
 10
-7.18875130880201
 20
13.1271552971136
 30
0.0
  0
POINT
  5
38
330
1F
100
AcDbEntity
  8
1
 62
     7
100
AcDbPoint
 10
6.31124869119799
 20
-14.3728447028965
 30
0.0
  0
POINT
  5
39
330
1F
100
AcDbEntity
  8
1
 62
     7
100
AcDbPoint
 10
9.81124869119799
 20
-15.8728447028965
 30
0.0
  0
POINT
  5
3A
330
1F
100
AcDbEntity
  8
1
 62
     7
100
AcDbPoint
 10
-43.188751308802
 20
-14.3728447028965
 30
0.0
  0
POINT
  5
3B
330
1F
100
AcDbEntity
  8
1
 62
     7
100
AcDbPoint
 10
-29.5451219837282
 20
-27.6228447028907
 30
0.0
  0
POINT
  5
3C
330
1F
100
AcDbEntity
  8
1
 62
     7
100
AcDbPoint
 10
-16.188751308802
 20
-41.4619280956773
 30
0.0
  0
POINT
  5
3D
330
1F
100
AcDbEntity
  8
1
 62
     7
100
AcDbPoint
 10
9.81124869119799
 20
-15.8728447028965
 30
0.0
  0
POINT
  5
3E
330
1F
100
AcDbEntity
  8
1
 62
     7
100
AcDbPoint
 10
9.81124869119799
 20
-15.8728447028965
 30
0.0
  0
POINT
  5
3F
330
1F
100
AcDbEntity
  8
1
 62
     7
100
AcDbPoint
 10
13.311248691198
 20
-19.8728447028965
 30
0.0
  0
POINT
  5
40
330
1F
100
AcDbEntity
  8
1
 62
     7
100
AcDbPoint
 10
-16.188751308802
 20
-15.3247991399153
 30
0.0
  0
POINT
  5
41
330
1F
100
AcDbEntity
  8
1
 62
     7
100
AcDbPoint
 10
-7.18875130880201
 20
13.1271552971136
 30
0.0
  0
POINT
  5
42
330
1F
100
AcDbEntity
  8
1
 62
     7
100
AcDbPoint
 10
-7.18875130880201
 20
13.1271552971136
 30
0.0
  0
POINT
  5
43
330
1F
100
AcDbEntity
  8
1
 62
     7
100
AcDbPoint
 10
6.31124869119799
 20
15.6271552971035
 30
0.0
  0
POINT
  5
44
330
1F
100
AcDbEntity
  8
1
 62
     3
 60
     1
100
AcDbPoint
 10
13.311248691198
 20
-8.87284470289691
 30
0.0
  0
LINE
  5
45
330
1F
100
AcDbEntity
  8
1
  6
Continuous
 62
     7
100
AcDbLine
 10
9.81124869119799
 20
-3.62284470289648
 30
0.0
 11
9.81124869119799
 21
-8.12284470289648
 31
0.0
  0
LINE
  5
46
330
1F
100
AcDbEntity
  8
1
  6
DASHED
 62
     2
100
AcDbLine
 10
10.11124869119799
 20
-3.62284470289648
 30
0.0
 11
9.81124869119799
 21
-3.62284470289648
 31
0.0
  0
LINE
  5
47
330
1F
100
AcDbEntity
  8
1
  6
Continuous
 62
     7
100
AcDbLine
 10
9.81124869119799
 20
-14.12284470289648
 30
0.0
 11
9.81124869119799
 21
-15.3728447028965
 31
0.0
  0
LINE
  5
48
330
1F
100
AcDbEntity
  8
1
  6
DASHED
 62
     2
100
AcDbLine
 10
10.11124869119799
 20
-14.12284470289648
 30
0.0
 11
9.81124869119799
 21
-14.12284470289648
 31
0.0
  0
LINE
  5
49
330
1F
100
AcDbEntity
  8
1
  6
DASHED
 62
     2
100
AcDbLine
 10
10.11124869119799
 20
-14.12284470289648
 30
0.0
 11
10.11124869119799
 21
-3.62284470289648
 31
0.0
  0
LINE
  5
4A
330
1F
100
AcDbEntity
  8
1
  6
DASHED
 62
     2
100
AcDbLine
 10
12.36124869119799
 20
-11.87284470289648
 30
0.0
 11
12.36124869119799
 21
-5.87284470289648
 31
0.0
  0
LINE
  5
4B
330
1F
100
AcDbEntity
  8
1
  6
DASHED
 62
     2
100
AcDbLine
 10
10.11124869119799
 20
-3.62284470289648
 30
0.0
 11
10.11124869119799
 21
2.37715529710352
 31
0.0
  0
LINE
  5
4C
330
1F
100
AcDbEntity
  8
1
  6
DASHED
 62
     2
100
AcDbLine
 10
12.36124869119799
 20
-5.87284470289648
 30
0.0
 11
10.11124869119799
 21
-3.62284470289648
 31
0.0
  0
LINE
  5
4D
330
1F
100
AcDbEntity
  8
1
  6
DASHED
 62
     2
100
AcDbLine
 10
13.311248691198
 20
-5.87284470289648
 30
0.0
 11
12.36124869119799
 21
-5.87284470289648
 31
0.0
  0
LINE
  5
4E
330
1F
100
AcDbEntity
  8
1
  6
DASHED
 62
     2
100
AcDbLine
 10
12.36124869119799
 20
-11.87284470289648
 30
0.0
 11
10.11124869119799
 21
-14.12284470289648
 31
0.0
  0
LINE
  5
4F
330
1F
100
AcDbEntity
  8
1
  6
Continuous
 62
     7
100
AcDbLine
 10
13.311248691198
 20
-11.8728447028965
 30
0.0
 11
13.311248691198
 21
-15.8728447028965
 31
0.0
  0
LINE
  5
50
330
1F
100
AcDbEntity
  8
1
  6
DASHED
 62
     2
100
AcDbLine
 10
13.311248691198
 20
-11.8728447028965
 30
0.0
 11
12.36124869119799
 21
-11.87284470289648
 31
0.0
  0
LINE
  5
51
330
1F
100
AcDbEntity
  8
1
  6
DOT_CENTER
 62
     2
100
AcDbLine
 10
8.61124869119799
 20
-8.87284470289648
 30
0.0
 11
8.31124869119799
 21
-8.87284470289648
 31
0.0
  0
LINE
  5
52
330
1F
100
AcDbEntity
  8
1
  6
Continuous
 62
     7
100
AcDbLine
 10
9.81124869119799
 20
2.37715529710352
 30
0.0
 11
9.81124869119799
 21
-3.62284470289648
 31
0.0
  0
LINE
  5
53
330
1F
100
AcDbEntity
  8
1
  6
DASHED
 62
     2
100
AcDbLine
 10
10.11124869119799
 20
2.37715529710352
 30
0.0
 11
9.81124869119799
 21
2.37715529710352
 31
0.0
  0
LINE
  5
54
330
1F
100
AcDbEntity
  8
1
  6
Continuous
 62
     7
100
AcDbLine
 10
9.81124869119799
 20
-8.12284470289648
 30
0.0
 11
9.81124869119799
 21
-14.12284470289648
 31
0.0
  0
LINE
  5
55
330
1F
100
AcDbEntity
  8
1
  6
DASHED
 62
     2
100
AcDbLine
 10
10.11124869119799
 20
-8.12284470289648
 30
0.0
 11
9.81124869119799
 21
-8.12284470289648
 31
0.0
  0
LINE
  5
56
330
1F
100
AcDbEntity
  8
1
  6
DASHED
 62
     2
100
AcDbLine
 10
12.36124869119799
 20
-5.87284470289648
 30
0.0
 11
12.36124869119799
 21
0.12715529710352
 31
0.0
  0
LINE
  5
57
330
1F
100
AcDbEntity
  8
1
  6
DASHED
 62
     2
100
AcDbLine
 10
12.36124869119799
 20
0.12715529710352
 30
0.0
 11
10.11124869119799
 21
2.37715529710352
 31
0.0
  0
LINE
  5
58
330
1F
100
AcDbEntity
  8
1
  6
Continuous
 62
     7
100
AcDbLine
 10
13.311248691198
 20
0.12715529710352
 30
0.0
 11
13.311248691198
 21
-5.87284470289648
 31
0.0
  0
LINE
  5
59
330
1F
100
AcDbEntity
  8
1
  6
DASHED
 62
     2
100
AcDbLine
 10
13.311248691198
 20
0.12715529710352
 30
0.0
 11
12.36124869119799
 21
0.12715529710352
 31
0.0
  0
LINE
  5
5A
330
1F
100
AcDbEntity
  8
1
  6
DASHED
 62
     2
100
AcDbLine
 10
12.36124869119799
 20
-5.87284470289648
 30
0.0
 11
10.11124869119799
 21
-8.12284470289648
 31
0.0
  0
LINE
  5
5B
330
1F
100
AcDbEntity
  8
1
  6
DASHED
 62
     2
100
AcDbLine
 10
12.36124869119799
 20
-5.87284470289648
 30
0.0
 11
12.061248691198
 21
-5.87284470289648
 31
0.0
  0
LINE
  5
5C
330
1F
100
AcDbEntity
  8
1
  6
DASHED
 62
     2
100
AcDbLine
 10
12.36124869119799
 20
-5.87284470289648
 30
0.0
 11
12.061248691198
 21
-5.87284470289648
 31
0.0
  0
LINE
  5
5D
330
1F
100
AcDbEntity
  8
1
  6
DOT_CENTER
 62
     2
100
AcDbLine
 10
12.36124869119799
 20
-5.87284470289648
 30
0.0
 11
13.311248691198
 21
-5.87284470289648
 31
0.0
  0
LINE
  5
5E
330
1F
100
AcDbEntity
  8
1
  6
DASHED
 62
     2
100
AcDbLine
 10
13.311248691198
 20
-5.87284470289648
 30
0.0
 11
12.36124869119799
 21
-5.87284470289648
 31
0.0
  0
LINE
  5
5F
330
1F
100
AcDbEntity
  8
1
  6
DOT_CENTER
 62
     2
100
AcDbLine
 10
33.4668731083349
 20
-2.8728447028959
 30
0.0
 11
8.31124869119799
 21
-2.87284470289648
 31
0.0
  0
LINE
  5
60
330
1F
100
AcDbEntity
  8
1
  6
Continuous
 62
     7
100
AcDbLine
 10
-7.18875130880201
 20
-11.3728447028965
 30
0.0
 11
-10.688751308802
 21
-11.3728447028965
 31
0.0
  0
LINE
  5
61
330
1F
100
AcDbEntity
  8
1
  6
DOT_CENTER
 62
     2
100
AcDbLine
 10
-8.43875130880272
 20
-27.62284470289583
 30
0.0
 11
-1.94103919464742
 21
-27.6228447029013
 31
0.0
  0
LINE
  5
62
330
1F
100
AcDbEntity
  8
1
  6
Continuous
 62
     7
100
AcDbLine
 10
-17.688751308802
 20
-11.3728447028965
 30
0.0
 11
-17.688751308802
 21
-14.3728447028965
 31
0.0
  0
LINE
  5
63
330
1F
100
AcDbEntity
  8
1
  6
Continuous
 62
     7
100
AcDbLine
 10
-4.18838996431811
 20
-19.8728447028965
 30
0.0
 11
-3.18875130880201
 21
-19.8728447028965
 31
0.0
  0
LINE
  5
64
330
1F
100
AcDbEntity
  8
1
  6
Continuous
 62
     7
100
AcDbLine
 10
-4.18838996431811
 20
-19.8728447028965
 30
0.0
 11
-4.9848863917145
 21
-28.6406417944886
 31
0.0
  0
LINE
  5
65
330
1F
100
AcDbEntity
  8
1
  6
Continuous
 62
     7
100
AcDbLine
 10
-7.38485033263316
 20
-16.3728447028965
 30
0.0
 11
-3.8704380926261
 21
-16.3728447028965
 31
0.0
  0
LINE
  5
66
330
1F
100
AcDbEntity
  8
1
  6
Continuous
 62
     7
100
AcDbLine
 10
-7.18875130880201
 20
-14.3728447028965
 30
0.0
 11
-7.38485033263316
 21
-16.3728447028965
 31
0.0
  0
LINE
  5
67
330
1F
100
AcDbEntity
  8
1
  6
Continuous
 62
     7
100
AcDbLine
 10
-3.8704380926261
 20
-16.3728447028965
 30
0.0
 11
-3.18875130880201
 21
-16.3728447028965
 31
0.0
  0
LINE
  5
68
330
1F
100
AcDbEntity
  8
1
  6
Continuous
 62
     7
100
AcDbLine
 10
-3.68875130880201
 20
-14.3728447028965
 30
0.0
 11
-3.8704380926261
 21
-16.3728447028965
 31
0.0
  0
LINE
  5
69
330
1F
100
AcDbEntity
  8
1
  6
PHANTOM
 62
     2
100
AcDbLine
 10
-43.188751308802
 20
41.6271552971035
 30
0.0
 11
-46.891485636144
 21
41.6271552971035
 31
0.0
  0
LINE
  5
6A
330
1F
100
AcDbEntity
  8
1
  6
PHANTOM
 62
     2
100
AcDbLine
 10
-43.188751308802
 20
-14.3728447028965
 30
0.0
 11
-43.188751308802
 21
-19.7636535375596
 31
0.0
  0
LINE
  5
6B
330
1F
100
AcDbEntity
  8
1
  6
PHANTOM
 62
     2
100
AcDbLine
 10
-43.188751308802
 20
41.6271552971035
 30
0.0
 11
-43.188751308802
 21
45.6575973164115
 31
0.0
  0
LINE
  5
6C
330
1F
100
AcDbEntity
  8
1
  6
PHANTOM
 62
     2
100
AcDbLine
 10
19.311248691198
 20
41.6271552971035
 30
0.0
 11
24.3161651714359
 21
41.6271552971035
 31
0.0
  0
LINE
  5
6D
330
1F
100
AcDbEntity
  8
1
  6
PHANTOM
 62
     2
100
AcDbLine
 10
-43.188751308802
 20
41.6271552971035
 30
0.0
 11
19.311248691198
 21
41.6271552971035
 31
0.0
  0
LINE
  5
6E
330
1F
100
AcDbEntity
  8
1
  6
PHANTOM
 62
     2
100
AcDbLine
 10
-43.188751308802
 20
-14.3728447028965
 30
0.0
 11
-43.188751308802
 21
41.6271552971035
 31
0.0
  0
LINE
  5
6F
330
1F
100
AcDbEntity
  8
1
  6
DOT_CENTER
 62
     2
100
AcDbLine
 10
33.4668731083349
 20
-2.8728447028959
 30
0.0
 11
60.6402336395308
 21
-2.87284470289409
 31
0.0
  0
LINE
  5
70
330
1F
100
AcDbEntity
  8
1
  6
Continuous
 62
     7
100
AcDbLine
 10
6.31124869119799
 20
15.6271552971035
 30
0.0
 11
6.31124869119799
 21
13.4474131096033
 31
0.0
  0
LINE
  5
71
330
1F
100
AcDbEntity
  8
1
  6
PHANTOM
 62
     2
100
AcDbLine
 10
66.675137580087
 20
10.6271552971035
 30
0.0
 11
66.675137580087
 21
14.4159873847565
 31
0.0
  0
LINE
  5
72
330
1F
100
AcDbEntity
  8
1
  6
PHANTOM
 62
     2
100
AcDbLine
 10
66.675137580087
 20
-28.3728447028965
 30
0.0
 11
66.675137580087
 21
-31.3398256218645
 31
0.0
  0
LINE
  5
73
330
1F
100
AcDbEntity
  8
1
  6
PHANTOM
 62
     2
100
AcDbLine
 10
66.675137580087
 20
10.6271552971035
 30
0.0
 11
66.675137580087
 21
-28.3728447028965
 31
0.0
  0
LINE
  5
74
330
1F
100
AcDbEntity
  8
1
  6
Continuous
 62
     7
100
AcDbLine
 10
13.311248691198
 20
-11.8728447028965
 30
0.0
 11
13.311248691198
 21
-11.8728447028965
 31
0.0
  0
LINE
  5
75
330
1F
100
AcDbEntity
  8
1
  6
DASHED
 62
     2
100
AcDbLine
 10
53.311248691198
 20
-8.87284470291131
 30
0.0
 11
13.311248691198
 21
-8.87284470289691
 31
0.0
  0
LINE
  5
76
330
1F
100
AcDbEntity
  8
1
  6
Continuous
 62
     7
100
AcDbLine
 10
13.311248691198
 20
0.12715529708911
 30
0.0
 11
13.311248691198
 21
0.12715529710352
 31
0.0
  0
LINE
  5
77
330
1F
100
AcDbEntity
  8
1
  6
DASHED
 62
     2
100
AcDbLine
 10
53.311248691198
 20
3.1271552970887
 30
0.0
 11
13.311248691198
 21
3.1271552970887
 31
0.0
  0
LINE
  5
78
330
1F
100
AcDbEntity
  8
1
  6
Continuous
 62
     7
100
AcDbLine
 10
9.81124869119799
 20
4.12715529710352
 30
0.0
 11
9.81124869119799
 21
2.37715529710352
 31
0.0
  0
LINE
  5
79
330
1F
100
AcDbEntity
  8
1
  6
DASHED
 62
     2
100
AcDbLine
 10
13.311248691198
 20
-5.87284470289648
 30
0.0
 11
12.36124869119799
 21
-5.87284470289648
 31
0.0
  0
LINE
  5
7A
330
1F
100
AcDbEntity
  8
1
  6
Continuous
 62
     7
100
AcDbLine
 10
13.311248691198
 20
-11.8728447028965
 30
0.0
 11
13.311248691198
 21
-11.8728447028965
 31
0.0
  0
LINE
  5
7B
330
1F
100
AcDbEntity
  8
1
  6
DASHED
 62
     2
100
AcDbLine
 10
13.311248691198
 20
-11.8728447028965
 30
0.0
 11
13.311248691198
 21
-11.8728447028965
 31
0.0
  0
LINE
  5
7C
330
1F
100
AcDbEntity
  8
1
  6
Continuous
 62
     7
100
AcDbLine
 10
13.311248691198
 20
0.12715529710352
 30
0.0
 11
13.311248691198
 21
0.12715529708911
 31
0.0
  0
LINE
  5
7D
330
1F
100
AcDbEntity
  8
1
  6
DASHED
 62
     2
100
AcDbLine
 10
13.311248691198
 20
0.12715529710352
 30
0.0
 11
13.311248691198
 21
0.12715529708911
 31
0.0
  0
LINE
  5
7E
330
1F
100
AcDbEntity
  8
1
  6
Continuous
 62
     7
100
AcDbLine
 10
13.311248691198
 20
-5.87284470289648
 30
0.0
 11
13.311248691198
 21
-8.87284470289691
 31
0.0
  0
LINE
  5
7F
330
1F
100
AcDbEntity
  8
1
  6
DASHED
 62
     2
100
AcDbLine
 10
13.311248691198
 20
-5.87284470289648
 30
0.0
 11
12.36124869119799
 21
-5.87284470289648
 31
0.0
  0
LINE
  5
80
330
1F
100
AcDbEntity
  8
1
  6
Continuous
 62
     7
100
AcDbLine
 10
13.311248691198
 20
-19.8728447028965
 30
0.0
 11
13.311248691198
 21
-15.8728447028965
 31
0.0
  0
LINE
  5
81
330
1F
100
AcDbEntity
  8
1
  6
Continuous
 62
     7
100
AcDbLine
 10
9.31124869119799
 20
-19.8728447028965
 30
0.0
 11
13.311248691198
 21
-19.8728447028965
 31
0.0
  0
LINE
  5
82
330
1F
100
AcDbEntity
  8
1
  6
Continuous
 62
     7
100
AcDbLine
 10
9.81124869119799
 20
-15.8728447028965
 30
0.0
 11
9.81124869119799
 21
-15.3728447028965
 31
0.0
  0
LINE
  5
83
330
1F
100
AcDbEntity
  8
1
  6
Continuous
 62
     7
100
AcDbLine
 10
-3.18875130880201
 20
-16.3728447028965
 30
0.0
 11
9.31124869119799
 21
-16.3728447028965
 31
0.0
  0
LINE
  5
84
330
1F
100
AcDbEntity
  8
1
  6
Continuous
 62
     7
100
AcDbLine
 10
9.31124869119799
 20
-19.8728447028965
 30
0.0
 11
-3.18875130880201
 21
-19.8728447028965
 31
0.0
  0
LINE
  5
85
330
1F
100
AcDbEntity
  8
1
  6
Continuous
 62
     7
100
AcDbLine
 10
13.311248691198
 20
4.12715529710352
 30
0.0
 11
13.311248691198
 21
0.12715529710352
 31
0.0
  0
LINE
  5
86
330
1F
100
AcDbEntity
  8
1
  6
Continuous
 62
     7
100
AcDbLine
 10
9.81124869119799
 20
4.12715529710352
 30
0.0
 11
13.311248691198
 21
4.12715529710352
 31
0.0
  0
LINE
  5
87
330
1F
100
AcDbEntity
  8
1
  6
Continuous
 62
     7
100
AcDbLine
 10
-8.03399809365199
 20
-19.8728447028966
 30
0.0
 11
-4.18838996431811
 21
-19.8728447028965
 31
0.0
  0
LINE
  5
88
330
1F
100
AcDbEntity
  8
1
  6
Continuous
 62
     7
100
AcDbLine
 10
-16.188751308802
 20
-19.87284470289655
 30
0.0
 11
-8.03399809365199
 21
-19.8728447028966
 31
0.0
  0
LINE
  5
89
330
1F
100
AcDbEntity
  8
1
  6
Continuous
 62
     7
100
AcDbLine
 10
-8.03399809365199
 20
-19.8728447028966
 30
0.0
 11
-10.57103242725475
 21
-22.28395581400807
 31
0.0
  0
LINE
  5
8A
330
1F
100
AcDbEntity
  8
1
  6
DOT_CENTER
 62
     2
100
AcDbLine
 10
-16.188751308802
 20
-15.3247991399153
 30
0.0
 11
-16.188751308802
 21
-41.4619280956773
 31
0.0
  0
LINE
  5
8B
330
1F
100
AcDbEntity
  8
1
  6
Continuous
 62
     7
100
AcDbLine
 10
-3.18875130880201
 20
-19.8728447028965
 30
0.0
 11
-3.18875130880201
 21
-28.3728447028965
 31
0.0
  0
LINE
  5
8C
330
1F
100
AcDbEntity
  8
1
  6
DASHED
 62
     2
100
AcDbLine
 10
-3.18875130880201
 20
-16.3728447028965
 30
0.0
 11
-3.18875130880201
 21
-17.3728447028965
 31
0.0
  0
LINE
  5
8D
330
1F
100
AcDbEntity
  8
1
  6
Continuous
 62
     7
100
AcDbLine
 10
-16.188751308802
 20
-16.3728447028965
 30
0.0
 11
-7.38485033263316
 21
-16.3728447028965
 31
0.0
  0
LINE
  5
8E
330
1F
100
AcDbEntity
  8
1
  6
Continuous
 62
     7
100
AcDbLine
 10
-3.18875130880201
 20
-28.3728447028965
 30
0.0
 11
66.675137580087
 21
-28.3728447028965
 31
0.0
  0
LINE
  5
8F
330
1F
100
AcDbEntity
  8
1
  6
Continuous
 62
     7
100
AcDbLine
 10
-3.18875130880201
 20
-15.3728447028965
 30
0.0
 11
-3.18875130880201
 21
-16.3728447028965
 31
0.0
  0
LINE
  5
90
330
1F
100
AcDbEntity
  8
1
  6
Continuous
 62
     7
100
AcDbLine
 10
9.81124869119799
 20
-15.3728447028965
 30
0.0
 11
-3.18875130880201
 21
-15.3728447028965
 31
0.0
  0
LINE
  5
91
330
1F
100
AcDbEntity
  8
1
  6
Continuous
 62
     7
100
AcDbLine
 10
9.81124869119799
 20
10.6271552971035
 30
0.0
 11
9.81124869119799
 21
4.12715529710352
 31
0.0
  0
LINE
  5
92
330
1F
100
AcDbEntity
  8
1
  6
Continuous
 62
     7
100
AcDbLine
 10
-7.18875130880201
 20
13.1271552971136
 30
0.0
 11
-7.18875130880201
 21
-14.3728447028965
 31
0.0
  0
LINE
  5
93
330
1F
100
AcDbEntity
  8
1
  6
Continuous
 62
     7
100
AcDbLine
 10
-7.18875130880201
 20
13.1271552971136
 30
0.0
 11
-3.68875130880201
 21
13.1271552971121
 31
0.0
  0
LINE
  5
94
330
1F
100
AcDbEntity
  8
1
  6
Continuous
 62
     7
100
AcDbLine
 10
6.31124869119799
 20
15.6271552971035
 30
0.0
 11
19.311248691198
 21
15.6271552971035
 31
0.0
  0
LINE
  5
95
330
1F
100
AcDbEntity
  8
1
  6
Continuous
 62
     7
100
AcDbLine
 10
19.311248691198
 20
15.6271552971035
 30
0.0
 11
19.311248691198
 21
41.6271552971035
 31
0.0
  0
LINE
  5
96
330
1F
100
AcDbEntity
  8
1
  6
Continuous
 62
     7
100
AcDbLine
 10
6.31124869119799
 20
-14.3728447028965
 30
0.0
 11
-0.68875130880201
 21
-14.3728447028965
 31
0.0
  0
LINE
  5
97
330
1F
100
AcDbEntity
  8
1
  6
Continuous
 62
     7
100
AcDbLine
 10
-3.68875130880201
 20
-14.3728447028965
 30
0.0
 11
-3.68875130880201
 21
13.1271552971121
 31
0.0
  0
LINE
  5
98
330
1F
100
AcDbEntity
  8
1
  6
Continuous
 62
     7
100
AcDbLine
 10
-43.188751308802
 20
-14.3728447028965
 30
0.0
 11
-17.688751308802
 21
-14.3728447028965
 31
0.0
  0
LINE
  5
99
330
1F
100
AcDbEntity
  8
1
  6
Continuous
 62
     7
100
AcDbLine
 10
6.31124869119799
 20
14.6271552971035
 30
0.0
 11
3.31124869119799
 21
14.6271552971035
 31
0.0
  0
LINE
  5
9A
330
1F
100
AcDbEntity
  8
1
  6
Continuous
 62
     7
100
AcDbLine
 10
6.31124869119799
 20
13.4474131096033
 30
0.0
 11
6.31124869119799
 21
-14.3728447028965
 31
0.0
  0
LINE
  5
9B
330
1F
100
AcDbEntity
  8
1
  6
Continuous
 62
     7
100
AcDbLine
 10
-17.688751308802
 20
14.6271552971035
 30
0.0
 11
-17.688751308802
 21
-9.37284470289648
 31
0.0
  0
LINE
  5
9C
330
1F
100
AcDbEntity
  8
1
  6
Continuous
 62
     7
100
AcDbLine
 10
-17.688751308802
 20
-9.37284470289648
 30
0.0
 11
-17.688751308802
 21
-11.3728447028965
 31
0.0
  0
LINE
  5
9D
330
1F
100
AcDbEntity
  8
1
  6
Continuous
 62
     7
100
AcDbLine
 10
-17.688751308802
 20
-14.3728447028965
 30
0.0
 11
-10.688751308802
 21
-14.3728447028965
 31
0.0
  0
LINE
  5
9E
330
1F
100
AcDbEntity
  8
1
  6
Continuous
 62
     7
100
AcDbLine
 10
3.31124869119799
 20
14.6271552971035
 30
0.0
 11
3.31124869119799
 21
-11.3728447028965
 31
0.0
  0
LINE
  5
9F
330
1F
100
AcDbEntity
  8
1
  6
Continuous
 62
     7
100
AcDbLine
 10
3.31124869119799
 20
14.6271552971035
 30
0.0
 11
-17.688751308802
 21
14.6271552971035
 31
0.0
  0
LINE
  5
A0
330
1F
100
AcDbEntity
  8
1
  6
Continuous
 62
     7
100
AcDbLine
 10
3.31124869119799
 20
-11.3728447028965
 30
0.0
 11
-0.68875130880201
 21
-11.3728447028965
 31
0.0
  0
LINE
  5
A1
330
1F
100
AcDbEntity
  8
1
  6
Continuous
 62
     7
100
AcDbLine
 10
-10.688751308802
 20
-11.3728447028965
 30
0.0
 11
-10.688751308802
 21
-14.3728447028965
 31
0.0
  0
LINE
  5
A2
330
1F
100
AcDbEntity
  8
1
  6
Continuous
 62
     7
100
AcDbLine
 10
-10.688751308802
 20
-14.3728447028965
 30
0.0
 11
-7.18875130880201
 21
-14.3728447028965
 31
0.0
  0
LINE
  5
A3
330
1F
100
AcDbEntity
  8
1
  6
Continuous
 62
     7
100
AcDbLine
 10
-10.688751308802
 20
-11.3728447028965
 30
0.0
 11
-17.688751308802
 21
-11.3728447028965
 31
0.0
  0
LINE
  5
A4
330
1F
100
AcDbEntity
  8
1
  6
Continuous
 62
     7
100
AcDbLine
 10
-0.68875130880201
 20
-11.3728447028965
 30
0.0
 11
-0.68875130880201
 21
-14.3728447028965
 31
0.0
  0
LINE
  5
A5
330
1F
100
AcDbEntity
  8
1
  6
Continuous
 62
     7
100
AcDbLine
 10
-0.68875130880201
 20
-14.3728447028965
 30
0.0
 11
-3.68875130880201
 21
-14.3728447028965
 31
0.0
  0
LINE
  5
A6
330
1F
100
AcDbEntity
  8
1
  6
Continuous
 62
     7
100
AcDbLine
 10
-0.68875130880201
 20
-11.3728447028965
 30
0.0
 11
-3.68875130880201
 21
-11.3728447028965
 31
0.0
  0
LINE
  5
A7
330
1F
100
AcDbEntity
  8
1
  6
DOT_CENTER
 62
     2
100
AcDbLine
 10
-29.5451219837282
 20
-27.6228447028907
 30
0.0
 11
-8.43875130880272
 21
-27.62284470289583
 31
0.0
  0
LINE
  5
A8
330
1F
100
AcDbEntity
  8
1
  6
DASHED
 62
     2
100
AcDbLine
 10
53.311248691198
 20
3.1271552970887
 30
0.0
 11
58.311248691198
 21
1.78740933493311
 31
0.0
  0
LINE
  5
A9
330
1F
100
AcDbEntity
  8
1
  6
DASHED
 62
     2
100
AcDbLine
 10
58.311248691198
 20
1.78740933493311
 30
0.0
 11
58.311248691198
 21
-7.53309874075571
 31
0.0
  0
LINE
  5
AA
330
1F
100
AcDbEntity
  8
1
  6
DASHED
 62
     2
100
AcDbLine
 10
58.311248691198
 20
-7.53309874075571
 30
0.0
 11
53.311248691198
 21
-8.87284470291131
 31
0.0
  0
LINE
  5
AB
330
1F
100
AcDbEntity
  8
1
  6
DASHED
 62
     2
100
AcDbLine
 10
53.311248691198
 20
3.1271552970887
 30
0.0
 11
53.311248691198
 21
-8.87284470291131
 31
0.0
  0
LINE
  5
AC
330
1F
100
AcDbEntity
  8
1
  6
DOT_CENTER
 62
     2
100
AcDbLine
 10
8.31124869119799
 20
-5.87284470289678
 30
0.0
 11
12.36124869119799
 21
-5.87284470289648
 31
0.0
  0
LINE
  5
AD
330
1F
100
AcDbEntity
  8
1
  6
Continuous
 62
     7
100
AcDbLine
 10
9.81124869119799
 20
10.6271552971035
 30
0.0
 11
66.675137580087
 21
10.6271552971035
 31
0.0
  0
LINE
  5
AE
330
1F
100
AcDbEntity
  8
1
  6
Continuous
 62
     7
100
AcDbLine
 10
9.81124869119799
 20
-15.8728447028965
 30
0.0
 11
10.811248691198
 21
-15.8728447028965
 31
0.0
  0
LINE
  5
AF
330
1F
100
AcDbEntity
  8
1
  6
Continuous
 62
     7
100
AcDbLine
 10
-3.18875130880201
 20
-17.3728447028965
 30
0.0
 11
9.81124869119799
 21
-17.3728447028965
 31
0.0
  0
LINE
  5
B0
330
1F
100
AcDbEntity
  8
1
  6
Continuous
 62
     7
100
AcDbLine
 10
-3.18875130880201
 20
-17.3728447028965
 30
0.0
 11
-3.18875130880201
 21
-19.8728447028965
 31
0.0
  0
LINE
  5
B1
330
1F
100
AcDbEntity
  8
1
  6
Continuous
 62
     7
100
AcDbLine
 10
10.811248691198
 20
-16.3728447028965
 30
0.0
 11
10.811248691198
 21
-15.8728447028965
 31
0.0
  0
LINE
  5
B2
330
1F
100
AcDbEntity
  8
1
  6
Continuous
 62
     7
100
AcDbLine
 10
10.811248691198
 20
-15.8728447028965
 30
0.0
 11
13.311248691198
 21
-15.8728447028965
 31
0.0
  0
LINE
  5
B3
330
1F
100
AcDbEntity
  8
1
  6
Continuous
 62
     7
100
AcDbLine
 10
7.31124869119793
 20
13.8951044895346
 30
0.0
 11
7.31124869119793
 21
14.6271552971035
 31
0.0
  0
LINE
  5
B4
330
1F
100
AcDbEntity
  8
1
  6
Continuous
 62
     7
100
AcDbLine
 10
8.62064976795642
 20
11.6271552971035
 30
0.0
 11
7.31124869119793
 21
13.8951044895346
 31
0.0
  0
LINE
  5
B5
330
1F
100
AcDbEntity
  8
1
  6
Continuous
 62
     7
100
AcDbLine
 10
17.0018476144395
 20
11.6271552971035
 30
0.0
 11
8.62064976795642
 21
11.6271552971035
 31
0.0
  0
LINE
  5
B6
330
1F
100
AcDbEntity
  8
1
  6
Continuous
 62
     7
100
AcDbLine
 10
18.311248691198
 20
13.8951044895346
 30
0.0
 11
17.0018476144395
 21
11.6271552971035
 31
0.0
  0
LINE
  5
B7
330
1F
100
AcDbEntity
  8
1
  6
Continuous
 62
     7
100
AcDbLine
 10
18.311248691198
 20
14.6271552971035
 30
0.0
 11
18.311248691198
 21
13.8951044895346
 31
0.0
  0
LINE
  5
B8
330
1F
100
AcDbEntity
  8
1
  6
Continuous
 62
     7
100
AcDbLine
 10
7.31124869119793
 20
14.6271552971035
 30
0.0
 11
18.311248691198
 21
14.6271552971035
 31
0.0
  0
LINE
  5
B9
330
1F
100
AcDbEntity
  8
1
  6
Continuous
 62
     7
100
AcDbLine
 10
19.311248691198
 20
13.6271552971035
 30
0.0
 11
19.311248691198
 21
15.6271552971035
 31
0.0
  0
LINE
  5
BA
330
1F
100
AcDbEntity
  8
1
  6
Continuous
 62
     7
100
AcDbLine
 10
17.5791978836291
 20
10.6271552971035
 30
0.0
 11
19.311248691198
 21
13.6271552971035
 31
0.0
  0
LINE
  5
BB
330
1F
100
AcDbEntity
  8
1
  6
Continuous
 62
     7
100
AcDbLine
 10
8.04329949876683
 20
10.6271552971035
 30
0.0
 11
9.81124869119799
 21
10.6271552971035
 31
0.0
  0
LINE
  5
BC
330
1F
100
AcDbEntity
  8
1
  6
Continuous
 62
     7
100
AcDbLine
 10
6.31124869119793
 20
13.6271552971035
 30
0.0
 11
8.04329949876683
 21
10.6271552971035
 31
0.0
  0
LINE
  5
BD
330
1F
100
AcDbEntity
  8
1
  6
DOT_CENTER
 62
     2
100
AcDbLine
 10
8.61124869119799
 20
-8.87284470289648
 30
0.0
 11
13.311248691198
 21
-8.87284470289691
 31
0.0
  0
LINE
  5
BE
330
1F
100
AcDbEntity
  8
1
  6
Continuous
 62
     7
100
AcDbLine
 10
13.311248691198
 20
-8.87284470289691
 30
0.0
 11
13.311248691198
 21
-11.8728447028965
 31
0.0
  0
ARC
  5
BF
330
1F
100
AcDbEntity
  8
1
  6
Continuous
 62
     7
100
AcDbCircle
 10
-16.188751308802
 20
-27.6228447028965
 30
0.0
 40
7.74999999999928
100
AcDbArc
 50
43.54221902815625
 51
90.0
  0
ARC
  5
C0
330
1F
100
AcDbEntity
  8
1
  6
Continuous
 62
     7
100
AcDbCircle
 10
-16.188751308802
 20
-27.6228447028965
 30
0.0
 40
7.74999999999995
100
AcDbArc
 50
90.0
 51
0.00000000000496
  0
ARC
  5
C1
330
1F
100
AcDbEntity
  8
1
  6
Continuous
 62
     7
100
AcDbCircle
 10
-16.188751308802
 20
-27.6228447028965
 30
0.0
 40
7.749999999999279
100
AcDbArc
 50
0.00000000000496
 51
43.54221902815625
  0
ARC
  5
C2
330
1F
100
AcDbEntity
  8
1
  6
Continuous
 62
     7
100
AcDbCircle
 10
-16.188751308802
 20
-27.6228447028965
 30
0.0
 40
11.25
100
AcDbArc
 50
90.0
 51
-5.19069546508806
  0
ARC
  5
C3
330
1F
100
AcDbEntity
  8
1
  6
Continuous
 62
     7
100
AcDbCircle
 10
-16.188751308802
 20
-27.6228447028965
 30
0.0
 40
11.24999999999989
100
AcDbArc
 50
-5.19069546508806
 51
43.54221902815562
  0
ARC
  5
C4
330
1F
100
AcDbEntity
  8
1
  6
Continuous
 62
     7
100
AcDbCircle
 10
9.31124869119799
 20
-15.8728447028965
 30
0.0
 40
4.0
100
AcDbArc
 50
-90.0
 51
0.0
  0
ARC
  5
C5
330
1F
100
AcDbEntity
  8
1
  6
Continuous
 62
     7
100
AcDbCircle
 10
9.31124869119799
 20
-15.8728447028965
 30
0.0
 40
0.5
100
AcDbArc
 50
-90.0
 51
0.0
  0
ARC
  5
C6
330
1F
100
AcDbEntity
  8
1
  6
Continuous
 62
     7
100
AcDbCircle
 10
9.81124869119799
 20
-16.3728447028965
 30
0.0
 40
1.0
100
AcDbArc
 50
-90.0
 51
0.0
  0
DIMENSION
  5
D4
330
1F
100
AcDbEntity
  8
1
100
AcDbDimension
  2
*D1
 10
6.31124869119799
 20
-37.4219260982798
 30
0.0
 11
1.6537596611733
 21
-33.6719260982798
 31
0.0
 70
    32
  1
<>
 71
     5
 42
-1.0
 53
0.00013888888889
  3
ME10_DIM_10
100
AcDbAlignedDimension
 13
9.81124869119799
 23
4.12715529710352
 33
0.0
 14
6.31124869119799
 24
13.4474131096033
 34
0.0
100
AcDbRotatedDimension
  0
DIMENSION
  5
DF
330
1F
100
AcDbEntity
  8
1
100
AcDbDimension
  2
*D2
 10
6.31124869119799
 20
52.6833145232672
 30
0.0
 11
0.69653045177761
 21
56.4333145232672
 31
0.0
 70
    32
  1
<>
 71
     5
 42
-1.0
 53
0.00013888888889
  3
ME10_DIM_11
100
AcDbAlignedDimension
 13
-3.68875130880201
 23
13.1271552971121
 33
0.0
 14
6.31124869119799
 24
13.4474131096033
 34
0.0
100
AcDbRotatedDimension
  0
DIMENSION
  5
EB
330
1F
100
AcDbEntity
  8
1
100
AcDbDimension
  2
*D3
 10
78.063178780936
 20
-19.8728447028965
 30
0.0
 11
74.313178780936
 21
-7.6719711105919
 31
0.0
 70
    32
  1
24
 71
     5
 42
-1.0
 53
90.0
  3
ME10_DIM_12
100
AcDbAlignedDimension
 13
13.311248691198
 23
4.12715529710352
 33
0.0
 14
13.311248691198
 24
-19.8728447028965
 34
0.0
 50
90.0
100
AcDbRotatedDimension
  0
DIMENSION
  5
F6
330
1F
100
AcDbEntity
  8
1
100
AcDbDimension
  2
*D4
 10
-60.1726334714032
 20
13.1271552971136
 30
0.0
 11
-64.9678380196774
 21
-6.01284818739048
 31
0.0
 70
    32
  1
40.5
 71
     5
 42
-1.0
 53
90.0
  3
ME10_DIM_13
100
AcDbAlignedDimension
 13
-29.5451219837282
 23
-27.6228447028907
 33
0.0
 14
-7.18875130880201
 24
13.1271552971136
 34
0.0
 50
90.0
100
AcDbRotatedDimension
  0
DIMENSION
  5
101
330
1F
100
AcDbEntity
  8
1
100
AcDbDimension
  2
*D5
 10
-51.515038209844
 20
-27.6228447028907
 30
0.0
 11
-55.5879310658864
 21
-20.9654691182577
 31
0.0
 70
    32
  1
13
 71
     5
 42
-1.0
 53
90.0
  3
ME10_DIM_14
100
AcDbAlignedDimension
 13
-43.188751308802
 23
-14.3728447028965
 33
0.0
 14
-29.5451219837282
 24
-27.6228447028907
 34
0.0
 50
90.0
100
AcDbRotatedDimension
  0
DIMENSION
  5
10C
330
1F
100
AcDbEntity
  8
1
100
AcDbDimension
  2
*D6
 10
9.811248691198
 20
-58.01095895387946
 30
0.0
 11
-3.8017512180523
 21
-54.7297821007883
 31
0.0
 70
    32
  1
26
 71
     5
 42
-1.0
 53
0.00013888888889
  3
ME10_DIM_15
100
AcDbAlignedDimension
 13
-16.188751308802
 23
-41.4619280956773
 33
0.0
 14
9.81124869119799
 24
-15.8728447028965
 34
0.0
100
AcDbRotatedDimension
  0
DIMENSION
  5
119
330
1F
100
AcDbEntity
  8
1
100
AcDbDimension
  2
*D7
 10
13.311248691198
 20
-57.99784389645163
 30
0.0
 11
20.4554008265143
 21
-54.6786950145895
 31
0.0
 70
    32
  1
3.5
 71
     5
 42
-1.0
 53
0.00013888888889
  3
ME10_DIM_16
100
AcDbAlignedDimension
 13
9.81124869119799
 23
-15.8728447028965
 33
0.0
 14
13.311248691198
 24
-19.8728447028965
 34
0.0
100
AcDbRotatedDimension
  0
DIMENSION
  5
126
330
1F
100
AcDbEntity
  8
1
100
AcDbDimension
  2
*D8
 10
-7.18875130880201
 20
61.181900289223
 30
0.0
 11
-11.36126264704197
 21
63.556900289223
 31
0.0
 70
    32
  1
9
 71
     5
 42
-1.0
 53
0.00013888888889
  3
ME10_DIM_17
100
AcDbAlignedDimension
 13
-16.188751308802
 23
-15.3247991399153
 33
0.0
 14
-7.18875130880201
 24
13.1271552971136
 34
0.0
100
AcDbRotatedDimension
  0
DIMENSION
  5
131
330
1F
100
AcDbEntity
  8
1
100
AcDbDimension
  2
*D9
 10
-3.18875130880201
 20
-48.1261883042579
 30
0.0
 11
3.28076370637916
 21
-44.3761883042579
 31
0.0
 70
    32
  1
<>
 71
     5
 42
-1.0
 53
0.00013888888889
  3
ME10_DIM_18
100
AcDbAlignedDimension
 13
9.81124869119799
 23
-15.3728447028965
 33
0.0
 14
-3.18875130880201
 24
-19.8728447028965
 34
0.0
100
AcDbRotatedDimension
  0
ENDSEC
  0
SECTION
  2
OBJECTS
  0
DICTIONARY
  5
C
330
0
100
AcDbDictionary
281
     1
  3
ACAD_GROUP
350
D
  3
ACAD_LAYOUT
350
1A
  3
ACAD_MLINESTYLE
350
17
  3
ACAD_PLOTSETTINGS
350
19
  3
ACAD_PLOTSTYLENAME
350
E
  0
DICTIONARY
  5
D
102
{ACAD_REACTORS
330
C
102
}
330
C
100
AcDbDictionary
281
     1
  0
DICTIONARY
  5
1A
102
{ACAD_REACTORS
330
C
102
}
330
C
100
AcDbDictionary
281
     1
  3
Layout1
350
1E
  3
Layout2
350
26
  3
Model
350
22
  0
DICTIONARY
  5
17
102
{ACAD_REACTORS
330
C
102
}
330
C
100
AcDbDictionary
281
     1
  3
Standard
350
18
  0
DICTIONARY
  5
19
102
{ACAD_REACTORS
330
C
102
}
330
C
100
AcDbDictionary
281
     1
  0
ACDBDICTIONARYWDFLT
  5
E
102
{ACAD_REACTORS
330
C
102
}
330
C
100
AcDbDictionary
281
     1
  3
Normal
350
F
100
AcDbDictionaryWithDefault
340
F
  0
LAYOUT
  5
1E
102
{ACAD_REACTORS
330
1A
102
}
330
1A
100
AcDbPlotSettings
  1

  2

  4

  6

 40
0.0
 41
0.0
 42
0.0
 43
0.0
 44
0.0
 45
0.0
 46
0.0
 47
0.0
 48
0.0
 49
0.0
140
0.0
141
0.0
142
1.0
143
1.0
 70
   688
 72
     0
 73
     0
 74
     5
  7

 75
    16
 76
     0
 77
     2
 78
   300
147
1.0
148
0.0
149
0.0
100
AcDbLayout
  1
Layout1
 70
     1
 71
     1
 10
0.0
 20
0.0
 11
0.0
 21
0.0
 12
0.0
 22
0.0
 32
0.0
 14
0.0
 24
0.0
 34
0.0
 15
0.0
 25
0.0
 35
0.0
146
0.0
 13
0.0
 23
0.0
 33
0.0
 16
1.0
 26
0.0
 36
0.0
 17
0.0
 27
1.0
 37
0.0
 76
     0
330
1B
  0
LAYOUT
  5
26
102
{ACAD_REACTORS
330
1A
102
}
330
1A
100
AcDbPlotSettings
  1

  2

  4

  6

 40
0.0
 41
0.0
 42
0.0
 43
0.0
 44
0.0
 45
0.0
 46
0.0
 47
0.0
 48
0.0
 49
0.0
140
0.0
141
0.0
142
1.0
143
1.0
 70
   688
 72
     0
 73
     0
 74
     5
  7

 75
    16
 76
     0
 77
     2
 78
   300
147
1.0
148
0.0
149
0.0
100
AcDbLayout
  1
Layout2
 70
     1
 71
     2
 10
0.0
 20
0.0
 11
0.0
 21
0.0
 12
0.0
 22
0.0
 32
0.0
 14
0.0
 24
0.0
 34
0.0
 15
0.0
 25
0.0
 35
0.0
146
0.0
 13
0.0
 23
0.0
 33
0.0
 16
1.0
 26
0.0
 36
0.0
 17
0.0
 27
1.0
 37
0.0
 76
     0
330
23
  0
LAYOUT
  5
22
102
{ACAD_REACTORS
330
1A
102
}
330
1A
100
AcDbPlotSettings
  1

  2

  4

  6

 40
0.0
 41
0.0
 42
0.0
 43
0.0
 44
0.0
 45
0.0
 46
0.0
 47
0.0
 48
0.0
 49
0.0
140
0.0
141
0.0
142
1.0
143
1.0
 70
  1712
 72
     0
 73
     0
 74
     0
  7

 75
     0
 76
     0
 77
     2
 78
   300
147
1.0
148
0.0
149
0.0
100
AcDbLayout
  1
Model
 70
     1
 71
     0
 10
0.0
 20
0.0
 11
0.0
 21
0.0
 12
0.0
 22
0.0
 32
0.0
 14
-66.7178380196774
 24
-60.01095895387946
 34
0.0
 15
80.063178780936
 25
65.30690376775603
 35
0.0
146
0.0
 13
0.0
 23
0.0
 33
0.0
 16
1.0
 26
0.0
 36
0.0
 17
0.0
 27
1.0
 37
0.0
 76
     0
330
1F
  0
MLINESTYLE
  5
18
102
{ACAD_REACTORS
330
17
102
}
330
17
100
AcDbMlineStyle
  2
Standard
 70
     0
  3

 62
   256
 51
90.0
 52
90.0
 71
     2
 49
0.5
 62
   256
  6
BYLAYER
 49
-0.5
 62
   256
  6
BYLAYER
  0
ACDBPLACEHOLDER
  5
F
102
{ACAD_REACTORS
330
E
102
}
330
E
  0
ENDSEC
  0
EOF
