  0
SECTION
  2
HEADER
  9
$ACADVER
  1
AC1018
  9
$ACADMAINTVER
 70
     0
  9
$DWGCODEPAGE
  3
ANSI_1252
  9
$INSBASE
 10
0.0
 20
0.0
 30
0.0
  9
$EXTMIN
 10
-57.58118182242552
 20
-62.0540628476768
 30
0.0
  9
$EXTMAX
 10
41.05218282594804
 20
67.9913405262164
 30
0.0
  9
$LIMMIN
 10
0.0
 20
0.0
  9
$LIMMAX
 10
12.0
 20
9.0
  9
$ORTHOMODE
 70
     0
  9
$REGENMODE
 70
     1
  9
$FILLMODE
 70
     1
  9
$QTEXTMODE
 70
     0
  9
$MIRRTEXT
 70
     1
  9
$LTSCALE
 40
1.0
  9
$ATTMODE
 70
     1
  9
$TEXTSIZE
 40
0.2
  9
$TRACEWID
 40
0.05
  9
$TEXTSTYLE
  7
Standard
  9
$CLAYER
  8
0
  9
$CELTYPE
  6
ByLayer
  9
$CECOLOR
 62
   256
  9
$CELTSCALE
 40
1.0
  9
$DISPSILH
 70
     0
  9
$DIMSCALE
 40
1.0
  9
$DIMASZ
 40
0.18
  9
$DIMEXO
 40
0.0625
  9
$DIMDLI
 40
0.38
  9
$DIMRND
 40
0.0
  9
$DIMDLE
 40
0.0
  9
$DIMEXE
 40
0.18
  9
$DIMTP
 40
0.0
  9
$DIMTM
 40
0.0
  9
$DIMTXT
 40
0.18
  9
$DIMCEN
 40
0.09
  9
$DIMTSZ
 40
0.0
  9
$DIMTOL
 70
     0
  9
$DIMLIM
 70
     0
  9
$DIMTIH
 70
     1
  9
$DIMTOH
 70
     1
  9
$DIMSE1
 70
     0
  9
$DIMSE2
 70
     0
  9
$DIMTAD
 70
     0
  9
$DIMZIN
 70
     0
  9
$DIMBLK
  1

  9
$DIMASO
 70
     1
  9
$DIMSHO
 70
     1
  9
$DIMPOST
  1

  9
$DIMAPOST
  1

  9
$DIMALT
 70
     0
  9
$DIMALTD
 70
     2
  9
$DIMALTF
 40
25.4
  9
$DIMLFAC
 40
1.0
  9
$DIMTOFL
 70
     0
  9
$DIMTVP
 40
0.0
  9
$DIMTIX
 70
     0
  9
$DIMSOXD
 70
     0
  9
$DIMSAH
 70
     0
  9
$DIMBLK1
  1

  9
$DIMBLK2
  1

  9
$DIMSTYLE
  2
Standard
  9
$DIMCLRD
 70
     0
  9
$DIMCLRE
 70
     0
  9
$DIMCLRT
 70
     0
  9
$DIMTFAC
 40
1.0
  9
$DIMGAP
 40
0.09
  9
$DIMJUST
 70
     0
  9
$DIMSD1
 70
     0
  9
$DIMSD2
 70
     0
  9
$DIMTOLJ
 70
     1
  9
$DIMTZIN
 70
     0
  9
$DIMALTZ
 70
     0
  9
$DIMALTTZ
 70
     0
  9
$DIMUPT
 70
     0
  9
$DIMDEC
 70
     4
  9
$DIMTDEC
 70
     4
  9
$DIMALTU
 70
     2
  9
$DIMALTTD
 70
     2
  9
$DIMTXSTY
  7
Standard
  9
$DIMAUNIT
 70
     0
  9
$DIMADEC
 70
     0
  9
$DIMALTRND
 40
0.0
  9
$DIMAZIN
 70
     0
  9
$DIMDSEP
 70
    46
  9
$DIMATFIT
 70
     3
  9
$DIMFRAC
 70
     0
  9
$DIMLDRBLK
  1

  9
$DIMLUNIT
 70
     2
  9
$DIMLWD
 70
    -2
  9
$DIMLWE
 70
    -2
  9
$DIMTMOVE
 70
     0
  9
$LUNITS
 70
     2
  9
$LUPREC
 70
     4
  9
$SKETCHINC
 40
0.1
  9
$FILLETRAD
 40
0.5
  9
$AUNITS
 70
     0
  9
$AUPREC
 70
     0
  9
$MENU
  1
.
  9
$ELEVATION
 40
0.0
  9
$PELEVATION
 40
0.0
  9
$THICKNESS
 40
0.0
  9
$LIMCHECK
 70
     0
  9
$CHAMFERA
 40
0.5
  9
$CHAMFERB
 40
0.5
  9
$CHAMFERC
 40
1.0
  9
$CHAMFERD
 40
0.0
  9
$SKPOLY
 70
     0
  9
$TDCREATE
 40
2454421.475653819
  9
$TDUCREATE
 40
2454421.433987153
  9
$TDUPDATE
 40
2454421.475653831
  9
$TDUUPDATE
 40
2454421.433987164
  9
$TDINDWG
 40
0.0000000116
  9
$TDUSRTIMER
 40
0.0000000116
  9
$USRTIMER
 70
     1
  9
$ANGBASE
 50
0.0
  9
$ANGDIR
 70
     0
  9
$PDMODE
 70
     0
  9
$PDSIZE
 40
0.0
  9
$PLINEWID
 40
0.0
  9
$SPLFRAME
 70
     0
  9
$SPLINETYPE
 70
     6
  9
$SPLINESEGS
 70
     8
  9
$HANDSEED
  5
F6
  9
$SURFTAB1
 70
     6
  9
$SURFTAB2
 70
     6
  9
$SURFTYPE
 70
     6
  9
$SURFU
 70
     6
  9
$SURFV
 70
     6
  9
$UCSBASE
  2

  9
$UCSNAME
  2

  9
$UCSORG
 10
0.0
 20
0.0
 30
0.0
  9
$UCSXDIR
 10
1.0
 20
0.0
 30
0.0
  9
$UCSYDIR
 10
0.0
 20
1.0
 30
0.0
  9
$UCSORTHOREF
  2

  9
$UCSORTHOVIEW
 70
     0
  9
$UCSORGTOP
 10
0.0
 20
0.0
 30
0.0
  9
$UCSORGBOTTOM
 10
0.0
 20
0.0
 30
0.0
  9
$UCSORGLEFT
 10
0.0
 20
0.0
 30
0.0
  9
$UCSORGRIGHT
 10
0.0
 20
0.0
 30
0.0
  9
$UCSORGFRONT
 10
0.0
 20
0.0
 30
0.0
  9
$UCSORGBACK
 10
0.0
 20
0.0
 30
0.0
  9
$PUCSBASE
  2

  9
$PUCSNAME
  2

  9
$PUCSORG
 10
0.0
 20
0.0
 30
0.0
  9
$PUCSXDIR
 10
1.0
 20
0.0
 30
0.0
  9
$PUCSYDIR
 10
0.0
 20
1.0
 30
0.0
  9
$PUCSORTHOREF
  2

  9
$PUCSORTHOVIEW
 70
     0
  9
$PUCSORGTOP
 10
0.0
 20
0.0
 30
0.0
  9
$PUCSORGBOTTOM
 10
0.0
 20
0.0
 30
0.0
  9
$PUCSORGLEFT
 10
0.0
 20
0.0
 30
0.0
  9
$PUCSORGRIGHT
 10
0.0
 20
0.0
 30
0.0
  9
$PUCSORGFRONT
 10
0.0
 20
0.0
 30
0.0
  9
$PUCSORGBACK
 10
0.0
 20
0.0
 30
0.0
  9
$USERI1
 70
     0
  9
$USERI2
 70
     0
  9
$USERI3
 70
     0
  9
$USERI4
 70
     0
  9
$USERI5
 70
     0
  9
$USERR1
 40
14.5
  9
$USERR2
 40
0.0
  9
$USERR3
 40
0.0
  9
$USERR4
 40
0.0
  9
$USERR5
 40
0.0
  9
$WORLDVIEW
 70
     1
  9
$SHADEDGE
 70
     3
  9
$SHADEDIF
 70
    70
  9
$TILEMODE
 70
     1
  9
$MAXACTVP
 70
    64
  9
$PINSBASE
 10
0.0
 20
0.0
 30
0.0
  9
$PLIMCHECK
 70
     0
  9
$PEXTMIN
 10
1.00000000000000E+20
 20
1.00000000000000E+20
 30
1.00000000000000E+20
  9
$PEXTMAX
 10
-1.00000000000000E+20
 20
-1.00000000000000E+20
 30
-1.00000000000000E+20
  9
$PLIMMIN
 10
0.0
 20
0.0
  9
$PLIMMAX
 10
12.0
 20
9.0
  9
$UNITMODE
 70
     0
  9
$VISRETAIN
 70
     1
  9
$PLINEGEN
 70
     0
  9
$PSLTSCALE
 70
     1
  9
$TREEDEPTH
 70
  3020
  9
$CMLSTYLE
  2
Standard
  9
$CMLJUST
 70
     0
  9
$CMLSCALE
 40
1.0
  9
$PROXYGRAPHICS
 70
     1
  9
$MEASUREMENT
 70
     1
  9
$CELWEIGHT
370
    -1
  9
$ENDCAPS
280
     0
  9
$JOINSTYLE
280
     0
  9
$LWDISPLAY
290
     0
  9
$INSUNITS
 70
     1
  9
$HYPERLINKBASE
  1

  9
$STYLESHEET
  1

  9
$XEDIT
290
     1
  9
$CEPSNTYPE
380
     0
  9
$PSTYLEMODE
290
     1
  9
$FINGERPRINTGUID
  2
{C987AA66-0009-481A-8FEF-4B076CFE7A86}
  9
$VERSIONGUID
  2
{FAEB1C32-E019-11D5-929B-00C0DF256EC4}
  9
$EXTNAMES
290
     1
  9
$PSVPSCALE
 40
0.0
  9
$OLESTARTUP
290
     0
  9
$SORTENTS
280
   127
  9
$INDEXCTL
280
     0
  9
$HIDETEXT
280
     1
  9
$XCLIPFRAME
290
     0
  9
$HALOGAP
280
     0
  9
$OBSCOLOR
 70
   257
  9
$OBSLTYPE
280
     0
  9
$INTERSECTIONDISPLAY
280
     0
  9
$INTERSECTIONCOLOR
 70
   257
  9
$DIMASSOC
280
     2
  9
$PROJECTNAME
  1

  0
ENDSEC
  0
SECTION
  2
CLASSES
  0
CLASS
  1
ACDBDICTIONARYWDFLT
  2
AcDbDictionaryWithDefault
  3
ObjectDBX Classes
 90
        0
 91
        3
280
     0
281
     0
  0
ENDSEC
  0
SECTION
  2
TABLES
  0
TABLE
  2
VPORT
  5
8
330
0
100
AcDbSymbolTable
 70
     1
  0
VPORT
  5
29
330
8
100
AcDbSymbolTableRecord
100
AcDbViewportTableRecord
  2
*Active
 70
     0
 10
0.0
 20
0.0
 11
1.0
 21
1.0
 12
-8.26449949823874
 22
2.9686388392698
 13
0.0
 23
0.0
 14
0.5
 24
0.5
 15
0.5
 25
0.5
 16
0.0
 26
0.0
 36
1.0
 17
0.0
 27
0.0
 37
0.0
 40
143.0499437112825
 41
1.60267857142857
 42
50.0
 43
0.0
 44
0.0
 50
0.0
 51
0.0
 71
     0
 72
   100
 73
     1
 74
     3
 75
     0
 76
     0
 77
     0
 78
     0
281
     0
 65
     1
110
0.0
120
0.0
130
0.0
111
1.0
121
0.0
131
0.0
112
0.0
122
1.0
132
0.0
 79
     0
146
0.0
  0
ENDTAB
  0
TABLE
  2
LTYPE
  5
5
330
0
100
AcDbSymbolTable
 70
     8
  0
LTYPE
  5
14
330
5
100
AcDbSymbolTableRecord
100
AcDbLinetypeTableRecord
  2
ByBlock
 70
     0
  3

 72
    65
 73
     0
 40
0.0
  0
LTYPE
  5
15
330
5
100
AcDbSymbolTableRecord
100
AcDbLinetypeTableRecord
  2
ByLayer
 70
     0
  3

 72
    65
 73
     0
 40
0.0
  0
LTYPE
  5
16
330
5
100
AcDbSymbolTableRecord
100
AcDbLinetypeTableRecord
  2
Continuous
 70
     0
  3
Solid line
 72
    65
 73
     0
 40
0.0
  0
LTYPE
  5
2A
330
5
100
AcDbSymbolTableRecord
100
AcDbLinetypeTableRecord
  2
DASHED
 70
     0
  3
Dashed
 72
    65
 73
     2
 40
15.0
 49
7.0
 74
     0
 49
-8.0
 74
     0
  0
LTYPE
  5
2B
330
5
100
AcDbSymbolTableRecord
100
AcDbLinetypeTableRecord
  2
DOTTED
 70
     0
  3
Dotted
 72
    65
 73
     2
 40
1.0
 49
0.0
 74
     0
 49
-1.0
 74
     0
  0
LTYPE
  5
2C
330
5
100
AcDbSymbolTableRecord
100
AcDbLinetypeTableRecord
  2
DOT_CENTER
 70
     0
  3
Dot_Center
 72
    65
 73
     4
 40
14.0
 49
12.0
 74
     0
 49
-1.0
 74
     0
 49
0.0
 74
     0
 49
-1.0
 74
     0
  0
LTYPE
  5
2D
330
5
100
AcDbSymbolTableRecord
100
AcDbLinetypeTableRecord
  2
LONG_DASHED
 70
     0
  3
Long_Dashed
 72
    65
 73
     2
 40
15.0
 49
10.0
 74
     0
 49
-5.0
 74
     0
  0
LTYPE
  5
2E
330
5
100
AcDbSymbolTableRecord
100
AcDbLinetypeTableRecord
  2
DASH_CENTER
 70
     0
  3
Dash_Center
 72
    65
 73
     4
 40
14.0
 49
11.0
 74
     0
 49
-1.0
 74
     0
 49
1.0
 74
     0
 49
-1.0
 74
     0
  0
LTYPE
  5
2F
330
5
100
AcDbSymbolTableRecord
100
AcDbLinetypeTableRecord
  2
PHANTOM
 70
     0
  3
Phantom
 72
    65
 73
     6
 40
13.0
 49
10.0
 74
     0
 49
-1.0
 74
     0
 49
0.0
 74
     0
 49
-1.0
 74
     0
 49
0.0
 74
     0
 49
-1.0
 74
     0
  0
LTYPE
  5
30
330
5
100
AcDbSymbolTableRecord
100
AcDbLinetypeTableRecord
  2
CENTER_DASH_DASH
 70
     0
  3
Center_Dash_Dash
 72
    65
 73
     6
 40
14.0
 49
9.0
 74
     0
 49
-1.0
 74
     0
 49
1.0
 74
     0
 49
-1.0
 74
     0
 49
1.0
 74
     0
 49
-1.0
 74
     0
  0
ENDTAB
  0
TABLE
  2
LAYER
  5
2
330
0
100
AcDbSymbolTable
 70
     2
  0
LAYER
  5
10
330
2
100
AcDbSymbolTableRecord
100
AcDbLayerTableRecord
  2
0
 70
     0
 62
     7
  6
Continuous
370
    -3
390
F
  0
LAYER
  5
31
330
2
100
AcDbSymbolTableRecord
100
AcDbLayerTableRecord
  2
1
 70
     0
 62
     7
  6
Continuous
370
    -3
390
F
  0
ENDTAB
  0
TABLE
  2
STYLE
  5
3
330
0
100
AcDbSymbolTable
 70
     2
  0
STYLE
  5
11
330
3
100
AcDbSymbolTableRecord
100
AcDbTextStyleTableRecord
  2
Standard
 70
     0
 40
0.0
 41
1.0
 50
0.0
 71
     0
 42
0.2
  3
txt
  4

  0
STYLE
  5
CA
330
3
100
AcDbSymbolTableRecord
100
AcDbTextStyleTableRecord
  2
CONVERTER_11
 70
     0
 40
0.0
 41
0.9
 50
0.0
 71
     0
 42
0.2
  3
txt.shx
  4

  0
ENDTAB
  0
TABLE
  2
VIEW
  5
6
330
0
100
AcDbSymbolTable
 70
     0
  0
ENDTAB
  0
TABLE
  2
UCS
  5
7
330
0
100
AcDbSymbolTable
 70
     0
  0
ENDTAB
  0
TABLE
  2
APPID
  5
9
330
0
100
AcDbSymbolTable
 70
     1
  0
APPID
  5
12
330
9
100
AcDbSymbolTableRecord
100
AcDbRegAppTableRecord
  2
ACAD
 70
     0
  0
ENDTAB
  0
TABLE
  2
DIMSTYLE
  5
A
330
0
100
AcDbSymbolTable
 70
     5
100
AcDbDimStyleTable
  0
DIMSTYLE
105
27
330
A
100
AcDbSymbolTableRecord
100
AcDbDimStyleTableRecord
  2
Standard
 70
     0
340
11
  0
DIMSTYLE
105
CE
102
{ACAD_REACTORS
330
CF
102
}
330
A
100
AcDbSymbolTableRecord
100
AcDbDimStyleTableRecord
  2
ME10_DIM_10
 70
     0
 41
3.5
 42
0.0
 44
2.0
 73
     0
 74
     0
 77
     1
 78
     8
140
3.5
147
2.0
172
     1
173
     1
176
     2
177
     2
178
     2
271
     3
340
CA
  0
DIMSTYLE
105
DA
102
{ACAD_REACTORS
330
DB
102
}
330
A
100
AcDbSymbolTableRecord
100
AcDbDimStyleTableRecord
  2
ME10_DIM_11
 70
     0
 41
3.5
 42
0.0
 44
2.0
 73
     0
 74
     0
 77
     1
 78
     8
140
3.5
147
2.0
172
     1
173
     1
176
     2
177
     2
178
     2
271
     2
340
CA
  0
DIMSTYLE
105
E7
102
{ACAD_REACTORS
330
E8
102
}
330
A
100
AcDbSymbolTableRecord
100
AcDbDimStyleTableRecord
  2
ME10_DIM_12
 70
     0
 41
3.5
 42
0.0
 44
2.0
 73
     0
 74
     0
 77
     1
 78
     8
140
3.5
147
2.0
172
     1
173
     1
176
     2
177
     2
178
     2
271
     2
340
CA
  0
DIMSTYLE
105
F4
102
{ACAD_REACTORS
330
F5
102
}
330
A
100
AcDbSymbolTableRecord
100
AcDbDimStyleTableRecord
  2
ME10_DIM_13
 70
     0
 41
3.5
 42
0.0
 44
2.0
 73
     0
 74
     0
 77
     1
 78
     8
140
3.5
147
2.0
172
     1
173
     1
176
     2
177
     2
178
     2
271
     2
340
CA
  0
ENDTAB
  0
TABLE
  2
BLOCK_RECORD
  5
1
330
0
100
AcDbSymbolTable
 70
     5
  0
BLOCK_RECORD
  5
1F
330
1
100
AcDbSymbolTableRecord
100
AcDbBlockTableRecord
  2
*Model_Space
340
22
  0
BLOCK_RECORD
  5
1B
330
1
100
AcDbSymbolTableRecord
100
AcDbBlockTableRecord
  2
*Paper_Space
340
1E
  0
BLOCK_RECORD
  5
23
330
1
100
AcDbSymbolTableRecord
100
AcDbBlockTableRecord
  2
*Paper_Space0
340
26
  0
BLOCK_RECORD
  5
C4
330
1
100
AcDbSymbolTableRecord
100
AcDbBlockTableRecord
  2
*D1
340
0
  0
BLOCK_RECORD
  5
D0
330
1
100
AcDbSymbolTableRecord
100
AcDbBlockTableRecord
  2
*D2
340
0
  0
BLOCK_RECORD
  5
DC
330
1
100
AcDbSymbolTableRecord
100
AcDbBlockTableRecord
  2
*D3
340
0
  0
BLOCK_RECORD
  5
E9
330
1
100
AcDbSymbolTableRecord
100
AcDbBlockTableRecord
  2
*D4
340
0
  0
ENDTAB
  0
ENDSEC
  0
SECTION
  2
BLOCKS
  0
BLOCK
  5
20
330
1F
100
AcDbEntity
  8
0
100
AcDbBlockBegin
  2
*Model_Space
 70
     0
 71
     0
 10
0.0
 20
0.0
 30
0.0
  3
*Model_Space
  1

  0
ENDBLK
  5
21
330
1F
100
AcDbEntity
  8
0
100
AcDbBlockEnd
  0
BLOCK
  5
1C
330
1B
100
AcDbEntity
 67
     1
  8
0
100
AcDbBlockBegin
  2
*Paper_Space
 70
     0
 71
     0
 10
0.0
 20
0.0
 30
0.0
  3
*Paper_Space
  1

  0
ENDBLK
  5
1D
330
1B
100
AcDbEntity
 67
     1
  8
0
100
AcDbBlockEnd
  0
BLOCK
  5
24
330
23
100
AcDbEntity
  8
0
100
AcDbBlockBegin
  2
*Paper_Space0
 70
     0
 71
     0
 10
0.0
 20
0.0
 30
0.0
  3
*Paper_Space0
  1

  0
ENDBLK
  5
25
330
23
100
AcDbEntity
  8
0
100
AcDbBlockEnd
  0
BLOCK
  5
CC
330
C4
100
AcDbEntity
  8
0
100
AcDbBlockBegin
  2
*D1
 70
     1
 71
     0
 10
0.0
 20
0.0
 30
0.0
  3
*D1
  1

  0
LINE
  5
C5
330
C4
100
AcDbEntity
  8
1
  6
Continuous
 62
     2
100
AcDbLine
 10
-17.88118182242548
 20
-44.0698314402088
 30
0.0
 11
-4.88118182242548
 21
-44.0698314402088
 31
0.0
  0
LINE
  5
C6
330
C4
100
AcDbEntity
  8
1
  6
Continuous
 62
     2
100
AcDbLine
 10
-4.88118182242548
 20
-11.00584697378359
 30
0.0
 11
-4.88118182242548
 21
-46.0698314402088
 31
0.0
  0
LINE
  5
C7
330
C4
100
AcDbEntity
  8
1
  6
Continuous
 62
     2
100
AcDbLine
 10
-17.88118182242548
 20
-24.00584697378359
 30
0.0
 11
-17.88118182242548
 21
-46.0698314402088
 31
0.0
  0
SOLID
  5
C8
330
C4
100
AcDbEntity
  8
1
 62
     2
100
AcDbTrace
 10
-14.38118182242548
 20
-43.60904769865292
 30
0.0
 11
-14.38118182242548
 21
-44.53061518176469
 31
0.0
 12
-17.88118182242548
 22
-44.0698314402088
 32
0.0
 13
-17.88118182242548
 23
-44.0698314402088
 33
0.0
  0
SOLID
  5
C9
330
C4
100
AcDbEntity
  8
1
 62
     2
100
AcDbTrace
 10
-8.38118182242548
 20
-44.53061518176469
 30
0.0
 11
-8.38118182242548
 21
-43.60904769865292
 31
0.0
 12
-4.88118182242548
 22
-44.0698314402088
 32
0.0
 13
-4.88118182242548
 23
-44.0698314402088
 33
0.0
  0
MTEXT
  5
CB
330
C4
100
AcDbEntity
  8
1
 62
     2
100
AcDbMText
 10
-14.6706736960128
 20
-42.0698314402088
 30
0.0
 40
3.5
 41
0.0
 71
     7
 72
     1
  1
13
  7
CONVERTER_11
 11
0.9999999999970621
 21
2.424068405545307E-6
 31
0.0
 73
     1
 44
0.60024009603842
  0
ENDBLK
  5
CD
330
C4
100
AcDbEntity
  8
0
100
AcDbBlockEnd
  0
BLOCK
  5
D8
330
D0
100
AcDbEntity
  8
0
100
AcDbBlockBegin
  2
*D2
 70
     1
 71
     0
 10
0.0
 20
0.0
 30
0.0
  3
*D2
  1

  0
LINE
  5
D1
330
D0
100
AcDbEntity
  8
1
  6
Continuous
 62
     2
100
AcDbLine
 10
-26.38118182242548
 20
-54.6241566411968
 30
0.0
 11
-7.88118182242549
 21
-54.6241566411968
 31
0.0
  0
LINE
  5
D2
330
D0
100
AcDbEntity
  8
1
  6
Continuous
 62
     2
100
AcDbLine
 10
-26.38118182242548
 20
-28.47745621583279
 30
0.0
 11
-26.38118182242548
 21
-56.6241566411968
 31
0.0
  0
LINE
  5
D3
330
D0
100
AcDbEntity
  8
1
  6
Continuous
 62
     2
100
AcDbLine
 10
-7.88118182242549
 20
-46.0899601880413
 30
0.0
 11
-7.88118182242549
 21
-56.6241566411968
 31
0.0
  0
LINE
  5
D4
330
D0
100
AcDbEntity
  8
1
  6
Continuous
 62
     2
100
AcDbLine
 10
-7.88118182242549
 20
-10.00584697378359
 30
0.0
 11
-7.88118182242549
 21
-37.43476706629259
 31
0.0
  0
SOLID
  5
D5
330
D0
100
AcDbEntity
  8
1
 62
     2
100
AcDbTrace
 10
-22.88118182242548
 20
-54.16337289964091
 30
0.0
 11
-22.88118182242548
 21
-55.08494038275268
 31
0.0
 12
-26.38118182242548
 22
-54.6241566411968
 32
0.0
 13
-26.38118182242548
 23
-54.6241566411968
 33
0.0
  0
SOLID
  5
D6
330
D0
100
AcDbEntity
  8
1
 62
     2
100
AcDbTrace
 10
-11.38118182242549
 20
-55.08494038275268
 30
0.0
 11
-11.38118182242549
 21
-54.16337289964091
 31
0.0
 12
-7.88118182242549
 22
-54.6241566411968
 32
0.0
 13
-7.88118182242549
 23
-54.6241566411968
 33
0.0
  0
MTEXT
  5
D7
330
D0
100
AcDbEntity
  8
1
 62
     2
100
AcDbMText
 10
-27.60290584706461
 20
-62.0540628476768
 30
0.0
 40
3.5
 41
0.0
 71
     7
 72
     1
  1
18.5-20.5
  7
CONVERTER_11
 11
0.9999999999970621
 21
2.424068405545307E-6
 31
0.0
 73
     1
 44
0.60024009603842
  0
ENDBLK
  5
D9
330
D0
100
AcDbEntity
  8
0
100
AcDbBlockEnd
  0
BLOCK
  5
E5
330
DC
100
AcDbEntity
  8
0
100
AcDbBlockBegin
  2
*D3
 70
     1
 71
     0
 10
0.0
 20
0.0
 30
0.0
  3
*D3
  1

  0
LINE
  5
DD
330
DC
100
AcDbEntity
  8
1
  6
Continuous
 62
     2
100
AcDbLine
 10
-14.88118182242548
 20
-33.77320304787399
 30
0.0
 11
-7.88118182242548
 21
-33.77320304787399
 31
0.0
  0
LINE
  5
DE
330
DC
100
AcDbEntity
  8
1
  6
Continuous
 62
     2
100
AcDbLine
 10
-7.88118182242548
 20
-33.77320304787399
 30
0.0
 11
-4.88118182242548
 21
-33.77320304787399
 31
0.0
  0
LINE
  5
DF
330
DC
100
AcDbEntity
  8
1
  6
Continuous
 62
     2
100
AcDbLine
 10
-4.88118182242548
 20
-33.77320304787399
 30
0.0
 11
2.11881817757452
 21
-33.77320304787399
 31
0.0
  0
LINE
  5
E0
330
DC
100
AcDbEntity
  8
1
  6
Continuous
 62
     2
100
AcDbLine
 10
-4.88118182242548
 20
-11.00584697378359
 30
0.0
 11
-4.88118182242548
 21
-35.77320304787399
 31
0.0
  0
LINE
  5
E1
330
DC
100
AcDbEntity
  8
1
  6
Continuous
 62
     2
100
AcDbLine
 10
-7.88118182242548
 20
-10.00584697378359
 30
0.0
 11
-7.88118182242548
 21
-35.77320304787399
 31
0.0
  0
SOLID
  5
E2
330
DC
100
AcDbEntity
  8
1
 62
     2
100
AcDbTrace
 10
-11.38118182242548
 20
-34.23398678942988
 30
0.0
 11
-11.38118182242548
 21
-33.31241930631811
 31
0.0
 12
-7.88118182242548
 22
-33.77320304787399
 32
0.0
 13
-7.88118182242548
 23
-33.77320304787399
 33
0.0
  0
SOLID
  5
E3
330
DC
100
AcDbEntity
  8
1
 62
     2
100
AcDbTrace
 10
-1.38118182242548
 20
-33.31241930631811
 30
0.0
 11
-1.38118182242548
 21
-34.23398678942988
 31
0.0
 12
-4.88118182242548
 22
-33.77320304787399
 32
0.0
 13
-4.88118182242548
 23
-33.77320304787399
 33
0.0
  0
MTEXT
  5
E4
330
DC
100
AcDbEntity
  8
1
 62
     2
100
AcDbMText
 10
-13.3343821681547
 20
-31.77320304787399
 30
0.0
 40
3.5
 41
0.0
 71
     7
 72
     1
  1
3
  7
CONVERTER_11
 11
0.9999999999970621
 21
2.424068405545307E-6
 31
0.0
 73
     1
 44
0.60024009603842
  0
ENDBLK
  5
E6
330
DC
100
AcDbEntity
  8
0
100
AcDbBlockEnd
  0
BLOCK
  5
F2
330
E9
100
AcDbEntity
  8
0
100
AcDbBlockBegin
  2
*D4
 70
     1
 71
     0
 10
0.0
 20
0.0
 30
0.0
  3
*D4
  1

  0
LINE
  5
EA
330
E9
100
AcDbEntity
  8
1
  6
Continuous
 62
     2
100
AcDbLine
 10
-35.13669399013762
 20
-20.39258386822151
 30
0.0
 11
-45.65517370162758
 21
-22.05854739039085
 31
0.0
  0
LINE
  5
EB
330
E9
100
AcDbEntity
  8
1
  6
Continuous
 62
     2
100
AcDbLine
 10
-35.51763407245304
 20
-19.00584697378359
 30
0.0
 11
-45.8954264348388
 21
-19.00584697378359
 31
0.0
  0
LINE
  5
EC
330
E9
100
AcDbEntity
  8
1
  6
Continuous
 62
     2
100
AcDbLine
 10
-45.65517370162758
 20
-22.05854739039085
 30
0.0
 11
-47.63055038281786
 21
-22.37141632047132
 31
0.0
  0
LINE
  5
ED
330
E9
100
AcDbEntity
  8
1
  6
Continuous
 62
     2
100
AcDbLine
 10
-45.8954264348388
 20
-19.00584697378359
 30
0.0
 11
-47.8954264348388
 21
-19.00584697378359
 31
0.0
  0
ARC
  5
EE
330
E9
100
AcDbEntity
  8
1
  6
Continuous
 62
     2
100
AcDbCircle
 10
-26.38118182242451
 20
-19.00584697378359
 30
0.0
 40
19.51424461241429
100
AcDbArc
 50
164.5854734109297
 51
-146.3340468510216
  0
SOLID
  5
EF
330
E9
100
AcDbEntity
  8
1
 62
     2
100
AcDbTrace
 10
-46.04090582202054
 20
-15.47864448393594
 30
0.0
 11
-45.12304155180475
 21
-15.56117815821617
 31
0.0
 12
-45.8954264348388
 22
-19.00584697378359
 32
0.0
 13
-45.8954264348388
 23
-19.00584697378359
 33
0.0
  0
SOLID
  5
F0
330
E9
100
AcDbEntity
  8
1
 62
     2
100
AcDbTrace
 10
-44.35343323479886
 20
-25.33997900075586
 30
0.0
 11
-45.24708596155602
 21
-25.56508215463966
 31
0.0
 12
-45.65517370162758
 22
-22.05854739039085
 32
0.0
 13
-45.65517370162758
 23
-22.05854739039085
 33
0.0
  0
MTEXT
  5
F1
330
E9
100
AcDbEntity
  8
1
 62
     2
100
AcDbMText
 10
-43.26684430443905
 20
-24.18260193099081
 30
0.0
 40
3.5
 41
0.0
 71
     7
 72
     1
  1
9{\Fgdt;~}
  7
CONVERTER_11
 11
0.4138241162780538
 21
-0.9103568535396918
 31
0.0
 73
     1
 44
0.60024009603842
  0
ENDBLK
  5
F3
330
E9
100
AcDbEntity
  8
0
100
AcDbBlockEnd
  0
ENDSEC
  0
SECTION
  2
ENTITIES
  0
POINT
  5
32
330
1F
100
AcDbEntity
  8
1
 62
     3
 60
     1
100
AcDbPoint
 10
-17.38118182242548
 20
-21.6302475140149
 30
0.0
  0
POINT
  5
33
330
1F
100
AcDbEntity
  8
1
 62
     3
 60
     1
100
AcDbPoint
 10
-17.88118182242548
 20
-11.00584697378359
 30
0.0
  0
POINT
  5
34
330
1F
100
AcDbEntity
  8
1
 62
     3
 60
     1
100
AcDbPoint
 10
-17.88118182242548
 20
-13.60971872787304
 30
0.0
  0
POINT
  5
35
330
1F
100
AcDbEntity
  8
1
 62
     3
 60
     1
100
AcDbPoint
 10
-17.88118182242548
 20
-21.70943973417716
 30
0.0
  0
LINE
  5
36
330
1F
100
AcDbEntity
  8
1
  6
Continuous
 62
     7
100
AcDbLine
 10
-17.38118182242548
 20
-13.53052650771091
 30
0.0
 11
-17.58118182242553
 21
-13.5622033957758
 31
0.0
  0
LINE
  5
37
330
1F
100
AcDbEntity
  8
1
  6
Continuous
 62
     7
100
AcDbLine
 10
-17.38118182242548
 20
-21.6302475140149
 30
0.0
 11
-16.58118182242553
 21
-21.50353996175529
 31
0.0
  0
LINE
  5
38
330
1F
100
AcDbEntity
  8
1
  6
Continuous
 62
     7
100
AcDbLine
 10
-20.74073963486663
 20
-14.0626281915723
 30
0.0
 11
-17.88118182242548
 21
-13.60971872787304
 31
0.0
  0
LINE
  5
39
330
1F
100
AcDbEntity
  8
1
  6
Continuous
 62
     7
100
AcDbLine
 10
-20.58118182242552
 20
4.99415302621641
 30
0.0
 11
-16.28118182242552
 21
4.99415302621641
 31
0.0
  0
LINE
  5
3A
330
1F
100
AcDbEntity
  8
1
  6
Continuous
 62
     7
100
AcDbLine
 10
-7.88118182242548
 20
14.99415302621641
 30
0.0
 11
-16.28118182242552
 21
14.99415302621641
 31
0.0
  0
LINE
  5
3B
330
1F
100
AcDbEntity
  8
1
  6
Continuous
 62
     7
100
AcDbLine
 10
-16.28118182242552
 20
4.99415302621641
 30
0.0
 11
-16.28118182242552
 21
14.99415302621641
 31
0.0
  0
LINE
  5
3C
330
1F
100
AcDbEntity
  8
1
  6
Continuous
 62
     7
100
AcDbLine
 10
-21.28118182242552
 20
3.99415302621641
 30
0.0
 11
-21.28118182242552
 21
4.99415302621641
 31
0.0
  0
LINE
  5
3D
330
1F
100
AcDbEntity
  8
1
  6
Continuous
 62
     7
100
AcDbLine
 10
-21.28118182242552
 20
4.99415302621641
 30
0.0
 11
-20.58118182242552
 21
4.99415302621641
 31
0.0
  0
LINE
  5
3E
330
1F
100
AcDbEntity
  8
1
  6
Continuous
 62
     7
100
AcDbLine
 10
-21.28118182242552
 20
4.99415302621641
 30
0.0
 11
-21.28118182242552
 21
14.99415302621641
 31
0.0
  0
LINE
  5
3F
330
1F
100
AcDbEntity
  8
1
  6
Continuous
 62
     7
100
AcDbLine
 10
-21.28118182242552
 20
14.99415302621641
 30
0.0
 11
-20.58118182242552
 21
14.99415302621641
 31
0.0
  0
LINE
  5
40
330
1F
100
AcDbEntity
  8
1
  6
Continuous
 62
     7
100
AcDbLine
 10
-20.58118182242552
 20
3.99415302621641
 30
0.0
 11
-21.28118182242552
 21
3.99415302621641
 31
0.0
  0
LINE
  5
41
330
1F
100
AcDbEntity
  8
1
  6
Continuous
 62
     7
100
AcDbLine
 10
-22.78118182242552
 20
3.99415302621641
 30
0.0
 11
-21.28118182242552
 21
3.99415302621641
 31
0.0
  0
LINE
  5
42
330
1F
100
AcDbEntity
  8
1
  6
Continuous
 62
     7
100
AcDbLine
 10
-21.28118182242552
 20
14.99415302621641
 30
0.0
 11
-21.28118182242552
 21
19.99415302621641
 31
0.0
  0
LINE
  5
43
330
1F
100
AcDbEntity
  8
1
  6
Continuous
 62
     7
100
AcDbLine
 10
-21.28118182242552
 20
19.99415302621641
 30
0.0
 11
-22.78118182242552
 21
19.99415302621641
 31
0.0
  0
LINE
  5
44
330
1F
100
AcDbEntity
  8
1
  6
DASHED
 62
     2
100
AcDbLine
 10
-21.17885760367552
 20
37.89415302621642
 30
0.0
 11
-21.17885760367552
 21
42.0941530262164
 31
0.0
  0
LINE
  5
45
330
1F
100
AcDbEntity
  8
1
  6
Continuous
 62
     7
100
AcDbLine
 10
-22.57885760367552
 20
22.49415302621641
 30
0.0
 11
-22.57885760367552
 21
36.49415302621641
 31
0.0
  0
LINE
  5
46
330
1F
100
AcDbEntity
  8
1
  6
DASHED
 62
     2
100
AcDbLine
 10
-22.57885760367552
 20
36.49415302621641
 30
0.0
 11
-21.17885760367552
 21
37.89415302621642
 31
0.0
  0
LINE
  5
47
330
1F
100
AcDbEntity
  8
1
  6
Continuous
 62
     7
100
AcDbLine
 10
-20.58118182242552
 20
42.0941530262164
 30
0.0
 11
-20.58118182242552
 21
37.89415302621642
 31
0.0
  0
LINE
  5
48
330
1F
100
AcDbEntity
  8
1
  6
DASHED
 62
     2
100
AcDbLine
 10
-21.17885760367552
 20
37.89415302621642
 30
0.0
 11
-20.58118182242552
 21
37.89415302621642
 31
0.0
  0
LINE
  5
49
330
1F
100
AcDbEntity
  8
1
  6
Continuous
 62
     7
100
AcDbLine
 10
-22.57885760367552
 20
36.49415302621641
 30
0.0
 11
-22.57885760367552
 21
43.49415302621641
 31
0.0
  0
LINE
  5
4A
330
1F
100
AcDbEntity
  8
1
  6
DASHED
 62
     2
100
AcDbLine
 10
-22.57885760367552
 20
43.49415302621641
 30
0.0
 11
-21.17885760367552
 21
42.0941530262164
 31
0.0
  0
LINE
  5
4B
330
1F
100
AcDbEntity
  8
1
  6
Continuous
 62
     7
100
AcDbLine
 10
-20.58118182242552
 20
53.89415302621641
 30
0.0
 11
-20.58118182242552
 21
42.0941530262164
 31
0.0
  0
LINE
  5
4C
330
1F
100
AcDbEntity
  8
1
  6
DASHED
 62
     2
100
AcDbLine
 10
-21.17885760367552
 20
42.0941530262164
 30
0.0
 11
-20.58118182242552
 21
42.0941530262164
 31
0.0
  0
LINE
  5
4D
330
1F
100
AcDbEntity
  8
1
  6
DASHED
 62
     2
100
AcDbLine
 10
-21.17885760367552
 20
53.89415302621641
 30
0.0
 11
-21.17885760367552
 21
58.09415302621642
 31
0.0
  0
LINE
  5
4E
330
1F
100
AcDbEntity
  8
1
  6
Continuous
 62
     7
100
AcDbLine
 10
-22.57885760367552
 20
43.49415302621641
 30
0.0
 11
-22.57885760367552
 21
52.49415302621641
 31
0.0
  0
LINE
  5
4F
330
1F
100
AcDbEntity
  8
1
  6
DASHED
 62
     2
100
AcDbLine
 10
-22.57885760367552
 20
52.49415302621641
 30
0.0
 11
-21.17885760367552
 21
53.89415302621641
 31
0.0
  0
LINE
  5
50
330
1F
100
AcDbEntity
  8
1
  6
Continuous
 62
     7
100
AcDbLine
 10
-20.58118182242552
 20
58.09415302621642
 30
0.0
 11
-20.58118182242552
 21
53.89415302621641
 31
0.0
  0
LINE
  5
51
330
1F
100
AcDbEntity
  8
1
  6
DASHED
 62
     2
100
AcDbLine
 10
-21.17885760367552
 20
53.89415302621641
 30
0.0
 11
-20.58118182242552
 21
53.89415302621641
 31
0.0
  0
LINE
  5
52
330
1F
100
AcDbEntity
  8
1
  6
Continuous
 62
     7
100
AcDbLine
 10
-22.57885760367552
 20
52.49415302621641
 30
0.0
 11
-22.57885760367552
 21
59.4941530262164
 31
0.0
  0
LINE
  5
53
330
1F
100
AcDbEntity
  8
1
  6
DASHED
 62
     2
100
AcDbLine
 10
-22.57885760367552
 20
59.4941530262164
 30
0.0
 11
-21.17885760367552
 21
58.09415302621642
 31
0.0
  0
LINE
  5
54
330
1F
100
AcDbEntity
  8
1
  6
Continuous
 62
     7
100
AcDbLine
 10
-20.58118182242552
 20
61.9941530262164
 30
0.0
 11
-20.58118182242552
 21
58.09415302621642
 31
0.0
  0
LINE
  5
55
330
1F
100
AcDbEntity
  8
1
  6
DASHED
 62
     2
100
AcDbLine
 10
-21.17885760367552
 20
58.09415302621642
 30
0.0
 11
-20.58118182242552
 21
58.09415302621642
 31
0.0
  0
LINE
  5
56
330
1F
100
AcDbEntity
  8
1
  6
DOT_CENTER
 62
     2
100
AcDbLine
 10
-20.58118182242552
 20
67.9913405262164
 30
0.0
 11
5.41881817757448
 21
67.9913405262164
 31
0.0
  0
LINE
  5
57
330
1F
100
AcDbEntity
  8
1
  6
DOT_CENTER
 62
     2
100
AcDbLine
 10
-24.04940320369326
 20
67.9913405262164
 30
0.0
 11
-20.58118182242552
 21
67.9913405262164
 31
0.0
  0
LINE
  5
58
330
1F
100
AcDbEntity
  8
1
  6
DOT_CENTER
 62
     2
100
AcDbLine
 10
5.41881817757448
 20
67.9913405262164
 30
0.0
 11
9.78155706120738
 21
67.9913405262164
 31
0.0
  0
LINE
  5
59
330
1F
100
AcDbEntity
  8
1
  6
Continuous
 62
     7
100
AcDbLine
 10
-20.58118182242552
 20
67.9913405262164
 30
0.0
 11
-20.58118182242552
 21
61.9941530262164
 31
0.0
  0
LINE
  5
5A
330
1F
100
AcDbEntity
  8
1
  6
Continuous
 62
     7
100
AcDbLine
 10
5.41881817757448
 20
67.9913405262164
 30
0.0
 11
5.41881817757448
 21
20.99415302621641
 31
0.0
  0
LINE
  5
5B
330
1F
100
AcDbEntity
  8
1
  6
DOT_CENTER
 62
     2
100
AcDbLine
 10
-33.06207319510623
 20
9.99415302621641
 30
0.0
 11
-6.4221218754517
 21
9.99415302621641
 31
0.0
  0
LINE
  5
5C
330
1F
100
AcDbEntity
  8
1
  6
DASHED
 62
     2
100
AcDbLine
 10
-22.78118182242552
 20
19.99415302621641
 30
0.0
 11
-22.78118182242552
 21
3.99415302621641
 31
0.0
  0
LINE
  5
5D
330
1F
100
AcDbEntity
  8
1
  6
Continuous
 62
     7
100
AcDbLine
 10
-22.78118182242552
 20
19.99415302621641
 30
0.0
 11
-25.13118182242552
 21
19.99415302621641
 31
0.0
  0
LINE
  5
5E
330
1F
100
AcDbEntity
  8
1
  6
Continuous
 62
     7
100
AcDbLine
 10
-22.57885760367552
 20
22.49415302621641
 30
0.0
 11
-22.78118182242545
 21
22.49415302621641
 31
0.0
  0
LINE
  5
5F
330
1F
100
AcDbEntity
  8
1
  6
Continuous
 62
     7
100
AcDbLine
 10
-31.88118182242552
 20
61.9941530262164
 30
0.0
 11
-29.98118182242552
 21
61.9941530262164
 31
0.0
  0
LINE
  5
60
330
1F
100
AcDbEntity
  8
1
  6
Continuous
 62
     7
100
AcDbLine
 10
-22.78118182242552
 20
3.99415302621641
 30
0.0
 11
-23.38118182242552
 21
3.99415302621641
 31
0.0
  0
LINE
  5
61
330
1F
100
AcDbEntity
  8
1
  6
DASHED
 62
     2
100
AcDbLine
 10
-29.98118182242552
 20
61.9941530262164
 30
0.0
 11
-29.98118182242552
 21
38.49415302621635
 31
0.0
  0
LINE
  5
62
330
1F
100
AcDbEntity
  8
1
  6
Continuous
 62
     7
100
AcDbLine
 10
-16.28118182242552
 20
14.99415302621641
 30
0.0
 11
-20.58118182242552
 21
14.99415302621641
 31
0.0
  0
LINE
  5
63
330
1F
100
AcDbEntity
  8
1
  6
Continuous
 62
     7
100
AcDbLine
 10
-29.98118182242552
 20
3.99415302621641
 30
0.0
 11
-31.88118182242552
 21
3.99415302621641
 31
0.0
  0
LINE
  5
64
330
1F
100
AcDbEntity
  8
1
  6
Continuous
 62
     7
100
AcDbLine
 10
-57.58118182242552
 20
3.99415302621641
 30
0.0
 11
-31.88118182242552
 21
3.99415302621641
 31
0.0
  0
LINE
  5
65
330
1F
100
AcDbEntity
  8
1
  6
Continuous
 62
     7
100
AcDbLine
 10
-31.88118182242552
 20
3.99415302621641
 30
0.0
 11
-31.88118182242552
 21
61.9941530262164
 31
0.0
  0
LINE
  5
66
330
1F
100
AcDbEntity
  8
1
  6
Continuous
 62
     7
100
AcDbLine
 10
-29.98118182242552
 20
61.9941530262164
 30
0.0
 11
-22.57885760367552
 21
61.9941530262164
 31
0.0
  0
LINE
  5
67
330
1F
100
AcDbEntity
  8
1
  6
Continuous
 62
     7
100
AcDbLine
 10
-22.57885760367552
 20
59.4941530262164
 30
0.0
 11
-22.57885760367552
 21
61.9941530262164
 31
0.0
  0
LINE
  5
68
330
1F
100
AcDbEntity
  8
1
  6
Continuous
 62
     7
100
AcDbLine
 10
-20.58118182242552
 20
37.89415302621642
 30
0.0
 11
-20.58118182242552
 21
22.49415302621641
 31
0.0
  0
LINE
  5
69
330
1F
100
AcDbEntity
  8
1
  6
Continuous
 62
     7
100
AcDbLine
 10
-20.58118182242552
 20
14.99415302621641
 30
0.0
 11
-20.58118182242552
 21
22.49415302621641
 31
0.0
  0
LINE
  5
6A
330
1F
100
AcDbEntity
  8
1
  6
Continuous
 62
     7
100
AcDbLine
 10
-22.57885760367552
 20
22.49415302621641
 30
0.0
 11
-20.58118182242552
 21
22.49415302621641
 31
0.0
  0
LINE
  5
6B
330
1F
100
AcDbEntity
  8
1
  6
Continuous
 62
     7
100
AcDbLine
 10
-22.57885760367552
 20
61.9941530262164
 30
0.0
 11
-20.58118182242552
 21
61.9941530262164
 31
0.0
  0
LINE
  5
6C
330
1F
100
AcDbEntity
  8
1
  6
Continuous
 62
     7
100
AcDbLine
 10
-20.58118182242552
 20
3.99415302621641
 30
0.0
 11
-20.58118182242552
 21
4.99415302621641
 31
0.0
  0
LINE
  5
6D
330
1F
100
AcDbEntity
  8
1
  6
Continuous
 62
     7
100
AcDbLine
 10
-57.58118182242552
 20
-10.00584697378359
 30
0.0
 11
-29.98118182242552
 21
-10.00584697378359
 31
0.0
  0
LINE
  5
6E
330
1F
100
AcDbEntity
  8
1
  6
Continuous
 62
     7
100
AcDbLine
 10
-22.78118182242552
 20
-10.00584697378359
 30
0.0
 11
-7.88118182242548
 21
-10.00584697378359
 31
0.0
  0
LINE
  5
6F
330
1F
100
AcDbEntity
  8
1
  6
Continuous
 62
     7
100
AcDbLine
 10
-29.98118182242552
 20
-10.00584697378359
 30
0.0
 11
-29.98118182242552
 21
-6.50584697378369
 31
0.0
  0
LINE
  5
70
330
1F
100
AcDbEntity
  8
1
  6
Continuous
 62
     7
100
AcDbLine
 10
-22.78118182242552
 20
-10.00584697378359
 30
0.0
 11
-22.78118182242552
 21
-6.50584697378369
 31
0.0
  0
LINE
  5
71
330
1F
100
AcDbEntity
  8
1
  6
Continuous
 62
     7
100
AcDbLine
 10
5.41881817757448
 20
20.99415302621641
 30
0.0
 11
-7.88118182242548
 21
20.99415302621641
 31
0.0
  0
LINE
  5
72
330
1F
100
AcDbEntity
  8
1
  6
Continuous
 62
     7
100
AcDbLine
 10
-57.58118182242552
 20
-10.00584697378359
 30
0.0
 11
-57.58118182242552
 21
3.99415302621641
 31
0.0
  0
LINE
  5
73
330
1F
100
AcDbEntity
  8
1
  6
DOT_CENTER
 62
     2
100
AcDbLine
 10
-23.0788576036756
 20
55.9941530262165
 30
0.0
 11
-0.32774339546894
 21
55.9941530262165
 31
0.0
  0
LINE
  5
74
330
1F
100
AcDbEntity
  8
1
  6
DOT_CENTER
 62
     2
100
AcDbLine
 10
-23.0788576036756
 20
39.99415302621641
 30
0.0
 11
-0.32774339546894
 21
39.99415302621641
 31
0.0
  0
LINE
  5
75
330
1F
100
AcDbEntity
  8
1
  6
Continuous
 62
     7
100
AcDbLine
 10
-7.88118182242548
 20
-10.00584697378359
 30
0.0
 11
-7.88118182242548
 21
4.99415302621641
 31
0.0
  0
LINE
  5
76
330
1F
100
AcDbEntity
  8
1
  6
Continuous
 62
     7
100
AcDbLine
 10
-7.88118182242548
 20
20.99415302621641
 30
0.0
 11
-7.88118182242548
 21
14.99415302621641
 31
0.0
  0
LINE
  5
77
330
1F
100
AcDbEntity
  8
1
  6
Continuous
 62
     7
100
AcDbLine
 10
-16.28118182242552
 20
4.99415302621641
 30
0.0
 11
-7.88118182242548
 21
4.99415302621641
 31
0.0
  0
LINE
  5
78
330
1F
100
AcDbEntity
  8
1
  6
Continuous
 62
     7
100
AcDbLine
 10
-7.88118182242548
 20
14.99415302621641
 30
0.0
 11
-7.88118182242548
 21
4.99415302621641
 31
0.0
  0
LINE
  5
79
330
1F
100
AcDbEntity
  8
1
  6
Continuous
 62
     7
100
AcDbLine
 10
-7.88118182242571
 20
18.99415302621641
 30
0.0
 11
-6.14913101485664
 21
15.99415302621641
 31
0.0
  0
LINE
  5
7A
330
1F
100
AcDbEntity
  8
1
  6
Continuous
 62
     7
100
AcDbLine
 10
-6.14913101485664
 20
15.99415302621641
 30
0.0
 11
-4.88118182242548
 21
15.99415302621641
 31
0.0
  0
LINE
  5
7B
330
1F
100
AcDbEntity
  8
1
  6
Continuous
 62
     7
100
AcDbLine
 10
-5.5717807456671
 20
16.99415302621641
 30
0.0
 11
-6.88118182242571
 21
19.26210221864734
 31
0.0
  0
LINE
  5
7C
330
1F
100
AcDbEntity
  8
1
  6
Continuous
 62
     7
100
AcDbLine
 10
3.10941710081587
 20
16.99415302621641
 30
0.0
 11
-5.5717807456671
 21
16.99415302621641
 31
0.0
  0
LINE
  5
7D
330
1F
100
AcDbEntity
  8
1
  6
Continuous
 62
     7
100
AcDbLine
 10
-6.88118182242571
 20
19.26210221864734
 30
0.0
 11
-6.88118182242571
 21
19.99415302621641
 31
0.0
  0
LINE
  5
7E
330
1F
100
AcDbEntity
  8
1
  6
Continuous
 62
     7
100
AcDbLine
 10
-6.88118182242571
 20
19.99415302621641
 30
0.0
 11
4.41881817757448
 21
19.99415302621641
 31
0.0
  0
LINE
  5
7F
330
1F
100
AcDbEntity
  8
1
  6
Continuous
 62
     7
100
AcDbLine
 10
4.41881817757448
 20
19.99415302621641
 30
0.0
 11
4.41881817757448
 21
19.26210221864734
 31
0.0
  0
LINE
  5
80
330
1F
100
AcDbEntity
  8
1
  6
Continuous
 62
     7
100
AcDbLine
 10
4.41881817757448
 20
19.26210221864734
 30
0.0
 11
3.10941710081587
 21
16.99415302621641
 31
0.0
  0
LINE
  5
81
330
1F
100
AcDbEntity
  8
1
  6
Continuous
 62
     7
100
AcDbLine
 10
3.68676737000564
 20
15.99415302621641
 30
0.0
 11
5.41881817757448
 21
18.99415302621641
 31
0.0
  0
LINE
  5
82
330
1F
100
AcDbEntity
  8
1
  6
Continuous
 62
     7
100
AcDbLine
 10
5.41881817757448
 20
18.99415302621641
 30
0.0
 11
5.41881817757448
 21
20.99415302621641
 31
0.0
  0
LINE
  5
83
330
1F
100
AcDbEntity
  8
1
  6
Continuous
 62
     7
100
AcDbLine
 10
41.05218282594804
 20
15.99415302621641
 30
0.0
 11
-4.88118182242548
 21
15.99415302621641
 31
0.0
  0
LINE
  5
84
330
1F
100
AcDbEntity
  8
1
  6
Continuous
 62
     7
100
AcDbLine
 10
-17.58118182242553
 20
-21.66192440207981
 30
0.0
 11
-17.38118182242548
 21
-21.6302475140149
 31
0.0
  0
LINE
  5
85
330
1F
100
AcDbEntity
  8
1
  6
Continuous
 62
     7
100
AcDbLine
 10
-17.58118182242553
 20
-13.5622033957758
 30
0.0
 11
-17.62388044693231
 21
-13.56896619352081
 31
0.0
  0
LINE
  5
86
330
1F
100
AcDbEntity
  8
1
  6
Continuous
 62
     7
100
AcDbLine
 10
-14.58118182242552
 20
-13.08705007480201
 30
0.0
 11
-16.58118182242553
 21
-13.4038189554514
 31
0.0
  0
LINE
  5
87
330
1F
100
AcDbEntity
  8
1
  6
Continuous
 62
     7
100
AcDbLine
 10
-19.48926391454498
 20
-21.96413491633341
 30
0.0
 11
-17.88118182242548
 21
-21.70943973417716
 31
0.0
  0
LINE
  5
88
330
1F
100
AcDbEntity
  8
1
  6
Continuous
 62
     7
100
AcDbLine
 10
-14.58118182242552
 20
-21.1867710811063
 30
0.0
 11
-16.37240472661089
 21
-21.47047291828208
 31
0.0
  0
LINE
  5
89
330
1F
100
AcDbEntity
  8
1
  6
Continuous
 62
     7
100
AcDbLine
 10
-14.58118182242552
 20
-13.08705007480201
 30
0.0
 11
26.82209487984855
 21
-6.5294152667105
 31
0.0
  0
LINE
  5
8A
330
1F
100
AcDbEntity
  8
1
  6
Continuous
 62
     7
100
AcDbLine
 10
-17.88118182242548
 20
-11.00584697378359
 30
0.0
 11
-4.88118182242548
 21
-11.00584697378359
 31
0.0
  0
LINE
  5
8B
330
1F
100
AcDbEntity
  8
1
  6
DOT_CENTER
 62
     2
100
AcDbLine
 10
41.05218282594804
 20
-26.70382308418279
 30
0.0
 11
41.05218282594804
 21
-24.00584697378359
 31
0.0
  0
LINE
  5
8C
330
1F
100
AcDbEntity
  8
1
  6
DOT_CENTER
 62
     2
100
AcDbLine
 10
41.05218282594804
 20
18.3064114045966
 30
0.0
 11
41.05218282594804
 21
15.99415302621641
 31
0.0
  0
LINE
  5
8D
330
1F
100
AcDbEntity
  8
1
  6
Continuous
 62
     7
100
AcDbLine
 10
-4.88118182242548
 20
15.99415302621641
 30
0.0
 11
-4.88118182242548
 21
-11.00584697378359
 31
0.0
  0
LINE
  5
8E
330
1F
100
AcDbEntity
  8
1
  6
Continuous
 62
     7
100
AcDbLine
 10
41.05218282594804
 20
-24.00584697378359
 30
0.0
 11
-17.88118182242548
 21
-24.00584697378359
 31
0.0
  0
LINE
  5
8F
330
1F
100
AcDbEntity
  8
1
  6
PHANTOM
 62
     2
100
AcDbLine
 10
41.05218282594804
 20
15.99415302621641
 30
0.0
 11
41.05218282594804
 21
-24.00584697378359
 31
0.0
  0
LINE
  5
90
330
1F
100
AcDbEntity
  8
1
  6
Continuous
 62
     7
100
AcDbLine
 10
26.82209487984855
 20
-6.5294152667105
 30
0.0
 11
29.31974427706868
 21
-6.79192879656699
 31
0.0
  0
LINE
  5
91
330
1F
100
AcDbEntity
  8
1
  6
Continuous
 62
     7
100
AcDbLine
 10
29.91090936736176
 20
-6.8540627512981
 30
0.0
 11
30.91088615622797
 21
-13.1676677166425
 31
0.0
  0
LINE
  5
92
330
1F
100
AcDbEntity
  8
1
  6
Continuous
 62
     7
100
AcDbLine
 10
30.91088615622797
 20
-13.1676677166425
 30
0.0
 11
30.36785519283816
 21
-13.4094406785545
 31
0.0
  0
LINE
  5
93
330
1F
100
AcDbEntity
  8
1
  6
Continuous
 62
     7
100
AcDbLine
 10
28.07357060017065
 20
-14.43092199147161
 30
0.0
 11
-14.58118182242552
 21
-21.1867710811063
 31
0.0
  0
LINE
  5
94
330
1F
100
AcDbEntity
  8
1
  6
Continuous
 62
     7
100
AcDbLine
 10
26.82209487984855
 20
-6.5294152667105
 30
0.0
 11
28.07357060017065
 21
-14.43092199147161
 31
0.0
  0
LINE
  5
95
330
1F
100
AcDbEntity
  8
1
  6
Continuous
 62
     7
100
AcDbLine
 10
-17.62388044693231
 20
-13.56896619352081
 30
0.0
 11
-17.52219804465645
 21
-14.2109636149079
 31
0.0
  0
LINE
  5
96
330
1F
100
AcDbEntity
  8
1
  6
Continuous
 62
     2
100
AcDbLine
 10
-17.52219804465645
 20
-14.2109636149079
 30
0.0
 11
29.31974427706868
 21
-6.79192879656699
 31
0.0
  0
LINE
  5
97
330
1F
100
AcDbEntity
  8
1
  6
Continuous
 62
     7
100
AcDbLine
 10
-17.52219804465645
 20
-14.2109636149079
 30
0.0
 11
-16.47408712888674
 21
-20.82847549689531
 31
0.0
  0
LINE
  5
98
330
1F
100
AcDbEntity
  8
1
  6
Continuous
 62
     7
100
AcDbLine
 10
29.31974427706868
 20
-6.79192879656699
 30
0.0
 11
29.91090936736176
 21
-6.8540627512981
 31
0.0
  0
LINE
  5
99
330
1F
100
AcDbEntity
  8
1
  6
Continuous
 62
     2
100
AcDbLine
 10
-16.47408712888674
 20
-20.82847549689531
 30
0.0
 11
30.36785519283816
 21
-13.4094406785545
 31
0.0
  0
LINE
  5
9A
330
1F
100
AcDbEntity
  8
1
  6
Continuous
 62
     7
100
AcDbLine
 10
-16.47408712888674
 20
-20.82847549689531
 30
0.0
 11
-16.37240472661089
 21
-21.47047291828208
 31
0.0
  0
LINE
  5
9B
330
1F
100
AcDbEntity
  8
1
  6
Continuous
 62
     7
100
AcDbLine
 10
30.36785519283816
 20
-13.4094406785545
 30
0.0
 11
28.07357060017065
 21
-14.43092199147161
 31
0.0
  0
LINE
  5
9C
330
1F
100
AcDbEntity
  8
1
  6
DOT_CENTER
 62
     2
100
AcDbLine
 10
-35.13669399013762
 20
-20.39258386822151
 30
0.0
 11
33.11155394742113
 21
-9.583123315501
 31
0.0
  0
LINE
  5
9D
330
1F
100
AcDbEntity
  8
1
  6
DOT_CENTER
 62
     2
100
AcDbLine
 10
-26.38118182242548
 20
-28.47745621583279
 30
0.0
 11
-26.38118182242548
 21
38.49415302621635
 31
0.0
  0
LINE
  5
9E
330
1F
100
AcDbEntity
  8
1
  6
DOT_CENTER
 62
     2
100
AcDbLine
 10
-35.51763407245304
 20
-19.00584697378359
 30
0.0
 11
-17.4389398826078
 21
-19.00584697378359
 31
0.0
  0
LINE
  5
9F
330
1F
100
AcDbEntity
  8
1
  6
Continuous
 62
     7
100
AcDbLine
 10
-16.58118182242553
 20
-13.4038189554514
 30
0.0
 11
-17.38118182242548
 21
-13.53052650771091
 31
0.0
  0
LINE
  5
A0
330
1F
100
AcDbEntity
  8
1
  6
Continuous
 62
     7
100
AcDbLine
 10
-16.58118182242553
 20
-21.50353996175529
 30
0.0
 11
-16.37240472661089
 21
-21.47047291828208
 31
0.0
  0
LINE
  5
A1
330
1F
100
AcDbEntity
  8
1
  6
Continuous
 62
     7
100
AcDbLine
 10
-29.98118182242552
 20
-10.00584697378359
 30
0.0
 11
-29.98118182242552
 21
-12.42633331394531
 31
0.0
  0
LINE
  5
A2
330
1F
100
AcDbEntity
  8
1
  6
Continuous
 62
     7
100
AcDbLine
 10
-22.78118182242552
 20
-10.00584697378359
 30
0.0
 11
-22.78118182242552
 21
-12.42633331394531
 31
0.0
  0
LINE
  5
A3
330
1F
100
AcDbEntity
  8
1
  6
DASHED
 62
     2
100
AcDbLine
 10
-26.38118182242548
 20
38.49415302621635
 30
0.0
 11
-29.98118182242552
 21
38.49415302621635
 31
0.0
  0
LINE
  5
A4
330
1F
100
AcDbEntity
  8
1
  6
DASHED
 62
     2
100
AcDbLine
 10
-29.98118182242552
 20
38.49415302621635
 30
0.0
 11
-29.98118182242552
 21
3.99415302621641
 31
0.0
  0
LINE
  5
A5
330
1F
100
AcDbEntity
  8
1
  6
DOT_CENTER
 62
     2
100
AcDbLine
 10
-26.38118182242548
 20
38.49415302621635
 30
0.0
 11
-26.38118182242548
 21
43.49415302621635
 31
0.0
  0
LINE
  5
A6
330
1F
100
AcDbEntity
  8
1
  6
DASHED
 62
     2
100
AcDbLine
 10
-29.98118182242552
 20
38.49415302621635
 30
0.0
 11
-29.38118182242552
 21
41.2005781284136
 31
0.0
  0
LINE
  5
A7
330
1F
100
AcDbEntity
  8
1
  6
DASHED
 62
     2
100
AcDbLine
 10
-28.87270850921082
 20
43.49415302621635
 30
0.0
 11
-26.38118182242548
 21
43.49415302621635
 31
0.0
  0
LINE
  5
A8
330
1F
100
AcDbEntity
  8
1
  6
DOT_CENTER
 62
     2
100
AcDbLine
 10
-26.38118182242548
 20
43.49415302621635
 30
0.0
 11
-26.38118182242548
 21
65.8517213638436
 31
0.0
  0
LINE
  5
A9
330
1F
100
AcDbEntity
  8
1
  6
DASHED
 62
     2
100
AcDbLine
 10
-23.88965513564014
 20
43.49415302621635
 30
0.0
 11
-23.38118182242552
 21
41.20057812841394
 31
0.0
  0
LINE
  5
AA
330
1F
100
AcDbEntity
  8
1
  6
DASHED
 62
     2
100
AcDbLine
 10
-26.38118182242548
 20
43.49415302621635
 30
0.0
 11
-23.88965513564014
 21
43.49415302621635
 31
0.0
  0
LINE
  5
AB
330
1F
100
AcDbEntity
  8
1
  6
DASHED
 62
     2
100
AcDbLine
 10
-22.78118182242545
 20
38.49415302621635
 30
0.0
 11
-26.38118182242548
 21
38.49415302621635
 31
0.0
  0
LINE
  5
AC
330
1F
100
AcDbEntity
  8
1
  6
DASHED
 62
     2
100
AcDbLine
 10
-22.78118182242545
 20
38.49415302621635
 30
0.0
 11
-22.78118182242545
 21
22.49415302621641
 31
0.0
  0
LINE
  5
AD
330
1F
100
AcDbEntity
  8
1
  6
Continuous
 62
     7
100
AcDbLine
 10
-22.78118182242545
 20
22.49415302621641
 30
0.0
 11
-25.13118182242552
 21
22.49415302621641
 31
0.0
  0
LINE
  5
AE
330
1F
100
AcDbEntity
  8
1
  6
Continuous
 62
     7
100
AcDbLine
 10
-29.98118182242552
 20
-6.50584697378369
 30
0.0
 11
-29.38118182242552
 21
-6.50584697378369
 31
0.0
  0
LINE
  5
AF
330
1F
100
AcDbEntity
  8
1
  6
Continuous
 62
     7
100
AcDbLine
 10
-29.98118182242552
 20
-6.50584697378369
 30
0.0
 11
-29.98118182242552
 21
3.99415302621641
 31
0.0
  0
LINE
  5
B0
330
1F
100
AcDbEntity
  8
1
  6
Continuous
 62
     7
100
AcDbLine
 10
-22.78118182242552
 20
-6.50584697378369
 30
0.0
 11
-22.78118182242552
 21
3.99415302621641
 31
0.0
  0
LINE
  5
B1
330
1F
100
AcDbEntity
  8
1
  6
Continuous
 62
     2
100
AcDbLine
 10
-29.38118182242552
 20
-6.50584697378369
 30
0.0
 11
-29.38118182242552
 21
3.99415302621641
 31
0.0
  0
LINE
  5
B2
330
1F
100
AcDbEntity
  8
1
  6
Continuous
 62
     7
100
AcDbLine
 10
-29.38118182242552
 20
-6.50584697378369
 30
0.0
 11
-23.38118182242552
 21
-6.50584697378369
 31
0.0
  0
LINE
  5
B3
330
1F
100
AcDbEntity
  8
1
  6
Continuous
 62
     2
100
AcDbLine
 10
-23.38118182242552
 20
-6.50584697378369
 30
0.0
 11
-23.38118182242552
 21
3.99415302621641
 31
0.0
  0
LINE
  5
B4
330
1F
100
AcDbEntity
  8
1
  6
Continuous
 62
     7
100
AcDbLine
 10
-23.38118182242552
 20
3.99415302621641
 30
0.0
 11
-29.38118182242552
 21
3.99415302621641
 31
0.0
  0
LINE
  5
B5
330
1F
100
AcDbEntity
  8
1
  6
Continuous
 62
     7
100
AcDbLine
 10
-23.38118182242552
 20
-6.50584697378369
 30
0.0
 11
-22.78118182242552
 21
-6.50584697378369
 31
0.0
  0
LINE
  5
B6
330
1F
100
AcDbEntity
  8
1
  6
DASHED
 62
     2
100
AcDbLine
 10
-29.38118182242552
 20
41.2005781284136
 30
0.0
 11
-29.38118182242552
 21
3.99415302621641
 31
0.0
  0
LINE
  5
B7
330
1F
100
AcDbEntity
  8
1
  6
DASHED
 62
     2
100
AcDbLine
 10
-29.38118182242552
 20
41.2005781284136
 30
0.0
 11
-28.87270850921082
 21
43.49415302621635
 31
0.0
  0
LINE
  5
B8
330
1F
100
AcDbEntity
  8
1
  6
Continuous
 62
     7
100
AcDbLine
 10
-29.38118182242552
 20
3.99415302621641
 30
0.0
 11
-29.98118182242552
 21
3.99415302621641
 31
0.0
  0
LINE
  5
B9
330
1F
100
AcDbEntity
  8
1
  6
DASHED
 62
     2
100
AcDbLine
 10
-23.38118182242552
 20
41.20057812841394
 30
0.0
 11
-23.38118182242552
 21
3.99415302621641
 31
0.0
  0
LINE
  5
BA
330
1F
100
AcDbEntity
  8
1
  6
DASHED
 62
     2
100
AcDbLine
 10
-23.38118182242552
 20
41.20057812841394
 30
0.0
 11
-22.78118182242545
 21
38.49415302621635
 31
0.0
  0
LINE
  5
BB
330
1F
100
AcDbEntity
  8
1
  6
Continuous
 62
     7
100
AcDbLine
 10
-17.88118182242548
 20
-11.00584697378359
 30
0.0
 11
-17.88118182242548
 21
-13.60971872787304
 31
0.0
  0
LINE
  5
BC
330
1F
100
AcDbEntity
  8
1
  6
Continuous
 62
     7
100
AcDbLine
 10
-17.88118182242548
 20
-13.60971872787304
 30
0.0
 11
-17.62388044693231
 21
-13.56896619352081
 31
0.0
  0
LINE
  5
BD
330
1F
100
AcDbEntity
  8
1
  6
Continuous
 62
     7
100
AcDbLine
 10
-17.88118182242548
 20
-21.70943973417716
 30
0.0
 11
-17.88118182242548
 21
-24.00584697378359
 31
0.0
  0
LINE
  5
BE
330
1F
100
AcDbEntity
  8
1
  6
Continuous
 62
     7
100
AcDbLine
 10
-17.88118182242548
 20
-21.70943973417716
 30
0.0
 11
-17.58118182242553
 21
-21.66192440207981
 31
0.0
  0
ARC
  5
BF
330
1F
100
AcDbEntity
  8
1
  6
Continuous
 62
     7
100
AcDbCircle
 10
-25.13118182242552
 20
21.24415302621641
 30
0.0
 40
1.25
100
AcDbArc
 50
90.0
 51
-90.0
  0
ARC
  5
C0
330
1F
100
AcDbEntity
  8
1
  6
Continuous
 62
     7
100
AcDbCircle
 10
-26.38118182242548
 20
-19.00584697378359
 30
0.0
 40
7.499999999999921
100
AcDbArc
 50
118.6854020141196
 51
-23.23095263550324
  0
ARC
  5
C1
330
1F
100
AcDbEntity
  8
1
  6
Continuous
 62
     7
100
AcDbCircle
 10
-26.38118182242548
 20
-19.00584697378359
 30
0.0
 40
7.499999999999969
100
AcDbArc
 50
-23.23095263550324
 51
41.23095263550091
  0
ARC
  5
C2
330
1F
100
AcDbEntity
  8
1
  6
Continuous
 62
     7
100
AcDbCircle
 10
-26.38118182242548
 20
-19.00584697378359
 30
0.0
 40
7.499999999999882
100
AcDbArc
 50
61.31459798588095
 51
118.6854020141196
  0
ARC
  5
C3
330
1F
100
AcDbEntity
  8
1
  6
Continuous
 62
     7
100
AcDbCircle
 10
-26.38118182242548
 20
-19.00584697378359
 30
0.0
 40
7.500000000000008
100
AcDbArc
 50
41.23095263550091
 51
61.31459798588095
  0
DIMENSION
  5
CF
330
1F
100
AcDbEntity
  8
1
100
AcDbDimension
  2
*D1
 10
-17.88118182242548
 20
-44.0698314402088
 30
0.0
 11
-12.5706736960128
 21
-40.3198314402088
 31
0.0
 70
    32
  1
<>
 71
     5
 42
-1.0
 53
0.00013888888889
  3
ME10_DIM_10
100
AcDbAlignedDimension
 13
-4.88118182242548
 23
-11.00584697378359
 33
0.0
 14
-17.88118182242548
 24
-24.00584697378359
 34
0.0
100
AcDbRotatedDimension
  0
DIMENSION
  5
DB
330
1F
100
AcDbEntity
  8
1
100
AcDbDimension
  2
*D2
 10
-26.38118182242548
 20
-54.6241566411968
 30
0.0
 11
-16.66540584706461
 21
-60.3040628476768
 31
0.0
 70
    32
  1
18.5-20.5
 71
     5
 42
-1.0
 53
0.00013888888889
  3
ME10_DIM_11
100
AcDbAlignedDimension
 13
-7.88118182242548
 23
-10.00584697378359
 33
0.0
 14
-26.38118182242548
 24
-28.47745621583279
 34
0.0
100
AcDbRotatedDimension
  0
DIMENSION
  5
E8
330
1F
100
AcDbEntity
  8
1
100
AcDbDimension
  2
*D3
 10
-7.88118182242548
 20
-33.77320304787399
 30
0.0
 11
-12.2843821681547
 21
-30.02320304787399
 31
0.0
 70
    32
  1
<>
 71
     5
 42
-1.0
 53
0.00013888888889
  3
ME10_DIM_12
100
AcDbAlignedDimension
 13
-4.88118182242548
 23
-11.00584697378359
 33
0.0
 14
-7.88118182242548
 24
-10.00584697378359
 34
0.0
100
AcDbRotatedDimension
  0
DIMENSION
  5
F5
330
1F
100
AcDbEntity
  8
1
100
AcDbDimension
  2
*D4
 10
-45.83527053124863
 20
-20.53691695988559
 30
0.0
 11
-40.73226994621202
 21
-25.52947156930701
 31
0.0
 70
    37
  1
<>
 71
     5
 42
-1.0
  3
ME10_DIM_13
100
AcDb3PointAngularDimension
 13
-35.51763407245304
 23
-19.00584697378359
 33
0.0
 14
-35.13669399013762
 24
-20.39258386822151
 34
0.0
 15
-26.38118182242451
 25
-19.00584697378359
 35
0.0
  0
ENDSEC
  0
SECTION
  2
OBJECTS
  0
DICTIONARY
  5
C
330
0
100
AcDbDictionary
281
     1
  3
ACAD_GROUP
350
D
  3
ACAD_LAYOUT
350
1A
  3
ACAD_MLINESTYLE
350
17
  3
ACAD_PLOTSETTINGS
350
19
  3
ACAD_PLOTSTYLENAME
350
E
  0
DICTIONARY
  5
D
102
{ACAD_REACTORS
330
C
102
}
330
C
100
AcDbDictionary
281
     1
  0
DICTIONARY
  5
1A
102
{ACAD_REACTORS
330
C
102
}
330
C
100
AcDbDictionary
281
     1
  3
Layout1
350
1E
  3
Layout2
350
26
  3
Model
350
22
  0
DICTIONARY
  5
17
102
{ACAD_REACTORS
330
C
102
}
330
C
100
AcDbDictionary
281
     1
  3
Standard
350
18
  0
DICTIONARY
  5
19
102
{ACAD_REACTORS
330
C
102
}
330
C
100
AcDbDictionary
281
     1
  0
ACDBDICTIONARYWDFLT
  5
E
102
{ACAD_REACTORS
330
C
102
}
330
C
100
AcDbDictionary
281
     1
  3
Normal
350
F
100
AcDbDictionaryWithDefault
340
F
  0
LAYOUT
  5
1E
102
{ACAD_REACTORS
330
1A
102
}
330
1A
100
AcDbPlotSettings
  1

  2

  4

  6

 40
0.0
 41
0.0
 42
0.0
 43
0.0
 44
0.0
 45
0.0
 46
0.0
 47
0.0
 48
0.0
 49
0.0
140
0.0
141
0.0
142
1.0
143
1.0
 70
   688
 72
     0
 73
     0
 74
     5
  7

 75
    16
 76
     0
 77
     2
 78
   300
147
1.0
148
0.0
149
0.0
100
AcDbLayout
  1
Layout1
 70
     1
 71
     1
 10
0.0
 20
0.0
 11
0.0
 21
0.0
 12
0.0
 22
0.0
 32
0.0
 14
0.0
 24
0.0
 34
0.0
 15
0.0
 25
0.0
 35
0.0
146
0.0
 13
0.0
 23
0.0
 33
0.0
 16
1.0
 26
0.0
 36
0.0
 17
0.0
 27
1.0
 37
0.0
 76
     0
330
1B
  0
LAYOUT
  5
26
102
{ACAD_REACTORS
330
1A
102
}
330
1A
100
AcDbPlotSettings
  1

  2

  4

  6

 40
0.0
 41
0.0
 42
0.0
 43
0.0
 44
0.0
 45
0.0
 46
0.0
 47
0.0
 48
0.0
 49
0.0
140
0.0
141
0.0
142
1.0
143
1.0
 70
   688
 72
     0
 73
     0
 74
     5
  7

 75
    16
 76
     0
 77
     2
 78
   300
147
1.0
148
0.0
149
0.0
100
AcDbLayout
  1
Layout2
 70
     1
 71
     2
 10
0.0
 20
0.0
 11
0.0
 21
0.0
 12
0.0
 22
0.0
 32
0.0
 14
0.0
 24
0.0
 34
0.0
 15
0.0
 25
0.0
 35
0.0
146
0.0
 13
0.0
 23
0.0
 33
0.0
 16
1.0
 26
0.0
 36
0.0
 17
0.0
 27
1.0
 37
0.0
 76
     0
330
23
  0
LAYOUT
  5
22
102
{ACAD_REACTORS
330
1A
102
}
330
1A
100
AcDbPlotSettings
  1

  2

  4

  6

 40
0.0
 41
0.0
 42
0.0
 43
0.0
 44
0.0
 45
0.0
 46
0.0
 47
0.0
 48
0.0
 49
0.0
140
0.0
141
0.0
142
1.0
143
1.0
 70
  1712
 72
     0
 73
     0
 74
     0
  7

 75
     0
 76
     0
 77
     2
 78
   300
147
1.0
148
0.0
149
0.0
100
AcDbLayout
  1
Model
 70
     1
 71
     0
 10
0.0
 20
0.0
 11
0.0
 21
0.0
 12
0.0
 22
0.0
 32
0.0
 14
-57.58118182242552
 24
-62.0540628476768
 34
0.0
 15
41.05218282594804
 25
67.9913405262164
 35
0.0
146
0.0
 13
0.0
 23
0.0
 33
0.0
 16
1.0
 26
0.0
 36
0.0
 17
0.0
 27
1.0
 37
0.0
 76
     0
330
1F
  0
MLINESTYLE
  5
18
102
{ACAD_REACTORS
330
17
102
}
330
17
100
AcDbMlineStyle
  2
Standard
 70
     0
  3

 62
   256
 51
90.0
 52
90.0
 71
     2
 49
0.5
 62
   256
  6
BYLAYER
 49
-0.5
 62
   256
  6
BYLAYER
  0
ACDBPLACEHOLDER
  5
F
102
{ACAD_REACTORS
330
E
102
}
330
E
  0
ENDSEC
  0
EOF
