  0
SECTION
  2
HEADER
  9
$ACADVER
  1
AC1018
  9
$ACADMAINTVER
 70
     0
  9
$DWGCODEPAGE
  3
ANSI_1252
  9
$INSBASE
 10
0.0
 20
0.0
 30
0.0
  9
$EXTMIN
 10
-44.97233122942152
 20
-79.3401931601316
 30
0.0
  9
$EXTMAX
 10
64.07914309961588
 20
60.9383600771078
 30
0.0
  9
$LIMMIN
 10
0.0
 20
0.0
  9
$LIMMAX
 10
12.0
 20
9.0
  9
$ORTHOMODE
 70
     0
  9
$REGENMODE
 70
     1
  9
$FILLMODE
 70
     1
  9
$QTEXTMODE
 70
     0
  9
$MIRRTEXT
 70
     1
  9
$LTSCALE
 40
1.0
  9
$ATTMODE
 70
     1
  9
$TEXTSIZE
 40
0.2
  9
$TRACEWID
 40
0.05
  9
$TEXTSTYLE
  7
Standard
  9
$CLAYER
  8
0
  9
$CELTYPE
  6
ByLayer
  9
$CECOLOR
 62
   256
  9
$CELTSCALE
 40
1.0
  9
$DISPSILH
 70
     0
  9
$DIMSCALE
 40
1.0
  9
$DIMASZ
 40
0.18
  9
$DIMEXO
 40
0.0625
  9
$DIMDLI
 40
0.38
  9
$DIMRND
 40
0.0
  9
$DIMDLE
 40
0.0
  9
$DIMEXE
 40
0.18
  9
$DIMTP
 40
0.0
  9
$DIMTM
 40
0.0
  9
$DIMTXT
 40
0.18
  9
$DIMCEN
 40
0.09
  9
$DIMTSZ
 40
0.0
  9
$DIMTOL
 70
     0
  9
$DIMLIM
 70
     0
  9
$DIMTIH
 70
     1
  9
$DIMTOH
 70
     1
  9
$DIMSE1
 70
     0
  9
$DIMSE2
 70
     0
  9
$DIMTAD
 70
     0
  9
$DIMZIN
 70
     0
  9
$DIMBLK
  1

  9
$DIMASO
 70
     1
  9
$DIMSHO
 70
     1
  9
$DIMPOST
  1

  9
$DIMAPOST
  1

  9
$DIMALT
 70
     0
  9
$DIMALTD
 70
     2
  9
$DIMALTF
 40
25.4
  9
$DIMLFAC
 40
1.0
  9
$DIMTOFL
 70
     0
  9
$DIMTVP
 40
0.0
  9
$DIMTIX
 70
     0
  9
$DIMSOXD
 70
     0
  9
$DIMSAH
 70
     0
  9
$DIMBLK1
  1

  9
$DIMBLK2
  1

  9
$DIMSTYLE
  2
Standard
  9
$DIMCLRD
 70
     0
  9
$DIMCLRE
 70
     0
  9
$DIMCLRT
 70
     0
  9
$DIMTFAC
 40
1.0
  9
$DIMGAP
 40
0.09
  9
$DIMJUST
 70
     0
  9
$DIMSD1
 70
     0
  9
$DIMSD2
 70
     0
  9
$DIMTOLJ
 70
     1
  9
$DIMTZIN
 70
     0
  9
$DIMALTZ
 70
     0
  9
$DIMALTTZ
 70
     0
  9
$DIMUPT
 70
     0
  9
$DIMDEC
 70
     4
  9
$DIMTDEC
 70
     4
  9
$DIMALTU
 70
     2
  9
$DIMALTTD
 70
     2
  9
$DIMTXSTY
  7
Standard
  9
$DIMAUNIT
 70
     0
  9
$DIMADEC
 70
     0
  9
$DIMALTRND
 40
0.0
  9
$DIMAZIN
 70
     0
  9
$DIMDSEP
 70
    46
  9
$DIMATFIT
 70
     3
  9
$DIMFRAC
 70
     0
  9
$DIMLDRBLK
  1

  9
$DIMLUNIT
 70
     2
  9
$DIMLWD
 70
    -2
  9
$DIMLWE
 70
    -2
  9
$DIMTMOVE
 70
     0
  9
$LUNITS
 70
     2
  9
$LUPREC
 70
     4
  9
$SKETCHINC
 40
0.1
  9
$FILLETRAD
 40
0.5
  9
$AUNITS
 70
     0
  9
$AUPREC
 70
     0
  9
$MENU
  1
.
  9
$ELEVATION
 40
0.0
  9
$PELEVATION
 40
0.0
  9
$THICKNESS
 40
0.0
  9
$LIMCHECK
 70
     0
  9
$CHAMFERA
 40
0.5
  9
$CHAMFERB
 40
0.5
  9
$CHAMFERC
 40
1.0
  9
$CHAMFERD
 40
0.0
  9
$SKPOLY
 70
     0
  9
$TDCREATE
 40
2454421.482708403
  9
$TDUCREATE
 40
2454421.441041736
  9
$TDUPDATE
 40
2454421.482708415
  9
$TDUUPDATE
 40
2454421.441041748
  9
$TDINDWG
 40
0.0000000116
  9
$TDUSRTIMER
 40
0.0000000116
  9
$USRTIMER
 70
     1
  9
$ANGBASE
 50
0.0
  9
$ANGDIR
 70
     0
  9
$PDMODE
 70
     0
  9
$PDSIZE
 40
0.0
  9
$PLINEWID
 40
0.0
  9
$SPLFRAME
 70
     0
  9
$SPLINETYPE
 70
     6
  9
$SPLINESEGS
 70
     8
  9
$HANDSEED
  5
116
  9
$SURFTAB1
 70
     6
  9
$SURFTAB2
 70
     6
  9
$SURFTYPE
 70
     6
  9
$SURFU
 70
     6
  9
$SURFV
 70
     6
  9
$UCSBASE
  2

  9
$UCSNAME
  2

  9
$UCSORG
 10
0.0
 20
0.0
 30
0.0
  9
$UCSXDIR
 10
1.0
 20
0.0
 30
0.0
  9
$UCSYDIR
 10
0.0
 20
1.0
 30
0.0
  9
$UCSORTHOREF
  2

  9
$UCSORTHOVIEW
 70
     0
  9
$UCSORGTOP
 10
0.0
 20
0.0
 30
0.0
  9
$UCSORGBOTTOM
 10
0.0
 20
0.0
 30
0.0
  9
$UCSORGLEFT
 10
0.0
 20
0.0
 30
0.0
  9
$UCSORGRIGHT
 10
0.0
 20
0.0
 30
0.0
  9
$UCSORGFRONT
 10
0.0
 20
0.0
 30
0.0
  9
$UCSORGBACK
 10
0.0
 20
0.0
 30
0.0
  9
$PUCSBASE
  2

  9
$PUCSNAME
  2

  9
$PUCSORG
 10
0.0
 20
0.0
 30
0.0
  9
$PUCSXDIR
 10
1.0
 20
0.0
 30
0.0
  9
$PUCSYDIR
 10
0.0
 20
1.0
 30
0.0
  9
$PUCSORTHOREF
  2

  9
$PUCSORTHOVIEW
 70
     0
  9
$PUCSORGTOP
 10
0.0
 20
0.0
 30
0.0
  9
$PUCSORGBOTTOM
 10
0.0
 20
0.0
 30
0.0
  9
$PUCSORGLEFT
 10
0.0
 20
0.0
 30
0.0
  9
$PUCSORGRIGHT
 10
0.0
 20
0.0
 30
0.0
  9
$PUCSORGFRONT
 10
0.0
 20
0.0
 30
0.0
  9
$PUCSORGBACK
 10
0.0
 20
0.0
 30
0.0
  9
$USERI1
 70
     0
  9
$USERI2
 70
     0
  9
$USERI3
 70
     0
  9
$USERI4
 70
     0
  9
$USERI5
 70
     0
  9
$USERR1
 40
14.5
  9
$USERR2
 40
0.0
  9
$USERR3
 40
0.0
  9
$USERR4
 40
0.0
  9
$USERR5
 40
0.0
  9
$WORLDVIEW
 70
     1
  9
$SHADEDGE
 70
     3
  9
$SHADEDIF
 70
    70
  9
$TILEMODE
 70
     1
  9
$MAXACTVP
 70
    64
  9
$PINSBASE
 10
0.0
 20
0.0
 30
0.0
  9
$PLIMCHECK
 70
     0
  9
$PEXTMIN
 10
1.00000000000000E+20
 20
1.00000000000000E+20
 30
1.00000000000000E+20
  9
$PEXTMAX
 10
-1.00000000000000E+20
 20
-1.00000000000000E+20
 30
-1.00000000000000E+20
  9
$PLIMMIN
 10
0.0
 20
0.0
  9
$PLIMMAX
 10
12.0
 20
9.0
  9
$UNITMODE
 70
     0
  9
$VISRETAIN
 70
     1
  9
$PLINEGEN
 70
     0
  9
$PSLTSCALE
 70
     1
  9
$TREEDEPTH
 70
  3020
  9
$CMLSTYLE
  2
Standard
  9
$CMLJUST
 70
     0
  9
$CMLSCALE
 40
1.0
  9
$PROXYGRAPHICS
 70
     1
  9
$MEASUREMENT
 70
     1
  9
$CELWEIGHT
370
    -1
  9
$ENDCAPS
280
     0
  9
$JOINSTYLE
280
     0
  9
$LWDISPLAY
290
     0
  9
$INSUNITS
 70
     1
  9
$HYPERLINKBASE
  1

  9
$STYLESHEET
  1

  9
$XEDIT
290
     1
  9
$CEPSNTYPE
380
     0
  9
$PSTYLEMODE
290
     1
  9
$FINGERPRINTGUID
  2
{01EE9CC5-EC1C-4507-94B6-FCEA81D213F7}
  9
$VERSIONGUID
  2
{FAEB1C32-E019-11D5-929B-00C0DF256EC4}
  9
$EXTNAMES
290
     1
  9
$PSVPSCALE
 40
0.0
  9
$OLESTARTUP
290
     0
  9
$SORTENTS
280
   127
  9
$INDEXCTL
280
     0
  9
$HIDETEXT
280
     1
  9
$XCLIPFRAME
290
     0
  9
$HALOGAP
280
     0
  9
$OBSCOLOR
 70
   257
  9
$OBSLTYPE
280
     0
  9
$INTERSECTIONDISPLAY
280
     0
  9
$INTERSECTIONCOLOR
 70
   257
  9
$DIMASSOC
280
     2
  9
$PROJECTNAME
  1

  0
ENDSEC
  0
SECTION
  2
CLASSES
  0
CLASS
  1
ACDBDICTIONARYWDFLT
  2
AcDbDictionaryWithDefault
  3
ObjectDBX Classes
 90
        0
 91
        3
280
     0
281
     0
  0
ENDSEC
  0
SECTION
  2
TABLES
  0
TABLE
  2
VPORT
  5
8
330
0
100
AcDbSymbolTable
 70
     1
  0
VPORT
  5
29
330
8
100
AcDbSymbolTableRecord
100
AcDbViewportTableRecord
  2
*Active
 70
     0
 10
0.0
 20
0.0
 11
1.0
 21
1.0
 12
9.55340593509718
 22
-9.2009165415119
 13
0.0
 23
0.0
 14
0.5
 24
0.5
 15
0.5
 25
0.5
 16
0.0
 26
0.0
 36
1.0
 17
0.0
 27
0.0
 37
0.0
 40
154.3064085609633
 41
1.60267857142857
 42
50.0
 43
0.0
 44
0.0
 50
0.0
 51
0.0
 71
     0
 72
   100
 73
     1
 74
     3
 75
     0
 76
     0
 77
     0
 78
     0
281
     0
 65
     1
110
0.0
120
0.0
130
0.0
111
1.0
121
0.0
131
0.0
112
0.0
122
1.0
132
0.0
 79
     0
146
0.0
  0
ENDTAB
  0
TABLE
  2
LTYPE
  5
5
330
0
100
AcDbSymbolTable
 70
     8
  0
LTYPE
  5
14
330
5
100
AcDbSymbolTableRecord
100
AcDbLinetypeTableRecord
  2
ByBlock
 70
     0
  3

 72
    65
 73
     0
 40
0.0
  0
LTYPE
  5
15
330
5
100
AcDbSymbolTableRecord
100
AcDbLinetypeTableRecord
  2
ByLayer
 70
     0
  3

 72
    65
 73
     0
 40
0.0
  0
LTYPE
  5
16
330
5
100
AcDbSymbolTableRecord
100
AcDbLinetypeTableRecord
  2
Continuous
 70
     0
  3
Solid line
 72
    65
 73
     0
 40
0.0
  0
LTYPE
  5
2A
330
5
100
AcDbSymbolTableRecord
100
AcDbLinetypeTableRecord
  2
DASHED
 70
     0
  3
Dashed
 72
    65
 73
     2
 40
15.0
 49
7.0
 74
     0
 49
-8.0
 74
     0
  0
LTYPE
  5
2B
330
5
100
AcDbSymbolTableRecord
100
AcDbLinetypeTableRecord
  2
DOTTED
 70
     0
  3
Dotted
 72
    65
 73
     2
 40
1.0
 49
0.0
 74
     0
 49
-1.0
 74
     0
  0
LTYPE
  5
2C
330
5
100
AcDbSymbolTableRecord
100
AcDbLinetypeTableRecord
  2
DOT_CENTER
 70
     0
  3
Dot_Center
 72
    65
 73
     4
 40
14.0
 49
12.0
 74
     0
 49
-1.0
 74
     0
 49
0.0
 74
     0
 49
-1.0
 74
     0
  0
LTYPE
  5
2D
330
5
100
AcDbSymbolTableRecord
100
AcDbLinetypeTableRecord
  2
LONG_DASHED
 70
     0
  3
Long_Dashed
 72
    65
 73
     2
 40
15.0
 49
10.0
 74
     0
 49
-5.0
 74
     0
  0
LTYPE
  5
2E
330
5
100
AcDbSymbolTableRecord
100
AcDbLinetypeTableRecord
  2
DASH_CENTER
 70
     0
  3
Dash_Center
 72
    65
 73
     4
 40
14.0
 49
11.0
 74
     0
 49
-1.0
 74
     0
 49
1.0
 74
     0
 49
-1.0
 74
     0
  0
LTYPE
  5
2F
330
5
100
AcDbSymbolTableRecord
100
AcDbLinetypeTableRecord
  2
PHANTOM
 70
     0
  3
Phantom
 72
    65
 73
     6
 40
13.0
 49
10.0
 74
     0
 49
-1.0
 74
     0
 49
0.0
 74
     0
 49
-1.0
 74
     0
 49
0.0
 74
     0
 49
-1.0
 74
     0
  0
LTYPE
  5
30
330
5
100
AcDbSymbolTableRecord
100
AcDbLinetypeTableRecord
  2
CENTER_DASH_DASH
 70
     0
  3
Center_Dash_Dash
 72
    65
 73
     6
 40
14.0
 49
9.0
 74
     0
 49
-1.0
 74
     0
 49
1.0
 74
     0
 49
-1.0
 74
     0
 49
1.0
 74
     0
 49
-1.0
 74
     0
  0
ENDTAB
  0
TABLE
  2
LAYER
  5
2
330
0
100
AcDbSymbolTable
 70
     2
  0
LAYER
  5
10
330
2
100
AcDbSymbolTableRecord
100
AcDbLayerTableRecord
  2
0
 70
     0
 62
     7
  6
Continuous
370
    -3
390
F
  0
LAYER
  5
31
330
2
100
AcDbSymbolTableRecord
100
AcDbLayerTableRecord
  2
1
 70
     0
 62
     7
  6
Continuous
370
    -3
390
F
  0
ENDTAB
  0
TABLE
  2
STYLE
  5
3
330
0
100
AcDbSymbolTable
 70
     2
  0
STYLE
  5
11
330
3
100
AcDbSymbolTableRecord
100
AcDbTextStyleTableRecord
  2
Standard
 70
     0
 40
0.0
 41
1.0
 50
0.0
 71
     0
 42
0.2
  3
txt
  4

  0
STYLE
  5
D4
330
3
100
AcDbSymbolTableRecord
100
AcDbTextStyleTableRecord
  2
CONVERTER_11
 70
     0
 40
0.0
 41
0.9
 50
0.0
 71
     0
 42
0.2
  3
txt.shx
  4

  0
ENDTAB
  0
TABLE
  2
VIEW
  5
6
330
0
100
AcDbSymbolTable
 70
     0
  0
ENDTAB
  0
TABLE
  2
UCS
  5
7
330
0
100
AcDbSymbolTable
 70
     0
  0
ENDTAB
  0
TABLE
  2
APPID
  5
9
330
0
100
AcDbSymbolTable
 70
     1
  0
APPID
  5
12
330
9
100
AcDbSymbolTableRecord
100
AcDbRegAppTableRecord
  2
ACAD
 70
     0
  0
ENDTAB
  0
TABLE
  2
DIMSTYLE
  5
A
330
0
100
AcDbSymbolTable
 70
     7
100
AcDbDimStyleTable
  0
DIMSTYLE
105
27
330
A
100
AcDbSymbolTableRecord
100
AcDbDimStyleTableRecord
  2
Standard
 70
     0
340
11
  0
DIMSTYLE
105
D8
102
{ACAD_REACTORS
330
D9
102
}
330
A
100
AcDbSymbolTableRecord
100
AcDbDimStyleTableRecord
  2
ME10_DIM_10
 70
     0
 41
3.5
 42
0.0
 44
2.0
 73
     0
 74
     0
 77
     1
 78
     8
140
3.5
147
2.0
172
     1
173
     1
176
     2
177
     2
178
     2
271
     2
340
D4
  0
DIMSTYLE
105
E3
102
{ACAD_REACTORS
330
E4
102
}
330
A
100
AcDbSymbolTableRecord
100
AcDbDimStyleTableRecord
  2
ME10_DIM_11
 70
     0
 41
3.5
 42
0.0
 44
2.0
 73
     0
 74
     0
 77
     1
 78
     8
140
3.5
147
2.0
172
     1
173
     1
176
     2
177
     2
178
     2
271
     3
340
D4
  0
DIMSTYLE
105
EE
102
{ACAD_REACTORS
330
EF
102
}
330
A
100
AcDbSymbolTableRecord
100
AcDbDimStyleTableRecord
  2
ME10_DIM_12
 70
     0
 41
3.5
 42
0.0
 44
2.0
 73
     0
 74
     0
 77
     1
 78
     8
140
3.5
147
2.0
172
     1
173
     1
176
     2
177
     2
178
     2
271
     3
340
D4
  0
DIMSTYLE
105
FB
102
{ACAD_REACTORS
330
FC
102
}
330
A
100
AcDbSymbolTableRecord
100
AcDbDimStyleTableRecord
  2
ME10_DIM_13
 70
     0
 41
3.5
 42
0.0
 44
2.0
 73
     0
 74
     0
 77
     1
 78
     8
140
3.5
147
2.0
172
     1
173
     1
176
     2
177
     2
178
     2
271
     2
340
D4
  0
DIMSTYLE
105
106
102
{ACAD_REACTORS
330
107
102
}
330
A
100
AcDbSymbolTableRecord
100
AcDbDimStyleTableRecord
  2
ME10_DIM_14
 70
     0
 41
3.5
 42
0.0
 44
2.0
 73
     0
 74
     0
 77
     1
 78
     8
140
3.5
147
2.0
172
     1
173
     1
176
     2
177
     2
178
     2
271
     3
340
D4
  0
DIMSTYLE
105
114
102
{ACAD_REACTORS
330
115
102
}
330
A
100
AcDbSymbolTableRecord
100
AcDbDimStyleTableRecord
  2
ME10_DIM_15
 70
     0
 41
3.5
 42
0.0
 44
2.0
 73
     0
 74
     0
 77
     1
 78
     8
140
3.5
147
2.0
172
     1
173
     1
176
     2
177
     2
178
     2
271
     3
340
D4
  0
ENDTAB
  0
TABLE
  2
BLOCK_RECORD
  5
1
330
0
100
AcDbSymbolTable
 70
     7
  0
BLOCK_RECORD
  5
1F
330
1
100
AcDbSymbolTableRecord
100
AcDbBlockTableRecord
  2
*Model_Space
340
22
  0
BLOCK_RECORD
  5
1B
330
1
100
AcDbSymbolTableRecord
100
AcDbBlockTableRecord
  2
*Paper_Space
340
1E
  0
BLOCK_RECORD
  5
23
330
1
100
AcDbSymbolTableRecord
100
AcDbBlockTableRecord
  2
*Paper_Space0
340
26
  0
BLOCK_RECORD
  5
CE
330
1
100
AcDbSymbolTableRecord
100
AcDbBlockTableRecord
  2
*D1
340
0
  0
BLOCK_RECORD
  5
DA
330
1
100
AcDbSymbolTableRecord
100
AcDbBlockTableRecord
  2
*D2
340
0
  0
BLOCK_RECORD
  5
E5
330
1
100
AcDbSymbolTableRecord
100
AcDbBlockTableRecord
  2
*D3
340
0
  0
BLOCK_RECORD
  5
F0
330
1
100
AcDbSymbolTableRecord
100
AcDbBlockTableRecord
  2
*D4
340
0
  0
BLOCK_RECORD
  5
FD
330
1
100
AcDbSymbolTableRecord
100
AcDbBlockTableRecord
  2
*D5
340
0
  0
BLOCK_RECORD
  5
108
330
1
100
AcDbSymbolTableRecord
100
AcDbBlockTableRecord
  2
*D6
340
0
  0
ENDTAB
  0
ENDSEC
  0
SECTION
  2
BLOCKS
  0
BLOCK
  5
20
330
1F
100
AcDbEntity
  8
0
100
AcDbBlockBegin
  2
*Model_Space
 70
     0
 71
     0
 10
0.0
 20
0.0
 30
0.0
  3
*Model_Space
  1

  0
ENDBLK
  5
21
330
1F
100
AcDbEntity
  8
0
100
AcDbBlockEnd
  0
BLOCK
  5
1C
330
1B
100
AcDbEntity
 67
     1
  8
0
100
AcDbBlockBegin
  2
*Paper_Space
 70
     0
 71
     0
 10
0.0
 20
0.0
 30
0.0
  3
*Paper_Space
  1

  0
ENDBLK
  5
1D
330
1B
100
AcDbEntity
 67
     1
  8
0
100
AcDbBlockEnd
  0
BLOCK
  5
24
330
23
100
AcDbEntity
  8
0
100
AcDbBlockBegin
  2
*Paper_Space0
 70
     0
 71
     0
 10
0.0
 20
0.0
 30
0.0
  3
*Paper_Space0
  1

  0
ENDBLK
  5
25
330
23
100
AcDbEntity
  8
0
100
AcDbBlockEnd
  0
BLOCK
  5
D6
330
CE
100
AcDbEntity
  8
0
100
AcDbBlockBegin
  2
*D1
 70
     1
 71
     0
 10
0.0
 20
0.0
 30
0.0
  3
*D1
  1

  0
LINE
  5
CF
330
CE
100
AcDbEntity
  8
1
  6
Continuous
 62
     2
100
AcDbLine
 10
62.07914309961588
 20
-36.7759783172826
 30
0.0
 11
62.07914309961588
 21
-16.7759783172826
 31
0.0
  0
LINE
  5
D0
330
CE
100
AcDbEntity
  8
1
  6
Continuous
 62
     2
100
AcDbLine
 10
10.72766877057852
 20
-36.7759783172826
 30
0.0
 11
64.07914309961588
 21
-36.7759783172826
 31
0.0
  0
LINE
  5
D1
330
CE
100
AcDbEntity
  8
1
  6
Continuous
 62
     2
100
AcDbLine
 10
10.72766877057852
 20
-16.7759783172826
 30
0.0
 11
64.07914309961588
 21
-16.7759783172826
 31
0.0
  0
SOLID
  5
D2
330
CE
100
AcDbEntity
  8
1
 62
     2
100
AcDbTrace
 10
62.53992684117176
 20
-20.2759783172826
 30
0.0
 11
61.61835935805999
 21
-20.2759783172826
 31
0.0
 12
62.07914309961588
 22
-16.7759783172826
 32
0.0
 13
62.07914309961588
 23
-16.7759783172826
 33
0.0
  0
SOLID
  5
D3
330
CE
100
AcDbEntity
  8
1
 62
     2
100
AcDbTrace
 10
61.61835935805999
 20
-33.2759783172826
 30
0.0
 11
62.53992684117176
 21
-33.2759783172826
 31
0.0
 12
62.07914309961588
 22
-36.7759783172826
 32
0.0
 13
62.07914309961588
 23
-36.7759783172826
 33
0.0
  0
MTEXT
  5
D5
330
CE
100
AcDbEntity
  8
1
 62
     2
100
AcDbMText
 10
60.07914309961588
 20
-29.349681421174
 30
0.0
 40
3.5
 41
0.0
 71
     7
 72
     1
  1
20
  7
CONVERTER_11
 11
0.0
 21
1.0
 31
0.0
 73
     1
 44
0.60024009603842
  0
ENDBLK
  5
D7
330
CE
100
AcDbEntity
  8
0
100
AcDbBlockEnd
  0
BLOCK
  5
E1
330
DA
100
AcDbEntity
  8
0
100
AcDbBlockBegin
  2
*D2
 70
     1
 71
     0
 10
0.0
 20
0.0
 30
0.0
  3
*D2
  1

  0
LINE
  5
DB
330
DA
100
AcDbEntity
  8
1
  6
Continuous
 62
     2
100
AcDbLine
 10
-13.77233122942148
 20
55.4383600771078
 30
0.0
 11
4.72766877057852
 21
55.4383600771078
 31
0.0
  0
LINE
  5
DC
330
DA
100
AcDbEntity
  8
1
  6
Continuous
 62
     2
100
AcDbLine
 10
4.72766877057852
 20
-17.77597831728259
 30
0.0
 11
4.72766877057852
 21
57.4383600771078
 31
0.0
  0
LINE
  5
DD
330
DA
100
AcDbEntity
  8
1
  6
Continuous
 62
     2
100
AcDbLine
 10
-13.77233122942148
 20
43.08159002034459
 30
0.0
 11
-13.77233122942148
 21
57.4383600771078
 31
0.0
  0
SOLID
  5
DE
330
DA
100
AcDbEntity
  8
1
 62
     2
100
AcDbTrace
 10
-10.27233122942148
 20
55.89914381866369
 30
0.0
 11
-10.27233122942148
 21
54.97757633555192
 31
0.0
 12
-13.77233122942148
 22
55.4383600771078
 32
0.0
 13
-13.77233122942148
 23
55.4383600771078
 33
0.0
  0
SOLID
  5
DF
330
DA
100
AcDbEntity
  8
1
 62
     2
100
AcDbTrace
 10
1.22766877057852
 20
54.97757633555192
 30
0.0
 11
1.22766877057852
 21
55.89914381866369
 31
0.0
 12
4.72766877057852
 22
55.4383600771078
 32
0.0
 13
4.72766877057852
 23
55.4383600771078
 33
0.0
  0
MTEXT
  5
E0
330
DA
100
AcDbEntity
  8
1
 62
     2
100
AcDbMText
 10
-9.34012272782932
 20
57.4383600771078
 30
0.0
 40
3.5
 41
0.0
 71
     7
 72
     1
  1
18.5
  7
CONVERTER_11
 11
0.9999999999970621
 21
2.424068405545307E-6
 31
0.0
 73
     1
 44
0.60024009603842
  0
ENDBLK
  5
E2
330
DA
100
AcDbEntity
  8
0
100
AcDbBlockEnd
  0
BLOCK
  5
EC
330
E5
100
AcDbEntity
  8
0
100
AcDbBlockBegin
  2
*D3
 70
     1
 71
     0
 10
0.0
 20
0.0
 30
0.0
  3
*D3
  1

  0
LINE
  5
E6
330
E5
100
AcDbEntity
  8
1
  6
Continuous
 62
     2
100
AcDbLine
 10
-4.77233122942147
 20
-66.7446553018678
 30
0.0
 11
8.22766877057852
 21
-66.7446553018678
 31
0.0
  0
LINE
  5
E7
330
E5
100
AcDbEntity
  8
1
  6
Continuous
 62
     2
100
AcDbLine
 10
8.22766877057852
 20
-28.77597831728259
 30
0.0
 11
8.22766877057852
 21
-68.7446553018678
 31
0.0
  0
LINE
  5
E8
330
E5
100
AcDbEntity
  8
1
  6
Continuous
 62
     2
100
AcDbLine
 10
-4.77233122942147
 20
-46.7759783172826
 30
0.0
 11
-4.77233122942147
 21
-68.7446553018678
 31
0.0
  0
SOLID
  5
E9
330
E5
100
AcDbEntity
  8
1
 62
     2
100
AcDbTrace
 10
-1.27233122942147
 20
-66.28387156031191
 30
0.0
 11
-1.27233122942147
 21
-67.20543904342368
 31
0.0
 12
-4.77233122942147
 22
-66.7446553018678
 32
0.0
 13
-4.77233122942147
 23
-66.7446553018678
 33
0.0
  0
SOLID
  5
EA
330
E5
100
AcDbEntity
  8
1
 62
     2
100
AcDbTrace
 10
4.72766877057852
 20
-67.20543904342368
 30
0.0
 11
4.72766877057852
 21
-66.28387156031191
 31
0.0
 12
8.22766877057852
 22
-66.7446553018678
 32
0.0
 13
8.22766877057852
 23
-66.7446553018678
 33
0.0
  0
MTEXT
  5
EB
330
E5
100
AcDbEntity
  8
1
 62
     2
100
AcDbMText
 10
0.3564691956506
 20
-64.7446553018678
 30
0.0
 40
3.5
 41
0.0
 71
     7
 72
     1
  1
13
  7
CONVERTER_11
 11
0.9999999999970621
 21
2.424068405545307E-6
 31
0.0
 73
     1
 44
0.60024009603842
  0
ENDBLK
  5
ED
330
E5
100
AcDbEntity
  8
0
100
AcDbBlockEnd
  0
BLOCK
  5
F9
330
F0
100
AcDbEntity
  8
0
100
AcDbBlockBegin
  2
*D4
 70
     1
 71
     0
 10
0.0
 20
0.0
 30
0.0
  3
*D4
  1

  0
LINE
  5
F1
330
F0
100
AcDbEntity
  8
1
  6
Continuous
 62
     2
100
AcDbLine
 10
-2.46381394729139
 20
-57.17733342859201
 30
0.0
 11
4.72766877057852
 21
-57.17733342859201
 31
0.0
  0
LINE
  5
F2
330
F0
100
AcDbEntity
  8
1
  6
Continuous
 62
     2
100
AcDbLine
 10
4.72766877057852
 20
-57.17733342859201
 30
0.0
 11
8.22766877057852
 21
-57.17733342859201
 31
0.0
  0
LINE
  5
F3
330
F0
100
AcDbEntity
  8
1
  6
Continuous
 62
     2
100
AcDbLine
 10
8.22766877057852
 20
-57.17733342859201
 30
0.0
 11
15.22766877057852
 21
-57.17733342859201
 31
0.0
  0
LINE
  5
F4
330
F0
100
AcDbEntity
  8
1
  6
Continuous
 62
     2
100
AcDbLine
 10
8.22766877057852
 20
-33.77597831728259
 30
0.0
 11
8.22766877057852
 21
-59.17733342859201
 31
0.0
  0
LINE
  5
F5
330
F0
100
AcDbEntity
  8
1
  6
Continuous
 62
     2
100
AcDbLine
 10
4.72766877057852
 20
-32.77597831728259
 30
0.0
 11
4.72766877057852
 21
-59.17733342859201
 31
0.0
  0
SOLID
  5
F6
330
F0
100
AcDbEntity
  8
1
 62
     2
100
AcDbTrace
 10
1.22766877057852
 20
-57.63811717014789
 30
0.0
 11
1.22766877057852
 21
-56.71654968703612
 31
0.0
 12
4.72766877057852
 22
-57.17733342859201
 32
0.0
 13
4.72766877057852
 23
-57.17733342859201
 33
0.0
  0
SOLID
  5
F7
330
F0
100
AcDbEntity
  8
1
 62
     2
100
AcDbTrace
 10
11.72766877057852
 20
-56.71654968703612
 30
0.0
 11
11.72766877057852
 21
-57.63811717014789
 31
0.0
 12
8.22766877057852
 22
-57.17733342859201
 32
0.0
 13
8.22766877057852
 23
-57.17733342859201
 33
0.0
  0
MTEXT
  5
F8
330
F0
100
AcDbEntity
  8
1
 62
     2
100
AcDbMText
 10
-2.46381394729139
 20
-55.17733342859201
 30
0.0
 40
3.5
 41
0.0
 71
     7
 72
     1
  1
3.5
  7
CONVERTER_11
 11
0.9999999999970621
 21
2.424068405545307E-6
 31
0.0
 73
     1
 44
0.60024009603842
  0
ENDBLK
  5
FA
330
F0
100
AcDbEntity
  8
0
100
AcDbBlockEnd
  0
BLOCK
  5
104
330
FD
100
AcDbEntity
  8
0
100
AcDbBlockBegin
  2
*D5
 70
     1
 71
     0
 10
0.0
 20
0.0
 30
0.0
  3
*D5
  1

  0
LINE
  5
FE
330
FD
100
AcDbEntity
  8
1
  6
Continuous
 62
     2
100
AcDbLine
 10
-13.77233122942148
 20
-77.3401931601316
 30
0.0
 11
8.22766877057852
 21
-77.3401931601316
 31
0.0
  0
LINE
  5
FF
330
FD
100
AcDbEntity
  8
1
  6
Continuous
 62
     2
100
AcDbLine
 10
8.22766877057852
 20
-32.77597831728259
 30
0.0
 11
8.22766877057852
 21
-79.3401931601316
 31
0.0
  0
LINE
  5
100
330
FD
100
AcDbEntity
  8
1
  6
Continuous
 62
     2
100
AcDbLine
 10
-13.77233122942148
 20
-51.24758755933179
 30
0.0
 11
-13.77233122942148
 21
-79.3401931601316
 31
0.0
  0
SOLID
  5
101
330
FD
100
AcDbEntity
  8
1
 62
     2
100
AcDbTrace
 10
-10.27233122942148
 20
-76.87940941857572
 30
0.0
 11
-10.27233122942148
 21
-77.80097690168749
 31
0.0
 12
-13.77233122942148
 22
-77.3401931601316
 32
0.0
 13
-13.77233122942148
 23
-77.3401931601316
 33
0.0
  0
SOLID
  5
102
330
FD
100
AcDbEntity
  8
1
 62
     2
100
AcDbTrace
 10
4.72766877057852
 20
-77.80097690168749
 30
0.0
 11
4.72766877057852
 21
-76.87940941857572
 31
0.0
 12
8.22766877057852
 22
-77.3401931601316
 32
0.0
 13
8.22766877057852
 23
-77.3401931601316
 33
0.0
  0
MTEXT
  5
103
330
FD
100
AcDbEntity
  8
1
 62
     2
100
AcDbMText
 10
-5.90934983575013
 20
-75.3401931601316
 30
0.0
 40
3.5
 41
0.0
 71
     7
 72
     1
  1
22
  7
CONVERTER_11
 11
0.9999999999970621
 21
2.424068405545307E-6
 31
0.0
 73
     1
 44
0.60024009603842
  0
ENDBLK
  5
105
330
FD
100
AcDbEntity
  8
0
100
AcDbBlockEnd
  0
BLOCK
  5
112
330
108
100
AcDbEntity
  8
0
100
AcDbBlockBegin
  2
*D6
 70
     1
 71
     0
 10
0.0
 20
0.0
 30
0.0
  3
*D6
  1

  0
LINE
  5
109
330
108
100
AcDbEntity
  8
1
  6
Continuous
 62
     2
100
AcDbLine
 10
1.22766877057852
 20
-77.3401931601316
 30
0.0
 11
8.22766877057852
 21
-77.3401931601316
 31
0.0
  0
LINE
  5
10A
330
108
100
AcDbEntity
  8
1
  6
Continuous
 62
     2
100
AcDbLine
 10
8.22766877057852
 20
-77.3401931601316
 30
0.0
 11
10.72766877057852
 21
-77.3401931601316
 31
0.0
  0
LINE
  5
10B
330
108
100
AcDbEntity
  8
1
  6
Continuous
 62
     2
100
AcDbLine
 10
10.72766877057852
 20
-77.3401931601316
 30
0.0
 11
18.8620208092272
 21
-77.3401931601316
 31
0.0
  0
LINE
  5
10C
330
108
100
AcDbEntity
  8
1
  6
Continuous
 62
     2
100
AcDbLine
 10
10.72766877057852
 20
-60.06781775613089
 30
0.0
 11
10.72766877057852
 21
-79.3401931601316
 31
0.0
  0
LINE
  5
10D
330
108
100
AcDbEntity
  8
1
  6
Continuous
 62
     2
100
AcDbLine
 10
10.72766877057852
 20
-36.77597831728259
 30
0.0
 11
10.72766877057852
 21
-54.63757251515419
 31
0.0
  0
LINE
  5
10E
330
108
100
AcDbEntity
  8
1
  6
Continuous
 62
     2
100
AcDbLine
 10
8.22766877057852
 20
-32.77597831728259
 30
0.0
 11
8.22766877057852
 21
-79.3401931601316
 31
0.0
  0
SOLID
  5
10F
330
108
100
AcDbEntity
  8
1
 62
     2
100
AcDbTrace
 10
4.72766877057852
 20
-77.80097690168749
 30
0.0
 11
4.72766877057852
 21
-76.87940941857572
 31
0.0
 12
8.22766877057852
 22
-77.3401931601316
 32
0.0
 13
8.22766877057852
 23
-77.3401931601316
 33
0.0
  0
SOLID
  5
110
330
108
100
AcDbEntity
  8
1
 62
     2
100
AcDbTrace
 10
14.22766877057852
 20
-76.87940941857572
 30
0.0
 11
14.22766877057852
 21
-77.80097690168749
 31
0.0
 12
10.72766877057852
 22
-77.3401931601316
 32
0.0
 13
10.72766877057852
 23
-77.3401931601316
 33
0.0
  0
MTEXT
  5
111
330
108
100
AcDbEntity
  8
1
 62
     2
100
AcDbMText
 10
12.4745208092272
 20
-75.3401931601316
 30
0.0
 40
3.5
 41
0.0
 71
     7
 72
     1
  1
2.5
  7
CONVERTER_11
 11
0.9999999999970621
 21
2.424068405545307E-6
 31
0.0
 73
     1
 44
0.60024009603842
  0
ENDBLK
  5
113
330
108
100
AcDbEntity
  8
0
100
AcDbBlockEnd
  0
ENDSEC
  0
SECTION
  2
ENTITIES
  0
LINE
  5
32
330
1F
100
AcDbEntity
  8
1
  6
DASHED
 62
     2
100
AcDbLine
 10
-10.77233122942152
 20
18.43044678491494
 30
0.0
 11
-10.17233122942145
 21
15.72402168271735
 31
0.0
  0
LINE
  5
33
330
1F
100
AcDbEntity
  8
1
  6
DASHED
 62
     2
100
AcDbLine
 10
-10.77233122942152
 20
18.43044678491494
 30
0.0
 11
-10.77233122942152
 21
-18.77597831728259
 31
0.0
  0
LINE
  5
34
330
1F
100
AcDbEntity
  8
1
  6
Continuous
 62
     7
100
AcDbLine
 10
-16.77233122942152
 20
-18.77597831728259
 30
0.0
 11
-17.37233122942152
 21
-18.77597831728259
 31
0.0
  0
LINE
  5
35
330
1F
100
AcDbEntity
  8
1
  6
DASHED
 62
     2
100
AcDbLine
 10
-16.77233122942152
 20
18.43044678491459
 30
0.0
 11
-16.26385791620682
 21
20.72402168271735
 31
0.0
  0
LINE
  5
36
330
1F
100
AcDbEntity
  8
1
  6
DASHED
 62
     2
100
AcDbLine
 10
-16.77233122942152
 20
18.43044678491459
 30
0.0
 11
-16.77233122942152
 21
-18.77597831728259
 31
0.0
  0
LINE
  5
37
330
1F
100
AcDbEntity
  8
1
  6
Continuous
 62
     7
100
AcDbLine
 10
-10.77233122942152
 20
-29.27597831728269
 30
0.0
 11
-10.17233122942152
 21
-29.27597831728269
 31
0.0
  0
LINE
  5
38
330
1F
100
AcDbEntity
  8
1
  6
Continuous
 62
     7
100
AcDbLine
 10
-10.77233122942152
 20
-18.77597831728259
 30
0.0
 11
-16.77233122942152
 21
-18.77597831728259
 31
0.0
  0
LINE
  5
39
330
1F
100
AcDbEntity
  8
1
  6
Continuous
 62
     2
100
AcDbLine
 10
-10.77233122942152
 20
-29.27597831728269
 30
0.0
 11
-10.77233122942152
 21
-18.77597831728259
 31
0.0
  0
LINE
  5
3A
330
1F
100
AcDbEntity
  8
1
  6
Continuous
 62
     7
100
AcDbLine
 10
-16.77233122942152
 20
-29.27597831728269
 30
0.0
 11
-10.77233122942152
 21
-29.27597831728269
 31
0.0
  0
LINE
  5
3B
330
1F
100
AcDbEntity
  8
1
  6
Continuous
 62
     2
100
AcDbLine
 10
-16.77233122942152
 20
-29.27597831728269
 30
0.0
 11
-16.77233122942152
 21
-18.77597831728259
 31
0.0
  0
LINE
  5
3C
330
1F
100
AcDbEntity
  8
1
  6
Continuous
 62
     7
100
AcDbLine
 10
-10.17233122942152
 20
-29.27597831728269
 30
0.0
 11
-10.17233122942152
 21
-18.77597831728259
 31
0.0
  0
LINE
  5
3D
330
1F
100
AcDbEntity
  8
1
  6
Continuous
 62
     7
100
AcDbLine
 10
-17.37233122942152
 20
-29.27597831728269
 30
0.0
 11
-17.37233122942152
 21
-18.77597831728259
 31
0.0
  0
LINE
  5
3E
330
1F
100
AcDbEntity
  8
1
  6
Continuous
 62
     7
100
AcDbLine
 10
-17.37233122942152
 20
-29.27597831728269
 30
0.0
 11
-16.77233122942152
 21
-29.27597831728269
 31
0.0
  0
LINE
  5
3F
330
1F
100
AcDbEntity
  8
1
  6
Continuous
 62
     7
100
AcDbLine
 10
-10.17233122942145
 20
-0.27597831728259
 30
0.0
 11
-12.52233122942152
 21
-0.27597831728259
 31
0.0
  0
LINE
  5
40
330
1F
100
AcDbEntity
  8
1
  6
DASHED
 62
     2
100
AcDbLine
 10
-10.17233122942145
 20
15.72402168271735
 30
0.0
 11
-10.17233122942145
 21
-0.27597831728259
 31
0.0
  0
LINE
  5
41
330
1F
100
AcDbEntity
  8
1
  6
DASHED
 62
     2
100
AcDbLine
 10
-10.17233122942145
 20
15.72402168271735
 30
0.0
 11
-13.77233122942148
 21
15.72402168271735
 31
0.0
  0
LINE
  5
42
330
1F
100
AcDbEntity
  8
1
  6
DASHED
 62
     2
100
AcDbLine
 10
-13.77233122942148
 20
20.72402168271735
 30
0.0
 11
-11.28080454263614
 21
20.72402168271735
 31
0.0
  0
LINE
  5
43
330
1F
100
AcDbEntity
  8
1
  6
DASHED
 62
     2
100
AcDbLine
 10
-11.28080454263614
 20
20.72402168271735
 30
0.0
 11
-10.77233122942152
 21
18.43044678491494
 31
0.0
  0
LINE
  5
44
330
1F
100
AcDbEntity
  8
1
  6
DOT_CENTER
 62
     2
100
AcDbLine
 10
-13.77233122942148
 20
20.72402168271735
 30
0.0
 11
-13.77233122942148
 21
43.08159002034459
 31
0.0
  0
LINE
  5
45
330
1F
100
AcDbEntity
  8
1
  6
DASHED
 62
     2
100
AcDbLine
 10
-16.26385791620682
 20
20.72402168271735
 30
0.0
 11
-13.77233122942148
 21
20.72402168271735
 31
0.0
  0
LINE
  5
46
330
1F
100
AcDbEntity
  8
1
  6
DASHED
 62
     2
100
AcDbLine
 10
-17.37233122942152
 20
15.72402168271735
 30
0.0
 11
-16.77233122942152
 21
18.43044678491459
 31
0.0
  0
LINE
  5
47
330
1F
100
AcDbEntity
  8
1
  6
DOT_CENTER
 62
     2
100
AcDbLine
 10
-13.77233122942148
 20
15.72402168271735
 30
0.0
 11
-13.77233122942148
 21
20.72402168271735
 31
0.0
  0
LINE
  5
48
330
1F
100
AcDbEntity
  8
1
  6
DASHED
 62
     2
100
AcDbLine
 10
-17.37233122942152
 20
15.72402168271735
 30
0.0
 11
-17.37233122942152
 21
-18.77597831728259
 31
0.0
  0
LINE
  5
49
330
1F
100
AcDbEntity
  8
1
  6
DASHED
 62
     2
100
AcDbLine
 10
-13.77233122942148
 20
15.72402168271735
 30
0.0
 11
-17.37233122942152
 21
15.72402168271735
 31
0.0
  0
LINE
  5
4A
330
1F
100
AcDbEntity
  8
1
  6
Continuous
 62
     7
100
AcDbLine
 10
-10.17233122942152
 20
-32.77597831728259
 30
0.0
 11
-10.17233122942152
 21
-34.27597831728271
 31
0.0
  0
LINE
  5
4B
330
1F
100
AcDbEntity
  8
1
  6
Continuous
 62
     7
100
AcDbLine
 10
-17.37233122942152
 20
-32.77597831728259
 30
0.0
 11
-17.37233122942152
 21
-35.19646465744431
 31
0.0
  0
LINE
  5
4C
330
1F
100
AcDbEntity
  8
1
  6
DOT_CENTER
 62
     2
100
AcDbLine
 10
-22.90878347944904
 20
-41.77597831728259
 30
0.0
 11
-4.8300892896038
 21
-41.77597831728259
 31
0.0
  0
LINE
  5
4D
330
1F
100
AcDbEntity
  8
1
  6
DOT_CENTER
 62
     2
100
AcDbLine
 10
-13.77233122942148
 20
-51.24758755933179
 30
0.0
 11
-13.77233122942148
 21
-34.27597831728271
 31
0.0
  0
LINE
  5
4E
330
1F
100
AcDbEntity
  8
1
  6
PHANTOM
 62
     2
100
AcDbLine
 10
53.66103341895204
 20
-6.77597831728259
 30
0.0
 11
53.66103341895204
 21
-46.77597831728259
 31
0.0
  0
LINE
  5
4F
330
1F
100
AcDbEntity
  8
1
  6
Continuous
 62
     7
100
AcDbLine
 10
53.66103341895204
 20
-46.77597831728259
 30
0.0
 11
-4.77233122942147
 21
-46.77597831728259
 31
0.0
  0
LINE
  5
50
330
1F
100
AcDbEntity
  8
1
  6
Continuous
 62
     7
100
AcDbLine
 10
8.22766877057852
 20
-6.77597831728259
 30
0.0
 11
8.22766877057852
 21
-16.77597831728259
 31
0.0
  0
LINE
  5
51
330
1F
100
AcDbEntity
  8
1
  6
DOT_CENTER
 62
     2
100
AcDbLine
 10
53.66103341895204
 20
-4.4637199389024
 30
0.0
 11
53.66103341895204
 21
-6.77597831728259
 31
0.0
  0
LINE
  5
52
330
1F
100
AcDbEntity
  8
1
  6
DOT_CENTER
 62
     2
100
AcDbLine
 10
53.66103341895204
 20
-49.47395442768179
 30
0.0
 11
53.66103341895204
 21
-46.77597831728259
 31
0.0
  0
LINE
  5
53
330
1F
100
AcDbEntity
  8
1
  6
Continuous
 62
     7
100
AcDbLine
 10
-4.77233122942148
 20
-33.77597831728259
 30
0.0
 11
8.22766877057852
 21
-33.77597831728259
 31
0.0
  0
LINE
  5
54
330
1F
100
AcDbEntity
  8
1
  6
Continuous
 62
     7
100
AcDbLine
 10
-4.77233122942148
 20
-33.77597831728259
 30
0.0
 11
-4.77233122942148
 21
-34.27597831728271
 31
0.0
  0
LINE
  5
55
330
1F
100
AcDbEntity
  8
1
  6
Continuous
 62
     7
100
AcDbLine
 10
53.66103341895204
 20
-6.77597831728259
 30
0.0
 11
8.22766877057852
 21
-6.77597831728259
 31
0.0
  0
LINE
  5
56
330
1F
100
AcDbEntity
  8
1
  6
Continuous
 62
     7
100
AcDbLine
 10
16.72766877057853
 20
-3.77597831728259
 30
0.0
 11
16.72766877057853
 21
-1.77597831728259
 31
0.0
  0
LINE
  5
57
330
1F
100
AcDbEntity
  8
1
  6
Continuous
 62
     7
100
AcDbLine
 10
14.99561796300968
 20
-6.77597831728259
 30
0.0
 11
16.72766877057853
 21
-3.77597831728259
 31
0.0
  0
LINE
  5
58
330
1F
100
AcDbEntity
  8
1
  6
Continuous
 62
     7
100
AcDbLine
 10
15.72766877057852
 20
-3.50802912485166
 30
0.0
 11
14.41826769381992
 21
-5.77597831728259
 31
0.0
  0
LINE
  5
59
330
1F
100
AcDbEntity
  8
1
  6
Continuous
 62
     7
100
AcDbLine
 10
15.72766877057852
 20
-2.77597831728259
 30
0.0
 11
15.72766877057852
 21
-3.50802912485166
 31
0.0
  0
LINE
  5
5A
330
1F
100
AcDbEntity
  8
1
  6
Continuous
 62
     7
100
AcDbLine
 10
5.72766877057829
 20
-2.77597831728259
 30
0.0
 11
15.72766877057852
 21
-2.77597831728259
 31
0.0
  0
LINE
  5
5B
330
1F
100
AcDbEntity
  8
1
  6
Continuous
 62
     7
100
AcDbLine
 10
5.72766877057829
 20
-3.50802912485166
 30
0.0
 11
5.72766877057829
 21
-2.77597831728259
 31
0.0
  0
LINE
  5
5C
330
1F
100
AcDbEntity
  8
1
  6
Continuous
 62
     7
100
AcDbLine
 10
14.41826769381992
 20
-5.77597831728259
 30
0.0
 11
7.03706984733689
 21
-5.77597831728259
 31
0.0
  0
LINE
  5
5D
330
1F
100
AcDbEntity
  8
1
  6
Continuous
 62
     7
100
AcDbLine
 10
7.03706984733689
 20
-5.77597831728259
 30
0.0
 11
5.72766877057829
 21
-3.50802912485166
 31
0.0
  0
LINE
  5
5E
330
1F
100
AcDbEntity
  8
1
  6
Continuous
 62
     7
100
AcDbLine
 10
6.45971957814736
 20
-6.77597831728259
 30
0.0
 11
8.22766877057852
 21
-6.77597831728259
 31
0.0
  0
LINE
  5
5F
330
1F
100
AcDbEntity
  8
1
  6
Continuous
 62
     7
100
AcDbLine
 10
4.72766877057829
 20
-3.77597831728259
 30
0.0
 11
6.45971957814736
 21
-6.77597831728259
 31
0.0
  0
LINE
  5
60
330
1F
100
AcDbEntity
  8
1
  6
Continuous
 62
     7
100
AcDbLine
 10
4.72766877057852
 20
-7.77597831728259
 30
0.0
 11
4.72766877057852
 21
-17.77597831728259
 31
0.0
  0
LINE
  5
61
330
1F
100
AcDbEntity
  8
1
  6
Continuous
 62
     7
100
AcDbLine
 10
-3.67233122942152
 20
-17.77597831728259
 30
0.0
 11
4.72766877057852
 21
-17.77597831728259
 31
0.0
  0
LINE
  5
62
330
1F
100
AcDbEntity
  8
1
  6
Continuous
 62
     7
100
AcDbLine
 10
4.72766877057852
 20
-1.77597831728259
 30
0.0
 11
4.72766877057852
 21
-7.77597831728259
 31
0.0
  0
LINE
  5
63
330
1F
100
AcDbEntity
  8
1
  6
Continuous
 62
     7
100
AcDbLine
 10
4.72766877057852
 20
-32.77597831728259
 30
0.0
 11
4.72766877057852
 21
-17.77597831728259
 31
0.0
  0
LINE
  5
64
330
1F
100
AcDbEntity
  8
1
  6
DOT_CENTER
 62
     2
100
AcDbLine
 10
-10.4700070106716
 20
17.22402168271741
 30
0.0
 11
12.28110719753506
 21
17.22402168271741
 31
0.0
  0
LINE
  5
65
330
1F
100
AcDbEntity
  8
1
  6
DOT_CENTER
 62
     2
100
AcDbLine
 10
-10.4700070106716
 20
33.22402168271749
 30
0.0
 11
12.28110719753506
 21
33.22402168271749
 31
0.0
  0
LINE
  5
66
330
1F
100
AcDbEntity
  8
1
  6
Continuous
 62
     7
100
AcDbLine
 10
-44.97233122942152
 20
-32.77597831728259
 30
0.0
 11
-44.97233122942152
 21
-18.77597831728259
 31
0.0
  0
LINE
  5
67
330
1F
100
AcDbEntity
  8
1
  6
Continuous
 62
     7
100
AcDbLine
 10
16.72766877057853
 20
-1.77597831728259
 30
0.0
 11
4.72766877057852
 21
-1.77597831728259
 31
0.0
  0
LINE
  5
68
330
1F
100
AcDbEntity
  8
1
  6
Continuous
 62
     7
100
AcDbLine
 10
-10.17233122942152
 20
-32.77597831728259
 30
0.0
 11
-10.17233122942152
 21
-29.27597831728269
 31
0.0
  0
LINE
  5
69
330
1F
100
AcDbEntity
  8
1
  6
Continuous
 62
     7
100
AcDbLine
 10
-17.37233122942152
 20
-32.77597831728259
 30
0.0
 11
-17.37233122942152
 21
-29.27597831728269
 31
0.0
  0
LINE
  5
6A
330
1F
100
AcDbEntity
  8
1
  6
Continuous
 62
     7
100
AcDbLine
 10
-10.17233122942152
 20
-32.77597831728259
 30
0.0
 11
4.72766877057852
 21
-32.77597831728259
 31
0.0
  0
LINE
  5
6B
330
1F
100
AcDbEntity
  8
1
  6
Continuous
 62
     7
100
AcDbLine
 10
-44.97233122942152
 20
-32.77597831728259
 30
0.0
 11
-17.37233122942152
 21
-32.77597831728259
 31
0.0
  0
LINE
  5
6C
330
1F
100
AcDbEntity
  8
1
  6
Continuous
 62
     7
100
AcDbLine
 10
-7.97233122942152
 20
-18.77597831728259
 30
0.0
 11
-7.97233122942152
 21
-17.77597831728259
 31
0.0
  0
LINE
  5
6D
330
1F
100
AcDbEntity
  8
1
  6
Continuous
 62
     7
100
AcDbLine
 10
-9.97000701067152
 20
39.2240216827174
 30
0.0
 11
-7.97233122942152
 21
39.2240216827174
 31
0.0
  0
LINE
  5
6E
330
1F
100
AcDbEntity
  8
1
  6
Continuous
 62
     7
100
AcDbLine
 10
-9.97000701067152
 20
-0.27597831728259
 30
0.0
 11
-7.97233122942152
 21
-0.27597831728259
 31
0.0
  0
LINE
  5
6F
330
1F
100
AcDbEntity
  8
1
  6
Continuous
 62
     7
100
AcDbLine
 10
-7.97233122942152
 20
-7.77597831728259
 30
0.0
 11
-7.97233122942152
 21
-0.27597831728259
 31
0.0
  0
LINE
  5
70
330
1F
100
AcDbEntity
  8
1
  6
Continuous
 62
     7
100
AcDbLine
 10
-7.97233122942152
 20
15.12402168271741
 30
0.0
 11
-7.97233122942152
 21
-0.27597831728259
 31
0.0
  0
LINE
  5
71
330
1F
100
AcDbEntity
  8
1
  6
Continuous
 62
     7
100
AcDbLine
 10
-9.97000701067152
 20
36.7240216827174
 30
0.0
 11
-9.97000701067152
 21
39.2240216827174
 31
0.0
  0
LINE
  5
72
330
1F
100
AcDbEntity
  8
1
  6
Continuous
 62
     7
100
AcDbLine
 10
-17.37233122942152
 20
39.2240216827174
 30
0.0
 11
-9.97000701067152
 21
39.2240216827174
 31
0.0
  0
LINE
  5
73
330
1F
100
AcDbEntity
  8
1
  6
Continuous
 62
     7
100
AcDbLine
 10
-19.27233122942152
 20
-18.77597831728259
 30
0.0
 11
-19.27233122942152
 21
39.2240216827174
 31
0.0
  0
LINE
  5
74
330
1F
100
AcDbEntity
  8
1
  6
Continuous
 62
     7
100
AcDbLine
 10
-44.97233122942152
 20
-18.77597831728259
 30
0.0
 11
-19.27233122942152
 21
-18.77597831728259
 31
0.0
  0
LINE
  5
75
330
1F
100
AcDbEntity
  8
1
  6
Continuous
 62
     7
100
AcDbLine
 10
-17.37233122942152
 20
-18.77597831728259
 30
0.0
 11
-19.27233122942152
 21
-18.77597831728259
 31
0.0
  0
LINE
  5
76
330
1F
100
AcDbEntity
  8
1
  6
Continuous
 62
     7
100
AcDbLine
 10
-3.67233122942152
 20
-7.77597831728259
 30
0.0
 11
-7.97233122942152
 21
-7.77597831728259
 31
0.0
  0
LINE
  5
77
330
1F
100
AcDbEntity
  8
1
  6
DASHED
 62
     2
100
AcDbLine
 10
-17.37233122942152
 20
39.2240216827174
 30
0.0
 11
-17.37233122942152
 21
15.72402168271735
 31
0.0
  0
LINE
  5
78
330
1F
100
AcDbEntity
  8
1
  6
Continuous
 62
     7
100
AcDbLine
 10
-10.17233122942152
 20
-18.77597831728259
 30
0.0
 11
-10.77233122942152
 21
-18.77597831728259
 31
0.0
  0
LINE
  5
79
330
1F
100
AcDbEntity
  8
1
  6
Continuous
 62
     7
100
AcDbLine
 10
-19.27233122942152
 20
39.2240216827174
 30
0.0
 11
-17.37233122942152
 21
39.2240216827174
 31
0.0
  0
LINE
  5
7A
330
1F
100
AcDbEntity
  8
1
  6
Continuous
 62
     7
100
AcDbLine
 10
-9.97000701067152
 20
-0.27597831728259
 30
0.0
 11
-10.17233122942145
 21
-0.27597831728259
 31
0.0
  0
LINE
  5
7B
330
1F
100
AcDbEntity
  8
1
  6
Continuous
 62
     7
100
AcDbLine
 10
-10.17233122942152
 20
-2.77597831728259
 30
0.0
 11
-12.52233122942152
 21
-2.77597831728259
 31
0.0
  0
LINE
  5
7C
330
1F
100
AcDbEntity
  8
1
  6
DASHED
 62
     2
100
AcDbLine
 10
-10.17233122942152
 20
-2.77597831728259
 30
0.0
 11
-10.17233122942152
 21
-18.77597831728259
 31
0.0
  0
LINE
  5
7D
330
1F
100
AcDbEntity
  8
1
  6
DOT_CENTER
 62
     2
100
AcDbLine
 10
-20.45322260210223
 20
-12.77597831728259
 30
0.0
 11
6.12702490676989
 21
-12.77597831728259
 31
0.0
  0
LINE
  5
7E
330
1F
100
AcDbEntity
  8
1
  6
Continuous
 62
     7
100
AcDbLine
 10
16.72766877057853
 20
45.2212091827174
 30
0.0
 11
16.72766877057853
 21
-1.77597831728259
 31
0.0
  0
LINE
  5
7F
330
1F
100
AcDbEntity
  8
1
  6
Continuous
 62
     7
100
AcDbLine
 10
-7.97233122942152
 20
45.2212091827174
 30
0.0
 11
-7.97233122942152
 21
39.2240216827174
 31
0.0
  0
LINE
  5
80
330
1F
100
AcDbEntity
  8
1
  6
DOT_CENTER
 62
     2
100
AcDbLine
 10
16.72766877057853
 20
45.2212091827174
 30
0.0
 11
21.09040765421143
 21
45.2212091827174
 31
0.0
  0
LINE
  5
81
330
1F
100
AcDbEntity
  8
1
  6
DOT_CENTER
 62
     2
100
AcDbLine
 10
-11.44055261068926
 20
45.2212091827174
 30
0.0
 11
-7.97233122942152
 21
45.2212091827174
 31
0.0
  0
LINE
  5
82
330
1F
100
AcDbEntity
  8
1
  6
DOT_CENTER
 62
     2
100
AcDbLine
 10
-7.97233122942152
 20
45.2212091827174
 30
0.0
 11
16.72766877057853
 21
45.2212091827174
 31
0.0
  0
LINE
  5
83
330
1F
100
AcDbEntity
  8
1
  6
DASHED
 62
     2
100
AcDbLine
 10
-8.57000701067152
 20
35.32402168271742
 30
0.0
 11
-7.97233122942152
 21
35.32402168271742
 31
0.0
  0
LINE
  5
84
330
1F
100
AcDbEntity
  8
1
  6
Continuous
 62
     7
100
AcDbLine
 10
-7.97233122942152
 20
39.2240216827174
 30
0.0
 11
-7.97233122942152
 21
35.32402168271742
 31
0.0
  0
LINE
  5
85
330
1F
100
AcDbEntity
  8
1
  6
DASHED
 62
     2
100
AcDbLine
 10
-9.97000701067152
 20
36.7240216827174
 30
0.0
 11
-8.57000701067152
 21
35.32402168271742
 31
0.0
  0
LINE
  5
86
330
1F
100
AcDbEntity
  8
1
  6
Continuous
 62
     7
100
AcDbLine
 10
-9.97000701067152
 20
29.72402168271741
 30
0.0
 11
-9.97000701067152
 21
36.7240216827174
 31
0.0
  0
LINE
  5
87
330
1F
100
AcDbEntity
  8
1
  6
DASHED
 62
     2
100
AcDbLine
 10
-8.57000701067152
 20
31.12402168271741
 30
0.0
 11
-7.97233122942152
 21
31.12402168271741
 31
0.0
  0
LINE
  5
88
330
1F
100
AcDbEntity
  8
1
  6
Continuous
 62
     7
100
AcDbLine
 10
-7.97233122942152
 20
35.32402168271742
 30
0.0
 11
-7.97233122942152
 21
31.12402168271741
 31
0.0
  0
LINE
  5
89
330
1F
100
AcDbEntity
  8
1
  6
DASHED
 62
     2
100
AcDbLine
 10
-9.97000701067152
 20
29.72402168271741
 30
0.0
 11
-8.57000701067152
 21
31.12402168271741
 31
0.0
  0
LINE
  5
8A
330
1F
100
AcDbEntity
  8
1
  6
Continuous
 62
     7
100
AcDbLine
 10
-9.97000701067152
 20
20.72402168271741
 30
0.0
 11
-9.97000701067152
 21
29.72402168271741
 31
0.0
  0
LINE
  5
8B
330
1F
100
AcDbEntity
  8
1
  6
DASHED
 62
     2
100
AcDbLine
 10
-8.57000701067152
 20
31.12402168271741
 30
0.0
 11
-8.57000701067152
 21
35.32402168271742
 31
0.0
  0
LINE
  5
8C
330
1F
100
AcDbEntity
  8
1
  6
DASHED
 62
     2
100
AcDbLine
 10
-8.57000701067152
 20
19.3240216827174
 30
0.0
 11
-7.97233122942152
 21
19.3240216827174
 31
0.0
  0
LINE
  5
8D
330
1F
100
AcDbEntity
  8
1
  6
Continuous
 62
     7
100
AcDbLine
 10
-7.97233122942152
 20
31.12402168271741
 30
0.0
 11
-7.97233122942152
 21
19.3240216827174
 31
0.0
  0
LINE
  5
8E
330
1F
100
AcDbEntity
  8
1
  6
DASHED
 62
     2
100
AcDbLine
 10
-9.97000701067152
 20
20.72402168271741
 30
0.0
 11
-8.57000701067152
 21
19.3240216827174
 31
0.0
  0
LINE
  5
8F
330
1F
100
AcDbEntity
  8
1
  6
Continuous
 62
     7
100
AcDbLine
 10
-9.97000701067152
 20
13.72402168271741
 30
0.0
 11
-9.97000701067152
 21
20.72402168271741
 31
0.0
  0
LINE
  5
90
330
1F
100
AcDbEntity
  8
1
  6
DASHED
 62
     2
100
AcDbLine
 10
-8.57000701067152
 20
15.12402168271741
 30
0.0
 11
-7.97233122942152
 21
15.12402168271741
 31
0.0
  0
LINE
  5
91
330
1F
100
AcDbEntity
  8
1
  6
Continuous
 62
     7
100
AcDbLine
 10
-7.97233122942152
 20
19.3240216827174
 30
0.0
 11
-7.97233122942152
 21
15.12402168271741
 31
0.0
  0
LINE
  5
92
330
1F
100
AcDbEntity
  8
1
  6
DASHED
 62
     2
100
AcDbLine
 10
-9.97000701067152
 20
13.72402168271741
 30
0.0
 11
-8.57000701067152
 21
15.12402168271741
 31
0.0
  0
LINE
  5
93
330
1F
100
AcDbEntity
  8
1
  6
Continuous
 62
     7
100
AcDbLine
 10
-9.97000701067152
 20
-0.27597831728259
 30
0.0
 11
-9.97000701067152
 21
13.72402168271741
 31
0.0
  0
LINE
  5
94
330
1F
100
AcDbEntity
  8
1
  6
DASHED
 62
     2
100
AcDbLine
 10
-8.57000701067152
 20
15.12402168271741
 30
0.0
 11
-8.57000701067152
 21
19.3240216827174
 31
0.0
  0
LINE
  5
95
330
1F
100
AcDbEntity
  8
1
  6
Continuous
 62
     7
100
AcDbLine
 10
-8.67233122942152
 20
-2.77597831728259
 30
0.0
 11
-10.17233122942152
 21
-2.77597831728259
 31
0.0
  0
LINE
  5
96
330
1F
100
AcDbEntity
  8
1
  6
Continuous
 62
     7
100
AcDbLine
 10
-8.67233122942152
 20
-7.77597831728259
 30
0.0
 11
-8.67233122942152
 21
-2.77597831728259
 31
0.0
  0
LINE
  5
97
330
1F
100
AcDbEntity
  8
1
  6
Continuous
 62
     7
100
AcDbLine
 10
-10.17233122942152
 20
-18.77597831728259
 30
0.0
 11
-8.67233122942152
 21
-18.77597831728259
 31
0.0
  0
LINE
  5
98
330
1F
100
AcDbEntity
  8
1
  6
Continuous
 62
     7
100
AcDbLine
 10
-7.97233122942152
 20
-18.77597831728259
 30
0.0
 11
-8.67233122942152
 21
-18.77597831728259
 31
0.0
  0
LINE
  5
99
330
1F
100
AcDbEntity
  8
1
  6
Continuous
 62
     7
100
AcDbLine
 10
-8.67233122942152
 20
-7.77597831728259
 30
0.0
 11
-7.97233122942152
 21
-7.77597831728259
 31
0.0
  0
LINE
  5
9A
330
1F
100
AcDbEntity
  8
1
  6
Continuous
 62
     7
100
AcDbLine
 10
-8.67233122942152
 20
-17.77597831728259
 30
0.0
 11
-8.67233122942152
 21
-7.77597831728259
 31
0.0
  0
LINE
  5
9B
330
1F
100
AcDbEntity
  8
1
  6
Continuous
 62
     7
100
AcDbLine
 10
-8.67233122942152
 20
-17.77597831728259
 30
0.0
 11
-7.97233122942152
 21
-17.77597831728259
 31
0.0
  0
LINE
  5
9C
330
1F
100
AcDbEntity
  8
1
  6
Continuous
 62
     7
100
AcDbLine
 10
-8.67233122942152
 20
-18.77597831728259
 30
0.0
 11
-8.67233122942152
 21
-17.77597831728259
 31
0.0
  0
LINE
  5
9D
330
1F
100
AcDbEntity
  8
1
  6
Continuous
 62
     7
100
AcDbLine
 10
-3.67233122942152
 20
-17.77597831728259
 30
0.0
 11
-3.67233122942152
 21
-7.77597831728259
 31
0.0
  0
LINE
  5
9E
330
1F
100
AcDbEntity
  8
1
  6
Continuous
 62
     7
100
AcDbLine
 10
4.72766877057852
 20
-7.77597831728259
 30
0.0
 11
-3.67233122942152
 21
-7.77597831728259
 31
0.0
  0
LINE
  5
9F
330
1F
100
AcDbEntity
  8
1
  6
Continuous
 62
     7
100
AcDbLine
 10
-7.97233122942152
 20
-17.77597831728259
 30
0.0
 11
-3.67233122942152
 21
-17.77597831728259
 31
0.0
  0
LINE
  5
A0
330
1F
100
AcDbEntity
  8
1
  6
Continuous
 62
     7
100
AcDbLine
 10
8.22766877057852
 20
-16.77597831728259
 30
0.0
 11
10.72766877057852
 21
-16.77597831728259
 31
0.0
  0
LINE
  5
A1
330
1F
100
AcDbEntity
  8
1
  6
Continuous
 62
     7
100
AcDbLine
 10
8.22766877057852
 20
-16.77597831728259
 30
0.0
 11
8.22766877057852
 21
-18.77597831728259
 31
0.0
  0
LINE
  5
A2
330
1F
100
AcDbEntity
  8
1
  6
Continuous
 62
     7
100
AcDbLine
 10
10.72766877057852
 20
-16.77597831728259
 30
0.0
 11
10.72766877057852
 21
-20.77597831728259
 31
0.0
  0
LINE
  5
A3
330
1F
100
AcDbEntity
  8
1
  6
Continuous
 62
     7
100
AcDbLine
 10
10.72766877057852
 20
-36.77597831728259
 30
0.0
 11
7.22766877057852
 21
-36.77597831728259
 31
0.0
  0
LINE
  5
A4
330
1F
100
AcDbEntity
  8
1
  6
Continuous
 62
     7
100
AcDbLine
 10
-4.77233122942148
 20
-36.77597831728259
 30
0.0
 11
-4.77233122942147
 21
-46.77597831728259
 31
0.0
  0
LINE
  5
A5
330
1F
100
AcDbEntity
  8
1
  6
Continuous
 62
     7
100
AcDbLine
 10
-4.77233122942148
 20
-36.77597831728259
 30
0.0
 11
-8.18216128567216
 21
-36.77597831728259
 31
0.0
  0
LINE
  5
A6
330
1F
100
AcDbEntity
  8
1
  6
Continuous
 62
     7
100
AcDbLine
 10
-13.77233122942148
 20
-34.27597831728271
 30
0.0
 11
-10.17233122942152
 21
-34.27597831728271
 31
0.0
  0
LINE
  5
A7
330
1F
100
AcDbEntity
  8
1
  6
DOT_CENTER
 62
     2
100
AcDbLine
 10
-13.77233122942148
 20
-34.27597831728271
 30
0.0
 11
-13.77233122942148
 21
15.72402168271735
 31
0.0
  0
LINE
  5
A8
330
1F
100
AcDbEntity
  8
1
  6
Continuous
 62
     7
100
AcDbLine
 10
-10.17233122942152
 20
-34.27597831728271
 30
0.0
 11
-4.77233122942148
 21
-34.27597831728271
 31
0.0
  0
LINE
  5
A9
330
1F
100
AcDbEntity
  8
1
  6
DASHED
 62
     2
100
AcDbLine
 10
-4.77233122942148
 20
-34.27597831728271
 30
0.0
 11
-4.77233122942148
 21
-34.9759783172827
 31
0.0
  0
LINE
  5
AA
330
1F
100
AcDbEntity
  8
1
  6
Continuous
 62
     7
100
AcDbLine
 10
-4.77233122942148
 20
-34.27597831728271
 30
0.0
 11
7.72766877057853
 21
-34.27597831728271
 31
0.0
  0
LINE
  5
AB
330
1F
100
AcDbEntity
  8
1
  6
Continuous
 62
     7
100
AcDbLine
 10
10.72766877057853
 20
-33.77597831728259
 30
0.0
 11
10.72766877057852
 21
-36.77597831728259
 31
0.0
  0
LINE
  5
AC
330
1F
100
AcDbEntity
  8
1
  6
Continuous
 62
     7
100
AcDbLine
 10
7.22766877057852
 20
-36.77597831728259
 30
0.0
 11
-4.77233122942148
 21
-36.77597831728259
 31
0.0
  0
LINE
  5
AD
330
1F
100
AcDbEntity
  8
1
  6
Continuous
 62
     7
100
AcDbLine
 10
8.22766877057852
 20
-33.77597831728259
 30
0.0
 11
8.92766877057852
 21
-33.77597831728259
 31
0.0
  0
LINE
  5
AE
330
1F
100
AcDbEntity
  8
1
  6
Continuous
 62
     7
100
AcDbLine
 10
8.92766877057852
 20
-33.77597831728259
 30
0.0
 11
8.92766877057852
 21
-34.27597831728271
 31
0.0
  0
LINE
  5
AF
330
1F
100
AcDbEntity
  8
1
  6
Continuous
 62
     7
100
AcDbLine
 10
8.92766877057852
 20
-33.77597831728259
 30
0.0
 11
10.72766877057853
 21
-33.77597831728259
 31
0.0
  0
LINE
  5
B0
330
1F
100
AcDbEntity
  8
1
  6
Continuous
 62
     7
100
AcDbLine
 10
8.22766877057852
 20
-34.9759783172827
 30
0.0
 11
-6.27233122942146
 21
-34.9759783172827
 31
0.0
  0
LINE
  5
B1
330
1F
100
AcDbEntity
  8
1
  6
Continuous
 62
     7
100
AcDbLine
 10
-6.27233122942146
 20
-34.9759783172827
 30
0.0
 11
-6.27233122942146
 21
-36.77597831728259
 31
0.0
  0
LINE
  5
B2
330
1F
100
AcDbEntity
  8
1
  6
DOT_CENTER
 62
     2
100
AcDbLine
 10
28.02766877057848
 20
-23.77597831728259
 30
0.0
 11
6.72766877057852
 21
-23.77597831728259
 31
0.0
  0
LINE
  5
B3
330
1F
100
AcDbEntity
  8
1
  6
DASHED
 62
     2
100
AcDbLine
 10
10.72766877057852
 20
-26.77597831728259
 30
0.0
 11
10.22766877057852
 21
-26.77597831728259
 31
0.0
  0
LINE
  5
B4
330
1F
100
AcDbEntity
  8
1
  6
Continuous
 62
     7
100
AcDbLine
 10
10.72766877057852
 20
-26.77597831728259
 30
0.0
 11
10.72766877057852
 21
-30.77597831728259
 31
0.0
  0
LINE
  5
B5
330
1F
100
AcDbEntity
  8
1
  6
DASHED
 62
     2
100
AcDbLine
 10
10.22766877057852
 20
-26.77597831728259
 30
0.0
 11
8.22766877057852
 21
-28.77597831728259
 31
0.0
  0
LINE
  5
B6
330
1F
100
AcDbEntity
  8
1
  6
Continuous
 62
     7
100
AcDbLine
 10
8.22766877057852
 20
-28.77597831728259
 30
0.0
 11
8.22766877057852
 21
-32.77597831728259
 31
0.0
  0
LINE
  5
B7
330
1F
100
AcDbEntity
  8
1
  6
DASHED
 62
     2
100
AcDbLine
 10
10.72766877057852
 20
-20.77597831728259
 30
0.0
 11
10.22766877057852
 21
-20.77597831728259
 31
0.0
  0
LINE
  5
B8
330
1F
100
AcDbEntity
  8
1
  6
Continuous
 62
     7
100
AcDbLine
 10
10.72766877057852
 20
-20.77597831728259
 30
0.0
 11
10.72766877057852
 21
-24.77597831728259
 31
0.0
  0
LINE
  5
B9
330
1F
100
AcDbEntity
  8
1
  6
DASHED
 62
     2
100
AcDbLine
 10
10.22766877057852
 20
-20.77597831728259
 30
0.0
 11
8.22766877057852
 21
-18.77597831728259
 31
0.0
  0
LINE
  5
BA
330
1F
100
AcDbEntity
  8
1
  6
Continuous
 62
     7
100
AcDbLine
 10
8.22766877057852
 20
-18.77597831728259
 30
0.0
 11
8.22766877057852
 21
-22.77597831728259
 31
0.0
  0
LINE
  5
BB
330
1F
100
AcDbEntity
  8
1
  6
DASHED
 62
     2
100
AcDbLine
 10
10.22766877057852
 20
-26.77597831728259
 30
0.0
 11
10.22766877057852
 21
-24.77597831728259
 31
0.0
  0
LINE
  5
BC
330
1F
100
AcDbEntity
  8
1
  6
DOT_CENTER
 62
     2
100
AcDbLine
 10
28.02766877057848
 20
-27.77597831728259
 30
0.0
 11
6.72766877057852
 21
-27.77597831728259
 31
0.0
  0
LINE
  5
BD
330
1F
100
AcDbEntity
  8
1
  6
DASHED
 62
     2
100
AcDbLine
 10
10.72766877057852
 20
-30.77597831728259
 30
0.0
 11
10.22766877057852
 21
-30.77597831728259
 31
0.0
  0
LINE
  5
BE
330
1F
100
AcDbEntity
  8
1
  6
Continuous
 62
     7
100
AcDbLine
 10
10.72766877057852
 20
-30.77597831728259
 30
0.0
 11
10.72766877057853
 21
-33.77597831728259
 31
0.0
  0
LINE
  5
BF
330
1F
100
AcDbEntity
  8
1
  6
DASHED
 62
     2
100
AcDbLine
 10
10.22766877057852
 20
-30.77597831728259
 30
0.0
 11
8.22766877057852
 21
-32.77597831728259
 31
0.0
  0
LINE
  5
C0
330
1F
100
AcDbEntity
  8
1
  6
Continuous
 62
     7
100
AcDbLine
 10
8.22766877057852
 20
-32.77597831728259
 30
0.0
 11
8.22766877057852
 21
-33.77597831728259
 31
0.0
  0
LINE
  5
C1
330
1F
100
AcDbEntity
  8
1
  6
DASHED
 62
     2
100
AcDbLine
 10
10.72766877057852
 20
-24.77597831728259
 30
0.0
 11
10.22766877057852
 21
-24.77597831728259
 31
0.0
  0
LINE
  5
C2
330
1F
100
AcDbEntity
  8
1
  6
Continuous
 62
     7
100
AcDbLine
 10
10.72766877057852
 20
-24.77597831728259
 30
0.0
 11
10.72766877057852
 21
-26.77597831728259
 31
0.0
  0
LINE
  5
C3
330
1F
100
AcDbEntity
  8
1
  6
DASHED
 62
     2
100
AcDbLine
 10
10.22766877057852
 20
-24.77597831728259
 30
0.0
 11
10.22766877057852
 21
-20.77597831728259
 31
0.0
  0
LINE
  5
C4
330
1F
100
AcDbEntity
  8
1
  6
DASHED
 62
     2
100
AcDbLine
 10
10.22766877057852
 20
-24.77597831728259
 30
0.0
 11
8.22766877057852
 21
-22.77597831728259
 31
0.0
  0
LINE
  5
C5
330
1F
100
AcDbEntity
  8
1
  6
Continuous
 62
     7
100
AcDbLine
 10
8.22766877057852
 20
-22.77597831728259
 30
0.0
 11
8.22766877057852
 21
-28.77597831728259
 31
0.0
  0
LINE
  5
C6
330
1F
100
AcDbEntity
  8
1
  6
DASHED
 62
     2
100
AcDbLine
 10
10.22766877057852
 20
-30.77597831728259
 30
0.0
 11
10.22766877057852
 21
-24.77597831728259
 31
0.0
  0
ARC
  5
C7
330
1F
100
AcDbEntity
  8
1
  6
Continuous
 62
     7
100
AcDbCircle
 10
-13.77233122942148
 20
-41.77597831728259
 30
0.0
 40
7.499999999999886
100
AcDbArc
 50
90.0
 51
118.6854020141196
  0
ARC
  5
C8
330
1F
100
AcDbEntity
  8
1
  6
Continuous
 62
     7
100
AcDbCircle
 10
-13.77233122942148
 20
-41.77597831728259
 30
0.0
 40
7.499999999999886
100
AcDbArc
 50
41.81031489577937
 51
90.0
  0
ARC
  5
C9
330
1F
100
AcDbEntity
  8
1
  6
Continuous
 62
     7
100
AcDbCircle
 10
-12.52233122942152
 20
-1.52597831728259
 30
0.0
 40
1.25
100
AcDbArc
 50
90.0
 51
-90.0
  0
ARC
  5
CA
330
1F
100
AcDbEntity
  8
1
  6
Continuous
 62
     7
100
AcDbCircle
 10
-13.77233122942148
 20
-41.77597831728259
 30
0.0
 40
7.499999999999924
100
AcDbArc
 50
118.6854020141196
 51
41.81031489577937
  0
ARC
  5
CB
330
1F
100
AcDbEntity
  8
1
  6
Continuous
 62
     7
100
AcDbCircle
 10
7.47766877057852
 20
-33.52597831728269
 30
0.0
 40
3.259601202601225
100
AcDbArc
 50
-94.39870535499563
 51
-4.39870535499377
  0
ARC
  5
CC
330
1F
100
AcDbEntity
  8
1
  6
Continuous
 62
     7
100
AcDbCircle
 10
7.72766877057852
 20
-33.77597831728271
 30
0.0
 40
0.5
100
AcDbArc
 50
-89.99999999999949
 51
0.00000000001303
  0
ARC
  5
CD
330
1F
100
AcDbEntity
  8
1
  6
Continuous
 62
     7
100
AcDbCircle
 10
8.22766877057852
 20
-34.27597831728271
 30
0.0
 40
0.6999999999999957
100
AcDbArc
 50
-89.99999999999986
 51
0.0
  0
DIMENSION
  5
D9
330
1F
100
AcDbEntity
  8
1
100
AcDbDimension
  2
*D1
 10
62.07914309961588
 20
-16.7759783172826
 30
0.0
 11
58.32914309961588
 21
-26.724681421174
 31
0.0
 70
    32
  1
<>
 71
     5
 42
-1.0
 53
90.0
  3
ME10_DIM_10
100
AcDbAlignedDimension
 13
10.72766877057852
 23
-36.77597831728259
 33
0.0
 14
10.72766877057852
 24
-16.77597831728259
 34
0.0
 50
90.0
100
AcDbRotatedDimension
  0
DIMENSION
  5
E4
330
1F
100
AcDbEntity
  8
1
100
AcDbDimension
  2
*D2
 10
-13.77233122942148
 20
55.4383600771078
 30
0.0
 11
-5.09637272782932
 21
59.1883600771078
 31
0.0
 70
    32
  1
<>
 71
     5
 42
-1.0
 53
0.00013888888889
  3
ME10_DIM_11
100
AcDbAlignedDimension
 13
4.72766877057852
 23
-17.77597831728259
 33
0.0
 14
-13.77233122942148
 24
43.08159002034459
 34
0.0
100
AcDbRotatedDimension
  0
DIMENSION
  5
EF
330
1F
100
AcDbEntity
  8
1
100
AcDbDimension
  2
*D3
 10
-4.77233122942147
 20
-66.7446553018678
 30
0.0
 11
2.4564691956506
 21
-62.9946553018678
 31
0.0
 70
    32
  1
<>
 71
     5
 42
-1.0
 53
0.00013888888889
  3
ME10_DIM_12
100
AcDbAlignedDimension
 13
8.22766877057852
 23
-28.77597831728259
 33
0.0
 14
-4.77233122942147
 24
-46.77597831728259
 34
0.0
100
AcDbRotatedDimension
  0
DIMENSION
  5
FC
330
1F
100
AcDbEntity
  8
1
100
AcDbDimension
  2
*D4
 10
4.72766877057852
 20
-57.17733342859201
 30
0.0
 11
0.72993605270861
 21
-53.42733342859201
 31
0.0
 70
    32
  1
<>
 71
     5
 42
-1.0
 53
0.00013888888889
  3
ME10_DIM_13
100
AcDbAlignedDimension
 13
8.22766877057852
 23
-33.77597831728259
 33
0.0
 14
4.72766877057852
 24
-32.77597831728259
 34
0.0
100
AcDbRotatedDimension
  0
DIMENSION
  5
107
330
1F
100
AcDbEntity
  8
1
100
AcDbDimension
  2
*D5
 10
-13.77233122942148
 20
-77.3401931601316
 30
0.0
 11
-3.28434983575013
 21
-73.5901931601316
 31
0.0
 70
    32
  1
<>
 71
     5
 42
-1.0
 53
0.00013888888889
  3
ME10_DIM_14
100
AcDbAlignedDimension
 13
8.22766877057852
 23
-32.77597831728259
 33
0.0
 14
-13.77233122942148
 24
-51.24758755933179
 34
0.0
100
AcDbRotatedDimension
  0
DIMENSION
  5
115
330
1F
100
AcDbEntity
  8
1
100
AcDbDimension
  2
*D6
 10
8.22766877057852
 20
-77.3401931601316
 30
0.0
 11
15.6682708092272
 21
-73.5901931601316
 31
0.0
 70
    32
  1
<>
 71
     5
 42
-1.0
 53
0.00013888888889
  3
ME10_DIM_15
100
AcDbAlignedDimension
 13
10.72766877057852
 23
-36.77597831728259
 33
0.0
 14
8.22766877057852
 24
-32.77597831728259
 34
0.0
100
AcDbRotatedDimension
  0
ENDSEC
  0
SECTION
  2
OBJECTS
  0
DICTIONARY
  5
C
330
0
100
AcDbDictionary
281
     1
  3
ACAD_GROUP
350
D
  3
ACAD_LAYOUT
350
1A
  3
ACAD_MLINESTYLE
350
17
  3
ACAD_PLOTSETTINGS
350
19
  3
ACAD_PLOTSTYLENAME
350
E
  0
DICTIONARY
  5
D
102
{ACAD_REACTORS
330
C
102
}
330
C
100
AcDbDictionary
281
     1
  0
DICTIONARY
  5
1A
102
{ACAD_REACTORS
330
C
102
}
330
C
100
AcDbDictionary
281
     1
  3
Layout1
350
1E
  3
Layout2
350
26
  3
Model
350
22
  0
DICTIONARY
  5
17
102
{ACAD_REACTORS
330
C
102
}
330
C
100
AcDbDictionary
281
     1
  3
Standard
350
18
  0
DICTIONARY
  5
19
102
{ACAD_REACTORS
330
C
102
}
330
C
100
AcDbDictionary
281
     1
  0
ACDBDICTIONARYWDFLT
  5
E
102
{ACAD_REACTORS
330
C
102
}
330
C
100
AcDbDictionary
281
     1
  3
Normal
350
F
100
AcDbDictionaryWithDefault
340
F
  0
LAYOUT
  5
1E
102
{ACAD_REACTORS
330
1A
102
}
330
1A
100
AcDbPlotSettings
  1

  2

  4

  6

 40
0.0
 41
0.0
 42
0.0
 43
0.0
 44
0.0
 45
0.0
 46
0.0
 47
0.0
 48
0.0
 49
0.0
140
0.0
141
0.0
142
1.0
143
1.0
 70
   688
 72
     0
 73
     0
 74
     5
  7

 75
    16
 76
     0
 77
     2
 78
   300
147
1.0
148
0.0
149
0.0
100
AcDbLayout
  1
Layout1
 70
     1
 71
     1
 10
0.0
 20
0.0
 11
0.0
 21
0.0
 12
0.0
 22
0.0
 32
0.0
 14
0.0
 24
0.0
 34
0.0
 15
0.0
 25
0.0
 35
0.0
146
0.0
 13
0.0
 23
0.0
 33
0.0
 16
1.0
 26
0.0
 36
0.0
 17
0.0
 27
1.0
 37
0.0
 76
     0
330
1B
  0
LAYOUT
  5
26
102
{ACAD_REACTORS
330
1A
102
}
330
1A
100
AcDbPlotSettings
  1

  2

  4

  6

 40
0.0
 41
0.0
 42
0.0
 43
0.0
 44
0.0
 45
0.0
 46
0.0
 47
0.0
 48
0.0
 49
0.0
140
0.0
141
0.0
142
1.0
143
1.0
 70
   688
 72
     0
 73
     0
 74
     5
  7

 75
    16
 76
     0
 77
     2
 78
   300
147
1.0
148
0.0
149
0.0
100
AcDbLayout
  1
Layout2
 70
     1
 71
     2
 10
0.0
 20
0.0
 11
0.0
 21
0.0
 12
0.0
 22
0.0
 32
0.0
 14
0.0
 24
0.0
 34
0.0
 15
0.0
 25
0.0
 35
0.0
146
0.0
 13
0.0
 23
0.0
 33
0.0
 16
1.0
 26
0.0
 36
0.0
 17
0.0
 27
1.0
 37
0.0
 76
     0
330
23
  0
LAYOUT
  5
22
102
{ACAD_REACTORS
330
1A
102
}
330
1A
100
AcDbPlotSettings
  1

  2

  4

  6

 40
0.0
 41
0.0
 42
0.0
 43
0.0
 44
0.0
 45
0.0
 46
0.0
 47
0.0
 48
0.0
 49
0.0
140
0.0
141
0.0
142
1.0
143
1.0
 70
  1712
 72
     0
 73
     0
 74
     0
  7

 75
     0
 76
     0
 77
     2
 78
   300
147
1.0
148
0.0
149
0.0
100
AcDbLayout
  1
Model
 70
     1
 71
     0
 10
0.0
 20
0.0
 11
0.0
 21
0.0
 12
0.0
 22
0.0
 32
0.0
 14
-44.97233122942152
 24
-79.3401931601316
 34
0.0
 15
64.07914309961588
 25
60.9383600771078
 35
0.0
146
0.0
 13
0.0
 23
0.0
 33
0.0
 16
1.0
 26
0.0
 36
0.0
 17
0.0
 27
1.0
 37
0.0
 76
     0
330
1F
  0
MLINESTYLE
  5
18
102
{ACAD_REACTORS
330
17
102
}
330
17
100
AcDbMlineStyle
  2
Standard
 70
     0
  3

 62
   256
 51
90.0
 52
90.0
 71
     2
 49
0.5
 62
   256
  6
BYLAYER
 49
-0.5
 62
   256
  6
BYLAYER
  0
ACDBPLACEHOLDER
  5
F
102
{ACAD_REACTORS
330
E
102
}
330
E
  0
ENDSEC
  0
EOF
