  0
SECTION
  2
HEADER
  9
$ACADVER
  1
AC1018
  9
$ACADMAINTVER
 70
     0
  9
$DWGCODEPAGE
  3
ANSI_1252
  9
$INSBASE
 10
0.0
 20
0.0
 30
0.0
  9
$EXTMIN
 10
-47.5190221647287
 20
-138.8094261340885
 30
0.0
  9
$EXTMAX
 10
55.28206302196909
 20
-43.5623767910425
 30
0.0
  9
$LIMMIN
 10
0.0
 20
0.0
  9
$LIMMAX
 10
12.0
 20
9.0
  9
$ORTHOMODE
 70
     0
  9
$REGENMODE
 70
     1
  9
$FILLMODE
 70
     1
  9
$QTEXTMODE
 70
     0
  9
$MIRRTEXT
 70
     1
  9
$LTSCALE
 40
1.0
  9
$ATTMODE
 70
     1
  9
$TEXTSIZE
 40
0.2
  9
$TRACEWID
 40
0.05
  9
$TEXTSTYLE
  7
Standard
  9
$CLAYER
  8
0
  9
$CELTYPE
  6
ByLayer
  9
$CECOLOR
 62
   256
  9
$CELTSCALE
 40
1.0
  9
$DISPSILH
 70
     0
  9
$DIMSCALE
 40
1.0
  9
$DIMASZ
 40
0.18
  9
$DIMEXO
 40
0.0625
  9
$DIMDLI
 40
0.38
  9
$DIMRND
 40
0.0
  9
$DIMDLE
 40
0.0
  9
$DIMEXE
 40
0.18
  9
$DIMTP
 40
0.0
  9
$DIMTM
 40
0.0
  9
$DIMTXT
 40
0.18
  9
$DIMCEN
 40
0.09
  9
$DIMTSZ
 40
0.0
  9
$DIMTOL
 70
     0
  9
$DIMLIM
 70
     0
  9
$DIMTIH
 70
     1
  9
$DIMTOH
 70
     1
  9
$DIMSE1
 70
     0
  9
$DIMSE2
 70
     0
  9
$DIMTAD
 70
     0
  9
$DIMZIN
 70
     0
  9
$DIMBLK
  1

  9
$DIMASO
 70
     1
  9
$DIMSHO
 70
     1
  9
$DIMPOST
  1

  9
$DIMAPOST
  1

  9
$DIMALT
 70
     0
  9
$DIMALTD
 70
     2
  9
$DIMALTF
 40
25.4
  9
$DIMLFAC
 40
1.0
  9
$DIMTOFL
 70
     0
  9
$DIMTVP
 40
0.0
  9
$DIMTIX
 70
     0
  9
$DIMSOXD
 70
     0
  9
$DIMSAH
 70
     0
  9
$DIMBLK1
  1

  9
$DIMBLK2
  1

  9
$DIMSTYLE
  2
Standard
  9
$DIMCLRD
 70
     0
  9
$DIMCLRE
 70
     0
  9
$DIMCLRT
 70
     0
  9
$DIMTFAC
 40
1.0
  9
$DIMGAP
 40
0.09
  9
$DIMJUST
 70
     0
  9
$DIMSD1
 70
     0
  9
$DIMSD2
 70
     0
  9
$DIMTOLJ
 70
     1
  9
$DIMTZIN
 70
     0
  9
$DIMALTZ
 70
     0
  9
$DIMALTTZ
 70
     0
  9
$DIMUPT
 70
     0
  9
$DIMDEC
 70
     4
  9
$DIMTDEC
 70
     4
  9
$DIMALTU
 70
     2
  9
$DIMALTTD
 70
     2
  9
$DIMTXSTY
  7
Standard
  9
$DIMAUNIT
 70
     0
  9
$DIMADEC
 70
     0
  9
$DIMALTRND
 40
0.0
  9
$DIMAZIN
 70
     0
  9
$DIMDSEP
 70
    46
  9
$DIMATFIT
 70
     3
  9
$DIMFRAC
 70
     0
  9
$DIMLDRBLK
  1

  9
$DIMLUNIT
 70
     2
  9
$DIMLWD
 70
    -2
  9
$DIMLWE
 70
    -2
  9
$DIMTMOVE
 70
     0
  9
$LUNITS
 70
     2
  9
$LUPREC
 70
     4
  9
$SKETCHINC
 40
0.1
  9
$FILLETRAD
 40
0.5
  9
$AUNITS
 70
     0
  9
$AUPREC
 70
     0
  9
$MENU
  1
.
  9
$ELEVATION
 40
0.0
  9
$PELEVATION
 40
0.0
  9
$THICKNESS
 40
0.0
  9
$LIMCHECK
 70
     0
  9
$CHAMFERA
 40
0.5
  9
$CHAMFERB
 40
0.5
  9
$CHAMFERC
 40
1.0
  9
$CHAMFERD
 40
0.0
  9
$SKPOLY
 70
     0
  9
$TDCREATE
 40
2456220.477043923
  9
$TDUCREATE
 40
2456220.39371059
  9
$TDUPDATE
 40
2456220.477043935
  9
$TDUUPDATE
 40
2456220.393710602
  9
$TDINDWG
 40
0.0000000116
  9
$TDUSRTIMER
 40
0.0000000116
  9
$USRTIMER
 70
     1
  9
$ANGBASE
 50
0.0
  9
$ANGDIR
 70
     0
  9
$PDMODE
 70
     0
  9
$PDSIZE
 40
0.0
  9
$PLINEWID
 40
0.0
  9
$SPLFRAME
 70
     0
  9
$SPLINETYPE
 70
     6
  9
$SPLINESEGS
 70
     8
  9
$HANDSEED
  5
F5
  9
$SURFTAB1
 70
     6
  9
$SURFTAB2
 70
     6
  9
$SURFTYPE
 70
     6
  9
$SURFU
 70
     6
  9
$SURFV
 70
     6
  9
$UCSBASE
  2

  9
$UCSNAME
  2

  9
$UCSORG
 10
0.0
 20
0.0
 30
0.0
  9
$UCSXDIR
 10
1.0
 20
0.0
 30
0.0
  9
$UCSYDIR
 10
0.0
 20
1.0
 30
0.0
  9
$UCSORTHOREF
  2

  9
$UCSORTHOVIEW
 70
     0
  9
$UCSORGTOP
 10
0.0
 20
0.0
 30
0.0
  9
$UCSORGBOTTOM
 10
0.0
 20
0.0
 30
0.0
  9
$UCSORGLEFT
 10
0.0
 20
0.0
 30
0.0
  9
$UCSORGRIGHT
 10
0.0
 20
0.0
 30
0.0
  9
$UCSORGFRONT
 10
0.0
 20
0.0
 30
0.0
  9
$UCSORGBACK
 10
0.0
 20
0.0
 30
0.0
  9
$PUCSBASE
  2

  9
$PUCSNAME
  2

  9
$PUCSORG
 10
0.0
 20
0.0
 30
0.0
  9
$PUCSXDIR
 10
1.0
 20
0.0
 30
0.0
  9
$PUCSYDIR
 10
0.0
 20
1.0
 30
0.0
  9
$PUCSORTHOREF
  2

  9
$PUCSORTHOVIEW
 70
     0
  9
$PUCSORGTOP
 10
0.0
 20
0.0
 30
0.0
  9
$PUCSORGBOTTOM
 10
0.0
 20
0.0
 30
0.0
  9
$PUCSORGLEFT
 10
0.0
 20
0.0
 30
0.0
  9
$PUCSORGRIGHT
 10
0.0
 20
0.0
 30
0.0
  9
$PUCSORGFRONT
 10
0.0
 20
0.0
 30
0.0
  9
$PUCSORGBACK
 10
0.0
 20
0.0
 30
0.0
  9
$USERI1
 70
     0
  9
$USERI2
 70
     0
  9
$USERI3
 70
     0
  9
$USERI4
 70
     0
  9
$USERI5
 70
     0
  9
$USERR1
 40
14.5
  9
$USERR2
 40
0.0
  9
$USERR3
 40
0.0
  9
$USERR4
 40
0.0
  9
$USERR5
 40
0.0
  9
$WORLDVIEW
 70
     1
  9
$SHADEDGE
 70
     3
  9
$SHADEDIF
 70
    70
  9
$TILEMODE
 70
     1
  9
$MAXACTVP
 70
    64
  9
$PINSBASE
 10
0.0
 20
0.0
 30
0.0
  9
$PLIMCHECK
 70
     0
  9
$PEXTMIN
 10
1.00000000000000E+20
 20
1.00000000000000E+20
 30
1.00000000000000E+20
  9
$PEXTMAX
 10
-1.00000000000000E+20
 20
-1.00000000000000E+20
 30
-1.00000000000000E+20
  9
$PLIMMIN
 10
0.0
 20
0.0
  9
$PLIMMAX
 10
12.0
 20
9.0
  9
$UNITMODE
 70
     0
  9
$VISRETAIN
 70
     1
  9
$PLINEGEN
 70
     0
  9
$PSLTSCALE
 70
     1
  9
$TREEDEPTH
 70
  3020
  9
$CMLSTYLE
  2
Standard
  9
$CMLJUST
 70
     0
  9
$CMLSCALE
 40
1.0
  9
$PROXYGRAPHICS
 70
     1
  9
$MEASUREMENT
 70
     1
  9
$CELWEIGHT
370
    -1
  9
$ENDCAPS
280
     0
  9
$JOINSTYLE
280
     0
  9
$LWDISPLAY
290
     0
  9
$INSUNITS
 70
     1
  9
$HYPERLINKBASE
  1

  9
$STYLESHEET
  1

  9
$XEDIT
290
     1
  9
$CEPSNTYPE
380
     0
  9
$PSTYLEMODE
290
     1
  9
$FINGERPRINTGUID
  2
{28996FB0-774B-41EE-99E2-8C72A27C6E0D}
  9
$VERSIONGUID
  2
{FAEB1C32-E019-11D5-929B-00C0DF256EC4}
  9
$EXTNAMES
290
     1
  9
$PSVPSCALE
 40
0.0
  9
$OLESTARTUP
290
     0
  9
$SORTENTS
280
   127
  9
$INDEXCTL
280
     0
  9
$HIDETEXT
280
     1
  9
$XCLIPFRAME
290
     0
  9
$HALOGAP
280
     0
  9
$OBSCOLOR
 70
   257
  9
$OBSLTYPE
280
     0
  9
$INTERSECTIONDISPLAY
280
     0
  9
$INTERSECTIONCOLOR
 70
   257
  9
$DIMASSOC
280
     2
  9
$PROJECTNAME
  1

  0
ENDSEC
  0
SECTION
  2
CLASSES
  0
CLASS
  1
ACDBDICTIONARYWDFLT
  2
AcDbDictionaryWithDefault
  3
ObjectDBX Classes
 90
        0
 91
        3
280
     0
281
     0
  0
ENDSEC
  0
SECTION
  2
TABLES
  0
TABLE
  2
VPORT
  5
8
330
0
100
AcDbSymbolTable
 70
     1
  0
VPORT
  5
29
330
8
100
AcDbSymbolTableRecord
100
AcDbViewportTableRecord
  2
*Active
 70
     0
 10
0.0
 20
0.0
 11
1.0
 21
1.0
 12
3.88152042862019
 22
-91.18590146256551
 13
0.0
 23
0.0
 14
0.5
 24
0.5
 15
0.5
 25
0.5
 16
0.0
 26
0.0
 36
1.0
 17
0.0
 27
0.0
 37
0.0
 40
104.7717542773506
 41
1.60267857142857
 42
50.0
 43
0.0
 44
0.0
 50
0.0
 51
0.0
 71
     0
 72
   100
 73
     1
 74
     3
 75
     0
 76
     0
 77
     0
 78
     0
281
     0
 65
     1
110
0.0
120
0.0
130
0.0
111
1.0
121
0.0
131
0.0
112
0.0
122
1.0
132
0.0
 79
     0
146
0.0
  0
ENDTAB
  0
TABLE
  2
LTYPE
  5
5
330
0
100
AcDbSymbolTable
 70
     8
  0
LTYPE
  5
14
330
5
100
AcDbSymbolTableRecord
100
AcDbLinetypeTableRecord
  2
ByBlock
 70
     0
  3

 72
    65
 73
     0
 40
0.0
  0
LTYPE
  5
15
330
5
100
AcDbSymbolTableRecord
100
AcDbLinetypeTableRecord
  2
ByLayer
 70
     0
  3

 72
    65
 73
     0
 40
0.0
  0
LTYPE
  5
16
330
5
100
AcDbSymbolTableRecord
100
AcDbLinetypeTableRecord
  2
Continuous
 70
     0
  3
Solid line
 72
    65
 73
     0
 40
0.0
  0
LTYPE
  5
2A
330
5
100
AcDbSymbolTableRecord
100
AcDbLinetypeTableRecord
  2
DASHED
 70
     0
  3
Dashed
 72
    65
 73
     2
 40
15.0
 49
7.0
 74
     0
 49
-8.0
 74
     0
  0
LTYPE
  5
2B
330
5
100
AcDbSymbolTableRecord
100
AcDbLinetypeTableRecord
  2
DOTTED
 70
     0
  3
Dotted
 72
    65
 73
     2
 40
1.0
 49
0.0
 74
     0
 49
-1.0
 74
     0
  0
LTYPE
  5
2C
330
5
100
AcDbSymbolTableRecord
100
AcDbLinetypeTableRecord
  2
DOT_CENTER
 70
     0
  3
Dot_Center
 72
    65
 73
     4
 40
14.0
 49
12.0
 74
     0
 49
-1.0
 74
     0
 49
0.0
 74
     0
 49
-1.0
 74
     0
  0
LTYPE
  5
2D
330
5
100
AcDbSymbolTableRecord
100
AcDbLinetypeTableRecord
  2
LONG_DASHED
 70
     0
  3
Long_Dashed
 72
    65
 73
     2
 40
15.0
 49
10.0
 74
     0
 49
-5.0
 74
     0
  0
LTYPE
  5
2E
330
5
100
AcDbSymbolTableRecord
100
AcDbLinetypeTableRecord
  2
DASH_CENTER
 70
     0
  3
Dash_Center
 72
    65
 73
     4
 40
14.0
 49
11.0
 74
     0
 49
-1.0
 74
     0
 49
1.0
 74
     0
 49
-1.0
 74
     0
  0
LTYPE
  5
2F
330
5
100
AcDbSymbolTableRecord
100
AcDbLinetypeTableRecord
  2
PHANTOM
 70
     0
  3
Phantom
 72
    65
 73
     6
 40
13.0
 49
10.0
 74
     0
 49
-1.0
 74
     0
 49
0.0
 74
     0
 49
-1.0
 74
     0
 49
0.0
 74
     0
 49
-1.0
 74
     0
  0
LTYPE
  5
30
330
5
100
AcDbSymbolTableRecord
100
AcDbLinetypeTableRecord
  2
CENTER_DASH_DASH
 70
     0
  3
Center_Dash_Dash
 72
    65
 73
     6
 40
14.0
 49
9.0
 74
     0
 49
-1.0
 74
     0
 49
1.0
 74
     0
 49
-1.0
 74
     0
 49
1.0
 74
     0
 49
-1.0
 74
     0
  0
ENDTAB
  0
TABLE
  2
LAYER
  5
2
330
0
100
AcDbSymbolTable
 70
     2
  0
LAYER
  5
10
330
2
100
AcDbSymbolTableRecord
100
AcDbLayerTableRecord
  2
0
 70
     0
 62
     7
  6
Continuous
370
    -3
390
F
  0
LAYER
  5
31
330
2
100
AcDbSymbolTableRecord
100
AcDbLayerTableRecord
  2
1
 70
     0
 62
     7
  6
Continuous
370
    -3
390
F
  0
ENDTAB
  0
TABLE
  2
STYLE
  5
3
330
0
100
AcDbSymbolTable
 70
     2
  0
STYLE
  5
11
330
3
100
AcDbSymbolTableRecord
100
AcDbTextStyleTableRecord
  2
Standard
 70
     0
 40
0.0
 41
1.0
 50
0.0
 71
     0
 42
0.2
  3
txt
  4

  0
STYLE
  5
A4
330
3
100
AcDbSymbolTableRecord
100
AcDbTextStyleTableRecord
  2
CONVERTER_11
 70
     0
 40
0.0
 41
0.9
 50
0.0
 71
     0
 42
0.2
  3
txt.shx
  4

  0
ENDTAB
  0
TABLE
  2
VIEW
  5
6
330
0
100
AcDbSymbolTable
 70
     0
  0
ENDTAB
  0
TABLE
  2
UCS
  5
7
330
0
100
AcDbSymbolTable
 70
     0
  0
ENDTAB
  0
TABLE
  2
APPID
  5
9
330
0
100
AcDbSymbolTable
 70
     1
  0
APPID
  5
12
330
9
100
AcDbSymbolTableRecord
100
AcDbRegAppTableRecord
  2
ACAD
 70
     0
  0
ENDTAB
  0
TABLE
  2
DIMSTYLE
  5
A
330
0
100
AcDbSymbolTable
 70
     8
100
AcDbDimStyleTable
  0
DIMSTYLE
105
27
330
A
100
AcDbSymbolTableRecord
100
AcDbDimStyleTableRecord
  2
Standard
 70
     0
340
11
  0
DIMSTYLE
105
B0
102
{ACAD_REACTORS
330
B1
102
}
330
A
100
AcDbSymbolTableRecord
100
AcDbDimStyleTableRecord
  2
ME10_DIM_10
 70
     0
  3
ø<>
 41
3.5
 42
0.0
 44
2.0
 73
     0
 74
     0
 77
     1
 78
     8
140
3.5
147
2.0
172
     1
173
     1
176
     2
177
     2
178
     2
271
     2
340
A4
  0
DIMSTYLE
105
BB
102
{ACAD_REACTORS
330
BC
102
}
330
A
100
AcDbSymbolTableRecord
100
AcDbDimStyleTableRecord
  2
ME10_DIM_11
 70
     0
  3
ø<>
 41
3.5
 42
0.0
 44
2.0
 73
     0
 74
     0
 77
     1
 78
     8
140
3.5
147
2.0
172
     1
173
     1
176
     2
177
     2
178
     2
271
     2
340
A4
  0
DIMSTYLE
105
C6
102
{ACAD_REACTORS
330
C7
102
}
330
A
100
AcDbSymbolTableRecord
100
AcDbDimStyleTableRecord
  2
ME10_DIM_12
 70
     0
 41
3.5
 42
0.0
 44
2.0
 73
     0
 74
     0
 77
     1
 78
     8
140
3.5
147
2.0
172
     1
173
     1
176
     2
177
     2
178
     2
271
     2
340
A4
  0
DIMSTYLE
105
D2
102
{ACAD_REACTORS
330
D3
102
}
330
A
100
AcDbSymbolTableRecord
100
AcDbDimStyleTableRecord
  2
ME10_DIM_13
 70
     0
 41
3.5
 42
0.0
 44
2.0
 73
     0
 74
     0
 77
     1
 78
     8
140
3.5
147
2.0
172
     1
173
     1
176
     2
177
     2
178
     2
271
     2
340
A4
  0
DIMSTYLE
105
DD
102
{ACAD_REACTORS
330
DE
102
}
330
A
100
AcDbSymbolTableRecord
100
AcDbDimStyleTableRecord
  2
ME10_DIM_14
 70
     0
 41
3.5
 42
0.0
 44
2.0
 73
     0
 74
     0
 77
     1
 78
     8
140
3.5
147
2.0
172
     1
173
     1
176
     2
177
     2
178
     2
271
     2
340
A4
  0
DIMSTYLE
105
E8
102
{ACAD_REACTORS
330
E9
102
}
330
A
100
AcDbSymbolTableRecord
100
AcDbDimStyleTableRecord
  2
ME10_DIM_15
 70
     0
 41
3.5
 42
0.0
 44
2.0
 73
     0
 74
     0
 77
     1
 78
     8
140
3.5
147
2.0
172
     1
173
     1
176
     2
177
     2
178
     2
271
     2
340
A4
  0
DIMSTYLE
105
F3
102
{ACAD_REACTORS
330
F4
102
}
330
A
100
AcDbSymbolTableRecord
100
AcDbDimStyleTableRecord
  2
ME10_DIM_16
 70
     0
 41
3.5
 42
0.0
 44
2.0
 73
     0
 74
     0
 77
     1
 78
     8
140
3.5
147
2.0
172
     1
173
     1
176
     2
177
     2
178
     2
271
     2
340
A4
  0
ENDTAB
  0
TABLE
  2
BLOCK_RECORD
  5
1
330
0
100
AcDbSymbolTable
 70
     8
  0
BLOCK_RECORD
  5
1F
330
1
100
AcDbSymbolTableRecord
100
AcDbBlockTableRecord
  2
*Model_Space
340
22
  0
BLOCK_RECORD
  5
1B
330
1
100
AcDbSymbolTableRecord
100
AcDbBlockTableRecord
  2
*Paper_Space
340
1E
  0
BLOCK_RECORD
  5
23
330
1
100
AcDbSymbolTableRecord
100
AcDbBlockTableRecord
  2
*Paper_Space0
340
26
  0
BLOCK_RECORD
  5
A7
330
1
100
AcDbSymbolTableRecord
100
AcDbBlockTableRecord
  2
*D1
340
0
  0
BLOCK_RECORD
  5
B2
330
1
100
AcDbSymbolTableRecord
100
AcDbBlockTableRecord
  2
*D2
340
0
  0
BLOCK_RECORD
  5
BD
330
1
100
AcDbSymbolTableRecord
100
AcDbBlockTableRecord
  2
*D3
340
0
  0
BLOCK_RECORD
  5
C8
330
1
100
AcDbSymbolTableRecord
100
AcDbBlockTableRecord
  2
*D4
340
0
  0
BLOCK_RECORD
  5
D4
330
1
100
AcDbSymbolTableRecord
100
AcDbBlockTableRecord
  2
*D5
340
0
  0
BLOCK_RECORD
  5
DF
330
1
100
AcDbSymbolTableRecord
100
AcDbBlockTableRecord
  2
*D6
340
0
  0
BLOCK_RECORD
  5
EA
330
1
100
AcDbSymbolTableRecord
100
AcDbBlockTableRecord
  2
*D7
340
0
  0
ENDTAB
  0
ENDSEC
  0
SECTION
  2
BLOCKS
  0
BLOCK
  5
20
330
1F
100
AcDbEntity
  8
0
100
AcDbBlockBegin
  2
*Model_Space
 70
     0
 71
     0
 10
0.0
 20
0.0
 30
0.0
  3
*Model_Space
  1

  0
ENDBLK
  5
21
330
1F
100
AcDbEntity
  8
0
100
AcDbBlockEnd
  0
BLOCK
  5
1C
330
1B
100
AcDbEntity
 67
     1
  8
0
100
AcDbBlockBegin
  2
*Paper_Space
 70
     0
 71
     0
 10
0.0
 20
0.0
 30
0.0
  3
*Paper_Space
  1

  0
ENDBLK
  5
1D
330
1B
100
AcDbEntity
 67
     1
  8
0
100
AcDbBlockEnd
  0
BLOCK
  5
24
330
23
100
AcDbEntity
  8
0
100
AcDbBlockBegin
  2
*Paper_Space0
 70
     0
 71
     0
 10
0.0
 20
0.0
 30
0.0
  3
*Paper_Space0
  1

  0
ENDBLK
  5
25
330
23
100
AcDbEntity
  8
0
100
AcDbBlockEnd
  0
BLOCK
  5
AE
330
A7
100
AcDbEntity
  8
0
100
AcDbBlockBegin
  2
*D1
 70
     1
 71
     0
 10
0.0
 20
0.0
 30
0.0
  3
*D1
  1

  0
LINE
  5
A8
330
A7
100
AcDbEntity
  8
1
  6
Continuous
 62
     2
100
AcDbLine
 10
-28.27224983262971
 20
-49.0623767910425
 30
0.0
 11
-18.27224983262971
 21
-49.0623767910425
 31
0.0
  0
LINE
  5
A9
330
A7
100
AcDbEntity
  8
1
  6
Continuous
 62
     2
100
AcDbLine
 10
-28.27224983262971
 20
-60.95428877393201
 30
0.0
 11
-28.27224983262971
 21
-47.0623767910425
 31
0.0
  0
LINE
  5
AA
330
A7
100
AcDbEntity
  8
1
  6
Continuous
 62
     2
100
AcDbLine
 10
-18.27224983262971
 20
-60.95428877393201
 30
0.0
 11
-18.27224983262971
 21
-47.0623767910425
 31
0.0
  0
SOLID
  5
AB
330
A7
100
AcDbEntity
  8
1
 62
     2
100
AcDbTrace
 10
-24.77224983262971
 20
-48.60159304948662
 30
0.0
 11
-24.77224983262971
 21
-49.52316053259839
 31
0.0
 12
-28.27224983262971
 22
-49.0623767910425
 32
0.0
 13
-28.27224983262971
 23
-49.0623767910425
 33
0.0
  0
SOLID
  5
AC
330
A7
100
AcDbEntity
  8
1
 62
     2
100
AcDbTrace
 10
-21.77224983262971
 20
-49.52316053259839
 30
0.0
 11
-21.77224983262971
 21
-48.60159304948662
 31
0.0
 12
-18.27224983262971
 22
-49.0623767910425
 32
0.0
 13
-18.27224983262971
 23
-49.0623767910425
 33
0.0
  0
MTEXT
  5
AD
330
A7
100
AcDbEntity
  8
1
 62
     2
100
AcDbMText
 10
-25.45863873237328
 20
-47.06238374811883
 30
0.0
 40
3.5
 41
0.0
 71
     7
 72
     1
  1
\C2;ø\C2;10
  7
CONVERTER_11
 11
0.9999999999970621
 21
2.424068405545307E-6
 31
0.0
 73
     1
 44
0.60024009603842
  0
ENDBLK
  5
AF
330
A7
100
AcDbEntity
  8
0
100
AcDbBlockEnd
  0
BLOCK
  5
B9
330
B2
100
AcDbEntity
  8
0
100
AcDbBlockBegin
  2
*D2
 70
     1
 71
     0
 10
0.0
 20
0.0
 30
0.0
  3
*D2
  1

  0
LINE
  5
B3
330
B2
100
AcDbEntity
  8
1
  6
Continuous
 62
     2
100
AcDbLine
 10
-30.77224983262971
 20
-136.8094261340885
 30
0.0
 11
-15.77224983262971
 21
-136.8094261340885
 31
0.0
  0
LINE
  5
B4
330
B2
100
AcDbEntity
  8
1
  6
Continuous
 62
     2
100
AcDbLine
 10
-30.77224983262971
 20
-125.8562125625787
 30
0.0
 11
-30.77224983262971
 21
-138.8094261340885
 31
0.0
  0
LINE
  5
B5
330
B2
100
AcDbEntity
  8
1
  6
Continuous
 62
     2
100
AcDbLine
 10
-15.77224983262971
 20
-125.8562125625787
 30
0.0
 11
-15.77224983262971
 21
-138.8094261340885
 31
0.0
  0
SOLID
  5
B6
330
B2
100
AcDbEntity
  8
1
 62
     2
100
AcDbTrace
 10
-27.27224983262971
 20
-136.3486423925326
 30
0.0
 11
-27.27224983262971
 21
-137.2702098756444
 31
0.0
 12
-30.77224983262971
 22
-136.8094261340885
 32
0.0
 13
-30.77224983262971
 23
-136.8094261340885
 33
0.0
  0
SOLID
  5
B7
330
B2
100
AcDbEntity
  8
1
 62
     2
100
AcDbTrace
 10
-19.27224983262971
 20
-137.2702098756444
 30
0.0
 11
-19.27224983262971
 21
-136.3486423925326
 31
0.0
 12
-15.77224983262971
 22
-136.8094261340885
 32
0.0
 13
-15.77224983262971
 23
-136.8094261340885
 33
0.0
  0
MTEXT
  5
B8
330
B2
100
AcDbEntity
  8
1
 62
     2
100
AcDbMText
 10
-25.51024605277928
 20
-134.8094330911648
 30
0.0
 40
3.5
 41
0.0
 71
     7
 72
     1
  1
\C2;ø\C2;15
  7
CONVERTER_11
 11
0.9999999999970621
 21
2.424068405545307E-6
 31
0.0
 73
     1
 44
0.60024009603842
  0
ENDBLK
  5
BA
330
B2
100
AcDbEntity
  8
0
100
AcDbBlockEnd
  0
BLOCK
  5
C4
330
BD
100
AcDbEntity
  8
0
100
AcDbBlockBegin
  2
*D3
 70
     1
 71
     0
 10
0.0
 20
0.0
 30
0.0
  3
*D3
  1

  0
LINE
  5
BE
330
BD
100
AcDbEntity
  8
1
  6
Continuous
 62
     2
100
AcDbLine
 10
42.91305559222829
 20
-97.3562125625787
 30
0.0
 11
42.91305559222829
 21
-85.8562125625787
 31
0.0
  0
LINE
  5
BF
330
BD
100
AcDbEntity
  8
1
  6
Continuous
 62
     2
100
AcDbLine
 10
36.6051607879933
 20
-85.8562125625787
 30
0.0
 11
44.91305559222829
 21
-85.8562125625787
 31
0.0
  0
LINE
  5
C0
330
BD
100
AcDbEntity
  8
1
  6
Continuous
 62
     2
100
AcDbLine
 10
34.8372088114937
 20
-97.3562125625787
 30
0.0
 11
44.91305559222829
 21
-97.3562125625787
 31
0.0
  0
SOLID
  5
C1
330
BD
100
AcDbEntity
  8
1
 62
     2
100
AcDbTrace
 10
43.37383933378418
 20
-89.3562125625787
 30
0.0
 11
42.4522718506724
 21
-89.3562125625787
 31
0.0
 12
42.91305559222829
 22
-85.8562125625787
 32
0.0
 13
42.91305559222829
 23
-85.8562125625787
 33
0.0
  0
SOLID
  5
C2
330
BD
100
AcDbEntity
  8
1
 62
     2
100
AcDbTrace
 10
42.4522718506724
 20
-93.8562125625787
 30
0.0
 11
43.37383933378418
 21
-93.8562125625787
 31
0.0
 12
42.91305559222829
 22
-97.3562125625787
 32
0.0
 13
42.91305559222829
 23
-97.3562125625787
 33
0.0
  0
MTEXT
  5
C3
330
BD
100
AcDbEntity
  8
1
 62
     2
100
AcDbMText
 10
40.91305559222829
 20
-94.8260246908908
 30
0.0
 40
3.5
 41
0.0
 71
     7
 72
     1
  1
11.5
  7
CONVERTER_11
 11
0.0
 21
1.0
 31
0.0
 73
     1
 44
0.60024009603842
  0
ENDBLK
  5
C5
330
BD
100
AcDbEntity
  8
0
100
AcDbBlockEnd
  0
BLOCK
  5
D0
330
C8
100
AcDbEntity
  8
0
100
AcDbBlockBegin
  2
*D4
 70
     1
 71
     0
 10
0.0
 20
0.0
 30
0.0
  3
*D4
  1

  0
LINE
  5
C9
330
C8
100
AcDbEntity
  8
1
  6
Continuous
 62
     2
100
AcDbLine
 10
53.28206302196909
 20
-97.3562125625787
 30
0.0
 11
53.28206302196909
 21
-81.8562125625787
 31
0.0
  0
LINE
  5
CA
330
C8
100
AcDbEntity
  8
1
  6
Continuous
 62
     2
100
AcDbLine
 10
53.28206302196909
 20
-81.8562125625787
 30
0.0
 11
53.28206302196909
 21
-61.18193227431951
 31
0.0
  0
LINE
  5
CB
330
C8
100
AcDbEntity
  8
1
  6
Continuous
 62
     2
100
AcDbLine
 10
34.8372088114937
 20
-97.3562125625787
 30
0.0
 11
55.28206302196909
 21
-97.3562125625787
 31
0.0
  0
LINE
  5
CC
330
C8
100
AcDbEntity
  8
1
  6
Continuous
 62
     2
100
AcDbLine
 10
36.6051607879933
 20
-81.8562125625787
 30
0.0
 11
55.28206302196909
 21
-81.8562125625787
 31
0.0
  0
SOLID
  5
CD
330
C8
100
AcDbEntity
  8
1
 62
     2
100
AcDbTrace
 10
52.82127928041321
 20
-93.8562125625787
 30
0.0
 11
53.74284676352498
 21
-93.8562125625787
 31
0.0
 12
53.28206302196909
 22
-97.3562125625787
 32
0.0
 13
53.28206302196909
 23
-97.3562125625787
 33
0.0
  0
SOLID
  5
CE
330
C8
100
AcDbEntity
  8
1
 62
     2
100
AcDbTrace
 10
53.74284676352498
 20
-85.3562125625787
 30
0.0
 11
52.82127928041321
 21
-85.3562125625787
 31
0.0
 12
53.28206302196909
 22
-81.8562125625787
 32
0.0
 13
53.28206302196909
 23
-81.8562125625787
 33
0.0
  0
MTEXT
  5
CF
330
C8
100
AcDbEntity
  8
1
 62
     2
100
AcDbMText
 10
51.87622857649949
 20
-79.8194322743195
 30
0.0
 40
3.5
 41
0.0
 71
     7
 72
     1
  1
bis 15.5
  7
CONVERTER_11
 11
0.0
 21
1.0
 31
0.0
 73
     1
 44
0.60024009603842
  0
ENDBLK
  5
D1
330
C8
100
AcDbEntity
  8
0
100
AcDbBlockEnd
  0
BLOCK
  5
DB
330
D4
100
AcDbEntity
  8
0
100
AcDbBlockBegin
  2
*D5
 70
     1
 71
     0
 10
0.0
 20
0.0
 30
0.0
  3
*D5
  1

  0
LINE
  5
D5
330
D4
100
AcDbEntity
  8
1
  6
Continuous
 62
     2
100
AcDbLine
 10
-42.0190221647287
 20
-58.3562125625787
 30
0.0
 11
-42.0190221647287
 21
-81.8562125625787
 31
0.0
  0
LINE
  5
D6
330
D4
100
AcDbEntity
  8
1
  6
Continuous
 62
     2
100
AcDbLine
 10
-25.77224983262971
 20
-58.3562125625787
 30
0.0
 11
-44.0190221647287
 21
-58.3562125625787
 31
0.0
  0
LINE
  5
D7
330
D4
100
AcDbEntity
  8
1
  6
Continuous
 62
     2
100
AcDbLine
 10
-30.02224983262971
 20
-81.8562125625787
 30
0.0
 11
-44.0190221647287
 21
-81.8562125625787
 31
0.0
  0
SOLID
  5
D8
330
D4
100
AcDbEntity
  8
1
 62
     2
100
AcDbTrace
 10
-41.55823842317282
 20
-61.8562125625787
 30
0.0
 11
-42.47980590628459
 21
-61.8562125625787
 31
0.0
 12
-42.0190221647287
 22
-58.3562125625787
 32
0.0
 13
-42.0190221647287
 23
-58.3562125625787
 33
0.0
  0
SOLID
  5
D9
330
D4
100
AcDbEntity
  8
1
 62
     2
100
AcDbTrace
 10
-42.47980590628459
 20
-78.3562125625787
 30
0.0
 11
-41.55823842317282
 21
-78.3562125625787
 31
0.0
 12
-42.0190221647287
 22
-81.8562125625787
 32
0.0
 13
-42.0190221647287
 23
-81.8562125625787
 33
0.0
  0
MTEXT
  5
DA
330
D4
100
AcDbEntity
  8
1
 62
     2
100
AcDbMText
 10
-44.0190221647287
 20
-74.56726127246166
 30
0.0
 40
3.5
 41
0.0
 71
     7
 72
     1
  1
23.5
  7
CONVERTER_11
 11
0.0
 21
1.0
 31
0.0
 73
     1
 44
0.60024009603842
  0
ENDBLK
  5
DC
330
D4
100
AcDbEntity
  8
0
100
AcDbBlockEnd
  0
BLOCK
  5
E6
330
DF
100
AcDbEntity
  8
0
100
AcDbBlockBegin
  2
*D6
 70
     1
 71
     0
 10
0.0
 20
0.0
 30
0.0
  3
*D6
  1

  0
LINE
  5
E0
330
DF
100
AcDbEntity
  8
1
  6
Continuous
 62
     2
100
AcDbLine
 10
42.91305559222829
 20
-97.3562125625787
 30
0.0
 11
42.91305559222829
 21
-119.3562125625787
 31
0.0
  0
LINE
  5
E1
330
DF
100
AcDbEntity
  8
1
  6
Continuous
 62
     2
100
AcDbLine
 10
34.8372088114937
 20
-97.3562125625787
 30
0.0
 11
44.91305559222829
 21
-97.3562125625787
 31
0.0
  0
LINE
  5
E2
330
DF
100
AcDbEntity
  8
1
  6
Continuous
 62
     2
100
AcDbLine
 10
34.8372088114937
 20
-119.3562125625787
 30
0.0
 11
44.91305559222829
 21
-119.3562125625787
 31
0.0
  0
SOLID
  5
E3
330
DF
100
AcDbEntity
  8
1
 62
     2
100
AcDbTrace
 10
43.37383933378418
 20
-100.8562125625787
 30
0.0
 11
42.4522718506724
 21
-100.8562125625787
 31
0.0
 12
42.91305559222829
 22
-97.3562125625787
 32
0.0
 13
42.91305559222829
 23
-97.3562125625787
 33
0.0
  0
SOLID
  5
E4
330
DF
100
AcDbEntity
  8
1
 62
     2
100
AcDbTrace
 10
42.4522718506724
 20
-115.8562125625787
 30
0.0
 11
43.37383933378418
 21
-115.8562125625787
 31
0.0
 12
42.91305559222829
 22
-119.3562125625787
 32
0.0
 13
42.91305559222829
 23
-119.3562125625787
 33
0.0
  0
MTEXT
  5
E5
330
DF
100
AcDbEntity
  8
1
 62
     2
100
AcDbMText
 10
40.91305559222829
 20
-110.9812125625787
 30
0.0
 40
3.5
 41
0.0
 71
     7
 72
     1
  1
22
  7
CONVERTER_11
 11
0.0
 21
1.0
 31
0.0
 73
     1
 44
0.60024009603842
  0
ENDBLK
  5
E7
330
DF
100
AcDbEntity
  8
0
100
AcDbBlockEnd
  0
BLOCK
  5
F1
330
EA
100
AcDbEntity
  8
0
100
AcDbBlockBegin
  2
*D7
 70
     1
 71
     0
 10
0.0
 20
0.0
 30
0.0
  3
*D7
  1

  0
LINE
  5
EB
330
EA
100
AcDbEntity
  8
1
  6
Continuous
 62
     2
100
AcDbLine
 10
-42.0190221647287
 20
-85.8562125625787
 30
0.0
 11
-42.0190221647287
 21
-125.8562125625787
 31
0.0
  0
LINE
  5
EC
330
EA
100
AcDbEntity
  8
1
  6
Continuous
 62
     2
100
AcDbLine
 10
-38.97829583682771
 20
-85.8562125625787
 30
0.0
 11
-44.0190221647287
 21
-85.8562125625787
 31
0.0
  0
LINE
  5
ED
330
EA
100
AcDbEntity
  8
1
  6
Continuous
 62
     2
100
AcDbLine
 10
-30.77224983262971
 20
-125.8562125625787
 30
0.0
 11
-44.0190221647287
 21
-125.8562125625787
 31
0.0
  0
SOLID
  5
EE
330
EA
100
AcDbEntity
  8
1
 62
     2
100
AcDbTrace
 10
-41.55823842317282
 20
-89.3562125625787
 30
0.0
 11
-42.47980590628459
 21
-89.3562125625787
 31
0.0
 12
-42.0190221647287
 22
-85.8562125625787
 32
0.0
 13
-42.0190221647287
 23
-85.8562125625787
 33
0.0
  0
SOLID
  5
EF
330
EA
100
AcDbEntity
  8
1
 62
     2
100
AcDbTrace
 10
-42.47980590628459
 20
-122.3562125625787
 30
0.0
 11
-41.55823842317282
 21
-122.3562125625787
 31
0.0
 12
-42.0190221647287
 22
-125.8562125625787
 32
0.0
 13
-42.0190221647287
 23
-125.8562125625787
 33
0.0
  0
MTEXT
  5
F0
330
EA
100
AcDbEntity
  8
1
 62
     2
100
AcDbMText
 10
-44.0190221647287
 20
-108.4812125625787
 30
0.0
 40
3.5
 41
0.0
 71
     7
 72
     1
  1
40
  7
CONVERTER_11
 11
0.0
 21
1.0
 31
0.0
 73
     1
 44
0.60024009603842
  0
ENDBLK
  5
F2
330
EA
100
AcDbEntity
  8
0
100
AcDbBlockEnd
  0
ENDSEC
  0
SECTION
  2
ENTITIES
  0
LINE
  5
32
330
1F
100
AcDbEntity
  8
1
  6
Continuous
 62
     7
100
AcDbLine
 10
-27.90524299448509
 20
-59.7995882355528
 30
0.0
 11
-18.63925667077419
 21
-59.7995882355528
 31
0.0
  0
LINE
  5
33
330
1F
100
AcDbEntity
  8
1
  6
Continuous
 62
     7
100
AcDbLine
 10
-25.77224983262971
 20
-58.35621256257871
 30
0.0
 11
-20.77224983262971
 21
-58.35621256257871
 31
0.0
  0
LINE
  5
34
330
1F
100
AcDbEntity
  8
1
  6
Continuous
 62
     7
100
AcDbLine
 10
-20.77224983262971
 20
-58.35621256257871
 30
0.0
 11
-19.27224983262971
 21
-59.2222379663632
 31
0.0
  0
LINE
  5
35
330
1F
100
AcDbEntity
  8
1
  6
Continuous
 62
     7
100
AcDbLine
 10
-27.27224983262971
 20
-59.2222379663632
 30
0.0
 11
-25.77224983262971
 21
-58.35621256257871
 31
0.0
  0
LINE
  5
36
330
1F
100
AcDbEntity
  8
1
  6
Continuous
 62
     7
100
AcDbLine
 10
-18.27224983262971
 20
-60.954288773932
 30
0.0
 11
-18.27224983262971
 21
-81.8562125625787
 31
0.0
  0
LINE
  5
37
330
1F
100
AcDbEntity
  8
1
  6
Continuous
 62
     7
100
AcDbLine
 10
-28.27224983262971
 20
-81.8562125625787
 30
0.0
 11
-28.27224983262971
 21
-60.954288773932
 31
0.0
  0
LINE
  5
38
330
1F
100
AcDbEntity
  8
1
  6
Continuous
 62
     7
100
AcDbLine
 10
-28.27224983262971
 20
-81.8562125625787
 30
0.0
 11
-18.27224983262971
 21
-81.8562125625787
 31
0.0
  0
LINE
  5
39
330
1F
100
AcDbEntity
  8
1
  6
Continuous
 62
     7
100
AcDbLine
 10
-18.27224983262971
 20
-81.8562125625787
 30
0.0
 11
-16.52224983262971
 21
-81.8562125625787
 31
0.0
  0
LINE
  5
3A
330
1F
100
AcDbEntity
  8
1
  6
Continuous
 62
     7
100
AcDbLine
 10
-30.02224983262971
 20
-81.8562125625787
 30
0.0
 11
-28.27224983262971
 21
-81.8562125625787
 31
0.0
  0
LINE
  5
3B
330
1F
100
AcDbEntity
  8
1
  6
Continuous
 62
     7
100
AcDbLine
 10
-30.02224983262971
 20
-85.8562125625787
 30
0.0
 11
-30.02224983262971
 21
-81.8562125625787
 31
0.0
  0
LINE
  5
3C
330
1F
100
AcDbEntity
  8
1
  6
Continuous
 62
     7
100
AcDbLine
 10
-16.52224983262971
 20
-81.8562125625787
 30
0.0
 11
-16.52224983262971
 21
-85.8562125625787
 31
0.0
  0
LINE
  5
3D
330
1F
100
AcDbEntity
  8
1
  6
PHANTOM
 62
     7
100
AcDbLine
 10
-15.77224983262971
 20
-85.8562125625787
 30
0.0
 11
36.6051607879933
 21
-85.8562125625787
 31
0.0
  0
LINE
  5
3E
330
1F
100
AcDbEntity
  8
1
  6
PHANTOM
 62
     7
100
AcDbLine
 10
-30.77224983262971
 20
-85.8562125625787
 30
0.0
 11
-38.9782958368277
 21
-85.8562125625787
 31
0.0
  0
LINE
  5
3F
330
1F
100
AcDbEntity
  8
1
  6
Continuous
 62
     7
100
AcDbLine
 10
28.81464243099001
 20
-93.8562125625787
 30
0.0
 11
28.81464243099001
 21
-94.3562125625787
 31
0.0
  0
LINE
  5
40
330
1F
100
AcDbEntity
  8
1
  6
Continuous
 62
     7
100
AcDbLine
 10
28.81464243099001
 20
-93.8562125625787
 30
0.0
 11
-10.77224983262971
 21
-93.8562125625787
 31
0.0
  0
LINE
  5
41
330
1F
100
AcDbEntity
  8
1
  6
Continuous
 62
     7
100
AcDbLine
 10
34.22749263538449
 20
-95.05621256257871
 30
0.0
 11
31.069996682821
 21
-94.3562125625787
 31
0.0
  0
LINE
  5
42
330
1F
100
AcDbEntity
  8
1
  6
Continuous
 62
     7
100
AcDbLine
 10
28.81464243099001
 20
-100.8562125625787
 30
0.0
 11
-10.77224983262971
 21
-100.8562125625787
 31
0.0
  0
LINE
  5
43
330
1F
100
AcDbEntity
  8
1
  6
Continuous
 62
     7
100
AcDbLine
 10
34.22749263538449
 20
-99.6562125625787
 30
0.0
 11
31.069996682821
 21
-100.3562125625787
 31
0.0
  0
LINE
  5
44
330
1F
100
AcDbEntity
  8
1
  6
DOT_CENTER
 62
     2
100
AcDbLine
 10
-17.33271064850879
 20
-97.3562125625787
 30
0.0
 11
34.8372088114937
 21
-97.3562125625787
 31
0.0
  0
LINE
  5
45
330
1F
100
AcDbEntity
  8
1
  6
Continuous
 62
     7
100
AcDbLine
 10
-10.77224983262971
 20
-100.4662125625787
 30
0.0
 11
-10.77224983262971
 21
-100.8562125625787
 31
0.0
  0
LINE
  5
46
330
1F
100
AcDbEntity
  8
1
  6
Continuous
 62
     7
100
AcDbLine
 10
-10.77224983262971
 20
-94.2462125625787
 30
0.0
 11
-10.77224983262971
 21
-94.3562125625787
 31
0.0
  0
LINE
  5
47
330
1F
100
AcDbEntity
  8
1
  6
Continuous
 62
     7
100
AcDbLine
 10
-10.77224983262971
 20
-100.9562125625787
 30
0.0
 11
-15.77224983262971
 21
-100.9562125625787
 31
0.0
  0
LINE
  5
48
330
1F
100
AcDbEntity
  8
1
  6
Continuous
 62
     7
100
AcDbLine
 10
-10.77224983262971
 20
-93.7562125625787
 30
0.0
 11
-10.77224983262971
 21
-93.8562125625787
 31
0.0
  0
LINE
  5
49
330
1F
100
AcDbEntity
  8
1
  6
Continuous
 62
     7
100
AcDbLine
 10
-15.77224983262971
 20
-93.7562125625787
 30
0.0
 11
-10.77224983262971
 21
-93.7562125625787
 31
0.0
  0
LINE
  5
4A
330
1F
100
AcDbEntity
  8
1
  6
Continuous
 62
     7
100
AcDbLine
 10
34.22749263538449
 20
-95.05621256257871
 30
0.0
 11
34.22749263538449
 21
-99.6562125625787
 31
0.0
  0
LINE
  5
4B
330
1F
100
AcDbEntity
  8
1
  6
Continuous
 62
     7
100
AcDbLine
 10
-10.77224983262971
 20
-93.8562125625787
 30
0.0
 11
-10.77224983262971
 21
-94.2462125625787
 31
0.0
  0
LINE
  5
4C
330
1F
100
AcDbEntity
  8
1
  6
Continuous
 62
     7
100
AcDbLine
 10
-10.77224983262971
 20
-100.8562125625787
 30
0.0
 11
-10.77224983262971
 21
-100.9562125625787
 31
0.0
  0
LINE
  5
4D
330
1F
100
AcDbEntity
  8
1
  6
Continuous
 62
     2
100
AcDbLine
 10
-10.77224983262971
 20
-94.3562125625787
 30
0.0
 11
28.81464243099001
 21
-94.3562125625787
 31
0.0
  0
LINE
  5
4E
330
1F
100
AcDbEntity
  8
1
  6
Continuous
 62
     7
100
AcDbLine
 10
-10.77224983262971
 20
-94.3562125625787
 30
0.0
 11
-10.77224983262971
 21
-100.3562125625787
 31
0.0
  0
LINE
  5
4F
330
1F
100
AcDbEntity
  8
1
  6
Continuous
 62
     2
100
AcDbLine
 10
-10.77224983262971
 20
-100.3562125625787
 30
0.0
 11
28.81464243099001
 21
-100.3562125625787
 31
0.0
  0
LINE
  5
50
330
1F
100
AcDbEntity
  8
1
  6
Continuous
 62
     7
100
AcDbLine
 10
-10.77224983262971
 20
-100.3562125625787
 30
0.0
 11
-10.77224983262971
 21
-100.4662125625787
 31
0.0
  0
LINE
  5
51
330
1F
100
AcDbEntity
  8
1
  6
Continuous
 62
     7
100
AcDbLine
 10
28.81464243099001
 20
-94.3562125625787
 30
0.0
 11
28.81464243099001
 21
-100.3562125625787
 31
0.0
  0
LINE
  5
52
330
1F
100
AcDbEntity
  8
1
  6
Continuous
 62
     7
100
AcDbLine
 10
28.81464243099001
 20
-100.3562125625787
 30
0.0
 11
28.81464243099001
 21
-100.8562125625787
 31
0.0
  0
LINE
  5
53
330
1F
100
AcDbEntity
  8
1
  6
Continuous
 62
     2
100
AcDbLine
 10
28.81464243099001
 20
-94.3562125625787
 30
0.0
 11
31.069996682821
 21
-94.3562125625787
 31
0.0
  0
LINE
  5
54
330
1F
100
AcDbEntity
  8
1
  6
Continuous
 62
     7
100
AcDbLine
 10
31.069996682821
 20
-94.3562125625787
 30
0.0
 11
28.81464243099001
 21
-93.8562125625787
 31
0.0
  0
LINE
  5
55
330
1F
100
AcDbEntity
  8
1
  6
Continuous
 62
     2
100
AcDbLine
 10
28.81464243099001
 20
-100.3562125625787
 30
0.0
 11
31.069996682821
 21
-100.3562125625787
 31
0.0
  0
LINE
  5
56
330
1F
100
AcDbEntity
  8
1
  6
Continuous
 62
     7
100
AcDbLine
 10
31.069996682821
 20
-100.3562125625787
 30
0.0
 11
28.81464243099001
 21
-100.8562125625787
 31
0.0
  0
LINE
  5
57
330
1F
100
AcDbEntity
  8
1
  6
Continuous
 62
     7
100
AcDbLine
 10
28.81464243099001
 20
-115.8562125625787
 30
0.0
 11
28.81464243099001
 21
-116.3562125625787
 31
0.0
  0
LINE
  5
58
330
1F
100
AcDbEntity
  8
1
  6
Continuous
 62
     7
100
AcDbLine
 10
28.81464243099001
 20
-115.8562125625787
 30
0.0
 11
-10.77224983262971
 21
-115.8562125625787
 31
0.0
  0
LINE
  5
59
330
1F
100
AcDbEntity
  8
1
  6
Continuous
 62
     7
100
AcDbLine
 10
34.22749263538449
 20
-117.0562125625787
 30
0.0
 11
31.069996682821
 21
-116.3562125625787
 31
0.0
  0
LINE
  5
5A
330
1F
100
AcDbEntity
  8
1
  6
Continuous
 62
     7
100
AcDbLine
 10
28.81464243099001
 20
-122.8562125625787
 30
0.0
 11
-10.77224983262971
 21
-122.8562125625787
 31
0.0
  0
LINE
  5
5B
330
1F
100
AcDbEntity
  8
1
  6
Continuous
 62
     7
100
AcDbLine
 10
34.22749263538449
 20
-121.6562125625787
 30
0.0
 11
31.069996682821
 21
-122.3562125625787
 31
0.0
  0
LINE
  5
5C
330
1F
100
AcDbEntity
  8
1
  6
DOT_CENTER
 62
     2
100
AcDbLine
 10
-16.9122243083472
 20
-119.3562125625787
 30
0.0
 11
34.8372088114937
 21
-119.3562125625787
 31
0.0
  0
LINE
  5
5D
330
1F
100
AcDbEntity
  8
1
  6
Continuous
 62
     7
100
AcDbLine
 10
-10.77224983262971
 20
-122.4662125625787
 30
0.0
 11
-10.77224983262971
 21
-122.8562125625787
 31
0.0
  0
LINE
  5
5E
330
1F
100
AcDbEntity
  8
1
  6
Continuous
 62
     7
100
AcDbLine
 10
-10.77224983262971
 20
-116.2462125625787
 30
0.0
 11
-10.77224983262971
 21
-116.3562125625787
 31
0.0
  0
LINE
  5
5F
330
1F
100
AcDbEntity
  8
1
  6
Continuous
 62
     7
100
AcDbLine
 10
-10.77224983262971
 20
-122.9562125625787
 30
0.0
 11
-15.77224983262971
 21
-122.9562125625787
 31
0.0
  0
LINE
  5
60
330
1F
100
AcDbEntity
  8
1
  6
Continuous
 62
     7
100
AcDbLine
 10
-10.77224983262971
 20
-115.7562125625787
 30
0.0
 11
-10.77224983262971
 21
-115.8562125625787
 31
0.0
  0
LINE
  5
61
330
1F
100
AcDbEntity
  8
1
  6
Continuous
 62
     7
100
AcDbLine
 10
-15.77224983262971
 20
-115.7562125625787
 30
0.0
 11
-10.77224983262971
 21
-115.7562125625787
 31
0.0
  0
LINE
  5
62
330
1F
100
AcDbEntity
  8
1
  6
Continuous
 62
     7
100
AcDbLine
 10
34.22749263538449
 20
-117.0562125625787
 30
0.0
 11
34.22749263538449
 21
-121.6562125625787
 31
0.0
  0
LINE
  5
63
330
1F
100
AcDbEntity
  8
1
  6
Continuous
 62
     7
100
AcDbLine
 10
-10.77224983262971
 20
-115.8562125625787
 30
0.0
 11
-10.77224983262971
 21
-116.2462125625787
 31
0.0
  0
LINE
  5
64
330
1F
100
AcDbEntity
  8
1
  6
Continuous
 62
     7
100
AcDbLine
 10
-10.77224983262971
 20
-122.8562125625787
 30
0.0
 11
-10.77224983262971
 21
-122.9562125625787
 31
0.0
  0
LINE
  5
65
330
1F
100
AcDbEntity
  8
1
  6
Continuous
 62
     2
100
AcDbLine
 10
-10.77224983262971
 20
-116.3562125625787
 30
0.0
 11
28.81464243099001
 21
-116.3562125625787
 31
0.0
  0
LINE
  5
66
330
1F
100
AcDbEntity
  8
1
  6
Continuous
 62
     7
100
AcDbLine
 10
-10.77224983262971
 20
-116.3562125625787
 30
0.0
 11
-10.77224983262971
 21
-122.3562125625787
 31
0.0
  0
LINE
  5
67
330
1F
100
AcDbEntity
  8
1
  6
Continuous
 62
     2
100
AcDbLine
 10
-10.77224983262971
 20
-122.3562125625787
 30
0.0
 11
28.81464243099001
 21
-122.3562125625787
 31
0.0
  0
LINE
  5
68
330
1F
100
AcDbEntity
  8
1
  6
Continuous
 62
     7
100
AcDbLine
 10
-10.77224983262971
 20
-122.3562125625787
 30
0.0
 11
-10.77224983262971
 21
-122.4662125625787
 31
0.0
  0
LINE
  5
69
330
1F
100
AcDbEntity
  8
1
  6
Continuous
 62
     7
100
AcDbLine
 10
28.81464243099001
 20
-116.3562125625787
 30
0.0
 11
28.81464243099001
 21
-122.3562125625787
 31
0.0
  0
LINE
  5
6A
330
1F
100
AcDbEntity
  8
1
  6
Continuous
 62
     7
100
AcDbLine
 10
28.81464243099001
 20
-122.3562125625787
 30
0.0
 11
28.81464243099001
 21
-122.8562125625787
 31
0.0
  0
LINE
  5
6B
330
1F
100
AcDbEntity
  8
1
  6
Continuous
 62
     2
100
AcDbLine
 10
28.81464243099001
 20
-116.3562125625787
 30
0.0
 11
31.069996682821
 21
-116.3562125625787
 31
0.0
  0
LINE
  5
6C
330
1F
100
AcDbEntity
  8
1
  6
Continuous
 62
     7
100
AcDbLine
 10
31.069996682821
 20
-116.3562125625787
 30
0.0
 11
28.81464243099001
 21
-115.8562125625787
 31
0.0
  0
LINE
  5
6D
330
1F
100
AcDbEntity
  8
1
  6
Continuous
 62
     2
100
AcDbLine
 10
28.81464243099001
 20
-122.3562125625787
 30
0.0
 11
31.069996682821
 21
-122.3562125625787
 31
0.0
  0
LINE
  5
6E
330
1F
100
AcDbEntity
  8
1
  6
Continuous
 62
     7
100
AcDbLine
 10
31.069996682821
 20
-122.3562125625787
 30
0.0
 11
28.81464243099001
 21
-122.8562125625787
 31
0.0
  0
LINE
  5
6F
330
1F
100
AcDbEntity
  8
1
  6
Continuous
 62
     7
100
AcDbLine
 10
-30.77224983262971
 20
-85.8562125625787
 30
0.0
 11
-30.77224983262971
 21
-125.8562125625787
 31
0.0
  0
LINE
  5
70
330
1F
100
AcDbEntity
  8
1
  6
Continuous
 62
     7
100
AcDbLine
 10
-15.77224983262971
 20
-85.8562125625787
 30
0.0
 11
-16.52224983262971
 21
-85.8562125625787
 31
0.0
  0
LINE
  5
71
330
1F
100
AcDbEntity
  8
1
  6
DOT_CENTER
 62
     2
100
AcDbLine
 10
-23.27224983262971
 20
-57.8346467882411
 30
0.0
 11
-23.27224983262971
 21
-128.4890780231907
 31
0.0
  0
LINE
  5
72
330
1F
100
AcDbEntity
  8
1
  6
Continuous
 62
     7
100
AcDbLine
 10
-15.77224983262971
 20
-125.8562125625787
 30
0.0
 11
-15.77224983262971
 21
-122.9562125625787
 31
0.0
  0
LINE
  5
73
330
1F
100
AcDbEntity
  8
1
  6
Continuous
 62
     7
100
AcDbLine
 10
-15.77224983262971
 20
-115.7562125625787
 30
0.0
 11
-15.77224983262971
 21
-100.9562125625787
 31
0.0
  0
LINE
  5
74
330
1F
100
AcDbEntity
  8
1
  6
Continuous
 62
     7
100
AcDbLine
 10
-15.77224983262971
 20
-93.7562125625787
 30
0.0
 11
-15.77224983262971
 21
-85.8562125625787
 31
0.0
  0
LINE
  5
75
330
1F
100
AcDbEntity
  8
1
  6
Continuous
 62
     7
100
AcDbLine
 10
-30.77224983262971
 20
-125.8562125625787
 30
0.0
 11
-15.77224983262971
 21
-125.8562125625787
 31
0.0
  0
LINE
  5
76
330
1F
100
AcDbEntity
  8
1
  6
Continuous
 62
     7
100
AcDbLine
 10
-30.02224983262971
 20
-85.8562125625787
 30
0.0
 11
-30.77224983262971
 21
-85.8562125625787
 31
0.0
  0
LINE
  5
77
330
1F
100
AcDbEntity
  8
1
  6
Continuous
 62
     7
100
AcDbLine
 10
-16.52224983262971
 20
-85.8562125625787
 30
0.0
 11
-30.02224983262971
 21
-85.8562125625787
 31
0.0
  0
LINE
  5
78
330
1F
100
AcDbEntity
  8
1
  6
PHANTOM
 62
     7
100
AcDbLine
 10
-16.52224983262971
 20
-81.8562125625787
 30
0.0
 11
36.6051607879933
 21
-81.8562125625787
 31
0.0
  0
LINE
  5
79
330
1F
100
AcDbEntity
  8
1
  6
DASHED
 62
     2
100
AcDbLine
 10
-27.27224983262971
 20
-72.3562125625787
 30
0.0
 11
-19.27224983262971
 21
-72.3562125625787
 31
0.0
  0
LINE
  5
7A
330
1F
100
AcDbEntity
  8
1
  6
DASHED
 62
     2
100
AcDbLine
 10
-19.47091781465483
 20
-72.8562125625787
 30
0.0
 11
-27.07358185060463
 21
-72.8562125625787
 31
0.0
  0
LINE
  5
7B
330
1F
100
AcDbEntity
  8
1
  6
DASHED
 62
     2
100
AcDbLine
 10
-27.07358185060463
 20
-76.8562125625787
 30
0.0
 11
-19.47091781465483
 21
-76.8562125625787
 31
0.0
  0
LINE
  5
7C
330
1F
100
AcDbEntity
  8
1
  6
DASHED
 62
     2
100
AcDbLine
 10
-19.27224983262971
 20
-77.3562125625787
 30
0.0
 11
-27.27224983262971
 21
-77.3562125625787
 31
0.0
  0
LINE
  5
7D
330
1F
100
AcDbEntity
  8
1
  6
DOT_CENTER
 62
     2
100
AcDbLine
 10
-29.57117876353823
 20
-74.8562125625787
 30
0.0
 11
-16.62185460872021
 21
-74.8562125625787
 31
0.0
  0
LINE
  5
7E
330
1F
100
AcDbEntity
  8
1
  6
DASHED
 62
     2
100
AcDbLine
 10
-23.80814821749172
 20
-75.59467640970905
 30
0.0
 11
-25.80814821749181
 21
-75.59467640971064
 31
0.0
  0
LINE
  5
7F
330
1F
100
AcDbEntity
  8
1
  6
DASHED
 62
     2
100
AcDbLine
 10
-23.80814821749161
 20
-74.14467640971037
 30
0.0
 11
-25.80814821749101
 21
-74.14467640971014
 31
0.0
  0
LINE
  5
80
330
1F
100
AcDbEntity
  8
1
  6
DASHED
 62
     2
100
AcDbLine
 10
-23.80814821749232
 20
-76.31967640970987
 30
0.0
 11
-23.80814821749192
 21
-73.4196764097099
 31
0.0
  0
LINE
  5
81
330
1F
100
AcDbEntity
  8
1
  6
DASHED
 62
     2
100
AcDbLine
 10
-25.80814821749291
 20
-76.31967640970839
 30
0.0
 11
-23.80814821749232
 21
-76.31967640970987
 31
0.0
  0
LINE
  5
82
330
1F
100
AcDbEntity
  8
1
  6
DASHED
 62
     2
100
AcDbLine
 10
-23.80814821749232
 20
-76.31967640970987
 30
0.0
 11
-22.97099032716622
 21
-74.86967640971005
 31
0.0
  0
LINE
  5
83
330
1F
100
AcDbEntity
  8
1
  6
DASHED
 62
     2
100
AcDbLine
 10
-22.97099032716622
 20
-74.86967640971005
 30
0.0
 11
-23.80814821749192
 21
-73.4196764097099
 31
0.0
  0
LINE
  5
84
330
1F
100
AcDbEntity
  8
1
  6
DASHED
 62
     2
100
AcDbLine
 10
-23.80814821749192
 20
-73.4196764097099
 30
0.0
 11
-25.80814821749161
 21
-73.41967640970921
 31
0.0
  0
LINE
  5
85
330
1F
100
AcDbEntity
  8
1
  6
DASHED
 62
     2
100
AcDbLine
 10
-25.30814821749212
 20
-77.3696764097104
 30
0.0
 11
-25.30814821749252
 21
-72.36967640970983
 31
0.0
  0
LINE
  5
86
330
1F
100
AcDbEntity
  8
1
  6
DASHED
 62
     2
100
AcDbLine
 10
-25.30814821749212
 20
-77.3696764097104
 30
0.0
 11
-25.80814821749212
 21
-76.86967640970937
 31
0.0
  0
LINE
  5
87
330
1F
100
AcDbEntity
  8
1
  6
DASHED
 62
     2
100
AcDbLine
 10
-25.80814821749243
 20
-72.86967640970846
 30
0.0
 11
-25.30814821749252
 21
-72.36967640970983
 31
0.0
  0
LINE
  5
88
330
1F
100
AcDbEntity
  8
1
  6
DASHED
 62
     2
100
AcDbLine
 10
-25.80814821749243
 20
-72.86967640970846
 30
0.0
 11
-25.80814821749212
 21
-76.86967640970937
 31
0.0
  0
LINE
  5
89
330
1F
100
AcDbEntity
  8
1
  6
DASHED
 62
     2
100
AcDbLine
 10
-19.80814821749291
 20
-76.85879984896627
 30
0.0
 11
-20.30814821749212
 21
-77.35627655561706
 31
0.0
  0
LINE
  5
8A
330
1F
100
AcDbEntity
  8
1
  6
DASHED
 62
     2
100
AcDbLine
 10
-19.80814821749192
 20
-72.85874865453474
 30
0.0
 11
-19.80814821749291
 21
-76.85879984896627
 31
0.0
  0
LINE
  5
8B
330
1F
100
AcDbEntity
  8
1
  6
DASHED
 62
     2
100
AcDbLine
 10
-20.30814821749212
 20
-72.35621256257895
 30
0.0
 11
-19.80814821749192
 21
-72.85874865453474
 31
0.0
  0
LINE
  5
8C
330
1F
100
AcDbEntity
  8
1
  6
DASHED
 62
     2
100
AcDbLine
 10
-20.30814821749212
 20
-72.35621256257895
 30
0.0
 11
-20.30814821749212
 21
-77.35627655561706
 31
0.0
  0
LINE
  5
8D
330
1F
100
AcDbEntity
  8
1
  6
DASHED
 62
     2
100
AcDbLine
 10
-28.27224983262971
 20
-72.6062125625787
 30
0.0
 11
-27.27224983262971
 21
-72.6062125625787
 31
0.0
  0
LINE
  5
8E
330
1F
100
AcDbEntity
  8
1
  6
DASHED
 62
     2
100
AcDbLine
 10
-27.27224983262971
 20
-72.6062125625787
 30
0.0
 11
-27.27224983262971
 21
-77.1062125625787
 31
0.0
  0
LINE
  5
8F
330
1F
100
AcDbEntity
  8
1
  6
DASHED
 62
     2
100
AcDbLine
 10
-28.27224983262971
 20
-77.1062125625787
 30
0.0
 11
-27.27224983262971
 21
-77.1062125625787
 31
0.0
  0
LINE
  5
90
330
1F
100
AcDbEntity
  8
1
  6
DASHED
 62
     2
100
AcDbLine
 10
-19.43354199670273
 20
-63.81263469120485
 30
0.0
 11
-19.31030285171281
 21
-65.22126456418721
 31
0.0
  0
LINE
  5
91
330
1F
100
AcDbEntity
  8
1
  6
DASHED
 62
     2
100
AcDbLine
 10
-27.23419681354773
 20
-65.22126456418721
 30
0.0
 11
-27.11095766855783
 21
-63.81263469120485
 31
0.0
  0
LINE
  5
92
330
1F
100
AcDbEntity
  8
1
  6
DASHED
 62
     2
100
AcDbLine
 10
-26.61286031951192
 20
-63.35621256257867
 30
0.0
 11
-19.93163934574852
 21
-63.35621256257867
 31
0.0
  0
LINE
  5
93
330
1F
100
AcDbEntity
  8
1
  6
DASHED
 62
     2
100
AcDbLine
 10
-19.27224983263022
 20
-66.09282199166378
 30
0.0
 11
-19.27224983262971
 21
-81.8562125625787
 31
0.0
  0
LINE
  5
94
330
1F
100
AcDbEntity
  8
1
  6
DASHED
 62
     2
100
AcDbLine
 10
-27.27224983262971
 20
-77.1062125625787
 30
0.0
 11
-27.27224983262971
 21
-81.8562125625787
 31
0.0
  0
LINE
  5
95
330
1F
100
AcDbEntity
  8
1
  6
DASHED
 62
     2
100
AcDbLine
 10
-27.27224983263022
 20
-66.09282199166378
 30
0.0
 11
-27.27224983262971
 21
-72.6062125625787
 31
0.0
  0
ARC
  5
96
330
1F
100
AcDbEntity
  8
1
  6
Continuous
 62
     7
100
AcDbCircle
 10
-9.19273617279132
 20
-97.3562125625787
 30
0.0
 40
7.500000000000005
100
AcDbArc
 50
151.314597985881
 51
-151.3145979858811
  0
ARC
  5
97
330
1F
100
AcDbEntity
  8
1
  6
Continuous
 62
     7
100
AcDbCircle
 10
-9.19273617279132
 20
-119.3562125625787
 30
0.0
 40
7.500000000000005
100
AcDbArc
 50
151.314597985881
 51
-151.3145979858811
  0
ARC
  5
98
330
1F
100
AcDbEntity
  8
1
  6
DASHED
 62
     2
100
AcDbCircle
 10
-32.83563002702513
 20
-74.8562125625787
 30
0.0
 40
6.09927857925762
100
AcDbArc
 50
19.14182641920172
 51
24.19758204563993
  0
ARC
  5
99
330
1F
100
AcDbEntity
  8
1
  6
DASHED
 62
     2
100
AcDbCircle
 10
-13.70886963823432
 20
-74.8562125625787
 30
0.0
 40
6.099278579257624
100
AcDbArc
 50
-160.8581735807983
 51
-155.80241795436
  0
ARC
  5
9A
330
1F
100
AcDbEntity
  8
1
  6
DASHED
 62
     2
100
AcDbCircle
 10
-32.83563002702513
 20
-74.8562125625787
 30
0.0
 40
6.09927857925762
100
AcDbArc
 50
-19.14182641920172
 51
19.14182641920172
  0
ARC
  5
9B
330
1F
100
AcDbEntity
  8
1
  6
DASHED
 62
     2
100
AcDbCircle
 10
-13.70886963823432
 20
-74.8562125625787
 30
0.0
 40
6.099278579257624
100
AcDbArc
 50
155.80241795436
 51
160.8581735807983
  0
ARC
  5
9C
330
1F
100
AcDbEntity
  8
1
  6
DASHED
 62
     2
100
AcDbCircle
 10
-13.70886963823432
 20
-74.8562125625787
 30
0.0
 40
6.099278579257624
100
AcDbArc
 50
160.8581735807983
 51
-160.8581735807983
  0
ARC
  5
9D
330
1F
100
AcDbEntity
  8
1
  6
DASHED
 62
     2
100
AcDbCircle
 10
-32.83563002702513
 20
-74.8562125625787
 30
0.0
 40
6.099278579257652
100
AcDbArc
 50
-24.19758204563993
 51
-19.14182641920172
  0
ARC
  5
9E
330
1F
100
AcDbEntity
  8
1
  6
Continuous
 62
     7
100
AcDbCircle
 10
-20.27224983262971
 20
-60.954288773932
 30
0.0
 40
2.0
100
AcDbArc
 50
0.0
 51
59.99999999999885
  0
ARC
  5
9F
330
1F
100
AcDbEntity
  8
1
  6
Continuous
 62
     7
100
AcDbCircle
 10
-26.27224983262971
 20
-60.954288773932
 30
0.0
 40
1.99999999999993
100
AcDbArc
 50
120.0000000000012
 51
180.0
  0
ARC
  5
A0
330
1F
100
AcDbEntity
  8
1
  6
DASHED
 62
     2
100
AcDbCircle
 10
-29.27224983263022
 20
-66.09282199166378
 30
0.0
 40
10.0
100
AcDbArc
 50
0.0
 51
4.99999999999998
  0
ARC
  5
A1
330
1F
100
AcDbEntity
  8
1
  6
DASHED
 62
     2
100
AcDbCircle
 10
-17.27224983263022
 20
-66.09282199166378
 30
0.0
 40
10.00000000000005
100
AcDbArc
 50
175.0000000000001
 51
180.0
  0
ARC
  5
A2
330
1F
100
AcDbEntity
  8
1
  6
DASHED
 62
     2
100
AcDbCircle
 10
-19.93163934574852
 20
-63.85621256257867
 30
0.0
 40
0.4999999999999159
100
AcDbArc
 50
4.99999999999982
 51
90.0
  0
ARC
  5
A3
330
1F
100
AcDbEntity
  8
1
  6
DASHED
 62
     2
100
AcDbCircle
 10
-26.61286031951192
 20
-63.85621256257867
 30
0.0
 40
0.5
100
AcDbArc
 50
90.0
 51
175.0000000000014
  0
MTEXT
  5
A5
330
1F
100
AcDbEntity
  8
1
 62
     2
100
AcDbMText
 10
7.17754024917789
 20
-112.0120747957158
 30
0.0
 40
3.5
 41
0.0
 71
     5
 72
     1
  1
ø7x50
  7
CONVERTER_11
 73
     1
 44
1.32052821128451
  0
MTEXT
  5
A6
330
1F
100
AcDbEntity
  8
1
 62
     2
100
AcDbMText
 10
26.3116526866005
 20
-83.7819767659148
 30
0.0
 40
2.5
 41
0.0
 71
     5
 72
     1
  1
BBL
  7
CONVERTER_11
 73
     1
 44
1.32052821128451
  0
DIMENSION
  5
B1
330
1F
100
AcDbEntity
  8
1
100
AcDbDimension
  2
*D1
 10
-28.27224983262971
 20
-49.0623767910425
 30
0.0
 11
-22.41363873238171
 21
-45.3123767910425
 31
0.0
 70
    32
  1
<>
 71
     5
 42
-1.0
 53
0.00013888888889
  3
ME10_DIM_10
100
AcDbAlignedDimension
 13
-18.27224983262971
 23
-60.954288773932
 33
0.0
 14
-28.27224983262971
 24
-60.954288773932
 34
0.0
100
AcDbRotatedDimension
  0
DIMENSION
  5
BC
330
1F
100
AcDbEntity
  8
1
100
AcDbDimension
  2
*D2
 10
-30.77224983262971
 20
-136.8094261340885
 30
0.0
 11
-22.46524605278771
 21
-133.0594261340885
 31
0.0
 70
    32
  1
<>
 71
     5
 42
-1.0
 53
0.00013888888889
  3
ME10_DIM_11
100
AcDbAlignedDimension
 13
-15.77224983262971
 23
-125.8562125625787
 33
0.0
 14
-30.77224983262971
 24
-125.8562125625787
 34
0.0
100
AcDbRotatedDimension
  0
DIMENSION
  5
C7
330
1F
100
AcDbEntity
  8
1
100
AcDbDimension
  2
*D3
 10
42.91305559222829
 20
-85.8562125625787
 30
0.0
 11
39.16305559222829
 21
-91.1072746908908
 31
0.0
 70
    32
  1
<>
 71
     5
 42
-1.0
 53
90.0
  3
ME10_DIM_12
100
AcDbAlignedDimension
 13
34.8372088114937
 23
-97.3562125625787
 33
0.0
 14
36.6051607879933
 24
-85.8562125625787
 34
0.0
 50
90.0
100
AcDbRotatedDimension
  0
DIMENSION
  5
D3
330
1F
100
AcDbEntity
  8
1
100
AcDbDimension
  2
*D4
 10
53.28206302196909
 20
-97.3562125625787
 30
0.0
 11
50.12622857649949
 21
-70.5006822743195
 31
0.0
 70
    32
  1
bis 15.5
 71
     5
 42
-1.0
 53
90.0
  3
ME10_DIM_13
100
AcDbAlignedDimension
 13
36.6051607879933
 23
-81.8562125625787
 33
0.0
 14
34.8372088114937
 24
-97.3562125625787
 34
0.0
 50
90.0
100
AcDbRotatedDimension
  0
DIMENSION
  5
DE
330
1F
100
AcDbEntity
  8
1
100
AcDbDimension
  2
*D5
 10
-42.0190221647287
 20
-58.3562125625787
 30
0.0
 11
-45.7690221647287
 21
-69.79851127246167
 31
0.0
 70
    32
  1
<>
 71
     5
 42
-1.0
 53
90.0
  3
ME10_DIM_14
100
AcDbAlignedDimension
 13
-30.02224983262971
 23
-81.8562125625787
 33
0.0
 14
-25.77224983262971
 24
-58.35621256257871
 34
0.0
 50
90.0
100
AcDbRotatedDimension
  0
DIMENSION
  5
E9
330
1F
100
AcDbEntity
  8
1
100
AcDbDimension
  2
*D6
 10
42.91305559222829
 20
-97.3562125625787
 30
0.0
 11
39.16305559222829
 21
-108.3562125625787
 31
0.0
 70
    32
  1
<>
 71
     5
 42
-1.0
 53
90.0
  3
ME10_DIM_15
100
AcDbAlignedDimension
 13
34.8372088114937
 23
-119.3562125625787
 33
0.0
 14
34.8372088114937
 24
-97.3562125625787
 34
0.0
 50
90.0
100
AcDbRotatedDimension
  0
DIMENSION
  5
F4
330
1F
100
AcDbEntity
  8
1
100
AcDbDimension
  2
*D7
 10
-42.0190221647287
 20
-85.8562125625787
 30
0.0
 11
-45.7690221647287
 21
-105.8562125625787
 31
0.0
 70
    32
  1
<>
 71
     5
 42
-1.0
 53
90.0
  3
ME10_DIM_16
100
AcDbAlignedDimension
 13
-30.77224983262971
 23
-125.8562125625787
 33
0.0
 14
-38.9782958368277
 24
-85.8562125625787
 34
0.0
 50
90.0
100
AcDbRotatedDimension
  0
ENDSEC
  0
SECTION
  2
OBJECTS
  0
DICTIONARY
  5
C
330
0
100
AcDbDictionary
281
     1
  3
ACAD_GROUP
350
D
  3
ACAD_LAYOUT
350
1A
  3
ACAD_MLINESTYLE
350
17
  3
ACAD_PLOTSETTINGS
350
19
  3
ACAD_PLOTSTYLENAME
350
E
  0
DICTIONARY
  5
D
102
{ACAD_REACTORS
330
C
102
}
330
C
100
AcDbDictionary
281
     1
  0
DICTIONARY
  5
1A
102
{ACAD_REACTORS
330
C
102
}
330
C
100
AcDbDictionary
281
     1
  3
Layout1
350
1E
  3
Layout2
350
26
  3
Model
350
22
  0
DICTIONARY
  5
17
102
{ACAD_REACTORS
330
C
102
}
330
C
100
AcDbDictionary
281
     1
  3
Standard
350
18
  0
DICTIONARY
  5
19
102
{ACAD_REACTORS
330
C
102
}
330
C
100
AcDbDictionary
281
     1
  0
ACDBDICTIONARYWDFLT
  5
E
102
{ACAD_REACTORS
330
C
102
}
330
C
100
AcDbDictionary
281
     1
  3
Normal
350
F
100
AcDbDictionaryWithDefault
340
F
  0
LAYOUT
  5
1E
102
{ACAD_REACTORS
330
1A
102
}
330
1A
100
AcDbPlotSettings
  1

  2

  4

  6

 40
0.0
 41
0.0
 42
0.0
 43
0.0
 44
0.0
 45
0.0
 46
0.0
 47
0.0
 48
0.0
 49
0.0
140
0.0
141
0.0
142
1.0
143
1.0
 70
   688
 72
     0
 73
     0
 74
     5
  7

 75
    16
 76
     0
 77
     2
 78
   300
147
1.0
148
0.0
149
0.0
100
AcDbLayout
  1
Layout1
 70
     1
 71
     1
 10
0.0
 20
0.0
 11
0.0
 21
0.0
 12
0.0
 22
0.0
 32
0.0
 14
0.0
 24
0.0
 34
0.0
 15
0.0
 25
0.0
 35
0.0
146
0.0
 13
0.0
 23
0.0
 33
0.0
 16
1.0
 26
0.0
 36
0.0
 17
0.0
 27
1.0
 37
0.0
 76
     0
330
1B
  0
LAYOUT
  5
26
102
{ACAD_REACTORS
330
1A
102
}
330
1A
100
AcDbPlotSettings
  1

  2

  4

  6

 40
0.0
 41
0.0
 42
0.0
 43
0.0
 44
0.0
 45
0.0
 46
0.0
 47
0.0
 48
0.0
 49
0.0
140
0.0
141
0.0
142
1.0
143
1.0
 70
   688
 72
     0
 73
     0
 74
     5
  7

 75
    16
 76
     0
 77
     2
 78
   300
147
1.0
148
0.0
149
0.0
100
AcDbLayout
  1
Layout2
 70
     1
 71
     2
 10
0.0
 20
0.0
 11
0.0
 21
0.0
 12
0.0
 22
0.0
 32
0.0
 14
0.0
 24
0.0
 34
0.0
 15
0.0
 25
0.0
 35
0.0
146
0.0
 13
0.0
 23
0.0
 33
0.0
 16
1.0
 26
0.0
 36
0.0
 17
0.0
 27
1.0
 37
0.0
 76
     0
330
23
  0
LAYOUT
  5
22
102
{ACAD_REACTORS
330
1A
102
}
330
1A
100
AcDbPlotSettings
  1

  2

  4

  6

 40
0.0
 41
0.0
 42
0.0
 43
0.0
 44
0.0
 45
0.0
 46
0.0
 47
0.0
 48
0.0
 49
0.0
140
0.0
141
0.0
142
1.0
143
1.0
 70
  1712
 72
     0
 73
     0
 74
     0
  7

 75
     0
 76
     0
 77
     2
 78
   300
147
1.0
148
0.0
149
0.0
100
AcDbLayout
  1
Model
 70
     1
 71
     0
 10
0.0
 20
0.0
 11
0.0
 21
0.0
 12
0.0
 22
0.0
 32
0.0
 14
-47.5190221647287
 24
-138.8094261340885
 34
0.0
 15
55.28206302196909
 25
-43.5623767910425
 35
0.0
146
0.0
 13
0.0
 23
0.0
 33
0.0
 16
1.0
 26
0.0
 36
0.0
 17
0.0
 27
1.0
 37
0.0
 76
     0
330
1F
  0
MLINESTYLE
  5
18
102
{ACAD_REACTORS
330
17
102
}
330
17
100
AcDbMlineStyle
  2
Standard
 70
     0
  3

 62
   256
 51
90.0
 52
90.0
 71
     2
 49
0.5
 62
   256
  6
BYLAYER
 49
-0.5
 62
   256
  6
BYLAYER
  0
ACDBPLACEHOLDER
  5
F
102
{ACAD_REACTORS
330
E
102
}
330
E
  0
ENDSEC
  0
EOF
