  0
SECTION
  2
HEADER
  9
$ACADVER
  1
AC1018
  9
$ACADMAINTVER
 70
     0
  9
$DWGCODEPAGE
  3
ANSI_1252
  9
$INSBASE
 10
0.0
 20
0.0
 30
0.0
  9
$EXTMIN
 10
-68.8375747942014
 20
-72.73507371846995
 30
0.0
  9
$EXTMAX
 10
66.08510561817002
 20
67.26492628153011
 30
0.0
  9
$LIMMIN
 10
0.0
 20
0.0
  9
$LIMMAX
 10
12.0
 20
9.0
  9
$ORTHOMODE
 70
     0
  9
$REGENMODE
 70
     1
  9
$FILLMODE
 70
     1
  9
$QTEXTMODE
 70
     0
  9
$MIRRTEXT
 70
     1
  9
$LTSCALE
 40
1.0
  9
$ATTMODE
 70
     1
  9
$TEXTSIZE
 40
0.2
  9
$TRACEWID
 40
0.05
  9
$TEXTSTYLE
  7
Standard
  9
$CLAYER
  8
0
  9
$CELTYPE
  6
ByLayer
  9
$CECOLOR
 62
   256
  9
$CELTSCALE
 40
1.0
  9
$DISPSILH
 70
     0
  9
$DIMSCALE
 40
1.0
  9
$DIMASZ
 40
0.18
  9
$DIMEXO
 40
0.0625
  9
$DIMDLI
 40
0.38
  9
$DIMRND
 40
0.0
  9
$DIMDLE
 40
0.0
  9
$DIMEXE
 40
0.18
  9
$DIMTP
 40
0.0
  9
$DIMTM
 40
0.0
  9
$DIMTXT
 40
0.18
  9
$DIMCEN
 40
0.09
  9
$DIMTSZ
 40
0.0
  9
$DIMTOL
 70
     0
  9
$DIMLIM
 70
     0
  9
$DIMTIH
 70
     1
  9
$DIMTOH
 70
     1
  9
$DIMSE1
 70
     0
  9
$DIMSE2
 70
     0
  9
$DIMTAD
 70
     0
  9
$DIMZIN
 70
     0
  9
$DIMBLK
  1

  9
$DIMASO
 70
     1
  9
$DIMSHO
 70
     1
  9
$DIMPOST
  1

  9
$DIMAPOST
  1

  9
$DIMALT
 70
     0
  9
$DIMALTD
 70
     2
  9
$DIMALTF
 40
25.4
  9
$DIMLFAC
 40
1.0
  9
$DIMTOFL
 70
     0
  9
$DIMTVP
 40
0.0
  9
$DIMTIX
 70
     0
  9
$DIMSOXD
 70
     0
  9
$DIMSAH
 70
     0
  9
$DIMBLK1
  1

  9
$DIMBLK2
  1

  9
$DIMSTYLE
  2
Standard
  9
$DIMCLRD
 70
     0
  9
$DIMCLRE
 70
     0
  9
$DIMCLRT
 70
     0
  9
$DIMTFAC
 40
1.0
  9
$DIMGAP
 40
0.09
  9
$DIMJUST
 70
     0
  9
$DIMSD1
 70
     0
  9
$DIMSD2
 70
     0
  9
$DIMTOLJ
 70
     1
  9
$DIMTZIN
 70
     0
  9
$DIMALTZ
 70
     0
  9
$DIMALTTZ
 70
     0
  9
$DIMUPT
 70
     0
  9
$DIMDEC
 70
     4
  9
$DIMTDEC
 70
     4
  9
$DIMALTU
 70
     2
  9
$DIMALTTD
 70
     2
  9
$DIMTXSTY
  7
Standard
  9
$DIMAUNIT
 70
     0
  9
$DIMADEC
 70
     0
  9
$DIMALTRND
 40
0.0
  9
$DIMAZIN
 70
     0
  9
$DIMDSEP
 70
    46
  9
$DIMATFIT
 70
     3
  9
$DIMFRAC
 70
     0
  9
$DIMLDRBLK
  1

  9
$DIMLUNIT
 70
     2
  9
$DIMLWD
 70
    -2
  9
$DIMLWE
 70
    -2
  9
$DIMTMOVE
 70
     0
  9
$LUNITS
 70
     2
  9
$LUPREC
 70
     4
  9
$SKETCHINC
 40
0.1
  9
$FILLETRAD
 40
0.5
  9
$AUNITS
 70
     0
  9
$AUPREC
 70
     0
  9
$MENU
  1
.
  9
$ELEVATION
 40
0.0
  9
$PELEVATION
 40
0.0
  9
$THICKNESS
 40
0.0
  9
$LIMCHECK
 70
     0
  9
$CHAMFERA
 40
0.5
  9
$CHAMFERB
 40
0.5
  9
$CHAMFERC
 40
1.0
  9
$CHAMFERD
 40
0.0
  9
$SKPOLY
 70
     0
  9
$TDCREATE
 40
2454428.403174803
  9
$TDUCREATE
 40
2454428.361508137
  9
$TDUPDATE
 40
2454428.403174815
  9
$TDUUPDATE
 40
2454428.361508148
  9
$TDINDWG
 40
0.0000000116
  9
$TDUSRTIMER
 40
0.0000000116
  9
$USRTIMER
 70
     1
  9
$ANGBASE
 50
0.0
  9
$ANGDIR
 70
     0
  9
$PDMODE
 70
     0
  9
$PDSIZE
 40
0.0
  9
$PLINEWID
 40
0.0
  9
$SPLFRAME
 70
     0
  9
$SPLINETYPE
 70
     6
  9
$SPLINESEGS
 70
     8
  9
$HANDSEED
  5
B5
  9
$SURFTAB1
 70
     6
  9
$SURFTAB2
 70
     6
  9
$SURFTYPE
 70
     6
  9
$SURFU
 70
     6
  9
$SURFV
 70
     6
  9
$UCSBASE
  2

  9
$UCSNAME
  2

  9
$UCSORG
 10
0.0
 20
0.0
 30
0.0
  9
$UCSXDIR
 10
1.0
 20
0.0
 30
0.0
  9
$UCSYDIR
 10
0.0
 20
1.0
 30
0.0
  9
$UCSORTHOREF
  2

  9
$UCSORTHOVIEW
 70
     0
  9
$UCSORGTOP
 10
0.0
 20
0.0
 30
0.0
  9
$UCSORGBOTTOM
 10
0.0
 20
0.0
 30
0.0
  9
$UCSORGLEFT
 10
0.0
 20
0.0
 30
0.0
  9
$UCSORGRIGHT
 10
0.0
 20
0.0
 30
0.0
  9
$UCSORGFRONT
 10
0.0
 20
0.0
 30
0.0
  9
$UCSORGBACK
 10
0.0
 20
0.0
 30
0.0
  9
$PUCSBASE
  2

  9
$PUCSNAME
  2

  9
$PUCSORG
 10
0.0
 20
0.0
 30
0.0
  9
$PUCSXDIR
 10
1.0
 20
0.0
 30
0.0
  9
$PUCSYDIR
 10
0.0
 20
1.0
 30
0.0
  9
$PUCSORTHOREF
  2

  9
$PUCSORTHOVIEW
 70
     0
  9
$PUCSORGTOP
 10
0.0
 20
0.0
 30
0.0
  9
$PUCSORGBOTTOM
 10
0.0
 20
0.0
 30
0.0
  9
$PUCSORGLEFT
 10
0.0
 20
0.0
 30
0.0
  9
$PUCSORGRIGHT
 10
0.0
 20
0.0
 30
0.0
  9
$PUCSORGFRONT
 10
0.0
 20
0.0
 30
0.0
  9
$PUCSORGBACK
 10
0.0
 20
0.0
 30
0.0
  9
$USERI1
 70
     0
  9
$USERI2
 70
     0
  9
$USERI3
 70
     0
  9
$USERI4
 70
     0
  9
$USERI5
 70
     0
  9
$USERR1
 40
14.5
  9
$USERR2
 40
0.0
  9
$USERR3
 40
0.0
  9
$USERR4
 40
0.0
  9
$USERR5
 40
0.0
  9
$WORLDVIEW
 70
     1
  9
$SHADEDGE
 70
     3
  9
$SHADEDIF
 70
    70
  9
$TILEMODE
 70
     1
  9
$MAXACTVP
 70
    64
  9
$PINSBASE
 10
0.0
 20
0.0
 30
0.0
  9
$PLIMCHECK
 70
     0
  9
$PEXTMIN
 10
1.00000000000000E+20
 20
1.00000000000000E+20
 30
1.00000000000000E+20
  9
$PEXTMAX
 10
-1.00000000000000E+20
 20
-1.00000000000000E+20
 30
-1.00000000000000E+20
  9
$PLIMMIN
 10
0.0
 20
0.0
  9
$PLIMMAX
 10
12.0
 20
9.0
  9
$UNITMODE
 70
     0
  9
$VISRETAIN
 70
     1
  9
$PLINEGEN
 70
     0
  9
$PSLTSCALE
 70
     1
  9
$TREEDEPTH
 70
  3020
  9
$CMLSTYLE
  2
Standard
  9
$CMLJUST
 70
     0
  9
$CMLSCALE
 40
1.0
  9
$PROXYGRAPHICS
 70
     1
  9
$MEASUREMENT
 70
     1
  9
$CELWEIGHT
370
    -1
  9
$ENDCAPS
280
     0
  9
$JOINSTYLE
280
     0
  9
$LWDISPLAY
290
     0
  9
$INSUNITS
 70
     1
  9
$HYPERLINKBASE
  1

  9
$STYLESHEET
  1

  9
$XEDIT
290
     1
  9
$CEPSNTYPE
380
     0
  9
$PSTYLEMODE
290
     1
  9
$FINGERPRINTGUID
  2
{2FFB7554-B2D8-4C74-91A6-B0AE81075BF8}
  9
$VERSIONGUID
  2
{FAEB1C32-E019-11D5-929B-00C0DF256EC4}
  9
$EXTNAMES
290
     1
  9
$PSVPSCALE
 40
0.0
  9
$OLESTARTUP
290
     0
  9
$SORTENTS
280
   127
  9
$INDEXCTL
280
     0
  9
$HIDETEXT
280
     1
  9
$XCLIPFRAME
290
     0
  9
$HALOGAP
280
     0
  9
$OBSCOLOR
 70
   257
  9
$OBSLTYPE
280
     0
  9
$INTERSECTIONDISPLAY
280
     0
  9
$INTERSECTIONCOLOR
 70
   257
  9
$DIMASSOC
280
     2
  9
$PROJECTNAME
  1

  0
ENDSEC
  0
SECTION
  2
CLASSES
  0
CLASS
  1
ACDBDICTIONARYWDFLT
  2
AcDbDictionaryWithDefault
  3
ObjectDBX Classes
 90
        0
 91
        3
280
     0
281
     0
  0
CLASS
  1

  2
exOdDbCircle
  3

 90
        0
 91
        3
280
     0
281
     1
  0
ENDSEC
  0
SECTION
  2
TABLES
  0
TABLE
  2
VPORT
  5
8
330
0
100
AcDbSymbolTable
 70
     1
  0
VPORT
  5
29
330
8
100
AcDbSymbolTableRecord
100
AcDbViewportTableRecord
  2
*Active
 70
     0
 10
0.0
 20
0.0
 11
1.0
 21
1.0
 12
-1.37623458801569
 22
-2.73507371846992
 13
0.0
 23
0.0
 14
0.5
 24
0.5
 15
0.5
 25
0.5
 16
0.0
 26
0.0
 36
1.0
 17
0.0
 27
0.0
 37
0.0
 40
154.0000000000001
 41
1.60267857142857
 42
50.0
 43
0.0
 44
0.0
 50
0.0
 51
0.0
 71
     0
 72
   100
 73
     1
 74
     3
 75
     0
 76
     0
 77
     0
 78
     0
281
     0
 65
     1
110
0.0
120
0.0
130
0.0
111
1.0
121
0.0
131
0.0
112
0.0
122
1.0
132
0.0
 79
     0
146
0.0
  0
ENDTAB
  0
TABLE
  2
LTYPE
  5
5
330
0
100
AcDbSymbolTable
 70
     8
  0
LTYPE
  5
14
330
5
100
AcDbSymbolTableRecord
100
AcDbLinetypeTableRecord
  2
ByBlock
 70
     0
  3

 72
    65
 73
     0
 40
0.0
  0
LTYPE
  5
15
330
5
100
AcDbSymbolTableRecord
100
AcDbLinetypeTableRecord
  2
ByLayer
 70
     0
  3

 72
    65
 73
     0
 40
0.0
  0
LTYPE
  5
16
330
5
100
AcDbSymbolTableRecord
100
AcDbLinetypeTableRecord
  2
Continuous
 70
     0
  3
Solid line
 72
    65
 73
     0
 40
0.0
  0
LTYPE
  5
2A
330
5
100
AcDbSymbolTableRecord
100
AcDbLinetypeTableRecord
  2
DASHED
 70
     0
  3
Dashed
 72
    65
 73
     2
 40
15.0
 49
7.0
 74
     0
 49
-8.0
 74
     0
  0
LTYPE
  5
2B
330
5
100
AcDbSymbolTableRecord
100
AcDbLinetypeTableRecord
  2
DOTTED
 70
     0
  3
Dotted
 72
    65
 73
     2
 40
1.0
 49
0.0
 74
     0
 49
-1.0
 74
     0
  0
LTYPE
  5
2C
330
5
100
AcDbSymbolTableRecord
100
AcDbLinetypeTableRecord
  2
DOT_CENTER
 70
     0
  3
Dot_Center
 72
    65
 73
     4
 40
14.0
 49
12.0
 74
     0
 49
-1.0
 74
     0
 49
0.0
 74
     0
 49
-1.0
 74
     0
  0
LTYPE
  5
2D
330
5
100
AcDbSymbolTableRecord
100
AcDbLinetypeTableRecord
  2
LONG_DASHED
 70
     0
  3
Long_Dashed
 72
    65
 73
     2
 40
15.0
 49
10.0
 74
     0
 49
-5.0
 74
     0
  0
LTYPE
  5
2E
330
5
100
AcDbSymbolTableRecord
100
AcDbLinetypeTableRecord
  2
DASH_CENTER
 70
     0
  3
Dash_Center
 72
    65
 73
     4
 40
14.0
 49
11.0
 74
     0
 49
-1.0
 74
     0
 49
1.0
 74
     0
 49
-1.0
 74
     0
  0
LTYPE
  5
2F
330
5
100
AcDbSymbolTableRecord
100
AcDbLinetypeTableRecord
  2
PHANTOM
 70
     0
  3
Phantom
 72
    65
 73
     6
 40
13.0
 49
10.0
 74
     0
 49
-1.0
 74
     0
 49
0.0
 74
     0
 49
-1.0
 74
     0
 49
0.0
 74
     0
 49
-1.0
 74
     0
  0
LTYPE
  5
30
330
5
100
AcDbSymbolTableRecord
100
AcDbLinetypeTableRecord
  2
CENTER_DASH_DASH
 70
     0
  3
Center_Dash_Dash
 72
    65
 73
     6
 40
14.0
 49
9.0
 74
     0
 49
-1.0
 74
     0
 49
1.0
 74
     0
 49
-1.0
 74
     0
 49
1.0
 74
     0
 49
-1.0
 74
     0
  0
ENDTAB
  0
TABLE
  2
LAYER
  5
2
330
0
100
AcDbSymbolTable
 70
     2
  0
LAYER
  5
10
330
2
100
AcDbSymbolTableRecord
100
AcDbLayerTableRecord
  2
0
 70
     0
 62
     7
  6
Continuous
370
    -3
390
F
  0
LAYER
  5
31
330
2
100
AcDbSymbolTableRecord
100
AcDbLayerTableRecord
  2
1
 70
     0
 62
     7
  6
Continuous
370
    -3
390
F
  0
ENDTAB
  0
TABLE
  2
STYLE
  5
3
330
0
100
AcDbSymbolTable
 70
     2
  0
STYLE
  5
11
330
3
100
AcDbSymbolTableRecord
100
AcDbTextStyleTableRecord
  2
Standard
 70
     0
 40
0.0
 41
1.0
 50
0.0
 71
     0
 42
0.2
  3
txt
  4

  0
STYLE
  5
99
330
3
100
AcDbSymbolTableRecord
100
AcDbTextStyleTableRecord
  2
CONVERTER_11
 70
     0
 40
0.0
 41
0.9
 50
0.0
 71
     0
 42
0.2
  3
txt.shx
  4

  0
ENDTAB
  0
TABLE
  2
VIEW
  5
6
330
0
100
AcDbSymbolTable
 70
     0
  0
ENDTAB
  0
TABLE
  2
UCS
  5
7
330
0
100
AcDbSymbolTable
 70
     0
  0
ENDTAB
  0
TABLE
  2
APPID
  5
9
330
0
100
AcDbSymbolTable
 70
     1
  0
APPID
  5
12
330
9
100
AcDbSymbolTableRecord
100
AcDbRegAppTableRecord
  2
ACAD
 70
     0
  0
ENDTAB
  0
TABLE
  2
DIMSTYLE
  5
A
330
0
100
AcDbSymbolTable
 70
     4
100
AcDbDimStyleTable
  0
DIMSTYLE
105
27
330
A
100
AcDbSymbolTableRecord
100
AcDbDimStyleTableRecord
  2
Standard
 70
     0
340
11
  0
DIMSTYLE
105
9D
102
{ACAD_REACTORS
330
9E
102
}
330
A
100
AcDbSymbolTableRecord
100
AcDbDimStyleTableRecord
  2
ME10_DIM_10
 70
     0
 41
3.5
 42
0.0
 44
2.0
 73
     0
 74
     0
 77
     1
 78
     8
140
3.5
147
2.0
172
     1
173
     1
176
     2
177
     2
178
     2
271
     2
340
99
  0
DIMSTYLE
105
A8
102
{ACAD_REACTORS
330
A9
102
}
330
A
100
AcDbSymbolTableRecord
100
AcDbDimStyleTableRecord
  2
ME10_DIM_11
 70
     0
 41
3.5
 42
0.0
 44
2.0
 73
     0
 74
     0
 77
     1
 78
     8
140
3.5
147
2.0
172
     1
173
     1
176
     2
177
     2
178
     2
271
     2
340
99
  0
DIMSTYLE
105
B3
102
{ACAD_REACTORS
330
B4
102
}
330
A
100
AcDbSymbolTableRecord
100
AcDbDimStyleTableRecord
  2
ME10_DIM_12
 70
     0
 41
3.5
 42
0.0
 44
2.0
 73
     0
 74
     0
 77
     1
 78
     8
140
3.5
147
2.0
172
     1
173
     1
176
     2
177
     2
178
     2
271
     2
340
99
  0
ENDTAB
  0
TABLE
  2
BLOCK_RECORD
  5
1
330
0
100
AcDbSymbolTable
 70
     4
  0
BLOCK_RECORD
  5
1F
330
1
100
AcDbSymbolTableRecord
100
AcDbBlockTableRecord
  2
*Model_Space
340
22
  0
BLOCK_RECORD
  5
1B
330
1
100
AcDbSymbolTableRecord
100
AcDbBlockTableRecord
  2
*Paper_Space
340
1E
  0
BLOCK_RECORD
  5
23
330
1
100
AcDbSymbolTableRecord
100
AcDbBlockTableRecord
  2
*Paper_Space0
340
26
  0
BLOCK_RECORD
  5
93
330
1
100
AcDbSymbolTableRecord
100
AcDbBlockTableRecord
  2
*D1
340
0
  0
BLOCK_RECORD
  5
9F
330
1
100
AcDbSymbolTableRecord
100
AcDbBlockTableRecord
  2
*D2
340
0
  0
BLOCK_RECORD
  5
AA
330
1
100
AcDbSymbolTableRecord
100
AcDbBlockTableRecord
  2
*D3
340
0
  0
ENDTAB
  0
ENDSEC
  0
SECTION
  2
BLOCKS
  0
BLOCK
  5
20
330
1F
100
AcDbEntity
  8
0
100
AcDbBlockBegin
  2
*Model_Space
 70
     0
 71
     0
 10
0.0
 20
0.0
 30
0.0
  3
*Model_Space
  1

  0
ENDBLK
  5
21
330
1F
100
AcDbEntity
  8
0
100
AcDbBlockEnd
  0
BLOCK
  5
1C
330
1B
100
AcDbEntity
 67
     1
  8
0
100
AcDbBlockBegin
  2
*Paper_Space
 70
     0
 71
     0
 10
0.0
 20
0.0
 30
0.0
  3
*Paper_Space
  1

  0
ENDBLK
  5
1D
330
1B
100
AcDbEntity
 67
     1
  8
0
100
AcDbBlockEnd
  0
BLOCK
  5
24
330
23
100
AcDbEntity
  8
0
100
AcDbBlockBegin
  2
*Paper_Space0
 70
     0
 71
     0
 10
0.0
 20
0.0
 30
0.0
  3
*Paper_Space0
  1

  0
ENDBLK
  5
25
330
23
100
AcDbEntity
  8
0
100
AcDbBlockEnd
  0
BLOCK
  5
9B
330
93
100
AcDbEntity
  8
0
100
AcDbBlockBegin
  2
*D1
 70
     1
 71
     0
 10
0.0
 20
0.0
 30
0.0
  3
*D1
  1

  0
LINE
  5
94
330
93
100
AcDbEntity
  8
1
  6
Continuous
 62
     2
100
AcDbLine
 10
-49.6747140074167
 20
-16.73507371846993
 30
0.0
 11
-49.6747140074167
 21
11.26492628153006
 31
0.0
  0
LINE
  5
95
330
93
100
AcDbEntity
  8
1
  6
Continuous
 62
     2
100
AcDbLine
 10
-31.46969309868942
 20
11.26492628153006
 30
0.0
 11
-51.6747140074167
 21
11.26492628153006
 31
0.0
  0
LINE
  5
96
330
93
100
AcDbEntity
  8
1
  6
Continuous
 62
     2
100
AcDbLine
 10
-31.46969309868942
 20
-16.73507371846993
 30
0.0
 11
-51.6747140074167
 21
-16.73507371846993
 31
0.0
  0
SOLID
  5
97
330
93
100
AcDbEntity
  8
1
 62
     2
100
AcDbTrace
 10
-49.21393026586082
 20
7.76492628153006
 30
0.0
 11
-50.13549774897259
 21
7.76492628153006
 31
0.0
 12
-49.6747140074167
 22
11.26492628153006
 32
0.0
 13
-49.6747140074167
 23
11.26492628153006
 33
0.0
  0
SOLID
  5
98
330
93
100
AcDbEntity
  8
1
 62
     2
100
AcDbTrace
 10
-50.13549774897259
 20
-13.23507371846993
 30
0.0
 11
-49.21393026586082
 21
-13.23507371846993
 31
0.0
 12
-49.6747140074167
 22
-16.73507371846993
 32
0.0
 13
-49.6747140074167
 23
-16.73507371846993
 33
0.0
  0
MTEXT
  5
9A
330
93
100
AcDbEntity
  8
1
 62
     2
100
AcDbMText
 10
-51.6747140074167
 20
-4.3655092437269
 30
0.0
 40
3.5
 41
0.0
 71
     7
 72
     1
  1
28
  7
CONVERTER_11
 11
0.0
 21
1.0
 31
0.0
 73
     1
 44
0.60024009603842
  0
ENDBLK
  5
9C
330
93
100
AcDbEntity
  8
0
100
AcDbBlockEnd
  0
BLOCK
  5
A6
330
9F
100
AcDbEntity
  8
0
100
AcDbBlockBegin
  2
*D2
 70
     1
 71
     0
 10
0.0
 20
0.0
 30
0.0
  3
*D2
  1

  0
LINE
  5
A0
330
9F
100
AcDbEntity
  8
1
  6
Continuous
 62
     2
100
AcDbLine
 10
-63.3375747942014
 20
-48.73507371846992
 30
0.0
 11
-63.3375747942014
 21
43.26492628153008
 31
0.0
  0
LINE
  5
A1
330
9F
100
AcDbEntity
  8
1
  6
Continuous
 62
     2
100
AcDbLine
 10
-42.36337697707177
 20
43.26492628153008
 30
0.0
 11
-65.3375747942014
 21
43.26492628153008
 31
0.0
  0
LINE
  5
A2
330
9F
100
AcDbEntity
  8
1
  6
Continuous
 62
     2
100
AcDbLine
 10
-42.36337697707177
 20
-48.73507371846992
 30
0.0
 11
-65.3375747942014
 21
-48.73507371846992
 31
0.0
  0
SOLID
  5
A3
330
9F
100
AcDbEntity
  8
1
 62
     2
100
AcDbTrace
 10
-62.87679105264552
 20
39.76492628153008
 30
0.0
 11
-63.79835853575729
 21
39.76492628153008
 31
0.0
 12
-63.3375747942014
 22
43.26492628153008
 32
0.0
 13
-63.3375747942014
 23
43.26492628153008
 33
0.0
  0
SOLID
  5
A4
330
9F
100
AcDbEntity
  8
1
 62
     2
100
AcDbTrace
 10
-63.79835853575729
 20
-45.23507371846992
 30
0.0
 11
-62.87679105264552
 21
-45.23507371846992
 31
0.0
 12
-63.3375747942014
 22
-48.73507371846992
 32
0.0
 13
-63.3375747942014
 23
-48.73507371846992
 33
0.0
  0
MTEXT
  5
A5
330
9F
100
AcDbEntity
  8
1
 62
     2
100
AcDbMText
 10
-65.3375747942014
 20
-2.9786304195008
 30
0.0
 40
3.5
 41
0.0
 71
     7
 72
     1
  1
92
  7
CONVERTER_11
 11
0.0
 21
1.0
 31
0.0
 73
     1
 44
0.60024009603842
  0
ENDBLK
  5
A7
330
9F
100
AcDbEntity
  8
0
100
AcDbBlockEnd
  0
BLOCK
  5
B1
330
AA
100
AcDbEntity
  8
0
100
AcDbBlockBegin
  2
*D3
 70
     1
 71
     0
 10
0.0
 20
0.0
 30
0.0
  3
*D3
  1

  0
LINE
  5
AB
330
AA
100
AcDbEntity
  8
1
  6
Continuous
 62
     2
100
AcDbLine
 10
64.08510561817002
 20
67.26492628153011
 30
0.0
 11
64.08510561817002
 21
-72.73507371846995
 31
0.0
  0
LINE
  5
AC
330
AA
100
AcDbEntity
  8
1
  6
Continuous
 62
     2
100
AcDbLine
 10
49.63662302292819
 20
-72.73507371846995
 30
0.0
 11
66.08510561817002
 21
-72.73507371846995
 31
0.0
  0
LINE
  5
AD
330
AA
100
AcDbEntity
  8
1
  6
Continuous
 62
     2
100
AcDbLine
 10
49.63662302292819
 20
67.26492628153011
 30
0.0
 11
66.08510561817002
 21
67.26492628153011
 31
0.0
  0
SOLID
  5
AE
330
AA
100
AcDbEntity
  8
1
 62
     2
100
AcDbTrace
 10
64.5458893597259
 20
63.76492628153011
 30
0.0
 11
63.62432187661413
 21
63.76492628153011
 31
0.0
 12
64.08510561817002
 22
67.26492628153011
 32
0.0
 13
64.08510561817002
 23
67.26492628153011
 33
0.0
  0
SOLID
  5
AF
330
AA
100
AcDbEntity
  8
1
 62
     2
100
AcDbTrace
 10
63.62432187661413
 20
-69.23507371846995
 30
0.0
 11
64.5458893597259
 21
-69.23507371846995
 31
0.0
 12
64.08510561817002
 22
-72.73507371846995
 32
0.0
 13
64.08510561817002
 23
-72.73507371846995
 33
0.0
  0
MTEXT
  5
B0
330
AA
100
AcDbEntity
  8
1
 62
     2
100
AcDbMText
 10
62.08510561817001
 20
-7.2554345432122
 30
0.0
 40
3.5
 41
0.0
 71
     7
 72
     1
  1
140
  7
CONVERTER_11
 11
0.0
 21
1.0
 31
0.0
 73
     1
 44
0.60024009603842
  0
ENDBLK
  5
B2
330
AA
100
AcDbEntity
  8
0
100
AcDbBlockEnd
  0
ENDSEC
  0
SECTION
  2
ENTITIES
  0
LINE
  5
32
330
1F
100
AcDbEntity
  8
1
  6
DOT_CENTER
 62
     2
100
AcDbLine
 10
-31.46969309868941
 20
-16.73507371846993
 30
0.0
 11
-21.3319370401511
 21
-16.73507371846993
 31
0.0
  0
LINE
  5
33
330
1F
100
AcDbEntity
  8
1
  6
DOT_CENTER
 62
     2
100
AcDbLine
 10
-31.46969309868941
 20
11.26492628153007
 30
0.0
 11
-21.3319370401511
 21
11.26492628153007
 31
0.0
  0
LINE
  5
34
330
1F
100
AcDbEntity
  8
1
  6
DOT_CENTER
 62
     2
100
AcDbLine
 10
-15.36337697707175
 20
25.26492628153007
 30
0.0
 11
-15.36337697707175
 21
37.63992628153007
 31
0.0
  0
LINE
  5
35
330
1F
100
AcDbEntity
  8
1
  6
Continuous
 62
     7
100
AcDbLine
 10
-9.36337697707175
 20
-32.73507371846993
 30
0.0
 11
-9.36337697707175
 21
27.26492628153007
 31
0.0
  0
LINE
  5
36
330
1F
100
AcDbEntity
  8
1
  6
DOT_CENTER
 62
     2
100
AcDbLine
 10
-26.36337697707175
 20
-22.4998526298067
 30
0.0
 11
-26.36337697707175
 21
16.55713858884781
 31
0.0
  0
LINE
  5
37
330
1F
100
AcDbEntity
  8
1
  6
DOT_CENTER
 62
     2
100
AcDbLine
 10
-21.73837697707175
 20
31.26492628153007
 30
0.0
 11
-8.98837697707175
 21
31.26492628153007
 31
0.0
  0
LINE
  5
38
330
1F
100
AcDbEntity
  8
1
  6
DOT_CENTER
 62
     2
100
AcDbLine
 10
-21.73837697707175
 20
-36.73507371846993
 30
0.0
 11
-8.98837697707175
 21
-36.73507371846993
 31
0.0
  0
LINE
  5
39
330
1F
100
AcDbEntity
  8
1
  6
DOT_CENTER
 62
     2
100
AcDbLine
 10
-35.73837697707175
 20
37.26492628153007
 30
0.0
 11
-22.98837697707175
 21
37.26492628153007
 31
0.0
  0
LINE
  5
3A
330
1F
100
AcDbEntity
  8
1
  6
DOT_CENTER
 62
     2
100
AcDbLine
 10
-29.36337697707175
 20
30.88992628153007
 30
0.0
 11
-29.36337697707175
 21
43.63992628153007
 31
0.0
  0
LINE
  5
3B
330
1F
100
AcDbEntity
  8
1
  6
DOT_CENTER
 62
     2
100
AcDbLine
 10
-35.73837697707175
 20
-42.73507371846993
 30
0.0
 11
-22.98837697707175
 21
-42.73507371846993
 31
0.0
  0
LINE
  5
3C
330
1F
100
AcDbEntity
  8
1
  6
DOT_CENTER
 62
     2
100
AcDbLine
 10
-29.36337697707175
 20
-49.11007371846993
 30
0.0
 11
-29.36337697707175
 21
-36.36007371846993
 31
0.0
  0
LINE
  5
3D
330
1F
100
AcDbEntity
  8
1
  6
Continuous
 62
     7
100
AcDbLine
 10
-25.36337697707175
 20
43.26492628153007
 30
0.0
 11
-42.36337697707175
 21
43.26492628153007
 31
0.0
  0
LINE
  5
3E
330
1F
100
AcDbEntity
  8
1
  6
Continuous
 62
     7
100
AcDbLine
 10
-42.36337697707175
 20
-48.73507371846993
 30
0.0
 11
-25.36337697707175
 21
-48.73507371846993
 31
0.0
  0
LINE
  5
3F
330
1F
100
AcDbEntity
  8
1
  6
Continuous
 62
     7
100
AcDbLine
 10
-42.36337697707175
 20
43.26492628153007
 30
0.0
 11
-42.36337697707175
 21
-48.73507371846993
 31
0.0
  0
LINE
  5
40
330
1F
100
AcDbEntity
  8
1
  6
DOT_CENTER
 62
     2
100
AcDbLine
 10
-15.36337697707175
 20
-43.11007371846993
 30
0.0
 11
-15.36337697707175
 21
-30.73507371846993
 31
0.0
  0
LINE
  5
41
330
1F
100
AcDbEntity
  8
1
  6
Continuous
 62
     7
100
AcDbLine
 10
-33.51337697707176
 20
-32.74321528976575
 30
0.0
 11
-34.66337697707176
 21
-34.73507371846993
 31
0.0
  0
LINE
  5
42
330
1F
100
AcDbEntity
  8
1
  6
Continuous
 62
     7
100
AcDbLine
 10
-31.21337697707176
 20
-32.74321528976575
 30
0.0
 11
-33.51337697707176
 21
-32.74321528976575
 31
0.0
  0
LINE
  5
43
330
1F
100
AcDbEntity
  8
1
  6
Continuous
 62
     7
100
AcDbLine
 10
-30.06337697707176
 20
-34.73507371846993
 30
0.0
 11
-31.21337697707176
 21
-32.74321528976575
 31
0.0
  0
LINE
  5
44
330
1F
100
AcDbEntity
  8
1
  6
Continuous
 62
     7
100
AcDbLine
 10
-31.21337697707176
 20
-36.7269321471741
 30
0.0
 11
-30.06337697707176
 21
-34.73507371846993
 31
0.0
  0
LINE
  5
45
330
1F
100
AcDbEntity
  8
1
  6
Continuous
 62
     7
100
AcDbLine
 10
-33.51337697707176
 20
-36.7269321471741
 30
0.0
 11
-31.21337697707176
 21
-36.7269321471741
 31
0.0
  0
LINE
  5
46
330
1F
100
AcDbEntity
  8
1
  6
Continuous
 62
     7
100
AcDbLine
 10
-34.66337697707176
 20
-34.73507371846993
 30
0.0
 11
-33.51337697707176
 21
-36.7269321471741
 31
0.0
  0
LINE
  5
47
330
1F
100
AcDbEntity
  8
1
  6
Continuous
 62
     7
100
AcDbLine
 10
-27.51337697707176
 20
-18.72693214717422
 30
0.0
 11
-25.21337697707176
 21
-18.72693214717422
 31
0.0
  0
LINE
  5
48
330
1F
100
AcDbEntity
  8
1
  6
Continuous
 62
     7
100
AcDbLine
 10
-28.66337697707176
 20
-16.73507371847004
 30
0.0
 11
-27.51337697707176
 21
-18.72693214717422
 31
0.0
  0
LINE
  5
49
330
1F
100
AcDbEntity
  8
1
  6
Continuous
 62
     7
100
AcDbLine
 10
-27.51337697707176
 20
-14.74321528976583
 30
0.0
 11
-28.66337697707176
 21
-16.73507371847004
 31
0.0
  0
LINE
  5
4A
330
1F
100
AcDbEntity
  8
1
  6
Continuous
 62
     7
100
AcDbLine
 10
-25.21337697707176
 20
-14.74321528976583
 30
0.0
 11
-27.51337697707176
 21
-14.74321528976583
 31
0.0
  0
LINE
  5
4B
330
1F
100
AcDbEntity
  8
1
  6
Continuous
 62
     7
100
AcDbLine
 10
-24.06337697707176
 20
-16.73507371847012
 30
0.0
 11
-25.21337697707176
 21
-14.74321528976583
 31
0.0
  0
LINE
  5
4C
330
1F
100
AcDbEntity
  8
1
  6
Continuous
 62
     7
100
AcDbLine
 10
-25.21337697707176
 20
-18.72693214717422
 30
0.0
 11
-24.06337697707176
 21
-16.73507371847012
 31
0.0
  0
LINE
  5
4D
330
1F
100
AcDbEntity
  8
1
  6
Continuous
 62
     7
100
AcDbLine
 10
-25.21337697707176
 20
13.25678471023428
 30
0.0
 11
-27.51337697707176
 21
13.25678471023428
 31
0.0
  0
LINE
  5
4E
330
1F
100
AcDbEntity
  8
1
  6
Continuous
 62
     7
100
AcDbLine
 10
-27.51337697707176
 20
13.25678471023428
 30
0.0
 11
-28.66337697707176
 21
11.26492628153007
 31
0.0
  0
LINE
  5
4F
330
1F
100
AcDbEntity
  8
1
  6
Continuous
 62
     7
100
AcDbLine
 10
-28.66337697707176
 20
11.26492628153007
 30
0.0
 11
-27.51337697707176
 21
9.27306785282587
 31
0.0
  0
LINE
  5
50
330
1F
100
AcDbEntity
  8
1
  6
Continuous
 62
     7
100
AcDbLine
 10
-27.51337697707176
 20
9.27306785282587
 30
0.0
 11
-25.21337697707176
 21
9.27306785282587
 31
0.0
  0
LINE
  5
51
330
1F
100
AcDbEntity
  8
1
  6
Continuous
 62
     7
100
AcDbLine
 10
-25.21337697707176
 20
9.27306785282587
 30
0.0
 11
-24.06337697707176
 21
11.26492628153019
 31
0.0
  0
LINE
  5
52
330
1F
100
AcDbEntity
  8
1
  6
Continuous
 62
     7
100
AcDbLine
 10
-24.06337697707176
 20
11.26492628153019
 30
0.0
 11
-25.21337697707176
 21
13.25678471023428
 31
0.0
  0
LINE
  5
53
330
1F
100
AcDbEntity
  8
1
  6
Continuous
 62
     7
100
AcDbLine
 10
-33.51337697707176
 20
31.25678471023416
 30
0.0
 11
-34.66337697707176
 21
29.26492628152996
 31
0.0
  0
LINE
  5
54
330
1F
100
AcDbEntity
  8
1
  6
Continuous
 62
     7
100
AcDbLine
 10
-33.51337697707176
 20
27.27306785282578
 30
0.0
 11
-31.21337697707176
 21
27.27306785282578
 31
0.0
  0
LINE
  5
55
330
1F
100
AcDbEntity
  8
1
  6
Continuous
 62
     7
100
AcDbLine
 10
-34.66337697707176
 20
29.26492628152996
 30
0.0
 11
-33.51337697707176
 21
27.27306785282578
 31
0.0
  0
LINE
  5
56
330
1F
100
AcDbEntity
  8
1
  6
Continuous
 62
     7
100
AcDbLine
 10
-31.21337697707176
 20
31.25678471023428
 30
0.0
 11
-33.51337697707176
 21
31.25678471023416
 31
0.0
  0
LINE
  5
57
330
1F
100
AcDbEntity
  8
1
  6
Continuous
 62
     7
100
AcDbLine
 10
-30.06337697707176
 20
29.26492628152996
 30
0.0
 11
-31.21337697707176
 21
31.25678471023428
 31
0.0
  0
LINE
  5
58
330
1F
100
AcDbEntity
  8
1
  6
Continuous
 62
     7
100
AcDbLine
 10
-31.21337697707176
 20
27.27306785282578
 30
0.0
 11
-30.06337697707176
 21
29.26492628152996
 31
0.0
  0
LINE
  5
59
330
1F
100
AcDbEntity
  8
1
  6
DOT_CENTER
 62
     2
100
AcDbLine
 10
-32.36337697707175
 20
33.24745144974551
 30
0.0
 11
-32.36337697707175
 21
25.0972329510774
 31
0.0
  0
LINE
  5
5A
330
1F
100
AcDbEntity
  8
1
  6
DOT_CENTER
 62
     2
100
AcDbLine
 10
-36.69463885316667
 20
29.26492628153007
 30
0.0
 11
-27.75990734393156
 21
29.26492628153007
 31
0.0
  0
LINE
  5
5B
330
1F
100
AcDbEntity
  8
1
  6
DOT_CENTER
 62
     2
100
AcDbLine
 10
-36.95504254440466
 20
-34.73507371846993
 30
0.0
 11
-27.79255209919187
 21
-34.73507371846993
 31
0.0
  0
LINE
  5
5C
330
1F
100
AcDbEntity
  8
1
  6
DOT_CENTER
 62
     2
100
AcDbLine
 10
-32.36337697707175
 20
-39.00620421325332
 30
0.0
 11
-32.36337697707175
 21
-30.2074851008529
 31
0.0
  0
LINE
  5
5D
330
1F
100
AcDbEntity
  8
1
  6
DOT_CENTER
 62
     2
100
AcDbLine
 10
-31.93261350233114
 20
-42.73507371846993
 30
0.0
 11
-26.72742149544295
 21
-42.73507371846993
 31
0.0
  0
LINE
  5
5E
330
1F
100
AcDbEntity
  8
1
  6
Continuous
 62
     2
100
AcDbLine
 10
-26.36337697707181
 20
-50.73507371846994
 30
0.0
 11
-17.36337697707175
 21
-50.73507371846994
 31
0.0
  0
LINE
  5
5F
330
1F
100
AcDbEntity
  8
1
  6
Continuous
 62
     2
100
AcDbLine
 10
-26.36337697707181
 20
45.26492628153007
 30
0.0
 11
-17.36337697707175
 21
45.26492628153007
 31
0.0
  0
LINE
  5
60
330
1F
100
AcDbEntity
  8
1
  6
Continuous
 62
     2
100
AcDbLine
 10
-7.36337697707175
 20
35.26492628153007
 30
0.0
 11
-7.36337697707175
 21
-40.73507371846993
 31
0.0
  0
LINE
  5
61
330
1F
100
AcDbEntity
  8
1
  6
Continuous
 62
     2
100
AcDbLine
 10
12.63662302292821
 20
63.2649262815301
 30
0.0
 11
12.63662302292821
 21
-68.73507371846995
 31
0.0
  0
LINE
  5
62
330
1F
100
AcDbEntity
  8
1
  6
Continuous
 62
     7
100
AcDbLine
 10
-26.36337697707181
 20
67.26492628153011
 30
0.0
 11
49.63662302292819
 21
67.26492628153011
 31
0.0
  0
LINE
  5
63
330
1F
100
AcDbEntity
  8
1
  6
Continuous
 62
     7
100
AcDbLine
 10
49.63662302292819
 20
-72.73507371846995
 30
0.0
 11
-26.36337697707181
 21
-72.73507371846995
 31
0.0
  0
LINE
  5
64
330
1F
100
AcDbEntity
  8
1
  6
Continuous
 62
     7
100
AcDbLine
 10
49.63662302292819
 20
67.26492628153011
 30
0.0
 11
49.63662302292819
 21
-72.73507371846995
 31
0.0
  0
LINE
  5
65
330
1F
100
AcDbEntity
  8
1
  6
DOT_CENTER
 62
     2
100
AcDbLine
 10
-45.1051885769202
 20
-2.73507371846993
 30
0.0
 11
52.79566929505891
 21
-2.73507371846993
 31
0.0
  0
LINE
  5
66
330
1F
100
AcDbEntity
  8
1
  6
Continuous
 62
     7
100
AcDbLine
 10
-29.36337697707181
 20
43.26492628153007
 30
0.0
 11
-27.36337697707181
 21
43.26492628153007
 31
0.0
  0
LINE
  5
67
330
1F
100
AcDbEntity
  8
1
  6
Continuous
 62
     7
100
AcDbLine
 10
-29.36337697707181
 20
-48.73507371846994
 30
0.0
 11
-27.36337697707181
 21
-48.73507371846994
 31
0.0
  0
LINE
  5
68
330
1F
100
AcDbEntity
  8
1
  6
DOT_CENTER
 62
     2
100
AcDbLine
 10
35.88662302292819
 20
-42.73507371846993
 30
0.0
 11
49.38662302292819
 21
-42.73507371846993
 31
0.0
  0
LINE
  5
69
330
1F
100
AcDbEntity
  8
1
  6
DOT_CENTER
 62
     2
100
AcDbLine
 10
42.63662302292819
 20
-49.48507371846994
 30
0.0
 11
42.63662302292819
 21
-35.98507371846993
 31
0.0
  0
LINE
  5
6A
330
1F
100
AcDbEntity
  8
1
  6
DOT_CENTER
 62
     2
100
AcDbLine
 10
-25.11337697707181
 20
57.2649262815301
 30
0.0
 11
29.38662302292819
 21
57.2649262815301
 31
0.0
  0
LINE
  5
6B
330
1F
100
AcDbEntity
  8
1
  6
DOT_CENTER
 62
     2
100
AcDbLine
 10
-18.36337697707181
 20
50.51492628153007
 30
0.0
 11
-18.36337697707181
 21
64.01492628153011
 31
0.0
  0
LINE
  5
6C
330
1F
100
AcDbEntity
  8
1
  6
DOT_CENTER
 62
     2
100
AcDbLine
 10
-25.11337697707181
 20
-62.73507371846994
 30
0.0
 11
29.38662302292819
 21
-62.73507371846994
 31
0.0
  0
LINE
  5
6D
330
1F
100
AcDbEntity
  8
1
  6
DOT_CENTER
 62
     2
100
AcDbLine
 10
-18.36337697707181
 20
-69.48507371846995
 30
0.0
 11
-18.36337697707181
 21
-55.98507371846994
 31
0.0
  0
LINE
  5
6E
330
1F
100
AcDbEntity
  8
1
  6
DOT_CENTER
 62
     2
100
AcDbLine
 10
22.63662302292821
 20
-69.48507371846995
 30
0.0
 11
22.63662302292821
 21
-55.98507371846994
 31
0.0
  0
LINE
  5
6F
330
1F
100
AcDbEntity
  8
1
  6
DOT_CENTER
 62
     2
100
AcDbLine
 10
22.63662302292821
 20
50.51492628153007
 30
0.0
 11
22.63662302292821
 21
64.01492628153011
 31
0.0
  0
LINE
  5
70
330
1F
100
AcDbEntity
  8
1
  6
DOT_CENTER
 62
     2
100
AcDbLine
 10
35.88662302292819
 20
37.26492628153007
 30
0.0
 11
49.38662302292819
 21
37.26492628153007
 31
0.0
  0
LINE
  5
71
330
1F
100
AcDbEntity
  8
1
  6
DOT_CENTER
 62
     2
100
AcDbLine
 10
42.63662302292819
 20
30.51492628153007
 30
0.0
 11
42.63662302292819
 21
44.01492628153007
 31
0.0
  0
LINE
  5
72
330
1F
100
AcDbEntity
  8
1
  6
Continuous
 62
     7
100
AcDbLine
 10
-26.36337697707181
 20
67.26492628153011
 30
0.0
 11
-26.36337697707181
 21
44.26492628153007
 31
0.0
  0
LINE
  5
73
330
1F
100
AcDbEntity
  8
1
  6
Continuous
 62
     7
100
AcDbLine
 10
-26.36337697707181
 20
-72.73507371846995
 30
0.0
 11
-26.36337697707181
 21
-49.73507371846994
 31
0.0
  0
CIRCLE
  5
74
330
1F
100
AcDbEntity
  8
1
  6
Continuous
 62
     7
100
AcDbCircle
 10
-32.36337697707175
 20
29.26492628153007
 30
0.0
 40
2.900000000000006
  0
CIRCLE
  5
75
330
1F
100
AcDbEntity
  8
1
  6
Continuous
 62
     7
100
AcDbCircle
 10
-32.36337697707175
 20
-34.73507371846993
 30
0.0
 40
2.900000000000006
  0
CIRCLE
  5
76
330
1F
100
AcDbEntity
  8
1
  6
Continuous
 62
     7
100
AcDbCircle
 10
-26.36337697707175
 20
11.26492628153007
 30
0.0
 40
3.25
  0
CIRCLE
  5
77
330
1F
100
AcDbEntity
  8
1
  6
Continuous
 62
     7
100
AcDbCircle
 10
-26.36337697707175
 20
-16.73507371846993
 30
0.0
 40
3.25
  0
CIRCLE
  5
78
330
1F
100
AcDbEntity
  8
1
  6
Continuous
 62
     7
100
AcDbCircle
 10
-26.36337697707175
 20
-2.73507371846993
 30
0.0
 40
2.350000000000012
  0
CIRCLE
  5
79
330
1F
100
AcDbEntity
  8
1
  6
Continuous
 62
     7
100
AcDbCircle
 10
-15.36337697707175
 20
31.26492628153007
 30
0.0
 40
4.249999999999998
  0
CIRCLE
  5
7A
330
1F
100
AcDbEntity
  8
1
  6
Continuous
 62
     7
100
AcDbCircle
 10
-15.36337697707175
 20
31.26492628153007
 30
0.0
 40
2.499999999999998
  0
CIRCLE
  5
7B
330
1F
100
AcDbEntity
  8
1
  6
Continuous
 62
     7
100
AcDbCircle
 10
-15.36337697707175
 20
-36.73507371846993
 30
0.0
 40
4.249999999999998
  0
CIRCLE
  5
7C
330
1F
100
AcDbEntity
  8
1
  6
Continuous
 62
     7
100
AcDbCircle
 10
-15.36337697707175
 20
-36.73507371846993
 30
0.0
 40
2.499999999999998
  0
CIRCLE
  5
7D
330
1F
100
AcDbEntity
  8
1
  6
Continuous
 62
     7
100
AcDbCircle
 10
-29.36337697707181
 20
37.26492628153007
 30
0.0
 40
4.249999999999943
  0
CIRCLE
  5
7E
330
1F
100
AcDbEntity
  8
1
  6
Continuous
 62
     7
100
AcDbCircle
 10
-29.36337697707181
 20
37.26492628153007
 30
0.0
 40
2.49999999999994
  0
CIRCLE
  5
7F
330
1F
100
AcDbEntity
  8
1
  6
Continuous
 62
     7
100
AcDbCircle
 10
-29.36337697707175
 20
-42.73507371846993
 30
0.0
 40
4.250000000000004
  0
CIRCLE
  5
80
330
1F
100
AcDbEntity
  8
1
  6
Continuous
 62
     7
100
AcDbCircle
 10
-29.36337697707175
 20
-42.73507371846993
 30
0.0
 40
2.5
  0
CIRCLE
  5
81
330
1F
100
AcDbEntity
  8
1
  6
DASHED
 62
     2
100
AcDbCircle
 10
42.63662302292819
 20
-42.73507371846993
 30
0.0
 40
4.5
  0
CIRCLE
  5
82
330
1F
100
AcDbEntity
  8
1
  6
Continuous
 62
     7
100
AcDbCircle
 10
42.63662302292819
 20
-42.73507371846993
 30
0.0
 40
2.5
  0
CIRCLE
  5
83
330
1F
100
AcDbEntity
  8
1
  6
DASHED
 62
     2
100
AcDbCircle
 10
-18.36337697707181
 20
57.2649262815301
 30
0.0
 40
4.499999999999998
  0
CIRCLE
  5
84
330
1F
100
AcDbEntity
  8
1
  6
Continuous
 62
     7
100
AcDbCircle
 10
-18.36337697707181
 20
57.2649262815301
 30
0.0
 40
2.499999999999998
  0
CIRCLE
  5
85
330
1F
100
AcDbEntity
  8
1
  6
DASHED
 62
     2
100
AcDbCircle
 10
-18.36337697707181
 20
-62.73507371846994
 30
0.0
 40
4.499999999999998
  0
CIRCLE
  5
86
330
1F
100
AcDbEntity
  8
1
  6
Continuous
 62
     7
100
AcDbCircle
 10
-18.36337697707181
 20
-62.73507371846994
 30
0.0
 40
2.499999999999998
  0
CIRCLE
  5
87
330
1F
100
AcDbEntity
  8
1
  6
DASHED
 62
     2
100
AcDbCircle
 10
22.63662302292821
 20
-62.73507371846994
 30
0.0
 40
4.499999999999982
  0
CIRCLE
  5
88
330
1F
100
AcDbEntity
  8
1
  6
Continuous
 62
     7
100
AcDbCircle
 10
22.63662302292821
 20
-62.73507371846994
 30
0.0
 40
2.499999999999982
  0
CIRCLE
  5
89
330
1F
100
AcDbEntity
  8
1
  6
DASHED
 62
     2
100
AcDbCircle
 10
22.63662302292821
 20
57.2649262815301
 30
0.0
 40
4.499999999999982
  0
CIRCLE
  5
8A
330
1F
100
AcDbEntity
  8
1
  6
Continuous
 62
     7
100
AcDbCircle
 10
22.63662302292821
 20
57.2649262815301
 30
0.0
 40
2.499999999999982
  0
CIRCLE
  5
8B
330
1F
100
AcDbEntity
  8
1
  6
DASHED
 62
     2
100
AcDbCircle
 10
42.63662302292819
 20
37.26492628153007
 30
0.0
 40
4.5
  0
CIRCLE
  5
8C
330
1F
100
AcDbEntity
  8
1
  6
Continuous
 62
     7
100
AcDbCircle
 10
42.63662302292819
 20
37.26492628153007
 30
0.0
 40
2.5
  0
ARC
  5
8D
330
1F
100
AcDbEntity
  8
1
  6
Continuous
 62
     7
100
AcDbCircle
 10
-25.36337697707175
 20
27.26492628153007
 30
0.0
 40
16.0
100
AcDbArc
 50
0.0
 51
90.0
  0
ARC
  5
8E
330
1F
100
AcDbEntity
  8
1
  6
Continuous
 62
     7
100
AcDbCircle
 10
-25.36337697707175
 20
-32.73507371846993
 30
0.0
 40
16.0
100
AcDbArc
 50
-90.0
 51
0.0
  0
ARC
  5
8F
330
1F
100
AcDbEntity
  8
1
  6
Continuous
 62
     2
100
AcDbCircle
 10
-17.36337697707175
 20
-40.73507371846993
 30
0.0
 40
10.00000000000001
100
AcDbArc
 50
-90.0
 51
0.0
  0
ARC
  5
90
330
1F
100
AcDbEntity
  8
1
  6
Continuous
 62
     2
100
AcDbCircle
 10
-17.36337697707175
 20
35.26492628153007
 30
0.0
 40
9.999999999999996
100
AcDbArc
 50
0.0
 51
90.0
  0
ARC
  5
91
330
1F
100
AcDbEntity
  8
1
  6
Continuous
 62
     7
100
AcDbCircle
 10
-27.36337697707181
 20
44.26492628153007
 30
0.0
 40
1.0
100
AcDbArc
 50
-90.0
 51
0.0
  0
ARC
  5
92
330
1F
100
AcDbEntity
  8
1
  6
Continuous
 62
     7
100
AcDbCircle
 10
-27.36337697707181
 20
-49.73507371846994
 30
0.0
 40
1.0
100
AcDbArc
 50
0.0
 51
90.0
  0
DIMENSION
  5
9E
330
1F
100
AcDbEntity
  8
1
100
AcDbDimension
  2
*D1
 10
-49.6747140074167
 20
11.26492628153006
 30
0.0
 11
-53.4247140074167
 21
-1.7405092437269
 31
0.0
 70
    32
  1
<>
 71
     5
 42
-1.0
 53
90.0
  3
ME10_DIM_10
100
AcDbAlignedDimension
 13
-31.46969309868941
 23
-16.73507371846993
 33
0.0
 14
-31.46969309868941
 24
11.26492628153007
 34
0.0
 50
90.0
100
AcDbRotatedDimension
  0
DIMENSION
  5
A9
330
1F
100
AcDbEntity
  8
1
100
AcDbDimension
  2
*D2
 10
-63.3375747942014
 20
43.26492628153008
 30
0.0
 11
-67.0875747942014
 21
-0.3536304195008
 31
0.0
 70
    32
  1
<>
 71
     5
 42
-1.0
 53
90.0
  3
ME10_DIM_11
100
AcDbAlignedDimension
 13
-42.36337697707175
 23
-48.73507371846993
 33
0.0
 14
-42.36337697707175
 24
43.26492628153007
 34
0.0
 50
90.0
100
AcDbRotatedDimension
  0
DIMENSION
  5
B4
330
1F
100
AcDbEntity
  8
1
100
AcDbDimension
  2
*D3
 10
64.08510561817002
 20
67.26492628153011
 30
0.0
 11
60.33510561817001
 21
-3.5804345432122
 31
0.0
 70
    32
  1
<>
 71
     5
 42
-1.0
 53
90.0
  3
ME10_DIM_12
100
AcDbAlignedDimension
 13
49.63662302292819
 23
-72.73507371846995
 33
0.0
 14
49.63662302292819
 24
67.26492628153011
 34
0.0
 50
90.0
100
AcDbRotatedDimension
  0
ENDSEC
  0
SECTION
  2
OBJECTS
  0
DICTIONARY
  5
C
330
0
100
AcDbDictionary
281
     1
  3
ACAD_GROUP
350
D
  3
ACAD_LAYOUT
350
1A
  3
ACAD_MLINESTYLE
350
17
  3
ACAD_PLOTSETTINGS
350
19
  3
ACAD_PLOTSTYLENAME
350
E
  0
DICTIONARY
  5
D
102
{ACAD_REACTORS
330
C
102
}
330
C
100
AcDbDictionary
281
     1
  0
DICTIONARY
  5
1A
102
{ACAD_REACTORS
330
C
102
}
330
C
100
AcDbDictionary
281
     1
  3
Layout1
350
1E
  3
Layout2
350
26
  3
Model
350
22
  0
DICTIONARY
  5
17
102
{ACAD_REACTORS
330
C
102
}
330
C
100
AcDbDictionary
281
     1
  3
Standard
350
18
  0
DICTIONARY
  5
19
102
{ACAD_REACTORS
330
C
102
}
330
C
100
AcDbDictionary
281
     1
  0
ACDBDICTIONARYWDFLT
  5
E
102
{ACAD_REACTORS
330
C
102
}
330
C
100
AcDbDictionary
281
     1
  3
Normal
350
F
100
AcDbDictionaryWithDefault
340
F
  0
LAYOUT
  5
1E
102
{ACAD_REACTORS
330
1A
102
}
330
1A
100
AcDbPlotSettings
  1

  2

  4

  6

 40
0.0
 41
0.0
 42
0.0
 43
0.0
 44
0.0
 45
0.0
 46
0.0
 47
0.0
 48
0.0
 49
0.0
140
0.0
141
0.0
142
1.0
143
1.0
 70
   688
 72
     0
 73
     0
 74
     5
  7

 75
    16
 76
     0
 77
     2
 78
   300
147
1.0
148
0.0
149
0.0
100
AcDbLayout
  1
Layout1
 70
     1
 71
     1
 10
0.0
 20
0.0
 11
0.0
 21
0.0
 12
0.0
 22
0.0
 32
0.0
 14
0.0
 24
0.0
 34
0.0
 15
0.0
 25
0.0
 35
0.0
146
0.0
 13
0.0
 23
0.0
 33
0.0
 16
1.0
 26
0.0
 36
0.0
 17
0.0
 27
1.0
 37
0.0
 76
     0
330
1B
  0
LAYOUT
  5
26
102
{ACAD_REACTORS
330
1A
102
}
330
1A
100
AcDbPlotSettings
  1

  2

  4

  6

 40
0.0
 41
0.0
 42
0.0
 43
0.0
 44
0.0
 45
0.0
 46
0.0
 47
0.0
 48
0.0
 49
0.0
140
0.0
141
0.0
142
1.0
143
1.0
 70
   688
 72
     0
 73
     0
 74
     5
  7

 75
    16
 76
     0
 77
     2
 78
   300
147
1.0
148
0.0
149
0.0
100
AcDbLayout
  1
Layout2
 70
     1
 71
     2
 10
0.0
 20
0.0
 11
0.0
 21
0.0
 12
0.0
 22
0.0
 32
0.0
 14
0.0
 24
0.0
 34
0.0
 15
0.0
 25
0.0
 35
0.0
146
0.0
 13
0.0
 23
0.0
 33
0.0
 16
1.0
 26
0.0
 36
0.0
 17
0.0
 27
1.0
 37
0.0
 76
     0
330
23
  0
LAYOUT
  5
22
102
{ACAD_REACTORS
330
1A
102
}
330
1A
100
AcDbPlotSettings
  1

  2

  4

  6

 40
0.0
 41
0.0
 42
0.0
 43
0.0
 44
0.0
 45
0.0
 46
0.0
 47
0.0
 48
0.0
 49
0.0
140
0.0
141
0.0
142
1.0
143
1.0
 70
  1712
 72
     0
 73
     0
 74
     0
  7

 75
     0
 76
     0
 77
     2
 78
   300
147
1.0
148
0.0
149
0.0
100
AcDbLayout
  1
Model
 70
     1
 71
     0
 10
0.0
 20
0.0
 11
0.0
 21
0.0
 12
0.0
 22
0.0
 32
0.0
 14
-68.8375747942014
 24
-72.73507371846995
 34
0.0
 15
66.08510561817002
 25
67.26492628153011
 35
0.0
146
0.0
 13
0.0
 23
0.0
 33
0.0
 16
1.0
 26
0.0
 36
0.0
 17
0.0
 27
1.0
 37
0.0
 76
     0
330
1F
  0
MLINESTYLE
  5
18
102
{ACAD_REACTORS
330
17
102
}
330
17
100
AcDbMlineStyle
  2
Standard
 70
     0
  3

 62
   256
 51
90.0
 52
90.0
 71
     2
 49
0.5
 62
   256
  6
BYLAYER
 49
-0.5
 62
   256
  6
BYLAYER
  0
ACDBPLACEHOLDER
  5
F
102
{ACAD_REACTORS
330
E
102
}
330
E
  0
ENDSEC
  0
EOF
