  0
SECTION
  2
HEADER
  9
$ACADVER
  1
AC1018
  9
$ACADMAINTVER
 70
     0
  9
$DWGCODEPAGE
  3
ANSI_1252
  9
$INSBASE
 10
0.0
 20
0.0
 30
0.0
  9
$EXTMIN
 10
-51.5278112826017
 20
-9.306723632521
 30
0.0
  9
$EXTMAX
 10
26.29988328014317
 20
61.612933445996
 30
0.0
  9
$LIMMIN
 10
0.0
 20
0.0
  9
$LIMMAX
 10
12.0
 20
9.0
  9
$ORTHOMODE
 70
     0
  9
$REGENMODE
 70
     1
  9
$FILLMODE
 70
     1
  9
$QTEXTMODE
 70
     0
  9
$MIRRTEXT
 70
     1
  9
$LTSCALE
 40
1.0
  9
$ATTMODE
 70
     1
  9
$TEXTSIZE
 40
0.2
  9
$TRACEWID
 40
0.05
  9
$TEXTSTYLE
  7
Standard
  9
$CLAYER
  8
0
  9
$CELTYPE
  6
ByLayer
  9
$CECOLOR
 62
   256
  9
$CELTSCALE
 40
1.0
  9
$DISPSILH
 70
     0
  9
$DIMSCALE
 40
1.0
  9
$DIMASZ
 40
0.18
  9
$DIMEXO
 40
0.0625
  9
$DIMDLI
 40
0.38
  9
$DIMRND
 40
0.0
  9
$DIMDLE
 40
0.0
  9
$DIMEXE
 40
0.18
  9
$DIMTP
 40
0.0
  9
$DIMTM
 40
0.0
  9
$DIMTXT
 40
0.18
  9
$DIMCEN
 40
0.09
  9
$DIMTSZ
 40
0.0
  9
$DIMTOL
 70
     0
  9
$DIMLIM
 70
     0
  9
$DIMTIH
 70
     1
  9
$DIMTOH
 70
     1
  9
$DIMSE1
 70
     0
  9
$DIMSE2
 70
     0
  9
$DIMTAD
 70
     0
  9
$DIMZIN
 70
     0
  9
$DIMBLK
  1

  9
$DIMASO
 70
     1
  9
$DIMSHO
 70
     1
  9
$DIMPOST
  1

  9
$DIMAPOST
  1

  9
$DIMALT
 70
     0
  9
$DIMALTD
 70
     2
  9
$DIMALTF
 40
25.4
  9
$DIMLFAC
 40
1.0
  9
$DIMTOFL
 70
     0
  9
$DIMTVP
 40
0.0
  9
$DIMTIX
 70
     0
  9
$DIMSOXD
 70
     0
  9
$DIMSAH
 70
     0
  9
$DIMBLK1
  1

  9
$DIMBLK2
  1

  9
$DIMSTYLE
  2
Standard
  9
$DIMCLRD
 70
     0
  9
$DIMCLRE
 70
     0
  9
$DIMCLRT
 70
     0
  9
$DIMTFAC
 40
1.0
  9
$DIMGAP
 40
0.09
  9
$DIMJUST
 70
     0
  9
$DIMSD1
 70
     0
  9
$DIMSD2
 70
     0
  9
$DIMTOLJ
 70
     1
  9
$DIMTZIN
 70
     0
  9
$DIMALTZ
 70
     0
  9
$DIMALTTZ
 70
     0
  9
$DIMUPT
 70
     0
  9
$DIMDEC
 70
     4
  9
$DIMTDEC
 70
     4
  9
$DIMALTU
 70
     2
  9
$DIMALTTD
 70
     2
  9
$DIMTXSTY
  7
Standard
  9
$DIMAUNIT
 70
     0
  9
$DIMADEC
 70
     0
  9
$DIMALTRND
 40
0.0
  9
$DIMAZIN
 70
     0
  9
$DIMDSEP
 70
    46
  9
$DIMATFIT
 70
     3
  9
$DIMFRAC
 70
     0
  9
$DIMLDRBLK
  1

  9
$DIMLUNIT
 70
     2
  9
$DIMLWD
 70
    -2
  9
$DIMLWE
 70
    -2
  9
$DIMTMOVE
 70
     0
  9
$LUNITS
 70
     2
  9
$LUPREC
 70
     4
  9
$SKETCHINC
 40
0.1
  9
$FILLETRAD
 40
0.5
  9
$AUNITS
 70
     0
  9
$AUPREC
 70
     0
  9
$MENU
  1
.
  9
$ELEVATION
 40
0.0
  9
$PELEVATION
 40
0.0
  9
$THICKNESS
 40
0.0
  9
$LIMCHECK
 70
     0
  9
$CHAMFERA
 40
0.5
  9
$CHAMFERB
 40
0.5
  9
$CHAMFERC
 40
1.0
  9
$CHAMFERD
 40
0.0
  9
$SKPOLY
 70
     0
  9
$TDCREATE
 40
2454428.418510092
  9
$TDUCREATE
 40
2454428.376843426
  9
$TDUPDATE
 40
2454428.418510104
  9
$TDUUPDATE
 40
2454428.376843438
  9
$TDINDWG
 40
0.0000000116
  9
$TDUSRTIMER
 40
0.0000000116
  9
$USRTIMER
 70
     1
  9
$ANGBASE
 50
0.0
  9
$ANGDIR
 70
     0
  9
$PDMODE
 70
     0
  9
$PDSIZE
 40
0.0
  9
$PLINEWID
 40
0.0
  9
$SPLFRAME
 70
     0
  9
$SPLINETYPE
 70
     6
  9
$SPLINESEGS
 70
     8
  9
$HANDSEED
  5
107
  9
$SURFTAB1
 70
     6
  9
$SURFTAB2
 70
     6
  9
$SURFTYPE
 70
     6
  9
$SURFU
 70
     6
  9
$SURFV
 70
     6
  9
$UCSBASE
  2

  9
$UCSNAME
  2

  9
$UCSORG
 10
0.0
 20
0.0
 30
0.0
  9
$UCSXDIR
 10
1.0
 20
0.0
 30
0.0
  9
$UCSYDIR
 10
0.0
 20
1.0
 30
0.0
  9
$UCSORTHOREF
  2

  9
$UCSORTHOVIEW
 70
     0
  9
$UCSORGTOP
 10
0.0
 20
0.0
 30
0.0
  9
$UCSORGBOTTOM
 10
0.0
 20
0.0
 30
0.0
  9
$UCSORGLEFT
 10
0.0
 20
0.0
 30
0.0
  9
$UCSORGRIGHT
 10
0.0
 20
0.0
 30
0.0
  9
$UCSORGFRONT
 10
0.0
 20
0.0
 30
0.0
  9
$UCSORGBACK
 10
0.0
 20
0.0
 30
0.0
  9
$PUCSBASE
  2

  9
$PUCSNAME
  2

  9
$PUCSORG
 10
0.0
 20
0.0
 30
0.0
  9
$PUCSXDIR
 10
1.0
 20
0.0
 30
0.0
  9
$PUCSYDIR
 10
0.0
 20
1.0
 30
0.0
  9
$PUCSORTHOREF
  2

  9
$PUCSORTHOVIEW
 70
     0
  9
$PUCSORGTOP
 10
0.0
 20
0.0
 30
0.0
  9
$PUCSORGBOTTOM
 10
0.0
 20
0.0
 30
0.0
  9
$PUCSORGLEFT
 10
0.0
 20
0.0
 30
0.0
  9
$PUCSORGRIGHT
 10
0.0
 20
0.0
 30
0.0
  9
$PUCSORGFRONT
 10
0.0
 20
0.0
 30
0.0
  9
$PUCSORGBACK
 10
0.0
 20
0.0
 30
0.0
  9
$USERI1
 70
     0
  9
$USERI2
 70
     0
  9
$USERI3
 70
     0
  9
$USERI4
 70
     0
  9
$USERI5
 70
     0
  9
$USERR1
 40
14.5
  9
$USERR2
 40
0.0
  9
$USERR3
 40
0.0
  9
$USERR4
 40
0.0
  9
$USERR5
 40
0.0
  9
$WORLDVIEW
 70
     1
  9
$SHADEDGE
 70
     3
  9
$SHADEDIF
 70
    70
  9
$TILEMODE
 70
     1
  9
$MAXACTVP
 70
    64
  9
$PINSBASE
 10
0.0
 20
0.0
 30
0.0
  9
$PLIMCHECK
 70
     0
  9
$PEXTMIN
 10
1.00000000000000E+20
 20
1.00000000000000E+20
 30
1.00000000000000E+20
  9
$PEXTMAX
 10
-1.00000000000000E+20
 20
-1.00000000000000E+20
 30
-1.00000000000000E+20
  9
$PLIMMIN
 10
0.0
 20
0.0
  9
$PLIMMAX
 10
12.0
 20
9.0
  9
$UNITMODE
 70
     0
  9
$VISRETAIN
 70
     1
  9
$PLINEGEN
 70
     0
  9
$PSLTSCALE
 70
     1
  9
$TREEDEPTH
 70
  3020
  9
$CMLSTYLE
  2
Standard
  9
$CMLJUST
 70
     0
  9
$CMLSCALE
 40
1.0
  9
$PROXYGRAPHICS
 70
     1
  9
$MEASUREMENT
 70
     1
  9
$CELWEIGHT
370
    -1
  9
$ENDCAPS
280
     0
  9
$JOINSTYLE
280
     0
  9
$LWDISPLAY
290
     0
  9
$INSUNITS
 70
     1
  9
$HYPERLINKBASE
  1

  9
$STYLESHEET
  1

  9
$XEDIT
290
     1
  9
$CEPSNTYPE
380
     0
  9
$PSTYLEMODE
290
     1
  9
$FINGERPRINTGUID
  2
{514BAF34-5EA1-4B6C-BB97-78F00DD6E10A}
  9
$VERSIONGUID
  2
{FAEB1C32-E019-11D5-929B-00C0DF256EC4}
  9
$EXTNAMES
290
     1
  9
$PSVPSCALE
 40
0.0
  9
$OLESTARTUP
290
     0
  9
$SORTENTS
280
   127
  9
$INDEXCTL
280
     0
  9
$HIDETEXT
280
     1
  9
$XCLIPFRAME
290
     0
  9
$HALOGAP
280
     0
  9
$OBSCOLOR
 70
   257
  9
$OBSLTYPE
280
     0
  9
$INTERSECTIONDISPLAY
280
     0
  9
$INTERSECTIONCOLOR
 70
   257
  9
$DIMASSOC
280
     2
  9
$PROJECTNAME
  1

  0
ENDSEC
  0
SECTION
  2
CLASSES
  0
CLASS
  1
ACDBDICTIONARYWDFLT
  2
AcDbDictionaryWithDefault
  3
ObjectDBX Classes
 90
        0
 91
        3
280
     0
281
     0
  0
CLASS
  1

  2
exOdDbSpline
  3

 90
        0
 91
        3
280
     0
281
     1
  0
ENDSEC
  0
SECTION
  2
TABLES
  0
TABLE
  2
VPORT
  5
8
330
0
100
AcDbSymbolTable
 70
     1
  0
VPORT
  5
29
330
8
100
AcDbSymbolTableRecord
100
AcDbViewportTableRecord
  2
*Active
 70
     0
 10
0.0
 20
0.0
 11
1.0
 21
1.0
 12
-12.61396400122926
 22
26.1531049067375
 13
0.0
 23
0.0
 14
0.5
 24
0.5
 15
0.5
 25
0.5
 16
0.0
 26
0.0
 36
1.0
 17
0.0
 27
0.0
 37
0.0
 40
78.01162278636869
 41
1.60267857142857
 42
50.0
 43
0.0
 44
0.0
 50
0.0
 51
0.0
 71
     0
 72
   100
 73
     1
 74
     3
 75
     0
 76
     0
 77
     0
 78
     0
281
     0
 65
     1
110
0.0
120
0.0
130
0.0
111
1.0
121
0.0
131
0.0
112
0.0
122
1.0
132
0.0
 79
     0
146
0.0
  0
ENDTAB
  0
TABLE
  2
LTYPE
  5
5
330
0
100
AcDbSymbolTable
 70
     8
  0
LTYPE
  5
14
330
5
100
AcDbSymbolTableRecord
100
AcDbLinetypeTableRecord
  2
ByBlock
 70
     0
  3

 72
    65
 73
     0
 40
0.0
  0
LTYPE
  5
15
330
5
100
AcDbSymbolTableRecord
100
AcDbLinetypeTableRecord
  2
ByLayer
 70
     0
  3

 72
    65
 73
     0
 40
0.0
  0
LTYPE
  5
16
330
5
100
AcDbSymbolTableRecord
100
AcDbLinetypeTableRecord
  2
Continuous
 70
     0
  3
Solid line
 72
    65
 73
     0
 40
0.0
  0
LTYPE
  5
2A
330
5
100
AcDbSymbolTableRecord
100
AcDbLinetypeTableRecord
  2
DASHED
 70
     0
  3
Dashed
 72
    65
 73
     2
 40
15.0
 49
7.0
 74
     0
 49
-8.0
 74
     0
  0
LTYPE
  5
2B
330
5
100
AcDbSymbolTableRecord
100
AcDbLinetypeTableRecord
  2
DOTTED
 70
     0
  3
Dotted
 72
    65
 73
     2
 40
1.0
 49
0.0
 74
     0
 49
-1.0
 74
     0
  0
LTYPE
  5
2C
330
5
100
AcDbSymbolTableRecord
100
AcDbLinetypeTableRecord
  2
DOT_CENTER
 70
     0
  3
Dot_Center
 72
    65
 73
     4
 40
14.0
 49
12.0
 74
     0
 49
-1.0
 74
     0
 49
0.0
 74
     0
 49
-1.0
 74
     0
  0
LTYPE
  5
2D
330
5
100
AcDbSymbolTableRecord
100
AcDbLinetypeTableRecord
  2
LONG_DASHED
 70
     0
  3
Long_Dashed
 72
    65
 73
     2
 40
15.0
 49
10.0
 74
     0
 49
-5.0
 74
     0
  0
LTYPE
  5
2E
330
5
100
AcDbSymbolTableRecord
100
AcDbLinetypeTableRecord
  2
DASH_CENTER
 70
     0
  3
Dash_Center
 72
    65
 73
     4
 40
14.0
 49
11.0
 74
     0
 49
-1.0
 74
     0
 49
1.0
 74
     0
 49
-1.0
 74
     0
  0
LTYPE
  5
2F
330
5
100
AcDbSymbolTableRecord
100
AcDbLinetypeTableRecord
  2
PHANTOM
 70
     0
  3
Phantom
 72
    65
 73
     6
 40
13.0
 49
10.0
 74
     0
 49
-1.0
 74
     0
 49
0.0
 74
     0
 49
-1.0
 74
     0
 49
0.0
 74
     0
 49
-1.0
 74
     0
  0
LTYPE
  5
30
330
5
100
AcDbSymbolTableRecord
100
AcDbLinetypeTableRecord
  2
CENTER_DASH_DASH
 70
     0
  3
Center_Dash_Dash
 72
    65
 73
     6
 40
14.0
 49
9.0
 74
     0
 49
-1.0
 74
     0
 49
1.0
 74
     0
 49
-1.0
 74
     0
 49
1.0
 74
     0
 49
-1.0
 74
     0
  0
ENDTAB
  0
TABLE
  2
LAYER
  5
2
330
0
100
AcDbSymbolTable
 70
     2
  0
LAYER
  5
10
330
2
100
AcDbSymbolTableRecord
100
AcDbLayerTableRecord
  2
0
 70
     0
 62
     7
  6
Continuous
370
    -3
390
F
  0
LAYER
  5
31
330
2
100
AcDbSymbolTableRecord
100
AcDbLayerTableRecord
  2
1
 70
     0
 62
     7
  6
Continuous
370
    -3
390
F
  0
ENDTAB
  0
TABLE
  2
STYLE
  5
3
330
0
100
AcDbSymbolTable
 70
     2
  0
STYLE
  5
11
330
3
100
AcDbSymbolTableRecord
100
AcDbTextStyleTableRecord
  2
Standard
 70
     0
 40
0.0
 41
1.0
 50
0.0
 71
     0
 42
0.2
  3
txt
  4

  0
STYLE
  5
BB
330
3
100
AcDbSymbolTableRecord
100
AcDbTextStyleTableRecord
  2
CONVERTER_11
 70
     0
 40
0.0
 41
0.9
 50
0.0
 71
     0
 42
0.2
  3
txt.shx
  4

  0
ENDTAB
  0
TABLE
  2
VIEW
  5
6
330
0
100
AcDbSymbolTable
 70
     0
  0
ENDTAB
  0
TABLE
  2
UCS
  5
7
330
0
100
AcDbSymbolTable
 70
     0
  0
ENDTAB
  0
TABLE
  2
APPID
  5
9
330
0
100
AcDbSymbolTable
 70
     1
  0
APPID
  5
12
330
9
100
AcDbSymbolTableRecord
100
AcDbRegAppTableRecord
  2
ACAD
 70
     0
  0
ENDTAB
  0
TABLE
  2
DIMSTYLE
  5
A
330
0
100
AcDbSymbolTable
 70
     8
100
AcDbDimStyleTable
  0
DIMSTYLE
105
27
330
A
100
AcDbSymbolTableRecord
100
AcDbDimStyleTableRecord
  2
Standard
 70
     0
340
11
  0
DIMSTYLE
105
BF
102
{ACAD_REACTORS
330
C0
102
}
330
A
100
AcDbSymbolTableRecord
100
AcDbDimStyleTableRecord
  2
ME10_DIM_10
 70
     0
 41
3.5
 42
0.0
 44
2.0
 73
     0
 74
     0
 77
     1
 78
     8
140
3.5
147
2.0
172
     1
173
     1
176
     2
177
     2
178
     2
271
     2
340
BB
  0
DIMSTYLE
105
CC
102
{ACAD_REACTORS
330
CD
102
}
330
A
100
AcDbSymbolTableRecord
100
AcDbDimStyleTableRecord
  2
ME10_DIM_11
 70
     0
  3
ø<>
 41
3.5
 42
0.0
 44
2.0
 73
     0
 74
     0
 77
     1
 78
     8
140
3.5
147
2.0
172
     1
173
     1
176
     2
177
     2
178
     2
271
     2
340
BB
  0
DIMSTYLE
105
D7
102
{ACAD_REACTORS
330
D8
102
}
330
A
100
AcDbSymbolTableRecord
100
AcDbDimStyleTableRecord
  2
ME10_DIM_12
 70
     0
 41
3.5
 42
0.0
 44
2.0
 73
     0
 74
     0
 77
     1
 78
     8
140
3.5
147
2.0
172
     1
173
     1
176
     2
177
     2
178
     2
271
     2
340
BB
  0
DIMSTYLE
105
E2
102
{ACAD_REACTORS
330
E3
102
}
330
A
100
AcDbSymbolTableRecord
100
AcDbDimStyleTableRecord
  2
ME10_DIM_13
 70
     0
 41
3.5
 42
0.0
 44
2.0
 73
     0
 74
     0
 77
     1
 78
     8
140
3.5
147
2.0
172
     1
173
     1
176
     2
177
     2
178
     2
271
     2
340
BB
  0
DIMSTYLE
105
ED
102
{ACAD_REACTORS
330
EE
102
}
330
A
100
AcDbSymbolTableRecord
100
AcDbDimStyleTableRecord
  2
ME10_DIM_14
 70
     0
 41
3.5
 42
0.0
 44
2.0
 73
     0
 74
     0
 77
     1
 78
     8
140
3.5
147
2.0
172
     1
173
     1
176
     2
177
     2
178
     2
271
     2
340
BB
  0
DIMSTYLE
105
F8
102
{ACAD_REACTORS
330
F9
102
}
330
A
100
AcDbSymbolTableRecord
100
AcDbDimStyleTableRecord
  2
ME10_DIM_15
 70
     0
 41
3.5
 42
0.0
 44
2.0
 73
     0
 74
     0
 77
     1
 78
     8
140
3.5
147
2.0
172
     1
173
     1
176
     2
177
     2
178
     2
271
     2
340
BB
  0
DIMSTYLE
105
105
102
{ACAD_REACTORS
330
106
102
}
330
A
100
AcDbSymbolTableRecord
100
AcDbDimStyleTableRecord
  2
ME10_DIM_16
 70
     0
 41
3.5
 42
0.0
 44
2.0
 73
     0
 74
     0
 77
     1
 78
     8
140
3.5
147
2.0
172
     1
173
     1
176
     2
177
     2
178
     2
271
     2
340
BB
  0
ENDTAB
  0
TABLE
  2
BLOCK_RECORD
  5
1
330
0
100
AcDbSymbolTable
 70
     8
  0
BLOCK_RECORD
  5
1F
330
1
100
AcDbSymbolTableRecord
100
AcDbBlockTableRecord
  2
*Model_Space
340
22
  0
BLOCK_RECORD
  5
1B
330
1
100
AcDbSymbolTableRecord
100
AcDbBlockTableRecord
  2
*Paper_Space
340
1E
  0
BLOCK_RECORD
  5
23
330
1
100
AcDbSymbolTableRecord
100
AcDbBlockTableRecord
  2
*Paper_Space0
340
26
  0
BLOCK_RECORD
  5
B2
330
1
100
AcDbSymbolTableRecord
100
AcDbBlockTableRecord
  2
*D1
340
0
  0
BLOCK_RECORD
  5
C1
330
1
100
AcDbSymbolTableRecord
100
AcDbBlockTableRecord
  2
*D2
340
0
  0
BLOCK_RECORD
  5
CE
330
1
100
AcDbSymbolTableRecord
100
AcDbBlockTableRecord
  2
*D3
340
0
  0
BLOCK_RECORD
  5
D9
330
1
100
AcDbSymbolTableRecord
100
AcDbBlockTableRecord
  2
*D4
340
0
  0
BLOCK_RECORD
  5
E4
330
1
100
AcDbSymbolTableRecord
100
AcDbBlockTableRecord
  2
*D5
340
0
  0
BLOCK_RECORD
  5
EF
330
1
100
AcDbSymbolTableRecord
100
AcDbBlockTableRecord
  2
*D6
340
0
  0
BLOCK_RECORD
  5
FA
330
1
100
AcDbSymbolTableRecord
100
AcDbBlockTableRecord
  2
*D7
340
0
  0
ENDTAB
  0
ENDSEC
  0
SECTION
  2
BLOCKS
  0
BLOCK
  5
20
330
1F
100
AcDbEntity
  8
0
100
AcDbBlockBegin
  2
*Model_Space
 70
     0
 71
     0
 10
0.0
 20
0.0
 30
0.0
  3
*Model_Space
  1

  0
ENDBLK
  5
21
330
1F
100
AcDbEntity
  8
0
100
AcDbBlockEnd
  0
BLOCK
  5
1C
330
1B
100
AcDbEntity
 67
     1
  8
0
100
AcDbBlockBegin
  2
*Paper_Space
 70
     0
 71
     0
 10
0.0
 20
0.0
 30
0.0
  3
*Paper_Space
  1

  0
ENDBLK
  5
1D
330
1B
100
AcDbEntity
 67
     1
  8
0
100
AcDbBlockEnd
  0
BLOCK
  5
24
330
23
100
AcDbEntity
  8
0
100
AcDbBlockBegin
  2
*Paper_Space0
 70
     0
 71
     0
 10
0.0
 20
0.0
 30
0.0
  3
*Paper_Space0
  1

  0
ENDBLK
  5
25
330
23
100
AcDbEntity
  8
0
100
AcDbBlockEnd
  0
BLOCK
  5
BD
330
B2
100
AcDbEntity
  8
0
100
AcDbBlockBegin
  2
*D1
 70
     1
 71
     0
 10
0.0
 20
0.0
 30
0.0
  3
*D1
  1

  0
LINE
  5
B3
330
B2
100
AcDbEntity
  8
1
  6
Continuous
 62
     2
100
AcDbLine
 10
24.29988328014317
 20
11.5767642116098
 30
0.0
 11
24.29988328014317
 21
23.7858088367177
 31
0.0
  0
LINE
  5
B4
330
B2
100
AcDbEntity
  8
1
  6
Continuous
 62
     2
100
AcDbLine
 10
24.29988328014317
 20
2.8267642116098
 30
0.0
 11
24.29988328014317
 21
11.5767642116098
 31
0.0
  0
LINE
  5
B5
330
B2
100
AcDbEntity
  8
1
  6
Continuous
 62
     2
100
AcDbLine
 10
24.29988328014317
 20
-4.1732357883902
 30
0.0
 11
24.29988328014317
 21
2.8267642116098
 31
0.0
  0
LINE
  5
B6
330
B2
100
AcDbEntity
  8
1
  6
Continuous
 62
     2
100
AcDbLine
 10
2.45877587285025
 20
2.8267642116098
 30
0.0
 11
26.29988328014317
 21
2.8267642116098
 31
0.0
  0
LINE
  5
B7
330
B2
100
AcDbEntity
  8
1
  6
Continuous
 62
     2
100
AcDbLine
 10
5.19126929380035
 20
11.5767642116098
 30
0.0
 11
8.68492912008151
 21
11.5767642116098
 31
0.0
  0
LINE
  5
B8
330
B2
100
AcDbEntity
  8
1
  6
Continuous
 62
     2
100
AcDbLine
 10
15.8688788189559
 20
11.5767642116098
 30
0.0
 11
26.29988328014317
 21
11.5767642116098
 31
0.0
  0
SOLID
  5
B9
330
B2
100
AcDbEntity
  8
1
 62
     2
100
AcDbTrace
 10
24.76066702169905
 20
-0.6732357883902
 30
0.0
 11
23.83909953858728
 21
-0.6732357883902
 31
0.0
 12
24.29988328014317
 22
2.8267642116098
 32
0.0
 13
24.29988328014317
 23
2.8267642116098
 33
0.0
  0
SOLID
  5
BA
330
B2
100
AcDbEntity
  8
1
 62
     2
100
AcDbTrace
 10
23.83909953858728
 20
15.0767642116098
 30
0.0
 11
24.76066702169906
 21
15.0767642116098
 31
0.0
 12
24.29988328014317
 22
11.5767642116098
 32
0.0
 13
24.29988328014317
 23
11.5767642116098
 33
0.0
  0
MTEXT
  5
BC
330
B2
100
AcDbEntity
  8
1
 62
     2
100
AcDbMText
 10
22.29284855183407
 20
14.2483088367177
 30
0.0
 40
3.5
 41
0.0
 71
     7
 72
     1
  1
8.75
  7
CONVERTER_11
 11
0.0
 21
1.0
 31
0.0
 73
     1
 44
0.60024009603842
  0
ENDBLK
  5
BE
330
B2
100
AcDbEntity
  8
0
100
AcDbBlockEnd
  0
BLOCK
  5
CA
330
C1
100
AcDbEntity
  8
0
100
AcDbBlockBegin
  2
*D2
 70
     1
 71
     0
 10
0.0
 20
0.0
 30
0.0
  3
*D2
  1

  0
LINE
  5
C2
330
C1
100
AcDbEntity
  8
1
  6
Continuous
 62
     2
100
AcDbLine
 10
12.72836389107258
 20
8.0767642116098
 30
0.0
 11
12.72836389107258
 21
1.0767642116098
 31
0.0
  0
LINE
  5
C3
330
C1
100
AcDbEntity
  8
1
  6
Continuous
 62
     2
100
AcDbLine
 10
12.72836389107258
 20
15.0767642116098
 30
0.0
 11
12.72836389107258
 21
8.0767642116098
 31
0.0
  0
LINE
  5
C4
330
C1
100
AcDbEntity
  8
1
  6
Continuous
 62
     2
100
AcDbLine
 10
12.72836389107258
 20
23.96269938488889
 30
0.0
 11
12.72836389107258
 21
15.0767642116098
 31
0.0
  0
LINE
  5
C5
330
C1
100
AcDbEntity
  8
1
  6
Continuous
 62
     2
100
AcDbLine
 10
2.45877587285025
 20
15.0767642116098
 30
0.0
 11
14.72836389107258
 21
15.0767642116098
 31
0.0
  0
LINE
  5
C6
330
C1
100
AcDbEntity
  8
1
  6
Continuous
 62
     2
100
AcDbLine
 10
3.95877587285025
 20
8.0767642116098
 30
0.0
 11
14.72836389107258
 21
8.0767642116098
 31
0.0
  0
SOLID
  5
C7
330
C1
100
AcDbEntity
  8
1
 62
     2
100
AcDbTrace
 10
12.26758014951669
 20
18.5767642116098
 30
0.0
 11
13.18914763262847
 21
18.5767642116098
 31
0.0
 12
12.72836389107258
 22
15.0767642116098
 32
0.0
 13
12.72836389107258
 23
15.0767642116098
 33
0.0
  0
SOLID
  5
C8
330
C1
100
AcDbEntity
  8
1
 62
     2
100
AcDbTrace
 10
13.18914763262846
 20
4.5767642116098
 30
0.0
 11
12.26758014951669
 21
4.5767642116098
 31
0.0
 12
12.72836389107258
 22
8.0767642116098
 32
0.0
 13
12.72836389107258
 23
8.0767642116098
 33
0.0
  0
MTEXT
  5
C9
330
C1
100
AcDbEntity
  8
1
 62
     2
100
AcDbMText
 10
10.72836389107258
 20
18.99269938488889
 30
0.0
 40
3.5
 41
0.0
 71
     7
 72
     1
  1
\C2;ø\C2;7
  7
CONVERTER_11
 11
0.0
 21
1.0
 31
0.0
 73
     1
 44
0.60024009603842
  0
ENDBLK
  5
CB
330
C1
100
AcDbEntity
  8
0
100
AcDbBlockEnd
  0
BLOCK
  5
D5
330
CE
100
AcDbEntity
  8
0
100
AcDbBlockBegin
  2
*D3
 70
     1
 71
     0
 10
0.0
 20
0.0
 30
0.0
  3
*D3
  1

  0
LINE
  5
CF
330
CE
100
AcDbEntity
  8
1
  6
Continuous
 62
     2
100
AcDbLine
 10
-23.04122412714975
 20
56.112933445996
 30
0.0
 11
2.45877587285026
 21
56.112933445996
 31
0.0
  0
LINE
  5
D0
330
CE
100
AcDbEntity
  8
1
  6
Continuous
 62
     2
100
AcDbLine
 10
-23.04122412714975
 20
13.97676421160989
 30
0.0
 11
-23.04122412714975
 21
58.112933445996
 31
0.0
  0
LINE
  5
D1
330
CE
100
AcDbEntity
  8
1
  6
Continuous
 62
     2
100
AcDbLine
 10
2.45877587285026
 20
44.32676421160981
 30
0.0
 11
2.45877587285026
 21
58.112933445996
 31
0.0
  0
SOLID
  5
D2
330
CE
100
AcDbEntity
  8
1
 62
     2
100
AcDbTrace
 10
-19.54122412714975
 20
56.57371718755189
 30
0.0
 11
-19.54122412714975
 21
55.65214970444011
 31
0.0
 12
-23.04122412714975
 22
56.112933445996
 32
0.0
 13
-23.04122412714975
 23
56.112933445996
 33
0.0
  0
SOLID
  5
D3
330
CE
100
AcDbEntity
  8
1
 62
     2
100
AcDbTrace
 10
-1.04122412714974
 20
55.65214970444011
 30
0.0
 11
-1.04122412714974
 21
56.57371718755189
 31
0.0
 12
2.45877587285026
 22
56.112933445996
 32
0.0
 13
2.45877587285026
 23
56.112933445996
 33
0.0
  0
MTEXT
  5
D4
330
CE
100
AcDbEntity
  8
1
 62
     2
100
AcDbMText
 10
-17.9339357343373
 20
58.112933445996
 30
0.0
 40
3.5
 41
0.0
 71
     7
 72
     1
  1
25.5
  7
CONVERTER_11
 11
0.9999999999970621
 21
2.424068405545307E-6
 31
0.0
 73
     1
 44
0.60024009603842
  0
ENDBLK
  5
D6
330
CE
100
AcDbEntity
  8
0
100
AcDbBlockEnd
  0
BLOCK
  5
E0
330
D9
100
AcDbEntity
  8
0
100
AcDbBlockBegin
  2
*D4
 70
     1
 71
     0
 10
0.0
 20
0.0
 30
0.0
  3
*D4
  1

  0
LINE
  5
DA
330
D9
100
AcDbEntity
  8
1
  6
Continuous
 62
     2
100
AcDbLine
 10
-35.8411028116382
 20
4.3267642116098
 30
0.0
 11
-35.8411028116382
 21
17.3267642116098
 31
0.0
  0
LINE
  5
DB
330
D9
100
AcDbEntity
  8
1
  6
Continuous
 62
     2
100
AcDbLine
 10
-24.04122412714973
 20
4.3267642116098
 30
0.0
 11
-37.8411028116382
 21
4.3267642116098
 31
0.0
  0
LINE
  5
DC
330
D9
100
AcDbEntity
  8
1
  6
Continuous
 62
     2
100
AcDbLine
 10
-19.29122412714975
 20
17.3267642116098
 30
0.0
 11
-37.8411028116382
 21
17.3267642116098
 31
0.0
  0
SOLID
  5
DD
330
D9
100
AcDbEntity
  8
1
 62
     2
100
AcDbTrace
 10
-36.30188655319409
 20
7.8267642116098
 30
0.0
 11
-35.38031907008232
 21
7.8267642116098
 31
0.0
 12
-35.8411028116382
 22
4.3267642116098
 32
0.0
 13
-35.8411028116382
 23
4.3267642116098
 33
0.0
  0
SOLID
  5
DE
330
D9
100
AcDbEntity
  8
1
 62
     2
100
AcDbTrace
 10
-35.38031907008232
 20
13.8267642116098
 30
0.0
 11
-36.30188655319409
 21
13.8267642116098
 31
0.0
 12
-35.8411028116382
 22
17.3267642116098
 32
0.0
 13
-35.8411028116382
 23
17.3267642116098
 33
0.0
  0
MTEXT
  5
DF
330
D9
100
AcDbEntity
  8
1
 62
     2
100
AcDbMText
 10
-37.8411028116382
 20
9.6134745553734
 30
0.0
 40
3.5
 41
0.0
 71
     7
 72
     1
  1
13
  7
CONVERTER_11
 11
0.0
 21
1.0
 31
0.0
 73
     1
 44
0.60024009603842
  0
ENDBLK
  5
E1
330
D9
100
AcDbEntity
  8
0
100
AcDbBlockEnd
  0
BLOCK
  5
EB
330
E4
100
AcDbEntity
  8
0
100
AcDbBlockBegin
  2
*D5
 70
     1
 71
     0
 10
0.0
 20
0.0
 30
0.0
  3
*D5
  1

  0
LINE
  5
E5
330
E4
100
AcDbEntity
  8
1
  6
Continuous
 62
     2
100
AcDbLine
 10
-46.0278112826017
 20
4.3267642116098
 30
0.0
 11
-46.0278112826017
 21
33.3267642116098
 31
0.0
  0
LINE
  5
E6
330
E4
100
AcDbEntity
  8
1
  6
Continuous
 62
     2
100
AcDbLine
 10
-24.04122412714973
 20
4.3267642116098
 30
0.0
 11
-48.0278112826017
 21
4.3267642116098
 31
0.0
  0
LINE
  5
E7
330
E4
100
AcDbEntity
  8
1
  6
Continuous
 62
     2
100
AcDbLine
 10
-1.04122412714975
 20
33.3267642116098
 30
0.0
 11
-48.0278112826017
 21
33.3267642116098
 31
0.0
  0
SOLID
  5
E8
330
E4
100
AcDbEntity
  8
1
 62
     2
100
AcDbTrace
 10
-46.48859502415758
 20
7.8267642116098
 30
0.0
 11
-45.56702754104581
 21
7.8267642116098
 31
0.0
 12
-46.0278112826017
 22
4.3267642116098
 32
0.0
 13
-46.0278112826017
 23
4.3267642116098
 33
0.0
  0
SOLID
  5
E9
330
E4
100
AcDbEntity
  8
1
 62
     2
100
AcDbTrace
 10
-45.56702754104581
 20
29.8267642116098
 30
0.0
 11
-46.48859502415758
 21
29.8267642116098
 31
0.0
 12
-46.0278112826017
 22
33.3267642116098
 32
0.0
 13
-46.0278112826017
 23
33.3267642116098
 33
0.0
  0
MTEXT
  5
EA
330
E4
100
AcDbEntity
  8
1
 62
     2
100
AcDbMText
 10
-48.0278112826017
 20
17.8725580195682
 30
0.0
 40
3.5
 41
0.0
 71
     7
 72
     1
  1
29
  7
CONVERTER_11
 11
0.0
 21
1.0
 31
0.0
 73
     1
 44
0.60024009603842
  0
ENDBLK
  5
EC
330
E4
100
AcDbEntity
  8
0
100
AcDbBlockEnd
  0
BLOCK
  5
F6
330
EF
100
AcDbEntity
  8
0
100
AcDbBlockBegin
  2
*D6
 70
     1
 71
     0
 10
0.0
 20
0.0
 30
0.0
  3
*D6
  1

  0
LINE
  5
F0
330
EF
100
AcDbEntity
  8
1
  6
Continuous
 62
     2
100
AcDbLine
 10
3.95877587285025
 20
-7.306723632521
 30
0.0
 11
-12.04122412714975
 21
-7.306723632521
 31
0.0
  0
LINE
  5
F1
330
EF
100
AcDbEntity
  8
1
  6
Continuous
 62
     2
100
AcDbLine
 10
3.95877587285025
 20
4.3267642116098
 30
0.0
 11
3.95877587285025
 21
-9.306723632521
 31
0.0
  0
LINE
  5
F2
330
EF
100
AcDbEntity
  8
1
  6
Continuous
 62
     2
100
AcDbLine
 10
-12.04122412714975
 20
2.8267642116098
 30
0.0
 11
-12.04122412714975
 21
-9.306723632521
 31
0.0
  0
SOLID
  5
F3
330
EF
100
AcDbEntity
  8
1
 62
     2
100
AcDbTrace
 10
0.45877587285025
 20
-7.76750737407688
 30
0.0
 11
0.45877587285025
 21
-6.84593989096511
 31
0.0
 12
3.95877587285025
 22
-7.306723632521
 32
0.0
 13
3.95877587285025
 23
-7.306723632521
 33
0.0
  0
SOLID
  5
F4
330
EF
100
AcDbEntity
  8
1
 62
     2
100
AcDbTrace
 10
-8.54122412714975
 20
-6.84593989096511
 30
0.0
 11
-8.54122412714975
 21
-7.76750737407688
 31
0.0
 12
-12.04122412714975
 22
-7.306723632521
 32
0.0
 13
-12.04122412714975
 23
-7.306723632521
 33
0.0
  0
MTEXT
  5
F5
330
EF
100
AcDbEntity
  8
1
 62
     2
100
AcDbMText
 10
-7.28611009945562
 20
-5.306723632521
 30
0.0
 40
3.5
 41
0.0
 71
     7
 72
     1
  1
16
  7
CONVERTER_11
 11
0.9999999999970621
 21
2.424068405545307E-6
 31
0.0
 73
     1
 44
0.60024009603842
  0
ENDBLK
  5
F7
330
EF
100
AcDbEntity
  8
0
100
AcDbBlockEnd
  0
BLOCK
  5
103
330
FA
100
AcDbEntity
  8
0
100
AcDbBlockBegin
  2
*D7
 70
     1
 71
     0
 10
0.0
 20
0.0
 30
0.0
  3
*D7
  1

  0
LINE
  5
FB
330
FA
100
AcDbEntity
  8
1
  6
Continuous
 62
     2
100
AcDbLine
 10
-16.04122412714975
 20
-7.306723632521
 30
0.0
 11
-23.04122412714975
 21
-7.306723632521
 31
0.0
  0
LINE
  5
FC
330
FA
100
AcDbEntity
  8
1
  6
Continuous
 62
     2
100
AcDbLine
 10
-12.04122412714975
 20
-7.306723632521
 30
0.0
 11
-16.04122412714975
 21
-7.306723632521
 31
0.0
  0
LINE
  5
FD
330
FA
100
AcDbEntity
  8
1
  6
Continuous
 62
     2
100
AcDbLine
 10
-5.04122412714975
 20
-7.306723632521
 30
0.0
 11
-12.04122412714975
 21
-7.306723632521
 31
0.0
  0
LINE
  5
FE
330
FA
100
AcDbEntity
  8
1
  6
Continuous
 62
     2
100
AcDbLine
 10
-12.04122412714975
 20
2.8267642116098
 30
0.0
 11
-12.04122412714975
 21
-9.306723632521
 31
0.0
  0
LINE
  5
FF
330
FA
100
AcDbEntity
  8
1
  6
Continuous
 62
     2
100
AcDbLine
 10
-16.04122412714975
 20
2.8267642116098
 30
0.0
 11
-16.04122412714975
 21
-9.306723632521
 31
0.0
  0
SOLID
  5
100
330
FA
100
AcDbEntity
  8
1
 62
     2
100
AcDbTrace
 10
-8.54122412714975
 20
-6.84593989096511
 30
0.0
 11
-8.54122412714975
 21
-7.76750737407688
 31
0.0
 12
-12.04122412714975
 22
-7.306723632521
 32
0.0
 13
-12.04122412714975
 23
-7.306723632521
 33
0.0
  0
SOLID
  5
101
330
FA
100
AcDbEntity
  8
1
 62
     2
100
AcDbTrace
 10
-19.54122412714975
 20
-7.76750737407688
 30
0.0
 11
-19.54122412714975
 21
-6.84593989096511
 31
0.0
 12
-16.04122412714975
 22
-7.306723632521
 32
0.0
 13
-16.04122412714975
 23
-7.306723632521
 33
0.0
  0
MTEXT
  5
102
330
FA
100
AcDbEntity
  8
1
 62
     2
100
AcDbMText
 10
-15.09122412714975
 20
-5.306723632521
 30
0.0
 40
3.5
 41
0.0
 71
     7
 72
     1
  1
4
  7
CONVERTER_11
 11
0.9999999999970621
 21
2.424068405545307E-6
 31
0.0
 73
     1
 44
0.60024009603842
  0
ENDBLK
  5
104
330
FA
100
AcDbEntity
  8
0
100
AcDbBlockEnd
  0
ENDSEC
  0
SECTION
  2
ENTITIES
  0
LINE
  5
32
330
1F
100
AcDbEntity
  8
1
  6
Continuous
 62
     7
100
AcDbLine
 10
-1.04122412714975
 20
17.3267642116098
 30
0.0
 11
1.45877587285014
 21
17.3267642116098
 31
0.0
  0
LINE
  5
33
330
1F
100
AcDbEntity
  8
1
  6
Continuous
 62
     7
100
AcDbLine
 10
-19.29122412714975
 20
17.3267642116098
 30
0.0
 11
-15.79122412714975
 21
17.3267642116098
 31
0.0
  0
LINE
  5
34
330
1F
100
AcDbEntity
  8
1
  6
Continuous
 62
     7
100
AcDbLine
 10
-19.29122412714975
 20
4.3267642116098
 30
0.0
 11
-19.29122412714975
 21
7.57676421161094
 31
0.0
  0
LINE
  5
35
330
1F
100
AcDbEntity
  8
1
  6
Continuous
 62
     7
100
AcDbLine
 10
2.45877587285025
 20
33.3267642116098
 30
0.0
 11
-1.04122412714975
 21
33.3267642116098
 31
0.0
  0
LINE
  5
36
330
1F
100
AcDbEntity
  8
1
  6
Continuous
 62
     7
100
AcDbLine
 10
2.45877587285025
 20
6.3267642116098
 30
0.0
 11
-1.04122412714975
 21
6.3267642116098
 31
0.0
  0
LINE
  5
37
330
1F
100
AcDbEntity
  8
1
  6
Continuous
 62
     7
100
AcDbLine
 10
2.45877587285025
 20
6.3267642116098
 30
0.0
 11
2.45877587285025
 21
8.0767642116098
 31
0.0
  0
LINE
  5
38
330
1F
100
AcDbEntity
  8
1
  6
Continuous
 62
     7
100
AcDbLine
 10
-1.04122412714975
 20
4.3267642116098
 30
0.0
 11
-12.04122412714975
 21
4.3267642116098
 31
0.0
  0
LINE
  5
39
330
1F
100
AcDbEntity
  8
1
  6
Continuous
 62
     7
100
AcDbLine
 10
-20.55004317225217
 20
7.9140637581618
 30
0.0
 11
-19.29122412714975
 21
7.57676421161094
 31
0.0
  0
LINE
  5
3A
330
1F
100
AcDbEntity
  8
1
  6
DOT_CENTER
 62
     2
100
AcDbLine
 10
3.87912133465243
 20
11.5767642116098
 30
0.0
 11
-24.63066102497743
 21
11.5767642116098
 31
0.0
  0
LINE
  5
3B
330
1F
100
AcDbEntity
  8
1
  6
Continuous
 62
     7
100
AcDbLine
 10
-1.04122412714975
 20
4.3267642116098
 30
0.0
 11
-1.04122412714975
 21
6.3267642116098
 31
0.0
  0
LINE
  5
3C
330
1F
100
AcDbEntity
  8
1
  6
Continuous
 62
     7
100
AcDbLine
 10
-19.29122412714975
 20
15.5767642116098
 30
0.0
 11
-20.55004317225217
 21
15.2394646650578
 31
0.0
  0
LINE
  5
3D
330
1F
100
AcDbEntity
  8
1
  6
Continuous
 62
     7
100
AcDbLine
 10
-12.54122412714975
 20
2.8267642116098
 30
0.0
 11
-12.54122412714975
 21
4.3267642116098
 31
0.0
  0
LINE
  5
3E
330
1F
100
AcDbEntity
  8
1
  6
Continuous
 62
     7
100
AcDbLine
 10
-15.79122412714975
 20
4.3267642116098
 30
0.0
 11
-15.79122412714975
 21
2.8267642116098
 31
0.0
  0
LINE
  5
3F
330
1F
100
AcDbEntity
  8
1
  6
Continuous
 62
     7
100
AcDbLine
 10
-9.04122412714975
 20
8.5767642116098
 30
0.0
 11
-12.54122412714975
 21
8.5767642116098
 31
0.0
  0
LINE
  5
40
330
1F
100
AcDbEntity
  8
1
  6
Continuous
 62
     2
100
AcDbLine
 10
-23.04122412714975
 20
9.17676421160994
 30
0.0
 11
-9.04122412714975
 21
9.17676421160994
 31
0.0
  0
LINE
  5
41
330
1F
100
AcDbEntity
  8
1
  6
Continuous
 62
     2
100
AcDbLine
 10
-9.04122412714975
 20
13.97676421160989
 30
0.0
 11
-23.04122412714975
 21
13.97676421160989
 31
0.0
  0
LINE
  5
42
330
1F
100
AcDbEntity
  8
1
  6
Continuous
 62
     7
100
AcDbLine
 10
-9.04122412714975
 20
14.5767642116098
 30
0.0
 11
-12.54122412714975
 21
14.5767642116098
 31
0.0
  0
LINE
  5
43
330
1F
100
AcDbEntity
  8
1
  6
Continuous
 62
     7
100
AcDbLine
 10
-23.04122412714975
 20
9.17676421160994
 30
0.0
 11
-22.44122412714961
 21
8.5767642116098
 31
0.0
  0
LINE
  5
44
330
1F
100
AcDbEntity
  8
1
  6
Continuous
 62
     7
100
AcDbLine
 10
-23.04122412714975
 20
13.97676421160989
 30
0.0
 11
-23.04122412714975
 21
9.17676421160994
 31
0.0
  0
LINE
  5
45
330
1F
100
AcDbEntity
  8
1
  6
Continuous
 62
     7
100
AcDbLine
 10
-22.44122412714961
 20
14.5767642116098
 30
0.0
 11
-23.04122412714975
 21
13.97676421160989
 31
0.0
  0
LINE
  5
46
330
1F
100
AcDbEntity
  8
1
  6
Continuous
 62
     7
100
AcDbLine
 10
-22.44122412714961
 20
14.5767642116098
 30
0.0
 11
-22.44122412714961
 21
8.5767642116098
 31
0.0
  0
LINE
  5
47
330
1F
100
AcDbEntity
  8
1
  6
Continuous
 62
     7
100
AcDbLine
 10
-15.79122412714975
 20
17.3267642116098
 30
0.0
 11
-12.54122412714975
 21
17.3267642116098
 31
0.0
  0
LINE
  5
48
330
1F
100
AcDbEntity
  8
1
  6
Continuous
 62
     7
100
AcDbLine
 10
-15.79122412714975
 20
4.3267642116098
 30
0.0
 11
-16.04122412714975
 21
4.3267642116098
 31
0.0
  0
LINE
  5
49
330
1F
100
AcDbEntity
  8
1
  6
Continuous
 62
     7
100
AcDbLine
 10
-1.04122412714975
 20
17.3267642116098
 30
0.0
 11
-1.04122412714975
 21
33.3267642116098
 31
0.0
  0
LINE
  5
4A
330
1F
100
AcDbEntity
  8
1
  6
Continuous
 62
     7
100
AcDbLine
 10
-12.54122412714975
 20
17.3267642116098
 30
0.0
 11
-9.04122412714975
 21
17.3267642116098
 31
0.0
  0
LINE
  5
4B
330
1F
100
AcDbEntity
  8
1
  6
Continuous
 62
     7
100
AcDbLine
 10
-15.79122412714975
 20
4.3267642116098
 30
0.0
 11
-15.79122412714975
 21
8.5767642116098
 31
0.0
  0
LINE
  5
4C
330
1F
100
AcDbEntity
  8
1
  6
Continuous
 62
     7
100
AcDbLine
 10
-12.54122412714975
 20
4.3267642116098
 30
0.0
 11
-12.54122412714975
 21
4.5767642116098
 31
0.0
  0
LINE
  5
4D
330
1F
100
AcDbEntity
  8
1
  6
Continuous
 62
     7
100
AcDbLine
 10
-9.04122412714975
 20
6.5767642116098
 30
0.0
 11
-3.04122412714975
 21
6.5767642116098
 31
0.0
  0
LINE
  5
4E
330
1F
100
AcDbEntity
  8
1
  6
Continuous
 62
     7
100
AcDbLine
 10
-3.04122412714975
 20
16.5767642116098
 30
0.0
 11
-9.04122412714975
 21
16.5767642116098
 31
0.0
  0
LINE
  5
4F
330
1F
100
AcDbEntity
  8
1
  6
Continuous
 62
     7
100
AcDbLine
 10
-9.04122412714975
 20
16.5767642116098
 30
0.0
 11
-9.04122412714975
 21
14.5767642116098
 31
0.0
  0
LINE
  5
50
330
1F
100
AcDbEntity
  8
1
  6
Continuous
 62
     7
100
AcDbLine
 10
-9.04122412714975
 20
14.5767642116098
 30
0.0
 11
-9.04122412714975
 21
13.97676421160989
 31
0.0
  0
LINE
  5
51
330
1F
100
AcDbEntity
  8
1
  6
Continuous
 62
     7
100
AcDbLine
 10
-9.04122412714975
 20
8.5767642116098
 30
0.0
 11
-9.04122412714975
 21
6.5767642116098
 31
0.0
  0
LINE
  5
52
330
1F
100
AcDbEntity
  8
1
  6
Continuous
 62
     7
100
AcDbLine
 10
-9.04122412714975
 20
13.97676421160989
 30
0.0
 11
-9.04122412714975
 21
9.17676421160994
 31
0.0
  0
LINE
  5
53
330
1F
100
AcDbEntity
  8
1
  6
Continuous
 62
     7
100
AcDbLine
 10
-9.04122412714975
 20
9.17676421160994
 30
0.0
 11
-9.04122412714975
 21
8.5767642116098
 31
0.0
  0
LINE
  5
54
330
1F
100
AcDbEntity
  8
1
  6
Continuous
 62
     7
100
AcDbLine
 10
-19.29122412714975
 20
15.5767642116098
 30
0.0
 11
-19.29122412714975
 21
17.3267642116098
 31
0.0
  0
LINE
  5
55
330
1F
100
AcDbEntity
  8
1
  6
Continuous
 62
     7
100
AcDbLine
 10
-15.79122412714975
 20
14.5767642116098
 30
0.0
 11
-15.79122412714975
 21
17.3267642116098
 31
0.0
  0
LINE
  5
56
330
1F
100
AcDbEntity
  8
1
  6
Continuous
 62
     7
100
AcDbLine
 10
-12.54122412714975
 20
14.5767642116098
 30
0.0
 11
-12.54122412714975
 21
17.3267642116098
 31
0.0
  0
LINE
  5
57
330
1F
100
AcDbEntity
  8
1
  6
Continuous
 62
     7
100
AcDbLine
 10
-19.29122412714975
 20
14.5767642116098
 30
0.0
 11
-21.24414299739291
 21
14.5767642116098
 31
0.0
  0
LINE
  5
58
330
1F
100
AcDbEntity
  8
1
  6
Continuous
 62
     7
100
AcDbLine
 10
-15.79122412714975
 20
14.5767642116098
 30
0.0
 11
-19.29122412714975
 21
14.5767642116098
 31
0.0
  0
LINE
  5
59
330
1F
100
AcDbEntity
  8
1
  6
Continuous
 62
     7
100
AcDbLine
 10
-12.54122412714975
 20
14.5767642116098
 30
0.0
 11
-15.79122412714975
 21
14.5767642116098
 31
0.0
  0
LINE
  5
5A
330
1F
100
AcDbEntity
  8
1
  6
Continuous
 62
     7
100
AcDbLine
 10
-19.29122412714975
 20
8.5767642116098
 30
0.0
 11
-21.24414299739284
 21
8.5767642116098
 31
0.0
  0
LINE
  5
5B
330
1F
100
AcDbEntity
  8
1
  6
Continuous
 62
     7
100
AcDbLine
 10
-15.79122412714975
 20
8.5767642116098
 30
0.0
 11
-19.29122412714975
 21
8.5767642116098
 31
0.0
  0
LINE
  5
5C
330
1F
100
AcDbEntity
  8
1
  6
Continuous
 62
     7
100
AcDbLine
 10
-12.54122412714975
 20
8.5767642116098
 30
0.0
 11
-15.79122412714975
 21
8.5767642116098
 31
0.0
  0
LINE
  5
5D
330
1F
100
AcDbEntity
  8
1
  6
Continuous
 62
     7
100
AcDbLine
 10
-21.24414299739291
 20
14.5767642116098
 30
0.0
 11
-22.44122412714961
 21
14.5767642116098
 31
0.0
  0
LINE
  5
5E
330
1F
100
AcDbEntity
  8
1
  6
Continuous
 62
     7
100
AcDbLine
 10
-21.24414299739284
 20
8.5767642116098
 30
0.0
 11
-22.44122412714961
 21
8.5767642116098
 31
0.0
  0
LINE
  5
5F
330
1F
100
AcDbEntity
  8
1
  6
Continuous
 62
     7
100
AcDbLine
 10
-9.04122412714975
 20
17.3267642116098
 30
0.0
 11
-9.04122412714975
 21
16.5767642116098
 31
0.0
  0
LINE
  5
60
330
1F
100
AcDbEntity
  8
1
  6
Continuous
 62
     7
100
AcDbLine
 10
-9.04122412714975
 20
6.5767642116098
 30
0.0
 11
-9.04122412714975
 21
4.5767642116098
 31
0.0
  0
LINE
  5
61
330
1F
100
AcDbEntity
  8
1
  6
Continuous
 62
     7
100
AcDbLine
 10
-9.04122412714975
 20
4.5767642116098
 30
0.0
 11
-12.54122412714975
 21
4.5767642116098
 31
0.0
  0
LINE
  5
62
330
1F
100
AcDbEntity
  8
1
  6
Continuous
 62
     7
100
AcDbLine
 10
-12.54122412714975
 20
4.5767642116098
 30
0.0
 11
-12.54122412714975
 21
8.5767642116098
 31
0.0
  0
LINE
  5
63
330
1F
100
AcDbEntity
  8
1
  6
Continuous
 62
     7
100
AcDbLine
 10
0.45877587285026
 20
14.5767642116098
 30
0.0
 11
0.45877587285025
 21
8.5767642116098
 31
0.0
  0
LINE
  5
64
330
1F
100
AcDbEntity
  8
1
  6
Continuous
 62
     7
100
AcDbLine
 10
0.45877587285025
 20
8.5767642116098
 30
0.0
 11
-3.04122412714975
 21
8.5767642116098
 31
0.0
  0
LINE
  5
65
330
1F
100
AcDbEntity
  8
1
  6
Continuous
 62
     7
100
AcDbLine
 10
-3.04122412714975
 20
6.5767642116098
 30
0.0
 11
-3.04122412714975
 21
16.5767642116098
 31
0.0
  0
LINE
  5
66
330
1F
100
AcDbEntity
  8
1
  6
Continuous
 62
     7
100
AcDbLine
 10
-3.04122412714975
 20
14.5767642116098
 30
0.0
 11
0.45877587285026
 21
14.5767642116098
 31
0.0
  0
LINE
  5
67
330
1F
100
AcDbEntity
  8
1
  6
DASHED
 62
     2
100
AcDbLine
 10
-1.04122412714975
 20
17.3267642116098
 30
0.0
 11
-1.04122412714975
 21
6.3267642116098
 31
0.0
  0
LINE
  5
68
330
1F
100
AcDbEntity
  8
1
  6
Continuous
 62
     7
100
AcDbLine
 10
-16.04122412714975
 20
4.3267642116098
 30
0.0
 11
-16.04122412714975
 21
2.8267642116098
 31
0.0
  0
LINE
  5
69
330
1F
100
AcDbEntity
  8
1
  6
Continuous
 62
     7
100
AcDbLine
 10
-1.04122412714975
 20
4.3267642116098
 30
0.0
 11
2.45877587285025
 21
4.3267642116098
 31
0.0
  0
LINE
  5
6A
330
1F
100
AcDbEntity
  8
1
  6
Continuous
 62
     7
100
AcDbLine
 10
3.95877587285025
 20
8.0767642116098
 30
0.0
 11
3.95877587285025
 21
15.0767642116098
 31
0.0
  0
LINE
  5
6B
330
1F
100
AcDbEntity
  8
1
  6
Continuous
 62
     7
100
AcDbLine
 10
2.45877587285025
 20
8.0767642116098
 30
0.0
 11
3.95877587285025
 21
8.0767642116098
 31
0.0
  0
LINE
  5
6C
330
1F
100
AcDbEntity
  8
1
  6
Continuous
 62
     7
100
AcDbLine
 10
3.95877587285025
 20
15.0767642116098
 30
0.0
 11
3.95877587285025
 21
30.32676421160983
 31
0.0
  0
LINE
  5
6D
330
1F
100
AcDbEntity
  8
1
  6
Continuous
 62
     7
100
AcDbLine
 10
2.45877587285025
 20
15.0767642116098
 30
0.0
 11
3.95877587285025
 21
15.0767642116098
 31
0.0
  0
LINE
  5
6E
330
1F
100
AcDbEntity
  8
1
  6
Continuous
 62
     7
100
AcDbLine
 10
2.45877587285025
 20
44.82676421160981
 30
0.0
 11
2.45877587285025
 21
44.32676421160981
 31
0.0
  0
LINE
  5
6F
330
1F
100
AcDbEntity
  8
1
  6
Continuous
 62
     7
100
AcDbLine
 10
18.5039378135882
 20
33.82676421160981
 30
0.0
 11
18.5039378135882
 21
55.11826704765311
 31
0.0
  0
LINE
  5
70
330
1F
100
AcDbEntity
  8
1
  6
Continuous
 62
     7
100
AcDbLine
 10
17.0039378135882
 20
33.82676421160981
 30
0.0
 11
17.0039378135882
 21
55.11826704765311
 31
0.0
  0
LINE
  5
71
330
1F
100
AcDbEntity
  8
1
  6
Continuous
 62
     7
100
AcDbLine
 10
16.9181513759613
 20
43.8091261214048
 30
0.0
 11
14.19016612846939
 21
34.0971885090655
 31
0.0
  0
LINE
  5
72
330
1F
100
AcDbEntity
  8
1
  6
Continuous
 62
     7
100
AcDbLine
 10
3.95877587285025
 20
46.32676421160981
 30
0.0
 11
14.98629972338334
 21
46.32676421160981
 31
0.0
  0
LINE
  5
73
330
1F
100
AcDbEntity
  8
1
  6
Continuous
 62
     7
100
AcDbLine
 10
4.45877587285026
 20
44.82676421160981
 30
0.0
 11
6.95877587285026
 21
44.82676421160981
 31
0.0
  0
LINE
  5
74
330
1F
100
AcDbEntity
  8
1
  6
Continuous
 62
     7
100
AcDbLine
 10
12.75236186852679
 20
34.49927286170978
 30
0.0
 11
14.57842550827029
 21
41.01747728373155
 31
0.0
  0
LINE
  5
75
330
1F
100
AcDbEntity
  8
1
  6
Continuous
 62
     7
100
AcDbLine
 10
15.16021070038549
 20
32.82679088127827
 30
0.0
 11
16.0039378135882
 21
32.82676421160983
 31
0.0
  0
LINE
  5
76
330
1F
100
AcDbEntity
  8
1
  6
Continuous
 62
     7
100
AcDbLine
 10
15.1601901248295
 20
31.33380742225518
 30
0.0
 11
16.0039378135882
 21
31.32676421160983
 31
0.0
  0
LINE
  5
77
330
1F
100
AcDbEntity
  8
1
  6
Continuous
 62
     7
100
AcDbLine
 10
3.95877587285025
 20
4.3267642116098
 30
0.0
 11
3.95877587285025
 21
8.0767642116098
 31
0.0
  0
LINE
  5
78
330
1F
100
AcDbEntity
  8
1
  6
Continuous
 62
     7
100
AcDbLine
 10
2.45877587285025
 20
2.8267642116098
 30
0.0
 11
-12.04122412714975
 21
2.8267642116098
 31
0.0
  0
LINE
  5
79
330
1F
100
AcDbEntity
  8
1
  6
Continuous
 62
     7
100
AcDbLine
 10
-12.04122412714975
 20
4.3267642116098
 30
0.0
 11
-12.04122412714975
 21
2.8267642116098
 31
0.0
  0
LINE
  5
7A
330
1F
100
AcDbEntity
  8
1
  6
Continuous
 62
     7
100
AcDbLine
 10
-24.04122412714973
 20
4.3267642116098
 30
0.0
 11
-19.29122412714975
 21
4.3267642116098
 31
0.0
  0
LINE
  5
7B
330
1F
100
AcDbEntity
  8
1
  6
Continuous
 62
     7
100
AcDbLine
 10
-24.54122412714973
 20
12.82676421160983
 30
0.0
 11
-24.54122412714973
 21
4.8267642116098
 31
0.0
  0
LINE
  5
7C
330
1F
100
AcDbEntity
  8
1
  6
Continuous
 62
     7
100
AcDbLine
 10
-26.04122412714973
 20
12.82676421160983
 30
0.0
 11
-26.04122412714973
 21
4.3267642116098
 31
0.0
  0
LINE
  5
7D
330
1F
100
AcDbEntity
  8
1
  6
Continuous
 62
     7
100
AcDbLine
 10
-24.54122412714973
 20
12.82676421160983
 30
0.0
 11
-26.04122412714973
 21
12.82676421160983
 31
0.0
  0
LINE
  5
7E
330
1F
100
AcDbEntity
  8
1
  6
Continuous
 62
     7
100
AcDbLine
 10
2.45877587285025
 20
44.32676421160981
 30
0.0
 11
2.45877587285025
 21
33.3267642116098
 31
0.0
  0
LINE
  5
7F
330
1F
100
AcDbEntity
  8
1
  6
DOT_CENTER
 62
     2
100
AcDbLine
 10
5.19126929380035
 20
11.5767642116098
 30
0.0
 11
2.45877587285024
 21
11.5767642116098
 31
0.0
  0
LINE
  5
80
330
1F
100
AcDbEntity
  8
1
  6
Continuous
 62
     7
100
AcDbLine
 10
2.45877587285025
 20
4.3267642116098
 30
0.0
 11
2.45877587285025
 21
6.3267642116098
 31
0.0
  0
LINE
  5
81
330
1F
100
AcDbEntity
  8
1
  6
Continuous
 62
     7
100
AcDbLine
 10
6.95877587285026
 20
44.82676421160981
 30
0.0
 11
11.68964468093752
 21
44.82676421160981
 31
0.0
  0
LINE
  5
82
330
1F
100
AcDbEntity
  8
1
  6
Continuous
 62
     7
100
AcDbLine
 10
3.95877587285025
 20
41.82676421160981
 30
0.0
 11
3.95877587285025
 21
44.32676421160981
 31
0.0
  0
LINE
  5
83
330
1F
100
AcDbEntity
  8
1
  6
Continuous
 62
     7
100
AcDbLine
 10
11.68964468093752
 20
44.82676421160981
 30
0.0
 11
14.98629972338334
 21
44.82676421160981
 31
0.0
  0
LINE
  5
84
330
1F
100
AcDbEntity
  8
1
  6
Continuous
 62
     7
100
AcDbLine
 10
14.57842550827029
 20
41.01747728373155
 30
0.0
 11
15.46926263652783
 21
44.19735468905854
 31
0.0
  0
LINE
  5
85
330
1F
100
AcDbEntity
  8
1
  6
Continuous
 62
     7
100
AcDbLine
 10
3.95877587285025
 20
30.32676421160983
 30
0.0
 11
3.95877587285025
 21
41.82676421160981
 31
0.0
  0
LINE
  5
86
330
1F
100
AcDbEntity
  8
1
  6
Continuous
 62
     7
100
AcDbLine
 10
5.95877587285026
 20
28.32676421160983
 30
0.0
 11
12.33568244170715
 21
28.32676421160983
 31
0.0
  0
LINE
  5
87
330
1F
100
AcDbEntity
  8
1
  6
Continuous
 62
     7
100
AcDbLine
 10
4.95877587285026
 20
30.32676421160983
 30
0.0
 11
4.95877587285026
 21
41.82676421160981
 31
0.0
  0
LINE
  5
88
330
1F
100
AcDbEntity
  8
1
  6
Continuous
 62
     7
100
AcDbLine
 10
6.95877587285026
 20
43.82676421160981
 30
0.0
 11
11.68964468093752
 21
43.82676421160981
 31
0.0
  0
LINE
  5
89
330
1F
100
AcDbEntity
  8
1
  6
Continuous
 62
     7
100
AcDbLine
 10
11.78943492608254
 20
34.76903517100254
 30
0.0
 11
13.61549856582603
 21
41.28723959302431
 31
0.0
  0
LINE
  5
8A
330
1F
100
AcDbEntity
  8
1
  6
Continuous
 62
     7
100
AcDbLine
 10
5.95877587285026
 20
29.32676421160983
 30
0.0
 11
12.33568244170715
 21
29.32676421160983
 31
0.0
  0
LINE
  5
8B
330
1F
100
AcDbEntity
  8
1
  6
Continuous
 62
     7
100
AcDbLine
 10
-9.04122412714975
 20
17.3267642116098
 30
0.0
 11
-1.04122412714975
 21
17.3267642116098
 31
0.0
  0
LINE
  5
8C
330
1F
100
AcDbEntity
  8
1
  6
Continuous
 62
     7
100
AcDbLine
 10
2.45877587285025
 20
15.0767642116098
 30
0.0
 11
2.45877587285025
 21
33.3267642116098
 31
0.0
  0
LINE
  5
8D
330
1F
100
AcDbEntity
  8
1
  6
Continuous
 62
     7
100
AcDbLine
 10
2.45877587285025
 20
8.0767642116098
 30
0.0
 11
2.45877587285025
 21
15.0767642116098
 31
0.0
  0
LINE
  5
8E
330
1F
100
AcDbEntity
  8
1
  6
Continuous
 62
     7
100
AcDbLine
 10
-12.04122412714975
 20
4.3267642116098
 30
0.0
 11
-12.54122412714975
 21
4.3267642116098
 31
0.0
  0
LINE
  5
8F
330
1F
100
AcDbEntity
  8
1
  6
Continuous
 62
     7
100
AcDbLine
 10
-12.04122412714975
 20
2.8267642116098
 30
0.0
 11
-16.04122412714975
 21
2.8267642116098
 31
0.0
  0
LINE
  5
90
330
1F
100
AcDbEntity
  8
1
  6
Continuous
 62
     7
100
AcDbLine
 10
-16.04122412714975
 20
4.3267642116098
 30
0.0
 11
-19.29122412714975
 21
4.3267642116098
 31
0.0
  0
LINE
  5
91
330
1F
100
AcDbEntity
  8
1
  6
Continuous
 62
     7
100
AcDbLine
 10
-16.04122412714975
 20
2.8267642116098
 30
0.0
 11
-24.54122412714973
 21
2.8267642116098
 31
0.0
  0
LINE
  5
92
330
1F
100
AcDbEntity
  8
1
  6
DASHED
 62
     2
100
AcDbLine
 10
-8.10006985396173
 20
11.5767642116098
 30
0.0
 11
-6.54122412714975
 21
14.27676421160979
 31
0.0
  0
LINE
  5
93
330
1F
100
AcDbEntity
  8
1
  6
DASHED
 62
     2
100
AcDbLine
 10
-3.04122412714975
 20
13.27676421160979
 30
0.0
 11
-6.54122412714975
 21
13.27676421160979
 31
0.0
  0
LINE
  5
94
330
1F
100
AcDbEntity
  8
1
  6
DASHED
 62
     2
100
AcDbLine
 10
-6.54122412714975
 20
8.87676421160979
 30
0.0
 11
-6.54122412714975
 21
14.27676421160979
 31
0.0
  0
LINE
  5
95
330
1F
100
AcDbEntity
  8
1
  6
DASHED
 62
     2
100
AcDbLine
 10
-6.54122412714975
 20
14.27676421160979
 30
0.0
 11
-3.04122412714975
 21
14.27676421160979
 31
0.0
  0
LINE
  5
96
330
1F
100
AcDbEntity
  8
1
  6
DASHED
 62
     2
100
AcDbLine
 10
-3.04122412714975
 20
9.87676421160978
 30
0.0
 11
-6.54122412714975
 21
9.87676421160978
 31
0.0
  0
LINE
  5
97
330
1F
100
AcDbEntity
  8
1
  6
DASHED
 62
     2
100
AcDbLine
 10
-3.04122412714975
 20
8.87676421160979
 30
0.0
 11
-6.54122412714975
 21
8.87676421160979
 31
0.0
  0
LINE
  5
98
330
1F
100
AcDbEntity
  8
1
  6
DASHED
 62
     2
100
AcDbLine
 10
-6.54122412714975
 20
8.87676421160979
 30
0.0
 11
-8.10006985396173
 21
11.5767642116098
 31
0.0
  0
ARC
  5
99
330
1F
100
AcDbEntity
  8
1
  6
Continuous
 62
     7
100
AcDbCircle
 10
1.45877587285014
 20
18.3267642116098
 30
0.0
 40
1.0
100
AcDbArc
 50
-90.0
 51
0.0
  0
ARC
  5
9A
330
1F
100
AcDbEntity
  8
1
  6
Continuous
 62
     7
100
AcDbCircle
 10
15.15290737062399
 20
33.82676421160981
 30
0.0
 40
2.492967427003053
100
AcDbArc
 50
-128.8313325026447
 51
-89.83262048745787
  0
ARC
  5
9B
330
1F
100
AcDbEntity
  8
1
  6
Continuous
 62
     7
100
AcDbCircle
 10
15.15290737062399
 20
33.82676421160981
 30
0.0
 40
0.9999999999998908
100
AcDbArc
 50
164.3104834256023
 51
-89.58154630826007
  0
ARC
  5
9C
330
1F
100
AcDbEntity
  8
1
  6
Continuous
 62
     7
100
AcDbCircle
 10
6.95877587285026
 20
41.82676421160981
 30
0.0
 40
3.0
100
AcDbArc
 50
90.0
 51
180.0
  0
ARC
  5
9D
330
1F
100
AcDbEntity
  8
1
  6
Continuous
 62
     7
100
AcDbCircle
 10
11.68964468093752
 20
41.82676421160981
 30
0.0
 40
3.000000000000006
100
AcDbArc
 50
-15.65012336363131
 51
90.0
  0
ARC
  5
9E
330
1F
100
AcDbEntity
  8
1
  6
Continuous
 62
     7
100
AcDbCircle
 10
5.95877587285026
 20
30.32676421160983
 30
0.0
 40
2.0
100
AcDbArc
 50
180.0
 51
-90.0
  0
ARC
  5
9F
330
1F
100
AcDbEntity
  8
1
  6
Continuous
 62
     7
100
AcDbCircle
 10
12.33568244170715
 20
30.32676421160983
 30
0.0
 40
2.0
100
AcDbArc
 50
-90.0
 51
51.16866749735521
  0
ARC
  5
A0
330
1F
100
AcDbEntity
  8
1
  6
Continuous
 62
     7
100
AcDbCircle
 10
15.15290737062399
 20
33.82676421160981
 30
0.0
 40
2.492967427003082
100
AcDbArc
 50
164.3498766363687
 51
-128.8313325026447
  0
ARC
  5
A1
330
1F
100
AcDbEntity
  8
1
  6
Continuous
 62
     7
100
AcDbCircle
 10
5.95877587285026
 20
30.32676421160983
 30
0.0
 40
1.0
100
AcDbArc
 50
180.0
 51
-90.0
  0
ARC
  5
A2
330
1F
100
AcDbEntity
  8
1
  6
Continuous
 62
     7
100
AcDbCircle
 10
6.95877587285026
 20
41.82676421160981
 30
0.0
 40
2.0
100
AcDbArc
 50
90.0
 51
180.0
  0
ARC
  5
A3
330
1F
100
AcDbEntity
  8
1
  6
Continuous
 62
     7
100
AcDbCircle
 10
11.68964468093752
 20
41.82676421160981
 30
0.0
 40
2.0
100
AcDbArc
 50
-15.65012336363119
 51
90.0
  0
ARC
  5
A4
330
1F
100
AcDbEntity
  8
1
  6
Continuous
 62
     7
100
AcDbCircle
 10
15.15290737062399
 20
33.82676421160981
 30
0.0
 40
3.492967427003081
100
AcDbArc
 50
164.3498766363685
 51
-128.8313325026446
  0
ARC
  5
A5
330
1F
100
AcDbEntity
  8
1
  6
Continuous
 62
     7
100
AcDbCircle
 10
12.33568244170715
 20
30.32676421160983
 30
0.0
 40
1.0
100
AcDbArc
 50
-90.0
 51
51.16866749735464
  0
SPLINE
  5
A6
330
1F
100
AcDbEntity
  8
1
  6
Continuous
 62
     7
100
AcDbSpline
210
0.0
220
0.0
230
1.0
 70
     8
 71
     3
 72
    21
 73
    17
 74
    15
 42
0.0000000001
 43
0.0000000001
 44
0.00000001
 40
0.0
 40
0.0
 40
0.0
 40
0.0
 40
0.2055941652648824
 40
0.3664905725465417
 40
0.5282493060459513
 40
0.6720983026135928
 40
0.7797807341074539
 40
0.8857064111210214
 40
0.9882327233805432
 40
1.109598171382103
 40
1.203206969204873
 40
1.293002544244294
 40
1.416894134578881
 40
1.532052433088424
 40
1.63651490300633
 40
1.759431153385616
 40
1.759431153385616
 40
1.759431153385616
 40
1.759431153385616
 10
17.0039378135882
 20
55.11826704765311
 30
0.0
 10
17.05636687411704
 20
55.07468684909801
 30
0.0
 10
17.14982651285015
 20
54.99700112343755
 30
0.0
 10
17.34964793349903
 20
54.96452900332687
 30
0.0
 10
17.4475534475783
 20
55.09453453190529
 30
0.0
 10
17.57703667651013
 20
55.18940945840973
 30
0.0
 10
17.68455320334875
 20
55.11869674988387
 30
0.0
 10
17.78409904048407
 20
55.06031099059417
 30
0.0
 10
17.88671050111119
 20
55.13433308710054
 30
0.0
 10
17.94579943923888
 20
55.2102117615612
 30
0.0
 10
18.03403860055158
 20
55.29382691580683
 30
0.0
 10
18.13170120077855
 20
55.22040904258354
 30
0.0
 10
18.19164634312977
 20
55.13824187416883
 30
0.0
 10
18.27881565475063
 20
55.04854659529127
 30
0.0
 10
18.40256288903819
 20
55.06112771452534
 30
0.0
 10
18.46836600510888
 20
55.09821722346159
 30
0.0
 10
18.5039378135882
 20
55.11826704765311
 30
0.0
 11
17.0039378135882
 21
55.11826704765311
 31
0.0
 11
17.17544095518892
 21
55.00488436285492
 31
0.0
 11
17.33581043548314
 21
54.99187345718671
 31
0.0
 11
17.4601675953301
 21
55.09531998761732
 31
0.0
 11
17.58733788632024
 21
55.16255279882584
 31
0.0
 11
17.68584716521483
 21
55.11906224785098
 31
0.0
 11
17.78496659769114
 21
55.08170468962835
 31
0.0
 11
17.87498019679497
 21
55.13078825797777
 31
0.0
 11
17.95805129496882
 21
55.21926856435614
 31
0.0
 11
18.03649404852824
 21
55.27035027775575
 31
0.0
 11
18.11575123653514
 21
55.22814194391161
 31
0.0
 11
18.1978272882384
 21
55.13533759114496
 31
0.0
 11
18.28802149936409
 21
55.06373844314005
 31
0.0
 11
18.39244704744969
 21
55.06651558706357
 31
0.0
 11
18.5039378135882
 21
55.11826704765311
 31
0.0
  0
ARC
  5
A7
330
1F
100
AcDbEntity
  8
1
  6
Continuous
 62
     7
100
AcDbCircle
 10
-20.29122412714975
 20
8.8799895844509
 30
0.0
 40
0.9999999999999936
100
AcDbArc
 50
-162.3485701015871
 51
-104.9999999999941
  0
ARC
  5
A8
330
1F
100
AcDbEntity
  8
1
  6
Continuous
 62
     7
100
AcDbCircle
 10
-20.29122412714975
 20
14.27353883876893
 30
0.0
 40
0.9999999999997831
100
AcDbArc
 50
104.9999999999974
 51
162.3485701016008
  0
ARC
  5
A9
330
1F
100
AcDbEntity
  8
1
  6
Continuous
 62
     7
100
AcDbCircle
 10
3.95877587285025
 20
44.82676421160981
 30
0.0
 40
1.5
100
AcDbArc
 50
90.0
 51
180.0
  0
ARC
  5
AA
330
1F
100
AcDbEntity
  8
1
  6
Continuous
 62
     7
100
AcDbCircle
 10
16.0039378135882
 20
33.82676421160981
 30
0.0
 40
2.499999999999982
100
AcDbArc
 50
-90.0
 51
0.0
  0
ARC
  5
AB
330
1F
100
AcDbEntity
  8
1
  6
Continuous
 62
     7
100
AcDbCircle
 10
14.98629972338334
 20
44.32676421160981
 30
0.0
 40
0.4999999999999603
100
AcDbArc
 50
-15.00000000000243
 51
90.0
  0
ARC
  5
AC
330
1F
100
AcDbEntity
  8
1
  6
Continuous
 62
     7
100
AcDbCircle
 10
16.0039378135882
 20
33.82676421160981
 30
0.0
 40
0.9999999999999858
100
AcDbArc
 50
-90.0
 51
0.0
  0
ARC
  5
AD
330
1F
100
AcDbEntity
  8
1
  6
Continuous
 62
     7
100
AcDbCircle
 10
14.98629972338334
 20
44.32676421160981
 30
0.0
 40
1.999999999999823
100
AcDbArc
 50
-15.00000000000046
 51
90.0
  0
ARC
  5
AE
330
1F
100
AcDbEntity
  8
1
  6
Continuous
 62
     7
100
AcDbCircle
 10
4.45877587285026
 20
44.32676421160981
 30
0.0
 40
0.5
100
AcDbArc
 50
90.0
 51
180.0
  0
ARC
  5
AF
330
1F
100
AcDbEntity
  8
1
  6
Continuous
 62
     7
100
AcDbCircle
 10
2.45877587285025
 20
4.3267642116098
 30
0.0
 40
1.5
100
AcDbArc
 50
-90.0
 51
0.0
  0
ARC
  5
B0
330
1F
100
AcDbEntity
  8
1
  6
Continuous
 62
     7
100
AcDbCircle
 10
-24.54122412714973
 20
4.3267642116098
 30
0.0
 40
1.5
100
AcDbArc
 50
180.0
 51
-90.0
  0
ARC
  5
B1
330
1F
100
AcDbEntity
  8
1
  6
Continuous
 62
     7
100
AcDbCircle
 10
-24.04122412714973
 20
4.8267642116098
 30
0.0
 40
0.5
100
AcDbArc
 50
180.0
 51
-90.0
  0
DIMENSION
  5
C0
330
1F
100
AcDbEntity
  8
1
100
AcDbDimension
  2
*D1
 10
24.29988328014317
 20
2.8267642116098
 30
0.0
 11
20.54284855183407
 21
19.0170588367177
 31
0.0
 70
    32
  1
<>
 71
     5
 42
-1.0
 53
90.0
  3
ME10_DIM_10
100
AcDbAlignedDimension
 13
5.19126929380035
 23
11.5767642116098
 33
0.0
 14
2.45877587285025
 24
2.8267642116098
 34
0.0
 50
90.0
100
AcDbRotatedDimension
  0
DIMENSION
  5
CD
330
1F
100
AcDbEntity
  8
1
100
AcDbDimension
  2
*D2
 10
12.72836389107258
 20
15.0767642116098
 30
0.0
 11
8.97836389107258
 21
20.81269938488889
 31
0.0
 70
    32
  1
<>
 71
     5
 42
-1.0
 53
90.0
  3
ME10_DIM_11
100
AcDbAlignedDimension
 13
3.95877587285025
 23
8.0767642116098
 33
0.0
 14
2.45877587285025
 24
15.0767642116098
 34
0.0
 50
90.0
100
AcDbRotatedDimension
  0
DIMENSION
  5
D8
330
1F
100
AcDbEntity
  8
1
100
AcDbDimension
  2
*D3
 10
-23.04122412714975
 20
56.112933445996
 30
0.0
 11
-13.1651857343373
 21
59.862933445996
 31
0.0
 70
    32
  1
<>
 71
     5
 42
-1.0
 53
0.00013888888889
  3
ME10_DIM_12
100
AcDbAlignedDimension
 13
2.45877587285025
 23
44.32676421160981
 33
0.0
 14
-23.04122412714975
 24
13.97676421160989
 34
0.0
100
AcDbRotatedDimension
  0
DIMENSION
  5
E3
330
1F
100
AcDbEntity
  8
1
100
AcDbDimension
  2
*D4
 10
-35.8411028116382
 20
4.3267642116098
 30
0.0
 11
-39.5911028116382
 21
11.7134745553734
 31
0.0
 70
    32
  1
<>
 71
     5
 42
-1.0
 53
90.0
  3
ME10_DIM_13
100
AcDbAlignedDimension
 13
-19.29122412714975
 23
17.3267642116098
 33
0.0
 14
-24.04122412714973
 24
4.3267642116098
 34
0.0
 50
90.0
100
AcDbRotatedDimension
  0
DIMENSION
  5
EE
330
1F
100
AcDbEntity
  8
1
100
AcDbDimension
  2
*D5
 10
-46.0278112826017
 20
4.3267642116098
 30
0.0
 11
-49.7778112826017
 21
20.4975580195682
 31
0.0
 70
    32
  1
<>
 71
     5
 42
-1.0
 53
90.0
  3
ME10_DIM_14
100
AcDbAlignedDimension
 13
-1.04122412714975
 23
33.3267642116098
 33
0.0
 14
-24.04122412714973
 24
4.3267642116098
 34
0.0
 50
90.0
100
AcDbRotatedDimension
  0
DIMENSION
  5
F9
330
1F
100
AcDbEntity
  8
1
100
AcDbDimension
  2
*D6
 10
3.95877587285025
 20
-7.306723632521
 30
0.0
 11
-5.18611009945562
 21
-3.556723632521
 31
0.0
 70
    32
  1
<>
 71
     5
 42
-1.0
 53
0.00013888888889
  3
ME10_DIM_15
100
AcDbAlignedDimension
 13
-12.04122412714975
 23
2.8267642116098
 33
0.0
 14
3.95877587285025
 24
4.3267642116098
 34
0.0
100
AcDbRotatedDimension
  0
DIMENSION
  5
106
330
1F
100
AcDbEntity
  8
1
100
AcDbDimension
  2
*D7
 10
-12.04122412714975
 20
-7.306723632521
 30
0.0
 11
-14.04122412714975
 21
-3.556723632521
 31
0.0
 70
    32
  1
<>
 71
     5
 42
-1.0
 53
0.00013888888889
  3
ME10_DIM_16
100
AcDbAlignedDimension
 13
-16.04122412714975
 23
2.8267642116098
 33
0.0
 14
-12.04122412714975
 24
2.8267642116098
 34
0.0
100
AcDbRotatedDimension
  0
ENDSEC
  0
SECTION
  2
OBJECTS
  0
DICTIONARY
  5
C
330
0
100
AcDbDictionary
281
     1
  3
ACAD_GROUP
350
D
  3
ACAD_LAYOUT
350
1A
  3
ACAD_MLINESTYLE
350
17
  3
ACAD_PLOTSETTINGS
350
19
  3
ACAD_PLOTSTYLENAME
350
E
  0
DICTIONARY
  5
D
102
{ACAD_REACTORS
330
C
102
}
330
C
100
AcDbDictionary
281
     1
  0
DICTIONARY
  5
1A
102
{ACAD_REACTORS
330
C
102
}
330
C
100
AcDbDictionary
281
     1
  3
Layout1
350
1E
  3
Layout2
350
26
  3
Model
350
22
  0
DICTIONARY
  5
17
102
{ACAD_REACTORS
330
C
102
}
330
C
100
AcDbDictionary
281
     1
  3
Standard
350
18
  0
DICTIONARY
  5
19
102
{ACAD_REACTORS
330
C
102
}
330
C
100
AcDbDictionary
281
     1
  0
ACDBDICTIONARYWDFLT
  5
E
102
{ACAD_REACTORS
330
C
102
}
330
C
100
AcDbDictionary
281
     1
  3
Normal
350
F
100
AcDbDictionaryWithDefault
340
F
  0
LAYOUT
  5
1E
102
{ACAD_REACTORS
330
1A
102
}
330
1A
100
AcDbPlotSettings
  1

  2

  4

  6

 40
0.0
 41
0.0
 42
0.0
 43
0.0
 44
0.0
 45
0.0
 46
0.0
 47
0.0
 48
0.0
 49
0.0
140
0.0
141
0.0
142
1.0
143
1.0
 70
   688
 72
     0
 73
     0
 74
     5
  7

 75
    16
 76
     0
 77
     2
 78
   300
147
1.0
148
0.0
149
0.0
100
AcDbLayout
  1
Layout1
 70
     1
 71
     1
 10
0.0
 20
0.0
 11
0.0
 21
0.0
 12
0.0
 22
0.0
 32
0.0
 14
0.0
 24
0.0
 34
0.0
 15
0.0
 25
0.0
 35
0.0
146
0.0
 13
0.0
 23
0.0
 33
0.0
 16
1.0
 26
0.0
 36
0.0
 17
0.0
 27
1.0
 37
0.0
 76
     0
330
1B
  0
LAYOUT
  5
26
102
{ACAD_REACTORS
330
1A
102
}
330
1A
100
AcDbPlotSettings
  1

  2

  4

  6

 40
0.0
 41
0.0
 42
0.0
 43
0.0
 44
0.0
 45
0.0
 46
0.0
 47
0.0
 48
0.0
 49
0.0
140
0.0
141
0.0
142
1.0
143
1.0
 70
   688
 72
     0
 73
     0
 74
     5
  7

 75
    16
 76
     0
 77
     2
 78
   300
147
1.0
148
0.0
149
0.0
100
AcDbLayout
  1
Layout2
 70
     1
 71
     2
 10
0.0
 20
0.0
 11
0.0
 21
0.0
 12
0.0
 22
0.0
 32
0.0
 14
0.0
 24
0.0
 34
0.0
 15
0.0
 25
0.0
 35
0.0
146
0.0
 13
0.0
 23
0.0
 33
0.0
 16
1.0
 26
0.0
 36
0.0
 17
0.0
 27
1.0
 37
0.0
 76
     0
330
23
  0
LAYOUT
  5
22
102
{ACAD_REACTORS
330
1A
102
}
330
1A
100
AcDbPlotSettings
  1

  2

  4

  6

 40
0.0
 41
0.0
 42
0.0
 43
0.0
 44
0.0
 45
0.0
 46
0.0
 47
0.0
 48
0.0
 49
0.0
140
0.0
141
0.0
142
1.0
143
1.0
 70
  1712
 72
     0
 73
     0
 74
     0
  7

 75
     0
 76
     0
 77
     2
 78
   300
147
1.0
148
0.0
149
0.0
100
AcDbLayout
  1
Model
 70
     1
 71
     0
 10
0.0
 20
0.0
 11
0.0
 21
0.0
 12
0.0
 22
0.0
 32
0.0
 14
-51.5278112826017
 24
-9.306723632521
 34
0.0
 15
26.29988328014317
 25
61.612933445996
 35
0.0
146
0.0
 13
0.0
 23
0.0
 33
0.0
 16
1.0
 26
0.0
 36
0.0
 17
0.0
 27
1.0
 37
0.0
 76
     0
330
1F
  0
MLINESTYLE
  5
18
102
{ACAD_REACTORS
330
17
102
}
330
17
100
AcDbMlineStyle
  2
Standard
 70
     0
  3

 62
   256
 51
90.0
 52
90.0
 71
     2
 49
0.5
 62
   256
  6
BYLAYER
 49
-0.5
 62
   256
  6
BYLAYER
  0
ACDBPLACEHOLDER
  5
F
102
{ACAD_REACTORS
330
E
102
}
330
E
  0
ENDSEC
  0
EOF
